<?xml version="1.0" standalone="no"?>
<!DOCTYPE svg PUBLIC "-//W3C//DTD SVG 1.1//EN" "http://www.w3.org/Graphics/SVG/1.1/DTD/svg11.dtd" >
<svg xmlns="http://www.w3.org/2000/svg" xmlns:xlink="http://www.w3.org/1999/xlink" version="1.1">
<metadata>
Created by FontForge 20201107 at Tue Jun 10 09:23:08 2014
 By 
Copyright (c) 2008-2014, Andrey V. Panov (panov@canopus.iacp.dvo.ru), with Reserved Font Name Istok
</metadata>
<defs>
<font id="IstokWeb-Bold" horiz-adv-x="0" >
  <font-face 
    font-family="Istok Web"
    font-weight="700"
    font-stretch="normal"
    units-per-em="2048"
    panose-1="2 15 7 3 3 4 3 2 2 4"
    ascent="1638"
    descent="-410"
    x-height="1050"
    cap-height="1434"
    bbox="-1225 -612.557 3335 2061"
    underline-thickness="102"
    underline-position="-306"
    unicode-range="U+0020-FB02"
  />
<missing-glyph horiz-adv-x="1260" 
d="M200 0q-60 0 -60 60v1314q0 60 52 60h868q60 0 60 -60v-1314q0 -60 -60 -60h-860zM320 180h620v1074h-620v-1074z" />
    <glyph glyph-name="igrave" unicode="i&#x300;" horiz-adv-x="552" 
d="M93 1376q-52 59 22 59h152q78 0 106 -47l108 -179q36 -59 -21 -59h-101q-69 0 -101 37zM196 0q-60 0 -60 60v930q0 60 60 60h160q60 0 60 -60v-930q0 -60 -60 -60h-160z" />
    <glyph glyph-name="iacute" unicode="&#x456;&#x301;" horiz-adv-x="552" 
d="M180 1150q-57 0 -21 59l108 179q28 47 106 47h152q74 0 22 -59l-165 -189q-32 -37 -101 -37h-101zM196 0q-60 0 -60 60v930q0 60 60 60h160q60 0 60 -60v-930q0 -60 -60 -60h-160z" />
    <glyph glyph-name="icircumflex" unicode="i&#x302;" horiz-adv-x="552" 
d="M-10 1186q-29 41 21 76l207 145q39 27 68 27h38q29 0 68 -27l207 -145q50 -35 21 -76l-25 -36q-30 -41 -78 -6l-211 151h-2l-211 -151q-49 -35 -78 6zM196 0q-60 0 -60 60v930q0 60 60 60h160q60 0 60 -60v-930q0 -60 -60 -60h-160z" />
    <glyph glyph-name="idieresis" unicode="i&#x308;" horiz-adv-x="552" 
d="M196 0q-60 0 -60 60v930q0 60 60 60h160q60 0 60 -60v-930q0 -60 -60 -60h-160zM43 1210q-60 0 -60 60v108q0 60 60 60h108q60 0 60 -60v-108q0 -60 -60 -60h-108zM401 1210q-60 0 -60 60v108q0 60 60 60h108q60 0 60 -60v-108q0 -60 -60 -60h-108z" />
    <glyph glyph-name="Aogonek" unicode="A&#x328;" horiz-adv-x="1394" 
d="M115 0q-72 0 -47 66l490 1287q31 81 94 81h140q63 0 94 -81l490 -1287q21 -55 -29 -72q-20 -7 -107 -73t-87 -97t23.5 -39.5t55.5 -8.5q50 0 81 5q36 6 40 -31l14 -118q4 -36 -34 -43q-44 -9 -134 -9q-141 0 -211.5 44t-70.5 129q0 34 10.5 69t42.5 75.5t102 102.5
q24 22 6 69l-102 269h-508l-102 -269q-26 -69 -92 -69h-159zM561 586h322l-123 318q-22 56 -26.5 81.5t-9.5 75.5h-4q-5 -50 -9.5 -75.5t-26.5 -81.5z" />
    <glyph glyph-name="imacron" unicode="i&#x304;" horiz-adv-x="552" 
d="M7 1226q-60 0 -60 50v66q0 50 60 50h538q60 0 60 -50v-66q0 -50 -60 -50h-538zM196 0q-60 0 -60 60v930q0 60 60 60h160q60 0 60 -60v-930q0 -60 -60 -60h-160z" />
    <glyph glyph-name="ibreve" unicode="i&#x306;" horiz-adv-x="552" 
d="M-33 1350q-20 43 10 60l64 36q36 20 56 -21q26 -53 75.5 -90t123.5 -37t123.5 37t75.5 90q20 41 56 21l64 -36q30 -17 10 -60q-50 -110 -129 -165t-200 -55t-200 55t-129 165zM196 0q-60 0 -60 60v930q0 60 60 60h160q60 0 60 -60v-930q0 -60 -60 -60h-160z" />
    <glyph glyph-name="jcircumflex" unicode="j&#x302;" horiz-adv-x="562" 
d="M0 1186q-29 41 21 76l207 145q39 27 68 27h38q29 0 68 -27l207 -145q50 -35 21 -76l-25 -36q-30 -41 -78 -6l-211 151h-2l-211 -151q-49 -35 -78 6zM-72 -409q-38 7 -29 52l22 110q9 46 51 30q18 -7 72 -7q63 0 87 66t24 184v964q0 60 60 60h160q60 0 60 -60v-994
q0 -248 -97 -332t-259 -84q-90 0 -151 11z" />
    <glyph glyph-name="uni01D0" unicode="i&#x30c;" horiz-adv-x="552" 
d="M11 1310q-50 35 -21 76l25 36q30 41 78 6l211 -151h2l211 151q49 35 78 -6l25 -36q29 -41 -21 -76l-207 -145q-39 -27 -68 -27h-38q-29 0 -68 27zM196 0q-60 0 -60 60v930q0 60 60 60h160q60 0 60 -60v-930q0 -60 -60 -60h-160z" />
    <glyph glyph-name="uni01F0" unicode="j&#x30c;" horiz-adv-x="562" 
d="M21 1310q-50 35 -21 76l25 36q30 41 78 6l211 -151h2l211 151q49 35 78 -6l25 -36q29 -41 -21 -76l-207 -145q-39 -27 -68 -27h-38q-29 0 -68 27zM-72 -409q-38 7 -29 52l22 110q9 46 51 30q18 -7 72 -7q63 0 87 66t24 184v964q0 60 60 60h160q60 0 60 -60v-994
q0 -248 -97 -332t-259 -84q-90 0 -151 11z" />
    <glyph glyph-name="fi" unicode="fi" horiz-adv-x="1214" 
d="M101 850q-59 0 -59 50v100q0 50 59 50h56v76q0 209 131.5 289.5t348.5 80.5q107 0 187 -17t138 -51q32 -19 12 -55l-62 -113q-15 -27 -50 -7q-28 16 -80.5 31.5t-135.5 15.5q-112 0 -160.5 -51.5t-48.5 -162.5v-36h581q60 0 60 -60v-930q0 -60 -60 -60h-160q-60 0 -60 60
v790h-361v-790q0 -60 -60 -60h-160q-60 0 -60 60v790h-56z" />
    <glyph glyph-name="fl" unicode="fl" horiz-adv-x="1214" 
d="M101 850q-59 0 -59 50v100q0 50 59 50h56v76q0 188 112 279t368 91q164 0 266.5 -34t174.5 -85v-1317q0 -60 -60 -60h-160q-60 0 -60 60v1196q-26 16 -58 30t-94 14q-109 0 -159 -48.5t-50 -165.5v-36h124q59 0 59 -50v-100q0 -50 -59 -50h-124v-790q0 -60 -60 -60h-160
q-60 0 -60 60v790h-56z" />
    <glyph glyph-name=".notdef" horiz-adv-x="1260" 
d="M200 0q-60 0 -60 60v1314q0 60 52 60h868q60 0 60 -60v-1314q0 -60 -60 -60h-860zM320 180h620v1074h-620v-1074z" />
    <glyph glyph-name=".notdef" horiz-adv-x="1260" 
d="M200 0q-60 0 -60 60v1314q0 60 52 60h868q60 0 60 -60v-1314q0 -60 -60 -60h-860zM320 180h620v1074h-620v-1074z" />
    <glyph glyph-name=".null" 
 />
    <glyph glyph-name="nonmarkingreturn" horiz-adv-x="682" 
 />
    <glyph glyph-name="space" unicode=" " horiz-adv-x="700" 
 />
    <glyph glyph-name="exclam" unicode="!" horiz-adv-x="668" 
d="M186 1359q-2 75 70 75h160q72 0 70 -75l-27 -874q-2 -65 -65 -65h-116q-63 0 -65 65zM260 0q-70 0 -70 75v134q0 75 70 75h152q70 0 70 -75v-134q0 -75 -70 -75h-152z" />
    <glyph glyph-name="quotedbl" unicode="&#x22;" horiz-adv-x="976" 
d="M135 1404q-3 65 51 65h174q54 0 51 -65l-24 -520q-3 -60 -50 -60h-128q-47 0 -50 60zM571 1404q-3 65 51 65h174q54 0 51 -65l-24 -520q-3 -60 -50 -60h-128q-47 0 -50 60z" />
    <glyph glyph-name="numbersign" unicode="#" horiz-adv-x="1416" 
d="M137 344q-60 0 -52 50l15 80q9 50 68 50h181l65 374h-180q-59 0 -51 50l14 80q9 50 69 50h180l50 284q11 60 61 60h86q50 0 39 -60l-50 -284h298l50 284q11 60 61 60h86q50 0 39 -60l-50 -284h180q59 0 51 -50l-14 -80q-9 -50 -69 -50h-180l-65 -374h179q60 0 52 -50
l-15 -80q-9 -50 -68 -50h-180l-50 -284q-11 -60 -61 -60h-86q-50 0 -39 60l50 284h-298l-50 -284q-11 -60 -61 -60h-86q-50 0 -39 60l50 284h-180zM535 524h298l65 374h-298z" />
    <glyph glyph-name="dollar" unicode="$" horiz-adv-x="1200" 
d="M172 84q-72 65 -36 116l69 98q34 48 104 -10q54 -45 128.5 -68.5t128.5 -30.5v423q-79 29 -169 79q-46 26 -100.5 81.5t-87.5 128.5t-33 181q0 142 80 233t150 111.5t160 27.5v102q0 60 50 60h80q50 0 50 -60v-102q72 -9 150 -40t127 -67q58 -43 27 -90l-68 -104
q-36 -54 -86 -8q-38 35 -78 52t-72 26v-390q83 -29 170 -74q64 -33 110 -80t77.5 -117t31.5 -189q0 -133 -58.5 -222t-137.5 -130t-193 -53v-118q0 -60 -50 -60h-80q-50 0 -50 60v118q-102 5 -215.5 30.5t-178.5 85.5zM432 1084q0 -72 30 -109t62 -52q17 -8 42 -18v324
q-55 -10 -94.5 -48.5t-39.5 -96.5zM746 192q37 11 83 45.5t46 128.5q0 65 -20.5 102.5t-74.5 63.5q-16 8 -34 16v-356z" />
    <glyph glyph-name="percent" unicode="%" horiz-adv-x="1802" 
d="M95 1122q0 180 78.5 284t238.5 104t238.5 -104t78.5 -284t-78.5 -284t-238.5 -104t-238.5 104t-78.5 284zM297 1122q0 -150 30 -201.5t85 -51.5t85 51.5t30 201.5t-30 201.5t-85 51.5t-85 -51.5t-30 -201.5zM355 -29q-41 29 -7 78l1021 1458q35 50 76 21l70 -49
q41 -29 7 -78l-1021 -1458q-35 -50 -76 -21zM1073 328q0 180 78.5 284t238.5 104t238.5 -104t78.5 -284t-78.5 -284t-238.5 -104t-238.5 104t-78.5 284zM1275 328q0 -150 30 -201.5t85 -51.5t85 51.5t30 201.5t-30 201.5t-85 51.5t-85 -51.5t-30 -201.5z" />
    <glyph glyph-name="ampersand" unicode="&#x26;" horiz-adv-x="1440" 
d="M112 316q0 148 75 261t256 243q-71 80 -122 150.5t-51 193.5q0 120 94.5 212t311.5 92q134 0 249.5 -68t115.5 -235q0 -124 -52 -211.5t-174 -179.5l240 -314q45 42 82 96t50 84q28 65 87 30l106 -64q30 -16 6 -75q-28 -69 -71 -131t-118 -127l156 -207q50 -66 -31 -66
h-185q-74 0 -117 59l-36 49q-100 -80 -207 -111t-248 -31q-181 0 -299 84t-118 266zM412 328q0 -67 47.5 -105.5t110.5 -38.5q84 0 145 22t131 82l-256 336q-96 -78 -137 -138t-41 -158zM540 1153q0 -70 37.5 -113.5t82.5 -88.5q63 57 87 87.5t24 96.5q0 50 -31.5 76.5
t-85.5 26.5q-57 0 -85.5 -32.5t-28.5 -52.5z" />
    <glyph glyph-name="quotesingle" unicode="'" horiz-adv-x="560" 
d="M145 1404q-3 65 51 65h174q54 0 51 -65l-24 -520q-3 -60 -50 -60h-128q-47 0 -50 60z" />
    <glyph glyph-name="parenleft" unicode="(" horiz-adv-x="740" 
d="M115 544q0 370 128.5 609t255.5 361q52 50 84 24l84 -67q34 -27 0 -72q-79 -103 -165.5 -291.5t-86.5 -563.5t86.5 -563.5t165.5 -291.5q34 -45 0 -72l-84 -67q-32 -26 -84 24q-127 122 -255.5 361t-128.5 609z" />
    <glyph glyph-name="parenright" unicode=")" horiz-adv-x="740" 
d="M107 -383q-34 27 0 72q79 103 165.5 291.5t86.5 563.5t-86.5 563.5t-165.5 291.5q-34 45 0 72l84 67q32 26 84 -24q127 -122 255.5 -361t128.5 -609t-128.5 -609t-255.5 -361q-52 -50 -84 -24z" />
    <glyph glyph-name="asterisk" unicode="*" horiz-adv-x="960" 
d="M391 1058l-196 84q-86 37 -44 111l18 31q42 72 117 16l171 -128l-25 213q-11 93 73 93h36q84 0 73 -93l-25 -213l171 128q76 57 118 -17l18 -31q42 -73 -45 -110l-196 -84l197 -85q86 -37 44 -109l-18 -31q-42 -73 -117 -17l-172 128l25 -212q11 -94 -74 -94h-35
q-84 0 -73 94l25 212l-171 -128q-76 -57 -118 16l-18 31q-43 73 45 111z" />
    <glyph glyph-name="plus" unicode="+" horiz-adv-x="1280" 
d="M135 632q-60 0 -60 50v86q0 50 60 50h412v412q0 60 50 60h86q50 0 50 -60v-412h412q60 0 60 -50v-86q0 -50 -60 -50h-412v-412q0 -60 -50 -60h-86q-50 0 -50 60v412h-412z" />
    <glyph glyph-name="comma" unicode="," horiz-adv-x="668" 
d="M256 0q-70 0 -70 75v134q0 75 70 75h156q70 0 70 -75v-134q0 -129 -17 -216.5t-87 -141.5q-51 -39 -80 -8l-38 41q-36 38 11 75q32 25 43 65t11 110h-69z" />
    <glyph glyph-name="hyphen" unicode="-" horiz-adv-x="700" 
d="M113 446q-60 0 -60 50v114q0 50 60 50h474q60 0 60 -50v-114q0 -50 -60 -50h-474z" />
    <glyph glyph-name="period" unicode="." horiz-adv-x="668" 
d="M258 0q-70 0 -70 75v134q0 75 70 75h152q70 0 70 -75v-134q0 -75 -70 -75h-152z" />
    <glyph glyph-name="slash" unicode="/" horiz-adv-x="856" 
d="M56 -378q-47 18 -25 74l664 1730q22 56 68 38l81 -31q47 -18 25 -74l-664 -1730q-22 -56 -68 -38z" />
    <glyph glyph-name="zero" unicode="0" horiz-adv-x="1200" 
d="M88 711q0 405 126 575t386 170t386 -170t126 -575t-126 -575t-386 -170t-386 170t-126 575zM384 711q0 -185 30.5 -356t185.5 -171t185.5 171t30.5 356t-30.5 356t-185.5 171t-185.5 -171t-30.5 -356z" />
    <glyph glyph-name="one" unicode="1" horiz-adv-x="907" 
d="M181 1138q-26 49 35 76q58 26 121 73t103 97q45 56 86 56h159q60 0 60 -60v-1320q0 -60 -60 -60h-160q-60 0 -60 60v951q0 40 4 80h-4q-31 -39 -68 -67t-75 -44q-47 -20 -71 26z" />
    <glyph glyph-name="two" unicode="2" horiz-adv-x="1200" 
d="M163 0q-75 0 -75 65v48q0 52 48 103l299 315q135 143 247 254.5t112 225.5t-56.5 167.5t-143.5 53.5q-138 0 -192 -64t-78 -137q-23 -71 -84 -51l-101 34q-49 17 -28 94q39 143 159 245.5t356 102.5q246 0 357 -126.5t111 -274.5q0 -194 -162 -340.5t-294 -285.5
l-170 -179v-6q60 4 100 4h467q75 0 75 -65v-118q0 -65 -75 -65h-872z" />
    <glyph glyph-name="three" unicode="3" horiz-adv-x="1200" 
d="M133 102q-39 33 -6 94l46 84q33 61 107 9q62 -44 140 -71.5t174 -27.5q132 0 189 71.5t57 160.5q0 91 -67.5 163.5t-190.5 72.5h-77q-65 0 -65 53v110q0 55 65 55h60q92 0 162.5 57t70.5 143q0 67 -46.5 111.5t-151.5 44.5q-99 0 -171 -29t-114 -70q-60 -59 -103 5
l-58 85q-33 48 20 98q72 69 186 102t223 33q257 0 382 -102.5t125 -250.5q0 -110 -86 -200.5t-182 -124.5v-4q114 -28 216 -122.5t102 -234.5q0 -219 -138 -335t-421 -116q-119 0 -246.5 36.5t-201.5 99.5z" />
    <glyph glyph-name="four" unicode="4" horiz-adv-x="1200" 
d="M127 312q-65 0 -65 65v132q0 57 30 99l554 780q37 52 93 52h147q66 0 66 -65v-815h121q65 0 65 -65v-118q0 -65 -64 -65h-122v-247q0 -65 -65 -65h-150q-65 0 -65 65v247h-545zM341 560h331v387q0 40 4 80h-4z" />
    <glyph glyph-name="five" unicode="5" horiz-adv-x="1200" 
d="M125 101q-33 44 -9 76l70 96q42 58 102 3q36 -33 111 -59.5t150 -26.5q114 0 192.5 64t78.5 187q0 117 -50 189t-121 72q-61 0 -112 -9.5t-106 -57.5q-38 -33 -92 -33h-109q-65 0 -65 65v690q0 65 65 65h720q65 0 65 -65v-118q0 -65 -65 -65h-505v-245q0 -40 -4 -80h6
q53 46 118 61.5t139 15.5q175 0 295.5 -119.5t120.5 -369.5q0 -230 -153.5 -350.5t-364.5 -120.5q-176 0 -304.5 38.5t-172.5 96.5z" />
    <glyph glyph-name="six" unicode="6" horiz-adv-x="1200" 
d="M88 671q0 451 161.5 618t407.5 167q96 0 191 -27.5t146 -72.5q48 -43 21 -84l-66 -99q-32 -49 -93 0q-30 24 -87.5 41.5t-120.5 17.5q-105 0 -193 -98.5t-88 -334.5h4q45 68 125 97.5t195 29.5q209 0 316 -137.5t107 -340.5q0 -220 -125 -351t-382 -131
q-274 0 -396.5 183.5t-122.5 521.5zM416 443q0 -122 50 -187.5t146 -65.5q102 0 152 55t50 205q0 132 -50 192t-140 60q-99 0 -153.5 -81t-54.5 -178z" />
    <glyph glyph-name="seven" unicode="7" horiz-adv-x="1112" 
d="M148 1174q-65 0 -65 65v118q0 65 65 65h816q65 0 65 -65v-113q0 -51 -50 -107q-205 -231 -287 -461t-82 -555v-62q0 -65 -65 -65h-150q-65 0 -65 65v27q0 361 119.5 607t317.5 481v4q-40 -4 -80 -4h-539z" />
    <glyph glyph-name="eight" unicode="8" horiz-adv-x="1200" 
d="M86 383q0 172 105.5 267.5t181.5 116.5v5q-85 27 -165.5 106.5t-80.5 209.5q0 156 126.5 262t346.5 106t346.5 -106t126.5 -262q0 -130 -80.5 -209.5t-165.5 -106.5v-5q76 -21 181.5 -116.5t105.5 -267.5q0 -185 -120.5 -301t-393.5 -116t-393.5 116t-120.5 301zM386 413
q0 -113 50 -168t164 -55t164 55t50 168q0 86 -54.5 158.5t-159.5 72.5t-159.5 -72.5t-54.5 -158.5zM419 1058q0 -80 45.5 -126t135.5 -46t135.5 46t45.5 126t-47.5 127t-133.5 47t-133.5 -47t-47.5 -127z" />
    <glyph glyph-name="nine" unicode="9" horiz-adv-x="1200" 
d="M86 974q0 220 125 351t382 131q274 0 396.5 -183.5t122.5 -521.5q0 -451 -161.5 -618t-407.5 -167q-96 0 -191 27.5t-146 72.5q-48 43 -21 84l66 99q32 49 93 0q30 -24 87.5 -41.5t120.5 -17.5q105 0 193 98.5t88 334.5h-4q-45 -68 -125 -97.5t-195 -29.5
q-209 0 -316 137.5t-107 340.5zM386 972q0 -132 50 -192t140 -60q99 0 153.5 81t54.5 178q0 122 -50 187.5t-146 65.5q-102 0 -152 -55t-50 -205z" />
    <glyph glyph-name="colon" unicode=":" horiz-adv-x="668" 
d="M258 0q-70 0 -70 75v134q0 75 70 75h152q70 0 70 -75v-134q0 -75 -70 -75h-152zM258 766q-70 0 -70 75v134q0 75 70 75h152q70 0 70 -75v-134q0 -75 -70 -75h-152z" />
    <glyph glyph-name="semicolon" unicode=";" horiz-adv-x="668" 
d="M258 766q-70 0 -70 75v134q0 75 70 75h152q70 0 70 -75v-134q0 -75 -70 -75h-152zM256 0q-70 0 -70 75v134q0 75 70 75h156q70 0 70 -75v-134q0 -129 -17 -216.5t-87 -141.5q-51 -39 -80 -8l-38 41q-36 38 11 75q32 25 43 65t11 110h-69z" />
    <glyph glyph-name="less" unicode="&#x3c;" horiz-adv-x="1280" 
d="M128 634q-40 21 -40 55v92q0 34 40 55l941 501q53 28 77 -16l37 -71q23 -44 -29 -72l-834 -442v-2l834 -442q52 -28 29 -72l-37 -71q-24 -44 -77 -16z" />
    <glyph glyph-name="equal" unicode="=" horiz-adv-x="1280" 
d="M135 462q-60 0 -60 50v86q0 50 60 50h1010q60 0 60 -50v-86q0 -50 -60 -50h-1010zM135 802q-60 0 -60 50v86q0 50 60 50h1010q60 0 60 -50v-86q0 -50 -60 -50h-1010z" />
    <glyph glyph-name="greater" unicode="&#x3e;" horiz-adv-x="1280" 
d="M120 220q-23 44 29 72l834 442v2l-834 442q-52 28 -29 72l37 71q24 44 77 16l941 -501q40 -21 40 -55v-92q0 -34 -40 -55l-941 -501q-53 -28 -77 16z" />
    <glyph glyph-name="question" unicode="?" horiz-adv-x="1106" 
d="M153 1158q-52 33 -13 102q41 72 155 140t288 68q237 0 349.5 -107t112.5 -293q0 -141 -165.5 -304.5t-165.5 -269.5v-16q0 -65 -65 -65h-150q-65 0 -65 65v30q0 164 155.5 326t155.5 240q0 81 -37.5 125.5t-134.5 44.5q-86 0 -139 -39t-87 -95q-33 -55 -89 -19zM498 0
q-70 0 -70 75v134q0 75 70 75h152q70 0 70 -75v-134q0 -75 -70 -75h-152z" />
    <glyph glyph-name="at" unicode="@" horiz-adv-x="2074" 
d="M112 564q0 400 263.5 668t687.5 268q388 0 643.5 -212t255.5 -588q0 -294 -143.5 -447t-379.5 -153q-102 0 -164 33.5t-86 137.5h-2q-61 -77 -129 -124t-186 -47q-117 0 -212.5 88t-95.5 299q0 227 151.5 391.5t359.5 164.5q140 0 191 -146h4l14 61q11 48 59 48h139
q51 0 39 -52l-120 -532q-17 -75 -8.5 -108.5t57.5 -33.5q145 0 234.5 98t89.5 283q0 311 -187.5 484t-523.5 173q-332 0 -547.5 -213t-215.5 -535q0 -326 213.5 -536t547.5 -210q150 0 263.5 23t257.5 103q45 25 59 3l62 -93q27 -41 -16 -66q-148 -88 -323.5 -120
t-313.5 -32q-403 0 -670.5 263t-267.5 659zM806 433q0 -67 32 -110t86 -43q93 0 175 96.5t97 205.5q9 66 9 122q0 64 -36 111.5t-90 47.5q-92 0 -182.5 -106t-90.5 -324z" />
    <glyph glyph-name="A" unicode="A" horiz-adv-x="1394" 
d="M115 0q-72 0 -47 66l490 1287q31 81 94 81h140q63 0 94 -81l490 -1287q25 -66 -47 -66h-159q-66 0 -92 69l-102 269h-508l-102 -269q-26 -69 -92 -69h-159zM561 586h322l-123 318q-22 56 -26.5 81.5t-9.5 75.5h-4q-5 -50 -9.5 -75.5t-26.5 -81.5z" />
    <glyph glyph-name="B" unicode="B" horiz-adv-x="1379" 
d="M240 0q-80 0 -80 75v1284q0 75 80 75h340q384 0 518.5 -94.5t134.5 -290.5q0 -137 -100.5 -212t-194.5 -87v-3q91 -6 214 -92t123 -243q0 -184 -150 -298t-495 -114h-390zM452 244h146q212 0 288.5 37t76.5 150q0 106 -88.5 146.5t-276.5 40.5h-146v-374zM452 854h131
q129 0 241.5 45t112.5 140q0 74 -62.5 112.5t-291.5 38.5h-131v-336z" />
    <glyph glyph-name="C" unicode="C" horiz-adv-x="1418" 
d="M86 717q0 345 175 548t505 203q190 0 322 -59t186 -171q36 -74 -12 -100l-120 -64q-63 -34 -104 38q-26 46 -96.5 83t-165.5 37q-210 0 -294 -132.5t-84 -382.5t84 -382.5t294 -132.5q113 0 190.5 51t107.5 97q49 75 104 38l120 -80q49 -33 10 -100q-58 -100 -199 -171
t-343 -71q-325 0 -502.5 203t-177.5 548z" />
    <glyph glyph-name="D" unicode="D" horiz-adv-x="1450" 
d="M230 0q-70 0 -70 75v1284q0 75 70 75h349q460 0 622.5 -186t162.5 -529t-162.5 -531t-622.5 -188h-349zM452 248h108q310 0 401 115.5t91 355.5t-91 354.5t-401 114.5h-108v-940z" />
    <glyph glyph-name="E" unicode="E" horiz-adv-x="1280" 
d="M230 0q-70 0 -70 75v1284q0 75 70 75h858q75 0 75 -65v-118q0 -65 -75 -65h-636v-318h583q75 0 75 -65v-118q0 -65 -75 -65h-583v-372h668q75 0 75 -65v-118q0 -65 -75 -65h-890z" />
    <glyph glyph-name="F" unicode="F" horiz-adv-x="1176" 
d="M230 0q-70 0 -70 75v1284q0 75 70 75h791q75 0 75 -65v-118q0 -65 -75 -65h-569v-348h487q75 0 75 -65v-118q0 -65 -75 -65h-487v-515q0 -75 -70 -75h-152z" />
    <glyph glyph-name="G" unicode="G" horiz-adv-x="1506" 
d="M86 717q0 345 180 548t510 203q199 0 312.5 -51t199.5 -158q52 -65 -3 -101l-114 -74q-50 -33 -107 29q-47 51 -119 85t-159 34q-210 0 -299 -132.5t-89 -382.5t89 -382.5t299 -132.5q102 0 176 20.5t140 74.5v179h-217q-75 0 -75 65v118q0 65 75 65h434q75 0 75 -65
v-508q-140 -103 -282.5 -144t-335.5 -41q-325 0 -507.5 203t-182.5 548z" />
    <glyph glyph-name="H" unicode="H" horiz-adv-x="1442" 
d="M230 0q-70 0 -70 75v1284q0 75 70 75h152q70 0 70 -75v-489h538v489q0 75 70 75h152q70 0 70 -75v-1284q0 -75 -70 -75h-152q-70 0 -70 75v547h-538v-547q0 -75 -70 -75h-152z" />
    <glyph glyph-name="I" unicode="I" horiz-adv-x="612" 
d="M230 0q-70 0 -70 75v1284q0 75 70 75h152q70 0 70 -75v-1284q0 -75 -70 -75h-152z" />
    <glyph glyph-name="J" unicode="J" horiz-adv-x="947" 
d="M90 19q-53 31 -40 75l42 137q18 59 94 12q65 -41 145 -41q110 0 143.5 76t33.5 253v828q0 75 70 75h152q70 0 70 -75v-808q0 -368 -123.5 -476.5t-342.5 -108.5q-153 0 -244 53z" />
    <glyph glyph-name="K" unicode="K" horiz-adv-x="1361" 
d="M230 0q-70 0 -70 75v1284q0 75 70 75h152q70 0 70 -75v-398q0 -60 -5 -120h7l486 534q54 59 92 59h201q117 0 38 -86l-455 -498l487 -764q55 -86 -38 -86h-187q-52 0 -90 59l-368 577l-168 -189v-372q0 -75 -70 -75h-152z" />
    <glyph glyph-name="L" unicode="L" horiz-adv-x="1162" 
d="M230 0q-70 0 -70 75v1284q0 75 70 75h162q60 0 60 -75v-1111h583q75 0 75 -65v-118q0 -65 -75 -65h-805z" />
    <glyph glyph-name="M" unicode="M" horiz-adv-x="1828" 
d="M230 0q-70 0 -70 75v1284q0 75 70 75h290q58 0 83 -80l271 -877q18 -57 25 -93.5t12 -86.5h6q5 50 12 86.5t25 93.5l271 877q25 80 83 80h290q70 0 70 -75v-1284q0 -75 -70 -75h-152q-70 0 -70 75v826q0 60 5 120h-7l-289 -940q-25 -81 -86 -81h-170q-61 0 -86 81
l-289 940h-7q5 -60 5 -120v-826q0 -75 -70 -75h-152z" />
    <glyph glyph-name="N" unicode="N" horiz-adv-x="1472" 
d="M230 0q-70 0 -70 75v1284q0 75 70 75h148q86 0 130 -70l510 -819h7q-5 60 -5 120v694q0 75 70 75h152q70 0 70 -75v-1284q0 -75 -70 -75h-138q-86 0 -130 70l-520 834h-7q5 -60 5 -120v-709q0 -75 -70 -75h-152z" />
    <glyph glyph-name="O" unicode="O" horiz-adv-x="1544" 
d="M86 717q0 345 178 548t508 203t508 -203t178 -548t-178 -548t-508 -203t-508 203t-178 548zM398 717q0 -250 89.5 -382.5t284.5 -132.5t284.5 132.5t89.5 382.5t-89.5 382.5t-284.5 132.5t-284.5 -132.5t-89.5 -382.5z" />
    <glyph glyph-name="P" unicode="P" horiz-adv-x="1328" 
d="M230 0q-70 0 -70 75v1284q0 75 70 75h374q360 0 499.5 -117t139.5 -332t-139.5 -332t-499.5 -117h-152v-461q0 -75 -70 -75h-152zM452 780h151q200 0 272 47.5t72 157.5t-72 157.5t-272 47.5h-151v-410z" />
    <glyph glyph-name="Q" unicode="Q" horiz-adv-x="1544" 
d="M86 717q0 345 178 548t508 203t508 -203t178 -548t-178 -548q-136 -155 -361 -192q9 -90 47.5 -134.5t149.5 -44.5q51 0 106 14q50 13 58 -22l28 -116q9 -39 -36 -50q-118 -31 -188 -31q-268 0 -357.5 113t-100.5 271q-226 36 -362 192q-178 203 -178 548zM398 717
q0 -250 89.5 -382.5t284.5 -132.5t284.5 132.5t89.5 382.5t-89.5 382.5t-284.5 132.5t-284.5 -132.5t-89.5 -382.5z" />
    <glyph glyph-name="R" unicode="R" horiz-adv-x="1428" 
d="M230 0q-70 0 -70 75v1284q0 75 70 75h463q309 0 451 -95.5t142 -310.5q0 -160 -115 -255t-292 -126v-2q96 -36 145 -100t80 -112l220 -347q55 -86 -38 -86h-174q-55 0 -90 59l-202 337q-33 54 -120.5 118.5t-173.5 64.5h-74v-504q0 -75 -70 -75h-152zM452 827h179
q200 0 284.5 45.5t84.5 144.5q0 108 -81.5 140.5t-239.5 32.5h-227v-363z" />
    <glyph glyph-name="S" unicode="S" horiz-adv-x="1308" 
d="M177 107q-62 47 -30 95l77 116q38 57 111 6q56 -39 146.5 -80.5t190.5 -41.5q70 0 135 16t99 62t34 109q0 45 -15 79t-49 56t-70 37q-63 26 -158.5 51.5t-188.5 61.5q-83 32 -152 88t-107 126t-38 187q0 139 90 238t207 127t236 28q118 0 243.5 -36t189.5 -90
q63 -53 31 -96l-81 -109q-41 -56 -110 -9q-44 30 -120.5 67t-159.5 37q-59 0 -108.5 -10t-87.5 -48t-38 -94q0 -54 28 -87.5t62 -50t69 -27.5q108 -35 193 -61.5t157 -58.5q100 -45 153 -90t87.5 -123t34.5 -186q0 -160 -102 -264.5t-226.5 -135t-242.5 -30.5
q-174 0 -283 33.5t-207 107.5z" />
    <glyph glyph-name="T" unicode="T" horiz-adv-x="1246" 
d="M109 1178q-75 0 -75 65v126q0 65 75 65h1028q75 0 75 -65v-126q0 -65 -75 -65h-368v-1123q0 -55 -50 -55h-192q-50 0 -50 55v1123h-368z" />
    <glyph glyph-name="U" unicode="U" horiz-adv-x="1422" 
d="M160 597v782q0 55 70 55h152q70 0 70 -55v-772q0 -270 79.5 -337.5t179.5 -67.5t179.5 67.5t79.5 337.5v772q0 55 70 55h152q70 0 70 -55v-782q0 -350 -148 -490.5t-403 -140.5t-403 140.5t-148 490.5z" />
    <glyph glyph-name="V" unicode="V" horiz-adv-x="1370" 
d="M68 1368q-25 66 47 66h159q67 0 92 -69l306 -835q23 -64 27 -85.5t9 -71.5h4q5 50 9 71.5t27 85.5l306 835q25 69 92 69h159q72 0 47 -66l-478 -1287q-30 -81 -94 -81h-140q-64 0 -94 81z" />
    <glyph glyph-name="W" unicode="W" horiz-adv-x="2022" 
d="M67 1354q-22 80 46 80h185q47 0 63 -66l190 -786q21 -86 27.5 -117.5t11.5 -101.5h5q5 70 10 106t29 119l223 772q21 74 84 74h184q63 0 84 -74l223 -772q24 -83 29 -119t10 -106h5q5 70 11.5 101.5t27.5 117.5l190 786q16 66 63 66h185q68 0 46 -80l-340 -1257
q-26 -97 -94 -97h-175q-58 0 -85 96l-240 838q-20 68 -23 88.5t-8 76.5h-2q-5 -56 -8 -76.5t-23 -88.5l-240 -838q-27 -96 -85 -96h-175q-68 0 -94 97z" />
    <glyph glyph-name="X" unicode="X" horiz-adv-x="1418" 
d="M166 0q-96 0 -38 86l443 654l-407 608q-58 86 38 86h202q53 0 90 -59l273 -432l273 432q37 59 90 59h202q96 0 38 -86l-408 -608l444 -654q58 -86 -38 -86h-205q-52 0 -90 59l-306 478l-306 -478q-38 -59 -90 -59h-205z" />
    <glyph glyph-name="Y" unicode="Y" horiz-adv-x="1368" 
d="M102 1348q-51 86 47 86h175q52 0 92 -69l213 -371q9 -15 53 -93.5t51 -152.5h4q7 74 51 152.5t53 93.5l213 371q40 69 92 69h175q98 0 47 -86l-487 -823v-470q0 -55 -70 -55h-152q-70 0 -70 55v470z" />
    <glyph glyph-name="Z" unicode="Z" horiz-adv-x="1252" 
d="M136 0q-75 0 -75 65v82q0 69 51 139l650 898v7q-60 -5 -120 -5h-466q-75 0 -75 65v118q0 65 75 65h912q75 0 75 -65v-67q0 -53 -35 -101l-690 -951v-7q60 5 120 5h558q75 0 75 -65v-118q0 -65 -75 -65h-980z" />
    <glyph glyph-name="bracketleft" unicode="[" horiz-adv-x="694" 
d="M220 -408q-60 0 -60 60v1784q0 60 60 60h348q60 0 60 -50v-100q0 -50 -60 -50h-128v-1504h128q60 0 60 -50v-100q0 -50 -60 -50h-348z" />
    <glyph glyph-name="backslash" unicode="\" horiz-adv-x="856" 
d="M31 1359q-22 56 25 74l81 31q46 18 68 -38l664 -1730q22 -56 -25 -74l-81 -31q-46 -18 -68 38z" />
    <glyph glyph-name="bracketright" unicode="]" horiz-adv-x="694" 
d="M126 -408q-60 0 -60 50v100q0 50 60 50h128v1504h-128q-60 0 -60 50v100q0 50 60 50h348q60 0 60 -60v-1784q0 -60 -60 -60h-348z" />
    <glyph glyph-name="asciicircum" unicode="^" horiz-adv-x="920" 
d="M120 929q-40 29 -5 78l290 398q26 36 72 36h36q46 0 72 -36l290 -398q36 -49 -5 -78l-62 -44q-41 -29 -75 19l-237 329h-2l-237 -329q-34 -48 -75 -19z" />
    <glyph glyph-name="underscore" unicode="_" horiz-adv-x="1200" 
d="M35 -425q-60 0 -60 50v100q0 50 60 50h1130q60 0 60 -50v-100q0 -50 -60 -50h-1130z" />
    <glyph glyph-name="grave" unicode="`" horiz-adv-x="614" 
d="M205 1376q-52 59 22 59h152q78 0 106 -47l108 -179q36 -59 -21 -59h-101q-69 0 -101 37z" />
    <glyph glyph-name="a" unicode="a" horiz-adv-x="1123" 
d="M80 280q0 200 191 290t436 96v40q0 92 -46 130t-128 38q-58 0 -102.5 -16.5t-77 -38t-58.5 -43.5q-46 -40 -76 -4l-83 102q-31 38 15 78q35 31 81.5 54t123.5 43.5t200 20.5q208 0 319.5 -96t111.5 -283v-631q0 -60 -60 -60h-164q-54 0 -54 60v30h-2
q-59 -57 -141.5 -83.5t-151.5 -26.5q-164 0 -249 80.5t-85 219.5zM376 286q0 -35 14 -60.5t44 -37.5t67 -12q51 0 99 14t107 66v217q-168 -19 -225 -49t-81.5 -62t-24.5 -76z" />
    <glyph glyph-name="b" unicode="b" horiz-adv-x="1192" 
d="M196 0q-60 0 -60 60v1356q0 60 60 60h160q60 0 60 -60v-404q0 -40 -4 -80h4q52 86 116 112t154 26q235 0 330.5 -162.5t95.5 -382.5t-95.5 -382.5t-330.5 -162.5q-90 0 -154 26t-116 112h-4l-4 -58q-4 -60 -54 -60h-158zM416 480q0 -135 53.5 -219.5t128.5 -84.5
q135 0 176.5 94.5t41.5 254.5t-41.5 254.5t-176.5 94.5q-75 0 -128.5 -84.5t-53.5 -219.5v-90z" />
    <glyph glyph-name="c" unicode="c" horiz-adv-x="1086" 
d="M80 525q0 255 128 400t393 145q155 0 241 -41t138 -120q31 -47 -10 -74l-106 -70q-45 -30 -79 23q-17 26 -65 56t-119 30q-113 0 -169 -79.5t-56 -269.5t56 -269.5t169 -79.5q81 0 131 34t94 88q38 46 80 13l93 -73q42 -33 5 -88q-39 -58 -132.5 -114t-270.5 -56
q-265 0 -393 145t-128 400z" />
    <glyph glyph-name="d" unicode="d" horiz-adv-x="1192" 
d="M80 525q0 220 95.5 382.5t330.5 162.5q90 0 154 -26t116 -112h4q-4 40 -4 80v404q0 60 60 60h160q60 0 60 -60v-1356q0 -60 -60 -60h-158q-50 0 -54 60l-4 58h-4q-52 -86 -116 -112t-154 -26q-235 0 -330.5 162.5t-95.5 382.5zM376 525q0 -160 41.5 -254.5t176.5 -94.5
q75 0 128.5 84.5t53.5 219.5v90q0 135 -53.5 219.5t-128.5 84.5q-135 0 -176.5 -94.5t-41.5 -254.5z" />
    <glyph glyph-name="e" unicode="e" horiz-adv-x="1174" 
d="M80 525q0 253 126.5 399t357.5 146q268 0 398 -138t130 -444q0 -60 -56 -60h-660q16 -166 82 -209t153 -43q83 0 127 22t74 60q34 44 84 14l100 -61q59 -36 17 -86q-61 -73 -143 -109t-259 -36q-287 0 -409 146t-122 399zM377 628h435q0 108 -54 176.5t-172 68.5
q-94 0 -149 -65.5t-60 -179.5z" />
    <glyph glyph-name="f" unicode="f" horiz-adv-x="682" 
d="M101 850q-59 0 -59 50v100q0 50 59 50h56v140q0 184 105 245t250 61q69 0 118.5 -8t87.5 -20q36 -12 26 -50l-30 -113q-9 -33 -46 -20q-22 8 -61.5 11.5t-62.5 3.5q-73 0 -90 -51t-17 -159v-40h132q59 0 59 -50v-100q0 -50 -59 -50h-132v-790q0 -60 -60 -60h-160
q-60 0 -60 60v790h-56z" />
    <glyph glyph-name="g" unicode="g" horiz-adv-x="1192" 
d="M80 525q0 220 95.5 382.5t330.5 162.5q90 0 154 -26t116 -112h4l4 58q4 60 54 60h158q60 0 60 -60v-979q0 -245 -132 -338t-382 -93q-106 0 -196 11t-182 55q-48 23 -16 87l36 72q22 44 73 20q41 -19 101.5 -34t153.5 -15q128 0 196 47.5t68 207.5v17q0 40 4 80h-4
q-52 -86 -116 -112t-154 -26q-235 0 -330.5 162.5t-95.5 372.5zM376 525q0 -150 41.5 -244.5t176.5 -94.5q75 0 128.5 84.5t53.5 219.5v80q0 135 -53.5 219.5t-128.5 84.5q-135 0 -176.5 -94.5t-41.5 -254.5z" />
    <glyph glyph-name="h" unicode="h" horiz-adv-x="1200" 
d="M196 0q-60 0 -60 60v1356q0 60 60 60h160q60 0 60 -60v-404q0 -40 -4 -80h6q46 79 117 108.5t171 29.5q156 0 258 -98t102 -358v-554q0 -60 -60 -60h-160q-60 0 -60 60v482q0 218 -30 275t-129 57q-105 0 -158 -81.5t-53 -338.5v-394q0 -60 -60 -60h-160z" />
    <glyph glyph-name="i" unicode="i" horiz-adv-x="552" 
d="M196 0q-60 0 -60 60v930q0 60 60 60h160q60 0 60 -60v-930q0 -60 -60 -60h-160zM196 1204q-60 0 -60 60v128q0 60 60 60h160q60 0 60 -60v-128q0 -60 -60 -60h-160z" />
    <glyph glyph-name="j" unicode="j" horiz-adv-x="562" 
d="M-72 -409q-38 7 -29 52l22 110q9 46 51 30q18 -7 72 -7q63 0 87 66t24 184v964q0 60 60 60h160q60 0 60 -60v-994q0 -248 -97 -332t-259 -84q-90 0 -151 11zM206 1204q-60 0 -60 60v128q0 60 60 60h160q60 0 60 -60v-128q0 -60 -60 -60h-160z" />
    <glyph glyph-name="k" unicode="k" horiz-adv-x="1115" 
d="M196 0q-60 0 -60 60v1356q0 60 60 60h160q60 0 60 -60v-735q0 -40 -4 -80h4l317 408q32 41 78 41h164q92 0 31 -74l-302 -365l350 -537q48 -74 -31 -74h-171q-50 0 -82 52l-227 365l-127 -153v-204q0 -60 -60 -60h-160z" />
    <glyph glyph-name="l" unicode="l" horiz-adv-x="552" 
d="M196 0q-60 0 -60 60v1181q0 45 21 82l77 135q22 38 52 38h70q60 0 60 -60v-1376q0 -60 -60 -60h-160z" />
    <glyph glyph-name="m" unicode="m" horiz-adv-x="1750" 
d="M196 0q-60 0 -60 60v930q0 60 60 60h158q60 0 60 -60v-58h4q29 64 98 101t129 37q120 0 186.5 -56t91.5 -125h4q87 113 157.5 147t180.5 34q148 0 249.5 -98t101.5 -358v-554q0 -60 -60 -60h-160q-60 0 -60 60v482q0 218 -29.5 275t-104.5 57q-70 0 -128 -82t-58 -338
v-394q0 -60 -60 -60h-160q-60 0 -60 60v482q0 218 -29.5 275t-104.5 57q-70 0 -128 -81.5t-58 -338.5v-394q0 -60 -60 -60h-160z" />
    <glyph glyph-name="n" unicode="n" horiz-adv-x="1200" 
d="M196 0q-60 0 -60 60v930q0 60 60 60h158q60 0 60 -60v-58h4q46 79 117 108.5t171 29.5q156 0 258 -98t102 -358v-554q0 -60 -60 -60h-160q-60 0 -60 60v482q0 218 -30 275t-129 57q-105 0 -158 -81.5t-53 -338.5v-394q0 -60 -60 -60h-160z" />
    <glyph glyph-name="o" unicode="o" horiz-adv-x="1206" 
d="M80 525q0 255 131.5 400t391.5 145t391.5 -145t131.5 -400t-131.5 -400t-391.5 -145t-391.5 145t-131.5 400zM376 525q0 -190 58.5 -269.5t168.5 -79.5t168.5 79.5t58.5 269.5t-58.5 269.5t-168.5 79.5t-168.5 -79.5t-58.5 -269.5z" />
    <glyph glyph-name="p" unicode="p" horiz-adv-x="1192" 
d="M196 -400q-60 0 -60 60v1330q0 60 60 60h158q50 0 54 -60l4 -58h4q52 86 116 112t154 26q235 0 330.5 -162.5t95.5 -382.5t-95.5 -382.5t-330.5 -162.5q-90 0 -154 26t-116 112h-4q4 -40 4 -80v-378q0 -60 -60 -60h-160zM416 480q0 -135 53.5 -219.5t128.5 -84.5
q135 0 176.5 94.5t41.5 254.5t-41.5 254.5t-176.5 94.5q-75 0 -128.5 -84.5t-53.5 -219.5v-90z" />
    <glyph glyph-name="q" unicode="q" horiz-adv-x="1192" 
d="M80 525q0 220 95.5 382.5t330.5 162.5q90 0 154 -26t116 -112h4l4 58q4 60 54 60h158q60 0 60 -60v-1330q0 -60 -60 -60h-160q-60 0 -60 60v378q0 40 4 80h-4q-52 -86 -116 -112t-154 -26q-235 0 -330.5 162.5t-95.5 382.5zM376 525q0 -160 41.5 -254.5t176.5 -94.5
q75 0 128.5 84.5t53.5 219.5v90q0 135 -53.5 219.5t-128.5 84.5q-135 0 -176.5 -94.5t-41.5 -254.5z" />
    <glyph glyph-name="r" unicode="r" horiz-adv-x="786" 
d="M196 0q-60 0 -60 60v930q0 60 60 60h158q60 0 60 -60v-82h4q26 64 87 113t144 49q57 0 94 -14q35 -13 27 -48l-28 -119q-9 -40 -54 -24q-26 9 -50 9q-96 0 -159 -115t-63 -335v-364q0 -60 -60 -60h-160z" />
    <glyph glyph-name="s" unicode="s" horiz-adv-x="1005" 
d="M115 70q-49 35 -27 75l51 93q27 50 84 12t134.5 -56t141.5 -18q45 0 84 9t66 35t27 76q0 30 -16 51t-41 32t-53 18q-37 9 -106.5 30t-133.5 49q-53 23 -103.5 64.5t-74 92.5t-23.5 126q0 101 58.5 177t151.5 105t232 29q94 0 183 -27t127 -51q60 -38 30 -81l-61 -89
q-28 -40 -90 -6q-47 26 -92.5 42t-101.5 16q-38 0 -73 -8t-59.5 -30t-24.5 -58q0 -38 22.5 -59.5t52 -31.5t56.5 -19q56 -18 113 -34.5t116 -39.5q51 -20 99 -57t70 -94t22 -130q0 -97 -58 -180t-153 -118t-221 -35q-141 0 -240 20t-169 70z" />
    <glyph glyph-name="t" unicode="t" horiz-adv-x="798" 
d="M101 850q-59 0 -59 50v100q0 50 59 50h68v35q0 45 21 82l77 135q22 38 52 38h70q60 0 60 -60v-230h162q59 0 59 -50v-100q0 -50 -59 -50h-162v-496q0 -102 14.5 -146.5t75.5 -44.5q31 0 70 10.5t61 20.5q35 16 46 -23l30 -114q9 -34 -26 -50q-33 -15 -90.5 -27.5
t-115.5 -12.5q-143 0 -244 59t-101 243v581h-68z" />
    <glyph glyph-name="u" unicode="u" horiz-adv-x="1194" 
d="M134 436v554q0 60 60 60h160q60 0 60 -60v-482q0 -218 30 -275t126 -57q102 0 155 81.5t53 338.5v394q0 60 60 60h160q60 0 60 -60v-930q0 -60 -60 -60h-158q-60 0 -60 60v58h-4q-46 -79 -117 -108.5t-168 -29.5q-153 0 -255 98t-102 358z" />
    <glyph glyph-name="v" unicode="v" horiz-adv-x="1008" 
d="M67 972q-25 78 33 78h179q47 0 60 -51l155 -586q13 -49 21.5 -97t10.5 -78h6q2 30 10.5 78t21.5 97l155 586q13 51 60 51h179q58 0 33 -78l-290 -905q-21 -67 -73 -67h-198q-52 0 -73 67z" />
    <glyph glyph-name="w" unicode="w" horiz-adv-x="1604" 
d="M64 972q-22 78 33 78h169q48 0 60 -51l135 -586q12 -51 21 -98t11 -77h6q2 30 11 78.5t21 96.5l142 586q12 51 60 51h182q48 0 60 -51l142 -586q12 -48 21 -96.5t11 -78.5h6q2 30 11 77t21 98l135 586q12 51 60 51h169q55 0 33 -78l-260 -905q-19 -67 -73 -67h-181
q-57 0 -73 67l-145 593q-13 51 -18.5 82t-7.5 69h-4q-2 -38 -7.5 -69t-18.5 -82l-145 -593q-16 -67 -73 -67h-181q-54 0 -73 67z" />
    <glyph glyph-name="x" unicode="x" horiz-adv-x="1086" 
d="M142 0q-86 0 -36 73l331 480l-292 424q-50 73 36 73h189q45 0 68 -40l155 -270l155 270q23 40 68 40h189q87 0 36 -73l-294 -424l333 -480q51 -73 -36 -73h-189q-44 0 -68 40l-194 326l-194 -326q-24 -40 -68 -40h-189z" />
    <glyph glyph-name="y" unicode="y" horiz-adv-x="990" 
d="M71 972q-27 78 33 78h179q46 0 60 -51l151 -559q11 -39 19.5 -100.5t8.5 -78.5h6q12 53 17.5 84.5t30.5 122.5l143 531q14 51 60 51h179q59 0 33 -78l-337 -1014q-59 -178 -145 -278t-239 -100q-84 0 -150 14q-38 8 -29 52l22 110q9 43 51 30q31 -10 58 -10
q81 0 123.5 77t56.5 132l3 15z" />
    <glyph glyph-name="z" unicode="z" horiz-adv-x="964" 
d="M112 0q-60 0 -60 50v76q0 52 41 108l448 616v4q-40 -4 -80 -4h-325q-60 0 -60 50v32q0 118 60 118h692q60 0 60 -50v-70q0 -49 -43 -108l-451 -622v-4q53 4 80 4h378q60 0 60 -50v-100q0 -50 -60 -50h-740z" />
    <glyph glyph-name="braceleft" unicode="{" horiz-adv-x="829" 
d="M134 444q-49 0 -49 59v82q0 59 49 59q53 0 112 51.5t59 235.5v285q0 167 77 223.5t331 56.5q60 0 60 -50v-100q0 -50 -60 -50q-97 0 -112.5 -47t-15.5 -110v-255q0 -164 -67 -239t-174 -100v-2q107 -25 174 -100t67 -239v-255q0 -63 15.5 -110t112.5 -47q60 0 60 -50
v-100q0 -50 -60 -50q-254 0 -331 56.5t-77 223.5v285q0 184 -59 235.5t-112 51.5z" />
    <glyph glyph-name="bar" unicode="|" horiz-adv-x="630" 
d="M265 -440q-50 0 -50 60v1816q0 60 50 60h100q50 0 50 -60v-1816q0 -60 -50 -60h-100z" />
    <glyph glyph-name="braceright" unicode="}" horiz-adv-x="829" 
d="M116 -408q-60 0 -60 50v100q0 50 60 50q97 0 112.5 47t15.5 110v255q0 164 67 239t174 100v2q-107 25 -174 100t-67 239v255q0 63 -15.5 110t-112.5 47q-60 0 -60 50v100q0 50 60 50q254 0 331 -56.5t77 -223.5v-285q0 -184 59 -235.5t112 -51.5q49 0 49 -59v-82
q0 -59 -49 -59q-53 0 -112 -51.5t-59 -235.5v-285q0 -167 -77 -223.5t-331 -56.5z" />
    <glyph glyph-name="asciitilde" unicode="~" horiz-adv-x="1280" 
d="M114 634q-31 16 -17 54q45 122 122 180t219 58q130 0 262 -106t207 -106t109 31t60 77q26 45 52 30l66 -36q31 -16 17 -54q-45 -122 -122 -180t-219 -58q-130 0 -262 106t-207 106t-109 -31t-60 -77q-26 -45 -52 -30z" />
    <glyph glyph-name="nbsp" unicode="&#xa0;" horiz-adv-x="700" 
 />
    <glyph glyph-name="exclamdown" unicode="&#xa1;" horiz-adv-x="668" 
d="M256 -384q-72 0 -70 75l27 874q2 65 65 65h116q63 0 65 -65l27 -874q2 -75 -70 -75h-160zM260 766q-70 0 -70 75v134q0 75 70 75h152q70 0 70 -75v-134q0 -75 -70 -75h-152z" />
    <glyph glyph-name="cent" unicode="&#xa2;" horiz-adv-x="1200" 
d="M136 525q0 255 116.5 387t313.5 153v175q0 60 50 60h80q50 0 50 -60v-174q93 -9 165.5 -43.5t124.5 -113.5q31 -47 -10 -74l-106 -70q-45 -30 -79 23q-17 26 -48 45.5t-47 25.5v-670q23 8 57 31t79 78q38 46 80 13l93 -73q42 -33 5 -88q-39 -58 -120 -106.5t-194 -59.5
v-174q0 -60 -50 -60h-80q-50 0 -50 60v175q-197 21 -313.5 153t-116.5 387zM432 525q0 -190 43.5 -251.5t90.5 -81.5v666q-47 -20 -90.5 -81.5t-43.5 -251.5z" />
    <glyph glyph-name="sterling" unicode="&#xa3;" horiz-adv-x="1200" 
d="M145 0q-75 0 -75 65v59q0 53 41 88q44 37 86.5 89.5t42.5 188.5v93h-101q-64 0 -64 65v118q0 65 65 65h100v142q0 251 129 367t342 116q101 0 186 -30t153 -103q48 -52 21 -84l-70 -84q-43 -52 -93 0q-40 41 -90 59t-109 18q-97 0 -143 -56.5t-46 -165.5v-179h237
q65 0 65 -65v-118q0 -65 -64 -65h-238v-88q0 -91 -17 -150t-54 -95v-6q60 4 100 4h500q75 0 75 -65v-118q0 -65 -75 -65h-904z" />
    <glyph glyph-name="currency" unicode="&#xa4;" horiz-adv-x="1200" 
d="M122 276q-36 34 5 78l126 136q-62 106 -62 238t62 238l-126 136q-41 44 -5 78l63 59q37 34 78 -10l115 -124q110 82 258 82t258 -82l115 124q41 44 78 10l63 -59q36 -34 -5 -78l-126 -136q62 -106 62 -238t-62 -238l126 -136q41 -44 5 -78l-63 -59q-37 -34 -78 10
l-115 124q-110 -82 -258 -82t-258 82l-115 -124q-41 -44 -78 -10zM386 728q0 -108 69.5 -186.5t180.5 -78.5t180.5 78.5t69.5 186.5t-69.5 186.5t-180.5 78.5t-180.5 -78.5t-69.5 -186.5z" />
    <glyph glyph-name="yen" unicode="&#xa5;" horiz-adv-x="1200" 
d="M65 1348q-52 86 47 86h155q57 0 92 -69l187 -371q38 -74 67.5 -123t36.5 -123h4q7 74 36.5 122.5t67.5 123.5l187 371q35 69 92 69h155q99 0 47 -86l-349 -580h154q60 0 60 -60v-88q0 -60 -60 -60h-252v-169h252q60 0 60 -60v-88q0 -60 -60 -60h-252v-123q0 -60 -60 -60
h-160q-60 0 -60 60v123h-252q-60 0 -60 60v88q0 60 60 60h252v169h-252q-60 0 -60 60v88q0 60 60 60h154z" />
    <glyph glyph-name="brokenbar" unicode="&#xa6;" horiz-adv-x="630" 
d="M265 -338q-50 0 -50 60v614q0 60 50 60h100q50 0 50 -60v-614q0 -60 -50 -60h-100zM265 660q-50 0 -50 60v614q0 60 50 60h100q50 0 50 -60v-614q0 -60 -50 -60h-100z" />
    <glyph glyph-name="section" unicode="&#xa7;" horiz-adv-x="1236" 
d="M104 601q0 123 78 208t171 155q-71 98 -71 191q0 147 100 230t262 83q104 0 171.5 -32t122.5 -87q42 -42 12 -72l-83 -83q-25 -25 -61 10q-30 30 -62.5 49t-84.5 19q-36 0 -64.5 -22t-28.5 -75q0 -109 283 -300t283 -386q0 -123 -78 -208.5t-171 -154.5q71 -98 71 -191
q0 -147 -100 -230t-262 -83q-104 0 -171.5 32t-122.5 87q-42 42 -12 72l83 83q25 25 61 -10q30 -30 62.5 -49t84.5 -19q36 0 64.5 22t28.5 75q0 109 -283 300t-283 386zM346 646q0 -88 183.5 -218t233.5 -174l79 70q48 43 48 120q0 88 -183.5 218.5t-233.5 173.5l-79 -70
q-48 -43 -48 -120z" />
    <glyph glyph-name="dieresis" unicode="&#xa8;" horiz-adv-x="614" 
d="M36 1206q-60 0 -60 60v116q0 60 60 60h116q60 0 60 -60v-116q0 -60 -60 -60h-116zM462 1206q-60 0 -60 60v116q0 60 60 60h116q60 0 60 -60v-116q0 -60 -60 -60h-116z" />
    <glyph glyph-name="copyright" unicode="&#xa9;" horiz-adv-x="1654" 
d="M76 717q0 153 60 291.5t160.5 239t239 160.5t291.5 60t291.5 -60t239 -160.5t160.5 -239t60 -291.5t-60 -291.5t-160.5 -239t-239 -160.5t-291.5 -60t-291.5 60t-239 160.5t-160.5 239t-60 291.5zM192 717q0 -130 50.5 -247t135.5 -202t202 -137.5t247 -52.5t247 52.5
t202 137.5t135.5 202t50.5 247t-50.5 247t-135.5 202t-202 137.5t-247 52.5t-247 -52.5t-202 -137.5t-135.5 -202t-50.5 -247zM428 717q0 200 102 318t293 118q107 0 186.5 -33t111.5 -98q21 -42 -7 -58l-76 -43q-37 -21 -60 22q-15 27 -54.5 48t-94.5 21q-122 0 -168 -75
t-46 -220t46 -220t168 -75q66 0 109 29t61 56q28 44 60 22l76 -52q28 -19 5 -58q-34 -58 -117 -98t-200 -40q-188 0 -291.5 118t-103.5 318z" />
    <glyph glyph-name="ordfeminine" unicode="&#xaa;" horiz-adv-x="776" 
d="M54 972q0 128 117 194t300 81v10q0 43 -38.5 62.5t-82.5 19.5q-42 0 -81 -9.5t-68 -30.5q-37 -27 -52 -2l-49 83q-18 31 11 51q43 29 107 47t150 18q141 0 222 -62t81 -195v-400q0 -39 -41 -39h-121q-37 0 -37 39v18h-1q-49 -39 -97 -54.5t-92 -15.5q-104 0 -166 47.5
t-62 137.5zM266 991q0 -32 26 -40t49 -8q35 0 60 8.5t70 36.5v106q-113 -16 -159 -37t-46 -66z" />
    <glyph glyph-name="guillemotleft" unicode="&#xab;" horiz-adv-x="1108" 
d="M152 498q-31 39 0 78l308 386q28 35 60 10l88 -70q27 -22 -4 -60l-247 -305l247 -305q31 -38 4 -60l-88 -70q-32 -25 -60 10zM554 498q-31 39 0 78l308 386q28 35 60 10l88 -70q27 -22 -4 -60l-247 -305l247 -305q31 -38 4 -60l-88 -70q-32 -25 -60 10z" />
    <glyph glyph-name="logicalnot" unicode="&#xac;" horiz-adv-x="1200" 
d="M135 775q-60 0 -60 50v86q0 50 60 50h990v-498q0 -60 -50 -60h-86q-50 0 -50 60v312h-804z" />
    <glyph glyph-name="uni00AD" unicode="&#xad;" horiz-adv-x="700" 
d="M113 446q-60 0 -60 50v114q0 50 60 50h474q60 0 60 -50v-114q0 -50 -60 -50h-474z" />
    <glyph glyph-name="registered" unicode="&#xae;" horiz-adv-x="1654" 
d="M76 717q0 153 60 291.5t160.5 239t239 160.5t291.5 60t291.5 -60t239 -160.5t160.5 -239t60 -291.5t-60 -291.5t-160.5 -239t-239 -160.5t-291.5 -60t-291.5 60t-239 160.5t-160.5 239t-60 291.5zM192 717q0 -130 50.5 -247t135.5 -202t202 -137.5t247 -52.5t247 52.5
t202 137.5t135.5 202t50.5 247t-50.5 247t-135.5 202t-202 137.5t-247 52.5t-247 -52.5t-202 -137.5t-135.5 -202t-50.5 -247zM562 283q-41 0 -41 43v745q0 43 41 43h268q179 0 261.5 -55.5t82.5 -179.5q0 -93 -66.5 -148t-169.5 -73v-1q56 -21 84 -57.5t46 -65.5l128 -201
q32 -50 -22 -50h-107q-32 0 -52 34l-117 195q-18 30 -69 68t-102 38h-31v-292q0 -43 -40 -43h-94zM696 763h94q116 0 165 26t49 83q0 63 -47 80.5t-139 17.5h-122v-207z" />
    <glyph glyph-name="macron" unicode="&#xaf;" horiz-adv-x="614" 
d="M38 1226q-60 0 -60 50v66q0 50 60 50h538q60 0 60 -50v-66q0 -50 -60 -50h-538z" />
    <glyph glyph-name="degree" unicode="&#xb0;" horiz-adv-x="600" 
d="M76 1240q0 93 65.5 158.5t158.5 65.5t158.5 -65.5t65.5 -158.5t-65.5 -158.5t-158.5 -65.5t-158.5 65.5t-65.5 158.5zM216 1240q0 -36 24 -60t60 -24t60 24t24 60t-24 60t-60 24t-60 -24t-24 -60z" />
    <glyph glyph-name="plusminus" unicode="&#xb1;" horiz-adv-x="1280" 
d="M135 -153q-60 0 -60 50v86q0 50 60 50h1010q60 0 60 -50v-86q0 -50 -60 -50h-1010zM135 632q-60 0 -60 50v86q0 50 60 50h412v412q0 60 50 60h86q50 0 50 -60v-412h412q60 0 60 -50v-86q0 -50 -60 -50h-412v-412q0 -60 -50 -60h-86q-50 0 -50 60v412h-412z" />
    <glyph glyph-name="uni00B2" unicode="&#xb2;" horiz-adv-x="630" 
d="M85 712q-39 0 -39 34v36q0 27 25 53l155 164q55 59 115.5 125t60.5 122q0 46 -24 71t-69 25q-61 0 -92 -33t-44 -70q-13 -41 -43 -27l-58 27q-24 11 -14 48q20 74 82.5 127.5t184.5 53.5q128 0 185.5 -65.5t57.5 -142.5q0 -92 -77.5 -165t-149.5 -149l-88 -93v-3
q31 2 52 2h233q39 0 39 -34v-72q0 -34 -39 -34h-453z" />
    <glyph glyph-name="uni00B3" unicode="&#xb3;" horiz-adv-x="630" 
d="M68 765q-21 18 -3 49l30 53q18 31 55 5q32 -23 73.5 -37t83.5 -14q54 0 88 31.5t34 78.5t-37 81.5t-91 34.5h-40q-34 0 -34 27v69q0 29 34 29h31q43 0 78.5 29t35.5 70q0 23 -22.5 47t-73.5 24q-47 0 -81 -13t-61 -38q-31 -29 -53 3l-36 53q-17 25 10 51q37 36 96.5 53
t116.5 17q133 0 199.5 -53t66.5 -130q0 -57 -46 -104t-96 -65v-2q59 -15 114 -64t55 -121q0 -114 -73.5 -174.5t-220.5 -60.5q-62 0 -128.5 19t-104.5 52z" />
    <glyph glyph-name="acute" unicode="&#xb4;" horiz-adv-x="614" 
d="M210 1150q-57 0 -21 59l108 179q28 47 106 47h152q74 0 22 -59l-165 -189q-32 -37 -101 -37h-101z" />
    <glyph glyph-name="uni00B5" unicode="&#xb5;" horiz-adv-x="1234" 
d="M196 -400q-60 0 -60 60v1330q0 60 60 60h160q60 0 60 -60v-394q0 -245 62 -332.5t139 -87.5q100 0 150.5 95t50.5 325v394q0 60 60 60h160q60 0 60 -60v-930q0 -60 -60 -60h-158q-60 0 -60 60v58h-4q-36 -73 -81 -105.5t-114 -32.5t-118.5 31t-84.5 107h-6q4 -40 4 -80
v-378q0 -60 -60 -60h-160z" />
    <glyph glyph-name="paragraph" unicode="&#xb6;" horiz-adv-x="1140" 
d="M75 1084q0 142 104 246t266 104h150q50 0 50 -60v-1684q0 -60 -50 -60h-100q-50 0 -50 60v1044q-162 0 -266 104t-104 246zM854 -370q-50 0 -50 60v1684q0 60 50 60h100q50 0 50 -60v-1684q0 -60 -50 -60h-100z" />
    <glyph glyph-name="periodcentered" unicode="&#xb7;" horiz-adv-x="668" 
d="M258 583q-70 0 -70 75v134q0 75 70 75h152q70 0 70 -75v-134q0 -75 -70 -75h-152z" />
    <glyph glyph-name="cedilla" unicode="&#xb8;" horiz-adv-x="614" 
d="M127 -401q-28 8 -18 42l13 45q11 37 46 23q34 -13 80 -13q41 0 64.5 13.5t23.5 42.5q0 25 -24.5 38t-78.5 13h-21q-34 0 -34 35q0 41 14 68l48 94q11 22 40 22h83q30 0 19 -22l-45 -88v-3q86 -12 120 -51t34 -102q0 -96 -66 -135.5t-166 -39.5q-69 0 -132 18z" />
    <glyph glyph-name="uni00B9" unicode="&#xb9;" horiz-adv-x="520" 
d="M91 1299q-13 25 18 40q30 14 70 40t61 52q23 29 45 29h97q31 0 31 -31v-686q0 -31 -31 -31h-98q-31 0 -31 31v484q0 21 2 42h-2q-16 -20 -44 -35.5t-42 -21.5q-24 -10 -37 14z" />
    <glyph glyph-name="ordmasculine" unicode="&#xba;" horiz-adv-x="820" 
d="M54 1141q0 170 88 262.5t268 92.5t268 -92.5t88 -262.5t-88 -262t-268 -92t-268 92t-88 262zM266 1141q0 -115 39.5 -156.5t104.5 -41.5t104.5 41.5t39.5 156.5t-39.5 157t-104.5 42t-104.5 -42t-39.5 -157z" />
    <glyph glyph-name="guillemotright" unicode="&#xbb;" horiz-adv-x="1108" 
d="M156 178q-27 22 4 60l247 305l-247 305q-31 38 -4 60l88 70q32 25 60 -10l308 -386q31 -39 0 -78l-308 -386q-28 -35 -60 -10zM558 178q-27 22 4 60l247 305l-247 305q-31 38 -4 60l88 70q32 25 60 -10l308 -386q31 -39 0 -78l-308 -386q-28 -35 -60 -10z" />
    <glyph glyph-name="onequarter" unicode="&#xbc;" horiz-adv-x="1776" 
d="M341 -29q-41 29 -7 78l1021 1458q35 50 76 21l70 -49q41 -29 7 -78l-1021 -1458q-35 -50 -76 -21zM1100 156q-34 0 -34 34v79q0 29 16 52l283 400q19 27 48 27h91q34 0 34 -34v-418h61q34 0 34 -34v-72q0 -34 -33 -34h-62v-122q0 -34 -33 -34h-93q-34 0 -34 34v122h-278z
M1221 296h157v180q0 21 2 41h-2zM211 1299q-13 25 18 40q30 14 70 40t61 52q23 29 45 29h97q31 0 31 -31v-686q0 -31 -31 -31h-98q-31 0 -31 31v484q0 21 2 42h-2q-16 -20 -44 -35.5t-42 -21.5q-24 -10 -37 14z" />
    <glyph glyph-name="onehalf" unicode="&#xbd;" horiz-adv-x="1776" 
d="M341 -29q-41 29 -7 78l1021 1458q35 50 76 21l70 -49q41 -29 7 -78l-1021 -1458q-35 -50 -76 -21zM211 1299q-13 25 18 40q30 14 70 40t61 52q23 29 45 29h97q31 0 31 -31v-686q0 -31 -31 -31h-98q-31 0 -31 31v484q0 21 2 42h-2q-16 -20 -44 -35.5t-42 -21.5
q-24 -10 -37 14zM1159 0q-39 0 -39 34v36q0 27 25 53l155 164q55 59 115.5 125t60.5 122q0 46 -24 71t-69 25q-61 0 -92 -33t-44 -70q-13 -41 -43 -27l-58 27q-24 11 -14 48q20 74 82.5 127.5t184.5 53.5q128 0 185.5 -65.5t57.5 -142.5q0 -92 -77.5 -165t-149.5 -149
l-88 -93v-3q31 2 52 2h233q39 0 39 -34v-72q0 -34 -39 -34h-453z" />
    <glyph glyph-name="threequarters" unicode="&#xbe;" horiz-adv-x="1776" 
d="M341 -29q-41 29 -7 78l1021 1458q35 50 76 21l70 -49q41 -29 7 -78l-1021 -1458q-35 -50 -76 -21zM164 765q-21 18 -3 49l30 53q18 31 55 5q32 -23 73.5 -37t83.5 -14q54 0 88 31.5t34 78.5t-37 81.5t-91 34.5h-40q-34 0 -34 27v69q0 29 34 29h31q43 0 78.5 29t35.5 70
q0 23 -22.5 47t-73.5 24q-47 0 -81 -13t-61 -38q-31 -29 -53 3l-36 53q-17 25 10 51q37 36 96.5 53t116.5 17q133 0 199.5 -53t66.5 -130q0 -57 -46 -104t-96 -65v-2q59 -15 114 -64t55 -121q0 -114 -73.5 -174.5t-220.5 -60.5q-62 0 -128.5 19t-104.5 52zM1096 156
q-34 0 -34 34v79q0 29 16 52l283 400q19 27 48 27h91q34 0 34 -34v-418h61q34 0 34 -34v-72q0 -34 -33 -34h-62v-122q0 -34 -33 -34h-93q-34 0 -34 34v122h-278zM1217 296h157v180q0 21 2 41h-2z" />
    <glyph glyph-name="questiondown" unicode="&#xbf;" horiz-adv-x="1106" 
d="M100 -18q0 141 165.5 304.5t165.5 269.5v16q0 65 65 65h150q65 0 65 -65v-30q0 -164 -155.5 -326t-155.5 -240q0 -81 37.5 -125.5t134.5 -44.5q86 0 139 39t87 95q33 55 89 19l105 -67q52 -33 13 -102q-41 -72 -155 -140t-288 -68q-237 0 -349.5 107t-112.5 293zM495 766
q-70 0 -70 75v134q0 75 70 75h152q70 0 70 -75v-134q0 -75 -70 -75h-152z" />
    <glyph glyph-name="Agrave" unicode="&#xc0;" horiz-adv-x="1394" 
d="M896 1540h-103q-70 0 -111 38l-158 146q-66 61 24 61h176q78 0 109 -47l88 -134q42 -64 -25 -64zM115 0q-72 0 -47 66l490 1287q31 81 94 81h140q63 0 94 -81l490 -1287q25 -66 -47 -66h-159q-66 0 -92 69l-102 269h-508l-102 -269q-26 -69 -92 -69h-159zM561 586h322
l-123 318q-22 56 -26.5 81.5t-9.5 75.5h-4q-5 -50 -9.5 -75.5t-26.5 -81.5z" />
    <glyph glyph-name="Aacute" unicode="&#xc1;" horiz-adv-x="1394" 
d="M606 1540q-67 0 -25 64l88 134q31 47 109 47h176q90 0 24 -61l-158 -146q-41 -38 -111 -38h-103zM115 0q-72 0 -47 66l490 1287q31 81 94 81h140q63 0 94 -81l490 -1287q25 -66 -47 -66h-159q-66 0 -92 69l-102 269h-508l-102 -269q-26 -69 -92 -69h-159zM561 586h322
l-123 318q-22 56 -26.5 81.5t-9.5 75.5h-4q-5 -50 -9.5 -75.5t-26.5 -81.5z" />
    <glyph glyph-name="Acircumflex" unicode="&#xc2;" horiz-adv-x="1394" 
d="M328 1585q-19 47 39 70l244 98q32 13 75 13h60q43 0 75 -13l244 -98q58 -23 39 -70l-20 -50q-19 -47 -76 -23l-291 120h-2l-291 -120q-57 -24 -76 23zM115 0q-72 0 -47 66l490 1287q31 81 94 81h140q63 0 94 -81l490 -1287q25 -66 -47 -66h-159q-66 0 -92 69l-102 269
h-508l-102 -269q-26 -69 -92 -69h-159zM561 586h322l-123 318q-22 56 -26.5 81.5t-9.5 75.5h-4q-5 -50 -9.5 -75.5t-26.5 -81.5z" />
    <glyph glyph-name="Atilde" unicode="&#xc3;" horiz-adv-x="1394" 
d="M344 1583q-34 21 -8 64q37 61 92 99.5t153 38.5q70 0 164 -46t133 -46q35 0 67.5 17t48.5 42q27 42 60 22l48 -29q34 -21 8 -64q-37 -61 -92 -99.5t-153 -38.5q-74 0 -164 46t-133 46q-35 0 -67.5 -17t-48.5 -42q-27 -42 -60 -22zM115 0q-72 0 -47 66l490 1287
q31 81 94 81h140q63 0 94 -81l490 -1287q25 -66 -47 -66h-159q-66 0 -92 69l-102 269h-508l-102 -269q-26 -69 -92 -69h-159zM561 586h322l-123 318q-22 56 -26.5 81.5t-9.5 75.5h-4q-5 -50 -9.5 -75.5t-26.5 -81.5z" />
    <glyph glyph-name="Adieresis" unicode="&#xc4;" horiz-adv-x="1394" 
d="M115 0q-72 0 -47 66l490 1287q31 81 94 81h140q63 0 94 -81l490 -1287q25 -66 -47 -66h-159q-66 0 -92 69l-102 269h-508l-102 -269q-26 -69 -92 -69h-159zM561 586h322l-123 318q-22 56 -26.5 81.5t-9.5 75.5h-4q-5 -50 -9.5 -75.5t-26.5 -81.5zM367 1530q-70 0 -70 75
v106q0 75 70 75h152q70 0 70 -75v-106q0 -75 -70 -75h-152zM875 1530q-70 0 -70 75v106q0 75 70 75h152q70 0 70 -75v-106q0 -75 -70 -75h-152z" />
    <glyph glyph-name="Aring" unicode="&#xc5;" horiz-adv-x="1394" 
d="M115 0q-72 0 -47 66l490 1287q31 81 94 81h140q63 0 94 -81l490 -1287q25 -66 -47 -66h-159q-66 0 -92 69l-102 269h-508l-102 -269q-26 -69 -92 -69h-159zM561 586h322l-123 318q-22 56 -26.5 81.5t-9.5 75.5h-4q-5 -50 -9.5 -75.5t-26.5 -81.5zM510 1647
q0 77 53.5 127.5t133.5 50.5t133.5 -51.5t53.5 -126.5t-53.5 -126.5t-133.5 -51.5t-133.5 50.5t-53.5 127.5zM602 1647q0 -38 26.5 -64t68.5 -26t68.5 26t26.5 64t-26.5 64t-68.5 26t-68.5 -26t-26.5 -64z" />
    <glyph glyph-name="AE" unicode="&#xc6;" horiz-adv-x="1911" 
d="M118 0q-75 0 -47 66l544 1287q34 81 94 81h1038q75 0 75 -65v-118q0 -65 -75 -65h-603v-318h550q75 0 75 -65v-118q0 -65 -75 -65h-550v-372h635q75 0 75 -65v-118q0 -65 -75 -65h-857q-70 0 -70 75v263h-366l-114 -269q-29 -69 -92 -69h-162zM590 586h262v600h-36
q-12 -72 -27 -120.5t-38 -101.5z" />
    <glyph glyph-name="Ccedilla" unicode="&#xc7;" horiz-adv-x="1418" 
d="M86 717q0 345 175 548t505 203q190 0 322 -59t186 -171q36 -74 -12 -100l-120 -64q-63 -34 -104 38q-26 46 -96.5 83t-165.5 37q-210 0 -294 -132.5t-84 -382.5t84 -382.5t294 -132.5q113 0 190.5 51t107.5 97q49 75 104 38l120 -80q49 -33 10 -100q-58 -100 -199 -171
t-343 -71q-325 0 -502.5 203t-177.5 548zM559 -401q-28 8 -18 42l13 45q11 37 46 23q34 -13 80 -13q41 0 64.5 13.5t23.5 42.5q0 25 -24.5 38t-78.5 13h-21q-34 0 -34 35q0 41 14 68l48 94q11 22 40 22h83q30 0 19 -22l-45 -88v-3q86 -12 120 -51t34 -102q0 -96 -66 -135.5
t-166 -39.5q-69 0 -132 18z" />
    <glyph glyph-name="Egrave" unicode="&#xc8;" horiz-adv-x="1280" 
d="M877 1540h-103q-70 0 -111 38l-158 146q-66 61 24 61h176q78 0 109 -47l88 -134q42 -64 -25 -64zM230 0q-70 0 -70 75v1284q0 75 70 75h858q75 0 75 -65v-118q0 -65 -75 -65h-636v-318h583q75 0 75 -65v-118q0 -65 -75 -65h-583v-372h668q75 0 75 -65v-118q0 -65 -75 -65
h-890z" />
    <glyph glyph-name="Eacute" unicode="&#xc9;" horiz-adv-x="1280" 
d="M587 1540q-67 0 -25 64l88 134q31 47 109 47h176q90 0 24 -61l-158 -146q-41 -38 -111 -38h-103zM230 0q-70 0 -70 75v1284q0 75 70 75h858q75 0 75 -65v-118q0 -65 -75 -65h-636v-318h583q75 0 75 -65v-118q0 -65 -75 -65h-583v-372h668q75 0 75 -65v-118q0 -65 -75 -65
h-890z" />
    <glyph glyph-name="Ecircumflex" unicode="&#xca;" horiz-adv-x="1280" 
d="M309 1585q-19 47 39 70l244 98q32 13 75 13h60q43 0 75 -13l244 -98q58 -23 39 -70l-20 -50q-19 -47 -76 -23l-291 120h-2l-291 -120q-57 -24 -76 23zM230 0q-70 0 -70 75v1284q0 75 70 75h858q75 0 75 -65v-118q0 -65 -75 -65h-636v-318h583q75 0 75 -65v-118
q0 -65 -75 -65h-583v-372h668q75 0 75 -65v-118q0 -65 -75 -65h-890z" />
    <glyph glyph-name="Edieresis" unicode="&#xcb;" horiz-adv-x="1280" 
d="M345 1530q-70 0 -70 75v106q0 75 70 75h152q70 0 70 -75v-106q0 -75 -70 -75h-152zM853 1530q-70 0 -70 75v106q0 75 70 75h152q70 0 70 -75v-106q0 -75 -70 -75h-152zM230 0q-70 0 -70 75v1284q0 75 70 75h858q75 0 75 -65v-118q0 -65 -75 -65h-636v-318h583
q75 0 75 -65v-118q0 -65 -75 -65h-583v-372h668q75 0 75 -65v-118q0 -65 -75 -65h-890z" />
    <glyph glyph-name="Igrave" unicode="&#xcc;" horiz-adv-x="612" 
d="M505 1540h-103q-70 0 -111 38l-158 146q-66 61 24 61h176q78 0 109 -47l88 -134q42 -64 -25 -64zM230 0q-70 0 -70 75v1284q0 75 70 75h152q70 0 70 -75v-1284q0 -75 -70 -75h-152z" />
    <glyph glyph-name="Iacute" unicode="&#xcd;" horiz-adv-x="612" 
d="M215 1540q-67 0 -25 64l88 134q31 47 109 47h176q90 0 24 -61l-158 -146q-41 -38 -111 -38h-103zM230 0q-70 0 -70 75v1284q0 75 70 75h152q70 0 70 -75v-1284q0 -75 -70 -75h-152z" />
    <glyph glyph-name="Icircumflex" unicode="&#xce;" horiz-adv-x="612" 
d="M-63 1585q-19 47 39 70l244 98q32 13 75 13h60q43 0 75 -13l244 -98q58 -23 39 -70l-20 -50q-19 -47 -76 -23l-291 120h-2l-291 -120q-57 -24 -76 23zM230 0q-70 0 -70 75v1284q0 75 70 75h152q70 0 70 -75v-1284q0 -75 -70 -75h-152z" />
    <glyph glyph-name="Idieresis" unicode="&#xcf;" horiz-adv-x="612" 
d="M230 0q-70 0 -70 75v1284q0 75 70 75h152q70 0 70 -75v-1284q0 -75 -70 -75h-152zM16 1530q-70 0 -70 75v106q0 75 70 75h132q70 0 70 -75v-106q0 -75 -70 -75h-132zM464 1530q-70 0 -70 75v106q0 75 70 75h132q70 0 70 -75v-106q0 -75 -70 -75h-132z" />
    <glyph glyph-name="Eth" unicode="&#xd0;" horiz-adv-x="1500" 
d="M105 612q-75 0 -75 65v118q0 65 75 65h105v499q0 75 70 75h349q460 0 622.5 -186t162.5 -529t-162.5 -531t-622.5 -188h-349q-70 0 -70 75v537h-105zM502 248h108q310 0 401 115.5t91 355.5t-91 354.5t-401 114.5h-108v-328h239q75 0 75 -65v-118q0 -65 -75 -65h-239
v-364z" />
    <glyph glyph-name="Ntilde" unicode="&#xd1;" horiz-adv-x="1472" 
d="M383 1583q-34 21 -8 64q37 61 92 99.5t153 38.5q70 0 164 -46t133 -46q35 0 67.5 17t48.5 42q27 42 60 22l48 -29q34 -21 8 -64q-37 -61 -92 -99.5t-153 -38.5q-74 0 -164 46t-133 46q-35 0 -67.5 -17t-48.5 -42q-27 -42 -60 -22zM230 0q-70 0 -70 75v1284q0 75 70 75
h148q86 0 130 -70l510 -819h7q-5 60 -5 120v694q0 75 70 75h152q70 0 70 -75v-1284q0 -75 -70 -75h-138q-86 0 -130 70l-520 834h-7q5 -60 5 -120v-709q0 -75 -70 -75h-152z" />
    <glyph glyph-name="Ograve" unicode="&#xd2;" horiz-adv-x="1544" 
d="M971 1540h-103q-70 0 -111 38l-158 146q-66 61 24 61h176q78 0 109 -47l88 -134q42 -64 -25 -64zM86 717q0 345 178 548t508 203t508 -203t178 -548t-178 -548t-508 -203t-508 203t-178 548zM398 717q0 -250 89.5 -382.5t284.5 -132.5t284.5 132.5t89.5 382.5
t-89.5 382.5t-284.5 132.5t-284.5 -132.5t-89.5 -382.5z" />
    <glyph glyph-name="Oacute" unicode="&#xd3;" horiz-adv-x="1544" 
d="M86 717q0 345 178 548t508 203t508 -203t178 -548t-178 -548t-508 -203t-508 203t-178 548zM398 717q0 -250 89.5 -382.5t284.5 -132.5t284.5 132.5t89.5 382.5t-89.5 382.5t-284.5 132.5t-284.5 -132.5t-89.5 -382.5zM681 1540q-67 0 -25 64l88 134q31 47 109 47h176
q90 0 24 -61l-158 -146q-41 -38 -111 -38h-103z" />
    <glyph glyph-name="Ocircumflex" unicode="&#xd4;" horiz-adv-x="1544" 
d="M403 1585q-19 47 39 70l244 98q32 13 75 13h60q43 0 75 -13l244 -98q58 -23 39 -70l-20 -50q-19 -47 -76 -23l-291 120h-2l-291 -120q-57 -24 -76 23zM86 717q0 345 178 548t508 203t508 -203t178 -548t-178 -548t-508 -203t-508 203t-178 548zM398 717
q0 -250 89.5 -382.5t284.5 -132.5t284.5 132.5t89.5 382.5t-89.5 382.5t-284.5 132.5t-284.5 -132.5t-89.5 -382.5z" />
    <glyph glyph-name="Otilde" unicode="&#xd5;" horiz-adv-x="1544" 
d="M419 1583q-34 21 -8 64q37 61 92 99.5t153 38.5q70 0 164 -46t133 -46q35 0 67.5 17t48.5 42q27 42 60 22l48 -29q34 -21 8 -64q-37 -61 -92 -99.5t-153 -38.5q-74 0 -164 46t-133 46q-35 0 -67.5 -17t-48.5 -42q-27 -42 -60 -22zM86 717q0 345 178 548t508 203t508 -203
t178 -548t-178 -548t-508 -203t-508 203t-178 548zM398 717q0 -250 89.5 -382.5t284.5 -132.5t284.5 132.5t89.5 382.5t-89.5 382.5t-284.5 132.5t-284.5 -132.5t-89.5 -382.5z" />
    <glyph glyph-name="Odieresis" unicode="&#xd6;" horiz-adv-x="1544" 
d="M86 717q0 345 178 548t508 203t508 -203t178 -548t-178 -548t-508 -203t-508 203t-178 548zM398 717q0 -250 89.5 -382.5t284.5 -132.5t284.5 132.5t89.5 382.5t-89.5 382.5t-284.5 132.5t-284.5 -132.5t-89.5 -382.5zM447 1530q-70 0 -70 75v106q0 75 70 75h152
q70 0 70 -75v-106q0 -75 -70 -75h-152zM955 1530q-70 0 -70 75v106q0 75 70 75h152q70 0 70 -75v-106q0 -75 -70 -75h-152z" />
    <glyph glyph-name="multiply" unicode="&#xd7;" horiz-adv-x="1280" 
d="M244 356q-35 35 7 78l291 291l-291 292q-42 42 -7 77l61 61q35 35 78 -7l291 -291l291 291q42 42 78 7l61 -61q35 -35 -7 -77l-292 -292l292 -291q42 -42 7 -78l-61 -61q-35 -35 -78 7l-291 292l-291 -292q-42 -42 -78 -7z" />
    <glyph glyph-name="Oslash" unicode="&#xd8;" horiz-adv-x="1544" 
d="M126 717q0 345 178 548t508 203q252 0 415 -118l120 133q40 45 81 8l89 -81q41 -36 1 -81l-135 -150q115 -185 115 -462q0 -345 -178 -548t-508 -203q-252 0 -415 118l-120 -133q-40 -45 -81 -8l-89 81q-41 37 -1 81l135 150q-115 185 -115 462zM438 717q0 -124 22 -219
l590 655q-88 79 -238 79q-195 0 -284.5 -132.5t-89.5 -382.5zM574 281q88 -79 238 -79q195 0 284.5 132.5t89.5 382.5q0 124 -22 219z" />
    <glyph glyph-name="Ugrave" unicode="&#xd9;" horiz-adv-x="1422" 
d="M910 1540h-103q-70 0 -111 38l-158 146q-66 61 24 61h176q78 0 109 -47l88 -134q42 -64 -25 -64zM160 597v782q0 55 70 55h152q70 0 70 -55v-772q0 -270 79.5 -337.5t179.5 -67.5t179.5 67.5t79.5 337.5v772q0 55 70 55h152q70 0 70 -55v-782q0 -350 -148 -490.5
t-403 -140.5t-403 140.5t-148 490.5z" />
    <glyph glyph-name="Uacute" unicode="&#xda;" horiz-adv-x="1422" 
d="M620 1540q-67 0 -25 64l88 134q31 47 109 47h176q90 0 24 -61l-158 -146q-41 -38 -111 -38h-103zM160 597v782q0 55 70 55h152q70 0 70 -55v-772q0 -270 79.5 -337.5t179.5 -67.5t179.5 67.5t79.5 337.5v772q0 55 70 55h152q70 0 70 -55v-782q0 -350 -148 -490.5
t-403 -140.5t-403 140.5t-148 490.5z" />
    <glyph glyph-name="Ucircumflex" unicode="&#xdb;" horiz-adv-x="1422" 
d="M342 1585q-19 47 39 70l244 98q32 13 75 13h60q43 0 75 -13l244 -98q58 -23 39 -70l-20 -50q-19 -47 -76 -23l-291 120h-2l-291 -120q-57 -24 -76 23zM160 597v782q0 55 70 55h152q70 0 70 -55v-772q0 -270 79.5 -337.5t179.5 -67.5t179.5 67.5t79.5 337.5v772
q0 55 70 55h152q70 0 70 -55v-782q0 -350 -148 -490.5t-403 -140.5t-403 140.5t-148 490.5z" />
    <glyph glyph-name="Udieresis" unicode="&#xdc;" horiz-adv-x="1422" 
d="M381 1530q-70 0 -70 75v106q0 75 70 75h152q70 0 70 -75v-106q0 -75 -70 -75h-152zM889 1530q-70 0 -70 75v106q0 75 70 75h152q70 0 70 -75v-106q0 -75 -70 -75h-152zM160 597v782q0 55 70 55h152q70 0 70 -55v-772q0 -270 79.5 -337.5t179.5 -67.5t179.5 67.5
t79.5 337.5v772q0 55 70 55h152q70 0 70 -55v-782q0 -350 -148 -490.5t-403 -140.5t-403 140.5t-148 490.5z" />
    <glyph glyph-name="Yacute" unicode="&#xdd;" horiz-adv-x="1368" 
d="M593 1540q-67 0 -25 64l88 134q31 47 109 47h176q90 0 24 -61l-158 -146q-41 -38 -111 -38h-103zM102 1348q-51 86 47 86h175q52 0 92 -69l213 -371q9 -15 53 -93.5t51 -152.5h4q7 74 51 152.5t53 93.5l213 371q40 69 92 69h175q98 0 47 -86l-487 -823v-470
q0 -55 -70 -55h-152q-70 0 -70 55v470z" />
    <glyph glyph-name="Thorn" unicode="&#xde;" horiz-adv-x="1312" 
d="M230 -11q-70 0 -70 75v1299q0 75 70 75h152q70 0 70 -75v-165h156q320 0 467 -114t147 -334t-147 -334t-467 -114h-156v-238q0 -75 -70 -75h-152zM452 546h163q161 0 233 47t72 157t-72 157t-233 47h-163v-408z" />
    <glyph glyph-name="germandbls" unicode="&#xdf;" horiz-adv-x="1337" 
d="M196 0q-60 0 -60 60v1050q0 201 152.5 293.5t365.5 92.5q240 0 353 -101t113 -245q0 -118 -69 -204t-187 -148v-3q160 -11 269.5 -118t109.5 -301q0 -164 -105.5 -280t-337.5 -116q-62 0 -130 13t-111 41q-41 26 -25 64l46 110q19 46 66 13q20 -14 57.5 -29.5t76.5 -15.5
q74 0 120.5 60t46.5 163q0 101 -67.5 169t-193.5 72q-27 1 -39 35l-45 132q-9 28 24 52l56 41q100 73 129 119.5t29 121.5q0 67 -41 113t-143 46q-104 0 -172 -52t-68 -208v-980q0 -60 -60 -60h-160z" />
    <glyph glyph-name="agrave" unicode="&#xe0;" horiz-adv-x="1123" 
d="M373 1376q-52 59 22 59h152q78 0 106 -47l108 -179q36 -59 -21 -59h-101q-69 0 -101 37zM80 280q0 200 191 290t436 96v40q0 92 -46 130t-128 38q-58 0 -102.5 -16.5t-77 -38t-58.5 -43.5q-46 -40 -76 -4l-83 102q-31 38 15 78q35 31 81.5 54t123.5 43.5t200 20.5
q208 0 319.5 -96t111.5 -283v-631q0 -60 -60 -60h-164q-54 0 -54 60v30h-2q-59 -57 -141.5 -83.5t-151.5 -26.5q-164 0 -249 80.5t-85 219.5zM376 286q0 -35 14 -60.5t44 -37.5t67 -12q51 0 99 14t107 66v217q-168 -19 -225 -49t-81.5 -62t-24.5 -76z" />
    <glyph glyph-name="aacute" unicode="&#xe1;" horiz-adv-x="1123" 
d="M460 1150q-57 0 -21 59l108 179q28 47 106 47h152q74 0 22 -59l-165 -189q-32 -37 -101 -37h-101zM80 280q0 200 191 290t436 96v40q0 92 -46 130t-128 38q-58 0 -102.5 -16.5t-77 -38t-58.5 -43.5q-46 -40 -76 -4l-83 102q-31 38 15 78q35 31 81.5 54t123.5 43.5
t200 20.5q208 0 319.5 -96t111.5 -283v-631q0 -60 -60 -60h-164q-54 0 -54 60v30h-2q-59 -57 -141.5 -83.5t-151.5 -26.5q-164 0 -249 80.5t-85 219.5zM376 286q0 -35 14 -60.5t44 -37.5t67 -12q51 0 99 14t107 66v217q-168 -19 -225 -49t-81.5 -62t-24.5 -76z" />
    <glyph glyph-name="acircumflex" unicode="&#xe2;" horiz-adv-x="1123" 
d="M270 1186q-29 41 21 76l207 145q39 27 68 27h38q29 0 68 -27l207 -145q50 -35 21 -76l-25 -36q-30 -41 -78 -6l-211 151h-2l-211 -151q-49 -35 -78 6zM80 280q0 200 191 290t436 96v40q0 92 -46 130t-128 38q-58 0 -102.5 -16.5t-77 -38t-58.5 -43.5q-46 -40 -76 -4
l-83 102q-31 38 15 78q35 31 81.5 54t123.5 43.5t200 20.5q208 0 319.5 -96t111.5 -283v-631q0 -60 -60 -60h-164q-54 0 -54 60v30h-2q-59 -57 -141.5 -83.5t-151.5 -26.5q-164 0 -249 80.5t-85 219.5zM376 286q0 -35 14 -60.5t44 -37.5t67 -12q51 0 99 14t107 66v217
q-168 -19 -225 -49t-81.5 -62t-24.5 -76z" />
    <glyph glyph-name="atilde" unicode="&#xe3;" horiz-adv-x="1123" 
d="M253 1184q-31 14 -15 61q22 63 77.5 107t135.5 44q68 0 144 -52t111 -52q31 0 52.5 13.5t36.5 43.5q21 43 54 28l42 -19q31 -14 15 -61q-22 -63 -77.5 -107t-135.5 -44q-68 0 -144 52t-111 52q-31 0 -52.5 -13.5t-36.5 -43.5q-21 -43 -54 -28zM80 280q0 200 191 290
t436 96v40q0 92 -46 130t-128 38q-58 0 -102.5 -16.5t-77 -38t-58.5 -43.5q-46 -40 -76 -4l-83 102q-31 38 15 78q35 31 81.5 54t123.5 43.5t200 20.5q208 0 319.5 -96t111.5 -283v-631q0 -60 -60 -60h-164q-54 0 -54 60v30h-2q-59 -57 -141.5 -83.5t-151.5 -26.5
q-164 0 -249 80.5t-85 219.5zM376 286q0 -35 14 -60.5t44 -37.5t67 -12q51 0 99 14t107 66v217q-168 -19 -225 -49t-81.5 -62t-24.5 -76z" />
    <glyph glyph-name="adieresis" unicode="&#xe4;" horiz-adv-x="1123" 
d="M80 280q0 200 191 290t436 96v40q0 92 -46 130t-128 38q-58 0 -102.5 -16.5t-77 -38t-58.5 -43.5q-46 -40 -76 -4l-83 102q-31 38 15 78q35 31 81.5 54t123.5 43.5t200 20.5q208 0 319.5 -96t111.5 -283v-631q0 -60 -60 -60h-164q-54 0 -54 60v30h-2
q-59 -57 -141.5 -83.5t-151.5 -26.5q-164 0 -249 80.5t-85 219.5zM376 286q0 -35 14 -60.5t44 -37.5t67 -12q51 0 99 14t107 66v217q-168 -19 -225 -49t-81.5 -62t-24.5 -76zM287 1206q-60 0 -60 60v116q0 60 60 60h116q60 0 60 -60v-116q0 -60 -60 -60h-116zM713 1206
q-60 0 -60 60v116q0 60 60 60h116q60 0 60 -60v-116q0 -60 -60 -60h-116z" />
    <glyph glyph-name="aring" unicode="&#xe5;" horiz-adv-x="1123" 
d="M367 1313q0 77 55 131.5t134 54.5t134 -54.5t55 -131.5t-55 -131.5t-134 -54.5t-134 54.5t-55 131.5zM462 1313q0 -40 27 -67t67 -27t67 27t27 67t-27 67t-67 27t-67 -27t-27 -67zM80 280q0 200 191 290t436 96v40q0 92 -46 130t-128 38q-58 0 -102.5 -16.5t-77 -38
t-58.5 -43.5q-46 -40 -76 -4l-83 102q-31 38 15 78q35 31 81.5 54t123.5 43.5t200 20.5q208 0 319.5 -96t111.5 -283v-631q0 -60 -60 -60h-164q-54 0 -54 60v30h-2q-59 -57 -141.5 -83.5t-151.5 -26.5q-164 0 -249 80.5t-85 219.5zM376 286q0 -35 14 -60.5t44 -37.5t67 -12
q51 0 99 14t107 66v217q-168 -19 -225 -49t-81.5 -62t-24.5 -76z" />
    <glyph glyph-name="ae" unicode="&#xe6;" horiz-adv-x="1765" 
d="M80 280q0 200 188.5 290t428.5 96v40q0 92 -46 130t-124 38q-58 0 -102.5 -18.5t-74.5 -38t-55 -41.5q-46 -40 -76 -4l-83 102q-31 38 15 78q38 34 88 57.5t123.5 42t189.5 18.5q84 0 164.5 -19.5t142.5 -74.5h3q50 48 132 71t166 23q268 0 395.5 -138t127.5 -444
q0 -60 -56 -60h-650q11 -148 77 -200t148 -52q68 0 122 21t86 61q36 45 84 14l93 -61q58 -38 17 -86q-61 -73 -140.5 -109t-256.5 -36q-163 0 -264 39t-164 127h-2q-63 -70 -161 -118t-192 -48q-178 0 -261 80.5t-83 219.5zM376 286q0 -30 12 -57.5t43 -40t64 -12.5
q48 0 100 24t115 84q-11 76 -13 189q-154 -20 -211 -47.5t-83.5 -60t-26.5 -79.5zM977 628h426q0 108 -51.5 176.5t-169.5 68.5q-94 0 -147 -65.5t-58 -179.5z" />
    <glyph glyph-name="ccedilla" unicode="&#xe7;" horiz-adv-x="1086" 
d="M80 525q0 255 128 400t393 145q155 0 241 -41t138 -120q31 -47 -10 -74l-106 -70q-45 -30 -79 23q-17 26 -65 56t-119 30q-113 0 -169 -79.5t-56 -269.5t56 -269.5t169 -79.5q81 0 131 34t94 88q38 46 80 13l93 -73q42 -33 5 -88q-39 -58 -132.5 -114t-270.5 -56
q-265 0 -393 145t-128 400zM391 -401q-28 8 -18 42l13 45q11 37 46 23q34 -13 80 -13q41 0 64.5 13.5t23.5 42.5q0 25 -24.5 38t-78.5 13h-21q-34 0 -34 35q0 41 14 68l48 94q11 22 40 22h83q30 0 19 -22l-45 -88v-3q86 -12 120 -51t34 -102q0 -96 -66 -135.5t-166 -39.5
q-69 0 -132 18z" />
    <glyph glyph-name="egrave" unicode="&#xe8;" horiz-adv-x="1174" 
d="M381 1376q-52 59 22 59h152q78 0 106 -47l108 -179q36 -59 -21 -59h-101q-69 0 -101 37zM80 525q0 253 126.5 399t357.5 146q268 0 398 -138t130 -444q0 -60 -56 -60h-660q16 -166 82 -209t153 -43q83 0 127 22t74 60q34 44 84 14l100 -61q59 -36 17 -86
q-61 -73 -143 -109t-259 -36q-287 0 -409 146t-122 399zM377 628h435q0 108 -54 176.5t-172 68.5q-94 0 -149 -65.5t-60 -179.5z" />
    <glyph glyph-name="eacute" unicode="&#xe9;" horiz-adv-x="1174" 
d="M468 1150q-57 0 -21 59l108 179q28 47 106 47h152q74 0 22 -59l-165 -189q-32 -37 -101 -37h-101zM80 525q0 253 126.5 399t357.5 146q268 0 398 -138t130 -444q0 -60 -56 -60h-660q16 -166 82 -209t153 -43q83 0 127 22t74 60q34 44 84 14l100 -61q59 -36 17 -86
q-61 -73 -143 -109t-259 -36q-287 0 -409 146t-122 399zM377 628h435q0 108 -54 176.5t-172 68.5q-94 0 -149 -65.5t-60 -179.5z" />
    <glyph glyph-name="ecircumflex" unicode="&#xea;" horiz-adv-x="1174" 
d="M278 1186q-29 41 21 76l207 145q39 27 68 27h38q29 0 68 -27l207 -145q50 -35 21 -76l-25 -36q-30 -41 -78 -6l-211 151h-2l-211 -151q-49 -35 -78 6zM80 525q0 253 126.5 399t357.5 146q268 0 398 -138t130 -444q0 -60 -56 -60h-660q16 -166 82 -209t153 -43
q83 0 127 22t74 60q34 44 84 14l100 -61q59 -36 17 -86q-61 -73 -143 -109t-259 -36q-287 0 -409 146t-122 399zM377 628h435q0 108 -54 176.5t-172 68.5q-94 0 -149 -65.5t-60 -179.5z" />
    <glyph glyph-name="edieresis" unicode="&#xeb;" horiz-adv-x="1174" 
d="M319 1206q-60 0 -60 60v116q0 60 60 60h116q60 0 60 -60v-116q0 -60 -60 -60h-116zM745 1206q-60 0 -60 60v116q0 60 60 60h116q60 0 60 -60v-116q0 -60 -60 -60h-116zM80 525q0 253 126.5 399t357.5 146q268 0 398 -138t130 -444q0 -60 -56 -60h-660q16 -166 82 -209
t153 -43q83 0 127 22t74 60q34 44 84 14l100 -61q59 -36 17 -86q-61 -73 -143 -109t-259 -36q-287 0 -409 146t-122 399zM377 628h435q0 108 -54 176.5t-172 68.5q-94 0 -149 -65.5t-60 -179.5z" />
    <glyph glyph-name="eth" unicode="&#xf0;" horiz-adv-x="1206" 
d="M80 518q0 245 129.5 381t352.5 136q110 0 177.5 -27t127.5 -99h9q-48 120 -137 193t-137 105l-148 -82q-52 -29 -76 14l-37 66q-24 43 29 73l52 29q-23 10 -47 20q-50 21 -24 67l47 82q22 39 81 16q79 -31 151 -70l116 64q52 29 76 -14l37 -66q23 -40 -29 -73l-35 -23
q91 -72 207.5 -232t116.5 -483q0 -331 -128 -473t-388 -142t-391.5 146.5t-131.5 391.5zM376 508q0 -175 58.5 -253.5t168.5 -78.5t168.5 78.5t58.5 253.5t-58.5 253t-168.5 78t-168.5 -78t-58.5 -253z" />
    <glyph glyph-name="ntilde" unicode="&#xf1;" horiz-adv-x="1200" 
d="M298 1184q-31 14 -15 61q22 63 77.5 107t135.5 44q68 0 144 -52t111 -52q31 0 52.5 13.5t36.5 43.5q21 43 54 28l42 -19q31 -14 15 -61q-22 -63 -77.5 -107t-135.5 -44q-68 0 -144 52t-111 52q-31 0 -52.5 -13.5t-36.5 -43.5q-21 -43 -54 -28zM196 0q-60 0 -60 60v930
q0 60 60 60h158q60 0 60 -60v-58h4q46 79 117 108.5t171 29.5q156 0 258 -98t102 -358v-554q0 -60 -60 -60h-160q-60 0 -60 60v482q0 218 -30 275t-129 57q-105 0 -158 -81.5t-53 -338.5v-394q0 -60 -60 -60h-160z" />
    <glyph glyph-name="ograve" unicode="&#xf2;" horiz-adv-x="1206" 
d="M420 1376q-52 59 22 59h152q78 0 106 -47l108 -179q36 -59 -21 -59h-101q-69 0 -101 37zM80 525q0 255 131.5 400t391.5 145t391.5 -145t131.5 -400t-131.5 -400t-391.5 -145t-391.5 145t-131.5 400zM376 525q0 -190 58.5 -269.5t168.5 -79.5t168.5 79.5t58.5 269.5
t-58.5 269.5t-168.5 79.5t-168.5 -79.5t-58.5 -269.5z" />
    <glyph glyph-name="oacute" unicode="&#xf3;" horiz-adv-x="1206" 
d="M80 525q0 255 131.5 400t391.5 145t391.5 -145t131.5 -400t-131.5 -400t-391.5 -145t-391.5 145t-131.5 400zM376 525q0 -190 58.5 -269.5t168.5 -79.5t168.5 79.5t58.5 269.5t-58.5 269.5t-168.5 79.5t-168.5 -79.5t-58.5 -269.5zM507 1150q-57 0 -21 59l108 179
q28 47 106 47h152q74 0 22 -59l-165 -189q-32 -37 -101 -37h-101z" />
    <glyph glyph-name="ocircumflex" unicode="&#xf4;" horiz-adv-x="1206" 
d="M317 1186q-29 41 21 76l207 145q39 27 68 27h38q29 0 68 -27l207 -145q50 -35 21 -76l-25 -36q-30 -41 -78 -6l-211 151h-2l-211 -151q-49 -35 -78 6zM80 525q0 255 131.5 400t391.5 145t391.5 -145t131.5 -400t-131.5 -400t-391.5 -145t-391.5 145t-131.5 400zM376 525
q0 -190 58.5 -269.5t168.5 -79.5t168.5 79.5t58.5 269.5t-58.5 269.5t-168.5 79.5t-168.5 -79.5t-58.5 -269.5z" />
    <glyph glyph-name="otilde" unicode="&#xf5;" horiz-adv-x="1206" 
d="M300 1184q-31 14 -15 61q22 63 77.5 107t135.5 44q68 0 144 -52t111 -52q31 0 52.5 13.5t36.5 43.5q21 43 54 28l42 -19q31 -14 15 -61q-22 -63 -77.5 -107t-135.5 -44q-68 0 -144 52t-111 52q-31 0 -52.5 -13.5t-36.5 -43.5q-21 -43 -54 -28zM80 525q0 255 131.5 400
t391.5 145t391.5 -145t131.5 -400t-131.5 -400t-391.5 -145t-391.5 145t-131.5 400zM376 525q0 -190 58.5 -269.5t168.5 -79.5t168.5 79.5t58.5 269.5t-58.5 269.5t-168.5 79.5t-168.5 -79.5t-58.5 -269.5z" />
    <glyph glyph-name="odieresis" unicode="&#xf6;" horiz-adv-x="1206" 
d="M80 525q0 255 131.5 400t391.5 145t391.5 -145t131.5 -400t-131.5 -400t-391.5 -145t-391.5 145t-131.5 400zM376 525q0 -190 58.5 -269.5t168.5 -79.5t168.5 79.5t58.5 269.5t-58.5 269.5t-168.5 79.5t-168.5 -79.5t-58.5 -269.5zM332 1206q-60 0 -60 60v116q0 60 60 60
h116q60 0 60 -60v-116q0 -60 -60 -60h-116zM758 1206q-60 0 -60 60v116q0 60 60 60h116q60 0 60 -60v-116q0 -60 -60 -60h-116z" />
    <glyph glyph-name="divide" unicode="&#xf7;" horiz-adv-x="1280" 
d="M564 198q-70 0 -70 75v134q0 75 70 75h152q70 0 70 -75v-134q0 -75 -70 -75h-152zM564 968q-70 0 -70 75v134q0 75 70 75h152q70 0 70 -75v-134q0 -75 -70 -75h-152zM135 632q-60 0 -60 50v86q0 50 60 50h1010q60 0 60 -50v-86q0 -50 -60 -50h-1010z" />
    <glyph glyph-name="oslash" unicode="&#xf8;" horiz-adv-x="1206" 
d="M92 525q0 255 131.5 400t391.5 145q177 0 295 -68l51 57q40 45 77 11l75 -67q37 -33 -3 -78l-56 -62q84 -134 84 -338q0 -255 -131.5 -400t-391.5 -145q-177 0 -295 68l-51 -57q-40 -45 -77 -11l-75 67q-37 33 3 78l56 62q-84 134 -84 338zM388 525q0 -53 5 -97l360 400
q-54 46 -138 46q-110 0 -168.5 -79.5t-58.5 -269.5zM477 222q54 -46 138 -46q110 0 168.5 79.5t58.5 269.5q0 53 -5 97z" />
    <glyph glyph-name="ugrave" unicode="&#xf9;" horiz-adv-x="1194" 
d="M413 1376q-52 59 22 59h152q78 0 106 -47l108 -179q36 -59 -21 -59h-101q-69 0 -101 37zM134 436v554q0 60 60 60h160q60 0 60 -60v-482q0 -218 30 -275t126 -57q102 0 155 81.5t53 338.5v394q0 60 60 60h160q60 0 60 -60v-930q0 -60 -60 -60h-158q-60 0 -60 60v58h-4
q-46 -79 -117 -108.5t-168 -29.5q-153 0 -255 98t-102 358z" />
    <glyph glyph-name="uacute" unicode="&#xfa;" horiz-adv-x="1194" 
d="M500 1150q-57 0 -21 59l108 179q28 47 106 47h152q74 0 22 -59l-165 -189q-32 -37 -101 -37h-101zM134 436v554q0 60 60 60h160q60 0 60 -60v-482q0 -218 30 -275t126 -57q102 0 155 81.5t53 338.5v394q0 60 60 60h160q60 0 60 -60v-930q0 -60 -60 -60h-158q-60 0 -60 60
v58h-4q-46 -79 -117 -108.5t-168 -29.5q-153 0 -255 98t-102 358z" />
    <glyph glyph-name="ucircumflex" unicode="&#xfb;" horiz-adv-x="1194" 
d="M310 1186q-29 41 21 76l207 145q39 27 68 27h38q29 0 68 -27l207 -145q50 -35 21 -76l-25 -36q-30 -41 -78 -6l-211 151h-2l-211 -151q-49 -35 -78 6zM134 436v554q0 60 60 60h160q60 0 60 -60v-482q0 -218 30 -275t126 -57q102 0 155 81.5t53 338.5v394q0 60 60 60h160
q60 0 60 -60v-930q0 -60 -60 -60h-158q-60 0 -60 60v58h-4q-46 -79 -117 -108.5t-168 -29.5q-153 0 -255 98t-102 358z" />
    <glyph glyph-name="udieresis" unicode="&#xfc;" horiz-adv-x="1194" 
d="M325 1206q-60 0 -60 60v116q0 60 60 60h116q60 0 60 -60v-116q0 -60 -60 -60h-116zM751 1206q-60 0 -60 60v116q0 60 60 60h116q60 0 60 -60v-116q0 -60 -60 -60h-116zM134 436v554q0 60 60 60h160q60 0 60 -60v-482q0 -218 30 -275t126 -57q102 0 155 81.5t53 338.5v394
q0 60 60 60h160q60 0 60 -60v-930q0 -60 -60 -60h-158q-60 0 -60 60v58h-4q-46 -79 -117 -108.5t-168 -29.5q-153 0 -255 98t-102 358z" />
    <glyph glyph-name="yacute" unicode="&#xfd;" horiz-adv-x="990" 
d="M410 1150q-57 0 -21 59l108 179q28 47 106 47h152q74 0 22 -59l-165 -189q-32 -37 -101 -37h-101zM71 972q-27 78 33 78h179q46 0 60 -51l151 -559q11 -39 19.5 -100.5t8.5 -78.5h6q12 53 17.5 84.5t30.5 122.5l143 531q14 51 60 51h179q59 0 33 -78l-337 -1014
q-59 -178 -145 -278t-239 -100q-84 0 -150 14q-38 8 -29 52l22 110q9 43 51 30q31 -10 58 -10q81 0 123.5 77t56.5 132l3 15z" />
    <glyph glyph-name="thorn" unicode="&#xfe;" horiz-adv-x="1192" 
d="M196 -400q-60 0 -60 60v1756q0 60 60 60h160q60 0 60 -60v-404q0 -40 -4 -80h4q52 86 116 112t154 26q235 0 330.5 -162.5t95.5 -382.5t-95.5 -382.5t-330.5 -162.5q-90 0 -154 26t-116 112h-4q4 -40 4 -80v-378q0 -60 -60 -60h-160zM416 480q0 -135 53.5 -219.5
t128.5 -84.5q135 0 176.5 94.5t41.5 254.5t-41.5 254.5t-176.5 94.5q-75 0 -128.5 -84.5t-53.5 -219.5v-90z" />
    <glyph glyph-name="ydieresis" unicode="&#xff;" horiz-adv-x="990" 
d="M235 1206q-60 0 -60 60v116q0 60 60 60h116q60 0 60 -60v-116q0 -60 -60 -60h-116zM661 1206q-60 0 -60 60v116q0 60 60 60h116q60 0 60 -60v-116q0 -60 -60 -60h-116zM71 972q-27 78 33 78h179q46 0 60 -51l151 -559q11 -39 19.5 -100.5t8.5 -78.5h6q12 53 17.5 84.5
t30.5 122.5l143 531q14 51 60 51h179q59 0 33 -78l-337 -1014q-59 -178 -145 -278t-239 -100q-84 0 -150 14q-38 8 -29 52l22 110q9 43 51 30q31 -10 58 -10q81 0 123.5 77t56.5 132l3 15z" />
    <glyph glyph-name="Amacron" unicode="&#x100;" horiz-adv-x="1394" 
d="M390 1534q-65 0 -65 60v70q0 60 65 60h614q65 0 65 -60v-70q0 -60 -65 -60h-614zM115 0q-72 0 -47 66l490 1287q31 81 94 81h140q63 0 94 -81l490 -1287q25 -66 -47 -66h-159q-66 0 -92 69l-102 269h-508l-102 -269q-26 -69 -92 -69h-159zM561 586h322l-123 318
q-22 56 -26.5 81.5t-9.5 75.5h-4q-5 -50 -9.5 -75.5t-26.5 -81.5z" />
    <glyph glyph-name="amacron" unicode="&#x101;" horiz-adv-x="1123" 
d="M287 1226q-60 0 -60 50v66q0 50 60 50h538q60 0 60 -50v-66q0 -50 -60 -50h-538zM80 280q0 200 191 290t436 96v40q0 92 -46 130t-128 38q-58 0 -102.5 -16.5t-77 -38t-58.5 -43.5q-46 -40 -76 -4l-83 102q-31 38 15 78q35 31 81.5 54t123.5 43.5t200 20.5
q208 0 319.5 -96t111.5 -283v-631q0 -60 -60 -60h-164q-54 0 -54 60v30h-2q-59 -57 -141.5 -83.5t-151.5 -26.5q-164 0 -249 80.5t-85 219.5zM376 286q0 -35 14 -60.5t44 -37.5t67 -12q51 0 99 14t107 66v217q-168 -19 -225 -49t-81.5 -62t-24.5 -76z" />
    <glyph glyph-name="Abreve" unicode="&#x102;" horiz-adv-x="1394" 
d="M347 1765q-22 52 20 72l62 29q41 19 72 -28q26 -40 82 -81t136 -41t136 41t82 81q31 47 72 28l62 -29q42 -20 20 -72q-44 -105 -138 -165t-234 -60t-234 60t-138 165zM115 0q-72 0 -47 66l490 1287q31 81 94 81h140q63 0 94 -81l490 -1287q25 -66 -47 -66h-159
q-66 0 -92 69l-102 269h-508l-102 -269q-26 -69 -92 -69h-159zM561 586h322l-123 318q-22 56 -26.5 81.5t-9.5 75.5h-4q-5 -50 -9.5 -75.5t-26.5 -81.5z" />
    <glyph glyph-name="abreve" unicode="&#x103;" horiz-adv-x="1123" 
d="M247 1350q-20 43 10 60l64 36q36 20 56 -21q26 -53 75.5 -90t123.5 -37t123.5 37t75.5 90q20 41 56 21l64 -36q30 -17 10 -60q-50 -110 -129 -165t-200 -55t-200 55t-129 165zM80 280q0 200 191 290t436 96v40q0 92 -46 130t-128 38q-58 0 -102.5 -16.5t-77 -38
t-58.5 -43.5q-46 -40 -76 -4l-83 102q-31 38 15 78q35 31 81.5 54t123.5 43.5t200 20.5q208 0 319.5 -96t111.5 -283v-631q0 -60 -60 -60h-164q-54 0 -54 60v30h-2q-59 -57 -141.5 -83.5t-151.5 -26.5q-164 0 -249 80.5t-85 219.5zM376 286q0 -35 14 -60.5t44 -37.5t67 -12
q51 0 99 14t107 66v217q-168 -19 -225 -49t-81.5 -62t-24.5 -76z" />
    <glyph glyph-name="aogonek" unicode="&#x105;" horiz-adv-x="1123" 
d="M80 280q0 200 191 290t436 96v40q0 92 -46 130t-128 38q-58 0 -102.5 -16.5t-77 -38t-58.5 -43.5q-46 -40 -76 -4l-83 102q-31 38 15 78q35 31 81.5 54t123.5 43.5t200 20.5q208 0 319.5 -96t111.5 -283v-631q0 -45 -37 -71q-52 -43 -115 -88.5t-63 -76.5t23.5 -39.5
t55.5 -8.5q50 0 81 5q36 6 40 -31l14 -118q4 -36 -34 -43q-44 -9 -134 -9q-141 0 -211.5 44t-70.5 129q0 36 9.5 70t51.5 83t94 94q18 13 18 60v30h-2q-59 -57 -141.5 -83.5t-151.5 -26.5q-164 0 -249 80.5t-85 219.5zM376 286q0 -35 14 -60.5t44 -37.5t67 -12q51 0 99 14
t107 66v217q-168 -19 -225 -49t-81.5 -62t-24.5 -76z" />
    <glyph glyph-name="Cacute" unicode="&#x106;" horiz-adv-x="1418" 
d="M675 1540q-67 0 -25 64l88 134q31 47 109 47h176q90 0 24 -61l-158 -146q-41 -38 -111 -38h-103zM86 717q0 345 175 548t505 203q190 0 322 -59t186 -171q36 -74 -12 -100l-120 -64q-63 -34 -104 38q-26 46 -96.5 83t-165.5 37q-210 0 -294 -132.5t-84 -382.5t84 -382.5
t294 -132.5q113 0 190.5 51t107.5 97q49 75 104 38l120 -80q49 -33 10 -100q-58 -100 -199 -171t-343 -71q-325 0 -502.5 203t-177.5 548z" />
    <glyph glyph-name="cacute" unicode="&#x107;" horiz-adv-x="1086" 
d="M505 1150q-57 0 -21 59l108 179q28 47 106 47h152q74 0 22 -59l-165 -189q-32 -37 -101 -37h-101zM80 525q0 255 128 400t393 145q155 0 241 -41t138 -120q31 -47 -10 -74l-106 -70q-45 -30 -79 23q-17 26 -65 56t-119 30q-113 0 -169 -79.5t-56 -269.5t56 -269.5
t169 -79.5q81 0 131 34t94 88q38 46 80 13l93 -73q42 -33 5 -88q-39 -58 -132.5 -114t-270.5 -56q-265 0 -393 145t-128 400z" />
    <glyph glyph-name="Ccircumflex" unicode="&#x108;" horiz-adv-x="1418" 
d="M397 1585q-19 47 39 70l244 98q32 13 75 13h60q43 0 75 -13l244 -98q58 -23 39 -70l-20 -50q-19 -47 -76 -23l-291 120h-2l-291 -120q-57 -24 -76 23zM86 717q0 345 175 548t505 203q190 0 322 -59t186 -171q36 -74 -12 -100l-120 -64q-63 -34 -104 38q-26 46 -96.5 83
t-165.5 37q-210 0 -294 -132.5t-84 -382.5t84 -382.5t294 -132.5q113 0 190.5 51t107.5 97q49 75 104 38l120 -80q49 -33 10 -100q-58 -100 -199 -171t-343 -71q-325 0 -502.5 203t-177.5 548z" />
    <glyph glyph-name="ccircumflex" unicode="&#x109;" horiz-adv-x="1086" 
d="M315 1186q-29 41 21 76l207 145q39 27 68 27h38q29 0 68 -27l207 -145q50 -35 21 -76l-25 -36q-30 -41 -78 -6l-211 151h-2l-211 -151q-49 -35 -78 6zM80 525q0 255 128 400t393 145q155 0 241 -41t138 -120q31 -47 -10 -74l-106 -70q-45 -30 -79 23q-17 26 -65 56
t-119 30q-113 0 -169 -79.5t-56 -269.5t56 -269.5t169 -79.5q81 0 131 34t94 88q38 46 80 13l93 -73q42 -33 5 -88q-39 -58 -132.5 -114t-270.5 -56q-265 0 -393 145t-128 400z" />
    <glyph glyph-name="Cdotaccent" unicode="&#x10a;" horiz-adv-x="1418" 
d="M690 1526q-70 0 -70 75v114q0 75 70 75h152q70 0 70 -75v-114q0 -75 -70 -75h-152zM86 717q0 345 175 548t505 203q190 0 322 -59t186 -171q36 -74 -12 -100l-120 -64q-63 -34 -104 38q-26 46 -96.5 83t-165.5 37q-210 0 -294 -132.5t-84 -382.5t84 -382.5t294 -132.5
q113 0 190.5 51t107.5 97q49 75 104 38l120 -80q49 -33 10 -100q-58 -100 -199 -171t-343 -71q-325 0 -502.5 203t-177.5 548z" />
    <glyph glyph-name="cdotaccent" unicode="&#x10b;" horiz-adv-x="1086" 
d="M521 1204q-60 0 -60 60v128q0 60 60 60h160q60 0 60 -60v-128q0 -60 -60 -60h-160zM80 525q0 255 128 400t393 145q155 0 241 -41t138 -120q31 -47 -10 -74l-106 -70q-45 -30 -79 23q-17 26 -65 56t-119 30q-113 0 -169 -79.5t-56 -269.5t56 -269.5t169 -79.5
q81 0 131 34t94 88q38 46 80 13l93 -73q42 -33 5 -88q-39 -58 -132.5 -114t-270.5 -56q-265 0 -393 145t-128 400z" />
    <glyph glyph-name="Ccaron" unicode="&#x10c;" horiz-adv-x="1418" 
d="M436 1617q-58 23 -39 70l20 50q19 47 76 23l291 -120h2l291 120q57 24 76 -23l20 -50q19 -47 -39 -70l-244 -98q-32 -13 -75 -13h-60q-43 0 -75 13zM86 717q0 345 175 548t505 203q190 0 322 -59t186 -171q36 -74 -12 -100l-120 -64q-63 -34 -104 38q-26 46 -96.5 83
t-165.5 37q-210 0 -294 -132.5t-84 -382.5t84 -382.5t294 -132.5q113 0 190.5 51t107.5 97q49 75 104 38l120 -80q49 -33 10 -100q-58 -100 -199 -171t-343 -71q-325 0 -502.5 203t-177.5 548z" />
    <glyph glyph-name="ccaron" unicode="&#x10d;" horiz-adv-x="1086" 
d="M336 1310q-50 35 -21 76l25 36q30 41 78 6l211 -151h2l211 151q49 35 78 -6l25 -36q29 -41 -21 -76l-207 -145q-39 -27 -68 -27h-38q-29 0 -68 27zM80 525q0 255 128 400t393 145q155 0 241 -41t138 -120q31 -47 -10 -74l-106 -70q-45 -30 -79 23q-17 26 -65 56t-119 30
q-113 0 -169 -79.5t-56 -269.5t56 -269.5t169 -79.5q81 0 131 34t94 88q38 46 80 13l93 -73q42 -33 5 -88q-39 -58 -132.5 -114t-270.5 -56q-265 0 -393 145t-128 400z" />
    <glyph glyph-name="Dcaron" unicode="&#x10e;" horiz-adv-x="1450" 
d="M386 1617q-58 23 -39 70l20 50q19 47 76 23l291 -120h2l291 120q57 24 76 -23l20 -50q19 -47 -39 -70l-244 -98q-32 -13 -75 -13h-60q-43 0 -75 13zM230 0q-70 0 -70 75v1284q0 75 70 75h349q460 0 622.5 -186t162.5 -529t-162.5 -531t-622.5 -188h-349zM452 248h108
q310 0 401 115.5t91 355.5t-91 354.5t-401 114.5h-108v-940z" />
    <glyph glyph-name="dcaron" unicode="&#x10f;" horiz-adv-x="1464" 
d="M1180 1159q-40 18 -19 61q14 29 23 75t9 99v22q0 60 60 60h160q60 0 60 -60v-9q0 -91 -31 -158.5t-74 -113.5q-40 -43 -81 -25zM80 525q0 220 95.5 382.5t330.5 162.5q90 0 154 -26t116 -112h4q-4 40 -4 80v404q0 60 60 60h160q60 0 60 -60v-1356q0 -60 -60 -60h-158
q-50 0 -54 60l-4 58h-4q-52 -86 -116 -112t-154 -26q-235 0 -330.5 162.5t-95.5 382.5zM376 525q0 -160 41.5 -254.5t176.5 -94.5q75 0 128.5 84.5t53.5 219.5v90q0 135 -53.5 219.5t-128.5 84.5q-135 0 -176.5 -94.5t-41.5 -254.5z" />
    <glyph glyph-name="Dcroat" unicode="&#x110;" horiz-adv-x="1500" 
d="M105 612q-75 0 -75 65v118q0 65 75 65h105v499q0 75 70 75h349q460 0 622.5 -186t162.5 -529t-162.5 -531t-622.5 -188h-349q-70 0 -70 75v537h-105zM502 248h108q310 0 401 115.5t91 355.5t-91 354.5t-401 114.5h-108v-328h239q75 0 75 -65v-118q0 -65 -75 -65h-239
v-364z" />
    <glyph glyph-name="dcroat" unicode="&#x111;" horiz-adv-x="1238" 
d="M80 525q0 220 95.5 382.5t330.5 162.5q90 0 154 -26t116 -112h4q-4 40 -4 80v168h-271q-60 0 -60 50v100q0 50 60 50h271v36q0 60 60 60h160q60 0 60 -60v-36h105q60 0 60 -50v-100q0 -50 -60 -50h-105v-1120q0 -60 -60 -60h-158q-50 0 -54 60l-4 58h-4
q-52 -86 -116 -112t-154 -26q-235 0 -330.5 162.5t-95.5 382.5zM376 525q0 -160 41.5 -254.5t176.5 -94.5q75 0 128.5 84.5t53.5 219.5v90q0 135 -53.5 219.5t-128.5 84.5q-135 0 -176.5 -94.5t-41.5 -254.5z" />
    <glyph glyph-name="Emacron" unicode="&#x112;" horiz-adv-x="1280" 
d="M371 1534q-65 0 -65 60v70q0 60 65 60h614q65 0 65 -60v-70q0 -60 -65 -60h-614zM230 0q-70 0 -70 75v1284q0 75 70 75h858q75 0 75 -65v-118q0 -65 -75 -65h-636v-318h583q75 0 75 -65v-118q0 -65 -75 -65h-583v-372h668q75 0 75 -65v-118q0 -65 -75 -65h-890z" />
    <glyph glyph-name="emacron" unicode="&#x113;" horiz-adv-x="1174" 
d="M295 1226q-60 0 -60 50v66q0 50 60 50h538q60 0 60 -50v-66q0 -50 -60 -50h-538zM80 525q0 253 126.5 399t357.5 146q268 0 398 -138t130 -444q0 -60 -56 -60h-660q16 -166 82 -209t153 -43q83 0 127 22t74 60q34 44 84 14l100 -61q59 -36 17 -86q-61 -73 -143 -109
t-259 -36q-287 0 -409 146t-122 399zM377 628h435q0 108 -54 176.5t-172 68.5q-94 0 -149 -65.5t-60 -179.5z" />
    <glyph glyph-name="Ebreve" unicode="&#x114;" horiz-adv-x="1280" 
d="M328 1765q-22 52 20 72l62 29q41 19 72 -28q26 -40 82 -81t136 -41t136 41t82 81q31 47 72 28l62 -29q42 -20 20 -72q-44 -105 -138 -165t-234 -60t-234 60t-138 165zM230 0q-70 0 -70 75v1284q0 75 70 75h858q75 0 75 -65v-118q0 -65 -75 -65h-636v-318h583q75 0 75 -65
v-118q0 -65 -75 -65h-583v-372h668q75 0 75 -65v-118q0 -65 -75 -65h-890z" />
    <glyph glyph-name="ebreve" unicode="&#x115;" horiz-adv-x="1174" 
d="M255 1350q-20 43 10 60l64 36q36 20 56 -21q26 -53 75.5 -90t123.5 -37t123.5 37t75.5 90q20 41 56 21l64 -36q30 -17 10 -60q-50 -110 -129 -165t-200 -55t-200 55t-129 165zM80 525q0 253 126.5 399t357.5 146q268 0 398 -138t130 -444q0 -60 -56 -60h-660
q16 -166 82 -209t153 -43q83 0 127 22t74 60q34 44 84 14l100 -61q59 -36 17 -86q-61 -73 -143 -109t-259 -36q-287 0 -409 146t-122 399zM377 628h435q0 108 -54 176.5t-172 68.5q-94 0 -149 -65.5t-60 -179.5z" />
    <glyph glyph-name="Edotaccent" unicode="&#x116;" horiz-adv-x="1280" 
d="M602 1526q-70 0 -70 75v114q0 75 70 75h152q70 0 70 -75v-114q0 -75 -70 -75h-152zM230 0q-70 0 -70 75v1284q0 75 70 75h858q75 0 75 -65v-118q0 -65 -75 -65h-636v-318h583q75 0 75 -65v-118q0 -65 -75 -65h-583v-372h668q75 0 75 -65v-118q0 -65 -75 -65h-890z" />
    <glyph glyph-name="edotaccent" unicode="&#x117;" horiz-adv-x="1174" 
d="M484 1204q-60 0 -60 60v128q0 60 60 60h160q60 0 60 -60v-128q0 -60 -60 -60h-160zM80 525q0 253 126.5 399t357.5 146q268 0 398 -138t130 -444q0 -60 -56 -60h-660q16 -166 82 -209t153 -43q83 0 127 22t74 60q34 44 84 14l100 -61q59 -36 17 -86q-61 -73 -143 -109
t-259 -36q-287 0 -409 146t-122 399zM377 628h435q0 108 -54 176.5t-172 68.5q-94 0 -149 -65.5t-60 -179.5z" />
    <glyph glyph-name="Eogonek" unicode="&#x118;" horiz-adv-x="1280" 
d="M230 0q-70 0 -70 75v1284q0 75 70 75h858q75 0 75 -65v-118q0 -65 -75 -65h-636v-318h583q75 0 75 -65v-118q0 -65 -75 -65h-583v-372h668q75 0 75 -65v-118q0 -65 -75 -65h-11q-50 -34 -124.5 -89.5t-74.5 -86.5t24 -39.5t56 -8.5q50 0 80 5q36 6 40 -31l14 -118
q4 -36 -34 -43q-44 -9 -134 -9q-141 0 -211.5 44t-70.5 129q0 36 10 70t51.5 82.5t94.5 91.5v7q-60 -4 -120 -4h-480z" />
    <glyph glyph-name="eogonek" unicode="&#x119;" horiz-adv-x="1174" 
d="M80 525q0 253 126.5 399t357.5 146q268 0 398 -138t130 -444q0 -60 -56 -60h-660q16 -166 82 -209t153 -43q83 0 127 22t74 60q34 44 84 14l100 -61q59 -36 17 -86q-35 -41 -71.5 -67t-81.5 -69q-52 -43 -115 -88.5t-63 -76.5t23.5 -39.5t55.5 -8.5q50 0 81 5
q36 6 40 -31l14 -118q4 -36 -34 -43q-44 -9 -134 -9q-141 0 -211.5 44t-70.5 129q0 36 9.5 70t44 74.5t110.5 80.5v4q-10 -2 -20 -2q-266 0 -388 146t-122 399zM377 628h435q0 108 -54 176.5t-172 68.5q-94 0 -149 -65.5t-60 -179.5z" />
    <glyph glyph-name="Ecaron" unicode="&#x11a;" horiz-adv-x="1280" 
d="M348 1617q-58 23 -39 70l20 50q19 47 76 23l291 -120h2l291 120q57 24 76 -23l20 -50q19 -47 -39 -70l-244 -98q-32 -13 -75 -13h-60q-43 0 -75 13zM230 0q-70 0 -70 75v1284q0 75 70 75h858q75 0 75 -65v-118q0 -65 -75 -65h-636v-318h583q75 0 75 -65v-118
q0 -65 -75 -65h-583v-372h668q75 0 75 -65v-118q0 -65 -75 -65h-890z" />
    <glyph glyph-name="ecaron" unicode="&#x11b;" horiz-adv-x="1174" 
d="M299 1310q-50 35 -21 76l25 36q30 41 78 6l211 -151h2l211 151q49 35 78 -6l25 -36q29 -41 -21 -76l-207 -145q-39 -27 -68 -27h-38q-29 0 -68 27zM80 525q0 253 126.5 399t357.5 146q268 0 398 -138t130 -444q0 -60 -56 -60h-660q16 -166 82 -209t153 -43q83 0 127 22
t74 60q34 44 84 14l100 -61q59 -36 17 -86q-61 -73 -143 -109t-259 -36q-287 0 -409 146t-122 399zM377 628h435q0 108 -54 176.5t-172 68.5q-94 0 -149 -65.5t-60 -179.5z" />
    <glyph glyph-name="Gcircumflex" unicode="&#x11c;" horiz-adv-x="1506" 
d="M407 1585q-19 47 39 70l244 98q32 13 75 13h60q43 0 75 -13l244 -98q58 -23 39 -70l-20 -50q-19 -47 -76 -23l-291 120h-2l-291 -120q-57 -24 -76 23zM86 717q0 345 180 548t510 203q199 0 312.5 -51t199.5 -158q52 -65 -3 -101l-114 -74q-50 -33 -107 29q-47 51 -119 85
t-159 34q-210 0 -299 -132.5t-89 -382.5t89 -382.5t299 -132.5q102 0 176 20.5t140 74.5v179h-217q-75 0 -75 65v118q0 65 75 65h434q75 0 75 -65v-508q-140 -103 -282.5 -144t-335.5 -41q-325 0 -507.5 203t-182.5 548z" />
    <glyph glyph-name="gcircumflex" unicode="&#x11d;" horiz-adv-x="1192" 
d="M282 1186q-29 41 21 76l207 145q39 27 68 27h38q29 0 68 -27l207 -145q50 -35 21 -76l-25 -36q-30 -41 -78 -6l-211 151h-2l-211 -151q-49 -35 -78 6zM80 525q0 220 95.5 382.5t330.5 162.5q90 0 154 -26t116 -112h4l4 58q4 60 54 60h158q60 0 60 -60v-979
q0 -245 -132 -338t-382 -93q-106 0 -196 11t-182 55q-48 23 -16 87l36 72q22 44 73 20q41 -19 101.5 -34t153.5 -15q128 0 196 47.5t68 207.5v17q0 40 4 80h-4q-52 -86 -116 -112t-154 -26q-235 0 -330.5 162.5t-95.5 372.5zM376 525q0 -150 41.5 -244.5t176.5 -94.5
q75 0 128.5 84.5t53.5 219.5v80q0 135 -53.5 219.5t-128.5 84.5q-135 0 -176.5 -94.5t-41.5 -254.5z" />
    <glyph glyph-name="Gbreve" unicode="&#x11e;" horiz-adv-x="1506" 
d="M426 1765q-22 52 20 72l62 29q41 19 72 -28q26 -40 82 -81t136 -41t136 41t82 81q31 47 72 28l62 -29q42 -20 20 -72q-44 -105 -138 -165t-234 -60t-234 60t-138 165zM86 717q0 345 180 548t510 203q199 0 312.5 -51t199.5 -158q52 -65 -3 -101l-114 -74q-50 -33 -107 29
q-47 51 -119 85t-159 34q-210 0 -299 -132.5t-89 -382.5t89 -382.5t299 -132.5q102 0 176 20.5t140 74.5v179h-217q-75 0 -75 65v118q0 65 75 65h434q75 0 75 -65v-508q-140 -103 -282.5 -144t-335.5 -41q-325 0 -507.5 203t-182.5 548z" />
    <glyph glyph-name="gbreve" unicode="&#x11f;" horiz-adv-x="1192" 
d="M259 1350q-20 43 10 60l64 36q36 20 56 -21q26 -53 75.5 -90t123.5 -37t123.5 37t75.5 90q20 41 56 21l64 -36q30 -17 10 -60q-50 -110 -129 -165t-200 -55t-200 55t-129 165zM80 525q0 220 95.5 382.5t330.5 162.5q90 0 154 -26t116 -112h4l4 58q4 60 54 60h158
q60 0 60 -60v-979q0 -245 -132 -338t-382 -93q-106 0 -196 11t-182 55q-48 23 -16 87l36 72q22 44 73 20q41 -19 101.5 -34t153.5 -15q128 0 196 47.5t68 207.5v17q0 40 4 80h-4q-52 -86 -116 -112t-154 -26q-235 0 -330.5 162.5t-95.5 372.5zM376 525q0 -150 41.5 -244.5
t176.5 -94.5q75 0 128.5 84.5t53.5 219.5v80q0 135 -53.5 219.5t-128.5 84.5q-135 0 -176.5 -94.5t-41.5 -254.5z" />
    <glyph glyph-name="Gdotaccent" unicode="&#x120;" horiz-adv-x="1506" 
d="M700 1526q-70 0 -70 75v114q0 75 70 75h152q70 0 70 -75v-114q0 -75 -70 -75h-152zM86 717q0 345 180 548t510 203q199 0 312.5 -51t199.5 -158q52 -65 -3 -101l-114 -74q-50 -33 -107 29q-47 51 -119 85t-159 34q-210 0 -299 -132.5t-89 -382.5t89 -382.5t299 -132.5
q102 0 176 20.5t140 74.5v179h-217q-75 0 -75 65v118q0 65 75 65h434q75 0 75 -65v-508q-140 -103 -282.5 -144t-335.5 -41q-325 0 -507.5 203t-182.5 548z" />
    <glyph glyph-name="gdotaccent" unicode="&#x121;" horiz-adv-x="1192" 
d="M488 1204q-60 0 -60 60v128q0 60 60 60h160q60 0 60 -60v-128q0 -60 -60 -60h-160zM80 525q0 220 95.5 382.5t330.5 162.5q90 0 154 -26t116 -112h4l4 58q4 60 54 60h158q60 0 60 -60v-979q0 -245 -132 -338t-382 -93q-106 0 -196 11t-182 55q-48 23 -16 87l36 72
q22 44 73 20q41 -19 101.5 -34t153.5 -15q128 0 196 47.5t68 207.5v17q0 40 4 80h-4q-52 -86 -116 -112t-154 -26q-235 0 -330.5 162.5t-95.5 372.5zM376 525q0 -150 41.5 -244.5t176.5 -94.5q75 0 128.5 84.5t53.5 219.5v80q0 135 -53.5 219.5t-128.5 84.5
q-135 0 -176.5 -94.5t-41.5 -254.5z" />
    <glyph glyph-name="Hcircumflex" unicode="&#x124;" horiz-adv-x="1442" 
d="M352 1585q-19 47 39 70l244 98q32 13 75 13h60q43 0 75 -13l244 -98q58 -23 39 -70l-20 -50q-19 -47 -76 -23l-291 120h-2l-291 -120q-57 -24 -76 23zM230 0q-70 0 -70 75v1284q0 75 70 75h152q70 0 70 -75v-489h538v489q0 75 70 75h152q70 0 70 -75v-1284q0 -75 -70 -75
h-152q-70 0 -70 75v547h-538v-547q0 -75 -70 -75h-152z" />
    <glyph glyph-name="hcircumflex" unicode="&#x125;" horiz-adv-x="1200" 
d="M315 1592q-29 41 21 76l207 145q39 27 68 27h38q29 0 68 -27l207 -145q50 -35 21 -76l-25 -36q-30 -41 -78 -6l-211 151h-2l-211 -151q-49 -35 -78 6zM196 0q-60 0 -60 60v1356q0 60 60 60h160q60 0 60 -60v-404q0 -40 -4 -80h6q46 79 117 108.5t171 29.5q156 0 258 -98
t102 -358v-554q0 -60 -60 -60h-160q-60 0 -60 60v482q0 218 -30 275t-129 57q-105 0 -158 -81.5t-53 -338.5v-394q0 -60 -60 -60h-160z" />
    <glyph glyph-name="hbar" unicode="&#x127;" horiz-adv-x="1232" 
d="M77 1180q-60 0 -60 50v100q0 50 60 50h91v36q0 60 60 60h160q60 0 60 -60v-36h343q60 0 60 -50v-100q0 -50 -60 -50h-343v-168q0 -40 -4 -80h6q46 79 117 108.5t171 29.5q156 0 258 -98t102 -358v-554q0 -60 -60 -60h-160q-60 0 -60 60v482q0 218 -30 275t-129 57
q-105 0 -158 -81.5t-53 -338.5v-394q0 -60 -60 -60h-160q-60 0 -60 60v1120h-91z" />
    <glyph glyph-name="Itilde" unicode="&#x128;" horiz-adv-x="612" 
d="M-47 1583q-34 21 -8 64q37 61 92 99.5t153 38.5q70 0 164 -46t133 -46q35 0 67.5 17t48.5 42q27 42 60 22l48 -29q34 -21 8 -64q-37 -61 -92 -99.5t-153 -38.5q-74 0 -164 46t-133 46q-35 0 -67.5 -17t-48.5 -42q-27 -42 -60 -22zM230 0q-70 0 -70 75v1284q0 75 70 75
h152q70 0 70 -75v-1284q0 -75 -70 -75h-152z" />
    <glyph glyph-name="itilde" unicode="&#x129;" horiz-adv-x="552" 
d="M-27 1184q-31 14 -15 61q22 63 77.5 107t135.5 44q68 0 144 -52t111 -52q31 0 52.5 13.5t36.5 43.5q21 43 54 28l42 -19q31 -14 15 -61q-22 -63 -77.5 -107t-135.5 -44q-68 0 -144 52t-111 52q-31 0 -52.5 -13.5t-36.5 -43.5q-21 -43 -54 -28zM196 0q-60 0 -60 60v930
q0 60 60 60h160q60 0 60 -60v-930q0 -60 -60 -60h-160z" />
    <glyph glyph-name="Imacron" unicode="&#x12a;" horiz-adv-x="612" 
d="M-1 1534q-65 0 -65 60v70q0 60 65 60h614q65 0 65 -60v-70q0 -60 -65 -60h-614zM230 0q-70 0 -70 75v1284q0 75 70 75h152q70 0 70 -75v-1284q0 -75 -70 -75h-152z" />
    <glyph glyph-name="Ibreve" unicode="&#x12c;" horiz-adv-x="612" 
d="M-44 1765q-22 52 20 72l62 29q41 19 72 -28q26 -40 82 -81t136 -41t136 41t82 81q31 47 72 28l62 -29q42 -20 20 -72q-44 -105 -138 -165t-234 -60t-234 60t-138 165zM230 0q-70 0 -70 75v1284q0 75 70 75h152q70 0 70 -75v-1284q0 -75 -70 -75h-152z" />
    <glyph glyph-name="Idotaccent" unicode="&#x130;" horiz-adv-x="612" 
d="M230 1526q-70 0 -70 75v114q0 75 70 75h152q70 0 70 -75v-114q0 -75 -70 -75h-152zM230 0q-70 0 -70 75v1284q0 75 70 75h152q70 0 70 -75v-1284q0 -75 -70 -75h-152z" />
    <glyph glyph-name="dotlessi" unicode="&#x131;" horiz-adv-x="552" 
d="M196 0q-60 0 -60 60v930q0 60 60 60h160q60 0 60 -60v-930q0 -60 -60 -60h-160z" />
    <glyph glyph-name="Jcircumflex" unicode="&#x134;" horiz-adv-x="947" 
d="M272 1585q-19 47 39 70l244 98q32 13 75 13h60q43 0 75 -13l244 -98q58 -23 39 -70l-20 -50q-19 -47 -76 -23l-291 120h-2l-291 -120q-57 -24 -76 23zM90 19q-53 31 -40 75l42 137q18 59 94 12q65 -41 145 -41q110 0 143.5 76t33.5 253v828q0 75 70 75h152q70 0 70 -75
v-808q0 -368 -123.5 -476.5t-342.5 -108.5q-153 0 -244 53z" />
    <glyph glyph-name="Lacute" unicode="&#x139;" horiz-adv-x="1162" 
d="M544 1540q-67 0 -25 64l88 134q31 47 109 47h176q90 0 24 -61l-158 -146q-41 -38 -111 -38h-103zM230 0q-70 0 -70 75v1284q0 75 70 75h162q60 0 60 -75v-1111h583q75 0 75 -65v-118q0 -65 -75 -65h-805z" />
    <glyph glyph-name="lacute" unicode="&#x13a;" horiz-adv-x="552" 
d="M180 1556q-57 0 -21 59l108 179q28 47 106 47h152q74 0 22 -59l-165 -189q-32 -37 -101 -37h-101zM196 0q-60 0 -60 60v1181q0 45 21 82l77 135q22 38 52 38h70q60 0 60 -60v-1376q0 -60 -60 -60h-160z" />
    <glyph glyph-name="Lcaron" unicode="&#x13d;" horiz-adv-x="1162" 
d="M675 1159q-40 18 -19 61q14 29 23 75t9 99v22q0 60 60 60h160q60 0 60 -60v-9q0 -91 -31 -158.5t-74 -113.5q-40 -43 -81 -25zM230 0q-70 0 -70 75v1284q0 75 70 75h162q60 0 60 -75v-1111h583q75 0 75 -65v-118q0 -65 -75 -65h-805z" />
    <glyph glyph-name="lcaron" unicode="&#x13e;" horiz-adv-x="824" 
d="M540 1159q-40 18 -19 61q14 29 23 75t9 99v22q0 60 60 60h160q60 0 60 -60v-9q0 -91 -31 -158.5t-74 -113.5q-40 -43 -81 -25zM196 0q-60 0 -60 60v1181q0 45 21 82l77 135q22 38 52 38h70q60 0 60 -60v-1376q0 -60 -60 -60h-160z" />
    <glyph glyph-name="Lslash" unicode="&#x141;" horiz-adv-x="1244" 
d="M125 398q-70 -47 -70 20v144q0 54 50 88l137 92v617q0 75 70 75h162q60 0 60 -75v-297q0 -60 -5 -120h7l231 155q70 47 70 -20v-144q0 -55 -50 -88l-253 -169v-428h583q75 0 75 -65v-118q0 -65 -75 -65h-805q-70 0 -70 75v281q0 60 5 120h-7z" />
    <glyph glyph-name="lslash" unicode="&#x142;" horiz-adv-x="692" 
d="M91 473q-55 -41 -55 15v142q0 45 43 77l122 90v444q0 45 21 82l77 135q22 38 52 38h70q60 0 60 -60v-348q0 -40 -4 -80h4l120 88q55 40 55 -16v-142q0 -45 -43 -76l-132 -96v-706q0 -60 -60 -60h-160q-60 0 -60 60v415q0 40 4 80h-4z" />
    <glyph glyph-name="Nacute" unicode="&#x143;" horiz-adv-x="1472" 
d="M645 1540q-67 0 -25 64l88 134q31 47 109 47h176q90 0 24 -61l-158 -146q-41 -38 -111 -38h-103zM230 0q-70 0 -70 75v1284q0 75 70 75h148q86 0 130 -70l510 -819h7q-5 60 -5 120v694q0 75 70 75h152q70 0 70 -75v-1284q0 -75 -70 -75h-138q-86 0 -130 70l-520 834h-7
q5 -60 5 -120v-709q0 -75 -70 -75h-152z" />
    <glyph glyph-name="nacute" unicode="&#x144;" horiz-adv-x="1200" 
d="M505 1150q-57 0 -21 59l108 179q28 47 106 47h152q74 0 22 -59l-165 -189q-32 -37 -101 -37h-101zM196 0q-60 0 -60 60v930q0 60 60 60h158q60 0 60 -60v-58h4q46 79 117 108.5t171 29.5q156 0 258 -98t102 -358v-554q0 -60 -60 -60h-160q-60 0 -60 60v482q0 218 -30 275
t-129 57q-105 0 -158 -81.5t-53 -338.5v-394q0 -60 -60 -60h-160z" />
    <glyph glyph-name="Ncaron" unicode="&#x147;" horiz-adv-x="1472" 
d="M406 1617q-58 23 -39 70l20 50q19 47 76 23l291 -120h2l291 120q57 24 76 -23l20 -50q19 -47 -39 -70l-244 -98q-32 -13 -75 -13h-60q-43 0 -75 13zM230 0q-70 0 -70 75v1284q0 75 70 75h148q86 0 130 -70l510 -819h7q-5 60 -5 120v694q0 75 70 75h152q70 0 70 -75v-1284
q0 -75 -70 -75h-138q-86 0 -130 70l-520 834h-7q5 -60 5 -120v-709q0 -75 -70 -75h-152z" />
    <glyph glyph-name="ncaron" unicode="&#x148;" horiz-adv-x="1200" 
d="M336 1310q-50 35 -21 76l25 36q30 41 78 6l211 -151h2l211 151q49 35 78 -6l25 -36q29 -41 -21 -76l-207 -145q-39 -27 -68 -27h-38q-29 0 -68 27zM196 0q-60 0 -60 60v930q0 60 60 60h158q60 0 60 -60v-58h4q46 79 117 108.5t171 29.5q156 0 258 -98t102 -358v-554
q0 -60 -60 -60h-160q-60 0 -60 60v482q0 218 -30 275t-129 57q-105 0 -158 -81.5t-53 -338.5v-394q0 -60 -60 -60h-160z" />
    <glyph glyph-name="Eng" unicode="&#x14a;" horiz-adv-x="1442" 
d="M230 0q-70 0 -70 75v1284q0 75 70 75h134q63 0 70 -75l13 -136h7q67 104 159 174.5t242 70.5q218 0 322.5 -126t104.5 -390v-917q0 -236 -95 -345.5t-285 -109.5q-114 0 -202 31q-51 18 -38 69l32 121q16 59 77 34q48 -19 92 -19q67 0 97 48t30 227v773q0 188 -51 278
t-187 90q-124 0 -212 -160t-88 -445v-552q0 -75 -70 -75h-152z" />
    <glyph glyph-name="eng" unicode="&#x14b;" horiz-adv-x="1200" 
d="M196 0q-60 0 -60 60v930q0 60 60 60h158q60 0 60 -60v-58h4q46 79 117 108.5t171 29.5q156 0 258 -98t102 -358v-618q0 -248 -97 -332t-259 -84q-90 0 -151 11q-38 7 -29 52l22 110q9 46 51 30q18 -7 72 -7q63 0 87 66t24 184v516q0 218 -30 275t-129 57
q-105 0 -158 -81.5t-53 -338.5v-394q0 -60 -60 -60h-160z" />
    <glyph glyph-name="Omacron" unicode="&#x14c;" horiz-adv-x="1544" 
d="M465 1534q-65 0 -65 60v70q0 60 65 60h614q65 0 65 -60v-70q0 -60 -65 -60h-614zM86 717q0 345 178 548t508 203t508 -203t178 -548t-178 -548t-508 -203t-508 203t-178 548zM398 717q0 -250 89.5 -382.5t284.5 -132.5t284.5 132.5t89.5 382.5t-89.5 382.5t-284.5 132.5
t-284.5 -132.5t-89.5 -382.5z" />
    <glyph glyph-name="omacron" unicode="&#x14d;" horiz-adv-x="1206" 
d="M334 1226q-60 0 -60 50v66q0 50 60 50h538q60 0 60 -50v-66q0 -50 -60 -50h-538zM80 525q0 255 131.5 400t391.5 145t391.5 -145t131.5 -400t-131.5 -400t-391.5 -145t-391.5 145t-131.5 400zM376 525q0 -190 58.5 -269.5t168.5 -79.5t168.5 79.5t58.5 269.5t-58.5 269.5
t-168.5 79.5t-168.5 -79.5t-58.5 -269.5z" />
    <glyph glyph-name="Obreve" unicode="&#x14e;" horiz-adv-x="1544" 
d="M422 1765q-22 52 20 72l62 29q41 19 72 -28q26 -40 82 -81t136 -41t136 41t82 81q31 47 72 28l62 -29q42 -20 20 -72q-44 -105 -138 -165t-234 -60t-234 60t-138 165zM86 717q0 345 178 548t508 203t508 -203t178 -548t-178 -548t-508 -203t-508 203t-178 548zM398 717
q0 -250 89.5 -382.5t284.5 -132.5t284.5 132.5t89.5 382.5t-89.5 382.5t-284.5 132.5t-284.5 -132.5t-89.5 -382.5z" />
    <glyph glyph-name="obreve" unicode="&#x14f;" horiz-adv-x="1206" 
d="M294 1350q-20 43 10 60l64 36q36 20 56 -21q26 -53 75.5 -90t123.5 -37t123.5 37t75.5 90q20 41 56 21l64 -36q30 -17 10 -60q-50 -110 -129 -165t-200 -55t-200 55t-129 165zM80 525q0 255 131.5 400t391.5 145t391.5 -145t131.5 -400t-131.5 -400t-391.5 -145
t-391.5 145t-131.5 400zM376 525q0 -190 58.5 -269.5t168.5 -79.5t168.5 79.5t58.5 269.5t-58.5 269.5t-168.5 79.5t-168.5 -79.5t-58.5 -269.5z" />
    <glyph glyph-name="Ohungarumlaut" unicode="&#x150;" horiz-adv-x="1544" 
d="M501 1540q-64 0 -21 64l92 136q30 45 105 45h149q87 0 26 -59l-154 -148q-40 -38 -94 -38h-103zM921 1540q-64 0 -21 64l92 136q30 45 105 45h149q87 0 26 -59l-154 -148q-40 -38 -94 -38h-103zM86 717q0 345 178 548t508 203t508 -203t178 -548t-178 -548t-508 -203
t-508 203t-178 548zM398 717q0 -250 89.5 -382.5t284.5 -132.5t284.5 132.5t89.5 382.5t-89.5 382.5t-284.5 132.5t-284.5 -132.5t-89.5 -382.5z" />
    <glyph glyph-name="ohungarumlaut" unicode="&#x151;" horiz-adv-x="1206" 
d="M80 525q0 255 131.5 400t391.5 145t391.5 -145t131.5 -400t-131.5 -400t-391.5 -145t-391.5 145t-131.5 400zM376 525q0 -190 58.5 -269.5t168.5 -79.5t168.5 79.5t58.5 269.5t-58.5 269.5t-168.5 79.5t-168.5 -79.5t-58.5 -269.5zM396 1150q-52 0 -26 68l64 166
q20 51 97 51h129q55 0 9 -69l-116 -174q-28 -42 -93 -42h-64zM737 1150q-52 0 -26 68l64 166q20 51 97 51h129q55 0 9 -69l-116 -174q-28 -42 -93 -42h-64z" />
    <glyph glyph-name="Racute" unicode="&#x154;" horiz-adv-x="1428" 
d="M565 1540q-67 0 -25 64l88 134q31 47 109 47h176q90 0 24 -61l-158 -146q-41 -38 -111 -38h-103zM230 0q-70 0 -70 75v1284q0 75 70 75h463q309 0 451 -95.5t142 -310.5q0 -160 -115 -255t-292 -126v-2q96 -36 145 -100t80 -112l220 -347q55 -86 -38 -86h-174
q-55 0 -90 59l-202 337q-33 54 -120.5 118.5t-173.5 64.5h-74v-504q0 -75 -70 -75h-152zM452 827h179q200 0 284.5 45.5t84.5 144.5q0 108 -81.5 140.5t-239.5 32.5h-227v-363z" />
    <glyph glyph-name="racute" unicode="&#x155;" horiz-adv-x="786" 
d="M370 1150q-57 0 -21 59l108 179q28 47 106 47h152q74 0 22 -59l-165 -189q-32 -37 -101 -37h-101zM196 0q-60 0 -60 60v930q0 60 60 60h158q60 0 60 -60v-82h4q26 64 87 113t144 49q57 0 94 -14q35 -13 27 -48l-28 -119q-9 -40 -54 -24q-26 9 -50 9q-96 0 -159 -115
t-63 -335v-364q0 -60 -60 -60h-160z" />
    <glyph glyph-name="Rcaron" unicode="&#x158;" horiz-adv-x="1428" 
d="M326 1617q-58 23 -39 70l20 50q19 47 76 23l291 -120h2l291 120q57 24 76 -23l20 -50q19 -47 -39 -70l-244 -98q-32 -13 -75 -13h-60q-43 0 -75 13zM230 0q-70 0 -70 75v1284q0 75 70 75h463q309 0 451 -95.5t142 -310.5q0 -160 -115 -255t-292 -126v-2q96 -36 145 -100
t80 -112l220 -347q55 -86 -38 -86h-174q-55 0 -90 59l-202 337q-33 54 -120.5 118.5t-173.5 64.5h-74v-504q0 -75 -70 -75h-152zM452 827h179q200 0 284.5 45.5t84.5 144.5q0 108 -81.5 140.5t-239.5 32.5h-227v-363z" />
    <glyph glyph-name="rcaron" unicode="&#x159;" horiz-adv-x="786" 
d="M201 1310q-50 35 -21 76l25 36q30 41 78 6l211 -151h2l211 151q49 35 78 -6l25 -36q29 -41 -21 -76l-207 -145q-39 -27 -68 -27h-38q-29 0 -68 27zM196 0q-60 0 -60 60v930q0 60 60 60h158q60 0 60 -60v-82h4q26 64 87 113t144 49q57 0 94 -14q35 -13 27 -48l-28 -119
q-9 -40 -54 -24q-26 9 -50 9q-96 0 -159 -115t-63 -335v-364q0 -60 -60 -60h-160z" />
    <glyph glyph-name="Sacute" unicode="&#x15a;" horiz-adv-x="1308" 
d="M572 1540q-67 0 -25 64l88 134q31 47 109 47h176q90 0 24 -61l-158 -146q-41 -38 -111 -38h-103zM177 107q-62 47 -30 95l77 116q38 57 111 6q56 -39 146.5 -80.5t190.5 -41.5q70 0 135 16t99 62t34 109q0 45 -15 79t-49 56t-70 37q-63 26 -158.5 51.5t-188.5 61.5
q-83 32 -152 88t-107 126t-38 187q0 139 90 238t207 127t236 28q118 0 243.5 -36t189.5 -90q63 -53 31 -96l-81 -109q-41 -56 -110 -9q-44 30 -120.5 67t-159.5 37q-59 0 -108.5 -10t-87.5 -48t-38 -94q0 -54 28 -87.5t62 -50t69 -27.5q108 -35 193 -61.5t157 -58.5
q100 -45 153 -90t87.5 -123t34.5 -186q0 -160 -102 -264.5t-226.5 -135t-242.5 -30.5q-174 0 -283 33.5t-207 107.5z" />
    <glyph glyph-name="sacute" unicode="&#x15b;" horiz-adv-x="1005" 
d="M449 1150q-57 0 -21 59l108 179q28 47 106 47h152q74 0 22 -59l-165 -189q-32 -37 -101 -37h-101zM115 70q-49 35 -27 75l51 93q27 50 84 12t134.5 -56t141.5 -18q45 0 84 9t66 35t27 76q0 30 -16 51t-41 32t-53 18q-37 9 -106.5 30t-133.5 49q-53 23 -103.5 64.5
t-74 92.5t-23.5 126q0 101 58.5 177t151.5 105t232 29q94 0 183 -27t127 -51q60 -38 30 -81l-61 -89q-28 -40 -90 -6q-47 26 -92.5 42t-101.5 16q-38 0 -73 -8t-59.5 -30t-24.5 -58q0 -38 22.5 -59.5t52 -31.5t56.5 -19q56 -18 113 -34.5t116 -39.5q51 -20 99 -57t70 -94
t22 -130q0 -97 -58 -180t-153 -118t-221 -35q-141 0 -240 20t-169 70z" />
    <glyph glyph-name="Scircumflex" unicode="&#x15c;" horiz-adv-x="1308" 
d="M294 1585q-19 47 39 70l244 98q32 13 75 13h60q43 0 75 -13l244 -98q58 -23 39 -70l-20 -50q-19 -47 -76 -23l-291 120h-2l-291 -120q-57 -24 -76 23zM177 107q-62 47 -30 95l77 116q38 57 111 6q56 -39 146.5 -80.5t190.5 -41.5q70 0 135 16t99 62t34 109q0 45 -15 79
t-49 56t-70 37q-63 26 -158.5 51.5t-188.5 61.5q-83 32 -152 88t-107 126t-38 187q0 139 90 238t207 127t236 28q118 0 243.5 -36t189.5 -90q63 -53 31 -96l-81 -109q-41 -56 -110 -9q-44 30 -120.5 67t-159.5 37q-59 0 -108.5 -10t-87.5 -48t-38 -94q0 -54 28 -87.5t62 -50
t69 -27.5q108 -35 193 -61.5t157 -58.5q100 -45 153 -90t87.5 -123t34.5 -186q0 -160 -102 -264.5t-226.5 -135t-242.5 -30.5q-174 0 -283 33.5t-207 107.5z" />
    <glyph glyph-name="scircumflex" unicode="&#x15d;" horiz-adv-x="1005" 
d="M259 1186q-29 41 21 76l207 145q39 27 68 27h38q29 0 68 -27l207 -145q50 -35 21 -76l-25 -36q-30 -41 -78 -6l-211 151h-2l-211 -151q-49 -35 -78 6zM115 70q-49 35 -27 75l51 93q27 50 84 12t134.5 -56t141.5 -18q45 0 84 9t66 35t27 76q0 30 -16 51t-41 32t-53 18
q-37 9 -106.5 30t-133.5 49q-53 23 -103.5 64.5t-74 92.5t-23.5 126q0 101 58.5 177t151.5 105t232 29q94 0 183 -27t127 -51q60 -38 30 -81l-61 -89q-28 -40 -90 -6q-47 26 -92.5 42t-101.5 16q-38 0 -73 -8t-59.5 -30t-24.5 -58q0 -38 22.5 -59.5t52 -31.5t56.5 -19
q56 -18 113 -34.5t116 -39.5q51 -20 99 -57t70 -94t22 -130q0 -97 -58 -180t-153 -118t-221 -35q-141 0 -240 20t-169 70z" />
    <glyph glyph-name="Scaron" unicode="&#x160;" horiz-adv-x="1308" 
d="M333 1617q-58 23 -39 70l20 50q19 47 76 23l291 -120h2l291 120q57 24 76 -23l20 -50q19 -47 -39 -70l-244 -98q-32 -13 -75 -13h-60q-43 0 -75 13zM177 107q-62 47 -30 95l77 116q38 57 111 6q56 -39 146.5 -80.5t190.5 -41.5q70 0 135 16t99 62t34 109q0 45 -15 79
t-49 56t-70 37q-63 26 -158.5 51.5t-188.5 61.5q-83 32 -152 88t-107 126t-38 187q0 139 90 238t207 127t236 28q118 0 243.5 -36t189.5 -90q63 -53 31 -96l-81 -109q-41 -56 -110 -9q-44 30 -120.5 67t-159.5 37q-59 0 -108.5 -10t-87.5 -48t-38 -94q0 -54 28 -87.5t62 -50
t69 -27.5q108 -35 193 -61.5t157 -58.5q100 -45 153 -90t87.5 -123t34.5 -186q0 -160 -102 -264.5t-226.5 -135t-242.5 -30.5q-174 0 -283 33.5t-207 107.5z" />
    <glyph glyph-name="scaron" unicode="&#x161;" horiz-adv-x="1005" 
d="M280 1310q-50 35 -21 76l25 36q30 41 78 6l211 -151h2l211 151q49 35 78 -6l25 -36q29 -41 -21 -76l-207 -145q-39 -27 -68 -27h-38q-29 0 -68 27zM115 70q-49 35 -27 75l51 93q27 50 84 12t134.5 -56t141.5 -18q45 0 84 9t66 35t27 76q0 30 -16 51t-41 32t-53 18
q-37 9 -106.5 30t-133.5 49q-53 23 -103.5 64.5t-74 92.5t-23.5 126q0 101 58.5 177t151.5 105t232 29q94 0 183 -27t127 -51q60 -38 30 -81l-61 -89q-28 -40 -90 -6q-47 26 -92.5 42t-101.5 16q-38 0 -73 -8t-59.5 -30t-24.5 -58q0 -38 22.5 -59.5t52 -31.5t56.5 -19
q56 -18 113 -34.5t116 -39.5q51 -20 99 -57t70 -94t22 -130q0 -97 -58 -180t-153 -118t-221 -35q-141 0 -240 20t-169 70z" />
    <glyph glyph-name="Tcaron" unicode="&#x164;" horiz-adv-x="1246" 
d="M293 1617q-58 23 -39 70l20 50q19 47 76 23l291 -120h2l291 120q57 24 76 -23l20 -50q19 -47 -39 -70l-244 -98q-32 -13 -75 -13h-60q-43 0 -75 13zM109 1178q-75 0 -75 65v126q0 65 75 65h1028q75 0 75 -65v-126q0 -65 -75 -65h-368v-1123q0 -55 -50 -55h-192
q-50 0 -50 55v1123h-368z" />
    <glyph glyph-name="tcaron" unicode="&#x165;" horiz-adv-x="858" 
d="M574 1159q-40 18 -19 61q14 29 23 75t9 99v22q0 60 60 60h160q60 0 60 -60v-9q0 -91 -31 -158.5t-74 -113.5q-40 -43 -81 -25zM101 850q-59 0 -59 50v100q0 50 59 50h68v35q0 45 21 82l77 135q22 38 52 38h70q60 0 60 -60v-230h162q59 0 59 -50v-100q0 -50 -59 -50h-162
v-496q0 -102 14.5 -146.5t75.5 -44.5q31 0 70 10.5t61 20.5q35 16 46 -23l30 -114q9 -34 -26 -50q-33 -15 -90.5 -27.5t-115.5 -12.5q-143 0 -244 59t-101 243v581h-68z" />
    <glyph glyph-name="Utilde" unicode="&#x168;" horiz-adv-x="1422" 
d="M358 1583q-34 21 -8 64q37 61 92 99.5t153 38.5q70 0 164 -46t133 -46q35 0 67.5 17t48.5 42q27 42 60 22l48 -29q34 -21 8 -64q-37 -61 -92 -99.5t-153 -38.5q-74 0 -164 46t-133 46q-35 0 -67.5 -17t-48.5 -42q-27 -42 -60 -22zM160 597v782q0 55 70 55h152
q70 0 70 -55v-772q0 -270 79.5 -337.5t179.5 -67.5t179.5 67.5t79.5 337.5v772q0 55 70 55h152q70 0 70 -55v-782q0 -350 -148 -490.5t-403 -140.5t-403 140.5t-148 490.5z" />
    <glyph glyph-name="utilde" unicode="&#x169;" horiz-adv-x="1194" 
d="M293 1184q-31 14 -15 61q22 63 77.5 107t135.5 44q68 0 144 -52t111 -52q31 0 52.5 13.5t36.5 43.5q21 43 54 28l42 -19q31 -14 15 -61q-22 -63 -77.5 -107t-135.5 -44q-68 0 -144 52t-111 52q-31 0 -52.5 -13.5t-36.5 -43.5q-21 -43 -54 -28zM134 436v554q0 60 60 60
h160q60 0 60 -60v-482q0 -218 30 -275t126 -57q102 0 155 81.5t53 338.5v394q0 60 60 60h160q60 0 60 -60v-930q0 -60 -60 -60h-158q-60 0 -60 60v58h-4q-46 -79 -117 -108.5t-168 -29.5q-153 0 -255 98t-102 358z" />
    <glyph glyph-name="Umacron" unicode="&#x16a;" horiz-adv-x="1422" 
d="M404 1534q-65 0 -65 60v70q0 60 65 60h614q65 0 65 -60v-70q0 -60 -65 -60h-614zM160 597v782q0 55 70 55h152q70 0 70 -55v-772q0 -270 79.5 -337.5t179.5 -67.5t179.5 67.5t79.5 337.5v772q0 55 70 55h152q70 0 70 -55v-782q0 -350 -148 -490.5t-403 -140.5t-403 140.5
t-148 490.5z" />
    <glyph glyph-name="umacron" unicode="&#x16b;" horiz-adv-x="1194" 
d="M327 1226q-60 0 -60 50v66q0 50 60 50h538q60 0 60 -50v-66q0 -50 -60 -50h-538zM134 436v554q0 60 60 60h160q60 0 60 -60v-482q0 -218 30 -275t126 -57q102 0 155 81.5t53 338.5v394q0 60 60 60h160q60 0 60 -60v-930q0 -60 -60 -60h-158q-60 0 -60 60v58h-4
q-46 -79 -117 -108.5t-168 -29.5q-153 0 -255 98t-102 358z" />
    <glyph glyph-name="Ubreve" unicode="&#x16c;" horiz-adv-x="1422" 
d="M361 1765q-22 52 20 72l62 29q41 19 72 -28q26 -40 82 -81t136 -41t136 41t82 81q31 47 72 28l62 -29q42 -20 20 -72q-44 -105 -138 -165t-234 -60t-234 60t-138 165zM160 597v782q0 55 70 55h152q70 0 70 -55v-772q0 -270 79.5 -337.5t179.5 -67.5t179.5 67.5
t79.5 337.5v772q0 55 70 55h152q70 0 70 -55v-782q0 -350 -148 -490.5t-403 -140.5t-403 140.5t-148 490.5z" />
    <glyph glyph-name="ubreve" unicode="&#x16d;" horiz-adv-x="1194" 
d="M287 1350q-20 43 10 60l64 36q36 20 56 -21q26 -53 75.5 -90t123.5 -37t123.5 37t75.5 90q20 41 56 21l64 -36q30 -17 10 -60q-50 -110 -129 -165t-200 -55t-200 55t-129 165zM134 436v554q0 60 60 60h160q60 0 60 -60v-482q0 -218 30 -275t126 -57q102 0 155 81.5
t53 338.5v394q0 60 60 60h160q60 0 60 -60v-930q0 -60 -60 -60h-158q-60 0 -60 60v58h-4q-46 -79 -117 -108.5t-168 -29.5q-153 0 -255 98t-102 358z" />
    <glyph glyph-name="Uring" unicode="&#x16e;" horiz-adv-x="1422" 
d="M524 1707q0 77 53.5 127.5t133.5 50.5t133.5 -51.5t53.5 -126.5t-53.5 -126.5t-133.5 -51.5t-133.5 50.5t-53.5 127.5zM616 1707q0 -38 26.5 -64t68.5 -26t68.5 26t26.5 64t-26.5 64t-68.5 26t-68.5 -26t-26.5 -64zM160 597v782q0 55 70 55h152q70 0 70 -55v-772
q0 -270 79.5 -337.5t179.5 -67.5t179.5 67.5t79.5 337.5v772q0 55 70 55h152q70 0 70 -55v-782q0 -350 -148 -490.5t-403 -140.5t-403 140.5t-148 490.5z" />
    <glyph glyph-name="uring" unicode="&#x16f;" horiz-adv-x="1194" 
d="M407 1313q0 77 55 131.5t134 54.5t134 -54.5t55 -131.5t-55 -131.5t-134 -54.5t-134 54.5t-55 131.5zM502 1313q0 -40 27 -67t67 -27t67 27t27 67t-27 67t-67 27t-67 -27t-27 -67zM134 436v554q0 60 60 60h160q60 0 60 -60v-482q0 -218 30 -275t126 -57q102 0 155 81.5
t53 338.5v394q0 60 60 60h160q60 0 60 -60v-930q0 -60 -60 -60h-158q-60 0 -60 60v58h-4q-46 -79 -117 -108.5t-168 -29.5q-153 0 -255 98t-102 358z" />
    <glyph glyph-name="Uhungarumlaut" unicode="&#x170;" horiz-adv-x="1422" 
d="M440 1540q-64 0 -21 64l92 136q30 45 105 45h149q87 0 26 -59l-154 -148q-40 -38 -94 -38h-103zM860 1540q-64 0 -21 64l92 136q30 45 105 45h149q87 0 26 -59l-154 -148q-40 -38 -94 -38h-103zM160 597v782q0 55 70 55h152q70 0 70 -55v-772q0 -270 79.5 -337.5
t179.5 -67.5t179.5 67.5t79.5 337.5v772q0 55 70 55h152q70 0 70 -55v-782q0 -350 -148 -490.5t-403 -140.5t-403 140.5t-148 490.5z" />
    <glyph glyph-name="uhungarumlaut" unicode="&#x171;" horiz-adv-x="1194" 
d="M389 1150q-52 0 -26 68l64 166q20 51 97 51h129q55 0 9 -69l-116 -174q-28 -42 -93 -42h-64zM730 1150q-52 0 -26 68l64 166q20 51 97 51h129q55 0 9 -69l-116 -174q-28 -42 -93 -42h-64zM134 436v554q0 60 60 60h160q60 0 60 -60v-482q0 -218 30 -275t126 -57
q102 0 155 81.5t53 338.5v394q0 60 60 60h160q60 0 60 -60v-930q0 -60 -60 -60h-158q-60 0 -60 60v58h-4q-46 -79 -117 -108.5t-168 -29.5q-153 0 -255 98t-102 358z" />
    <glyph glyph-name="Wcircumflex" unicode="&#x174;" horiz-adv-x="2022" 
d="M641 1585q-19 47 39 70l244 98q32 13 75 13h60q43 0 75 -13l244 -98q58 -23 39 -70l-20 -50q-19 -47 -76 -23l-291 120h-2l-291 -120q-57 -24 -76 23zM67 1354q-22 80 46 80h185q47 0 63 -66l190 -786q21 -86 27.5 -117.5t11.5 -101.5h5q5 70 10 106t29 119l223 772
q21 74 84 74h184q63 0 84 -74l223 -772q24 -83 29 -119t10 -106h5q5 70 11.5 101.5t27.5 117.5l190 786q16 66 63 66h185q68 0 46 -80l-340 -1257q-26 -97 -94 -97h-175q-58 0 -85 96l-240 838q-20 68 -23 88.5t-8 76.5h-2q-5 -56 -8 -76.5t-23 -88.5l-240 -838
q-27 -96 -85 -96h-175q-68 0 -94 97z" />
    <glyph glyph-name="wcircumflex" unicode="&#x175;" horiz-adv-x="1604" 
d="M516 1186q-29 41 21 76l207 145q39 27 68 27h38q29 0 68 -27l207 -145q50 -35 21 -76l-25 -36q-30 -41 -78 -6l-211 151h-2l-211 -151q-49 -35 -78 6zM64 972q-22 78 33 78h169q48 0 60 -51l135 -586q12 -51 21 -98t11 -77h6q2 30 11 78.5t21 96.5l142 586q12 51 60 51
h182q48 0 60 -51l142 -586q12 -48 21 -96.5t11 -78.5h6q2 30 11 77t21 98l135 586q12 51 60 51h169q55 0 33 -78l-260 -905q-19 -67 -73 -67h-181q-57 0 -73 67l-145 593q-13 51 -18.5 82t-7.5 69h-4q-2 -38 -7.5 -69t-18.5 -82l-145 -593q-16 -67 -73 -67h-181
q-54 0 -73 67z" />
    <glyph glyph-name="Ycircumflex" unicode="&#x176;" horiz-adv-x="1368" 
d="M315 1585q-19 47 39 70l244 98q32 13 75 13h60q43 0 75 -13l244 -98q58 -23 39 -70l-20 -50q-19 -47 -76 -23l-291 120h-2l-291 -120q-57 -24 -76 23zM102 1348q-51 86 47 86h175q52 0 92 -69l213 -371q9 -15 53 -93.5t51 -152.5h4q7 74 51 152.5t53 93.5l213 371
q40 69 92 69h175q98 0 47 -86l-487 -823v-470q0 -55 -70 -55h-152q-70 0 -70 55v470z" />
    <glyph glyph-name="ycircumflex" unicode="&#x177;" horiz-adv-x="990" 
d="M220 1186q-29 41 21 76l207 145q39 27 68 27h38q29 0 68 -27l207 -145q50 -35 21 -76l-25 -36q-30 -41 -78 -6l-211 151h-2l-211 -151q-49 -35 -78 6zM71 972q-27 78 33 78h179q46 0 60 -51l151 -559q11 -39 19.5 -100.5t8.5 -78.5h6q12 53 17.5 84.5t30.5 122.5l143 531
q14 51 60 51h179q59 0 33 -78l-337 -1014q-59 -178 -145 -278t-239 -100q-84 0 -150 14q-38 8 -29 52l22 110q9 43 51 30q31 -10 58 -10q81 0 123.5 77t56.5 132l3 15z" />
    <glyph glyph-name="Ydieresis" unicode="&#x178;" horiz-adv-x="1368" 
d="M354 1530q-70 0 -70 75v106q0 75 70 75h152q70 0 70 -75v-106q0 -75 -70 -75h-152zM862 1530q-70 0 -70 75v106q0 75 70 75h152q70 0 70 -75v-106q0 -75 -70 -75h-152zM102 1348q-51 86 47 86h175q52 0 92 -69l213 -371q9 -15 53 -93.5t51 -152.5h4q7 74 51 152.5
t53 93.5l213 371q40 69 92 69h175q98 0 47 -86l-487 -823v-470q0 -55 -70 -55h-152q-70 0 -70 55v470z" />
    <glyph glyph-name="Zacute" unicode="&#x179;" horiz-adv-x="1252" 
d="M535 1540q-67 0 -25 64l88 134q31 47 109 47h176q90 0 24 -61l-158 -146q-41 -38 -111 -38h-103zM136 0q-75 0 -75 65v82q0 69 51 139l650 898v7q-60 -5 -120 -5h-466q-75 0 -75 65v118q0 65 75 65h912q75 0 75 -65v-67q0 -53 -35 -101l-690 -951v-7q60 5 120 5h558
q75 0 75 -65v-118q0 -65 -75 -65h-980z" />
    <glyph glyph-name="zacute" unicode="&#x17a;" horiz-adv-x="964" 
d="M386 1150q-57 0 -21 59l108 179q28 47 106 47h152q74 0 22 -59l-165 -189q-32 -37 -101 -37h-101zM112 0q-60 0 -60 50v76q0 52 41 108l448 616v4q-40 -4 -80 -4h-325q-60 0 -60 50v32q0 118 60 118h692q60 0 60 -50v-70q0 -49 -43 -108l-451 -622v-4q53 4 80 4h378
q60 0 60 -50v-100q0 -50 -60 -50h-740z" />
    <glyph glyph-name="Zdotaccent" unicode="&#x17b;" horiz-adv-x="1252" 
d="M550 1526q-70 0 -70 75v114q0 75 70 75h152q70 0 70 -75v-114q0 -75 -70 -75h-152zM136 0q-75 0 -75 65v82q0 69 51 139l650 898v7q-60 -5 -120 -5h-466q-75 0 -75 65v118q0 65 75 65h912q75 0 75 -65v-67q0 -53 -35 -101l-690 -951v-7q60 5 120 5h558q75 0 75 -65v-118
q0 -65 -75 -65h-980z" />
    <glyph glyph-name="zdotaccent" unicode="&#x17c;" horiz-adv-x="964" 
d="M402 1204q-60 0 -60 60v128q0 60 60 60h160q60 0 60 -60v-128q0 -60 -60 -60h-160zM112 0q-60 0 -60 50v76q0 52 41 108l448 616v4q-40 -4 -80 -4h-325q-60 0 -60 50v32q0 118 60 118h692q60 0 60 -50v-70q0 -49 -43 -108l-451 -622v-4q53 4 80 4h378q60 0 60 -50v-100
q0 -50 -60 -50h-740z" />
    <glyph glyph-name="Zcaron" unicode="&#x17d;" horiz-adv-x="1252" 
d="M296 1617q-58 23 -39 70l20 50q19 47 76 23l291 -120h2l291 120q57 24 76 -23l20 -50q19 -47 -39 -70l-244 -98q-32 -13 -75 -13h-60q-43 0 -75 13zM136 0q-75 0 -75 65v82q0 69 51 139l650 898v7q-60 -5 -120 -5h-466q-75 0 -75 65v118q0 65 75 65h912q75 0 75 -65v-67
q0 -53 -35 -101l-690 -951v-7q60 5 120 5h558q75 0 75 -65v-118q0 -65 -75 -65h-980z" />
    <glyph glyph-name="zcaron" unicode="&#x17e;" horiz-adv-x="964" 
d="M217 1310q-50 35 -21 76l25 36q30 41 78 6l211 -151h2l211 151q49 35 78 -6l25 -36q29 -41 -21 -76l-207 -145q-39 -27 -68 -27h-38q-29 0 -68 27zM112 0q-60 0 -60 50v76q0 52 41 108l448 616v4q-40 -4 -80 -4h-325q-60 0 -60 50v32q0 118 60 118h692q60 0 60 -50v-70
q0 -49 -43 -108l-451 -622v-4q53 4 80 4h378q60 0 60 -50v-100q0 -50 -60 -50h-740z" />
    <glyph glyph-name="longs" unicode="&#x17f;" horiz-adv-x="652" 
d="M196 0q-60 0 -60 60v1130q0 184 106.5 245t251.5 61q69 0 112.5 -8t81.5 -20q36 -12 26 -50l-30 -113q-9 -33 -46 -20q-22 8 -55.5 11.5t-56.5 3.5q-73 0 -91.5 -39t-18.5 -171v-1030q0 -60 -60 -60h-160z" />
    <glyph glyph-name="uni0186" unicode="&#x186;" horiz-adv-x="1418" 
d="M149 1226q58 100 199 171t343 71q325 0 502.5 -203t177.5 -548t-175 -548t-505 -203q-190 0 -322 59t-186 171q-36 74 12 100l120 64q63 34 104 -38q26 -46 96.5 -83t165.5 -37q210 0 294 132.5t84 382.5t-84 382.5t-294 132.5q-113 0 -190.5 -51t-107.5 -97
q-49 -75 -104 -38l-120 80q-49 33 -10 100z" />
    <glyph glyph-name="uni0189" unicode="&#x189;" horiz-adv-x="1500" 
d="M105 612q-75 0 -75 65v118q0 65 75 65h105v499q0 75 70 75h349q460 0 622.5 -186t162.5 -529t-162.5 -531t-622.5 -188h-349q-70 0 -70 75v537h-105zM502 248h108q310 0 401 115.5t91 355.5t-91 354.5t-401 114.5h-108v-328h239q75 0 75 -65v-118q0 -65 -75 -65h-239
v-364z" />
    <glyph glyph-name="uni018E" unicode="&#x18e;" horiz-adv-x="1280" 
d="M85 65v118q0 65 75 65h668v372h-583q-75 0 -75 65v118q0 65 75 65h583v318h-636q-75 0 -75 65v118q0 65 75 65h858q70 0 70 -75v-1284q0 -75 -70 -75h-890q-75 0 -75 65z" />
    <glyph glyph-name="uni018F" unicode="&#x18f;" horiz-adv-x="1494" 
d="M90 779q0 81 71 81h925q-12 157 -97.5 264.5t-279.5 107.5q-112 0 -188 -32t-119 -63q-71 -50 -111 5l-69 95q-41 57 25 98q110 69 222.5 101t247.5 32q335 0 513 -203t178 -548t-177.5 -548t-514.5 -203q-254 0 -440 170t-186 643zM406 612q0 -210 80.5 -310t238.5 -100
q202 0 281.5 131.5t85.5 278.5h-686z" />
    <glyph glyph-name="uni0190" unicode="&#x190;" horiz-adv-x="1254" 
d="M104 390q0 155 95.5 248t212.5 125v4q-121 36 -189 105t-68 213q0 168 132.5 275.5t361.5 107.5q126 0 224 -28.5t222 -119.5q61 -45 13 -100l-78 -91q-43 -50 -111 9q-48 41 -110 67.5t-151 26.5q-116 0 -169 -48.5t-53 -121.5q0 -84 49.5 -137t157.5 -53h135
q64 0 64 -65v-108q0 -63 -64 -63h-121q-105 0 -178 -52.5t-73 -169.5q0 -115 76.5 -163.5t175.5 -48.5q97 0 161 28.5t125 81.5q70 61 110 17l86 -93q43 -46 -9 -99q-84 -86 -194 -128.5t-275 -42.5q-231 0 -394.5 111t-163.5 313z" />
    <glyph glyph-name="uni0191" unicode="&#x191;" horiz-adv-x="1176" 
d="M-117 -389q-51 18 -38 69l32 121q16 59 77 34q48 -19 92 -19q67 0 97 48t30 227v1268q0 75 70 75h791q75 0 75 -65v-118q0 -65 -75 -65h-569v-348h487q75 0 75 -65v-118q0 -65 -75 -65h-487v-555q0 -236 -95 -345.5t-285 -109.5q-114 0 -202 31z" />
    <glyph glyph-name="florin" unicode="&#x192;" horiz-adv-x="682" 
d="M-61 -409q-38 7 -29 52l22 110q9 46 51 30q18 -7 72 -7q63 0 87 66t24 184v824h-56q-59 0 -59 50v100q0 50 59 50h56v140q0 184 105 245t250 61q69 0 118.5 -8t87.5 -20q36 -12 26 -50l-30 -113q-9 -33 -46 -20q-22 8 -61.5 11.5t-62.5 3.5q-73 0 -90 -51t-17 -159v-40
h132q59 0 59 -50v-100q0 -50 -59 -50h-132v-854q0 -248 -97 -332t-259 -84q-90 0 -151 11z" />
    <glyph glyph-name="uni0194" unicode="&#x194;" horiz-adv-x="1348" 
d="M99 1348q-48 86 47 86h175q56 0 92 -69l203 -391q9 -15 53 -93.5t51 -152.5h4q7 74 51 152.5t53 93.5l203 391q36 69 92 69h175q95 0 47 -86l-451 -814q77 -78 124 -145.5t47 -155.5q0 -107 -76.5 -187t-266.5 -80t-266.5 80t-76.5 187q0 88 47 155.5t124 145.5zM653 273
q0 -39 20.5 -58t48.5 -19t48.5 19t20.5 58q0 19 -11.5 51.5t-55.5 69.5h-4q-44 -37 -55.5 -69.5t-11.5 -51.5z" />
    <glyph glyph-name="uni0196" unicode="&#x196;" horiz-adv-x="938" 
d="M160 499v860q0 75 70 75h152q70 0 70 -75v-883q0 -132 39 -203t130 -71q31 0 72 9t68 23q67 35 87 -26l38 -113q18 -54 -32 -79q-52 -26 -120 -38t-132 -12q-228 0 -335 138t-107 395z" />
    <glyph glyph-name="uni0197" unicode="&#x197;" horiz-adv-x="800" 
d="M121 622q-75 0 -75 65v118q0 65 75 65h133v489q0 75 70 75h152q70 0 70 -75v-489h133q75 0 75 -65v-118q0 -65 -75 -65h-133v-547q0 -75 -70 -75h-152q-70 0 -70 75v547h-133z" />
    <glyph glyph-name="uni019F" unicode="&#x19f;" horiz-adv-x="1544" 
d="M86 717q0 345 178 548t508 203t508 -203t178 -548t-178 -548t-508 -203t-508 203t-178 548zM402 622q6 -168 90.5 -294t279.5 -126t279.5 126t90.5 294h-740zM408 870h728q-8 116 -88.5 239t-275.5 123t-275.5 -123t-88.5 -239z" />
    <glyph glyph-name="uni01A7" unicode="&#x1a7;" horiz-adv-x="1308" 
d="M102 396q0 108 34.5 186t87.5 123t153 90q72 32 157 58.5t193 61.5q35 11 69 27.5t62 50t28 87.5q0 56 -38 94t-87.5 48t-108.5 10q-83 0 -159.5 -37t-120.5 -67q-69 -47 -110 9l-81 109q-32 43 31 96q64 54 189.5 90t243.5 36q119 0 236 -28t207 -127t90 -238
q0 -117 -38 -187t-107 -126t-152 -88q-93 -36 -188.5 -61.5t-158.5 -51.5q-36 -15 -70 -37t-49 -56t-15 -79q0 -63 34 -109t99 -62t135 -16q100 0 190.5 41.5t146.5 80.5q73 51 111 -6l77 -116q32 -48 -30 -95q-98 -74 -207 -107.5t-283 -33.5q-118 0 -242.5 30.5
t-226.5 135t-102 264.5z" />
    <glyph glyph-name="uni01A8" unicode="&#x1a8;" horiz-adv-x="1005" 
d="M70 313q0 73 22 130t70 94t99 57q59 23 116 39.5t113 34.5q27 9 56.5 19t52 31.5t22.5 59.5q0 36 -24.5 58t-59.5 30t-73 8q-56 0 -101.5 -16t-92.5 -42q-62 -34 -90 6l-61 89q-30 43 30 81q38 24 127 51t183 27q139 0 232 -29t151.5 -105t58.5 -177q0 -75 -23.5 -126
t-74 -92.5t-103.5 -64.5q-64 -28 -133.5 -49t-106.5 -30q-28 -7 -53 -18t-41 -32t-16 -51q0 -50 27 -76t66 -35t84 -9q64 0 141.5 18t134.5 56t84 -12l51 -93q22 -40 -27 -75q-70 -50 -169 -70t-240 -20q-126 0 -221 35t-153 118t-58 180z" />
    <glyph glyph-name="uni01A9" unicode="&#x1a9;" horiz-adv-x="1247" 
d="M145 0q-75 0 -75 65v82q0 69 51 139l295 407q48 66 0 131l-278 377q-35 47 -35 101v67q0 65 75 65h896q75 0 75 -65v-118q0 -65 -75 -65h-450q-60 0 -120 5v-7l269 -364q47 -64 1 -127l-323 -443v-7q60 5 120 5h533q75 0 75 -65v-118q0 -65 -75 -65h-959z" />
    <glyph glyph-name="uni01B2" unicode="&#x1b2;" horiz-adv-x="1377" 
d="M160 597v782q0 55 70 55h152q70 0 70 -55v-772q0 -270 85.5 -337.5t181.5 -67.5q144 0 202 116.5t58 380.5q0 152 -48.5 283.5t-144.5 239.5q-57 64 4 112l133 105q55 43 120 -32q136 -156 192 -322t56 -342q0 -350 -122 -563.5t-452 -213.5q-274 0 -415.5 140.5
t-141.5 490.5z" />
    <glyph glyph-name="uni01B7" unicode="&#x1b7;" horiz-adv-x="1316" 
d="M163 158q-48 61 1 104l101 89q49 43 100 -22t124.5 -96t180.5 -31q101 0 189 54.5t88 171.5q0 94 -70.5 146.5t-198.5 52.5h-106q-75 0 -75 63v106q0 33 32 72l258 316v7q-60 -5 -120 -5h-426q-75 0 -75 65v118q0 65 75 65h883q75 0 75 -65v-75q0 -57 -35 -101l-291 -364
v-4q161 0 273.5 -112.5t112.5 -290.5q0 -215 -151.5 -335.5t-442.5 -120.5q-207 0 -318 50t-184 142z" />
    <glyph glyph-name="uni01CD" unicode="&#x1cd;" horiz-adv-x="1394" 
d="M367 1617q-58 23 -39 70l20 50q19 47 76 23l291 -120h2l291 120q57 24 76 -23l20 -50q19 -47 -39 -70l-244 -98q-32 -13 -75 -13h-60q-43 0 -75 13zM115 0q-72 0 -47 66l490 1287q31 81 94 81h140q63 0 94 -81l490 -1287q25 -66 -47 -66h-159q-66 0 -92 69l-102 269h-508
l-102 -269q-26 -69 -92 -69h-159zM561 586h322l-123 318q-22 56 -26.5 81.5t-9.5 75.5h-4q-5 -50 -9.5 -75.5t-26.5 -81.5z" />
    <glyph glyph-name="uni01CE" unicode="&#x1ce;" horiz-adv-x="1123" 
d="M291 1310q-50 35 -21 76l25 36q30 41 78 6l211 -151h2l211 151q49 35 78 -6l25 -36q29 -41 -21 -76l-207 -145q-39 -27 -68 -27h-38q-29 0 -68 27zM80 280q0 200 191 290t436 96v40q0 92 -46 130t-128 38q-58 0 -102.5 -16.5t-77 -38t-58.5 -43.5q-46 -40 -76 -4l-83 102
q-31 38 15 78q35 31 81.5 54t123.5 43.5t200 20.5q208 0 319.5 -96t111.5 -283v-631q0 -60 -60 -60h-164q-54 0 -54 60v30h-2q-59 -57 -141.5 -83.5t-151.5 -26.5q-164 0 -249 80.5t-85 219.5zM376 286q0 -35 14 -60.5t44 -37.5t67 -12q51 0 99 14t107 66v217
q-168 -19 -225 -49t-81.5 -62t-24.5 -76z" />
    <glyph glyph-name="uni01CF" unicode="&#x1cf;" horiz-adv-x="612" 
d="M-24 1617q-58 23 -39 70l20 50q19 47 76 23l291 -120h2l291 120q57 24 76 -23l20 -50q19 -47 -39 -70l-244 -98q-32 -13 -75 -13h-60q-43 0 -75 13zM230 0q-70 0 -70 75v1284q0 75 70 75h152q70 0 70 -75v-1284q0 -75 -70 -75h-152z" />
    <glyph glyph-name="uni01D1" unicode="&#x1d1;" horiz-adv-x="1544" 
d="M442 1617q-58 23 -39 70l20 50q19 47 76 23l291 -120h2l291 120q57 24 76 -23l20 -50q19 -47 -39 -70l-244 -98q-32 -13 -75 -13h-60q-43 0 -75 13zM86 717q0 345 178 548t508 203t508 -203t178 -548t-178 -548t-508 -203t-508 203t-178 548zM398 717q0 -250 89.5 -382.5
t284.5 -132.5t284.5 132.5t89.5 382.5t-89.5 382.5t-284.5 132.5t-284.5 -132.5t-89.5 -382.5z" />
    <glyph glyph-name="uni01D2" unicode="&#x1d2;" horiz-adv-x="1206" 
d="M338 1310q-50 35 -21 76l25 36q30 41 78 6l211 -151h2l211 151q49 35 78 -6l25 -36q29 -41 -21 -76l-207 -145q-39 -27 -68 -27h-38q-29 0 -68 27zM80 525q0 255 131.5 400t391.5 145t391.5 -145t131.5 -400t-131.5 -400t-391.5 -145t-391.5 145t-131.5 400zM376 525
q0 -190 58.5 -269.5t168.5 -79.5t168.5 79.5t58.5 269.5t-58.5 269.5t-168.5 79.5t-168.5 -79.5t-58.5 -269.5z" />
    <glyph glyph-name="uni01D3" unicode="&#x1d3;" horiz-adv-x="1422" 
d="M381 1617q-58 23 -39 70l20 50q19 47 76 23l291 -120h2l291 120q57 24 76 -23l20 -50q19 -47 -39 -70l-244 -98q-32 -13 -75 -13h-60q-43 0 -75 13zM160 597v782q0 55 70 55h152q70 0 70 -55v-772q0 -270 79.5 -337.5t179.5 -67.5t179.5 67.5t79.5 337.5v772q0 55 70 55
h152q70 0 70 -55v-782q0 -350 -148 -490.5t-403 -140.5t-403 140.5t-148 490.5z" />
    <glyph glyph-name="uni01D4" unicode="&#x1d4;" horiz-adv-x="1194" 
d="M331 1310q-50 35 -21 76l25 36q30 41 78 6l211 -151h2l211 151q49 35 78 -6l25 -36q29 -41 -21 -76l-207 -145q-39 -27 -68 -27h-38q-29 0 -68 27zM134 436v554q0 60 60 60h160q60 0 60 -60v-482q0 -218 30 -275t126 -57q102 0 155 81.5t53 338.5v394q0 60 60 60h160
q60 0 60 -60v-930q0 -60 -60 -60h-158q-60 0 -60 60v58h-4q-46 -79 -117 -108.5t-168 -29.5q-153 0 -255 98t-102 358z" />
    <glyph glyph-name="uni01DD" unicode="&#x1dd;" horiz-adv-x="1174" 
d="M82 562q0 60 56 60h660q-16 166 -82 209t-153 43q-83 0 -127 -22t-74 -60q-34 -44 -84 -14l-100 61q-59 36 -17 86q61 73 143 109t259 36q287 0 409 -146t122 -399t-126.5 -399t-357.5 -146q-268 0 -398 138t-130 444zM362 422q0 -108 54 -176.5t172 -68.5q94 0 149 65.5
t60 179.5h-435z" />
    <glyph glyph-name="uni01E2" unicode="&#x1e2;" horiz-adv-x="1911" 
d="M663 1534q-65 0 -65 60v70q0 60 65 60h614q65 0 65 -60v-70q0 -60 -65 -60h-614zM118 0q-75 0 -47 66l544 1287q34 81 94 81h1038q75 0 75 -65v-118q0 -65 -75 -65h-603v-318h550q75 0 75 -65v-118q0 -65 -75 -65h-550v-372h635q75 0 75 -65v-118q0 -65 -75 -65h-857
q-70 0 -70 75v263h-366l-114 -269q-29 -69 -92 -69h-162zM590 586h262v600h-36q-12 -72 -27 -120.5t-38 -101.5z" />
    <glyph glyph-name="uni01E3" unicode="&#x1e3;" horiz-adv-x="1765" 
d="M581 1226q-60 0 -60 50v66q0 50 60 50h538q60 0 60 -50v-66q0 -50 -60 -50h-538zM80 280q0 200 188.5 290t428.5 96v40q0 92 -46 130t-124 38q-58 0 -102.5 -18.5t-74.5 -38t-55 -41.5q-46 -40 -76 -4l-83 102q-31 38 15 78q38 34 88 57.5t123.5 42t189.5 18.5
q84 0 164.5 -19.5t142.5 -74.5h3q50 48 132 71t166 23q268 0 395.5 -138t127.5 -444q0 -60 -56 -60h-650q11 -148 77 -200t148 -52q68 0 122 21t86 61q36 45 84 14l93 -61q58 -38 17 -86q-61 -73 -140.5 -109t-256.5 -36q-163 0 -264 39t-164 127h-2q-63 -70 -161 -118
t-192 -48q-178 0 -261 80.5t-83 219.5zM376 286q0 -30 12 -57.5t43 -40t64 -12.5q48 0 100 24t115 84q-11 76 -13 189q-154 -20 -211 -47.5t-83.5 -60t-26.5 -79.5zM977 628h426q0 108 -51.5 176.5t-169.5 68.5q-94 0 -147 -65.5t-58 -179.5z" />
    <glyph glyph-name="Gcaron" unicode="&#x1e6;" horiz-adv-x="1506" 
d="M446 1617q-58 23 -39 70l20 50q19 47 76 23l291 -120h2l291 120q57 24 76 -23l20 -50q19 -47 -39 -70l-244 -98q-32 -13 -75 -13h-60q-43 0 -75 13zM86 717q0 345 180 548t510 203q199 0 312.5 -51t199.5 -158q52 -65 -3 -101l-114 -74q-50 -33 -107 29q-47 51 -119 85
t-159 34q-210 0 -299 -132.5t-89 -382.5t89 -382.5t299 -132.5q102 0 176 20.5t140 74.5v179h-217q-75 0 -75 65v118q0 65 75 65h434q75 0 75 -65v-508q-140 -103 -282.5 -144t-335.5 -41q-325 0 -507.5 203t-182.5 548z" />
    <glyph glyph-name="gcaron" unicode="&#x1e7;" horiz-adv-x="1192" 
d="M303 1310q-50 35 -21 76l25 36q30 41 78 6l211 -151h2l211 151q49 35 78 -6l25 -36q29 -41 -21 -76l-207 -145q-39 -27 -68 -27h-38q-29 0 -68 27zM80 525q0 220 95.5 382.5t330.5 162.5q90 0 154 -26t116 -112h4l4 58q4 60 54 60h158q60 0 60 -60v-979q0 -245 -132 -338
t-382 -93q-106 0 -196 11t-182 55q-48 23 -16 87l36 72q22 44 73 20q41 -19 101.5 -34t153.5 -15q128 0 196 47.5t68 207.5v17q0 40 4 80h-4q-52 -86 -116 -112t-154 -26q-235 0 -330.5 162.5t-95.5 372.5zM376 525q0 -150 41.5 -244.5t176.5 -94.5q75 0 128.5 84.5
t53.5 219.5v80q0 135 -53.5 219.5t-128.5 84.5q-135 0 -176.5 -94.5t-41.5 -254.5z" />
    <glyph glyph-name="uni01E8" unicode="&#x1e8;" horiz-adv-x="1361" 
d="M412 1617q-58 23 -39 70l20 50q19 47 76 23l291 -120h2l291 120q57 24 76 -23l20 -50q19 -47 -39 -70l-244 -98q-32 -13 -75 -13h-60q-43 0 -75 13zM230 0q-70 0 -70 75v1284q0 75 70 75h152q70 0 70 -75v-398q0 -60 -5 -120h7l486 534q54 59 92 59h201q117 0 38 -86
l-455 -498l487 -764q55 -86 -38 -86h-187q-52 0 -90 59l-368 577l-168 -189v-372q0 -75 -70 -75h-152z" />
    <glyph glyph-name="uni01E9" unicode="&#x1e9;" horiz-adv-x="1115" 
d="M339 1716q-50 35 -21 76l25 36q30 41 78 6l211 -151h2l211 151q49 35 78 -6l25 -36q29 -41 -21 -76l-207 -145q-39 -27 -68 -27h-38q-29 0 -68 27zM196 0q-60 0 -60 60v1356q0 60 60 60h160q60 0 60 -60v-735q0 -40 -4 -80h4l317 408q32 41 78 41h164q92 0 31 -74
l-302 -365l350 -537q48 -74 -31 -74h-171q-50 0 -82 52l-227 365l-127 -153v-204q0 -60 -60 -60h-160z" />
    <glyph glyph-name="uni01EE" unicode="&#x1ee;" horiz-adv-x="1316" 
d="M321 1617q-58 23 -39 70l20 50q19 47 76 23l291 -120h2l291 120q57 24 76 -23l20 -50q19 -47 -39 -70l-244 -98q-32 -13 -75 -13h-60q-43 0 -75 13zM163 158q-48 61 1 104l101 89q49 43 100 -22t124.5 -96t180.5 -31q101 0 189 54.5t88 171.5q0 94 -70.5 146.5
t-198.5 52.5h-106q-75 0 -75 63v106q0 33 32 72l258 316v7q-60 -5 -120 -5h-426q-75 0 -75 65v118q0 65 75 65h883q75 0 75 -65v-75q0 -57 -35 -101l-291 -364v-4q161 0 273.5 -112.5t112.5 -290.5q0 -215 -151.5 -335.5t-442.5 -120.5q-207 0 -318 50t-184 142z" />
    <glyph glyph-name="uni01EF" unicode="&#x1ef;" horiz-adv-x="1025" 
d="M230 1310q-50 35 -21 76l25 36q30 41 78 6l211 -151h2l211 151q49 35 78 -6l25 -36q29 -41 -21 -76l-207 -145q-39 -27 -68 -27h-38q-29 0 -68 27zM121 -292q-41 47 0 89l75 77q41 43 88 -4q44 -44 90.5 -69t132.5 -25q91 0 129 68.5t38 165.5q0 110 -56 176.5t-204 66.5
h-93q-60 0 -60 50v76q0 55 41 108l279 363v4q-40 -4 -80 -4h-321q-60 0 -60 50v100q0 50 60 50h688q60 0 60 -50v-70q0 -52 -43 -108l-284 -369v-4q189 -38 279 -153.5t90 -281.5q0 -209 -114 -321.5t-340 -112.5q-155 0 -248 33t-147 95z" />
    <glyph glyph-name="uni01F4" unicode="&#x1f4;" horiz-adv-x="1506" 
d="M685 1540q-67 0 -25 64l88 134q31 47 109 47h176q90 0 24 -61l-158 -146q-41 -38 -111 -38h-103zM86 717q0 345 180 548t510 203q199 0 312.5 -51t199.5 -158q52 -65 -3 -101l-114 -74q-50 -33 -107 29q-47 51 -119 85t-159 34q-210 0 -299 -132.5t-89 -382.5t89 -382.5
t299 -132.5q102 0 176 20.5t140 74.5v179h-217q-75 0 -75 65v118q0 65 75 65h434q75 0 75 -65v-508q-140 -103 -282.5 -144t-335.5 -41q-325 0 -507.5 203t-182.5 548z" />
    <glyph glyph-name="uni01F5" unicode="&#x1f5;" horiz-adv-x="1192" 
d="M472 1150q-57 0 -21 59l108 179q28 47 106 47h152q74 0 22 -59l-165 -189q-32 -37 -101 -37h-101zM80 525q0 220 95.5 382.5t330.5 162.5q90 0 154 -26t116 -112h4l4 58q4 60 54 60h158q60 0 60 -60v-979q0 -245 -132 -338t-382 -93q-106 0 -196 11t-182 55
q-48 23 -16 87l36 72q22 44 73 20q41 -19 101.5 -34t153.5 -15q128 0 196 47.5t68 207.5v17q0 40 4 80h-4q-52 -86 -116 -112t-154 -26q-235 0 -330.5 162.5t-95.5 372.5zM376 525q0 -150 41.5 -244.5t176.5 -94.5q75 0 128.5 84.5t53.5 219.5v80q0 135 -53.5 219.5
t-128.5 84.5q-135 0 -176.5 -94.5t-41.5 -254.5z" />
    <glyph glyph-name="uni01F8" unicode="&#x1f8;" horiz-adv-x="1472" 
d="M935 1540h-103q-70 0 -111 38l-158 146q-66 61 24 61h176q78 0 109 -47l88 -134q42 -64 -25 -64zM230 0q-70 0 -70 75v1284q0 75 70 75h148q86 0 130 -70l510 -819h7q-5 60 -5 120v694q0 75 70 75h152q70 0 70 -75v-1284q0 -75 -70 -75h-138q-86 0 -130 70l-520 834h-7
q5 -60 5 -120v-709q0 -75 -70 -75h-152z" />
    <glyph glyph-name="uni01F9" unicode="&#x1f9;" horiz-adv-x="1200" 
d="M418 1376q-52 59 22 59h152q78 0 106 -47l108 -179q36 -59 -21 -59h-101q-69 0 -101 37zM196 0q-60 0 -60 60v930q0 60 60 60h158q60 0 60 -60v-58h4q46 79 117 108.5t171 29.5q156 0 258 -98t102 -358v-554q0 -60 -60 -60h-160q-60 0 -60 60v482q0 218 -30 275t-129 57
q-105 0 -158 -81.5t-53 -338.5v-394q0 -60 -60 -60h-160z" />
    <glyph glyph-name="AEacute" unicode="&#x1fc;" horiz-adv-x="1911" 
d="M879 1540q-67 0 -25 64l88 134q31 47 109 47h176q90 0 24 -61l-158 -146q-41 -38 -111 -38h-103zM118 0q-75 0 -47 66l544 1287q34 81 94 81h1038q75 0 75 -65v-118q0 -65 -75 -65h-603v-318h550q75 0 75 -65v-118q0 -65 -75 -65h-550v-372h635q75 0 75 -65v-118
q0 -65 -75 -65h-857q-70 0 -70 75v263h-366l-114 -269q-29 -69 -92 -69h-162zM590 586h262v600h-36q-12 -72 -27 -120.5t-38 -101.5z" />
    <glyph glyph-name="aeacute" unicode="&#x1fd;" horiz-adv-x="1765" 
d="M754 1150q-57 0 -21 59l108 179q28 47 106 47h152q74 0 22 -59l-165 -189q-32 -37 -101 -37h-101zM80 280q0 200 188.5 290t428.5 96v40q0 92 -46 130t-124 38q-58 0 -102.5 -18.5t-74.5 -38t-55 -41.5q-46 -40 -76 -4l-83 102q-31 38 15 78q38 34 88 57.5t123.5 42
t189.5 18.5q84 0 164.5 -19.5t142.5 -74.5h3q50 48 132 71t166 23q268 0 395.5 -138t127.5 -444q0 -60 -56 -60h-650q11 -148 77 -200t148 -52q68 0 122 21t86 61q36 45 84 14l93 -61q58 -38 17 -86q-61 -73 -140.5 -109t-256.5 -36q-163 0 -264 39t-164 127h-2
q-63 -70 -161 -118t-192 -48q-178 0 -261 80.5t-83 219.5zM376 286q0 -30 12 -57.5t43 -40t64 -12.5q48 0 100 24t115 84q-11 76 -13 189q-154 -20 -211 -47.5t-83.5 -60t-26.5 -79.5zM977 628h426q0 108 -51.5 176.5t-169.5 68.5q-94 0 -147 -65.5t-58 -179.5z" />
    <glyph glyph-name="Oslashacute" unicode="&#x1fe;" horiz-adv-x="1544" 
d="M762 1630q-67 0 -25 64l88 134q31 47 109 47h176q90 0 24 -61l-158 -146q-41 -38 -111 -38h-103zM126 717q0 345 178 548t508 203q252 0 415 -118l120 133q40 45 81 8l89 -81q41 -36 1 -81l-135 -150q115 -185 115 -462q0 -345 -178 -548t-508 -203q-252 0 -415 118
l-120 -133q-40 -45 -81 -8l-89 81q-41 37 -1 81l135 150q-115 185 -115 462zM438 717q0 -124 22 -219l590 655q-88 79 -238 79q-195 0 -284.5 -132.5t-89.5 -382.5zM574 281q88 -79 238 -79q195 0 284.5 132.5t89.5 382.5q0 124 -22 219z" />
    <glyph glyph-name="oslashacute" unicode="&#x1ff;" horiz-adv-x="1206" 
d="M588 1207q-57 0 -21 59l108 179q28 47 106 47h152q74 0 22 -59l-165 -189q-32 -37 -101 -37h-101zM92 525q0 255 131.5 400t391.5 145q177 0 295 -68l51 57q40 45 77 11l75 -67q37 -33 -3 -78l-56 -62q84 -134 84 -338q0 -255 -131.5 -400t-391.5 -145q-177 0 -295 68
l-51 -57q-40 -45 -77 -11l-75 67q-37 33 3 78l56 62q-84 134 -84 338zM388 525q0 -53 5 -97l360 400q-54 46 -138 46q-110 0 -168.5 -79.5t-58.5 -269.5zM477 222q54 -46 138 -46q110 0 168.5 79.5t58.5 269.5q0 53 -5 97z" />
    <glyph glyph-name="uni0200" unicode="&#x200;" horiz-adv-x="1394" 
d="M301 1726q-61 59 26 59h149q75 0 105 -45l92 -136q43 -64 -21 -64h-103q-54 0 -94 38zM721 1726q-61 59 26 59h149q75 0 105 -45l92 -136q43 -64 -21 -64h-103q-54 0 -94 38zM115 0q-72 0 -47 66l490 1287q31 81 94 81h140q63 0 94 -81l490 -1287q25 -66 -47 -66h-159
q-66 0 -92 69l-102 269h-508l-102 -269q-26 -69 -92 -69h-159zM561 586h322l-123 318q-22 56 -26.5 81.5t-9.5 75.5h-4q-5 -50 -9.5 -75.5t-26.5 -81.5z" />
    <glyph glyph-name="uni0201" unicode="&#x201;" horiz-adv-x="1123" 
d="M221 1366q-46 69 9 69h129q77 0 97 -51l64 -166q26 -68 -26 -68h-64q-65 0 -93 42zM562 1366q-46 69 9 69h129q77 0 97 -51l64 -166q26 -68 -26 -68h-64q-65 0 -93 42zM80 280q0 200 191 290t436 96v40q0 92 -46 130t-128 38q-58 0 -102.5 -16.5t-77 -38t-58.5 -43.5
q-46 -40 -76 -4l-83 102q-31 38 15 78q35 31 81.5 54t123.5 43.5t200 20.5q208 0 319.5 -96t111.5 -283v-631q0 -60 -60 -60h-164q-54 0 -54 60v30h-2q-59 -57 -141.5 -83.5t-151.5 -26.5q-164 0 -249 80.5t-85 219.5zM376 286q0 -35 14 -60.5t44 -37.5t67 -12q51 0 99 14
t107 66v217q-168 -19 -225 -49t-81.5 -62t-24.5 -76z" />
    <glyph glyph-name="uni0202" unicode="&#x202;" horiz-adv-x="1394" 
d="M347 1646q44 105 138 165t234 60t234 -60t138 -165q22 -52 -20 -72l-62 -29q-41 -19 -72 28q-26 40 -82 81t-136 41t-136 -41t-82 -81q-31 -47 -72 -28l-62 29q-42 20 -20 72zM115 0q-72 0 -47 66l490 1287q31 81 94 81h140q63 0 94 -81l490 -1287q25 -66 -47 -66h-159
q-66 0 -92 69l-102 269h-508l-102 -269q-26 -69 -92 -69h-159zM561 586h322l-123 318q-22 56 -26.5 81.5t-9.5 75.5h-4q-5 -50 -9.5 -75.5t-26.5 -81.5z" />
    <glyph glyph-name="uni0203" unicode="&#x203;" horiz-adv-x="1123" 
d="M864.918 1233q19.9971 -43 -10.0039 -60l-64.002 -36q-36.002 -20 -55.999 21q-25.9971 53 -75.4941 90q-49.498 37 -123.498 37t-123.502 -37q-49.5029 -37 -75.5059 -90q-20.0029 -41 -56.001 -21l-63.998 36q-29.999 17 -9.99609 60q50.0059 110 129.01 165
q79.0029 55 200.003 55t199.997 -55q78.9961 -55 128.99 -165zM80 280q0 200 191 290t436 96v40q0 92 -46 130t-128 38q-58 0 -102.5 -16.5t-77 -38t-58.5 -43.5q-46 -40 -76 -4l-83 102q-31 38 15 78q35 31 81.5 54t123.5 43.5t200 20.5q208 0 319.5 -96t111.5 -283v-631
q0 -60 -60 -60h-164q-54 0 -54 60v30h-2q-59 -57 -141.5 -83.5t-151.5 -26.5q-164 0 -249 80.5t-85 219.5zM376 286q0 -35 14 -60.5t44 -37.5t67 -12q51 0 99 14t107 66v217q-168 -19 -225 -49t-81.5 -62t-24.5 -76z" />
    <glyph glyph-name="uni0204" unicode="&#x204;" horiz-adv-x="1280" 
d="M282 1726q-61 59 26 59h149q75 0 105 -45l92 -136q43 -64 -21 -64h-103q-54 0 -94 38zM702 1726q-61 59 26 59h149q75 0 105 -45l92 -136q43 -64 -21 -64h-103q-54 0 -94 38zM230 0q-70 0 -70 75v1284q0 75 70 75h858q75 0 75 -65v-118q0 -65 -75 -65h-636v-318h583
q75 0 75 -65v-118q0 -65 -75 -65h-583v-372h668q75 0 75 -65v-118q0 -65 -75 -65h-890z" />
    <glyph glyph-name="uni0205" unicode="&#x205;" horiz-adv-x="1174" 
d="M229 1366q-46 69 9 69h129q77 0 97 -51l64 -166q26 -68 -26 -68h-64q-65 0 -93 42zM570 1366q-46 69 9 69h129q77 0 97 -51l64 -166q26 -68 -26 -68h-64q-65 0 -93 42zM80 525q0 253 126.5 399t357.5 146q268 0 398 -138t130 -444q0 -60 -56 -60h-660q16 -166 82 -209
t153 -43q83 0 127 22t74 60q34 44 84 14l100 -61q59 -36 17 -86q-61 -73 -143 -109t-259 -36q-287 0 -409 146t-122 399zM377 628h435q0 108 -54 176.5t-172 68.5q-94 0 -149 -65.5t-60 -179.5z" />
    <glyph glyph-name="uni0206" unicode="&#x206;" horiz-adv-x="1280" 
d="M328 1646q44 105 138 165t234 60t234 -60t138 -165q22 -52 -20 -72l-62 -29q-41 -19 -72 28q-26 40 -82 81t-136 41t-136 -41t-82 -81q-31 -47 -72 -28l-62 29q-42 20 -20 72zM230 0q-70 0 -70 75v1284q0 75 70 75h858q75 0 75 -65v-118q0 -65 -75 -65h-636v-318h583
q75 0 75 -65v-118q0 -65 -75 -65h-583v-372h668q75 0 75 -65v-118q0 -65 -75 -65h-890z" />
    <glyph glyph-name="uni0207" unicode="&#x207;" horiz-adv-x="1174" 
d="M872.918 1233q19.9971 -43 -10.0039 -60l-64.002 -36q-36.002 -20 -55.999 21q-25.9971 53 -75.4941 90q-49.498 37 -123.498 37t-123.502 -37q-49.5029 -37 -75.5059 -90q-20.0029 -41 -56.001 -21l-63.998 36q-29.999 17 -9.99609 60q50.0059 110 129.01 165
q79.0029 55 200.003 55t199.997 -55q78.9961 -55 128.99 -165zM80 525q0 253 126.5 399t357.5 146q268 0 398 -138t130 -444q0 -60 -56 -60h-660q16 -166 82 -209t153 -43q83 0 127 22t74 60q34 44 84 14l100 -61q59 -36 17 -86q-61 -73 -143 -109t-259 -36q-287 0 -409 146
t-122 399zM377 628h435q0 108 -54 176.5t-172 68.5q-94 0 -149 -65.5t-60 -179.5z" />
    <glyph glyph-name="uni0208" unicode="&#x208;" horiz-adv-x="612" 
d="M-90 1726q-61 59 26 59h149q75 0 105 -45l92 -136q43 -64 -21 -64h-103q-54 0 -94 38zM330 1726q-61 59 26 59h149q75 0 105 -45l92 -136q43 -64 -21 -64h-103q-54 0 -94 38zM230 0q-70 0 -70 75v1284q0 75 70 75h152q70 0 70 -75v-1284q0 -75 -70 -75h-152z" />
    <glyph glyph-name="uni0209" unicode="&#x209;" horiz-adv-x="552" 
d="M-59 1366q-46 69 9 69h129q77 0 97 -51l64 -166q26 -68 -26 -68h-64q-65 0 -93 42zM282 1366q-46 69 9 69h129q77 0 97 -51l64 -166q26 -68 -26 -68h-64q-65 0 -93 42zM196 0q-60 0 -60 60v930q0 60 60 60h160q60 0 60 -60v-930q0 -60 -60 -60h-160z" />
    <glyph glyph-name="uni020A" unicode="&#x20a;" horiz-adv-x="612" 
d="M-44 1646q44 105 138 165t234 60t234 -60t138 -165q22 -52 -20 -72l-62 -29q-41 -19 -72 28q-26 40 -82 81t-136 41t-136 -41t-82 -81q-31 -47 -72 -28l-62 29q-42 20 -20 72zM230 0q-70 0 -70 75v1284q0 75 70 75h152q70 0 70 -75v-1284q0 -75 -70 -75h-152z" />
    <glyph glyph-name="uni020B" unicode="&#x20b;" horiz-adv-x="552" 
d="M584.918 1233q19.9971 -43 -10.0039 -60l-64.002 -36q-36.002 -20 -55.999 21q-25.9971 53 -75.4941 90q-49.498 37 -123.498 37t-123.502 -37q-49.5029 -37 -75.5059 -90q-20.0029 -41 -56.001 -21l-63.998 36q-29.999 17 -9.99609 60q50.0059 110 129.01 165
q79.0029 55 200.003 55t199.997 -55q78.9961 -55 128.99 -165zM196 0q-60 0 -60 60v930q0 60 60 60h160q60 0 60 -60v-930q0 -60 -60 -60h-160z" />
    <glyph glyph-name="uni020C" unicode="&#x20c;" horiz-adv-x="1544" 
d="M376 1726q-61 59 26 59h149q75 0 105 -45l92 -136q43 -64 -21 -64h-103q-54 0 -94 38zM796 1726q-61 59 26 59h149q75 0 105 -45l92 -136q43 -64 -21 -64h-103q-54 0 -94 38zM86 717q0 345 178 548t508 203t508 -203t178 -548t-178 -548t-508 -203t-508 203t-178 548z
M398 717q0 -250 89.5 -382.5t284.5 -132.5t284.5 132.5t89.5 382.5t-89.5 382.5t-284.5 132.5t-284.5 -132.5t-89.5 -382.5z" />
    <glyph glyph-name="uni020D" unicode="&#x20d;" horiz-adv-x="1206" 
d="M268 1366q-46 69 9 69h129q77 0 97 -51l64 -166q26 -68 -26 -68h-64q-65 0 -93 42zM609 1366q-46 69 9 69h129q77 0 97 -51l64 -166q26 -68 -26 -68h-64q-65 0 -93 42zM80 525q0 255 131.5 400t391.5 145t391.5 -145t131.5 -400t-131.5 -400t-391.5 -145t-391.5 145
t-131.5 400zM376 525q0 -190 58.5 -269.5t168.5 -79.5t168.5 79.5t58.5 269.5t-58.5 269.5t-168.5 79.5t-168.5 -79.5t-58.5 -269.5z" />
    <glyph glyph-name="uni020E" unicode="&#x20e;" horiz-adv-x="1544" 
d="M422 1646q44 105 138 165t234 60t234 -60t138 -165q22 -52 -20 -72l-62 -29q-41 -19 -72 28q-26 40 -82 81t-136 41t-136 -41t-82 -81q-31 -47 -72 -28l-62 29q-42 20 -20 72zM86 717q0 345 178 548t508 203t508 -203t178 -548t-178 -548t-508 -203t-508 203t-178 548z
M398 717q0 -250 89.5 -382.5t284.5 -132.5t284.5 132.5t89.5 382.5t-89.5 382.5t-284.5 132.5t-284.5 -132.5t-89.5 -382.5z" />
    <glyph glyph-name="uni020F" unicode="&#x20f;" horiz-adv-x="1206" 
d="M911.918 1233q19.9971 -43 -10.0039 -60l-64.002 -36q-36.002 -20 -55.999 21q-25.9971 53 -75.4941 90q-49.498 37 -123.498 37t-123.502 -37q-49.5029 -37 -75.5059 -90q-20.0029 -41 -56.001 -21l-63.998 36q-29.999 17 -9.99609 60q50.0059 110 129.01 165
q79.0029 55 200.003 55t199.997 -55q78.9961 -55 128.99 -165zM80 525q0 255 131.5 400t391.5 145t391.5 -145t131.5 -400t-131.5 -400t-391.5 -145t-391.5 145t-131.5 400zM376 525q0 -190 58.5 -269.5t168.5 -79.5t168.5 79.5t58.5 269.5t-58.5 269.5t-168.5 79.5
t-168.5 -79.5t-58.5 -269.5z" />
    <glyph glyph-name="uni0210" unicode="&#x210;" horiz-adv-x="1428" 
d="M260 1726q-61 59 26 59h149q75 0 105 -45l92 -136q43 -64 -21 -64h-103q-54 0 -94 38zM680 1726q-61 59 26 59h149q75 0 105 -45l92 -136q43 -64 -21 -64h-103q-54 0 -94 38zM230 0q-70 0 -70 75v1284q0 75 70 75h463q309 0 451 -95.5t142 -310.5q0 -160 -115 -255
t-292 -126v-2q96 -36 145 -100t80 -112l220 -347q55 -86 -38 -86h-174q-55 0 -90 59l-202 337q-33 54 -120.5 118.5t-173.5 64.5h-74v-504q0 -75 -70 -75h-152zM452 827h179q200 0 284.5 45.5t84.5 144.5q0 108 -81.5 140.5t-239.5 32.5h-227v-363z" />
    <glyph glyph-name="uni0211" unicode="&#x211;" horiz-adv-x="786" 
d="M131 1366q-46 69 9 69h129q77 0 97 -51l64 -166q26 -68 -26 -68h-64q-65 0 -93 42zM472 1366q-46 69 9 69h129q77 0 97 -51l64 -166q26 -68 -26 -68h-64q-65 0 -93 42zM196 0q-60 0 -60 60v930q0 60 60 60h158q60 0 60 -60v-82h4q26 64 87 113t144 49q57 0 94 -14
q35 -13 27 -48l-28 -119q-9 -40 -54 -24q-26 9 -50 9q-96 0 -159 -115t-63 -335v-364q0 -60 -60 -60h-160z" />
    <glyph glyph-name="uni0212" unicode="&#x212;" horiz-adv-x="1428" 
d="M306 1646q44 105 138 165t234 60t234 -60t138 -165q22 -52 -20 -72l-62 -29q-41 -19 -72 28q-26 40 -82 81t-136 41t-136 -41t-82 -81q-31 -47 -72 -28l-62 29q-42 20 -20 72zM230 0q-70 0 -70 75v1284q0 75 70 75h463q309 0 451 -95.5t142 -310.5q0 -160 -115 -255
t-292 -126v-2q96 -36 145 -100t80 -112l220 -347q55 -86 -38 -86h-174q-55 0 -90 59l-202 337q-33 54 -120.5 118.5t-173.5 64.5h-74v-504q0 -75 -70 -75h-152zM452 827h179q200 0 284.5 45.5t84.5 144.5q0 108 -81.5 140.5t-239.5 32.5h-227v-363z" />
    <glyph glyph-name="uni0213" unicode="&#x213;" horiz-adv-x="786" 
d="M774.918 1233q19.9971 -43 -10.0039 -60l-64.002 -36q-36.002 -20 -55.999 21q-25.9971 53 -75.4941 90q-49.498 37 -123.498 37t-123.502 -37q-49.5029 -37 -75.5059 -90q-20.0029 -41 -56.001 -21l-63.998 36q-29.999 17 -9.99609 60q50.0059 110 129.01 165
q79.0029 55 200.003 55t199.997 -55q78.9961 -55 128.99 -165zM196 0q-60 0 -60 60v930q0 60 60 60h158q60 0 60 -60v-82h4q26 64 87 113t144 49q57 0 94 -14q35 -13 27 -48l-28 -119q-9 -40 -54 -24q-26 9 -50 9q-96 0 -159 -115t-63 -335v-364q0 -60 -60 -60h-160z" />
    <glyph glyph-name="uni0214" unicode="&#x214;" horiz-adv-x="1422" 
d="M315 1726q-61 59 26 59h149q75 0 105 -45l92 -136q43 -64 -21 -64h-103q-54 0 -94 38zM735 1726q-61 59 26 59h149q75 0 105 -45l92 -136q43 -64 -21 -64h-103q-54 0 -94 38zM160 597v782q0 55 70 55h152q70 0 70 -55v-772q0 -270 79.5 -337.5t179.5 -67.5t179.5 67.5
t79.5 337.5v772q0 55 70 55h152q70 0 70 -55v-782q0 -350 -148 -490.5t-403 -140.5t-403 140.5t-148 490.5z" />
    <glyph glyph-name="uni0215" unicode="&#x215;" horiz-adv-x="1194" 
d="M261 1366q-46 69 9 69h129q77 0 97 -51l64 -166q26 -68 -26 -68h-64q-65 0 -93 42zM602 1366q-46 69 9 69h129q77 0 97 -51l64 -166q26 -68 -26 -68h-64q-65 0 -93 42zM134 436v554q0 60 60 60h160q60 0 60 -60v-482q0 -218 30 -275t126 -57q102 0 155 81.5t53 338.5v394
q0 60 60 60h160q60 0 60 -60v-930q0 -60 -60 -60h-158q-60 0 -60 60v58h-4q-46 -79 -117 -108.5t-168 -29.5q-153 0 -255 98t-102 358z" />
    <glyph glyph-name="uni0216" unicode="&#x216;" horiz-adv-x="1422" 
d="M361 1646q44 105 138 165t234 60t234 -60t138 -165q22 -52 -20 -72l-62 -29q-41 -19 -72 28q-26 40 -82 81t-136 41t-136 -41t-82 -81q-31 -47 -72 -28l-62 29q-42 20 -20 72zM160 597v782q0 55 70 55h152q70 0 70 -55v-772q0 -270 79.5 -337.5t179.5 -67.5t179.5 67.5
t79.5 337.5v772q0 55 70 55h152q70 0 70 -55v-782q0 -350 -148 -490.5t-403 -140.5t-403 140.5t-148 490.5z" />
    <glyph glyph-name="uni0217" unicode="&#x217;" horiz-adv-x="1194" 
d="M904.918 1233q19.9971 -43 -10.0039 -60l-64.002 -36q-36.002 -20 -55.999 21q-25.9971 53 -75.4941 90q-49.498 37 -123.498 37t-123.502 -37q-49.5029 -37 -75.5059 -90q-20.0029 -41 -56.001 -21l-63.998 36q-29.999 17 -9.99609 60q50.0059 110 129.01 165
q79.0029 55 200.003 55t199.997 -55q78.9961 -55 128.99 -165zM134 436v554q0 60 60 60h160q60 0 60 -60v-482q0 -218 30 -275t126 -57q102 0 155 81.5t53 338.5v394q0 60 60 60h160q60 0 60 -60v-930q0 -60 -60 -60h-158q-60 0 -60 60v58h-4q-46 -79 -117 -108.5
t-168 -29.5q-153 0 -255 98t-102 358z" />
    <glyph glyph-name="uni021E" unicode="&#x21e;" horiz-adv-x="1442" 
d="M391 1617q-58 23 -39 70l20 50q19 47 76 23l291 -120h2l291 120q57 24 76 -23l20 -50q19 -47 -39 -70l-244 -98q-32 -13 -75 -13h-60q-43 0 -75 13zM230 0q-70 0 -70 75v1284q0 75 70 75h152q70 0 70 -75v-489h538v489q0 75 70 75h152q70 0 70 -75v-1284q0 -75 -70 -75
h-152q-70 0 -70 75v547h-538v-547q0 -75 -70 -75h-152z" />
    <glyph glyph-name="uni021F" unicode="&#x21f;" horiz-adv-x="1200" 
d="M336 1716q-50 35 -21 76l25 36q30 41 78 6l211 -151h2l211 151q49 35 78 -6l25 -36q29 -41 -21 -76l-207 -145q-39 -27 -68 -27h-38q-29 0 -68 27zM196 0q-60 0 -60 60v1356q0 60 60 60h160q60 0 60 -60v-404q0 -40 -4 -80h6q46 79 117 108.5t171 29.5q156 0 258 -98
t102 -358v-554q0 -60 -60 -60h-160q-60 0 -60 60v482q0 218 -30 275t-129 57q-105 0 -158 -81.5t-53 -338.5v-394q0 -60 -60 -60h-160z" />
    <glyph glyph-name="uni0226" unicode="&#x226;" horiz-adv-x="1394" 
d="M621 1526q-70 0 -70 75v114q0 75 70 75h152q70 0 70 -75v-114q0 -75 -70 -75h-152zM115 0q-72 0 -47 66l490 1287q31 81 94 81h140q63 0 94 -81l490 -1287q25 -66 -47 -66h-159q-66 0 -92 69l-102 269h-508l-102 -269q-26 -69 -92 -69h-159zM561 586h322l-123 318
q-22 56 -26.5 81.5t-9.5 75.5h-4q-5 -50 -9.5 -75.5t-26.5 -81.5z" />
    <glyph glyph-name="uni0227" unicode="&#x227;" horiz-adv-x="1123" 
d="M476 1204q-60 0 -60 60v128q0 60 60 60h160q60 0 60 -60v-128q0 -60 -60 -60h-160zM80 280q0 200 191 290t436 96v40q0 92 -46 130t-128 38q-58 0 -102.5 -16.5t-77 -38t-58.5 -43.5q-46 -40 -76 -4l-83 102q-31 38 15 78q35 31 81.5 54t123.5 43.5t200 20.5
q208 0 319.5 -96t111.5 -283v-631q0 -60 -60 -60h-164q-54 0 -54 60v30h-2q-59 -57 -141.5 -83.5t-151.5 -26.5q-164 0 -249 80.5t-85 219.5zM376 286q0 -35 14 -60.5t44 -37.5t67 -12q51 0 99 14t107 66v217q-168 -19 -225 -49t-81.5 -62t-24.5 -76z" />
    <glyph glyph-name="uni022E" unicode="&#x22e;" horiz-adv-x="1544" 
d="M696 1526q-70 0 -70 75v114q0 75 70 75h152q70 0 70 -75v-114q0 -75 -70 -75h-152zM86 717q0 345 178 548t508 203t508 -203t178 -548t-178 -548t-508 -203t-508 203t-178 548zM398 717q0 -250 89.5 -382.5t284.5 -132.5t284.5 132.5t89.5 382.5t-89.5 382.5
t-284.5 132.5t-284.5 -132.5t-89.5 -382.5z" />
    <glyph glyph-name="uni022F" unicode="&#x22f;" horiz-adv-x="1206" 
d="M523 1204q-60 0 -60 60v128q0 60 60 60h160q60 0 60 -60v-128q0 -60 -60 -60h-160zM80 525q0 255 131.5 400t391.5 145t391.5 -145t131.5 -400t-131.5 -400t-391.5 -145t-391.5 145t-131.5 400zM376 525q0 -190 58.5 -269.5t168.5 -79.5t168.5 79.5t58.5 269.5
t-58.5 269.5t-168.5 79.5t-168.5 -79.5t-58.5 -269.5z" />
    <glyph glyph-name="uni0232" unicode="&#x232;" horiz-adv-x="1368" 
d="M377 1534q-65 0 -65 60v70q0 60 65 60h614q65 0 65 -60v-70q0 -60 -65 -60h-614zM102 1348q-51 86 47 86h175q52 0 92 -69l213 -371q9 -15 53 -93.5t51 -152.5h4q7 74 51 152.5t53 93.5l213 371q40 69 92 69h175q98 0 47 -86l-487 -823v-470q0 -55 -70 -55h-152
q-70 0 -70 55v470z" />
    <glyph glyph-name="uni0233" unicode="&#x233;" horiz-adv-x="990" 
d="M237 1226q-60 0 -60 50v66q0 50 60 50h538q60 0 60 -50v-66q0 -50 -60 -50h-538zM71 972q-27 78 33 78h179q46 0 60 -51l151 -559q11 -39 19.5 -100.5t8.5 -78.5h6q12 53 17.5 84.5t30.5 122.5l143 531q14 51 60 51h179q59 0 33 -78l-337 -1014q-59 -178 -145 -278
t-239 -100q-84 0 -150 14q-38 8 -29 52l22 110q9 43 51 30q31 -10 58 -10q81 0 123.5 77t56.5 132l3 15z" />
    <glyph glyph-name="uni0237" unicode="&#x237;" horiz-adv-x="562" 
d="M-72 -409q-38 7 -29 52l22 110q9 46 51 30q18 -7 72 -7q63 0 87 66t24 184v964q0 60 60 60h160q60 0 60 -60v-994q0 -248 -97 -332t-259 -84q-90 0 -151 11z" />
    <glyph glyph-name="uni0244" unicode="&#x244;" horiz-adv-x="1610" 
d="M546 607q0 -270 79.5 -337.5t179.5 -67.5t179.5 67.5t79.5 337.5v15h-518v-15zM121 622q-75 0 -75 65v118q0 65 75 65h133v509q0 55 70 55h152q70 0 70 -55v-509h518v509q0 55 70 55h152q70 0 70 -55v-509h133q75 0 75 -65v-118q0 -65 -75 -65h-133v-25
q0 -350 -148 -490.5t-403 -140.5t-403 140.5t-148 490.5v25h-133z" />
    <glyph glyph-name="uni0245" unicode="&#x245;" horiz-adv-x="1370" 
d="M115 0q-72 0 -47 66l478 1287q30 81 94 81h140q64 0 94 -81l478 -1287q25 -66 -47 -66h-159q-67 0 -92 69l-306 835q-23 64 -27 85.5t-9 71.5h-4q-5 -50 -9 -71.5t-27 -85.5l-306 -835q-25 -69 -92 -69h-159z" />
    <glyph glyph-name="uni0250" unicode="&#x250;" horiz-adv-x="1123" 
d="M137 359v631q0 60 60 60h164q54 0 54 -60v-30h2q59 57 141.5 83.5t151.5 26.5q164 0 249 -80.5t85 -219.5q0 -200 -191 -290t-436 -96v-40q0 -92 46 -130t128 -38q58 0 102.5 16.5t77 38t58.5 43.5q46 40 76 4l83 -102q31 -38 -15 -78q-35 -31 -81.5 -54t-123.5 -43.5
t-200 -20.5q-208 0 -319.5 96t-111.5 283zM417 577q168 19 225 49t81.5 62t24.5 76q0 35 -14 60.5t-44 37.5t-67 12q-51 0 -99 -14t-107 -66v-217z" />
    <glyph glyph-name="uni0254" unicode="&#x254;" horiz-adv-x="1086" 
d="M119 900q39 58 132.5 114t270.5 56q265 0 393 -145t128 -400t-128 -400t-393 -145q-155 0 -241 41t-138 120q-31 47 10 74l106 70q45 30 79 -23q17 -26 65 -56t119 -30q113 0 169 79.5t56 269.5t-56 269.5t-169 79.5q-81 0 -131 -34t-94 -88q-38 -46 -80 -13l-93 73
q-42 33 -5 88z" />
    <glyph glyph-name="uni0256" unicode="&#x256;" horiz-adv-x="1204" 
d="M80 525q0 220 95.5 382.5t330.5 162.5q90 0 154 -26t116 -112h4q-4 40 -4 80v404q0 60 60 60h160q60 0 60 -60v-1390q0 -118 24 -184t84 -66q47 0 68 7q42 14 51 -30l22 -110q9 -45 -29 -52q-64 -11 -147 -11q-159 0 -256 84t-97 332v42q0 40 4 80h-4q-52 -86 -116 -112
t-154 -26q-235 0 -330.5 162.5t-95.5 382.5zM376 525q0 -160 41.5 -254.5t176.5 -94.5q75 0 128.5 84.5t53.5 219.5v90q0 135 -53.5 219.5t-128.5 84.5q-135 0 -176.5 -94.5t-41.5 -254.5z" />
    <glyph glyph-name="uni0258" unicode="&#x258;" horiz-adv-x="1174" 
d="M82 488q0 306 130 444t398 138q231 0 357.5 -146t126.5 -399t-122 -399t-409 -146q-177 0 -259 36t-143 109q-42 50 17 86l100 61q50 30 84 -14q30 -38 74 -60t127 -22q87 0 153 43t82 209h-660q-56 0 -56 60zM362 628h435q-5 114 -60 179.5t-149 65.5q-118 0 -172 -68.5
t-54 -176.5z" />
    <glyph glyph-name="uni0259" unicode="&#x259;" horiz-adv-x="1174" 
d="M82 562q0 60 56 60h660q-16 166 -82 209t-153 43q-83 0 -127 -22t-74 -60q-34 -44 -84 -14l-100 61q-59 36 -17 86q61 73 143 109t259 36q287 0 409 -146t122 -399t-126.5 -399t-357.5 -146q-268 0 -398 138t-130 444zM362 422q0 -108 54 -176.5t172 -68.5q94 0 149 65.5
t60 179.5h-435z" />
    <glyph glyph-name="uni025B" unicode="&#x25b;" horiz-adv-x="988" 
d="M94 302q0 82 52.5 143.5t160.5 110.5v3q-80 36 -130 86.5t-50 158.5q0 111 118 188.5t308 77.5q86 0 176 -19.5t160 -73.5q40 -31 5 -78l-57 -77q-27 -37 -75 0q-43 33 -91 42.5t-98 9.5q-66 0 -121 -23t-55 -80q0 -60 41 -91.5t102 -31.5h103q52 0 52 -50v-100
q0 -50 -52 -50h-84q-99 0 -138 -38t-39 -86q0 -57 38.5 -102.5t127.5 -45.5q55 0 127 19.5t108 43.5q50 33 77 -11l50 -82q35 -57 -7 -79q-60 -32 -148 -59.5t-217 -27.5q-171 0 -307.5 83.5t-136.5 238.5z" />
    <glyph glyph-name="uni025C" unicode="&#x25c;" horiz-adv-x="988" 
d="M113 146l50 82q27 44 77 11q36 -24 108 -43.5t127 -19.5q89 0 127.5 45.5t38.5 102.5q0 48 -39 86t-138 38h-84q-52 0 -52 50v100q0 50 52 50h103q61 0 102 31.5t41 91.5q0 57 -55 80t-121 23q-50 0 -98 -9.5t-91 -42.5q-48 -37 -75 0l-57 77q-35 47 5 78q70 54 160 73.5
t176 19.5q190 0 308 -77.5t118 -188.5q0 -108 -50 -158.5t-130 -86.5v-3q108 -49 160.5 -110.5t52.5 -143.5q0 -155 -136.5 -238.5t-307.5 -83.5q-129 0 -217 27.5t-148 59.5q-42 22 -7 79z" />
    <glyph glyph-name="uni0263" unicode="&#x263;" horiz-adv-x="1030" 
d="M471 -140q0 -30 14.5 -57t56.5 -27t56.5 27t14.5 57q0 40 -18.5 79t-50.5 81h-4q-32 -42 -50.5 -81t-18.5 -79zM70 972q-28 78 33 78h179q44 0 60 -51l165 -526q7 -23 18 -67.5t14 -87.5h6q3 43 14 87.5t18 67.5l165 526q16 51 60 51h179q61 0 33 -78l-283 -789
q84 -120 116 -195.5t32 -160.5q0 -97 -80.5 -172t-256.5 -75t-256.5 75t-80.5 172q0 85 32 160.5t116 195.5z" />
    <glyph glyph-name="uni0265" unicode="&#x265;" horiz-adv-x="1194" 
d="M1058 990l-2 -1330q0 -60 -60 -60h-160q-60 0 -60 60v378q0 40 4 80h-4q-46 -79 -117 -108.5t-168 -29.5q-153 0 -255 98t-102 358v554q0 60 60 60h160q60 0 60 -60v-482q0 -218 30 -275t126 -57q102 0 155 81.5t53 338.5v394q0 60 60 60h160q60 0 60 -60z" />
    <glyph glyph-name="uni0268" unicode="&#x268;" horiz-adv-x="728" 
d="M107 448q-60 0 -60 50v100q0 50 60 50h117v342q0 60 60 60h160q60 0 60 -60v-342h117q60 0 60 -50v-100q0 -50 -60 -50h-117v-388q0 -60 -60 -60h-160q-60 0 -60 60v388h-117zM284 1204q-60 0 -60 60v128q0 60 60 60h160q60 0 60 -60v-128q0 -60 -60 -60h-160z" />
    <glyph glyph-name="uni0269" unicode="&#x269;" horiz-adv-x="746" 
d="M136 279v711q0 60 60 60h160q60 0 60 -60v-646q0 -102 21 -141.5t66 -39.5q31 0 60.5 11t55.5 26q33 19 46 -23l33 -105q11 -34 -20 -52q-29 -17 -88.5 -35t-117.5 -18q-167 0 -251.5 66t-84.5 246z" />
    <glyph glyph-name="uni026A" unicode="&#x26a;" horiz-adv-x="748" 
d="M152 0q-60 0 -60 50v100q0 50 60 50h82v650h-82q-60 0 -60 50v100q0 50 60 50h444q60 0 60 -50v-100q0 -50 -60 -50h-82v-650h82q60 0 60 -50v-100q0 -50 -60 -50h-444z" />
    <glyph glyph-name="uni026F" unicode="&#x26f;" horiz-adv-x="1750" 
d="M134 436v554q0 60 60 60h160q60 0 60 -60v-482q0 -218 29.5 -275t104.5 -57q70 0 128 82t58 338v394q0 60 60 60h160q60 0 60 -60v-482q0 -218 29.5 -275t104.5 -57q70 0 128 81.5t58 338.5v394q0 60 60 60h160q60 0 60 -60v-930q0 -60 -60 -60h-158q-60 0 -60 60v58h-4
q-29 -64 -98 -101t-129 -37q-120 0 -186.5 56t-91.5 125h-4q-87 -113 -157.5 -147t-180.5 -34q-148 0 -249.5 98t-101.5 358z" />
    <glyph glyph-name="uni0271" unicode="&#x271;" horiz-adv-x="1750" 
d="M196 0q-60 0 -60 60v930q0 60 60 60h158q60 0 60 -60v-58h4q29 64 98 101t129 37q120 0 186.5 -56t91.5 -125h4q87 113 157.5 147t180.5 34q148 0 249.5 -98t101.5 -358v-618q0 -248 -97 -332t-259 -84q-90 0 -151 11q-38 7 -29 52l22 110q9 46 51 30q18 -7 72 -7
q63 0 87 66t24 184v516q0 218 -29.5 275t-104.5 57q-70 0 -128 -82t-58 -338v-394q0 -60 -60 -60h-160q-60 0 -60 60v482q0 218 -29.5 275t-104.5 57q-70 0 -128 -81.5t-58 -338.5v-394q0 -60 -60 -60h-160z" />
    <glyph glyph-name="uni0275" unicode="&#x275;" horiz-adv-x="1206" 
d="M80 525q0 255 131.5 400t391.5 145t391.5 -145t131.5 -400t-131.5 -400t-391.5 -145t-391.5 145t-131.5 400zM379 448q9 -130 61 -201t163 -71t163 71t61 201h-448zM384 648h438q-14 96 -61 161t-158 65t-158 -65t-61 -161z" />
    <glyph glyph-name="uni0279" unicode="&#x279;" horiz-adv-x="786" 
d="M24 42l28 119q9 40 54 24q26 -9 50 -9q96 0 159 115t63 335v364q0 60 60 60h160q60 0 60 -60v-930q0 -60 -60 -60h-158q-60 0 -60 60v82h-4q-26 -64 -87 -113t-144 -49q-57 0 -94 14q-35 13 -27 48z" />
    <glyph glyph-name="uni0283" unicode="&#x283;" horiz-adv-x="572" 
d="M-72 -409q-38 7 -29 52l22 110q9 46 51 30q18 -7 72 -7q63 0 87 66t24 184v1164q0 184 106.5 245t251.5 61q69 0 112.5 -8t81.5 -20q36 -12 26 -50l-30 -113q-9 -33 -46 -20q-22 8 -55.5 11.5t-56.5 3.5q-73 0 -91.5 -39t-18.5 -171v-1094q0 -248 -97 -332t-259 -84
q-90 0 -151 11z" />
    <glyph glyph-name="uni0287" unicode="&#x287;" horiz-adv-x="798" 
d="M61 993q-9 34 26 50q33 15 90.5 27.5t115.5 12.5q143 0 244 -59t101 -243v-581h68q59 0 59 -50v-100q0 -50 -59 -50h-68v-35q0 -45 -21 -82l-77 -135q-22 -38 -52 -38h-70q-60 0 -60 60v230h-162q-59 0 -59 50v100q0 50 59 50h162v496q0 102 -14.5 146.5t-75.5 44.5
q-31 0 -70 -10.5t-61 -20.5q-35 -16 -46 23z" />
    <glyph glyph-name="uni0289" unicode="&#x289;" horiz-adv-x="1372" 
d="M107 448q-60 0 -60 50v100q0 50 60 50h117v342q0 60 60 60h160q60 0 60 -60v-342h364v342q0 60 60 60h160q60 0 60 -60v-342h117q60 0 60 -50v-100q0 -50 -60 -50h-117v-388q0 -60 -60 -60h-158q-60 0 -60 60v58h-4q-46 -79 -117 -108.5t-168 -29.5q-153 0 -255 98
t-102 358v12h-117zM505 435q0 -137 29 -198t126 -61q94 0 144.5 67.5t57.5 204.5h-357v-13z" />
    <glyph glyph-name="uni028B" unicode="&#x28b;" horiz-adv-x="1169" 
d="M134 464v526q0 60 60 60h160q60 0 60 -60v-482q0 -218 40.5 -275t138.5 -57q90 0 145 77t55 278q0 96 -30.5 192t-79.5 171q-30 46 15 72l159 90q45 26 81 -27q55 -81 103 -208.5t48 -263.5q0 -278 -126 -427.5t-362 -149.5q-196 0 -331.5 99t-135.5 385z" />
    <glyph glyph-name="uni028C" unicode="&#x28c;" horiz-adv-x="1008" 
d="M100 0q-58 0 -33 78l290 905q21 67 73 67h198q52 0 73 -67l290 -905q25 -78 -33 -78h-179q-47 0 -60 51l-155 586q-13 49 -21.5 97t-10.5 78h-6q-2 -30 -10.5 -78t-21.5 -97l-155 -586q-13 -51 -60 -51h-179z" />
    <glyph glyph-name="uni028D" unicode="&#x28d;" horiz-adv-x="1604" 
d="M64 78l260 905q19 67 73 67h181q57 0 73 -67l145 -593q13 -51 18.5 -82t7.5 -69h4q2 38 7.5 69t18.5 82l145 593q16 67 73 67h181q54 0 73 -67l260 -905q22 -78 -33 -78h-169q-48 0 -60 51l-135 586q-12 51 -21 98t-11 77h-6q-2 -30 -11 -78.5t-21 -96.5l-142 -586
q-12 -51 -60 -51h-182q-48 0 -60 51l-142 586q-12 48 -21 96.5t-11 78.5h-6q-2 -30 -11 -77t-21 -98l-135 -586q-12 -51 -60 -51h-169q-55 0 -33 78z" />
    <glyph glyph-name="uni028E" unicode="&#x28e;" horiz-adv-x="990" 
d="M52 78l337 1014q59 178 145 278t239 100q84 0 150 -14q38 -8 29 -52l-22 -110q-9 -43 -51 -30q-31 10 -58 10q-81 0 -123.5 -77t-56.5 -132l-3 -15l334 -972q27 -78 -33 -78h-179q-46 0 -60 51l-151 559q-11 39 -19.5 100.5t-8.5 78.5h-6q-12 -53 -17.5 -84.5
t-30.5 -122.5l-143 -531q-14 -51 -60 -51h-179q-59 0 -33 78z" />
    <glyph glyph-name="uni0292" unicode="&#x292;" horiz-adv-x="1025" 
d="M121 -292q-41 47 0 89l75 77q41 43 88 -4q44 -44 90.5 -69t132.5 -25q91 0 129 68.5t38 165.5q0 110 -56 176.5t-204 66.5h-93q-60 0 -60 50v76q0 55 41 108l279 363v4q-40 -4 -80 -4h-321q-60 0 -60 50v100q0 50 60 50h688q60 0 60 -50v-70q0 -52 -43 -108l-284 -369v-4
q189 -38 279 -153.5t90 -281.5q0 -209 -114 -321.5t-340 -112.5q-155 0 -248 33t-147 95z" />
    <glyph glyph-name="uni0299" unicode="&#x299;" horiz-adv-x="1106" 
d="M196 0q-60 0 -60 60v930q0 60 60 60h359q213 0 318.5 -75t105.5 -178q0 -110 -56.5 -165.5t-123.5 -78.5v-3q118 -40 165.5 -101.5t47.5 -152.5q0 -131 -80.5 -213.5t-308.5 -82.5h-427zM416 196h89q120 0 165.5 29.5t45.5 86.5q0 63 -45.5 99t-165.5 36h-89v-251z
M416 637h94q87 0 138 34t51 90q0 64 -63 78.5t-121 14.5h-99v-217z" />
    <glyph glyph-name="uni029C" unicode="&#x29c;" horiz-adv-x="1192" 
d="M196 0q-60 0 -60 60v930q0 60 60 60h160q60 0 60 -60v-342h360v342q0 60 60 60h160q60 0 60 -60v-930q0 -60 -60 -60h-160q-60 0 -60 60v388h-360v-388q0 -60 -60 -60h-160z" />
    <glyph glyph-name="uni029E" unicode="&#x29e;" horiz-adv-x="1115" 
d="M110 976q-48 74 31 74h171q50 0 82 -52l227 -365l127 153v204q0 60 60 60h160q60 0 60 -60v-1356q0 -60 -60 -60h-160q-60 0 -60 60v735q0 40 4 80h-4l-317 -408q-32 -41 -78 -41h-164q-92 0 -31 74l302 365z" />
    <glyph glyph-name="uni02B0" unicode="&#x2b0;" horiz-adv-x="720" 
d="M82 736v814q0 36 36 36h96q36 0 36 -36v-243q0 -24 -3 -48h4q48 83 173 83q94 0 155 -59t61 -215v-332q0 -36 -36 -36h-96q-36 0 -36 36v289q0 131 -18 165t-78 34q-63 0 -94.5 -48.5t-31.5 -203.5v-236q0 -36 -36 -36h-96q-36 0 -36 36z" />
    <glyph glyph-name="uni02B2" unicode="&#x2b2;" horiz-adv-x="337" 
d="M-60 486l13 66q5 28 31 18q11 -4 43 -4q38 0 52.5 39.5t14.5 110.5v578q0 36 36 36h96q36 0 36 -36v-596q0 -149 -58.5 -199.5t-155.5 -50.5q-54 0 -91 7q-23 4 -17 31zM94 1458v77q0 36 36 36h96q36 0 36 -36v-77q0 -36 -36 -36h-96q-36 0 -36 36z" />
    <glyph glyph-name="uni02B3" unicode="&#x2b3;" horiz-adv-x="471" 
d="M82 736v558q0 36 36 36h94q36 0 36 -36v-49h3q16 38 52.5 67.5t85.5 29.5q34 0 57 -8q21 -8 16 -29l-17 -72q-5 -24 -32 -14q-16 5 -30 5q-58 0 -95.5 -69t-37.5 -201v-218q0 -36 -36 -36h-96q-36 0 -36 36z" />
    <glyph glyph-name="uni02B4" unicode="&#x2b4;" horiz-adv-x="471" 
d="M15 725l16 72q5 24 33 14q16 -5 30 -5q58 0 95.5 69t37.5 201v218q0 36 36 36h96q36 0 36 -36v-558q0 -36 -36 -36h-95q-36 0 -36 36v49h-2q-16 -38 -52.5 -67.5t-86.5 -29.5q-34 0 -56 8q-21 8 -16 29z" />
    <glyph glyph-name="uni02B7" unicode="&#x2b7;" horiz-adv-x="962" 
d="M38 1283q-13 47 20 47h101q29 0 36 -31l81 -351q17 -72 20 -105h3q3 38 19 105l86 351q7 31 36 31h109q29 0 36 -31l85 -351q17 -67 19 -105h4q2 33 19 105l81 351q7 31 36 31h101q33 0 20 -47l-156 -543q-11 -40 -44 -40h-108q-34 0 -44 40l-87 356q-14 54 -16 91h-2
q-2 -37 -16 -91l-87 -356q-10 -40 -43 -40h-109q-32 0 -44 40z" />
    <glyph glyph-name="uni02B8" unicode="&#x2b8;" horiz-adv-x="594" 
d="M42 1283q-16 47 20 47h108q28 0 36 -31l90 -335q17 -60 17 -107h4q7 32 10 50.5t18 73.5l86 318q8 31 36 31h108q35 0 19 -47l-202 -608q-35 -107 -86.5 -167t-143.5 -60q-50 0 -90 8q-23 5 -18 32l14 66q5 26 30 18q19 -6 35 -6q49 0 75.5 48.5t34.5 85.5z" />
    <glyph glyph-name="uni02B9" unicode="&#x2b9;" horiz-adv-x="540" 
d="M178 894q-50 0 -36 60l127 531q16 65 66 65h162q60 0 36 -65l-193 -531q-22 -60 -64 -60h-98z" />
    <glyph glyph-name="uni02BA" unicode="&#x2ba;" horiz-adv-x="990" 
d="M178 894q-50 0 -36 60l127 531q16 65 66 65h162q60 0 36 -65l-193 -531q-22 -60 -64 -60h-98zM628 894q-50 0 -36 60l127 531q16 65 66 65h162q60 0 36 -65l-193 -531q-22 -60 -64 -60h-98z" />
    <glyph glyph-name="circumflex" unicode="&#x2c6;" horiz-adv-x="614" 
d="M21 1186q-29 41 21 76l207 145q39 27 68 27h38q29 0 68 -27l207 -145q50 -35 21 -76l-25 -36q-30 -41 -78 -6l-211 151h-2l-211 -151q-49 -35 -78 6z" />
    <glyph glyph-name="caron" unicode="&#x2c7;" horiz-adv-x="614" 
d="M42 1310q-50 35 -21 76l25 36q30 41 78 6l211 -151h2l211 151q49 35 78 -6l25 -36q29 -41 -21 -76l-207 -145q-39 -27 -68 -27h-38q-29 0 -68 27z" />
    <glyph glyph-name="uni02CA" unicode="&#x2ca;" horiz-adv-x="614" 
d="M210 1150q-57 0 -21 59l108 179q28 47 106 47h152q74 0 22 -59l-165 -189q-32 -37 -101 -37h-101z" />
    <glyph glyph-name="uni02CB" unicode="&#x2cb;" horiz-adv-x="614" 
d="M205 1376q-52 59 22 59h152q78 0 106 -47l108 -179q36 -59 -21 -59h-101q-69 0 -101 37z" />
    <glyph glyph-name="uni02CE" unicode="&#x2ce;" horiz-adv-x="614" 
d="M205 -346q-52 59 22 59h152q78 0 106 -47l108 -179q36 -59 -21 -59h-101q-69 0 -101 37z" />
    <glyph glyph-name="uni02CF" unicode="&#x2cf;" horiz-adv-x="614" 
d="M210 -572q-57 0 -21 59l108 179q28 47 106 47h152q74 0 22 -59l-165 -189q-32 -37 -101 -37h-101z" />
    <glyph glyph-name="breve" unicode="&#x2d8;" horiz-adv-x="614" 
d="M-2 1350q-20 43 10 60l64 36q36 20 56 -21q26 -53 75.5 -90t123.5 -37t123.5 37t75.5 90q20 41 56 21l64 -36q30 -17 10 -60q-50 -110 -129 -165t-200 -55t-200 55t-129 165z" />
    <glyph glyph-name="dotaccent" unicode="&#x2d9;" horiz-adv-x="614" 
d="M227 1204q-60 0 -60 60v128q0 60 60 60h160q60 0 60 -60v-128q0 -60 -60 -60h-160z" />
    <glyph glyph-name="ring" unicode="&#x2da;" horiz-adv-x="614" 
d="M118 1313q0 77 55 131.5t134 54.5t134 -54.5t55 -131.5t-55 -131.5t-134 -54.5t-134 54.5t-55 131.5zM213 1313q0 -40 27 -67t67 -27t67 27t27 67t-27 67t-67 27t-67 -27t-27 -67z" />
    <glyph glyph-name="ogonek" unicode="&#x2db;" horiz-adv-x="614" 
d="M71 -247q0 36 9.5 70t51.5 83t94 94q18 13 18 60h278q0 -45 -37 -71q-52 -43 -115 -88.5t-63 -76.5t23.5 -39.5t55.5 -8.5q50 0 81 5q36 6 40 -31l14 -118q4 -36 -34 -43q-44 -9 -134 -9q-141 0 -211.5 44t-70.5 129z" />
    <glyph glyph-name="tilde" unicode="&#x2dc;" horiz-adv-x="614" 
d="M4 1184q-31 14 -15 61q22 63 77.5 107t135.5 44q68 0 144 -52t111 -52q31 0 52.5 13.5t36.5 43.5q21 43 54 28l42 -19q31 -14 15 -61q-22 -63 -77.5 -107t-135.5 -44q-68 0 -144 52t-111 52q-31 0 -52.5 -13.5t-36.5 -43.5q-21 -43 -54 -28z" />
    <glyph glyph-name="hungarumlaut" unicode="&#x2dd;" horiz-adv-x="614" 
d="M52 1150q-52 0 -26 68l64 166q20 51 97 51h129q55 0 9 -69l-116 -174q-28 -42 -93 -42h-64zM393 1150q-52 0 -26 68l64 166q20 51 97 51h129q55 0 9 -69l-116 -174q-28 -42 -93 -42h-64z" />
    <glyph glyph-name="uni02E0" unicode="&#x2e0;" horiz-adv-x="618" 
d="M42 1283q-17 47 20 47h107q26 0 36 -31l99 -315q16 -54 20 -93h3q3 39 19 93l99 315q10 31 36 31h108q37 0 20 -47l-170 -473q50 -72 69.5 -117.5t19.5 -96.5q0 -58 -48.5 -103t-154.5 -45t-154 45t-48 103q0 51 19.5 96.5t69.5 117.5zM283 616q0 -50 42 -50q43 0 43 50
q0 42 -41 96h-3q-41 -54 -41 -96z" />
    <glyph glyph-name="uni02E1" unicode="&#x2e1;" horiz-adv-x="331" 
d="M82 736v709q0 27 12 49l46 81q13 23 32 23h42q36 0 36 -36v-826q0 -36 -36 -36h-96q-36 0 -36 36z" />
    <glyph glyph-name="uni02E2" unicode="&#x2e2;" horiz-adv-x="603" 
d="M53 787l30 56q16 30 51 7q67 -44 165 -44q106 0 106 72q0 44 -66 60q-209 51 -236.5 111.5t-27.5 105.5q0 61 35 106.5t91 63t139 17.5q56 0 109.5 -16t76.5 -31q36 -23 18 -48l-37 -54q-17 -24 -54 -3q-63 34 -116 34q-94 0 -94 -57q0 -39 49 -56t116 -36.5t116 -57
t49 -129.5q0 -58 -49.5 -129t-209.5 -71q-170 0 -245 54q-29 21 -16 45z" />
    <glyph glyph-name="uni02E3" unicode="&#x2e3;" horiz-adv-x="651" 
d="M65 744l198 288l-175 254q-30 44 22 44h113q27 0 41 -24l93 -162l93 162q14 24 41 24h113q52 0 22 -44l-177 -254l200 -288q31 -44 -22 -44h-113q-26 0 -41 24l-116 196l-117 -196q-14 -24 -40 -24h-114q-52 0 -21 44z" />
    <glyph glyph-name="uni02EE" unicode="&#x2ee;" horiz-adv-x="916" 
d="M590 1184q-70 0 -70 75v134q0 75 70 75h156q70 0 70 -75v-134q0 -129 -17 -216.5t-87 -141.5q-51 -39 -80 -8l-38 41q-36 38 11 75q32 25 43 65t11 110h-69zM170 1184q-70 0 -70 75v134q0 75 70 75h156q70 0 70 -75v-134q0 -129 -17 -216.5t-87 -141.5q-51 -39 -80 -8
l-38 41q-36 38 11 75q32 25 43 65t11 110h-69z" />
    <glyph glyph-name="gravecomb" unicode="&#x300;" 
d="M-409 1376q-52 59 22 59h152q78 0 106 -47l108 -179q36 -59 -21 -59h-101q-69 0 -101 37z" />
    <glyph glyph-name="acutecomb" unicode="&#x301;" 
d="M-404 1150q-57 0 -21 59l108 179q28 47 106 47h152q74 0 22 -59l-165 -189q-32 -37 -101 -37h-101z" />
    <glyph glyph-name="uni0302" unicode="&#x302;" 
d="M-593 1186q-29 41 21 76l207 145q39 27 68 27h38q29 0 68 -27l207 -145q50 -35 21 -76l-25 -36q-30 -41 -78 -6l-211 151h-2l-211 -151q-49 -35 -78 6z" />
    <glyph glyph-name="tildecomb" unicode="&#x303;" 
d="M-610 1184q-31 14 -15 61q22 63 77.5 107t135.5 44q68 0 144 -52t111 -52q31 0 52.5 13.5t36.5 43.5q21 43 54 28l42 -19q31 -14 15 -61q-22 -63 -77.5 -107t-135.5 -44q-68 0 -144 52t-111 52q-31 0 -52.5 -13.5t-36.5 -43.5q-21 -43 -54 -28z" />
    <glyph glyph-name="uni0304" unicode="&#x304;" 
d="M-576 1226q-60 0 -60 50v66q0 50 60 50h538q60 0 60 -50v-66q0 -50 -60 -50h-538z" />
    <glyph glyph-name="uni0305" unicode="&#x305;" 
d="M-1165 1192q-60 0 -60 50v100q0 50 60 50h1130q60 0 60 -50v-100q0 -50 -60 -50h-1130z" />
    <glyph glyph-name="uni0306" unicode="&#x306;" 
d="M-616 1350q-20 43 10 60l64 36q36 20 56 -21q26 -53 75.5 -90t123.5 -37t123.5 37t75.5 90q20 41 56 21l64 -36q30 -17 10 -60q-50 -110 -129 -165t-200 -55t-200 55t-129 165z" />
    <glyph glyph-name="uni0307" unicode="&#x307;" 
d="M-387 1204q-60 0 -60 60v128q0 60 60 60h160q60 0 60 -60v-128q0 -60 -60 -60h-160z" />
    <glyph glyph-name="uni0308" unicode="&#x308;" 
d="M-578 1206q-60 0 -60 60v116q0 60 60 60h116q60 0 60 -60v-116q0 -60 -60 -60h-116zM-152 1206q-60 0 -60 60v116q0 60 60 60h116q60 0 60 -60v-116q0 -60 -60 -60h-116z" />
    <glyph glyph-name="uni030A" unicode="&#x30a;" 
d="M-496 1313q0 77 55 131.5t134 54.5t134 -54.5t55 -131.5t-55 -131.5t-134 -54.5t-134 54.5t-55 131.5zM-401 1313q0 -40 27 -67t67 -27t67 27t27 67t-27 67t-67 27t-67 -27t-27 -67z" />
    <glyph glyph-name="uni030B" unicode="&#x30b;" 
d="M-562 1150q-52 0 -26 68l64 166q20 51 97 51h129q55 0 9 -69l-116 -174q-28 -42 -93 -42h-64zM-221 1150q-52 0 -26 68l64 166q20 51 97 51h129q55 0 9 -69l-116 -174q-28 -42 -93 -42h-64z" />
    <glyph glyph-name="uni030C" unicode="&#x30c;" 
d="M-572 1310q-50 35 -21 76l25 36q30 41 78 6l211 -151h2l211 151q49 35 78 -6l25 -36q29 -41 -21 -76l-207 -145q-39 -27 -68 -27h-38q-29 0 -68 27z" />
    <glyph glyph-name="uni030F" unicode="&#x30f;" 
d="M-556 1366q-46 69 9 69h129q77 0 97 -51l64 -166q26 -68 -26 -68h-64q-65 0 -93 42zM-215 1366q-46 69 9 69h129q77 0 97 -51l64 -166q26 -68 -26 -68h-64q-65 0 -93 42z" />
    <glyph glyph-name="uni0311" unicode="&#x311;" 
d="M1.91797 1233q19.9971 -43 -10.0039 -60l-64.002 -36q-36.002 -20 -55.999 21q-25.9971 53 -75.4941 90q-49.498 37 -123.498 37t-123.502 -37q-49.5029 -37 -75.5059 -90q-20.0029 -41 -56.001 -21l-63.998 36q-29.999 17 -9.99609 60q50.0059 110 129.01 165
q79.0029 55 200.003 55t199.997 -55q78.9961 -55 128.99 -165z" />
    <glyph glyph-name="uni0315" unicode="&#x315;" 
d="M-78 1478q-70 0 -70 75v134q0 75 70 75h156q70 0 70 -75v-134q0 -129 -17 -216.5t-87 -141.5q-51 -39 -80 -8l-38 41q-36 38 11 75q32 25 43 65t11 110h-69z" />
    <glyph glyph-name="uni0316" unicode="&#x316;" 
d="M-409 -346q-52 59 22 59h152q78 0 106 -47l108 -179q36 -59 -21 -59h-101q-69 0 -101 37z" />
    <glyph glyph-name="uni0317" unicode="&#x317;" 
d="M-404 -572q-57 0 -21 59l108 179q28 47 106 47h152q74 0 22 -59l-165 -189q-32 -37 -101 -37h-101z" />
    <glyph glyph-name="dotbelowcomb" unicode="&#x323;" 
d="M-387 -393q-60 0 -60 60v128q0 60 60 60h160q60 0 60 -60v-128q0 -60 -60 -60h-160z" />
    <glyph glyph-name="uni0324" unicode="&#x324;" 
d="M-578 -380q-60 0 -60 60v116q0 60 60 60h116q60 0 60 -60v-116q0 -60 -60 -60h-116zM-152 -380q-60 0 -60 60v116q0 60 60 60h116q60 0 60 -60v-116q0 -60 -60 -60h-116z" />
    <glyph glyph-name="uni0325" unicode="&#x325;" 
d="M-496 -336q0 77 55 131.5t134 54.5t134 -54.5t55 -131.5t-55 -131.5t-134 -54.5t-134 54.5t-55 131.5zM-401 -336q0 -40 27 -67t67 -27t67 27t27 67t-27 67t-67 27t-67 -27t-27 -67z" />
    <glyph glyph-name="uni0327" unicode="&#x327;" 
d="M-487 -401q-28 8 -18 42l13 45q11 37 46 23q34 -13 80 -13q41 0 64.5 13.5t23.5 42.5q0 25 -24.5 38t-78.5 13h-21q-34 0 -34 35q0 41 14 68l48 94q11 22 40 22h83q30 0 19 -22l-45 -88v-3q86 -12 120 -51t34 -102q0 -96 -66 -135.5t-166 -39.5q-69 0 -132 18z" />
    <glyph glyph-name="uni0328" unicode="&#x328;" 
d="M-543 -247q0 36 9.5 70t51.5 83t94 94q18 13 18 60h278q0 -45 -37 -71q-52 -43 -115 -88.5t-63 -76.5t23.5 -39.5t55.5 -8.5q50 0 81 5q36 6 40 -31l14 -118q4 -36 -34 -43q-44 -9 -134 -9q-141 0 -211.5 44t-70.5 129z" />
    <glyph glyph-name="uni032C" unicode="&#x32c;" 
d="M-572 -279q-50 35 -21 76l25 36q30 41 78 6l211 -151h2l211 151q49 35 78 -6l25 -36q29 -41 -21 -76l-207 -145q-39 -27 -68 -27h-38q-29 0 -68 27z" />
    <glyph glyph-name="uni032D" unicode="&#x32d;" 
d="M-593 -391q-29 41 21 76l207 145q39 27 68 27h38q29 0 68 -27l207 -145q50 -35 21 -76l-25 -36q-30 -41 -78 -6l-211 151h-2l-211 -151q-49 -35 -78 6z" />
    <glyph glyph-name="uni032E" unicode="&#x32e;" 
d="M-616 -248q-20 43 10 60l64 36q36 20 56 -21q26 -53 75.5 -90t123.5 -37t123.5 37t75.5 90q20 41 56 21l64 -36q30 -17 10 -60q-50 -110 -129 -165t-200 -55t-200 55t-129 165z" />
    <glyph glyph-name="uni032F" unicode="&#x32f;" 
d="M1.91797 -510q19.9971 -43 -10.0039 -60l-64.002 -36q-36.002 -20 -55.999 21q-25.9971 53 -75.4941 90q-49.498 37 -123.498 37t-123.502 -37q-49.5029 -37 -75.5059 -90q-20.0029 -41 -56.001 -21l-63.998 36q-29.999 17 -9.99609 60q50.0059 110 129.01 165
q79.0029 55 200.003 55t199.997 -55q78.9961 -55 128.99 -165z" />
    <glyph glyph-name="uni0330" unicode="&#x330;" 
d="M-610 -491q-31 14 -15 61q22 63 77.5 107t135.5 44q68 0 144 -52t111 -52q31 0 52.5 13.5t36.5 43.5q21 43 54 28l42 -19q31 -14 15 -61q-22 -63 -77.5 -107t-135.5 -44q-68 0 -144 52t-111 52q-31 0 -52.5 -13.5t-36.5 -43.5q-21 -43 -54 -28z" />
    <glyph glyph-name="uni0331" unicode="&#x331;" 
d="M-576 -444q-60 0 -60 50v66q0 50 60 50h538q60 0 60 -50v-66q0 -50 -60 -50h-538z" />
    <glyph glyph-name="uni0332" unicode="&#x332;" 
d="M-1165 -425q-60 0 -60 50v100q0 50 60 50h1130q60 0 60 -50v-100q0 -50 -60 -50h-1130z" />
    <glyph glyph-name="uni0334" unicode="&#x334;" 
d="M-610 486q-31 14 -15 61q22 63 77.5 107t135.5 44q68 0 144 -52t111 -52q31 0 52.5 13.5t36.5 43.5q21 43 54 28l42 -19q31 -14 15 -61q-22 -63 -77.5 -107t-135.5 -44q-68 0 -144 52t-111 52q-31 0 -52.5 -13.5t-36.5 -43.5q-21 -43 -54 -28z" />
    <glyph glyph-name="uni0338" unicode="&#x338;" 
d="M-800 -378q-47 18 -25 74l664 1730q22 56 68 38l81 -31q47 -18 25 -74l-664 -1730q-22 -56 -68 -38z" />
    <glyph glyph-name="uni0394" unicode="&#x394;" horiz-adv-x="1432" 
d="M122 0q-70 0 -70 75v30q0 36 23 92l477 1156q33 81 94 81h140q61 -1 94 -81l477 -1156q23 -56 23 -92v-30q0 -75 -70 -75h-1188zM401 244q60 4 100 4h430q40 0 100 -4v6l-272 654q-19 46 -27.5 76.5t-13.5 80.5h-4q-5 -50 -13.5 -80.5t-27.5 -76.5l-272 -654v-6z" />
    <glyph glyph-name="Sigma" unicode="&#x3a3;" horiz-adv-x="1247" 
d="M145 0q-75 0 -75 65v82q0 69 51 139l295 407q48 66 0 131l-278 377q-35 47 -35 101v67q0 65 75 65h896q75 0 75 -65v-118q0 -65 -75 -65h-450q-60 0 -120 5v-7l269 -364q47 -64 1 -127l-323 -443v-7q60 5 120 5h533q75 0 75 -65v-118q0 -65 -75 -65h-959z" />
    <glyph glyph-name="uni03A9" unicode="&#x3a9;" horiz-adv-x="1624" 
d="M133 0q-75 0 -75 65v118q0 65 75 65h161q50 0 100 -4v6q-98 59 -188.5 224t-90.5 326q0 240 168.5 454t528.5 214t528.5 -214t168.5 -454q0 -161 -90.5 -326t-188.5 -224v-6q50 4 100 4h161q75 0 75 -65v-118q0 -65 -75 -65h-494q-75 0 -75 65v74q0 60 41 88
q92 62 163 186t71 344q0 215 -95.5 345t-289.5 130t-289.5 -130t-95.5 -345q0 -220 71 -344t163 -186q41 -28 41 -88v-74q0 -65 -75 -65h-494z" />
    <glyph glyph-name="pi" unicode="&#x3c0;" horiz-adv-x="1402" 
d="M26 945q-11 30 33 53q46 24 108 38t158 14h982q59 0 59 -50v-100q0 -50 -59 -50h-141v-575q0 -51 12.5 -75t46.5 -24q16 0 53 10q37 11 43 -20l25 -122q7 -34 -29 -43q-74 -21 -173 -21q-125 0 -191.5 74t-66.5 209v587h-325v-790q0 -60 -60 -60h-160q-60 0 -60 60v790
q-44 0 -82.5 -8.5t-70.5 -23.5q-47 -22 -60 12z" />
    <glyph glyph-name="uni0400" unicode="&#x400;" horiz-adv-x="1280" 
d="M877 1540h-103q-70 0 -111 38l-158 146q-66 61 24 61h176q78 0 109 -47l88 -134q42 -64 -25 -64zM230 0q-70 0 -70 75v1284q0 75 70 75h858q75 0 75 -65v-118q0 -65 -75 -65h-636v-318h583q75 0 75 -65v-118q0 -65 -75 -65h-583v-372h668q75 0 75 -65v-118q0 -65 -75 -65
h-890z" />
    <glyph glyph-name="afii10023" unicode="&#x401;" horiz-adv-x="1280" 
d="M345 1530q-70 0 -70 75v106q0 75 70 75h152q70 0 70 -75v-106q0 -75 -70 -75h-152zM853 1530q-70 0 -70 75v106q0 75 70 75h152q70 0 70 -75v-106q0 -75 -70 -75h-152zM230 0q-70 0 -70 75v1284q0 75 70 75h858q75 0 75 -65v-118q0 -65 -75 -65h-636v-318h583
q75 0 75 -65v-118q0 -65 -75 -65h-583v-372h668q75 0 75 -65v-118q0 -65 -75 -65h-890z" />
    <glyph glyph-name="afii10051" unicode="&#x402;" horiz-adv-x="1615" 
d="M109 1178q-75 0 -75 65v126q0 65 75 65h1028q75 0 75 -65v-126q0 -65 -75 -65h-398v-235q0 -60 -5 -120h7q72 37 162 62t175 25q209 0 323 -135t114 -341q0 -268 -100.5 -368t-332.5 -100q-87 0 -142 18q-62 20 -49 66l33 120q14 52 59 42t86 -10q77 0 105.5 48t28.5 172
q0 116 -53.5 184t-138.5 68q-65 0 -124.5 -13t-147.5 -54v-552q0 -55 -50 -55h-192q-50 0 -50 55v1123h-338z" />
    <glyph glyph-name="afii10052" unicode="&#x403;" horiz-adv-x="1118" 
d="M230 0q-70 0 -70 75v1284q0 75 70 75h779q75 0 75 -65v-118q0 -65 -75 -65h-557v-1111q0 -75 -70 -75h-152zM519 1540q-67 0 -25 64l88 134q31 47 109 47h176q90 0 24 -61l-158 -146q-41 -38 -111 -38h-103z" />
    <glyph glyph-name="afii10053" unicode="&#x404;" horiz-adv-x="1418" 
d="M1299 161q-71 -91 -190 -143t-343 -52q-325 0 -502.5 186.5t-177.5 564.5t175 564.5t505 186.5q180 0 292 -38t208 -139q54 -57 5 -101l-91 -83q-50 -46 -110 19q-36 39 -114 72.5t-180 33.5q-210 0 -281 -102.5t-89 -259.5h533q75 0 75 -65v-118q0 -65 -75 -65h-535
q13 -198 87.5 -309t284.5 -111q126 0 200.5 45t110.5 87q59 67 109 23l107 -96q44 -39 -4 -100z" />
    <glyph glyph-name="afii10054" unicode="&#x405;" horiz-adv-x="1308" 
d="M177 107q-62 47 -30 95l77 116q38 57 111 6q56 -39 146.5 -80.5t190.5 -41.5q70 0 135 16t99 62t34 109q0 45 -15 79t-49 56t-70 37q-63 26 -158.5 51.5t-188.5 61.5q-83 32 -152 88t-107 126t-38 187q0 139 90 238t207 127t236 28q118 0 243.5 -36t189.5 -90
q63 -53 31 -96l-81 -109q-41 -56 -110 -9q-44 30 -120.5 67t-159.5 37q-59 0 -108.5 -10t-87.5 -48t-38 -94q0 -54 28 -87.5t62 -50t69 -27.5q108 -35 193 -61.5t157 -58.5q100 -45 153 -90t87.5 -123t34.5 -186q0 -160 -102 -264.5t-226.5 -135t-242.5 -30.5
q-174 0 -283 33.5t-207 107.5z" />
    <glyph glyph-name="afii10055" unicode="&#x406;" horiz-adv-x="612" 
d="M230 0q-70 0 -70 75v1284q0 75 70 75h152q70 0 70 -75v-1284q0 -75 -70 -75h-152z" />
    <glyph glyph-name="afii10056" unicode="&#x407;" horiz-adv-x="612" 
d="M230 0q-70 0 -70 75v1284q0 75 70 75h152q70 0 70 -75v-1284q0 -75 -70 -75h-152zM16 1530q-70 0 -70 75v106q0 75 70 75h132q70 0 70 -75v-106q0 -75 -70 -75h-132zM464 1530q-70 0 -70 75v106q0 75 70 75h132q70 0 70 -75v-106q0 -75 -70 -75h-132z" />
    <glyph glyph-name="afii10057" unicode="&#x408;" horiz-adv-x="947" 
d="M90 19q-53 31 -40 75l42 137q18 59 94 12q65 -41 145 -41q110 0 143.5 76t33.5 253v828q0 75 70 75h152q70 0 70 -75v-808q0 -368 -123.5 -476.5t-342.5 -108.5q-153 0 -244 53z" />
    <glyph glyph-name="afii10058" unicode="&#x409;" horiz-adv-x="2232" 
d="M80 -10q-42 14 -30 68l26 114q12 53 63 38q28 -8 58 -8q153 0 211 218.5t58 669.5v269q0 75 70 75h740q70 0 70 -75v-489h155q370 0 514 -117.5t144 -317.5t-144 -317.5t-514 -117.5h-377q-70 0 -70 75v1111h-338v-152q0 -595 -117 -831.5t-379 -236.5q-66 0 -140 24z
M1346 244h126q210 0 292.5 35.5t82.5 155.5t-82.5 155.5t-292.5 35.5h-126v-382z" />
    <glyph glyph-name="afii10059" unicode="&#x40a;" horiz-adv-x="2180" 
d="M230 0q-70 0 -70 75v1284q0 75 70 75h152q70 0 70 -75v-489h538v489q0 75 70 75h152q70 0 70 -75v-489h155q370 0 514 -117.5t144 -317.5t-144 -317.5t-514 -117.5h-377q-70 0 -70 75v547h-538v-547q0 -75 -70 -75h-152zM1282 244h126q210 0 292.5 35.5t82.5 155.5
t-82.5 155.5t-292.5 35.5h-126v-382z" />
    <glyph glyph-name="afii10060" unicode="&#x40b;" horiz-adv-x="1614" 
d="M109 1178q-75 0 -75 65v126q0 65 75 65h1028q75 0 75 -65v-126q0 -65 -75 -65h-398v-235q0 -60 -5 -120h7q72 37 173 62t186 25q175 0 279 -122t104 -286v-427q0 -75 -70 -75h-152q-70 0 -70 75v379q0 123 -44 171.5t-119 48.5t-138 -13t-151 -54v-552q0 -55 -50 -55
h-192q-50 0 -50 55v1123h-338z" />
    <glyph glyph-name="afii10061" unicode="&#x40c;" horiz-adv-x="1348" 
d="M230 0q-70 0 -70 75v1284q0 75 70 75h152q70 0 70 -75v-504h30q67 0 138 56t124 139l210 325q38 59 90 59h177q97 0 38 -86l-269 -394q-50 -73 -98.5 -122t-121.5 -97v-1q76 -29 138 -82.5t136 -171.5l246 -394q54 -86 -38 -86h-187q-56 0 -90 59l-189 325
q-53 92 -134.5 159.5t-154.5 67.5h-45v-536q0 -75 -70 -75h-152zM586 1540q-67 0 -25 64l88 134q31 47 109 47h176q90 0 24 -61l-158 -146q-41 -38 -111 -38h-103z" />
    <glyph glyph-name="uni040D" unicode="&#x40d;" horiz-adv-x="1492" 
d="M945 1540h-103q-70 0 -111 38l-158 146q-66 61 24 61h176q78 0 109 -47l88 -134q42 -64 -25 -64zM230 0q-70 0 -70 75v1284q0 75 70 75h152q70 0 70 -75v-789q0 -60 -5 -120h7l490 914q38 70 130 70h188q70 0 70 -75v-1284q0 -75 -70 -75h-152q-70 0 -70 75v789
q0 60 5 120h-7l-490 -914q-38 -70 -130 -70h-188z" />
    <glyph glyph-name="afii10062" unicode="&#x40e;" horiz-adv-x="1382" 
d="M107 1348q-45 86 47 86h177q58 0 92 -69l298 -611q29 -59 44 -117t23 -113h4q9 58 21 115.5t32 114.5l221 611q25 69 92 69h172q82 0 47 -86l-417 -1017q-91 -222 -188 -293.5t-275 -71.5q-129 0 -207 34q-61 27 -46 78l37 129q13 45 74 20q62 -25 109 -25q58 0 102 16
t68 73l14 33zM306 1809q-5 68 63 68h108q60 0 64 -48l3 -33q3 -34 42 -66t128 -32t128 32t42 66l3 33q4 48 64 48h108q68 0 63 -68l-4 -53q-9 -120 -131.5 -168t-272.5 -48t-272.5 48t-131.5 168z" />
    <glyph glyph-name="afii10145" unicode="&#x40f;" horiz-adv-x="1430" 
d="M230 0q-70 0 -70 75v1284q0 75 70 75h152q70 0 70 -75v-1111h526v1111q0 75 70 75h152q70 0 70 -75v-1284q0 -75 -70 -75h-360v-300q0 -70 -60 -70h-130q-60 0 -60 70v300h-360z" />
    <glyph glyph-name="afii10017" unicode="&#x410;" horiz-adv-x="1394" 
d="M115 0q-72 0 -47 66l490 1287q31 81 94 81h140q63 0 94 -81l490 -1287q25 -66 -47 -66h-159q-66 0 -92 69l-102 269h-508l-102 -269q-26 -69 -92 -69h-159zM561 586h322l-123 318q-22 56 -26.5 81.5t-9.5 75.5h-4q-5 -50 -9.5 -75.5t-26.5 -81.5z" />
    <glyph glyph-name="afii10018" unicode="&#x411;" horiz-adv-x="1370" 
d="M230 0q-70 0 -70 75v1284q0 75 70 75h849q75 0 75 -65v-118q0 -65 -75 -65h-627v-310h165q370 0 514 -119t144 -319t-144 -319t-514 -119h-387zM452 244h136q210 0 292.5 37t82.5 157t-82.5 157t-292.5 37h-136v-388z" />
    <glyph glyph-name="afii10019" unicode="&#x412;" horiz-adv-x="1379" 
d="M240 0q-80 0 -80 75v1284q0 75 80 75h340q384 0 518.5 -94.5t134.5 -290.5q0 -137 -100.5 -212t-194.5 -87v-3q91 -6 214 -92t123 -243q0 -184 -150 -298t-495 -114h-390zM452 244h146q212 0 288.5 37t76.5 150q0 106 -88.5 146.5t-276.5 40.5h-146v-374zM452 854h131
q129 0 241.5 45t112.5 140q0 74 -62.5 112.5t-291.5 38.5h-131v-336z" />
    <glyph glyph-name="afii10020" unicode="&#x413;" horiz-adv-x="1118" 
d="M230 0q-70 0 -70 75v1284q0 75 70 75h779q75 0 75 -65v-118q0 -65 -75 -65h-557v-1111q0 -75 -70 -75h-152z" />
    <glyph glyph-name="afii10021" unicode="&#x414;" horiz-adv-x="1550" 
d="M120 -370q-60 0 -60 70v473q0 75 90 75h43q131 136 179 302t48 550v259q0 75 70 75h740q70 0 70 -75v-1111h100q90 0 90 -75v-473q0 -70 -60 -70h-130q-60 0 -60 70v300h-930v-300q0 -70 -60 -70h-130zM489 248h519v938h-338v-142q0 -356 -51 -548t-130 -248z" />
    <glyph glyph-name="afii10022" unicode="&#x415;" horiz-adv-x="1280" 
d="M230 0q-70 0 -70 75v1284q0 75 70 75h858q75 0 75 -65v-118q0 -65 -75 -65h-636v-318h583q75 0 75 -65v-118q0 -65 -75 -65h-583v-372h668q75 0 75 -65v-118q0 -65 -75 -65h-890z" />
    <glyph glyph-name="afii10024" unicode="&#x416;" horiz-adv-x="2040" 
d="M149 0q-91 0 -38 86l241 394q71 116 134.5 170.5t139.5 83.5v1q-57 30 -119 95.5t-101 123.5l-264 394q-58 86 38 86h177q53 0 90 -59l205 -325q52 -82 123.5 -138.5t128.5 -56.5h23v504q0 75 70 75h152q70 0 70 -75v-504h23q57 0 128.5 56.5t123.5 138.5l205 325
q37 59 90 59h177q96 0 38 -86l-264 -394q-39 -58 -101 -123.5t-119 -95.5v-1q76 -29 139.5 -83.5t134.5 -170.5l241 -394q53 -86 -38 -86h-187q-57 0 -90 59l-184 325q-52 92 -134 159.5t-145 67.5h-38v-536q0 -75 -70 -75h-152q-70 0 -70 75v536h-38q-63 0 -145 -67.5
t-134 -159.5l-184 -325q-33 -59 -90 -59h-187z" />
    <glyph glyph-name="afii10025" unicode="&#x417;" horiz-adv-x="1354" 
d="M165 150q-50 57 -9 99l96 99q42 44 110 -17q48 -43 123 -86t198 -43q117 0 206.5 43t89.5 169t-74.5 174t-197.5 48h-166q-75 0 -75 63v108q0 65 75 65h124q169 0 224 53t55 137q0 87 -62.5 128.5t-198.5 41.5q-105 0 -183.5 -32.5t-117.5 -68.5q-65 -59 -111 -9l-83 91
q-47 51 13 100q107 88 225.5 121.5t266.5 33.5q270 0 408.5 -104t138.5 -272q0 -144 -77.5 -220.5t-190.5 -104.5v-4q125 -13 222 -112t97 -254q0 -202 -161.5 -316.5t-451.5 -114.5q-206 0 -321.5 48.5t-191.5 135.5z" />
    <glyph glyph-name="afii10026" unicode="&#x418;" horiz-adv-x="1492" 
d="M230 0q-70 0 -70 75v1284q0 75 70 75h152q70 0 70 -75v-789q0 -60 -5 -120h7l490 914q38 70 130 70h188q70 0 70 -75v-1284q0 -75 -70 -75h-152q-70 0 -70 75v789q0 60 5 120h-7l-490 -914q-38 -70 -130 -70h-188z" />
    <glyph glyph-name="afii10027" unicode="&#x419;" horiz-adv-x="1492" 
d="M230 0q-70 0 -70 75v1284q0 75 70 75h152q70 0 70 -75v-789q0 -60 -5 -120h7l490 914q38 70 130 70h188q70 0 70 -75v-1284q0 -75 -70 -75h-152q-70 0 -70 75v789q0 60 5 120h-7l-490 -914q-38 -70 -130 -70h-188zM343 1809q-5 68 63 68h108q60 0 64 -48l3 -33
q3 -34 42 -66t128 -32t128 32t42 66l3 33q4 48 64 48h108q68 0 63 -68l-4 -53q-9 -120 -131.5 -168t-272.5 -48t-272.5 48t-131.5 168z" />
    <glyph glyph-name="afii10028" unicode="&#x41a;" horiz-adv-x="1348" 
d="M230 0q-70 0 -70 75v1284q0 75 70 75h152q70 0 70 -75v-504h30q67 0 138 56t124 139l210 325q38 59 90 59h177q97 0 38 -86l-269 -394q-50 -73 -98.5 -122t-121.5 -97v-1q76 -29 138 -82.5t136 -171.5l246 -394q54 -86 -38 -86h-187q-56 0 -90 59l-189 325
q-53 92 -134.5 159.5t-154.5 67.5h-45v-536q0 -75 -70 -75h-152z" />
    <glyph glyph-name="afii10029" unicode="&#x41b;" horiz-adv-x="1494" 
d="M80 -10q-42 14 -30 68l26 114q12 53 63 38q28 -8 58 -8q153 0 211 218.5t58 669.5v269q0 75 70 75h740q70 0 70 -75v-1284q0 -75 -70 -75h-152q-70 0 -70 75v1111h-338v-152q0 -595 -117 -831.5t-379 -236.5q-66 0 -140 24z" />
    <glyph glyph-name="afii10030" unicode="&#x41c;" horiz-adv-x="1828" 
d="M230 0q-70 0 -70 75v1284q0 75 70 75h290q58 0 83 -80l271 -877q18 -57 25 -93.5t12 -86.5h6q5 50 12 86.5t25 93.5l271 877q25 80 83 80h290q70 0 70 -75v-1284q0 -75 -70 -75h-152q-70 0 -70 75v826q0 60 5 120h-7l-289 -940q-25 -81 -86 -81h-170q-61 0 -86 81
l-289 940h-7q5 -60 5 -120v-826q0 -75 -70 -75h-152z" />
    <glyph glyph-name="afii10031" unicode="&#x41d;" horiz-adv-x="1442" 
d="M230 0q-70 0 -70 75v1284q0 75 70 75h152q70 0 70 -75v-489h538v489q0 75 70 75h152q70 0 70 -75v-1284q0 -75 -70 -75h-152q-70 0 -70 75v547h-538v-547q0 -75 -70 -75h-152z" />
    <glyph glyph-name="afii10032" unicode="&#x41e;" horiz-adv-x="1544" 
d="M86 717q0 345 178 548t508 203t508 -203t178 -548t-178 -548t-508 -203t-508 203t-178 548zM398 717q0 -250 89.5 -382.5t284.5 -132.5t284.5 132.5t89.5 382.5t-89.5 382.5t-284.5 132.5t-284.5 -132.5t-89.5 -382.5z" />
    <glyph glyph-name="afii10033" unicode="&#x41f;" horiz-adv-x="1436" 
d="M230 0q-70 0 -70 75v1284q0 75 70 75h976q70 0 70 -75v-1284q0 -75 -70 -75h-152q-70 0 -70 75v1111h-532v-1111q0 -75 -70 -75h-152z" />
    <glyph glyph-name="afii10034" unicode="&#x420;" horiz-adv-x="1328" 
d="M230 0q-70 0 -70 75v1284q0 75 70 75h374q360 0 499.5 -117t139.5 -332t-139.5 -332t-499.5 -117h-152v-461q0 -75 -70 -75h-152zM452 780h151q200 0 272 47.5t72 157.5t-72 157.5t-272 47.5h-151v-410z" />
    <glyph glyph-name="afii10035" unicode="&#x421;" horiz-adv-x="1418" 
d="M86 717q0 345 175 548t505 203q190 0 322 -59t186 -171q36 -74 -12 -100l-120 -64q-63 -34 -104 38q-26 46 -96.5 83t-165.5 37q-210 0 -294 -132.5t-84 -382.5t84 -382.5t294 -132.5q113 0 190.5 51t107.5 97q49 75 104 38l120 -80q49 -33 10 -100q-58 -100 -199 -171
t-343 -71q-325 0 -502.5 203t-177.5 548z" />
    <glyph glyph-name="afii10036" unicode="&#x422;" horiz-adv-x="1246" 
d="M109 1178q-75 0 -75 65v126q0 65 75 65h1028q75 0 75 -65v-126q0 -65 -75 -65h-368v-1123q0 -55 -50 -55h-192q-50 0 -50 55v1123h-368z" />
    <glyph glyph-name="afii10037" unicode="&#x423;" horiz-adv-x="1382" 
d="M107 1348q-45 86 47 86h177q58 0 92 -69l298 -611q29 -59 44 -117t23 -113h4q9 58 21 115.5t32 114.5l221 611q25 69 92 69h172q82 0 47 -86l-417 -1017q-91 -222 -188 -293.5t-275 -71.5q-129 0 -207 34q-61 27 -46 78l37 129q13 45 74 20q62 -25 109 -25q58 0 102 16
t68 73l14 33z" />
    <glyph glyph-name="afii10038" unicode="&#x424;" horiz-adv-x="1858" 
d="M86 730q0 270 172 420t482 150h43v67q0 75 70 75h152q70 0 70 -75v-67h43q310 0 482 -150t172 -420t-172 -420t-482 -150h-43v-100q0 -75 -70 -75h-152q-70 0 -70 75v100h-43q-310 0 -482 150t-172 420zM388 730q0 -155 80 -247.5t285 -92.5h30v680h-30
q-205 0 -285 -92.5t-80 -247.5zM1075 390h30q205 0 285 92.5t80 247.5t-80 247.5t-285 92.5h-30v-680z" />
    <glyph glyph-name="afii10039" unicode="&#x425;" horiz-adv-x="1418" 
d="M166 0q-96 0 -38 86l443 654l-407 608q-58 86 38 86h202q53 0 90 -59l273 -432l273 432q37 59 90 59h202q96 0 38 -86l-408 -608l444 -654q58 -86 -38 -86h-205q-52 0 -90 59l-306 478l-306 -478q-38 -59 -90 -59h-205z" />
    <glyph glyph-name="afii10040" unicode="&#x426;" horiz-adv-x="1522" 
d="M230 0q-70 0 -70 75v1284q0 75 70 75h152q70 0 70 -75v-1111h526v1111q0 75 70 75h152q70 0 70 -75v-1111h122q70 0 70 -75v-473q0 -70 -60 -70h-130q-60 0 -60 70v300h-982z" />
    <glyph glyph-name="afii10041" unicode="&#x427;" horiz-adv-x="1308" 
d="M112 932v427q0 75 70 75h152q70 0 70 -75v-379q0 -122 44 -171t121 -49q72 0 135.5 13t151.5 54v532q0 75 70 75h152q70 0 70 -75v-1284q0 -75 -70 -75h-152q-70 0 -70 75v416q0 60 5 120h-7q-72 -37 -173 -62t-186 -25q-175 0 -279 122t-104 286z" />
    <glyph glyph-name="afii10042" unicode="&#x428;" horiz-adv-x="2140" 
d="M230 0q-70 0 -70 75v1284q0 75 70 75h152q70 0 70 -75v-1111h472v1111q0 75 70 75h152q70 0 70 -75v-1111h472v1111q0 75 70 75h152q70 0 70 -75v-1284q0 -75 -70 -75h-1680z" />
    <glyph glyph-name="afii10043" unicode="&#x429;" horiz-adv-x="2232" 
d="M230 0q-70 0 -70 75v1284q0 75 70 75h152q70 0 70 -75v-1111h472v1111q0 75 70 75h152q70 0 70 -75v-1111h472v1111q0 75 70 75h152q70 0 70 -75v-1111h122q70 0 70 -75v-473q0 -70 -60 -70h-130q-60 0 -60 70v300h-1692z" />
    <glyph glyph-name="afii10044" unicode="&#x42a;" horiz-adv-x="1746" 
d="M109 1186q-75 0 -75 65v118q0 65 75 65h669q70 0 70 -75v-489h155q370 0 514 -117.5t144 -317.5t-144 -317.5t-514 -117.5h-377q-70 0 -70 75v1111h-447zM848 244h126q210 0 292.5 35.5t82.5 155.5t-82.5 155.5t-292.5 35.5h-126v-382z" />
    <glyph glyph-name="afii10045" unicode="&#x42b;" horiz-adv-x="1870" 
d="M1488 0q-70 0 -70 75v1284q0 75 70 75h152q70 0 70 -75v-1284q0 -75 -70 -75h-152zM230 0q-70 0 -70 75v1284q0 75 70 75h152q70 0 70 -75v-489h155q370 0 514 -117.5t144 -317.5t-144 -317.5t-514 -117.5h-377zM452 244h126q210 0 292.5 35.5t82.5 155.5t-82.5 155.5
t-292.5 35.5h-126v-382z" />
    <glyph glyph-name="afii10046" unicode="&#x42c;" horiz-adv-x="1350" 
d="M230 0q-70 0 -70 75v1284q0 75 70 75h152q70 0 70 -75v-489h155q370 0 514 -117.5t144 -317.5t-144 -317.5t-514 -117.5h-377zM452 244h126q210 0 292.5 35.5t82.5 155.5t-82.5 155.5t-292.5 35.5h-126v-382z" />
    <glyph glyph-name="afii10047" unicode="&#x42d;" horiz-adv-x="1418" 
d="M163 161q-48 61 -4 100l107 96q50 44 109 -23q36 -42 110.5 -87t200.5 -45q210 0 284.5 111t87.5 309h-535q-75 0 -75 65v118q0 65 75 65h533q-18 157 -89 259.5t-281 102.5q-102 0 -180 -33.5t-114 -72.5q-60 -65 -110 -19l-91 83q-49 44 5 101q96 101 208 139t292 38
q330 0 505 -186.5t175 -564.5t-177.5 -564.5t-502.5 -186.5q-224 0 -343 52t-190 143z" />
    <glyph glyph-name="afii10048" unicode="&#x42e;" horiz-adv-x="2096" 
d="M230 0q-70 0 -70 75v1284q0 75 70 75h152q70 0 70 -75v-489h196q8 210 177 404t499 194t508 -203t178 -548t-178 -548t-508 -203t-499.5 194.5t-182.5 461.5h-190v-547q0 -75 -70 -75h-152zM950 717q0 -250 89.5 -382.5t284.5 -132.5t284.5 132.5t89.5 382.5t-89.5 382.5
t-284.5 132.5t-284.5 -132.5t-89.5 -382.5z" />
    <glyph glyph-name="afii10049" unicode="&#x42f;" horiz-adv-x="1426" 
d="M209 0q-96 0 -38 86l214 320q29 43 95.5 117.5t130.5 112.5v2q-201 10 -310.5 119.5t-109.5 253.5q0 207 138 315t461 108h464q70 0 70 -75v-1284q0 -75 -70 -75h-152q-70 0 -70 75v498h-61q-97 0 -156 -50t-118 -141l-209 -323q-38 -59 -90 -59h-189zM487 1013
q0 -131 107 -163.5t248 -32.5h190v373h-228q-151 0 -234 -40t-83 -137z" />
    <glyph glyph-name="afii10065" unicode="&#x430;" horiz-adv-x="1123" 
d="M80 280q0 200 191 290t436 96v40q0 92 -46 130t-128 38q-58 0 -102.5 -16.5t-77 -38t-58.5 -43.5q-46 -40 -76 -4l-83 102q-31 38 15 78q35 31 81.5 54t123.5 43.5t200 20.5q208 0 319.5 -96t111.5 -283v-631q0 -60 -60 -60h-164q-54 0 -54 60v30h-2
q-59 -57 -141.5 -83.5t-151.5 -26.5q-164 0 -249 80.5t-85 219.5zM376 286q0 -35 14 -60.5t44 -37.5t67 -12q51 0 99 14t107 66v217q-168 -19 -225 -49t-81.5 -62t-24.5 -76z" />
    <glyph glyph-name="afii10066" unicode="&#x431;" horiz-adv-x="1210" 
d="M84 598q0 114 21.5 271t59 256t94.5 158t137 98.5t148 48.5q100 14 181.5 16.5t117.5 10.5q39 9 55 33t62 24h70q39 0 39 -45q0 -75 -49.5 -132.5t-137.5 -72.5q-41 -7 -111.5 -11.5t-155.5 -13.5t-173 -53q-181 -91 -189 -341l8 -4q20 74 118 151.5t254 77.5
q231 0 364 -145t133 -400t-131.5 -400t-391.5 -145q-273 0 -398 163t-125 455zM380 525q0 -190 58.5 -269.5t168.5 -79.5t168.5 79.5t58.5 269.5t-58.5 269.5t-168.5 79.5t-168.5 -79.5t-58.5 -269.5z" />
    <glyph glyph-name="afii10067" unicode="&#x432;" horiz-adv-x="1106" 
d="M196 0q-60 0 -60 60v930q0 60 60 60h359q213 0 318.5 -75t105.5 -178q0 -110 -56.5 -165.5t-123.5 -78.5v-3q118 -40 165.5 -101.5t47.5 -152.5q0 -131 -80.5 -213.5t-308.5 -82.5h-427zM416 196h89q120 0 165.5 29.5t45.5 86.5q0 63 -45.5 99t-165.5 36h-89v-251z
M416 637h94q87 0 138 34t51 90q0 64 -63 78.5t-121 14.5h-99v-217z" />
    <glyph glyph-name="afii10068" unicode="&#x433;" horiz-adv-x="916" 
d="M196 0q-60 0 -60 60v930q0 60 60 60h630q60 0 60 -50v-100q0 -50 -60 -50h-410v-790q0 -60 -60 -60h-160z" />
    <glyph glyph-name="afii10069" unicode="&#x434;" horiz-adv-x="1222" 
d="M97 -310q-55 0 -55 60v390q0 60 60 60h31q96 58 135.5 205t39.5 369v216q0 60 60 60h596q60 0 60 -60v-790h86q60 0 60 -60v-390q0 -60 -55 -60h-120q-55 0 -55 60v250h-668v-250q0 -60 -55 -60h-120zM419 200h325v650h-206v-127q0 -231 -34.5 -360t-84.5 -163z" />
    <glyph glyph-name="afii10070" unicode="&#x435;" horiz-adv-x="1174" 
d="M80 525q0 253 126.5 399t357.5 146q268 0 398 -138t130 -444q0 -60 -56 -60h-660q16 -166 82 -209t153 -43q83 0 127 22t74 60q34 44 84 14l100 -61q59 -36 17 -86q-61 -73 -143 -109t-259 -36q-287 0 -409 146t-122 399zM377 628h435q0 108 -54 176.5t-172 68.5
q-94 0 -149 -65.5t-60 -179.5z" />
    <glyph glyph-name="afii10072" unicode="&#x436;" horiz-adv-x="1574" 
d="M134 0q-73 0 -31 74l169 298q51 90 89 127t112 53v2q-64 16 -107 58t-81 104l-160 260q-46 74 31 74h160q54 0 78 -41l134 -233q27 -47 60 -87.5t85 -40.5h16v342q0 60 60 60h160q60 0 60 -60v-342h16q52 0 85 40.5t60 87.5l134 233q24 41 78 41h160q77 0 31 -74
l-160 -260q-38 -62 -81 -104t-107 -58v-2q74 -16 112 -53t89 -127l169 -298q42 -74 -31 -74h-167q-55 0 -82 52l-151 286q-18 34 -49.5 72t-88.5 38h-17v-388q0 -60 -60 -60h-160q-60 0 -60 60v388h-17q-57 0 -88.5 -38t-49.5 -72l-151 -286q-27 -52 -82 -52h-167z" />
    <glyph glyph-name="afii10073" unicode="&#x437;" horiz-adv-x="1049" 
d="M118 89q-44 34 -7 82l70 91q31 41 95 3q43 -26 103 -57.5t134 -31.5q108 0 145.5 48t37.5 100q0 48 -22.5 86t-138.5 38h-145q-60 0 -60 50v100q0 50 60 50h132q72 0 114.5 31.5t42.5 91.5q0 57 -55 80t-129 23q-73 0 -121 -19t-97 -55q-46 -34 -77 3l-77 94q-35 42 7 75
q70 55 146.5 76.5t218.5 21.5q197 0 330.5 -76t133.5 -187q0 -108 -56.5 -166.5t-123.5 -81.5v-3q118 -40 165.5 -103t47.5 -145q0 -155 -125.5 -241.5t-353.5 -86.5q-186 0 -265.5 35.5t-129.5 73.5z" />
    <glyph glyph-name="afii10074" unicode="&#x438;" horiz-adv-x="1212" 
d="M187 0q-51 0 -51 60v930q0 60 60 60h160q60 0 60 -60v-503q0 -40 -4 -80h4l294 578q33 65 105 65h201q60 0 60 -60v-930q0 -60 -60 -60h-160q-60 0 -60 60v503q0 41 4 80h-4l-294 -578q-33 -65 -105 -65h-210z" />
    <glyph glyph-name="afii10075" unicode="&#x439;" horiz-adv-x="1212" 
d="M187 0q-51 0 -51 60v930q0 60 60 60h160q60 0 60 -60v-503q0 -40 -4 -80h4l294 578q33 65 105 65h201q60 0 60 -60v-930q0 -60 -60 -60h-160q-60 0 -60 60v503q0 41 4 80h-4l-294 -578q-33 -65 -105 -65h-210zM229 1412q-6 59 60 59h107q48 0 59 -54l5 -25q13 -66 55 -84
t97 -18t97 18t55 84l5 25q11 54 59 54h107q66 0 60 -59l-6 -58q-12 -116 -135 -170t-242 -54t-242 54t-135 170z" />
    <glyph glyph-name="afii10076" unicode="&#x43a;" horiz-adv-x="1085" 
d="M196 0q-60 0 -60 60v930q0 60 60 60h160q60 0 60 -60v-342h23q49 0 86 40t65 88l138 233q24 41 78 41h164q78 0 31 -74l-164 -260q-37 -59 -88.5 -104.5t-101.5 -57.5v-2q74 -16 112 -51.5t92 -128.5l173 -298q43 -74 -31 -74h-171q-54 0 -82 52l-155 286
q-19 35 -59 72.5t-86 37.5h-24v-388q0 -60 -60 -60h-160z" />
    <glyph glyph-name="afii10077" unicode="&#x43b;" horiz-adv-x="1194" 
d="M69 -8q-31 13 -25 41l25 125q6 32 33 25q28 -7 50 -7q97 0 146.5 99.5t49.5 498.5v216q0 60 60 60h596q60 0 60 -60v-930q0 -60 -60 -60h-160q-60 0 -60 60v790h-206v-127q0 -402 -82 -572.5t-322 -170.5q-76 0 -105 12z" />
    <glyph glyph-name="afii10078" unicode="&#x43c;" horiz-adv-x="1500" 
d="M196 0q-60 0 -60 60v930q0 60 60 60h269q66 0 85 -65l169 -591q10 -35 19.5 -82.5t9.5 -76.5h4q0 29 9.5 76.5t19.5 82.5l169 591q19 65 85 65h269q60 0 60 -60v-930q0 -60 -60 -60h-160q-60 0 -60 60v505q0 41 4 80h-4l-173 -584q-18 -61 -54 -61h-214q-36 0 -54 61
l-173 584h-4q4 -39 4 -80v-505q0 -60 -60 -60h-160z" />
    <glyph glyph-name="afii10079" unicode="&#x43d;" horiz-adv-x="1192" 
d="M196 0q-60 0 -60 60v930q0 60 60 60h160q60 0 60 -60v-342h360v342q0 60 60 60h160q60 0 60 -60v-930q0 -60 -60 -60h-160q-60 0 -60 60v388h-360v-388q0 -60 -60 -60h-160z" />
    <glyph glyph-name="afii10080" unicode="&#x43e;" horiz-adv-x="1206" 
d="M80 525q0 255 131.5 400t391.5 145t391.5 -145t131.5 -400t-131.5 -400t-391.5 -145t-391.5 145t-131.5 400zM376 525q0 -190 58.5 -269.5t168.5 -79.5t168.5 79.5t58.5 269.5t-58.5 269.5t-168.5 79.5t-168.5 -79.5t-58.5 -269.5z" />
    <glyph glyph-name="afii10081" unicode="&#x43f;" horiz-adv-x="1184" 
d="M196 0q-60 0 -60 60v930q0 60 60 60h792q60 0 60 -60v-930q0 -60 -60 -60h-160q-60 0 -60 60v790h-352v-790q0 -60 -60 -60h-160z" />
    <glyph glyph-name="afii10082" unicode="&#x440;" horiz-adv-x="1192" 
d="M196 -400q-60 0 -60 60v1330q0 60 60 60h158q50 0 54 -60l4 -58h4q52 86 116 112t154 26q235 0 330.5 -162.5t95.5 -382.5t-95.5 -382.5t-330.5 -162.5q-90 0 -154 26t-116 112h-4q4 -40 4 -80v-378q0 -60 -60 -60h-160zM416 480q0 -135 53.5 -219.5t128.5 -84.5
q135 0 176.5 94.5t41.5 254.5t-41.5 254.5t-176.5 94.5q-75 0 -128.5 -84.5t-53.5 -219.5v-90z" />
    <glyph glyph-name="afii10083" unicode="&#x441;" horiz-adv-x="1086" 
d="M80 525q0 255 128 400t393 145q155 0 241 -41t138 -120q31 -47 -10 -74l-106 -70q-45 -30 -79 23q-17 26 -65 56t-119 30q-113 0 -169 -79.5t-56 -269.5t56 -269.5t169 -79.5q81 0 131 34t94 88q38 46 80 13l93 -73q42 -33 5 -88q-39 -58 -132.5 -114t-270.5 -56
q-265 0 -393 145t-128 400z" />
    <glyph glyph-name="afii10084" unicode="&#x442;" horiz-adv-x="1016" 
d="M90 850q-60 0 -60 50v100q0 50 60 50h836q60 0 60 -50v-100q0 -50 -60 -50h-278v-790q0 -60 -60 -60h-160q-60 0 -60 60v790h-278z" />
    <glyph glyph-name="afii10085" unicode="&#x443;" horiz-adv-x="990" 
d="M71 972q-27 78 33 78h179q46 0 60 -51l151 -559q11 -39 19.5 -100.5t8.5 -78.5h6q12 53 17.5 84.5t30.5 122.5l143 531q14 51 60 51h179q59 0 33 -78l-337 -1014q-59 -178 -145 -278t-239 -100q-84 0 -150 14q-38 8 -29 52l22 110q9 43 51 30q31 -10 58 -10
q81 0 123.5 77t56.5 132l3 15z" />
    <glyph glyph-name="afii10086" unicode="&#x444;" horiz-adv-x="1738" 
d="M80 525q0 235 108 390t308 155q73 0 127 -23.5t106 -109.5h4q-4 40 -4 80v399q0 60 60 60h160q60 0 60 -60v-399q0 -40 -4 -80h4q52 86 106 109.5t127 23.5q200 0 308 -155t108 -390t-108 -390t-308 -155q-73 0 -127 23.5t-106 109.5h-4q4 -40 4 -80v-373q0 -60 -60 -60
h-160q-60 0 -60 60v373q0 40 4 80h-4q-52 -86 -106 -109.5t-127 -23.5q-200 0 -308 155t-108 390zM376 525q0 -155 39.5 -252t139.5 -97q77 0 125.5 90.5t48.5 208.5v100q0 118 -48.5 208.5t-125.5 90.5q-100 0 -139.5 -97t-39.5 -252zM1009 475q0 -118 48.5 -208.5
t125.5 -90.5q100 0 139.5 97t39.5 252t-39.5 252t-139.5 97q-77 0 -125.5 -90.5t-48.5 -208.5v-100z" />
    <glyph glyph-name="afii10087" unicode="&#x445;" horiz-adv-x="1086" 
d="M142 0q-86 0 -36 73l331 480l-292 424q-50 73 36 73h189q45 0 68 -40l155 -270l155 270q23 40 68 40h189q87 0 36 -73l-294 -424l333 -480q51 -73 -36 -73h-189q-44 0 -68 40l-194 326l-194 -326q-24 -40 -68 -40h-189z" />
    <glyph glyph-name="afii10088" unicode="&#x446;" horiz-adv-x="1240" 
d="M196 0q-60 0 -60 60v930q0 60 60 60h160q60 0 60 -60v-790h346v790q0 60 60 60h160q60 0 60 -60v-790h86q60 0 60 -60v-390q0 -60 -55 -60h-120q-55 0 -55 60v250h-762z" />
    <glyph glyph-name="afii10089" unicode="&#x447;" horiz-adv-x="1130" 
d="M100 736v254q0 60 60 60h160q60 0 60 -60v-266q0 -96 42 -122t122 -26q42 0 87 9t83 61v344q0 60 60 60h160q60 0 60 -60v-930q0 -60 -60 -60h-160q-60 0 -60 60v296q0 40 4 80h-6q-60 -30 -144 -43t-136 -13q-182 0 -257 99t-75 257z" />
    <glyph glyph-name="afii10090" unicode="&#x448;" horiz-adv-x="1774" 
d="M196 0q-60 0 -60 60v930q0 60 60 60h160q60 0 60 -60v-790h334v790q0 60 60 60h160q60 0 60 -60v-790h328v790q0 60 60 60h160q60 0 60 -60v-930q0 -60 -60 -60h-1382z" />
    <glyph glyph-name="afii10091" unicode="&#x449;" horiz-adv-x="1836" 
d="M196 0q-60 0 -60 60v930q0 60 60 60h160q60 0 60 -60v-790h334v790q0 60 60 60h160q60 0 60 -60v-790h328v790q0 60 60 60h160q60 0 60 -60v-790h86q60 0 60 -60v-390q0 -60 -55 -60h-120q-55 0 -55 60v250h-1358z" />
    <glyph glyph-name="afii10092" unicode="&#x44a;" horiz-adv-x="1310" 
d="M107 850q-60 0 -60 50v100q0 50 60 50h497q60 0 60 -60v-342h187q240 0 314.5 -97t74.5 -227t-74.5 -227t-314.5 -97h-407q-60 0 -60 60v790h-277zM664 196h69q120 0 165.5 29t45.5 99t-45.5 99t-165.5 29h-69v-256z" />
    <glyph glyph-name="afii10093" unicode="&#x44b;" horiz-adv-x="1552" 
d="M196 0q-60 0 -60 60v930q0 60 60 60h160q60 0 60 -60v-342h187q240 0 314.5 -97t74.5 -227t-74.5 -227t-314.5 -97h-407zM416 196h69q120 0 165.5 29t45.5 99t-45.5 99t-165.5 29h-69v-256zM1196 0q-60 0 -60 60v930q0 60 60 60h160q60 0 60 -60v-930q0 -60 -60 -60h-160
z" />
    <glyph glyph-name="afii10094" unicode="&#x44c;" horiz-adv-x="1062" 
d="M196 0q-60 0 -60 60v930q0 60 60 60h160q60 0 60 -60v-342h187q240 0 314.5 -97t74.5 -227t-74.5 -227t-314.5 -97h-407zM416 196h69q120 0 165.5 29t45.5 99t-45.5 99t-165.5 29h-69v-256z" />
    <glyph glyph-name="afii10095" unicode="&#x44d;" horiz-adv-x="1070" 
d="M112 111q-38 37 5 81l81 82q39 39 80 -2q36 -36 83 -66t146 -30q113 0 163.5 62t60.5 210h-352q-60 0 -60 50v100q0 50 60 50h348q-10 110 -60.5 168t-159.5 58q-47 0 -104 -15.5t-106 -58.5q-44 -39 -77 -8l-84 78q-40 37 -2 75q65 66 157.5 95.5t215.5 29.5
q265 0 393 -145t128 -400t-128 -400t-393 -145q-185 0 -264 40t-131 91z" />
    <glyph glyph-name="afii10096" unicode="&#x44e;" horiz-adv-x="1698" 
d="M196 0q-60 0 -60 60v930q0 60 60 60h160q60 0 60 -60v-342h163q15 154 135.5 288t380.5 134t391.5 -145t131.5 -400t-131.5 -400t-391.5 -145t-382 133t-137 335h-160v-388q0 -60 -60 -60h-160zM868 525q0 -190 58.5 -269.5t168.5 -79.5t168.5 79.5t58.5 269.5
t-58.5 269.5t-168.5 79.5t-168.5 -79.5t-58.5 -269.5z" />
    </font>
</defs>
</svg>
