<?xml version="1.0" standalone="no"?>
<!DOCTYPE svg PUBLIC "-//W3C//DTD SVG 1.1//EN" "http://www.w3.org/Graphics/SVG/1.1/DTD/svg11.dtd" >
<svg xmlns="http://www.w3.org/2000/svg" xmlns:xlink="http://www.w3.org/1999/xlink" version="1.1">
<metadata>
Created by FontForge 20201107 at Tue Jun 10 09:23:10 2014
 By 
Copyright (c) 2008-2014, Andrey V. Panov (panov@canopus.iacp.dvo.ru), with Reserved Font Name Istok
</metadata>
<defs>
<font id="IstokWeb-Regular" horiz-adv-x="0" >
  <font-face 
    font-family="Istok Web"
    font-weight="400"
    font-stretch="normal"
    units-per-em="2048"
    panose-1="2 15 6 3 3 4 3 2 2 4"
    ascent="1638"
    descent="-410"
    x-height="1050"
    cap-height="1434"
    bbox="-1124 -887 3310 2052"
    underline-thickness="102"
    underline-position="-306"
    unicode-range="U+0020-FB02"
  />
<missing-glyph horiz-adv-x="1240" 
d="M195 0q-45 0 -45 45v1344q0 45 37 45h858q45 0 45 -45v-1344q0 -45 -45 -45h-850zM270 120h700v1194h-700v-1194z" />
    <glyph glyph-name="igrave" unicode="i&#x300;" horiz-adv-x="460" 
d="M70 1383q-45 52 14 52h111q55 0 81 -37l139 -195q38 -53 -12 -53h-74q-56 0 -81 29zM187 0q-45 0 -45 45v960q0 45 45 45h86q45 0 45 -45v-960q0 -45 -45 -45h-86z" />
    <glyph glyph-name="iacute" unicode="&#x456;&#x301;" horiz-adv-x="460" 
d="M140 1150q-50 0 -12 53l139 195q26 37 81 37h111q59 0 14 -52l-178 -204q-25 -29 -81 -29h-74zM187 0q-45 0 -45 45v960q0 45 45 45h86q45 0 45 -45v-960q0 -45 -45 -45h-86z" />
    <glyph glyph-name="icircumflex" unicode="i&#x302;" horiz-adv-x="460" 
d="M-46 1182q-23 26 12 55l206 171q31 26 56 26h50q25 0 56 -26l206 -171q35 -29 12 -55l-27 -31q-23 -26 -57 2l-214 179h-2l-214 -179q-34 -28 -57 -2zM187 0q-45 0 -45 45v960q0 45 45 45h86q45 0 45 -45v-960q0 -45 -45 -45h-86z" />
    <glyph glyph-name="idieresis" unicode="i&#x308;" horiz-adv-x="460" 
d="M187 0q-45 0 -45 45v960q0 45 45 45h86q45 0 45 -45v-960q0 -45 -45 -45h-86zM20 1240q-45 0 -45 45v86q0 45 45 45h86q45 0 45 -45v-86q0 -45 -45 -45h-86zM354 1240q-45 0 -45 45v86q0 45 45 45h86q45 0 45 -45v-86q0 -45 -45 -45h-86z" />
    <glyph glyph-name="Aogonek" unicode="A&#x328;" horiz-adv-x="1360" 
d="M98 0q-52 0 -27 66l498 1307q23 61 66 61h140q43 0 66 -61l498 -1307q19 -51 -9 -66q-58 -32 -125 -92t-67 -119q0 -38 20 -57t61 -19q50 0 80 7q21 5 25 -19l13 -79q4 -24 -18 -28q-65 -11 -123 -11q-116 0 -167 50.5t-51 111.5q0 62 22.5 103t52 68t83.5 68q21 16 2 65
l-125 331h-616l-125 -331q-19 -49 -72 -49h-102zM460 544h490l-153 400q-21 56 -41.5 124t-48.5 193h-4q-28 -125 -48.5 -193t-41.5 -124z" />
    <glyph glyph-name="imacron" unicode="i&#x304;" horiz-adv-x="460" 
d="M-34 1240q-45 0 -45 35v40q0 35 45 35h528q45 0 45 -35v-40q0 -35 -45 -35h-528zM187 0q-45 0 -45 45v960q0 45 45 45h86q45 0 45 -45v-960q0 -45 -45 -45h-86z" />
    <glyph glyph-name="ibreve" unicode="i&#x306;" horiz-adv-x="460" 
d="M-62 1362q-19 41 13 55l47 22q29 14 45 -18q33 -65 76 -105t130 -40t130 40t76 105q16 32 45 18l47 -22q32 -14 13 -55q-53 -116 -130.5 -166t-180.5 -50t-180.5 50t-130.5 166zM187 0q-45 0 -45 45v960q0 45 45 45h86q45 0 45 -45v-960q0 -45 -45 -45h-86z" />
    <glyph glyph-name="jcircumflex" unicode="j&#x302;" horiz-adv-x="466" 
d="M-40 1182q-23 26 12 55l206 171q31 26 56 26h50q25 0 56 -26l206 -171q35 -29 12 -55l-27 -31q-23 -26 -57 2l-214 179h-2l-214 -179q-34 -28 -57 -2zM-80 -397q-22 10 -18 32l17 81q5 24 25 15q39 -18 96 -18q59 0 85.5 58t26.5 235v999q0 45 45 45h86q45 0 45 -45
v-1098q0 -194 -73.5 -259t-182.5 -65q-106 0 -152 20z" />
    <glyph glyph-name="uni01D0" unicode="i&#x30c;" horiz-adv-x="460" 
d="M-34 1335q-35 29 -12 55l27 31q23 26 57 -2l214 -179h2l214 179q34 28 57 2l27 -31q23 -26 -12 -55l-206 -171q-31 -26 -56 -26h-50q-25 0 -56 26zM187 0q-45 0 -45 45v960q0 45 45 45h86q45 0 45 -45v-960q0 -45 -45 -45h-86z" />
    <glyph glyph-name="uni01F0" unicode="j&#x30c;" horiz-adv-x="466" 
d="M-28 1335q-35 29 -12 55l27 31q23 26 57 -2l214 -179h2l214 179q34 28 57 2l27 -31q23 -26 -12 -55l-206 -171q-31 -26 -56 -26h-50q-25 0 -56 26zM-80 -397q-22 10 -18 32l17 81q5 24 25 15q39 -18 96 -18q59 0 85.5 58t26.5 235v999q0 45 45 45h86q45 0 45 -45v-1098
q0 -194 -73.5 -259t-182.5 -65q-106 0 -152 20z" />
    <glyph glyph-name="fi" unicode="fi" horiz-adv-x="1112" 
d="M90 918q-45 0 -45 35v62q0 35 45 35h107v119q0 190 123.5 257t286.5 67q105 0 173.5 -22t119.5 -57q20 -14 4 -35l-52 -71q-11 -15 -35 1q-31 20 -80 37t-120 17q-97 0 -170.5 -33.5t-73.5 -189.5v-90h552q45 0 45 -45v-960q0 -45 -45 -45h-86q-45 0 -45 45v873h-421
v-873q0 -45 -45 -45h-86q-45 0 -45 45v873h-107z" />
    <glyph glyph-name="fl" unicode="fl" horiz-adv-x="1112" 
d="M90 918q-45 0 -45 35v62q0 35 45 35h107v119q0 179 121.5 251.5t274.5 72.5q141 0 234 -33.5t143 -78.5v-1336q0 -45 -45 -45h-86q-45 0 -45 45v1260q-44 33 -99 45.5t-97 12.5q-76 0 -150.5 -34.5t-74.5 -188.5v-90h183q45 0 45 -35v-62q0 -35 -45 -35h-183v-873
q0 -45 -45 -45h-86q-45 0 -45 45v873h-107z" />
    <glyph glyph-name=".notdef" horiz-adv-x="1240" 
d="M195 0q-45 0 -45 45v1344q0 45 37 45h858q45 0 45 -45v-1344q0 -45 -45 -45h-850zM270 120h700v1194h-700v-1194z" />
    <glyph glyph-name=".notdef" horiz-adv-x="1240" 
d="M195 0q-45 0 -45 45v1344q0 45 37 45h858q45 0 45 -45v-1344q0 -45 -45 -45h-850zM270 120h700v1194h-700v-1194z" />
    <glyph glyph-name=".null" 
 />
    <glyph glyph-name="nonmarkingreturn" horiz-adv-x="682" 
 />
    <glyph glyph-name="space" unicode=" " horiz-adv-x="682" 
 />
    <glyph glyph-name="exclam" unicode="!" horiz-adv-x="600" 
d="M198 1379q0 55 50 55h104q50 0 50 -55l-21 -944q0 -45 -45 -45h-72q-45 0 -45 45zM244 0q-45 0 -45 45v122q0 45 45 45h112q45 0 45 -45v-122q0 -45 -45 -45h-112z" />
    <glyph glyph-name="quotedbl" unicode="&#x22;" horiz-adv-x="828" 
d="M153 1414q-2 55 36 55h104q38 0 36 -55l-21 -545q-2 -45 -35 -45h-64q-33 0 -35 45zM503 1414q-2 55 36 55h104q38 0 36 -55l-21 -545q-2 -45 -35 -45h-64q-33 0 -35 45z" />
    <glyph glyph-name="numbersign" unicode="#" horiz-adv-x="1390" 
d="M127 375q-45 0 -39 35l9 50q6 35 51 35h215l76 432h-215q-44 0 -38 35l8 50q6 35 52 35h215l58 330q8 45 43 45h62q35 0 27 -45l-58 -330h336l58 330q8 45 43 45h62q35 0 27 -45l-58 -330h215q44 0 38 -35l-8 -50q-6 -35 -52 -35h-215l-76 -432h215q45 0 39 -35l-9 -50
q-6 -35 -51 -35h-215l-58 -330q-8 -45 -43 -45h-62q-35 0 -27 45l58 330h-336l-58 -330q-8 -45 -43 -45h-62q-35 0 -27 45l58 330h-215zM495 495h336l76 432h-336z" />
    <glyph glyph-name="dollar" unicode="$" horiz-adv-x="1110" 
d="M153 96q-54 49 -28 84l40 54q31 42 87 -6q74 -63 141 -82.5t139 -24.5v530q-73 21 -143 61q-95 54 -147 123t-66 128t-14 153q0 64 46 147t129 130t195 58v120q0 45 35 45h50q35 0 35 -45v-122q65 0 149.5 -30.5t126.5 -71.5q46 -45 24 -78l-43 -63q-33 -48 -90 14
q-34 37 -88.5 56.5t-78.5 19.5v-488q79 -25 176 -82q68 -40 116 -95t68 -121t20 -136q0 -94 -32 -168t-117 -145t-231 -88v-138q0 -45 -35 -45h-50q-35 0 -35 45v136q-100 0 -206.5 32.5t-172.5 92.5zM348 1104q0 -79 26.5 -130t95.5 -90q30 -17 62 -31v446q-64 -5 -124 -52
t-60 -143zM652 127q76 17 130 70t54 176q0 67 -30.5 120.5t-77.5 81.5q-52 30 -76 38v-486z" />
    <glyph glyph-name="percent" unicode="%" horiz-adv-x="1782" 
d="M108 1122q0 160 84.5 272.5t224.5 112.5t224.5 -112.5t84.5 -272.5t-84.5 -272.5t-224.5 -112.5t-224.5 112.5t-84.5 272.5zM268 1122q0 -140 34.5 -205t114.5 -65t114.5 65t34.5 205t-34.5 205t-114.5 65t-114.5 -65t-34.5 -205zM401 -50q-30 18 -6 56l938 1501
q24 38 54 20l42 -27q30 -18 6 -56l-938 -1501q-24 -38 -54 -20zM1056 328q0 160 84.5 272.5t224.5 112.5t224.5 -112.5t84.5 -272.5t-84.5 -272.5t-224.5 -112.5t-224.5 112.5t-84.5 272.5zM1216 328q0 -140 34.5 -205t114.5 -65t114.5 65t34.5 205t-34.5 205t-114.5 65
t-114.5 -65t-34.5 -205z" />
    <glyph glyph-name="ampersand" unicode="&#x26;" horiz-adv-x="1382" 
d="M120 326q0 103 50.5 215.5t275.5 275.5q-50 57 -104.5 140.5t-54.5 206.5q0 120 83 210t267 90q113 0 218.5 -60.5t105.5 -224.5q0 -106 -72.5 -200t-194.5 -186l314 -375q40 42 84 117t56 123q12 46 51 34l76 -24q43 -14 29 -54q-30 -90 -90 -181t-105 -136l201 -239
q49 -58 -18 -58h-101q-58 0 -94 43l-110 130q-93 -91 -196 -147t-272 -56q-172 0 -285.5 99t-113.5 257zM315 328q0 -92 56.5 -152.5t168.5 -60.5q84 0 182 53t164 125l-338 405q-153 -117 -193 -191.5t-40 -178.5zM467 1173q0 -82 44.5 -149.5t80.5 -112.5
q110 94 149.5 151t39.5 123q0 56 -38.5 98t-118.5 42q-74 0 -115.5 -43t-41.5 -109z" />
    <glyph glyph-name="quotesingle" unicode="'" horiz-adv-x="478" 
d="M153 1414q-2 55 36 55h104q38 0 36 -55l-21 -545q-2 -45 -35 -45h-64q-33 0 -35 45z" />
    <glyph glyph-name="parenleft" unicode="(" horiz-adv-x="670" 
d="M124 544q0 308 104 540t263 409q38 43 68 20l35 -27q31 -24 -2 -59q-90 -96 -181 -323.5t-91 -559.5t91 -559.5t181 -323.5q33 -35 2 -59l-35 -27q-30 -23 -68 20q-159 177 -263 409t-104 540z" />
    <glyph glyph-name="parenright" unicode=")" horiz-adv-x="670" 
d="M107 -398q-31 24 2 59q90 96 181 323.5t91 559.5t-91 559.5t-181 323.5q-33 35 -2 59l35 27q30 23 68 -20q159 -177 263 -409t104 -540t-104 -540t-263 -409q-38 -43 -68 -20z" />
    <glyph glyph-name="asterisk" unicode="*" horiz-adv-x="940" 
d="M411 1057l-214 93q-82 35 -41 106l6 10q41 70 112 17l187 -139l-27 232q-10 88 71 88h12q81 0 71 -88l-27 -232l187 139q71 53 112 -17l6 -10q41 -71 -41 -106l-214 -93l214 -92q82 -35 41 -106l-6 -10q-41 -70 -112 -18l-187 140l27 -232q10 -88 -71 -88h-12
q-81 0 -71 88l27 232l-187 -140q-71 -52 -112 18l-6 10q-41 71 41 106z" />
    <glyph glyph-name="plus" unicode="+" horiz-adv-x="1280" 
d="M125 665q-45 0 -45 35v50q0 35 45 35h454v455q0 45 35 45h50q35 0 35 -45v-455h456q45 0 45 -35v-50q0 -35 -45 -35h-456v-455q0 -45 -35 -45h-50q-35 0 -35 45v455h-454z" />
    <glyph glyph-name="comma" unicode="," horiz-adv-x="600" 
d="M244 0q-45 0 -45 45v122q0 45 45 45h116q45 0 45 -45v-122q0 -105 -22.5 -183.5t-88.5 -137.5q-22 -19 -37 -5l-45 42q-15 14 7 34q34 30 55.5 86.5t21.5 118.5h-52z" />
    <glyph glyph-name="hyphen" unicode="-" horiz-adv-x="680" 
d="M101 483q-45 0 -45 35v70q0 35 45 35h478q45 0 45 -35v-70q0 -35 -45 -35h-478z" />
    <glyph glyph-name="period" unicode="." horiz-adv-x="600" 
d="M244 0q-45 0 -45 45v122q0 45 45 45h112q45 0 45 -45v-122q0 -45 -45 -45h-112z" />
    <glyph glyph-name="slash" unicode="/" horiz-adv-x="840" 
d="M41 -391q-34 14 -17 56l715 1771q17 42 51 28l45 -18q32 -13 15 -55l-715 -1771q-17 -42 -49 -29z" />
    <glyph glyph-name="zero" unicode="0" horiz-adv-x="1110" 
d="M93 711q0 350 96 545.5t366 195.5t366 -195.5t96 -545.5t-96 -545.5t-366 -195.5t-366 195.5t-96 545.5zM279 711q0 -280 48 -438.5t228 -158.5t228 158.5t48 438.5t-48 438.5t-228 158.5t-228 -158.5t-48 -438.5z" />
    <glyph glyph-name="one" unicode="1" horiz-adv-x="827" 
d="M174 1151q-13 32 24 46q77 29 146 93t109 114q29 36 56 36h85q46 0 46 -45v-1350q0 -45 -45 -45h-86q-45 0 -45 45v1096q0 30 2 60h-2q-31 -39 -91 -80t-110 -60q-44 -17 -58 16z" />
    <glyph glyph-name="two" unicode="2" horiz-adv-x="1110" 
d="M150 0q-55 0 -55 45v48q0 39 33 72l392 395q174 175 228.5 270.5t54.5 220.5q0 105 -61.5 178t-186.5 73q-112 0 -186 -57t-107 -191q-14 -57 -59 -44l-78 23q-31 9 -15 85q29 131 140.5 232.5t296.5 101.5q235 0 343.5 -118t108.5 -289q0 -167 -89.5 -288t-245.5 -272
l-329 -319v-4q27 2 80 2h545q55 0 55 -45v-74q0 -45 -55 -45h-810z" />
    <glyph glyph-name="three" unicode="3" horiz-adv-x="1110" 
d="M133 148q-40 46 -16 75l52 63q34 41 81 -18q52 -65 128.5 -106.5t160.5 -41.5q165 0 234 82t69 219q0 145 -92 210t-206 65h-88q-45 0 -45 33v74q0 35 45 35h71q110 0 188.5 72t78.5 196q0 86 -63 141t-177 55q-107 0 -175 -49t-96 -85q-37 -48 -72 -15l-59 57
q-26 25 23 83q52 61 149.5 110t232.5 49q207 0 316 -100t109 -259q0 -126 -77.5 -210.5t-169.5 -104.5v-4q107 -15 205 -116t98 -241q0 -208 -120.5 -327.5t-382.5 -119.5q-152 0 -251 59.5t-151 118.5z" />
    <glyph glyph-name="four" unicode="4" horiz-adv-x="1110" 
d="M109 354q-45 0 -45 45v88q0 32 24 69l549 848q23 36 56 36h91q46 0 46 -45v-877h171q45 0 45 -45v-74q0 -45 -44 -45h-172v-309q0 -45 -45 -45h-86q-45 0 -45 45v309h-545zM243 518h411v575q0 30 2 60h-2z" />
    <glyph glyph-name="five" unicode="5" horiz-adv-x="1110" 
d="M143 163q-38 50 -9 76l62 55q34 30 79 -25q27 -33 95 -91t177 -58q143 0 215.5 88t72.5 233q0 137 -62 216t-186 79q-77 0 -128 -15t-106 -63q-38 -33 -80 -33h-47q-45 0 -45 45v707q0 45 45 45h690q45 0 45 -45v-74q0 -45 -45 -45h-559v-395q0 -30 -2 -60h4
q56 47 131 65t139 18q186 0 294 -124t108 -325q0 -219 -129.5 -343t-352.5 -124q-163 0 -262.5 67.5t-143.5 125.5z" />
    <glyph glyph-name="six" unicode="6" horiz-adv-x="1110" 
d="M92 671q0 440 153 610.5t372 170.5q125 0 200 -32t129 -82q42 -39 19 -65l-47 -55q-28 -32 -73 6q-37 32 -89 55t-148 23q-135 0 -235 -135t-100 -424h2q45 65 129.5 110.5t213.5 45.5q160 0 281 -109.5t121 -329.5q0 -218 -115.5 -354t-341.5 -136q-236 0 -353.5 187.5
t-117.5 513.5zM307 447q0 -124 68.5 -225.5t189.5 -101.5q125 0 192 94t67 240q0 145 -68 218.5t-170 73.5q-132 0 -205.5 -81t-73.5 -218z" />
    <glyph glyph-name="seven" unicode="7" horiz-adv-x="1100" 
d="M133 1258q-45 0 -45 45v74q0 45 45 45h834q45 0 45 -45v-69q0 -32 -36 -72q-200 -227 -321 -502.5t-121 -600.5v-94q0 -45 -45 -45h-91q-45 0 -45 45v59q0 361 137 635.5t341 524.5v2q-30 -2 -60 -2h-638z" />
    <glyph glyph-name="eight" unicode="8" horiz-adv-x="1110" 
d="M92 410q0 140 87 238.5t172 119.5v3q-92 29 -158 108t-66 209q0 165 119 264.5t309 99.5t309 -99.5t119 -264.5q0 -130 -70 -209.5t-162 -108.5v-2q85 -21 176 -119.5t91 -238.5q0 -200 -111.5 -320t-351.5 -120t-351.5 120t-111.5 320zM287 406q0 -140 69 -213t199 -73
t198.5 73t68.5 213q0 110 -71 194t-196 84t-196.5 -84t-71.5 -194zM315 1088q0 -100 57.5 -171t182.5 -71t182.5 71t57.5 171q0 80 -55 147t-185 67t-185 -67t-55 -147z" />
    <glyph glyph-name="nine" unicode="9" horiz-adv-x="1110" 
d="M90 962q0 218 115.5 354t341.5 136q236 0 353.5 -187.5t117.5 -513.5q0 -440 -153 -610.5t-372 -170.5q-125 0 -200 32t-129 82q-42 39 -19 65l47 55q28 32 73 -6q37 -32 89 -55t148 -23q135 0 235 135t100 424h-2q-45 -65 -129.5 -110.5t-213.5 -45.5q-160 0 -281 109.5
t-121 329.5zM286 968q0 -145 68 -218.5t170 -73.5q132 0 205.5 81t73.5 218q0 124 -68.5 225.5t-189.5 101.5q-125 0 -192 -94t-67 -240z" />
    <glyph glyph-name="colon" unicode=":" horiz-adv-x="600" 
d="M244 0q-45 0 -45 45v122q0 45 45 45h112q45 0 45 -45v-122q0 -45 -45 -45h-112zM244 838q-45 0 -45 45v122q0 45 45 45h112q45 0 45 -45v-122q0 -45 -45 -45h-112z" />
    <glyph glyph-name="semicolon" unicode=";" horiz-adv-x="600" 
d="M244 838q-45 0 -45 45v122q0 45 45 45h112q45 0 45 -45v-122q0 -45 -45 -45h-112zM244 0q-45 0 -45 45v122q0 45 45 45h116q45 0 45 -45v-122q0 -105 -22.5 -183.5t-88.5 -137.5q-22 -19 -37 -5l-45 42q-15 14 7 34q34 30 55.5 86.5t21.5 118.5h-52z" />
    <glyph glyph-name="less" unicode="&#x3c;" horiz-adv-x="1280" 
d="M130 685q-25 14 -25 34v32q0 20 25 34l952 550q39 23 57 -8l25 -43q18 -30 -22 -53l-859 -495v-2l859 -495q40 -23 22 -53l-25 -43q-18 -31 -57 -8z" />
    <glyph glyph-name="equal" unicode="=" horiz-adv-x="1280" 
d="M125 495q-45 0 -45 35v50q0 35 45 35h1030q45 0 45 -35v-50q0 -35 -45 -35h-1030zM125 835q-45 0 -45 35v50q0 35 45 35h1030q45 0 45 -35v-50q0 -35 -45 -35h-1030z" />
    <glyph glyph-name="greater" unicode="&#x3e;" horiz-adv-x="1280" 
d="M134 186q-18 30 22 53l859 495v2l-859 495q-40 23 -22 53l25 43q18 31 57 8l952 -550q25 -14 25 -34v-32q0 -20 -25 -34l-952 -550q-39 -23 -57 8z" />
    <glyph glyph-name="question" unicode="?" horiz-adv-x="1016" 
d="M139 1164q-31 14 -3 86q27 67 118.5 140.5t266.5 73.5q215 0 316 -102.5t101 -273.5q0 -143 -166.5 -327.5t-166.5 -322.5v-23q0 -45 -45 -45h-86q-45 0 -45 45v37q0 169 156.5 347.5t156.5 294.5q0 122 -57 171t-157 49q-110 0 -165.5 -40t-84.5 -109q-23 -54 -65 -35z
M460 0q-45 0 -45 45v122q0 45 45 45h112q45 0 45 -45v-122q0 -45 -45 -45h-112z" />
    <glyph glyph-name="at" unicode="@" horiz-adv-x="1992" 
d="M120 551q0 381 260 651.5t680 270.5q306 0 559 -178.5t253 -578.5q0 -294 -141 -449.5t-371 -155.5q-130 0 -166 57t-36 164h-2q-38 -89 -130 -155t-183 -66q-134 0 -215.5 96t-81.5 260q0 206 131.5 390.5t328.5 184.5q191 0 235 -176h4l23 106q7 34 42 34h110
q35 0 27 -35l-131 -591q-22 -98 4 -123.5t71 -25.5q146 0 252.5 111.5t106.5 373.5q0 304 -194 470.5t-494 166.5q-342 0 -581 -218.5t-239 -598.5q0 -332 228.5 -540t549.5 -208q150 0 302.5 54.5t283.5 160.5q27 22 43 0l39 -54q17 -24 -10 -42q-163 -115 -322.5 -177
t-344.5 -62q-359 0 -625 238t-266 645zM717 447q0 -123 44.5 -169.5t123.5 -46.5q101 0 188.5 142.5t103.5 208.5q15 64 15 145q0 69 -41 133t-121 64q-134 0 -223.5 -144t-89.5 -333z" />
    <glyph glyph-name="A" unicode="A" horiz-adv-x="1360" 
d="M98 0q-52 0 -27 66l498 1307q23 61 66 61h140q43 0 66 -61l498 -1307q25 -66 -27 -66h-102q-53 0 -72 49l-125 331h-616l-125 -331q-19 -49 -72 -49h-102zM460 544h490l-153 400q-21 56 -41.5 124t-48.5 193h-4q-28 -125 -48.5 -193t-41.5 -124z" />
    <glyph glyph-name="B" unicode="B" horiz-adv-x="1358" 
d="M220 0q-50 0 -50 55v1324q0 55 50 55h390q340 0 458 -110t118 -265q0 -123 -98 -208.5t-190 -100.5v-3q101 -9 225.5 -100.5t124.5 -248.5q0 -170 -125.5 -284t-462.5 -114h-440zM362 164h266q215 0 315 53t100 187q0 124 -101.5 192t-313.5 68h-266v-500zM362 808h251
q167 0 272.5 71.5t105.5 179.5q0 103 -79 157t-299 54h-251v-462z" />
    <glyph glyph-name="C" unicode="C" horiz-adv-x="1402" 
d="M92 717q0 350 173.5 548.5t498.5 198.5q190 0 314 -64.5t178 -176.5q28 -58 -9 -80l-79 -46q-40 -23 -71 38q-33 63 -108 118t-215 55q-250 0 -363.5 -155.5t-113.5 -435.5t113.5 -435.5t363.5 -155.5q144 0 230.5 66t125.5 138q31 58 72 35l83 -47q36 -21 6 -80
q-59 -115 -192 -191.5t-335 -76.5q-325 0 -498.5 198.5t-173.5 548.5z" />
    <glyph glyph-name="D" unicode="D" horiz-adv-x="1436" 
d="M220 0q-50 0 -50 55v1324q0 55 50 55h369q424 0 589.5 -187.5t165.5 -527.5t-165.5 -529.5t-589.5 -189.5h-369zM362 164h218q330 0 444.5 140t114.5 415t-114.5 414t-444.5 139h-218v-1108z" />
    <glyph glyph-name="E" unicode="E" horiz-adv-x="1270" 
d="M220 0q-50 0 -50 55v1324q0 55 50 55h875q55 0 55 -45v-74q0 -45 -55 -45h-733v-444h673q55 0 55 -45v-74q0 -45 -55 -45h-673v-498h763q55 0 55 -45v-74q0 -45 -55 -45h-905z" />
    <glyph glyph-name="F" unicode="F" horiz-adv-x="1166" 
d="M220 0q-50 0 -50 55v1324q0 55 50 55h815q55 0 55 -45v-74q0 -45 -55 -45h-673v-474h587q55 0 55 -45v-74q0 -45 -55 -45h-587v-577q0 -55 -50 -55h-92z" />
    <glyph glyph-name="G" unicode="G" horiz-adv-x="1470" 
d="M92 717q0 350 181 548.5t503 198.5q193 0 315 -66.5t179 -156.5q35 -56 -1 -81l-75 -52q-37 -26 -74 31q-30 45 -113 107t-221 62q-245 0 -367 -155.5t-122 -435.5t119 -435.5t380 -155.5q130 0 226.5 31.5t135.5 87.5v265h-297q-55 0 -55 45v74q0 45 55 45h434
q55 0 55 -45v-472q-122 -89 -244 -138t-320 -49q-330 0 -512 198.5t-182 548.5z" />
    <glyph glyph-name="H" unicode="H" horiz-adv-x="1422" 
d="M220 0q-50 0 -50 55v1324q0 55 50 55h92q50 0 50 -55v-551h698v551q0 55 50 55h92q50 0 50 -55v-1324q0 -55 -50 -55h-92q-50 0 -50 55v609h-698v-609q0 -55 -50 -55h-92z" />
    <glyph glyph-name="I" unicode="I" horiz-adv-x="532" 
d="M220 0q-50 0 -50 55v1324q0 55 50 55h92q50 0 50 -55v-1324q0 -55 -50 -55h-92z" />
    <glyph glyph-name="J" unicode="J" horiz-adv-x="824" 
d="M85 29q-46 25 -28 65l33 71q22 48 73 14q81 -53 162 -53q97 0 126 65.5t29 186.5v1001q0 55 50 55h92q50 0 50 -55v-978q0 -198 -62 -314.5t-290 -116.5q-125 0 -235 59z" />
    <glyph glyph-name="K" unicode="K" horiz-adv-x="1328" 
d="M220 0q-50 0 -50 55v1324q0 55 50 55h92q50 0 50 -55v-588q0 -40 -2 -80h4l668 684q38 39 70 39h121q83 0 18 -66l-508 -518l535 -784q44 -66 -18 -66h-122q-44 0 -70 39l-457 675l-239 -243v-416q0 -55 -50 -55h-92z" />
    <glyph glyph-name="L" unicode="L" horiz-adv-x="1136" 
d="M220 0q-50 0 -50 55v1324q0 55 50 55h92q50 0 50 -55v-1215h663q55 0 55 -45v-74q0 -45 -55 -45h-805z" />
    <glyph glyph-name="M" unicode="M" horiz-adv-x="1708" 
d="M220 0q-50 0 -50 55v1324q0 55 50 55h213q38 0 57 -60l286 -897q44 -138 52 -166.5t23 -104.5h6q15 76 23 104.5t52 166.5l286 897q19 60 57 60h213q50 0 50 -55v-1324q0 -55 -50 -55h-92q-50 0 -50 55v1049q0 40 2 80h-4l-369 -1123q-20 -61 -66 -61h-110q-46 0 -66 61
l-369 1123h-4q2 -40 2 -80v-1049q0 -55 -50 -55h-92z" />
    <glyph glyph-name="N" unicode="N" horiz-adv-x="1438" 
d="M220 0q-50 0 -50 55v1324q0 55 50 55h128q70 0 100 -50l626 -1049h4q-2 40 -2 80v964q0 55 50 55h92q50 0 50 -55v-1324q0 -55 -50 -55h-88q-70 0 -100 50l-666 1113h-4q2 -40 2 -80v-1028q0 -55 -50 -55h-92z" />
    <glyph glyph-name="O" unicode="O" horiz-adv-x="1524" 
d="M92 717q0 350 172.5 548.5t497.5 198.5t497.5 -198.5t172.5 -548.5t-172.5 -548.5t-497.5 -198.5t-497.5 198.5t-172.5 548.5zM297 717q0 -280 115 -435.5t350 -155.5t350 155.5t115 435.5t-115 435.5t-350 155.5t-350 -155.5t-115 -435.5z" />
    <glyph glyph-name="P" unicode="P" horiz-adv-x="1308" 
d="M220 0q-50 0 -50 55v1324q0 55 50 55h420q340 0 459 -114.5t119 -314.5t-119 -314.5t-459 -114.5h-278v-521q0 -55 -50 -55h-92zM362 740h281q220 0 300 62.5t80 202.5t-80 202.5t-300 62.5h-281v-530z" />
    <glyph glyph-name="Q" unicode="Q" horiz-adv-x="1524" 
d="M92 719q0 350 172.5 547.5t497.5 197.5t497.5 -198.5t172.5 -548.5t-172 -549q-144 -165 -393 -192q10 -97 72 -155t177 -58q62 0 101 10t44 -11l20 -88q5 -24 -25 -31q-89 -20 -172 -20q-215 0 -307.5 107.5t-101.5 243.5q-262 24 -411 196q-172 199 -172 549zM297 717
q0 -280 115 -435.5t350 -155.5t350 155.5t115 435.5t-115 435.5t-350 155.5t-350 -155.5t-115 -435.5z" />
    <glyph glyph-name="R" unicode="R" horiz-adv-x="1394" 
d="M220 0q-50 0 -50 55v1324q0 55 50 55h483q289 0 418.5 -108t129.5 -285q0 -156 -104.5 -262t-297.5 -122v-2q102 -76 135 -115.5t74 -106.5l226 -367q41 -66 -18 -66h-114q-47 0 -70 39l-208 357q-45 77 -129 151t-209 74h-174v-566q0 -55 -50 -55h-92zM362 785h289
q195 0 300 51.5t105 216.5q0 126 -96 171.5t-261 45.5h-337v-485z" />
    <glyph glyph-name="S" unicode="S" horiz-adv-x="1224" 
d="M166 108q-53 48 -28 84l52 75q27 39 87 -6q79 -59 164.5 -97t207.5 -38q90 0 152 27t99.5 77.5t37.5 122.5q0 52 -15.5 96.5t-49.5 74.5t-71 47q-61 28 -182.5 65t-212.5 80q-90 43 -143.5 104t-71 125.5t-17.5 147.5q0 127 74 219t181.5 122t218.5 30q127 0 221 -33
t168 -86q52 -37 24 -78l-51 -73q-23 -33 -90 14q-51 36 -124.5 67.5t-145.5 31.5q-92 0 -153 -21.5t-96 -72.5t-35 -118q0 -42 8 -77.5t41 -72.5t80 -57q63 -27 195.5 -63.5t231.5 -89.5q92 -49 132.5 -102.5t63 -116t22.5 -140.5q0 -142 -73 -237t-173 -132t-251 -37
q-181 0 -300 42t-178 96z" />
    <glyph glyph-name="T" unicode="T" horiz-adv-x="1240" 
d="M91 1262q-55 0 -55 45v82q0 45 55 45h1058q55 0 55 -45v-82q0 -45 -55 -45h-433v-1207q0 -55 -50 -55h-92q-50 0 -50 55v1207h-433z" />
    <glyph glyph-name="U" unicode="U" horiz-adv-x="1402" 
d="M170 547v832q0 55 50 55h92q50 0 50 -55v-802q0 -280 79.5 -365.5t259.5 -85.5t259.5 85.5t79.5 365.5v802q0 55 50 55h92q50 0 50 -55v-832q0 -317 -145.5 -447t-385.5 -130t-385.5 130t-145.5 447z" />
    <glyph glyph-name="V" unicode="V" horiz-adv-x="1338" 
d="M71 1368q-25 66 27 66h102q54 0 72 -49l325 -895q21 -59 52.5 -158.5t42.5 -158.5h4q11 59 42.5 158.5t52.5 158.5l325 895q18 49 72 49h102q52 0 27 -66l-487 -1307q-23 -61 -66 -61h-140q-43 0 -66 61z" />
    <glyph glyph-name="W" unicode="W" horiz-adv-x="1888" 
d="M64 1374q-16 60 26 60h122q32 0 43 -46l223 -961q14 -58 31.5 -126t30.5 -128h5q10 59 23.5 117t30.5 136l228 954q13 54 64 54h138q51 0 64 -54l228 -954q17 -78 30.5 -136t23.5 -117h5q13 60 30.5 128t31.5 126l223 961q11 46 43 46h122q42 0 26 -60l-344 -1297
q-20 -77 -74 -77h-125q-50 0 -71 84l-241 959q-18 73 -26 119.5t-14 96.5h-2q-6 -50 -14 -96.5t-26 -119.5l-241 -959q-21 -84 -71 -84h-125q-54 0 -74 77z" />
    <glyph glyph-name="X" unicode="X" horiz-adv-x="1310" 
d="M124 0q-65 0 -18 66l480 674l-446 628q-47 66 18 66h123q44 0 70 -39l351 -522l351 522q26 39 70 39h123q65 0 18 -66l-446 -628l480 -674q47 -66 -18 -66h-124q-44 0 -70 39l-384 568l-384 -568q-26 -39 -70 -39h-124z" />
    <glyph glyph-name="Y" unicode="Y" horiz-adv-x="1302" 
d="M97 1368q-43 66 27 66h112q44 0 72 -49l254 -437q42 -72 72 -125.5t58 -113.5h4q28 60 58 113.5t72 125.5l254 437q28 49 72 49h112q70 0 27 -66l-501 -778v-535q0 -55 -50 -55h-92q-50 0 -50 55v535z" />
    <glyph glyph-name="Z" unicode="Z" horiz-adv-x="1216" 
d="M120 0q-55 0 -55 45v48q0 48 30 89l786 1086v4q-40 -2 -80 -2h-649q-55 0 -55 45v74q0 45 55 45h922q55 0 55 -45v-31q0 -33 -20 -61l-796 -1131v-4q27 2 80 2h703q55 0 55 -45v-74q0 -45 -55 -45h-976z" />
    <glyph glyph-name="bracketleft" unicode="[" horiz-adv-x="658" 
d="M215 -408q-45 0 -45 45v1814q0 45 45 45h328q45 0 45 -35v-60q0 -35 -45 -35h-197v-1644h197q45 0 45 -35v-60q0 -35 -45 -35h-328z" />
    <glyph glyph-name="backslash" unicode="\" horiz-adv-x="840" 
d="M24 1391q-17 42 15 55l45 18q34 14 51 -28l715 -1771q17 -42 -17 -56l-45 -18q-32 -13 -49 29z" />
    <glyph glyph-name="bracketright" unicode="]" horiz-adv-x="658" 
d="M115 -408q-45 0 -45 35v60q0 35 45 35h197v1644h-197q-45 0 -45 35v60q0 35 45 35h328q45 0 45 -45v-1814q0 -45 -45 -45h-328z" />
    <glyph glyph-name="asciicircum" unicode="^" horiz-adv-x="866" 
d="M113 923q-29 19 -6 56l263 421q21 34 65 34h42q44 0 65 -34l263 -421q23 -37 -6 -56l-49 -32q-29 -19 -54 20l-239 379h-2l-239 -379q-25 -39 -54 -20z" />
    <glyph glyph-name="underscore" unicode="_" horiz-adv-x="1100" 
d="M21 -390q-45 0 -45 35v60q0 35 45 35h1058q45 0 45 -35v-60q0 -35 -45 -35h-1058z" />
    <glyph glyph-name="grave" unicode="`" horiz-adv-x="614" 
d="M224 1383q-45 52 14 52h111q55 0 81 -37l139 -195q38 -53 -12 -53h-74q-56 0 -81 29z" />
    <glyph glyph-name="a" unicode="a" horiz-adv-x="1067" 
d="M85 280q0 178 166.5 261t497.5 97v68q0 94 -42.5 162.5t-168.5 68.5q-80 0 -128 -15.5t-87.5 -41t-75.5 -65.5q-27 -30 -51 -3l-52 60q-22 25 15 60q53 50 103 75t124.5 42.5t151.5 17.5q209 0 298 -107.5t89 -294.5v-620q0 -45 -45 -45h-90q-39 0 -39 45v49h-2
q-79 -62 -154.5 -86.5t-168.5 -24.5q-164 0 -252.5 78.5t-88.5 218.5zM267 276q0 -62 26 -99.5t72 -48t96 -10.5q77 0 146 15t142 79v295q-202 -15 -288 -36.5t-140 -74t-54 -120.5z" />
    <glyph glyph-name="b" unicode="b" horiz-adv-x="1119" 
d="M187 0q-45 0 -45 45v1386q0 45 45 45h86q45 0 45 -45v-445q0 -31 -2 -61h2q55 66 124 104t184 38q200 0 304 -163.5t104 -378.5t-104 -378.5t-304 -163.5q-115 0 -184 38t-124 104h-2l-6 -80q-3 -45 -39 -45h-84zM318 410q0 -150 71.5 -223.5t179.5 -73.5
q152 0 215.5 114t63.5 298t-63.5 298t-215.5 114q-108 0 -179.5 -73.5t-71.5 -223.5v-230z" />
    <glyph glyph-name="c" unicode="c" horiz-adv-x="1026" 
d="M85 525q0 235 116.5 388.5t356.5 153.5q162 0 247.5 -57.5t123.5 -117.5q21 -33 -9 -53l-63 -41q-30 -21 -60 27q-29 46 -81.5 79t-157.5 33q-137 0 -212 -101t-75 -311t75 -311t212 -101q111 0 170 42.5t86 92.5q26 47 59 27l67 -40q30 -18 9 -54q-25 -43 -113.5 -120.5
t-277.5 -77.5q-240 0 -356.5 153.5t-116.5 388.5z" />
    <glyph glyph-name="d" unicode="d" horiz-adv-x="1119" 
d="M85 525q0 215 104 378.5t304 163.5q115 0 184 -38t124 -104h2q-2 30 -2 61v445q0 45 45 45h86q45 0 45 -45v-1386q0 -45 -45 -45h-84q-36 0 -39 45l-6 80h-2q-55 -66 -124 -104t-184 -38q-200 0 -304 163.5t-104 378.5zM271 525q0 -184 63.5 -298t215.5 -114
q108 0 179.5 73.5t71.5 223.5v230q0 150 -71.5 223.5t-179.5 73.5q-152 0 -215.5 -114t-63.5 -298z" />
    <glyph glyph-name="e" unicode="e" horiz-adv-x="1098" 
d="M85 525q0 248 124 395t355 147q192 0 318.5 -134.5t126.5 -429.5q0 -45 -41 -45h-697q17 -193 104 -268.5t197 -75.5q116 0 178 39t91 77q32 42 62 16l59 -51q23 -20 0 -55q-19 -29 -108.5 -93t-281.5 -64q-250 0 -368.5 147t-118.5 395zM267 588h565q-4 140 -72 245.5
t-200 105.5q-116 0 -197 -77.5t-96 -273.5z" />
    <glyph glyph-name="f" unicode="f" horiz-adv-x="652" 
d="M90 918q-45 0 -45 35v62q0 35 45 35h107v149q0 167 90 230.5t206 63.5q69 0 111.5 -7t100.5 -31q22 -9 13 -32l-31 -79q-8 -20 -35 -8q-22 10 -54 18.5t-69 8.5q-83 0 -119.5 -40t-36.5 -153v-120h183q45 0 45 -35v-62q0 -35 -45 -35h-183v-873q0 -45 -45 -45h-86
q-45 0 -45 45v873h-107z" />
    <glyph glyph-name="g" unicode="g" horiz-adv-x="1119" 
d="M85 525q0 215 104 378.5t304 163.5q115 0 184 -38t124 -104h2l6 80q3 45 39 45h84q45 0 45 -45v-1013q0 -192 -88.5 -300.5t-349.5 -108.5q-175 0 -262 39.5t-124 83.5q-27 33 -3 56l55 54q23 22 64 -14q53 -48 102 -68.5t169 -20.5q136 0 198.5 58t62.5 240v60
q0 31 2 61h-2q-52 -69 -122.5 -109t-185.5 -40q-200 0 -304 163.5t-104 378.5zM271 525q0 -184 63.5 -298t215.5 -114q108 0 179.5 73.5t71.5 223.5v230q0 150 -71.5 223.5t-179.5 73.5q-152 0 -215.5 -114t-63.5 -298z" />
    <glyph glyph-name="h" unicode="h" horiz-adv-x="1128" 
d="M187 0q-45 0 -45 45v1386q0 45 45 45h86q45 0 45 -45v-446q0 -30 -2 -60h4q65 72 140 107t187 35q182 0 261.5 -102.5t79.5 -280.5v-639q0 -45 -45 -45h-86q-45 0 -45 45v591q0 196 -65 248.5t-165 52.5q-130 0 -197 -77.5t-67 -265.5v-549q0 -45 -45 -45h-86z" />
    <glyph glyph-name="i" unicode="i" horiz-adv-x="460" 
d="M187 0q-45 0 -45 45v960q0 45 45 45h86q45 0 45 -45v-960q0 -45 -45 -45h-86zM187 1240q-45 0 -45 45v86q0 45 45 45h86q45 0 45 -45v-86q0 -45 -45 -45h-86z" />
    <glyph glyph-name="j" unicode="j" horiz-adv-x="466" 
d="M-80 -397q-22 10 -18 32l17 81q5 24 25 15q39 -18 96 -18q59 0 85.5 58t26.5 235v999q0 45 45 45h86q45 0 45 -45v-1098q0 -194 -73.5 -259t-182.5 -65q-106 0 -152 20zM193 1240q-45 0 -45 45v86q0 45 45 45h86q45 0 45 -45v-86q0 -45 -45 -45h-86z" />
    <glyph glyph-name="k" unicode="k" horiz-adv-x="1003" 
d="M187 0q-45 0 -45 45v1386q0 45 45 45h86q45 0 45 -45v-832q0 -30 -2 -60h2l405 485q22 26 53 26h91q76 0 26 -59l-314 -374l359 -558q38 -59 -26 -59h-98q-33 0 -57 37l-288 449l-151 -180v-261q0 -45 -45 -45h-86z" />
    <glyph glyph-name="l" unicode="l" horiz-adv-x="460" 
d="M187 0q-45 0 -45 45v1248q0 20 10 38l70 127q19 35 31 35h35q30 0 30 -35v-1413q0 -45 -45 -45h-86z" />
    <glyph glyph-name="m" unicode="m" horiz-adv-x="1678" 
d="M187 0q-45 0 -45 45v960q0 45 45 45h84q45 0 45 -45v-80h4q65 72 141 107t146 35q129 0 198.5 -64.5t89.5 -129.5h4q55 82 139 138t179 56q159 0 240 -102.5t81 -280.5v-639q0 -45 -45 -45h-86q-45 0 -45 45v581q0 196 -49 253.5t-151 57.5q-100 0 -167 -85.5t-67 -257.5
v-549q0 -45 -45 -45h-86q-45 0 -45 45v581q0 196 -49 253.5t-151 57.5q-100 0 -167 -77.5t-67 -265.5v-549q0 -45 -45 -45h-86z" />
    <glyph glyph-name="n" unicode="n" horiz-adv-x="1128" 
d="M187 0q-45 0 -45 45v960q0 45 45 45h84q45 0 45 -45v-80h4q65 72 140 107t187 35q182 0 261.5 -102.5t79.5 -280.5v-639q0 -45 -45 -45h-86q-45 0 -45 45v591q0 196 -65 248.5t-165 52.5q-130 0 -197 -77.5t-67 -265.5v-549q0 -45 -45 -45h-86z" />
    <glyph glyph-name="o" unicode="o" horiz-adv-x="1148" 
d="M85 525q0 235 124.5 388.5t364.5 153.5t364.5 -153.5t124.5 -388.5t-124.5 -388.5t-364.5 -153.5t-364.5 153.5t-124.5 388.5zM271 525q0 -210 83 -311t220 -101t220 101t83 311t-83 311t-220 101t-220 -101t-83 -311z" />
    <glyph glyph-name="p" unicode="p" horiz-adv-x="1119" 
d="M187 -400q-45 0 -45 45v1360q0 45 45 45h84q36 0 39 -45l6 -80h2q55 66 124 104t184 38q200 0 304 -163.5t104 -378.5t-104 -378.5t-304 -163.5q-115 0 -184 38t-124 104h-2q2 -30 2 -61v-419q0 -45 -45 -45h-86zM318 410q0 -150 71.5 -223.5t179.5 -73.5
q152 0 215.5 114t63.5 298t-63.5 298t-215.5 114q-108 0 -179.5 -73.5t-71.5 -223.5v-230z" />
    <glyph glyph-name="q" unicode="q" horiz-adv-x="1119" 
d="M85 525q0 215 104 378.5t304 163.5q115 0 184 -38t124 -104h2l6 80q3 45 39 45h84q45 0 45 -45v-1360q0 -45 -45 -45h-86q-45 0 -45 45v419q0 31 2 61h-2q-55 -66 -124 -104t-184 -38q-200 0 -304 163.5t-104 378.5zM271 525q0 -184 63.5 -298t215.5 -114
q108 0 179.5 73.5t71.5 223.5v230q0 150 -71.5 223.5t-179.5 73.5q-152 0 -215.5 -114t-63.5 -298z" />
    <glyph glyph-name="r" unicode="r" horiz-adv-x="722" 
d="M187 0q-45 0 -45 45v960q0 45 45 45h84q45 0 45 -45v-120h4q48 90 113 136t162 46q64 0 90 -11q23 -9 17 -30l-23 -82q-5 -18 -26 -14q-35 7 -66 7q-117 0 -193 -105.5t-76 -287.5v-499q0 -45 -45 -45h-86z" />
    <glyph glyph-name="s" unicode="s" horiz-adv-x="944" 
d="M101 98q-31 29 -13 54l45 63q22 30 65 -3q59 -45 131.5 -72t165.5 -27q55 0 98 13.5t75.5 50.5t32.5 99q0 36 -15.5 68t-48 51.5t-63.5 30.5q-51 19 -101.5 31.5t-132.5 38.5q-55 17 -104 48.5t-85.5 85.5t-36.5 149q0 97 59 167t148 95.5t173 25.5q124 0 199.5 -28.5
t130.5 -67.5q32 -23 9 -53l-45 -60q-21 -29 -65 2q-37 26 -105 49t-119 23q-63 0 -108 -14t-73 -48t-28 -80q0 -35 11 -62.5t41 -50.5t84 -37q84 -22 153.5 -40t125.5 -44q73 -34 112.5 -75t54.5 -88.5t15 -105.5q0 -107 -63.5 -181t-141.5 -98.5t-188 -24.5
q-149 0 -255.5 42.5t-137.5 72.5z" />
    <glyph glyph-name="t" unicode="t" horiz-adv-x="757" 
d="M91 918q-45 0 -45 35v62q0 35 45 35h118v90q0 20 10 38l70 127q19 35 31 35h35q30 0 30 -35v-255h213q45 0 45 -35v-62q0 -35 -45 -35h-213v-637q0 -105 31.5 -136.5t75.5 -31.5q34 0 81.5 20t65.5 34t28 -9l33 -77q8 -20 -12 -32q-39 -23 -114 -44.5t-150 -21.5
q-104 0 -159.5 75t-55.5 212v648h-118z" />
    <glyph glyph-name="u" unicode="u" horiz-adv-x="1120" 
d="M140 366v639q0 45 45 45h86q45 0 45 -45v-591q0 -196 65 -248.5t161 -52.5q126 0 193 77.5t67 265.5v549q0 45 45 45h86q45 0 45 -45v-960q0 -45 -45 -45h-84q-45 0 -45 45v80h-4q-65 -72 -140 -107t-183 -35q-175 0 -256 102.5t-81 280.5z" />
    <glyph glyph-name="v" unicode="v" horiz-adv-x="986" 
d="M62 1001q-17 49 27 49h109q32 0 45 -39l212 -660q26 -81 35.5 -111.5t17.5 -75.5h4q8 45 17.5 75.5t35.5 111.5l212 660q13 39 45 39h109q44 0 27 -49l-328 -940q-21 -61 -54 -61h-132q-33 0 -54 61z" />
    <glyph glyph-name="w" unicode="w" horiz-adv-x="1444" 
d="M58 1001q-13 49 27 49h105q36 0 45 -39l147 -660q7 -29 21.5 -91t20.5 -91h4q5 28 17.5 84t23.5 98l176 660q10 39 45 39h90q35 0 45 -39l176 -660q11 -42 23.5 -98t17.5 -84h4q6 29 20.5 91t21.5 91l147 660q9 39 45 39h105q40 0 27 -49l-248 -940q-16 -61 -54 -61h-120
q-38 0 -54 61l-170 661q-18 70 -22.5 98t-7.5 53h-2q-3 -25 -7.5 -53t-22.5 -98l-170 -661q-16 -61 -54 -61h-120q-38 0 -54 61z" />
    <glyph glyph-name="x" unicode="x" horiz-adv-x="974" 
d="M117 0q-67 0 -26 59l341 494l-303 438q-41 59 26 59h98q36 0 53 -26l221 -348l220 348q16 26 53 26h99q67 0 26 -59l-303 -438l341 -494q41 -59 -26 -59h-98q-36 0 -53 26l-259 405l-259 -405q-17 -26 -53 -26h-98z" />
    <glyph glyph-name="y" unicode="y" horiz-adv-x="990" 
d="M69 1001q-18 49 27 49h109q33 0 45 -39l210 -660q9 -27 27.5 -84.5t26.5 -102.5h2q8 45 19.5 81.5t34.5 105.5l212 660q13 39 45 39h109q45 0 27 -49l-337 -940q-95 -265 -170 -371.5t-224 -106.5q-78 0 -124 23q-21 10 -14 31l26 81q7 21 27 12q41 -17 79 -17
q70 0 114 75.5t70 151.5l20 59z" />
    <glyph glyph-name="z" unicode="z" horiz-adv-x="950" 
d="M100 0q-45 0 -45 35v51q0 34 35 80l578 752v2q-30 -2 -60 -2h-484q-45 0 -45 35v62q0 35 45 35h702q45 0 45 -35v-47q0 -30 -37 -78l-582 -758v-2q30 2 60 2h538q45 0 45 -35v-62q0 -35 -45 -35h-750z" />
    <glyph glyph-name="braceleft" unicode="{" horiz-adv-x="776" 
d="M125 479q-35 0 -35 45v40q0 45 35 45q72 0 148.5 74.5t76.5 247.5v235q0 169 63 249.5t248 80.5q45 0 45 -35v-60q0 -35 -45 -35q-98 0 -116.5 -41t-18.5 -136v-286q0 -205 -91.5 -277t-155.5 -81v-2q64 -9 155.5 -81t91.5 -277v-286q0 -95 18.5 -136t116.5 -41
q45 0 45 -35v-60q0 -35 -45 -35q-185 0 -248 80.5t-63 249.5v235q0 173 -76.5 247.5t-148.5 74.5z" />
    <glyph glyph-name="bar" unicode="|" horiz-adv-x="590" 
d="M265 -440q-35 0 -35 45v1846q0 45 35 45h60q35 0 35 -45v-1846q0 -45 -35 -45h-60z" />
    <glyph glyph-name="braceright" unicode="}" horiz-adv-x="776" 
d="M115 -408q-45 0 -45 35v60q0 35 45 35q98 0 116.5 41t18.5 136v286q0 205 91.5 277t155.5 81v2q-64 9 -155.5 81t-91.5 277v286q0 95 -18.5 136t-116.5 41q-45 0 -45 35v60q0 35 45 35q185 0 248 -80.5t63 -249.5v-235q0 -173 76.5 -247.5t148.5 -74.5q35 0 35 -45v-40
q0 -45 -35 -45q-72 0 -148.5 -74.5t-76.5 -247.5v-235q0 -169 -63 -249.5t-248 -80.5z" />
    <glyph glyph-name="asciitilde" unicode="~" horiz-adv-x="1280" 
d="M112 628q-24 8 -13 43q35 110 116 174.5t196 64.5t278.5 -120t238.5 -120q69 0 113 45t69 101q13 30 37 21l43 -15q24 -8 13 -43q-35 -110 -116 -174.5t-196 -64.5t-278.5 120t-238.5 120q-69 0 -113 -45t-69 -101q-13 -30 -37 -21z" />
    <glyph glyph-name="nbsp" unicode="&#xa0;" horiz-adv-x="682" 
 />
    <glyph glyph-name="exclamdown" unicode="&#xa1;" horiz-adv-x="600" 
d="M248 -384q-50 0 -50 55l21 944q0 45 45 45h72q45 0 45 -45l21 -944q0 -55 -50 -55h-104zM244 838q-45 0 -45 45v122q0 45 45 45h112q45 0 45 -45v-122q0 -45 -45 -45h-112z" />
    <glyph glyph-name="cent" unicode="&#xa2;" horiz-adv-x="1110" 
d="M128 525q0 235 108.5 377.5t299.5 161.5v188q0 45 35 45h50q35 0 35 -45v-187q122 -8 200 -60.5t116 -112.5q21 -33 -9 -53l-63 -41q-30 -21 -60 27q-29 46 -74 74.5t-110 34.5v-818q72 8 123 45t78 87q26 47 59 27l67 -40q30 -18 9 -54q-25 -43 -107 -114.5t-229 -81.5
v-187q0 -45 -35 -45h-50q-35 0 -35 45v188q-191 19 -299.5 161.5t-108.5 377.5zM314 525q0 -210 65.5 -298.5t156.5 -107.5v812q-91 -19 -156.5 -107.5t-65.5 -298.5z" />
    <glyph glyph-name="sterling" unicode="&#xa3;" horiz-adv-x="1110" 
d="M134 0q-55 0 -55 45v57q0 36 35 73q30 32 98.5 104t68.5 196v153h-158q-44 0 -44 45v74q0 45 45 45h157v221q0 237 107 338t302 101q108 0 186 -33t125 -80q35 -35 13 -61l-45 -52q-30 -35 -67 2q-32 32 -87.5 53t-133.5 21q-96 0 -160 -52.5t-64 -214.5v-243h285
q45 0 45 -45v-74q0 -45 -44 -45h-286v-133q0 -141 -46.5 -221t-91.5 -108v-4q27 2 80 2h572q55 0 55 -45v-74q0 -45 -55 -45h-837z" />
    <glyph glyph-name="currency" unicode="&#xa4;" horiz-adv-x="1110" 
d="M116 289q-26 24 5 57l131 140q-74 106 -74 242t74 242l-131 140q-31 33 -5 57l37 34q26 24 56 -9l124 -133q104 85 248 85t248 -85l124 133q30 33 56 9l37 -34q26 -24 -5 -57l-131 -140q74 -106 74 -242t-74 -242l131 -140q31 -33 5 -57l-37 -34q-26 -24 -56 9l-124 133
q-104 -85 -248 -85t-248 85l-124 -133q-30 -33 -56 -9zM311 728q0 -117 75 -201.5t195 -84.5t195 84.5t75 201.5t-75 201.5t-195 84.5t-195 -84.5t-75 -201.5z" />
    <glyph glyph-name="yen" unicode="&#xa5;" horiz-adv-x="1110" 
d="M53 1368q-38 66 27 66h92q47 0 72 -49l226 -437q40 -77 66.5 -128t54.5 -111h4q28 60 54.5 111t66.5 128l226 437q25 49 72 49h92q65 0 27 -66l-365 -629h176q45 0 45 -45v-59q0 -45 -45 -45h-263v-181h263q45 0 45 -45v-59q0 -45 -45 -45h-263v-215q0 -45 -45 -45h-86
q-45 0 -45 45v215h-273q-45 0 -45 45v59q0 45 45 45h273v181h-273q-45 0 -45 45v59q0 45 45 45h186z" />
    <glyph glyph-name="brokenbar" unicode="&#xa6;" horiz-adv-x="590" 
d="M265 -338q-35 0 -35 45v644q0 45 35 45h60q35 0 35 -45v-644q0 -45 -35 -45h-60zM265 660q-35 0 -35 45v644q0 45 35 45h60q35 0 35 -45v-644q0 -45 -35 -45h-60z" />
    <glyph glyph-name="section" unicode="&#xa7;" horiz-adv-x="1160" 
d="M110 581q0 122 74.5 212.5t172.5 163.5q-83 103 -83 198q0 138 92 223.5t240 85.5q100 0 170 -33.5t106 -80.5q26 -33 4 -55l-55 -56q-20 -20 -45 14q-21 28 -63.5 54.5t-107.5 26.5q-83 0 -121 -42.5t-38 -106.5q0 -123 297 -325t297 -351q0 -122 -74.5 -212.5
t-172.5 -163.5q83 -103 83 -198q0 -138 -92 -223.5t-240 -85.5q-100 0 -170 33.5t-106 80.5q-26 33 -4 55l55 56q20 20 45 -14q21 -28 63.5 -54.5t107.5 -26.5q83 0 121 42.5t38 106.5q0 123 -297 325t-297 351zM281 646q0 -111 190.5 -242.5t248.5 -184.5l94 85
q65 59 65 140q0 111 -190.5 242.5t-248.5 184.5l-94 -85q-65 -59 -65 -140z" />
    <glyph glyph-name="dieresis" unicode="&#xa8;" horiz-adv-x="614" 
d="M61 1240q-45 0 -45 45v86q0 45 45 45h86q45 0 45 -45v-86q0 -45 -45 -45h-86zM467 1240q-45 0 -45 45v86q0 45 45 45h86q45 0 45 -45v-86q0 -45 -45 -45h-86z" />
    <glyph glyph-name="copyright" unicode="&#xa9;" horiz-adv-x="1654" 
d="M80 717q0 152 59.5 290t159.5 238t238 159.5t290 59.5t290 -59.5t238 -159.5t159.5 -238t59.5 -290t-59.5 -290t-159.5 -238t-238 -159.5t-290 -59.5t-290 59.5t-238 159.5t-159.5 238t-59.5 290zM180 717q0 -132 51.5 -251.5t138 -206t206 -140t251.5 -53.5t251.5 53.5
t206 140t138 206t51.5 251.5t-51.5 251.5t-138 206t-206 140t-251.5 53.5t-251.5 -53.5t-206 -140t-138 -206t-51.5 -251.5zM430 717q0 203 103 318t292 115q110 0 184.5 -38t105.5 -103q16 -34 -5 -46l-58 -32q-23 -13 -41 22q-19 37 -59 64.5t-122 27.5q-145 0 -207.5 -83
t-62.5 -245t62.5 -245t207.5 -83q84 0 130.5 34.5t69.5 76.5q18 33 42 20l60 -33q21 -12 3 -47q-34 -67 -113.5 -111.5t-196.5 -44.5q-188 0 -291.5 115t-103.5 318z" />
    <glyph glyph-name="ordfeminine" unicode="&#xaa;" horiz-adv-x="738" 
d="M58 978q0 128 107 179t332 67v24q0 68 -32.5 104t-116.5 36q-66 0 -100 -14t-71 -47q-20 -18 -35 -2l-47 50q-16 17 10 39q55 46 124 62.5t137 16.5q136 0 199.5 -70.5t63.5 -201.5v-393q0 -29 -31 -29h-73q-26 0 -26 29v32h-2q-55 -42 -99.5 -57t-107.5 -15
q-104 0 -168 49.5t-64 140.5zM196 985q0 -43 26 -66t91 -23q41 0 87 10t97 44v169q-203 -13 -252 -51t-49 -83z" />
    <glyph glyph-name="guillemotleft" unicode="&#xab;" horiz-adv-x="1032" 
d="M140 517q-19 23 0 46l332 390q22 26 43 8l48 -43q19 -17 -3 -44l-282 -334l282 -334q22 -27 3 -44l-48 -43q-21 -18 -43 8zM490 517q-19 23 0 46l332 390q22 26 43 8l48 -43q19 -17 -3 -44l-282 -334l282 -334q22 -27 3 -44l-48 -43q-21 -18 -43 8z" />
    <glyph glyph-name="logicalnot" unicode="&#xac;" horiz-adv-x="1110" 
d="M125 808q-45 0 -45 35v50q0 35 45 35h860q45 0 45 -35v-420q0 -45 -35 -45h-50q-35 0 -35 45v335h-785z" />
    <glyph glyph-name="uni00AD" unicode="&#xad;" horiz-adv-x="680" 
d="M101 483q-45 0 -45 35v70q0 35 45 35h478q45 0 45 -35v-70q0 -35 -45 -35h-478z" />
    <glyph glyph-name="registered" unicode="&#xae;" horiz-adv-x="1654" 
d="M80 717q0 152 59.5 290t159.5 238t238 159.5t290 59.5t290 -59.5t238 -159.5t159.5 -238t59.5 -290t-59.5 -290t-159.5 -238t-238 -159.5t-290 -59.5t-290 59.5t-238 159.5t-159.5 238t-59.5 290zM180 717q0 -132 51.5 -251.5t138 -206t206 -140t251.5 -53.5t251.5 53.5
t206 140t138 206t51.5 251.5t-51.5 251.5t-138 206t-206 140t-251.5 53.5t-251.5 -53.5t-206 -140t-138 -206t-51.5 -251.5zM569 283q-29 0 -29 32v768q0 32 29 32h280q168 0 243 -63t75 -165q0 -90 -58.5 -152.5t-174.5 -76.5v-1q57 -35 77 -59t44 -64l131 -212
q24 -39 -11 -39h-76q-26 0 -40 23l-116 197q-23 39 -75.5 84.5t-125.5 45.5h-82v-318q0 -32 -29 -32h-62zM660 743h149q113 0 173 32.5t60 108.5q0 70 -55 95.5t-150 25.5h-177v-262z" />
    <glyph glyph-name="macron" unicode="&#xaf;" horiz-adv-x="614" 
d="M43 1240q-45 0 -45 35v40q0 35 45 35h528q45 0 45 -35v-40q0 -35 -45 -35h-528z" />
    <glyph glyph-name="degree" unicode="&#xb0;" horiz-adv-x="560" 
d="M80 1240q0 83 58.5 141.5t141.5 58.5t141.5 -58.5t58.5 -141.5t-58.5 -141.5t-141.5 -58.5t-141.5 58.5t-58.5 141.5zM180 1240q0 -42 29 -71t71 -29t71 29t29 71t-29 71t-71 29t-71 -29t-29 -71z" />
    <glyph glyph-name="plusminus" unicode="&#xb1;" horiz-adv-x="1280" 
d="M125 -60q-45 0 -45 35v50q0 35 45 35h1030q45 0 45 -35v-50q0 -35 -45 -35h-1030zM125 665q-45 0 -45 35v50q0 35 45 35h454v455q0 45 35 45h50q35 0 35 -45v-455h456q45 0 45 -35v-50q0 -35 -45 -35h-456v-455q0 -45 -35 -45h-50q-35 0 -35 45v455h-454z" />
    <glyph glyph-name="uni00B2" unicode="&#xb2;" horiz-adv-x="590" 
d="M78 712q-28 0 -28 23v41q0 21 17 38l204 205q99 101 118 142t19 97q0 37 -29.5 72.5t-89.5 35.5q-38 0 -76 -20.5t-60 -86.5q-9 -28 -31 -23l-57 13q-16 4 -7 44q15 68 73 120.5t154 52.5q134 0 190.5 -54.5t56.5 -156.5q0 -76 -42.5 -139t-132.5 -152l-145 -144v-3
q21 2 41 2h258q29 0 29 -23v-61q0 -23 -29 -23h-433z" />
    <glyph glyph-name="uni00B3" unicode="&#xb3;" horiz-adv-x="594" 
d="M70 789q-22 25 -9 39l42 44q18 19 42 -10q30 -37 64 -51.5t72 -14.5q82 0 114.5 40.5t32.5 94.5q0 58 -45.5 95t-99.5 37h-46q-23 0 -23 17v60q0 18 23 18h37q51 0 90 32.5t39 96.5q0 28 -31 53.5t-84 25.5q-43 0 -77 -12.5t-53 -34.5q-21 -24 -38 -8l-41 38
q-14 13 11 43q27 32 78.5 53t121.5 21q113 0 173 -44.5t60 -141.5q0 -71 -46.5 -112t-94.5 -52v-2q56 -8 113 -55.5t57 -129.5q0 -108 -68.5 -170.5t-205.5 -62.5q-79 0 -130 31t-78 62z" />
    <glyph glyph-name="acute" unicode="&#xb4;" horiz-adv-x="614" 
d="M229 1150q-50 0 -12 53l139 195q26 37 81 37h111q59 0 14 -52l-178 -204q-25 -29 -81 -29h-74z" />
    <glyph glyph-name="uni00B5" unicode="&#xb5;" horiz-adv-x="1160" 
d="M193 -417q-45 0 -45 45v1376q0 45 45 45h86q45 0 45 -45v-549q0 -155 72 -249t192 -94q96 0 175 88t79 256v549q0 45 45 45h86q45 0 45 -45v-960q0 -45 -45 -45h-84q-45 0 -45 45v80h-4q-66 -79 -132 -111t-136 -32t-130 32t-116 110h-4q2 -30 2 -60v-436q0 -45 -45 -45
h-86z" />
    <glyph glyph-name="paragraph" unicode="&#xb6;" horiz-adv-x="1022" 
d="M80 1084q0 142 104 246t246 104h95q35 0 35 -45v-1714q0 -45 -35 -45h-60q-35 0 -35 45v1059q-142 0 -246 104t-104 246zM785 -370q-35 0 -35 45v1714q0 45 35 45h60q35 0 35 -45v-1714q0 -45 -35 -45h-60z" />
    <glyph glyph-name="periodcentered" unicode="&#xb7;" horiz-adv-x="600" 
d="M244 619q-45 0 -45 45v122q0 45 45 45h112q45 0 45 -45v-122q0 -45 -45 -45h-112z" />
    <glyph glyph-name="cedilla" unicode="&#xb8;" horiz-adv-x="614" 
d="M127 -396q-21 6 -14 35l10 39q8 30 38 20q42 -14 84 -14q48 0 74.5 17t26.5 51q0 30 -30 44.5t-79 14.5h-28q-24 0 -24 25q0 38 10 55l64 109q13 22 40 22h60q32 0 19 -22l-56 -96v-3q79 -6 113.5 -53t34.5 -99q0 -76 -59.5 -120.5t-157.5 -44.5q-55 0 -126 20z" />
    <glyph glyph-name="uni00B9" unicode="&#xb9;" horiz-adv-x="480" 
d="M86 1315q-7 14 12 24q23 12 67.5 40.5t70.5 61.5q15 19 29 19h72q24 0 24 -23v-702q0 -23 -24 -23h-72q-24 0 -24 23v559q0 15 2 31h-2q-16 -20 -45 -41.5t-55 -31.5q-22 -9 -30 9z" />
    <glyph glyph-name="ordmasculine" unicode="&#xba;" horiz-adv-x="780" 
d="M58 1140q0 160 86 256.5t246 96.5t246 -96.5t86 -256.5t-86 -256t-246 -96t-246 96t-86 256zM196 1140q0 -130 54.5 -187t139.5 -57t139.5 57t54.5 187t-54.5 187.5t-139.5 57.5t-139.5 -57.5t-54.5 -187.5z" />
    <glyph glyph-name="guillemotright" unicode="&#xbb;" horiz-adv-x="1032" 
d="M157 162q-19 17 3 44l282 334l-282 334q-22 27 -3 44l48 43q21 18 43 -8l332 -390q19 -23 0 -46l-332 -390q-22 -26 -43 -8zM507 162q-19 17 3 44l282 334l-282 334q-22 27 -3 44l48 43q21 18 43 -8l332 -390q19 -23 0 -46l-332 -390q-22 -26 -43 -8z" />
    <glyph glyph-name="onequarter" unicode="&#xbc;" horiz-adv-x="1736" 
d="M206 1315q-7 14 12 24q23 12 67.5 40.5t70.5 61.5q15 19 29 19h72q24 0 24 -23v-702q0 -23 -24 -23h-72q-24 0 -24 23v559q0 15 2 31h-2q-16 -20 -45 -41.5t-55 -31.5q-22 -9 -30 9zM1098 173q-24 0 -24 23v68q0 16 13 36l281 429q12 19 29 19h81q24 0 24 -23v-445h70
q23 0 23 -23v-61q0 -23 -22 -23h-71v-150q0 -23 -23 -23h-74q-23 0 -23 23v150h-284zM1193 280h189v272q0 16 3 31h-3zM378 -50q-30 18 -6 56l938 1501q24 38 54 20l42 -27q30 -18 6 -56l-938 -1501q-24 -38 -54 -20z" />
    <glyph glyph-name="onehalf" unicode="&#xbd;" horiz-adv-x="1736" 
d="M1137 0q-28 0 -28 23v41q0 21 17 38l204 205q99 101 118 142t19 97q0 37 -29.5 72.5t-89.5 35.5q-38 0 -76 -20.5t-60 -86.5q-9 -28 -31 -23l-57 13q-16 4 -7 44q15 68 73 120.5t154 52.5q134 0 190.5 -54.5t56.5 -156.5q0 -76 -42.5 -139t-132.5 -152l-145 -144v-3
q21 2 41 2h258q29 0 29 -23v-61q0 -23 -29 -23h-433zM206 1315q-7 14 12 24q23 12 67.5 40.5t70.5 61.5q15 19 29 19h72q24 0 24 -23v-702q0 -23 -24 -23h-72q-24 0 -24 23v559q0 15 2 31h-2q-16 -20 -45 -41.5t-55 -31.5q-22 -9 -30 9zM378 -50q-30 18 -6 56l938 1501
q24 38 54 20l42 -27q30 -18 6 -56l-938 -1501q-24 -38 -54 -20z" />
    <glyph glyph-name="threequarters" unicode="&#xbe;" horiz-adv-x="1736" 
d="M1071 173q-24 0 -24 23v68q0 16 13 36l281 429q12 19 29 19h81q24 0 24 -23v-445h70q23 0 23 -23v-61q0 -23 -22 -23h-71v-150q0 -23 -23 -23h-74q-23 0 -23 23v150h-284zM1166 280h189v272q0 16 3 31h-3zM161 789q-22 25 -9 39l42 44q18 19 42 -10q30 -37 64 -51.5
t72 -14.5q82 0 114.5 40.5t32.5 94.5q0 58 -45.5 95t-99.5 37h-46q-23 0 -23 17v60q0 18 23 18h37q51 0 90 32.5t39 96.5q0 28 -31 53.5t-84 25.5q-43 0 -77 -12.5t-53 -34.5q-21 -24 -38 -8l-41 38q-14 13 11 43q27 32 78.5 53t121.5 21q113 0 173 -44.5t60 -141.5
q0 -71 -46.5 -112t-94.5 -52v-2q56 -8 113 -55.5t57 -129.5q0 -108 -68.5 -170.5t-205.5 -62.5q-79 0 -130 31t-78 62zM378 -50q-30 18 -6 56l938 1501q24 38 54 20l42 -27q30 -18 6 -56l-938 -1501q-24 -38 -54 -20z" />
    <glyph glyph-name="questiondown" unicode="&#xbf;" horiz-adv-x="1016" 
d="M106 -38q0 143 166.5 327.5t166.5 322.5v23q0 45 45 45h86q45 0 45 -45v-37q0 -169 -156.5 -347.5t-156.5 -294.5q0 -122 57 -171t157 -49q110 0 165.5 40t84.5 109q23 54 65 35l74 -34q31 -14 3 -86q-27 -67 -118.5 -140.5t-266.5 -73.5q-215 0 -316 102.5t-101 273.5z
M472 838q-45 0 -45 45v122q0 45 45 45h112q45 0 45 -45v-122q0 -45 -45 -45h-112z" />
    <glyph glyph-name="Agrave" unicode="&#xc0;" horiz-adv-x="1360" 
d="M510 1733q-63 52 14 52h157q49 0 81 -37l133 -155q45 -53 -12 -53h-94q-46 0 -81 29zM98 0q-52 0 -27 66l498 1307q23 61 66 61h140q43 0 66 -61l498 -1307q25 -66 -27 -66h-102q-53 0 -72 49l-125 331h-616l-125 -331q-19 -49 -72 -49h-102zM460 544h490l-153 400
q-21 56 -41.5 124t-48.5 193h-4q-28 -125 -48.5 -193t-41.5 -124z" />
    <glyph glyph-name="Aacute" unicode="&#xc1;" horiz-adv-x="1360" 
d="M585 1540q-57 0 -12 53l133 155q32 37 81 37h157q77 0 14 -52l-198 -164q-35 -29 -81 -29h-94zM98 0q-52 0 -27 66l498 1307q23 61 66 61h140q43 0 66 -61l498 -1307q25 -66 -27 -66h-102q-53 0 -72 49l-125 331h-616l-125 -331q-19 -49 -72 -49h-102zM460 544h490
l-153 400q-21 56 -41.5 124t-48.5 193h-4q-28 -125 -48.5 -193t-41.5 -124z" />
    <glyph glyph-name="Acircumflex" unicode="&#xc2;" horiz-adv-x="1360" 
d="M327 1580q-15 32 26 51l243 113q39 18 64 18h70q25 0 64 -18l243 -113q41 -19 26 -51l-23 -50q-15 -32 -56 -13l-288 132h-2l-288 -132q-41 -19 -56 13zM98 0q-52 0 -27 66l498 1307q23 61 66 61h140q43 0 66 -61l498 -1307q25 -66 -27 -66h-102q-53 0 -72 49l-125 331
h-616l-125 -331q-19 -49 -72 -49h-102zM460 544h490l-153 400q-21 56 -41.5 124t-48.5 193h-4q-28 -125 -48.5 -193t-41.5 -124z" />
    <glyph glyph-name="Atilde" unicode="&#xc3;" horiz-adv-x="1360" 
d="M334 1575q-23 13 -9 45q28 65 85.5 108t146.5 43q75 0 159 -49t128 -49q48 0 81 27t49 52q19 29 38 18l42 -25q23 -13 9 -45q-28 -65 -85.5 -108t-146.5 -43q-75 0 -159 49t-128 49q-48 0 -81 -27t-49 -52q-19 -29 -38 -18zM98 0q-52 0 -27 66l498 1307q23 61 66 61h140
q43 0 66 -61l498 -1307q25 -66 -27 -66h-102q-53 0 -72 49l-125 331h-616l-125 -331q-19 -49 -72 -49h-102zM460 544h490l-153 400q-21 56 -41.5 124t-48.5 193h-4q-28 -125 -48.5 -193t-41.5 -124z" />
    <glyph glyph-name="Adieresis" unicode="&#xc4;" horiz-adv-x="1360" 
d="M98 0q-52 0 -27 66l498 1307q23 61 66 61h140q43 0 66 -61l498 -1307q25 -66 -27 -66h-102q-53 0 -72 49l-125 331h-616l-125 -331q-19 -49 -72 -49h-102zM460 544h490l-153 400q-21 56 -41.5 124t-48.5 193h-4q-28 -125 -48.5 -193t-41.5 -124zM395 1550q-45 0 -45 45
v92q0 45 45 45h92q45 0 45 -45v-92q0 -45 -45 -45h-92zM873 1550q-45 0 -45 45v92q0 45 45 45h92q45 0 45 -45v-92q0 -45 -45 -45h-92z" />
    <glyph glyph-name="Aring" unicode="&#xc5;" horiz-adv-x="1360" 
d="M498 1647q0 75 52 124t130 49t130 -50t52 -123t-52 -123t-130 -50t-130 49t-52 124zM576 1647q0 -42 29 -70.5t75 -28.5t75 28.5t29 70.5t-29 70.5t-75 28.5t-75 -28.5t-29 -70.5zM98 0q-52 0 -27 66l498 1307q23 61 66 61h140q43 0 66 -61l498 -1307q25 -66 -27 -66
h-102q-53 0 -72 49l-125 331h-616l-125 -331q-19 -49 -72 -49h-102zM460 544h490l-153 400q-21 56 -41.5 124t-48.5 193h-4q-28 -125 -48.5 -193t-41.5 -124z" />
    <glyph glyph-name="AE" unicode="&#xc6;" horiz-adv-x="1957" 
d="M105 0q-59 0 -27 66l644 1316q25 52 68 52h1024q55 0 55 -45v-74q0 -45 -55 -45h-693v-444h633q55 0 55 -45v-74q0 -45 -55 -45h-633v-498h723q55 0 55 -45v-74q0 -45 -55 -45h-865q-50 0 -50 55v325h-489l-160 -331q-24 -49 -68 -49h-107zM521 544h408v726h-70
q-17 -59 -37.5 -106.5t-51.5 -110.5z" />
    <glyph glyph-name="Ccedilla" unicode="&#xc7;" horiz-adv-x="1402" 
d="M92 717q0 350 173.5 548.5t498.5 198.5q190 0 314 -64.5t178 -176.5q28 -58 -9 -80l-79 -46q-40 -23 -71 38q-33 63 -108 118t-215 55q-250 0 -363.5 -155.5t-113.5 -435.5t113.5 -435.5t363.5 -155.5q144 0 230.5 66t125.5 138q31 58 72 35l83 -47q36 -21 6 -80
q-59 -115 -192 -191.5t-335 -76.5q-325 0 -498.5 198.5t-173.5 548.5zM586 -396q-21 6 -14 35l10 39q8 30 38 20q42 -14 84 -14q48 0 74.5 17t26.5 51q0 30 -30 44.5t-79 14.5h-28q-24 0 -24 25q0 38 10 55l64 109q13 22 40 22h60q32 0 19 -22l-56 -96v-3q79 -6 113.5 -53
t34.5 -99q0 -76 -59.5 -120.5t-157.5 -44.5q-55 0 -126 20z" />
    <glyph glyph-name="Egrave" unicode="&#xc8;" horiz-adv-x="1270" 
d="M505 1733q-63 52 14 52h157q49 0 81 -37l133 -155q45 -53 -12 -53h-94q-46 0 -81 29zM220 0q-50 0 -50 55v1324q0 55 50 55h875q55 0 55 -45v-74q0 -45 -55 -45h-733v-444h673q55 0 55 -45v-74q0 -45 -55 -45h-673v-498h763q55 0 55 -45v-74q0 -45 -55 -45h-905z" />
    <glyph glyph-name="Eacute" unicode="&#xc9;" horiz-adv-x="1270" 
d="M580 1540q-57 0 -12 53l133 155q32 37 81 37h157q77 0 14 -52l-198 -164q-35 -29 -81 -29h-94zM220 0q-50 0 -50 55v1324q0 55 50 55h875q55 0 55 -45v-74q0 -45 -55 -45h-733v-444h673q55 0 55 -45v-74q0 -45 -55 -45h-673v-498h763q55 0 55 -45v-74q0 -45 -55 -45h-905
z" />
    <glyph glyph-name="Ecircumflex" unicode="&#xca;" horiz-adv-x="1270" 
d="M322 1580q-15 32 26 51l243 113q39 18 64 18h70q25 0 64 -18l243 -113q41 -19 26 -51l-23 -50q-15 -32 -56 -13l-288 132h-2l-288 -132q-41 -19 -56 13zM220 0q-50 0 -50 55v1324q0 55 50 55h875q55 0 55 -45v-74q0 -45 -55 -45h-733v-444h673q55 0 55 -45v-74
q0 -45 -55 -45h-673v-498h763q55 0 55 -45v-74q0 -45 -55 -45h-905z" />
    <glyph glyph-name="Edieresis" unicode="&#xcb;" horiz-adv-x="1270" 
d="M390 1550q-45 0 -45 45v92q0 45 45 45h92q45 0 45 -45v-92q0 -45 -45 -45h-92zM868 1550q-45 0 -45 45v92q0 45 45 45h92q45 0 45 -45v-92q0 -45 -45 -45h-92zM220 0q-50 0 -50 55v1324q0 55 50 55h875q55 0 55 -45v-74q0 -45 -55 -45h-733v-444h673q55 0 55 -45v-74
q0 -45 -55 -45h-673v-498h763q55 0 55 -45v-74q0 -45 -55 -45h-905z" />
    <glyph glyph-name="Igrave" unicode="&#xcc;" horiz-adv-x="532" 
d="M96 1733q-63 52 14 52h157q49 0 81 -37l133 -155q45 -53 -12 -53h-94q-46 0 -81 29zM220 0q-50 0 -50 55v1324q0 55 50 55h92q50 0 50 -55v-1324q0 -55 -50 -55h-92z" />
    <glyph glyph-name="Iacute" unicode="&#xcd;" horiz-adv-x="532" 
d="M171 1540q-57 0 -12 53l133 155q32 37 81 37h157q77 0 14 -52l-198 -164q-35 -29 -81 -29h-94zM220 0q-50 0 -50 55v1324q0 55 50 55h92q50 0 50 -55v-1324q0 -55 -50 -55h-92z" />
    <glyph glyph-name="Icircumflex" unicode="&#xce;" horiz-adv-x="532" 
d="M-87 1580q-15 32 26 51l243 113q39 18 64 18h70q25 0 64 -18l243 -113q41 -19 26 -51l-23 -50q-15 -32 -56 -13l-288 132h-2l-288 -132q-41 -19 -56 13zM220 0q-50 0 -50 55v1324q0 55 50 55h92q50 0 50 -55v-1324q0 -55 -50 -55h-92z" />
    <glyph glyph-name="Idieresis" unicode="&#xcf;" horiz-adv-x="532" 
d="M220 0q-50 0 -50 55v1324q0 55 50 55h92q50 0 50 -55v-1324q0 -55 -50 -55h-92zM23 1550q-45 0 -45 45v92q0 45 45 45h92q45 0 45 -45v-92q0 -45 -45 -45h-92zM417 1550q-45 0 -45 45v92q0 45 45 45h92q45 0 45 -45v-92q0 -45 -45 -45h-92z" />
    <glyph glyph-name="Eth" unicode="&#xd0;" horiz-adv-x="1486" 
d="M95 654q-55 0 -55 45v74q0 45 55 45h125v561q0 55 50 55h369q424 0 589.5 -187.5t165.5 -527.5t-165.5 -529.5t-589.5 -189.5h-369q-50 0 -50 55v599h-125zM412 164h218q330 0 444.5 140t114.5 415t-114.5 414t-444.5 139h-218v-454h311q55 0 55 -45v-74q0 -45 -55 -45
h-311v-490z" />
    <glyph glyph-name="Ntilde" unicode="&#xd1;" horiz-adv-x="1438" 
d="M373 1575q-23 13 -9 45q28 65 85.5 108t146.5 43q75 0 159 -49t128 -49q48 0 81 27t49 52q19 29 38 18l42 -25q23 -13 9 -45q-28 -65 -85.5 -108t-146.5 -43q-75 0 -159 49t-128 49q-48 0 -81 -27t-49 -52q-19 -29 -38 -18zM220 0q-50 0 -50 55v1324q0 55 50 55h128
q70 0 100 -50l626 -1049h4q-2 40 -2 80v964q0 55 50 55h92q50 0 50 -55v-1324q0 -55 -50 -55h-88q-70 0 -100 50l-666 1113h-4q2 -40 2 -80v-1028q0 -55 -50 -55h-92z" />
    <glyph glyph-name="Ograve" unicode="&#xd2;" horiz-adv-x="1524" 
d="M592 1733q-63 52 14 52h157q49 0 81 -37l133 -155q45 -53 -12 -53h-94q-46 0 -81 29zM92 717q0 350 172.5 548.5t497.5 198.5t497.5 -198.5t172.5 -548.5t-172.5 -548.5t-497.5 -198.5t-497.5 198.5t-172.5 548.5zM297 717q0 -280 115 -435.5t350 -155.5t350 155.5
t115 435.5t-115 435.5t-350 155.5t-350 -155.5t-115 -435.5z" />
    <glyph glyph-name="Oacute" unicode="&#xd3;" horiz-adv-x="1524" 
d="M92 717q0 350 172.5 548.5t497.5 198.5t497.5 -198.5t172.5 -548.5t-172.5 -548.5t-497.5 -198.5t-497.5 198.5t-172.5 548.5zM297 717q0 -280 115 -435.5t350 -155.5t350 155.5t115 435.5t-115 435.5t-350 155.5t-350 -155.5t-115 -435.5zM667 1540q-57 0 -12 53
l133 155q32 37 81 37h157q77 0 14 -52l-198 -164q-35 -29 -81 -29h-94z" />
    <glyph glyph-name="Ocircumflex" unicode="&#xd4;" horiz-adv-x="1524" 
d="M409 1580q-15 32 26 51l243 113q39 18 64 18h70q25 0 64 -18l243 -113q41 -19 26 -51l-23 -50q-15 -32 -56 -13l-288 132h-2l-288 -132q-41 -19 -56 13zM92 717q0 350 172.5 548.5t497.5 198.5t497.5 -198.5t172.5 -548.5t-172.5 -548.5t-497.5 -198.5t-497.5 198.5
t-172.5 548.5zM297 717q0 -280 115 -435.5t350 -155.5t350 155.5t115 435.5t-115 435.5t-350 155.5t-350 -155.5t-115 -435.5z" />
    <glyph glyph-name="Otilde" unicode="&#xd5;" horiz-adv-x="1524" 
d="M416 1575q-23 13 -9 45q28 65 85.5 108t146.5 43q75 0 159 -49t128 -49q48 0 81 27t49 52q19 29 38 18l42 -25q23 -13 9 -45q-28 -65 -85.5 -108t-146.5 -43q-75 0 -159 49t-128 49q-48 0 -81 -27t-49 -52q-19 -29 -38 -18zM92 717q0 350 172.5 548.5t497.5 198.5
t497.5 -198.5t172.5 -548.5t-172.5 -548.5t-497.5 -198.5t-497.5 198.5t-172.5 548.5zM297 717q0 -280 115 -435.5t350 -155.5t350 155.5t115 435.5t-115 435.5t-350 155.5t-350 -155.5t-115 -435.5z" />
    <glyph glyph-name="Odieresis" unicode="&#xd6;" horiz-adv-x="1524" 
d="M92 717q0 350 172.5 548.5t497.5 198.5t497.5 -198.5t172.5 -548.5t-172.5 -548.5t-497.5 -198.5t-497.5 198.5t-172.5 548.5zM297 717q0 -280 115 -435.5t350 -155.5t350 155.5t115 435.5t-115 435.5t-350 155.5t-350 -155.5t-115 -435.5zM477 1550q-45 0 -45 45v92
q0 45 45 45h92q45 0 45 -45v-92q0 -45 -45 -45h-92zM955 1550q-45 0 -45 45v92q0 45 45 45h92q45 0 45 -45v-92q0 -45 -45 -45h-92z" />
    <glyph glyph-name="multiply" unicode="&#xd7;" horiz-adv-x="1280" 
d="M250 347q-25 25 7 56l321 321l-321 322q-32 32 -7 56l36 35q25 25 56 -7l321 -321l323 323q32 32 56 7l36 -35q25 -25 -8 -57l-322 -323l322 -322q32 -32 8 -57l-36 -35q-25 -25 -56 7l-323 323l-321 -321q-32 -32 -56 -7z" />
    <glyph glyph-name="Oslash" unicode="&#xd8;" horiz-adv-x="1524" 
d="M125 717q0 350 172.5 548.5t497.5 198.5q276 0 442 -143l121 134q37 41 70 10l45 -40q33 -30 -3 -71l-133 -147q128 -189 128 -490q0 -350 -172.5 -548.5t-497.5 -198.5q-276 0 -442 143l-121 -134q-37 -41 -70 -10l-45 40q-33 30 3 71l133 147q-128 189 -128 490z
M330 717q0 -201 59 -338l727 808q-114 121 -321 121q-235 0 -350 -155.5t-115 -435.5zM474 247q114 -121 321 -121q235 0 350 155.5t115 435.5q0 201 -59 338z" />
    <glyph glyph-name="Ugrave" unicode="&#xd9;" horiz-adv-x="1402" 
d="M531 1733q-63 52 14 52h157q49 0 81 -37l133 -155q45 -53 -12 -53h-94q-46 0 -81 29zM170 547v832q0 55 50 55h92q50 0 50 -55v-802q0 -280 79.5 -365.5t259.5 -85.5t259.5 85.5t79.5 365.5v802q0 55 50 55h92q50 0 50 -55v-832q0 -317 -145.5 -447t-385.5 -130
t-385.5 130t-145.5 447z" />
    <glyph glyph-name="Uacute" unicode="&#xda;" horiz-adv-x="1402" 
d="M606 1540q-57 0 -12 53l133 155q32 37 81 37h157q77 0 14 -52l-198 -164q-35 -29 -81 -29h-94zM170 547v832q0 55 50 55h92q50 0 50 -55v-802q0 -280 79.5 -365.5t259.5 -85.5t259.5 85.5t79.5 365.5v802q0 55 50 55h92q50 0 50 -55v-832q0 -317 -145.5 -447t-385.5 -130
t-385.5 130t-145.5 447z" />
    <glyph glyph-name="Ucircumflex" unicode="&#xdb;" horiz-adv-x="1402" 
d="M348 1580q-15 32 26 51l243 113q39 18 64 18h70q25 0 64 -18l243 -113q41 -19 26 -51l-23 -50q-15 -32 -56 -13l-288 132h-2l-288 -132q-41 -19 -56 13zM170 547v832q0 55 50 55h92q50 0 50 -55v-802q0 -280 79.5 -365.5t259.5 -85.5t259.5 85.5t79.5 365.5v802
q0 55 50 55h92q50 0 50 -55v-832q0 -317 -145.5 -447t-385.5 -130t-385.5 130t-145.5 447z" />
    <glyph glyph-name="Udieresis" unicode="&#xdc;" horiz-adv-x="1402" 
d="M416 1550q-45 0 -45 45v92q0 45 45 45h92q45 0 45 -45v-92q0 -45 -45 -45h-92zM894 1550q-45 0 -45 45v92q0 45 45 45h92q45 0 45 -45v-92q0 -45 -45 -45h-92zM170 547v832q0 55 50 55h92q50 0 50 -55v-802q0 -280 79.5 -365.5t259.5 -85.5t259.5 85.5t79.5 365.5v802
q0 55 50 55h92q50 0 50 -55v-832q0 -317 -145.5 -447t-385.5 -130t-385.5 130t-145.5 447z" />
    <glyph glyph-name="Yacute" unicode="&#xdd;" horiz-adv-x="1302" 
d="M555 1540q-57 0 -12 53l133 155q32 37 81 37h157q77 0 14 -52l-198 -164q-35 -29 -81 -29h-94zM97 1368q-43 66 27 66h112q44 0 72 -49l254 -437q42 -72 72 -125.5t58 -113.5h4q28 60 58 113.5t72 125.5l254 437q28 49 72 49h112q70 0 27 -66l-501 -778v-535
q0 -55 -50 -55h-92q-50 0 -50 55v535z" />
    <glyph glyph-name="Thorn" unicode="&#xde;" horiz-adv-x="1244" 
d="M220 -8q-50 0 -50 55v1333q0 55 50 55h92q50 0 50 -55v-204h198q300 0 445 -100t145 -320t-145 -320t-445 -100h-198v-289q0 -55 -50 -55h-92zM362 500h216q180 0 273.5 53t93.5 203t-93.5 203t-273.5 53h-216v-512z" />
    <glyph glyph-name="germandbls" unicode="&#xdf;" horiz-adv-x="1216" 
d="M187 0q-45 0 -45 45v1094q0 202 130 278t314 76q197 0 303.5 -94t106.5 -219q0 -124 -59 -209t-196 -170v-3q174 -25 274.5 -143t100.5 -279q0 -178 -93 -285.5t-283 -107.5q-96 0 -156 13.5t-112 51.5q-33 24 -12 54l41 58q21 29 65 -2q20 -14 66 -29.5t99 -15.5
q91 0 145 69.5t54 199.5q0 155 -89 223t-254 68q-12 0 -20 25l-35 108q-6 19 14 33l80 55q80 55 137 117.5t57 161.5q0 91 -56 140.5t-168 49.5q-113 0 -195.5 -54.5t-82.5 -198.5v-1065q0 -45 -45 -45h-86z" />
    <glyph glyph-name="agrave" unicode="&#xe0;" horiz-adv-x="1067" 
d="M378 1383q-45 52 14 52h111q55 0 81 -37l139 -195q38 -53 -12 -53h-74q-56 0 -81 29zM85 280q0 178 166.5 261t497.5 97v68q0 94 -42.5 162.5t-168.5 68.5q-80 0 -128 -15.5t-87.5 -41t-75.5 -65.5q-27 -30 -51 -3l-52 60q-22 25 15 60q53 50 103 75t124.5 42.5
t151.5 17.5q209 0 298 -107.5t89 -294.5v-620q0 -45 -45 -45h-90q-39 0 -39 45v49h-2q-79 -62 -154.5 -86.5t-168.5 -24.5q-164 0 -252.5 78.5t-88.5 218.5zM267 276q0 -62 26 -99.5t72 -48t96 -10.5q77 0 146 15t142 79v295q-202 -15 -288 -36.5t-140 -74t-54 -120.5z" />
    <glyph glyph-name="aacute" unicode="&#xe1;" horiz-adv-x="1067" 
d="M448 1150q-50 0 -12 53l139 195q26 37 81 37h111q59 0 14 -52l-178 -204q-25 -29 -81 -29h-74zM85 280q0 178 166.5 261t497.5 97v68q0 94 -42.5 162.5t-168.5 68.5q-80 0 -128 -15.5t-87.5 -41t-75.5 -65.5q-27 -30 -51 -3l-52 60q-22 25 15 60q53 50 103 75t124.5 42.5
t151.5 17.5q209 0 298 -107.5t89 -294.5v-620q0 -45 -45 -45h-90q-39 0 -39 45v49h-2q-79 -62 -154.5 -86.5t-168.5 -24.5q-164 0 -252.5 78.5t-88.5 218.5zM267 276q0 -62 26 -99.5t72 -48t96 -10.5q77 0 146 15t142 79v295q-202 -15 -288 -36.5t-140 -74t-54 -120.5z" />
    <glyph glyph-name="acircumflex" unicode="&#xe2;" horiz-adv-x="1067" 
d="M262 1182q-23 26 12 55l206 171q31 26 56 26h50q25 0 56 -26l206 -171q35 -29 12 -55l-27 -31q-23 -26 -57 2l-214 179h-2l-214 -179q-34 -28 -57 -2zM85 280q0 178 166.5 261t497.5 97v68q0 94 -42.5 162.5t-168.5 68.5q-80 0 -128 -15.5t-87.5 -41t-75.5 -65.5
q-27 -30 -51 -3l-52 60q-22 25 15 60q53 50 103 75t124.5 42.5t151.5 17.5q209 0 298 -107.5t89 -294.5v-620q0 -45 -45 -45h-90q-39 0 -39 45v49h-2q-79 -62 -154.5 -86.5t-168.5 -24.5q-164 0 -252.5 78.5t-88.5 218.5zM267 276q0 -62 26 -99.5t72 -48t96 -10.5
q77 0 146 15t142 79v295q-202 -15 -288 -36.5t-140 -74t-54 -120.5z" />
    <glyph glyph-name="atilde" unicode="&#xe3;" horiz-adv-x="1067" 
d="M241 1175q-22 10 -12 44q21 71 71.5 116t130.5 45q68 0 138 -55t109 -55q43 0 64 22t37 60q13 30 37 20l39 -17q22 -10 12 -44q-21 -71 -71.5 -116t-130.5 -45q-68 0 -138 55t-109 55q-43 0 -64 -22t-37 -60q-13 -30 -37 -20zM85 280q0 178 166.5 261t497.5 97v68
q0 94 -42.5 162.5t-168.5 68.5q-80 0 -128 -15.5t-87.5 -41t-75.5 -65.5q-27 -30 -51 -3l-52 60q-22 25 15 60q53 50 103 75t124.5 42.5t151.5 17.5q209 0 298 -107.5t89 -294.5v-620q0 -45 -45 -45h-90q-39 0 -39 45v49h-2q-79 -62 -154.5 -86.5t-168.5 -24.5
q-164 0 -252.5 78.5t-88.5 218.5zM267 276q0 -62 26 -99.5t72 -48t96 -10.5q77 0 146 15t142 79v295q-202 -15 -288 -36.5t-140 -74t-54 -120.5z" />
    <glyph glyph-name="adieresis" unicode="&#xe4;" horiz-adv-x="1067" 
d="M85 280q0 178 166.5 261t497.5 97v68q0 94 -42.5 162.5t-168.5 68.5q-80 0 -128 -15.5t-87.5 -41t-75.5 -65.5q-27 -30 -51 -3l-52 60q-22 25 15 60q53 50 103 75t124.5 42.5t151.5 17.5q209 0 298 -107.5t89 -294.5v-620q0 -45 -45 -45h-90q-39 0 -39 45v49h-2
q-79 -62 -154.5 -86.5t-168.5 -24.5q-164 0 -252.5 78.5t-88.5 218.5zM267 276q0 -62 26 -99.5t72 -48t96 -10.5q77 0 146 15t142 79v295q-202 -15 -288 -36.5t-140 -74t-54 -120.5zM259 1240q-45 0 -45 45v86q0 45 45 45h86q45 0 45 -45v-86q0 -45 -45 -45h-86zM665 1240
q-45 0 -45 45v86q0 45 45 45h86q45 0 45 -45v-86q0 -45 -45 -45h-86z" />
    <glyph glyph-name="aring" unicode="&#xe5;" horiz-adv-x="1067" 
d="M358 1313q0 75 52.5 127.5t127.5 52.5t127.5 -52.5t52.5 -127.5t-52.5 -127.5t-127.5 -52.5t-127.5 52.5t-52.5 127.5zM434 1313q0 -44 30 -74t74 -30t74 30t30 74t-30 74t-74 30t-74 -30t-30 -74zM85 280q0 178 166.5 261t497.5 97v68q0 94 -42.5 162.5t-168.5 68.5
q-80 0 -128 -15.5t-87.5 -41t-75.5 -65.5q-27 -30 -51 -3l-52 60q-22 25 15 60q53 50 103 75t124.5 42.5t151.5 17.5q209 0 298 -107.5t89 -294.5v-620q0 -45 -45 -45h-90q-39 0 -39 45v49h-2q-79 -62 -154.5 -86.5t-168.5 -24.5q-164 0 -252.5 78.5t-88.5 218.5zM267 276
q0 -62 26 -99.5t72 -48t96 -10.5q77 0 146 15t142 79v295q-202 -15 -288 -36.5t-140 -74t-54 -120.5z" />
    <glyph glyph-name="ae" unicode="&#xe6;" horiz-adv-x="1729" 
d="M85 280q0 178 164 261t490 97v68q0 94 -42.5 162.5t-163.5 68.5q-92 0 -139.5 -19.5t-79.5 -41.5t-67 -61q-27 -30 -51 -3l-52 60q-22 25 15 60q45 43 94 68.5t128.5 46t151.5 20.5q101 0 185.5 -30t135.5 -124h3q79 95 167.5 124.5t178.5 29.5q186 0 311.5 -134.5
t125.5 -429.5q0 -45 -41 -45h-680q16 -193 100.5 -268.5t191.5 -75.5q112 0 172.5 39t88.5 77q32 42 62 16l59 -51q23 -20 0 -55q-19 -29 -107.5 -93t-274.5 -64q-126 0 -216 38t-162 135h-2q-113 -96 -211 -134.5t-199 -38.5q-159 0 -247.5 78.5t-88.5 218.5zM267 276
q0 -52 16.5 -84.5t53 -53t119.5 -20.5q96 0 163 24t140 91q-20 132 -20 274q-200 -15 -287.5 -39.5t-136 -77t-48.5 -114.5zM915 588h548q-4 140 -70 245.5t-194 105.5q-112 0 -190.5 -77.5t-93.5 -273.5z" />
    <glyph glyph-name="ccedilla" unicode="&#xe7;" horiz-adv-x="1026" 
d="M85 525q0 235 116.5 388.5t356.5 153.5q162 0 247.5 -57.5t123.5 -117.5q21 -33 -9 -53l-63 -41q-30 -21 -60 27q-29 46 -81.5 79t-157.5 33q-137 0 -212 -101t-75 -311t75 -311t212 -101q111 0 170 42.5t86 92.5q26 47 59 27l67 -40q30 -18 9 -54q-25 -43 -113.5 -120.5
t-277.5 -77.5q-240 0 -356.5 153.5t-116.5 388.5zM375 -396q-21 6 -14 35l10 39q8 30 38 20q42 -14 84 -14q48 0 74.5 17t26.5 51q0 30 -30 44.5t-79 14.5h-28q-24 0 -24 25q0 38 10 55l64 109q13 22 40 22h60q32 0 19 -22l-56 -96v-3q79 -6 113.5 -53t34.5 -99
q0 -76 -59.5 -120.5t-157.5 -44.5q-55 0 -126 20z" />
    <glyph glyph-name="egrave" unicode="&#xe8;" horiz-adv-x="1098" 
d="M404 1383q-45 52 14 52h111q55 0 81 -37l139 -195q38 -53 -12 -53h-74q-56 0 -81 29zM85 525q0 248 124 395t355 147q192 0 318.5 -134.5t126.5 -429.5q0 -45 -41 -45h-697q17 -193 104 -268.5t197 -75.5q116 0 178 39t91 77q32 42 62 16l59 -51q23 -20 0 -55
q-19 -29 -108.5 -93t-281.5 -64q-250 0 -368.5 147t-118.5 395zM267 588h565q-4 140 -72 245.5t-200 105.5q-116 0 -197 -77.5t-96 -273.5z" />
    <glyph glyph-name="eacute" unicode="&#xe9;" horiz-adv-x="1098" 
d="M474 1150q-50 0 -12 53l139 195q26 37 81 37h111q59 0 14 -52l-178 -204q-25 -29 -81 -29h-74zM85 525q0 248 124 395t355 147q192 0 318.5 -134.5t126.5 -429.5q0 -45 -41 -45h-697q17 -193 104 -268.5t197 -75.5q116 0 178 39t91 77q32 42 62 16l59 -51q23 -20 0 -55
q-19 -29 -108.5 -93t-281.5 -64q-250 0 -368.5 147t-118.5 395zM267 588h565q-4 140 -72 245.5t-200 105.5q-116 0 -197 -77.5t-96 -273.5z" />
    <glyph glyph-name="ecircumflex" unicode="&#xea;" horiz-adv-x="1098" 
d="M288 1182q-23 26 12 55l206 171q31 26 56 26h50q25 0 56 -26l206 -171q35 -29 12 -55l-27 -31q-23 -26 -57 2l-214 179h-2l-214 -179q-34 -28 -57 -2zM85 525q0 248 124 395t355 147q192 0 318.5 -134.5t126.5 -429.5q0 -45 -41 -45h-697q17 -193 104 -268.5t197 -75.5
q116 0 178 39t91 77q32 42 62 16l59 -51q23 -20 0 -55q-19 -29 -108.5 -93t-281.5 -64q-250 0 -368.5 147t-118.5 395zM267 588h565q-4 140 -72 245.5t-200 105.5q-116 0 -197 -77.5t-96 -273.5z" />
    <glyph glyph-name="edieresis" unicode="&#xeb;" horiz-adv-x="1098" 
d="M303 1240q-45 0 -45 45v86q0 45 45 45h86q45 0 45 -45v-86q0 -45 -45 -45h-86zM709 1240q-45 0 -45 45v86q0 45 45 45h86q45 0 45 -45v-86q0 -45 -45 -45h-86zM85 525q0 248 124 395t355 147q192 0 318.5 -134.5t126.5 -429.5q0 -45 -41 -45h-697q17 -193 104 -268.5
t197 -75.5q116 0 178 39t91 77q32 42 62 16l59 -51q23 -20 0 -55q-19 -29 -108.5 -93t-281.5 -64q-250 0 -368.5 147t-118.5 395zM267 588h565q-4 140 -72 245.5t-200 105.5q-116 0 -197 -77.5t-96 -273.5z" />
    <glyph glyph-name="eth" unicode="&#xf0;" horiz-adv-x="1153" 
d="M85 517q0 221 119.5 377t326.5 156q106 0 184 -32t124 -80h9q-38 102 -115.5 189t-117.5 121l-183 -93q-43 -22 -56 11l-18 46q-13 33 24 52l130 66q-33 20 -87 44q-44 21 -24 52l30 48q18 29 68 10q97 -36 155 -81l135 69q43 22 56 -11l18 -46q13 -33 -24 -52l-83 -43
q104 -88 206 -290t102 -444q0 -256 -118 -429.5t-372 -173.5q-240 0 -364.5 157t-124.5 377zM271 517q0 -205 83 -304.5t220 -99.5t220 102.5t83 301.5q0 180 -83 291.5t-220 111.5t-220 -101.5t-83 -301.5z" />
    <glyph glyph-name="ntilde" unicode="&#xf1;" horiz-adv-x="1128" 
d="M268 1175q-22 10 -12 44q21 71 71.5 116t130.5 45q68 0 138 -55t109 -55q43 0 64 22t37 60q13 30 37 20l39 -17q22 -10 12 -44q-21 -71 -71.5 -116t-130.5 -45q-68 0 -138 55t-109 55q-43 0 -64 -22t-37 -60q-13 -30 -37 -20zM187 0q-45 0 -45 45v960q0 45 45 45h84
q45 0 45 -45v-80h4q65 72 140 107t187 35q182 0 261.5 -102.5t79.5 -280.5v-639q0 -45 -45 -45h-86q-45 0 -45 45v591q0 196 -65 248.5t-165 52.5q-130 0 -197 -77.5t-67 -265.5v-549q0 -45 -45 -45h-86z" />
    <glyph glyph-name="ograve" unicode="&#xf2;" horiz-adv-x="1148" 
d="M414 1383q-45 52 14 52h111q55 0 81 -37l139 -195q38 -53 -12 -53h-74q-56 0 -81 29zM85 525q0 235 124.5 388.5t364.5 153.5t364.5 -153.5t124.5 -388.5t-124.5 -388.5t-364.5 -153.5t-364.5 153.5t-124.5 388.5zM271 525q0 -210 83 -311t220 -101t220 101t83 311
t-83 311t-220 101t-220 -101t-83 -311z" />
    <glyph glyph-name="oacute" unicode="&#xf3;" horiz-adv-x="1148" 
d="M85 525q0 235 124.5 388.5t364.5 153.5t364.5 -153.5t124.5 -388.5t-124.5 -388.5t-364.5 -153.5t-364.5 153.5t-124.5 388.5zM271 525q0 -210 83 -311t220 -101t220 101t83 311t-83 311t-220 101t-220 -101t-83 -311zM484 1150q-50 0 -12 53l139 195q26 37 81 37h111
q59 0 14 -52l-178 -204q-25 -29 -81 -29h-74z" />
    <glyph glyph-name="ocircumflex" unicode="&#xf4;" horiz-adv-x="1148" 
d="M298 1182q-23 26 12 55l206 171q31 26 56 26h50q25 0 56 -26l206 -171q35 -29 12 -55l-27 -31q-23 -26 -57 2l-214 179h-2l-214 -179q-34 -28 -57 -2zM85 525q0 235 124.5 388.5t364.5 153.5t364.5 -153.5t124.5 -388.5t-124.5 -388.5t-364.5 -153.5t-364.5 153.5
t-124.5 388.5zM271 525q0 -210 83 -311t220 -101t220 101t83 311t-83 311t-220 101t-220 -101t-83 -311z" />
    <glyph glyph-name="otilde" unicode="&#xf5;" horiz-adv-x="1148" 
d="M277 1175q-22 10 -12 44q21 71 71.5 116t130.5 45q68 0 138 -55t109 -55q43 0 64 22t37 60q13 30 37 20l39 -17q22 -10 12 -44q-21 -71 -71.5 -116t-130.5 -45q-68 0 -138 55t-109 55q-43 0 -64 -22t-37 -60q-13 -30 -37 -20zM85 525q0 235 124.5 388.5t364.5 153.5
t364.5 -153.5t124.5 -388.5t-124.5 -388.5t-364.5 -153.5t-364.5 153.5t-124.5 388.5zM271 525q0 -210 83 -311t220 -101t220 101t83 311t-83 311t-220 101t-220 -101t-83 -311z" />
    <glyph glyph-name="odieresis" unicode="&#xf6;" horiz-adv-x="1148" 
d="M85 525q0 235 124.5 388.5t364.5 153.5t364.5 -153.5t124.5 -388.5t-124.5 -388.5t-364.5 -153.5t-364.5 153.5t-124.5 388.5zM271 525q0 -210 83 -311t220 -101t220 101t83 311t-83 311t-220 101t-220 -101t-83 -311zM328 1240q-45 0 -45 45v86q0 45 45 45h86
q45 0 45 -45v-86q0 -45 -45 -45h-86zM734 1240q-45 0 -45 45v86q0 45 45 45h86q45 0 45 -45v-86q0 -45 -45 -45h-86z" />
    <glyph glyph-name="divide" unicode="&#xf7;" horiz-adv-x="1280" 
d="M584 235q-45 0 -45 45v122q0 45 45 45h112q45 0 45 -45v-122q0 -45 -45 -45h-112zM584 1003q-45 0 -45 45v122q0 45 45 45h112q45 0 45 -45v-122q0 -45 -45 -45h-112zM125 665q-45 0 -45 35v50q0 35 45 35h1030q45 0 45 -35v-50q0 -35 -45 -35h-1030z" />
    <glyph glyph-name="oslash" unicode="&#xf8;" horiz-adv-x="1148" 
d="M111 525q0 235 124.5 388.5t364.5 153.5q199 0 318 -105l78 83q31 33 57 9l44 -40q26 -24 -5 -57l-90 -96q87 -139 87 -336q0 -235 -124.5 -388.5t-364.5 -153.5q-199 0 -318 105l-78 -83q-31 -33 -57 -9l-44 40q-26 24 5 57l90 96q-87 140 -87 336zM297 525
q0 -118 26 -201l488 523q-81 90 -211 90q-137 0 -220 -101t-83 -311zM389 203q81 -90 211 -90q137 0 220 101t83 311q0 117 -26 201z" />
    <glyph glyph-name="ugrave" unicode="&#xf9;" horiz-adv-x="1120" 
d="M399 1383q-45 52 14 52h111q55 0 81 -37l139 -195q38 -53 -12 -53h-74q-56 0 -81 29zM140 366v639q0 45 45 45h86q45 0 45 -45v-591q0 -196 65 -248.5t161 -52.5q126 0 193 77.5t67 265.5v549q0 45 45 45h86q45 0 45 -45v-960q0 -45 -45 -45h-84q-45 0 -45 45v80h-4
q-65 -72 -140 -107t-183 -35q-175 0 -256 102.5t-81 280.5z" />
    <glyph glyph-name="uacute" unicode="&#xfa;" horiz-adv-x="1120" 
d="M469 1150q-50 0 -12 53l139 195q26 37 81 37h111q59 0 14 -52l-178 -204q-25 -29 -81 -29h-74zM140 366v639q0 45 45 45h86q45 0 45 -45v-591q0 -196 65 -248.5t161 -52.5q126 0 193 77.5t67 265.5v549q0 45 45 45h86q45 0 45 -45v-960q0 -45 -45 -45h-84q-45 0 -45 45
v80h-4q-65 -72 -140 -107t-183 -35q-175 0 -256 102.5t-81 280.5z" />
    <glyph glyph-name="ucircumflex" unicode="&#xfb;" horiz-adv-x="1120" 
d="M283 1182q-23 26 12 55l206 171q31 26 56 26h50q25 0 56 -26l206 -171q35 -29 12 -55l-27 -31q-23 -26 -57 2l-214 179h-2l-214 -179q-34 -28 -57 -2zM140 366v639q0 45 45 45h86q45 0 45 -45v-591q0 -196 65 -248.5t161 -52.5q126 0 193 77.5t67 265.5v549q0 45 45 45
h86q45 0 45 -45v-960q0 -45 -45 -45h-84q-45 0 -45 45v80h-4q-65 -72 -140 -107t-183 -35q-175 0 -256 102.5t-81 280.5z" />
    <glyph glyph-name="udieresis" unicode="&#xfc;" horiz-adv-x="1120" 
d="M313 1240q-45 0 -45 45v86q0 45 45 45h86q45 0 45 -45v-86q0 -45 -45 -45h-86zM719 1240q-45 0 -45 45v86q0 45 45 45h86q45 0 45 -45v-86q0 -45 -45 -45h-86zM140 366v639q0 45 45 45h86q45 0 45 -45v-591q0 -196 65 -248.5t161 -52.5q126 0 193 77.5t67 265.5v549
q0 45 45 45h86q45 0 45 -45v-960q0 -45 -45 -45h-84q-45 0 -45 45v80h-4q-65 -72 -140 -107t-183 -35q-175 0 -256 102.5t-81 280.5z" />
    <glyph glyph-name="yacute" unicode="&#xfd;" horiz-adv-x="990" 
d="M408 1150q-50 0 -12 53l139 195q26 37 81 37h111q59 0 14 -52l-178 -204q-25 -29 -81 -29h-74zM69 1001q-18 49 27 49h109q33 0 45 -39l210 -660q9 -27 27.5 -84.5t26.5 -102.5h2q8 45 19.5 81.5t34.5 105.5l212 660q13 39 45 39h109q45 0 27 -49l-337 -940
q-95 -265 -170 -371.5t-224 -106.5q-78 0 -124 23q-21 10 -14 31l26 81q7 21 27 12q41 -17 79 -17q70 0 114 75.5t70 151.5l20 59z" />
    <glyph glyph-name="thorn" unicode="&#xfe;" horiz-adv-x="1119" 
d="M187 -400q-45 0 -45 45v1786q0 45 45 45h86q45 0 45 -45v-445q0 -31 -2 -61h2q55 66 124 104t184 38q200 0 304 -163.5t104 -378.5t-104 -378.5t-304 -163.5q-115 0 -184 38t-124 104h-2q2 -30 2 -61v-419q0 -45 -45 -45h-86zM318 410q0 -150 71.5 -223.5t179.5 -73.5
q152 0 215.5 114t63.5 298t-63.5 298t-215.5 114q-108 0 -179.5 -73.5t-71.5 -223.5v-230z" />
    <glyph glyph-name="ydieresis" unicode="&#xff;" horiz-adv-x="990" 
d="M252 1240q-45 0 -45 45v86q0 45 45 45h86q45 0 45 -45v-86q0 -45 -45 -45h-86zM658 1240q-45 0 -45 45v86q0 45 45 45h86q45 0 45 -45v-86q0 -45 -45 -45h-86zM69 1001q-18 49 27 49h109q33 0 45 -39l210 -660q9 -27 27.5 -84.5t26.5 -102.5h2q8 45 19.5 81.5t34.5 105.5
l212 660q13 39 45 39h109q45 0 27 -49l-337 -940q-95 -265 -170 -371.5t-224 -106.5q-78 0 -124 23q-21 10 -14 31l26 81q7 21 27 12q41 -17 79 -17q70 0 114 75.5t70 151.5l20 59z" />
    <glyph glyph-name="Amacron" unicode="&#x100;" horiz-adv-x="1360" 
d="M360 1558q-45 0 -45 40v50q0 40 45 40h640q45 0 45 -40v-50q0 -40 -45 -40h-640zM98 0q-52 0 -27 66l498 1307q23 61 66 61h140q43 0 66 -61l498 -1307q25 -66 -27 -66h-102q-53 0 -72 49l-125 331h-616l-125 -331q-19 -49 -72 -49h-102zM460 544h490l-153 400
q-21 56 -41.5 124t-48.5 193h-4q-28 -125 -48.5 -193t-41.5 -124z" />
    <glyph glyph-name="amacron" unicode="&#x101;" horiz-adv-x="1067" 
d="M274 1240q-45 0 -45 35v40q0 35 45 35h528q45 0 45 -35v-40q0 -35 -45 -35h-528zM85 280q0 178 166.5 261t497.5 97v68q0 94 -42.5 162.5t-168.5 68.5q-80 0 -128 -15.5t-87.5 -41t-75.5 -65.5q-27 -30 -51 -3l-52 60q-22 25 15 60q53 50 103 75t124.5 42.5t151.5 17.5
q209 0 298 -107.5t89 -294.5v-620q0 -45 -45 -45h-90q-39 0 -39 45v49h-2q-79 -62 -154.5 -86.5t-168.5 -24.5q-164 0 -252.5 78.5t-88.5 218.5zM267 276q0 -62 26 -99.5t72 -48t96 -10.5q77 0 146 15t142 79v295q-202 -15 -288 -36.5t-140 -74t-54 -120.5z" />
    <glyph glyph-name="Abreve" unicode="&#x102;" horiz-adv-x="1360" 
d="M346 1773q-20 45 13 60l49 22q33 14 54 -21q34 -56 89 -96t149 -40t149 40t89 96q21 35 54 21l49 -22q33 -15 13 -60q-50 -116 -146 -170.5t-208 -54.5t-208 54.5t-146 170.5zM98 0q-52 0 -27 66l498 1307q23 61 66 61h140q43 0 66 -61l498 -1307q25 -66 -27 -66h-102
q-53 0 -72 49l-125 331h-616l-125 -331q-19 -49 -72 -49h-102zM460 544h490l-153 400q-21 56 -41.5 124t-48.5 193h-4q-28 -125 -48.5 -193t-41.5 -124z" />
    <glyph glyph-name="abreve" unicode="&#x103;" horiz-adv-x="1067" 
d="M246 1362q-19 41 13 55l47 22q29 14 45 -18q33 -65 76 -105t130 -40t130 40t76 105q16 32 45 18l47 -22q32 -14 13 -55q-53 -116 -130.5 -166t-180.5 -50t-180.5 50t-130.5 166zM85 280q0 178 166.5 261t497.5 97v68q0 94 -42.5 162.5t-168.5 68.5q-80 0 -128 -15.5
t-87.5 -41t-75.5 -65.5q-27 -30 -51 -3l-52 60q-22 25 15 60q53 50 103 75t124.5 42.5t151.5 17.5q209 0 298 -107.5t89 -294.5v-620q0 -45 -45 -45h-90q-39 0 -39 45v49h-2q-79 -62 -154.5 -86.5t-168.5 -24.5q-164 0 -252.5 78.5t-88.5 218.5zM267 276q0 -62 26 -99.5
t72 -48t96 -10.5q77 0 146 15t142 79v295q-202 -15 -288 -36.5t-140 -74t-54 -120.5z" />
    <glyph glyph-name="aogonek" unicode="&#x105;" horiz-adv-x="1067" 
d="M85 280q0 178 166.5 261t497.5 97v68q0 94 -42.5 162.5t-168.5 68.5q-80 0 -128 -15.5t-87.5 -41t-75.5 -65.5q-27 -30 -51 -3l-52 60q-22 25 15 60q53 50 103 75t124.5 42.5t151.5 17.5q209 0 298 -107.5t89 -294.5v-620q0 -30 -17 -45q-95 -69 -139.5 -115t-44.5 -96
q0 -40 23.5 -58t57.5 -18q50 0 80 7q21 5 25 -19l13 -79q4 -24 -18 -28q-65 -11 -123 -11q-116 0 -167 50.5t-51 111.5q0 53 21.5 97.5t58.5 78.5t91 73q16 13 16 51v49h-2q-79 -62 -154.5 -86.5t-168.5 -24.5q-164 0 -252.5 78.5t-88.5 218.5zM267 276q0 -62 26 -99.5
t72 -48t96 -10.5q77 0 146 15t142 79v295q-202 -15 -288 -36.5t-140 -74t-54 -120.5z" />
    <glyph glyph-name="Cacute" unicode="&#x106;" horiz-adv-x="1402" 
d="M669 1540q-57 0 -12 53l133 155q32 37 81 37h157q77 0 14 -52l-198 -164q-35 -29 -81 -29h-94zM92 717q0 350 173.5 548.5t498.5 198.5q190 0 314 -64.5t178 -176.5q28 -58 -9 -80l-79 -46q-40 -23 -71 38q-33 63 -108 118t-215 55q-250 0 -363.5 -155.5t-113.5 -435.5
t113.5 -435.5t363.5 -155.5q144 0 230.5 66t125.5 138q31 58 72 35l83 -47q36 -21 6 -80q-59 -115 -192 -191.5t-335 -76.5q-325 0 -498.5 198.5t-173.5 548.5z" />
    <glyph glyph-name="cacute" unicode="&#x107;" horiz-adv-x="1026" 
d="M468 1150q-50 0 -12 53l139 195q26 37 81 37h111q59 0 14 -52l-178 -204q-25 -29 -81 -29h-74zM85 525q0 235 116.5 388.5t356.5 153.5q162 0 247.5 -57.5t123.5 -117.5q21 -33 -9 -53l-63 -41q-30 -21 -60 27q-29 46 -81.5 79t-157.5 33q-137 0 -212 -101t-75 -311
t75 -311t212 -101q111 0 170 42.5t86 92.5q26 47 59 27l67 -40q30 -18 9 -54q-25 -43 -113.5 -120.5t-277.5 -77.5q-240 0 -356.5 153.5t-116.5 388.5z" />
    <glyph glyph-name="Ccircumflex" unicode="&#x108;" horiz-adv-x="1402" 
d="M411 1580q-15 32 26 51l243 113q39 18 64 18h70q25 0 64 -18l243 -113q41 -19 26 -51l-23 -50q-15 -32 -56 -13l-288 132h-2l-288 -132q-41 -19 -56 13zM92 717q0 350 173.5 548.5t498.5 198.5q190 0 314 -64.5t178 -176.5q28 -58 -9 -80l-79 -46q-40 -23 -71 38
q-33 63 -108 118t-215 55q-250 0 -363.5 -155.5t-113.5 -435.5t113.5 -435.5t363.5 -155.5q144 0 230.5 66t125.5 138q31 58 72 35l83 -47q36 -21 6 -80q-59 -115 -192 -191.5t-335 -76.5q-325 0 -498.5 198.5t-173.5 548.5z" />
    <glyph glyph-name="ccircumflex" unicode="&#x109;" horiz-adv-x="1026" 
d="M282 1182q-23 26 12 55l206 171q31 26 56 26h50q25 0 56 -26l206 -171q35 -29 12 -55l-27 -31q-23 -26 -57 2l-214 179h-2l-214 -179q-34 -28 -57 -2zM85 525q0 235 116.5 388.5t356.5 153.5q162 0 247.5 -57.5t123.5 -117.5q21 -33 -9 -53l-63 -41q-30 -21 -60 27
q-29 46 -81.5 79t-157.5 33q-137 0 -212 -101t-75 -311t75 -311t212 -101q111 0 170 42.5t86 92.5q26 47 59 27l67 -40q30 -18 9 -54q-25 -43 -113.5 -120.5t-277.5 -77.5q-240 0 -356.5 153.5t-116.5 388.5z" />
    <glyph glyph-name="Cdotaccent" unicode="&#x10a;" horiz-adv-x="1402" 
d="M713 1545q-45 0 -45 45v102q0 45 45 45h102q45 0 45 -45v-102q0 -45 -45 -45h-102zM92 717q0 350 173.5 548.5t498.5 198.5q190 0 314 -64.5t178 -176.5q28 -58 -9 -80l-79 -46q-40 -23 -71 38q-33 63 -108 118t-215 55q-250 0 -363.5 -155.5t-113.5 -435.5t113.5 -435.5
t363.5 -155.5q144 0 230.5 66t125.5 138q31 58 72 35l83 -47q36 -21 6 -80q-59 -115 -192 -191.5t-335 -76.5q-325 0 -498.5 198.5t-173.5 548.5z" />
    <glyph glyph-name="cdotaccent" unicode="&#x10b;" horiz-adv-x="1026" 
d="M515 1240q-45 0 -45 45v86q0 45 45 45h86q45 0 45 -45v-86q0 -45 -45 -45h-86zM85 525q0 235 116.5 388.5t356.5 153.5q162 0 247.5 -57.5t123.5 -117.5q21 -33 -9 -53l-63 -41q-30 -21 -60 27q-29 46 -81.5 79t-157.5 33q-137 0 -212 -101t-75 -311t75 -311t212 -101
q111 0 170 42.5t86 92.5q26 47 59 27l67 -40q30 -18 9 -54q-25 -43 -113.5 -120.5t-277.5 -77.5q-240 0 -356.5 153.5t-116.5 388.5z" />
    <glyph glyph-name="Ccaron" unicode="&#x10c;" horiz-adv-x="1402" 
d="M437 1641q-41 19 -26 51l23 50q15 32 56 13l288 -132h2l288 132q41 19 56 -13l23 -50q15 -32 -26 -51l-243 -113q-39 -18 -64 -18h-70q-25 0 -64 18zM92 717q0 350 173.5 548.5t498.5 198.5q190 0 314 -64.5t178 -176.5q28 -58 -9 -80l-79 -46q-40 -23 -71 38
q-33 63 -108 118t-215 55q-250 0 -363.5 -155.5t-113.5 -435.5t113.5 -435.5t363.5 -155.5q144 0 230.5 66t125.5 138q31 58 72 35l83 -47q36 -21 6 -80q-59 -115 -192 -191.5t-335 -76.5q-325 0 -498.5 198.5t-173.5 548.5z" />
    <glyph glyph-name="ccaron" unicode="&#x10d;" horiz-adv-x="1026" 
d="M294 1335q-35 29 -12 55l27 31q23 26 57 -2l214 -179h2l214 179q34 28 57 2l27 -31q23 -26 -12 -55l-206 -171q-31 -26 -56 -26h-50q-25 0 -56 26zM85 525q0 235 116.5 388.5t356.5 153.5q162 0 247.5 -57.5t123.5 -117.5q21 -33 -9 -53l-63 -41q-30 -21 -60 27
q-29 46 -81.5 79t-157.5 33q-137 0 -212 -101t-75 -311t75 -311t212 -101q111 0 170 42.5t86 92.5q26 47 59 27l67 -40q30 -18 9 -54q-25 -43 -113.5 -120.5t-277.5 -77.5q-240 0 -356.5 153.5t-116.5 388.5z" />
    <glyph glyph-name="Dcaron" unicode="&#x10e;" horiz-adv-x="1436" 
d="M385 1641q-41 19 -26 51l23 50q15 32 56 13l288 -132h2l288 132q41 19 56 -13l23 -50q15 -32 -26 -51l-243 -113q-39 -18 -64 -18h-70q-25 0 -64 18zM220 0q-50 0 -50 55v1324q0 55 50 55h369q424 0 589.5 -187.5t165.5 -527.5t-165.5 -529.5t-589.5 -189.5h-369z
M362 164h218q330 0 444.5 140t114.5 415t-114.5 414t-444.5 139h-218v-1108z" />
    <glyph glyph-name="dcaron" unicode="&#x10f;" horiz-adv-x="1346" 
d="M1132 1153q-25 13 -7 50q17 34 29 73.5t12 107.5v47q0 45 45 45h86q45 0 45 -45v-32q0 -91 -26.5 -152t-72.5 -110q-27 -28 -49 -17zM85 525q0 215 104 378.5t304 163.5q115 0 184 -38t124 -104h2q-2 30 -2 61v445q0 45 45 45h86q45 0 45 -45v-1386q0 -45 -45 -45h-84
q-36 0 -39 45l-6 80h-2q-55 -66 -124 -104t-184 -38q-200 0 -304 163.5t-104 378.5zM271 525q0 -184 63.5 -298t215.5 -114q108 0 179.5 73.5t71.5 223.5v230q0 150 -71.5 223.5t-179.5 73.5q-152 0 -215.5 -114t-63.5 -298z" />
    <glyph glyph-name="Dcroat" unicode="&#x110;" horiz-adv-x="1486" 
d="M95 654q-55 0 -55 45v74q0 45 55 45h125v561q0 55 50 55h369q424 0 589.5 -187.5t165.5 -527.5t-165.5 -529.5t-589.5 -189.5h-369q-50 0 -50 55v599h-125zM412 164h218q330 0 444.5 140t114.5 415t-114.5 414t-444.5 139h-218v-454h311q55 0 55 -45v-74q0 -45 -55 -45
h-311v-490z" />
    <glyph glyph-name="dcroat" unicode="&#x111;" horiz-adv-x="1156" 
d="M85 525q0 215 104 378.5t304 163.5q115 0 184 -38t124 -104h2q-2 30 -2 61v222h-308q-45 0 -45 35v62q0 35 45 35h308v91q0 45 45 45h86q45 0 45 -45v-91h114q45 0 45 -35v-62q0 -35 -45 -35h-114v-1163q0 -45 -45 -45h-84q-36 0 -39 45l-6 80h-2q-55 -66 -124 -104
t-184 -38q-200 0 -304 163.5t-104 378.5zM271 525q0 -184 63.5 -298t215.5 -114q108 0 179.5 73.5t71.5 223.5v230q0 150 -71.5 223.5t-179.5 73.5q-152 0 -215.5 -114t-63.5 -298z" />
    <glyph glyph-name="Emacron" unicode="&#x112;" horiz-adv-x="1270" 
d="M355 1558q-45 0 -45 40v50q0 40 45 40h640q45 0 45 -40v-50q0 -40 -45 -40h-640zM220 0q-50 0 -50 55v1324q0 55 50 55h875q55 0 55 -45v-74q0 -45 -55 -45h-733v-444h673q55 0 55 -45v-74q0 -45 -55 -45h-673v-498h763q55 0 55 -45v-74q0 -45 -55 -45h-905z" />
    <glyph glyph-name="emacron" unicode="&#x113;" horiz-adv-x="1098" 
d="M300 1240q-45 0 -45 35v40q0 35 45 35h528q45 0 45 -35v-40q0 -35 -45 -35h-528zM85 525q0 248 124 395t355 147q192 0 318.5 -134.5t126.5 -429.5q0 -45 -41 -45h-697q17 -193 104 -268.5t197 -75.5q116 0 178 39t91 77q32 42 62 16l59 -51q23 -20 0 -55
q-19 -29 -108.5 -93t-281.5 -64q-250 0 -368.5 147t-118.5 395zM267 588h565q-4 140 -72 245.5t-200 105.5q-116 0 -197 -77.5t-96 -273.5z" />
    <glyph glyph-name="Ebreve" unicode="&#x114;" horiz-adv-x="1270" 
d="M341 1773q-20 45 13 60l49 22q33 14 54 -21q34 -56 89 -96t149 -40t149 40t89 96q21 35 54 21l49 -22q33 -15 13 -60q-50 -116 -146 -170.5t-208 -54.5t-208 54.5t-146 170.5zM220 0q-50 0 -50 55v1324q0 55 50 55h875q55 0 55 -45v-74q0 -45 -55 -45h-733v-444h673
q55 0 55 -45v-74q0 -45 -55 -45h-673v-498h763q55 0 55 -45v-74q0 -45 -55 -45h-905z" />
    <glyph glyph-name="ebreve" unicode="&#x115;" horiz-adv-x="1098" 
d="M272 1362q-19 41 13 55l47 22q29 14 45 -18q33 -65 76 -105t130 -40t130 40t76 105q16 32 45 18l47 -22q32 -14 13 -55q-53 -116 -130.5 -166t-180.5 -50t-180.5 50t-130.5 166zM85 525q0 248 124 395t355 147q192 0 318.5 -134.5t126.5 -429.5q0 -45 -41 -45h-697
q17 -193 104 -268.5t197 -75.5q116 0 178 39t91 77q32 42 62 16l59 -51q23 -20 0 -55q-19 -29 -108.5 -93t-281.5 -64q-250 0 -368.5 147t-118.5 395zM267 588h565q-4 140 -72 245.5t-200 105.5q-116 0 -197 -77.5t-96 -273.5z" />
    <glyph glyph-name="Edotaccent" unicode="&#x116;" horiz-adv-x="1270" 
d="M624 1545q-45 0 -45 45v102q0 45 45 45h102q45 0 45 -45v-102q0 -45 -45 -45h-102zM220 0q-50 0 -50 55v1324q0 55 50 55h875q55 0 55 -45v-74q0 -45 -55 -45h-733v-444h673q55 0 55 -45v-74q0 -45 -55 -45h-673v-498h763q55 0 55 -45v-74q0 -45 -55 -45h-905z" />
    <glyph glyph-name="edotaccent" unicode="&#x117;" horiz-adv-x="1098" 
d="M521 1240q-45 0 -45 45v86q0 45 45 45h86q45 0 45 -45v-86q0 -45 -45 -45h-86zM85 525q0 248 124 395t355 147q192 0 318.5 -134.5t126.5 -429.5q0 -45 -41 -45h-697q17 -193 104 -268.5t197 -75.5q116 0 178 39t91 77q32 42 62 16l59 -51q23 -20 0 -55
q-19 -29 -108.5 -93t-281.5 -64q-250 0 -368.5 147t-118.5 395zM267 588h565q-4 140 -72 245.5t-200 105.5q-116 0 -197 -77.5t-96 -273.5z" />
    <glyph glyph-name="Eogonek" unicode="&#x118;" horiz-adv-x="1270" 
d="M220 0q-50 0 -50 55v1324q0 55 50 55h875q55 0 55 -45v-74q0 -45 -55 -45h-733v-444h673q55 0 55 -45v-74q0 -45 -55 -45h-673v-498h763q55 0 55 -45v-74q0 -45 -55 -45h-7q-30 -10 -112 -79t-82 -132q0 -40 23.5 -58t57.5 -18q50 0 80 7q21 5 25 -19l13 -79
q4 -24 -18 -28q-65 -11 -123 -11q-116 0 -167 50.5t-51 111.5q0 53 21.5 97.5t60 80.5t92.5 75v4q-40 -2 -80 -2h-638z" />
    <glyph glyph-name="eogonek" unicode="&#x119;" horiz-adv-x="1098" 
d="M85 525q0 248 124 395t355 147q192 0 318.5 -134.5t126.5 -429.5q0 -45 -41 -45h-697q17 -193 104 -268.5t197 -75.5q116 0 178 39t91 77q32 42 62 16l59 -51q27 -23 0 -55q-31 -37 -62.5 -60.5t-73.5 -50.5q-57 -53 -130 -118.5t-73 -121.5q0 -40 23.5 -58t57.5 -18
q50 0 80 7q21 5 25 -19l13 -79q4 -24 -18 -28q-65 -11 -123 -11q-116 0 -167 50.5t-51 111.5q0 53 21.5 97.5t51.5 72.5t84 68v2q-24 -2 -48 -2q-250 0 -368.5 147t-118.5 395zM267 588h565q-4 140 -72 245.5t-200 105.5q-116 0 -197 -77.5t-96 -273.5z" />
    <glyph glyph-name="Ecaron" unicode="&#x11a;" horiz-adv-x="1270" 
d="M348 1641q-41 19 -26 51l23 50q15 32 56 13l288 -132h2l288 132q41 19 56 -13l23 -50q15 -32 -26 -51l-243 -113q-39 -18 -64 -18h-70q-25 0 -64 18zM220 0q-50 0 -50 55v1324q0 55 50 55h875q55 0 55 -45v-74q0 -45 -55 -45h-733v-444h673q55 0 55 -45v-74
q0 -45 -55 -45h-673v-498h763q55 0 55 -45v-74q0 -45 -55 -45h-905z" />
    <glyph glyph-name="ecaron" unicode="&#x11b;" horiz-adv-x="1098" 
d="M300 1335q-35 29 -12 55l27 31q23 26 57 -2l214 -179h2l214 179q34 28 57 2l27 -31q23 -26 -12 -55l-206 -171q-31 -26 -56 -26h-50q-25 0 -56 26zM85 525q0 248 124 395t355 147q192 0 318.5 -134.5t126.5 -429.5q0 -45 -41 -45h-697q17 -193 104 -268.5t197 -75.5
q116 0 178 39t91 77q32 42 62 16l59 -51q23 -20 0 -55q-19 -29 -108.5 -93t-281.5 -64q-250 0 -368.5 147t-118.5 395zM267 588h565q-4 140 -72 245.5t-200 105.5q-116 0 -197 -77.5t-96 -273.5z" />
    <glyph glyph-name="Gcircumflex" unicode="&#x11c;" horiz-adv-x="1470" 
d="M423 1580q-15 32 26 51l243 113q39 18 64 18h70q25 0 64 -18l243 -113q41 -19 26 -51l-23 -50q-15 -32 -56 -13l-288 132h-2l-288 -132q-41 -19 -56 13zM92 717q0 350 181 548.5t503 198.5q193 0 315 -66.5t179 -156.5q35 -56 -1 -81l-75 -52q-37 -26 -74 31
q-30 45 -113 107t-221 62q-245 0 -367 -155.5t-122 -435.5t119 -435.5t380 -155.5q130 0 226.5 31.5t135.5 87.5v265h-297q-55 0 -55 45v74q0 45 55 45h434q55 0 55 -45v-472q-122 -89 -244 -138t-320 -49q-330 0 -512 198.5t-182 548.5z" />
    <glyph glyph-name="gcircumflex" unicode="&#x11d;" horiz-adv-x="1119" 
d="M255 1182q-23 26 12 55l206 171q31 26 56 26h50q25 0 56 -26l206 -171q35 -29 12 -55l-27 -31q-23 -26 -57 2l-214 179h-2l-214 -179q-34 -28 -57 -2zM85 525q0 215 104 378.5t304 163.5q115 0 184 -38t124 -104h2l6 80q3 45 39 45h84q45 0 45 -45v-1013
q0 -192 -88.5 -300.5t-349.5 -108.5q-175 0 -262 39.5t-124 83.5q-27 33 -3 56l55 54q23 22 64 -14q53 -48 102 -68.5t169 -20.5q136 0 198.5 58t62.5 240v60q0 31 2 61h-2q-52 -69 -122.5 -109t-185.5 -40q-200 0 -304 163.5t-104 378.5zM271 525q0 -184 63.5 -298
t215.5 -114q108 0 179.5 73.5t71.5 223.5v230q0 150 -71.5 223.5t-179.5 73.5q-152 0 -215.5 -114t-63.5 -298z" />
    <glyph glyph-name="Gbreve" unicode="&#x11e;" horiz-adv-x="1470" 
d="M442 1773q-20 45 13 60l49 22q33 14 54 -21q34 -56 89 -96t149 -40t149 40t89 96q21 35 54 21l49 -22q33 -15 13 -60q-50 -116 -146 -170.5t-208 -54.5t-208 54.5t-146 170.5zM92 717q0 350 181 548.5t503 198.5q193 0 315 -66.5t179 -156.5q35 -56 -1 -81l-75 -52
q-37 -26 -74 31q-30 45 -113 107t-221 62q-245 0 -367 -155.5t-122 -435.5t119 -435.5t380 -155.5q130 0 226.5 31.5t135.5 87.5v265h-297q-55 0 -55 45v74q0 45 55 45h434q55 0 55 -45v-472q-122 -89 -244 -138t-320 -49q-330 0 -512 198.5t-182 548.5z" />
    <glyph glyph-name="gbreve" unicode="&#x11f;" horiz-adv-x="1119" 
d="M239 1362q-19 41 13 55l47 22q29 14 45 -18q33 -65 76 -105t130 -40t130 40t76 105q16 32 45 18l47 -22q32 -14 13 -55q-53 -116 -130.5 -166t-180.5 -50t-180.5 50t-130.5 166zM85 525q0 215 104 378.5t304 163.5q115 0 184 -38t124 -104h2l6 80q3 45 39 45h84
q45 0 45 -45v-1013q0 -192 -88.5 -300.5t-349.5 -108.5q-175 0 -262 39.5t-124 83.5q-27 33 -3 56l55 54q23 22 64 -14q53 -48 102 -68.5t169 -20.5q136 0 198.5 58t62.5 240v60q0 31 2 61h-2q-52 -69 -122.5 -109t-185.5 -40q-200 0 -304 163.5t-104 378.5zM271 525
q0 -184 63.5 -298t215.5 -114q108 0 179.5 73.5t71.5 223.5v230q0 150 -71.5 223.5t-179.5 73.5q-152 0 -215.5 -114t-63.5 -298z" />
    <glyph glyph-name="Gdotaccent" unicode="&#x120;" horiz-adv-x="1470" 
d="M725 1545q-45 0 -45 45v102q0 45 45 45h102q45 0 45 -45v-102q0 -45 -45 -45h-102zM92 717q0 350 181 548.5t503 198.5q193 0 315 -66.5t179 -156.5q35 -56 -1 -81l-75 -52q-37 -26 -74 31q-30 45 -113 107t-221 62q-245 0 -367 -155.5t-122 -435.5t119 -435.5
t380 -155.5q130 0 226.5 31.5t135.5 87.5v265h-297q-55 0 -55 45v74q0 45 55 45h434q55 0 55 -45v-472q-122 -89 -244 -138t-320 -49q-330 0 -512 198.5t-182 548.5z" />
    <glyph glyph-name="gdotaccent" unicode="&#x121;" horiz-adv-x="1119" 
d="M488 1240q-45 0 -45 45v86q0 45 45 45h86q45 0 45 -45v-86q0 -45 -45 -45h-86zM85 525q0 215 104 378.5t304 163.5q115 0 184 -38t124 -104h2l6 80q3 45 39 45h84q45 0 45 -45v-1013q0 -192 -88.5 -300.5t-349.5 -108.5q-175 0 -262 39.5t-124 83.5q-27 33 -3 56l55 54
q23 22 64 -14q53 -48 102 -68.5t169 -20.5q136 0 198.5 58t62.5 240v60q0 31 2 61h-2q-52 -69 -122.5 -109t-185.5 -40q-200 0 -304 163.5t-104 378.5zM271 525q0 -184 63.5 -298t215.5 -114q108 0 179.5 73.5t71.5 223.5v230q0 150 -71.5 223.5t-179.5 73.5
q-152 0 -215.5 -114t-63.5 -298z" />
    <glyph glyph-name="Hcircumflex" unicode="&#x124;" horiz-adv-x="1422" 
d="M358 1580q-15 32 26 51l243 113q39 18 64 18h70q25 0 64 -18l243 -113q41 -19 26 -51l-23 -50q-15 -32 -56 -13l-288 132h-2l-288 -132q-41 -19 -56 13zM220 0q-50 0 -50 55v1324q0 55 50 55h92q50 0 50 -55v-551h698v551q0 55 50 55h92q50 0 50 -55v-1324q0 -55 -50 -55
h-92q-50 0 -50 55v609h-698v-609q0 -55 -50 -55h-92z" />
    <glyph glyph-name="hcircumflex" unicode="&#x125;" horiz-adv-x="1128" 
d="M289 1591q-23 26 12 55l206 171q31 26 56 26h50q25 0 56 -26l206 -171q35 -29 12 -55l-27 -31q-23 -26 -57 2l-214 179h-2l-214 -179q-34 -28 -57 -2zM187 0q-45 0 -45 45v1386q0 45 45 45h86q45 0 45 -45v-446q0 -30 -2 -60h4q65 72 140 107t187 35q182 0 261.5 -102.5
t79.5 -280.5v-639q0 -45 -45 -45h-86q-45 0 -45 45v591q0 196 -65 248.5t-165 52.5q-130 0 -197 -77.5t-67 -265.5v-549q0 -45 -45 -45h-86z" />
    <glyph glyph-name="hbar" unicode="&#x127;" horiz-adv-x="1198" 
d="M75 1208q-45 0 -45 35v62q0 35 45 35h137v91q0 45 45 45h86q45 0 45 -45v-91h363q45 0 45 -35v-62q0 -35 -45 -35h-363v-223q0 -30 -2 -60h4q65 72 140 107t187 35q182 0 261.5 -102.5t79.5 -280.5v-639q0 -45 -45 -45h-86q-45 0 -45 45v591q0 196 -65 248.5t-165 52.5
q-130 0 -197 -77.5t-67 -265.5v-549q0 -45 -45 -45h-86q-45 0 -45 45v1163h-137z" />
    <glyph glyph-name="Itilde" unicode="&#x128;" horiz-adv-x="532" 
d="M-80 1575q-23 13 -9 45q28 65 85.5 108t146.5 43q75 0 159 -49t128 -49q48 0 81 27t49 52q19 29 38 18l42 -25q23 -13 9 -45q-28 -65 -85.5 -108t-146.5 -43q-75 0 -159 49t-128 49q-48 0 -81 -27t-49 -52q-19 -29 -38 -18zM220 0q-50 0 -50 55v1324q0 55 50 55h92
q50 0 50 -55v-1324q0 -55 -50 -55h-92z" />
    <glyph glyph-name="itilde" unicode="&#x129;" horiz-adv-x="460" 
d="M-67 1175q-22 10 -12 44q21 71 71.5 116t130.5 45q68 0 138 -55t109 -55q43 0 64 22t37 60q13 30 37 20l39 -17q22 -10 12 -44q-21 -71 -71.5 -116t-130.5 -45q-68 0 -138 55t-109 55q-43 0 -64 -22t-37 -60q-13 -30 -37 -20zM187 0q-45 0 -45 45v960q0 45 45 45h86
q45 0 45 -45v-960q0 -45 -45 -45h-86z" />
    <glyph glyph-name="Imacron" unicode="&#x12a;" horiz-adv-x="532" 
d="M-54 1558q-45 0 -45 40v50q0 40 45 40h640q45 0 45 -40v-50q0 -40 -45 -40h-640zM220 0q-50 0 -50 55v1324q0 55 50 55h92q50 0 50 -55v-1324q0 -55 -50 -55h-92z" />
    <glyph glyph-name="Ibreve" unicode="&#x12c;" horiz-adv-x="532" 
d="M-68 1773q-20 45 13 60l49 22q33 14 54 -21q34 -56 89 -96t149 -40t149 40t89 96q21 35 54 21l49 -22q33 -15 13 -60q-50 -116 -146 -170.5t-208 -54.5t-208 54.5t-146 170.5zM220 0q-50 0 -50 55v1324q0 55 50 55h92q50 0 50 -55v-1324q0 -55 -50 -55h-92z" />
    <glyph glyph-name="Idotaccent" unicode="&#x130;" horiz-adv-x="532" 
d="M215 1545q-45 0 -45 45v102q0 45 45 45h102q45 0 45 -45v-102q0 -45 -45 -45h-102zM220 0q-50 0 -50 55v1324q0 55 50 55h92q50 0 50 -55v-1324q0 -55 -50 -55h-92z" />
    <glyph glyph-name="dotlessi" unicode="&#x131;" horiz-adv-x="460" 
d="M187 0q-45 0 -45 45v960q0 45 45 45h86q45 0 45 -45v-960q0 -45 -45 -45h-86z" />
    <glyph glyph-name="Jcircumflex" unicode="&#x134;" horiz-adv-x="824" 
d="M205 1580q-15 32 26 51l243 113q39 18 64 18h70q25 0 64 -18l243 -113q41 -19 26 -51l-23 -50q-15 -32 -56 -13l-288 132h-2l-288 -132q-41 -19 -56 13zM85 29q-46 25 -28 65l33 71q22 48 73 14q81 -53 162 -53q97 0 126 65.5t29 186.5v1001q0 55 50 55h92q50 0 50 -55
v-978q0 -198 -62 -314.5t-290 -116.5q-125 0 -235 59z" />
    <glyph glyph-name="Lacute" unicode="&#x139;" horiz-adv-x="1136" 
d="M530 1540q-57 0 -12 53l133 155q32 37 81 37h157q77 0 14 -52l-198 -164q-35 -29 -81 -29h-94zM220 0q-50 0 -50 55v1324q0 55 50 55h92q50 0 50 -55v-1215h663q55 0 55 -45v-74q0 -45 -55 -45h-805z" />
    <glyph glyph-name="lacute" unicode="&#x13a;" horiz-adv-x="460" 
d="M140 1559q-50 0 -12 53l139 195q26 37 81 37h111q59 0 14 -52l-178 -204q-25 -29 -81 -29h-74zM187 0q-45 0 -45 45v1248q0 20 10 38l70 127q19 35 31 35h35q30 0 30 -35v-1413q0 -45 -45 -45h-86z" />
    <glyph glyph-name="Lcaron" unicode="&#x13d;" horiz-adv-x="1136" 
d="M673 1153q-25 13 -7 50q17 34 29 73.5t12 107.5v47q0 45 45 45h86q45 0 45 -45v-32q0 -91 -26.5 -152t-72.5 -110q-27 -28 -49 -17zM220 0q-50 0 -50 55v1324q0 55 50 55h92q50 0 50 -55v-1215h663q55 0 55 -45v-74q0 -45 -55 -45h-805z" />
    <glyph glyph-name="lcaron" unicode="&#x13e;" horiz-adv-x="684" 
d="M473 1153q-25 13 -7 50q17 34 29 73.5t12 107.5v47q0 45 45 45h86q45 0 45 -45v-32q0 -91 -26.5 -152t-72.5 -110q-27 -28 -49 -17zM187 0q-45 0 -45 45v1248q0 20 10 38l70 127q19 35 31 35h35q30 0 30 -35v-1413q0 -45 -45 -45h-86z" />
    <glyph glyph-name="Lslash" unicode="&#x141;" horiz-adv-x="1241" 
d="M115 448q-55 -37 -55 15v114q0 39 35 63l180 121v618q0 55 50 55h92q50 0 50 -55v-406q0 -40 -2 -80h4l268 181q55 37 55 -15v-114q0 -39 -35 -63l-290 -195v-523h663q55 0 55 -45v-74q0 -45 -55 -45h-805q-50 0 -50 55v420q0 40 2 80h-4z" />
    <glyph glyph-name="lslash" unicode="&#x142;" horiz-adv-x="660" 
d="M85 514q-45 -33 -45 11v98q0 37 33 61l169 123v486q0 20 10 38l70 127q19 35 31 35h35q30 -2 30 -35v-456q0 -30 -2 -60h2l157 115q45 33 45 -12v-98q0 -36 -33 -60l-169 -123v-719q0 -45 -45 -45h-86q-45 0 -45 45v524q0 30 2 60h-2z" />
    <glyph glyph-name="Nacute" unicode="&#x143;" horiz-adv-x="1438" 
d="M624 1540q-57 0 -12 53l133 155q32 37 81 37h157q77 0 14 -52l-198 -164q-35 -29 -81 -29h-94zM220 0q-50 0 -50 55v1324q0 55 50 55h128q70 0 100 -50l626 -1049h4q-2 40 -2 80v964q0 55 50 55h92q50 0 50 -55v-1324q0 -55 -50 -55h-88q-70 0 -100 50l-666 1113h-4
q2 -40 2 -80v-1028q0 -55 -50 -55h-92z" />
    <glyph glyph-name="nacute" unicode="&#x144;" horiz-adv-x="1128" 
d="M475 1150q-50 0 -12 53l139 195q26 37 81 37h111q59 0 14 -52l-178 -204q-25 -29 -81 -29h-74zM187 0q-45 0 -45 45v960q0 45 45 45h84q45 0 45 -45v-80h4q65 72 140 107t187 35q182 0 261.5 -102.5t79.5 -280.5v-639q0 -45 -45 -45h-86q-45 0 -45 45v591
q0 196 -65 248.5t-165 52.5q-130 0 -197 -77.5t-67 -265.5v-549q0 -45 -45 -45h-86z" />
    <glyph glyph-name="Ncaron" unicode="&#x147;" horiz-adv-x="1438" 
d="M392 1641q-41 19 -26 51l23 50q15 32 56 13l288 -132h2l288 132q41 19 56 -13l23 -50q15 -32 -26 -51l-243 -113q-39 -18 -64 -18h-70q-25 0 -64 18zM220 0q-50 0 -50 55v1324q0 55 50 55h128q70 0 100 -50l626 -1049h4q-2 40 -2 80v964q0 55 50 55h92q50 0 50 -55v-1324
q0 -55 -50 -55h-88q-70 0 -100 50l-666 1113h-4q2 -40 2 -80v-1028q0 -55 -50 -55h-92z" />
    <glyph glyph-name="ncaron" unicode="&#x148;" horiz-adv-x="1128" 
d="M301 1335q-35 29 -12 55l27 31q23 26 57 -2l214 -179h2l214 179q34 28 57 2l27 -31q23 -26 -12 -55l-206 -171q-31 -26 -56 -26h-50q-25 0 -56 26zM187 0q-45 0 -45 45v960q0 45 45 45h84q45 0 45 -45v-80h4q65 72 140 107t187 35q182 0 261.5 -102.5t79.5 -280.5v-639
q0 -45 -45 -45h-86q-45 0 -45 45v591q0 196 -65 248.5t-165 52.5q-130 0 -197 -77.5t-67 -265.5v-549q0 -45 -45 -45h-86z" />
    <glyph glyph-name="Eng" unicode="&#x14a;" horiz-adv-x="1422" 
d="M220 0q-50 0 -50 55v1324q0 55 50 55h82q47 0 50 -55l8 -130h4q76 111 200 163t249 52q215 0 327 -112t112 -320v-1040q0 -228 -86 -318.5t-254 -90.5q-93 0 -183 35q-40 16 -28 58l21 71q14 46 68 21q62 -29 116 -29q78 0 116 51.5t38 248.5v905q0 196 -69 280t-263 84
q-124 0 -245 -93t-121 -340v-820q0 -55 -50 -55h-92z" />
    <glyph glyph-name="eng" unicode="&#x14b;" horiz-adv-x="1128" 
d="M187 0q-45 0 -45 45v960q0 45 45 45h84q45 0 45 -45v-80h4q65 72 140 107t187 35q182 0 261.5 -102.5t79.5 -280.5v-777q0 -194 -73.5 -259t-182.5 -65q-106 0 -152 20q-22 10 -18 32l17 81q5 24 25 15q39 -18 96 -18q59 0 85.5 58t26.5 235v630q0 196 -65 248.5
t-165 52.5q-130 0 -197 -77.5t-67 -265.5v-549q0 -45 -45 -45h-86z" />
    <glyph glyph-name="Omacron" unicode="&#x14c;" horiz-adv-x="1524" 
d="M442 1558q-45 0 -45 40v50q0 40 45 40h640q45 0 45 -40v-50q0 -40 -45 -40h-640zM92 717q0 350 172.5 548.5t497.5 198.5t497.5 -198.5t172.5 -548.5t-172.5 -548.5t-497.5 -198.5t-497.5 198.5t-172.5 548.5zM297 717q0 -280 115 -435.5t350 -155.5t350 155.5t115 435.5
t-115 435.5t-350 155.5t-350 -155.5t-115 -435.5z" />
    <glyph glyph-name="omacron" unicode="&#x14d;" horiz-adv-x="1148" 
d="M310 1240q-45 0 -45 35v40q0 35 45 35h528q45 0 45 -35v-40q0 -35 -45 -35h-528zM85 525q0 235 124.5 388.5t364.5 153.5t364.5 -153.5t124.5 -388.5t-124.5 -388.5t-364.5 -153.5t-364.5 153.5t-124.5 388.5zM271 525q0 -210 83 -311t220 -101t220 101t83 311t-83 311
t-220 101t-220 -101t-83 -311z" />
    <glyph glyph-name="Obreve" unicode="&#x14e;" horiz-adv-x="1524" 
d="M428 1773q-20 45 13 60l49 22q33 14 54 -21q34 -56 89 -96t149 -40t149 40t89 96q21 35 54 21l49 -22q33 -15 13 -60q-50 -116 -146 -170.5t-208 -54.5t-208 54.5t-146 170.5zM92 717q0 350 172.5 548.5t497.5 198.5t497.5 -198.5t172.5 -548.5t-172.5 -548.5
t-497.5 -198.5t-497.5 198.5t-172.5 548.5zM297 717q0 -280 115 -435.5t350 -155.5t350 155.5t115 435.5t-115 435.5t-350 155.5t-350 -155.5t-115 -435.5z" />
    <glyph glyph-name="obreve" unicode="&#x14f;" horiz-adv-x="1148" 
d="M282 1362q-19 41 13 55l47 22q29 14 45 -18q33 -65 76 -105t130 -40t130 40t76 105q16 32 45 18l47 -22q32 -14 13 -55q-53 -116 -130.5 -166t-180.5 -50t-180.5 50t-130.5 166zM85 525q0 235 124.5 388.5t364.5 153.5t364.5 -153.5t124.5 -388.5t-124.5 -388.5
t-364.5 -153.5t-364.5 153.5t-124.5 388.5zM271 525q0 -210 83 -311t220 -101t220 101t83 311t-83 311t-220 101t-220 -101t-83 -311z" />
    <glyph glyph-name="Ohungarumlaut" unicode="&#x150;" horiz-adv-x="1524" 
d="M542 1540q-55 0 -12 53l127 155q30 37 81 37h119q73 0 14 -52l-187 -164q-33 -29 -77 -29h-65zM912 1540q-55 0 -12 53l127 155q30 37 81 37h119q73 0 14 -52l-187 -164q-33 -29 -77 -29h-65zM92 717q0 350 172.5 548.5t497.5 198.5t497.5 -198.5t172.5 -548.5
t-172.5 -548.5t-497.5 -198.5t-497.5 198.5t-172.5 548.5zM297 717q0 -280 115 -435.5t350 -155.5t350 155.5t115 435.5t-115 435.5t-350 155.5t-350 -155.5t-115 -435.5z" />
    <glyph glyph-name="ohungarumlaut" unicode="&#x151;" horiz-adv-x="1148" 
d="M85 525q0 235 124.5 388.5t364.5 153.5t364.5 -153.5t124.5 -388.5t-124.5 -388.5t-364.5 -153.5t-364.5 153.5t-124.5 388.5zM271 525q0 -210 83 -311t220 -101t220 101t83 311t-83 311t-220 101t-220 -101t-83 -311zM377 1150q-39 0 -12 53l99 195q19 37 81 37h97
q55 0 14 -52l-160 -204q-23 -29 -77 -29h-42zM677 1150q-39 0 -12 53l99 195q19 37 81 37h97q55 0 14 -52l-160 -204q-23 -29 -77 -29h-42z" />
    <glyph glyph-name="OE" unicode="&#x152;" horiz-adv-x="2013" 
d="M92 719q0 350 167.5 547.5t460.5 197.5q85 0 171.5 -15t171.5 -15h775q55 0 55 -45v-74q0 -45 -55 -45h-693v-444h633q55 0 55 -45v-74q0 -45 -55 -45h-633v-498h723q55 0 55 -45v-74q0 -45 -55 -45h-805q-85 0 -171.5 -15t-171.5 -15q-293 0 -460.5 199.5t-167.5 549.5z
M297 717q0 -280 105.5 -435.5t317.5 -155.5q120 0 233 38v1106q-113 38 -233 38q-212 0 -317.5 -155.5t-105.5 -435.5z" />
    <glyph glyph-name="oe" unicode="&#x153;" horiz-adv-x="1890" 
d="M85 525q0 235 124.5 388.5t364.5 153.5q146 0 243.5 -54t149.5 -139h1q50 84 145 138.5t243 54.5q192 0 318.5 -134.5t126.5 -429.5q0 -45 -41 -45h-697q17 -193 104 -268.5t197 -75.5q116 0 178 39t91 77q32 42 62 16l59 -51q23 -20 0 -55q-19 -29 -108.5 -93
t-281.5 -64q-148 0 -248 50.5t-150 139.5h-2q-52 -85 -148 -137.5t-242 -52.5q-240 0 -364.5 153.5t-124.5 388.5zM271 525q0 -210 83 -311t220 -101t220 101t83 311t-83 311t-220 101t-220 -101t-83 -311zM1059 588h565q-4 140 -72 245.5t-200 105.5q-116 0 -197 -77.5
t-96 -273.5z" />
    <glyph glyph-name="Racute" unicode="&#x154;" horiz-adv-x="1394" 
d="M554 1540q-57 0 -12 53l133 155q32 37 81 37h157q77 0 14 -52l-198 -164q-35 -29 -81 -29h-94zM220 0q-50 0 -50 55v1324q0 55 50 55h483q289 0 418.5 -108t129.5 -285q0 -156 -104.5 -262t-297.5 -122v-2q102 -76 135 -115.5t74 -106.5l226 -367q41 -66 -18 -66h-114
q-47 0 -70 39l-208 357q-45 77 -129 151t-209 74h-174v-566q0 -55 -50 -55h-92zM362 785h289q195 0 300 51.5t105 216.5q0 126 -96 171.5t-261 45.5h-337v-485z" />
    <glyph glyph-name="racute" unicode="&#x155;" horiz-adv-x="722" 
d="M344 1150q-50 0 -12 53l139 195q26 37 81 37h111q59 0 14 -52l-178 -204q-25 -29 -81 -29h-74zM187 0q-45 0 -45 45v960q0 45 45 45h84q45 0 45 -45v-120h4q48 90 113 136t162 46q64 0 90 -11q23 -9 17 -30l-23 -82q-5 -18 -26 -14q-35 7 -66 7q-117 0 -193 -105.5
t-76 -287.5v-499q0 -45 -45 -45h-86z" />
    <glyph glyph-name="Rcaron" unicode="&#x158;" horiz-adv-x="1394" 
d="M322 1641q-41 19 -26 51l23 50q15 32 56 13l288 -132h2l288 132q41 19 56 -13l23 -50q15 -32 -26 -51l-243 -113q-39 -18 -64 -18h-70q-25 0 -64 18zM220 0q-50 0 -50 55v1324q0 55 50 55h483q289 0 418.5 -108t129.5 -285q0 -156 -104.5 -262t-297.5 -122v-2
q102 -76 135 -115.5t74 -106.5l226 -367q41 -66 -18 -66h-114q-47 0 -70 39l-208 357q-45 77 -129 151t-209 74h-174v-566q0 -55 -50 -55h-92zM362 785h289q195 0 300 51.5t105 216.5q0 126 -96 171.5t-261 45.5h-337v-485z" />
    <glyph glyph-name="rcaron" unicode="&#x159;" horiz-adv-x="722" 
d="M170 1335q-35 29 -12 55l27 31q23 26 57 -2l214 -179h2l214 179q34 28 57 2l27 -31q23 -26 -12 -55l-206 -171q-31 -26 -56 -26h-50q-25 0 -56 26zM187 0q-45 0 -45 45v960q0 45 45 45h84q45 0 45 -45v-120h4q48 90 113 136t162 46q64 0 90 -11q23 -9 17 -30l-23 -82
q-5 -18 -26 -14q-35 7 -66 7q-117 0 -193 -105.5t-76 -287.5v-499q0 -45 -45 -45h-86z" />
    <glyph glyph-name="Sacute" unicode="&#x15a;" horiz-adv-x="1224" 
d="M529 1540q-57 0 -12 53l133 155q32 37 81 37h157q77 0 14 -52l-198 -164q-35 -29 -81 -29h-94zM166 108q-53 48 -28 84l52 75q27 39 87 -6q79 -59 164.5 -97t207.5 -38q90 0 152 27t99.5 77.5t37.5 122.5q0 52 -15.5 96.5t-49.5 74.5t-71 47q-61 28 -182.5 65t-212.5 80
q-90 43 -143.5 104t-71 125.5t-17.5 147.5q0 127 74 219t181.5 122t218.5 30q127 0 221 -33t168 -86q52 -37 24 -78l-51 -73q-23 -33 -90 14q-51 36 -124.5 67.5t-145.5 31.5q-92 0 -153 -21.5t-96 -72.5t-35 -118q0 -42 8 -77.5t41 -72.5t80 -57q63 -27 195.5 -63.5
t231.5 -89.5q92 -49 132.5 -102.5t63 -116t22.5 -140.5q0 -142 -73 -237t-173 -132t-251 -37q-181 0 -300 42t-178 96z" />
    <glyph glyph-name="sacute" unicode="&#x15b;" horiz-adv-x="944" 
d="M386 1150q-50 0 -12 53l139 195q26 37 81 37h111q59 0 14 -52l-178 -204q-25 -29 -81 -29h-74zM101 98q-31 29 -13 54l45 63q22 30 65 -3q59 -45 131.5 -72t165.5 -27q55 0 98 13.5t75.5 50.5t32.5 99q0 36 -15.5 68t-48 51.5t-63.5 30.5q-51 19 -101.5 31.5t-132.5 38.5
q-55 17 -104 48.5t-85.5 85.5t-36.5 149q0 97 59 167t148 95.5t173 25.5q124 0 199.5 -28.5t130.5 -67.5q32 -23 9 -53l-45 -60q-21 -29 -65 2q-37 26 -105 49t-119 23q-63 0 -108 -14t-73 -48t-28 -80q0 -35 11 -62.5t41 -50.5t84 -37q84 -22 153.5 -40t125.5 -44
q73 -34 112.5 -75t54.5 -88.5t15 -105.5q0 -107 -63.5 -181t-141.5 -98.5t-188 -24.5q-149 0 -255.5 42.5t-137.5 72.5z" />
    <glyph glyph-name="Scircumflex" unicode="&#x15c;" horiz-adv-x="1224" 
d="M271 1580q-15 32 26 51l243 113q39 18 64 18h70q25 0 64 -18l243 -113q41 -19 26 -51l-23 -50q-15 -32 -56 -13l-288 132h-2l-288 -132q-41 -19 -56 13zM166 108q-53 48 -28 84l52 75q27 39 87 -6q79 -59 164.5 -97t207.5 -38q90 0 152 27t99.5 77.5t37.5 122.5
q0 52 -15.5 96.5t-49.5 74.5t-71 47q-61 28 -182.5 65t-212.5 80q-90 43 -143.5 104t-71 125.5t-17.5 147.5q0 127 74 219t181.5 122t218.5 30q127 0 221 -33t168 -86q52 -37 24 -78l-51 -73q-23 -33 -90 14q-51 36 -124.5 67.5t-145.5 31.5q-92 0 -153 -21.5t-96 -72.5
t-35 -118q0 -42 8 -77.5t41 -72.5t80 -57q63 -27 195.5 -63.5t231.5 -89.5q92 -49 132.5 -102.5t63 -116t22.5 -140.5q0 -142 -73 -237t-173 -132t-251 -37q-181 0 -300 42t-178 96z" />
    <glyph glyph-name="scircumflex" unicode="&#x15d;" horiz-adv-x="944" 
d="M200 1182q-23 26 12 55l206 171q31 26 56 26h50q25 0 56 -26l206 -171q35 -29 12 -55l-27 -31q-23 -26 -57 2l-214 179h-2l-214 -179q-34 -28 -57 -2zM101 98q-31 29 -13 54l45 63q22 30 65 -3q59 -45 131.5 -72t165.5 -27q55 0 98 13.5t75.5 50.5t32.5 99q0 36 -15.5 68
t-48 51.5t-63.5 30.5q-51 19 -101.5 31.5t-132.5 38.5q-55 17 -104 48.5t-85.5 85.5t-36.5 149q0 97 59 167t148 95.5t173 25.5q124 0 199.5 -28.5t130.5 -67.5q32 -23 9 -53l-45 -60q-21 -29 -65 2q-37 26 -105 49t-119 23q-63 0 -108 -14t-73 -48t-28 -80q0 -35 11 -62.5
t41 -50.5t84 -37q84 -22 153.5 -40t125.5 -44q73 -34 112.5 -75t54.5 -88.5t15 -105.5q0 -107 -63.5 -181t-141.5 -98.5t-188 -24.5q-149 0 -255.5 42.5t-137.5 72.5z" />
    <glyph glyph-name="Scaron" unicode="&#x160;" horiz-adv-x="1224" 
d="M297 1641q-41 19 -26 51l23 50q15 32 56 13l288 -132h2l288 132q41 19 56 -13l23 -50q15 -32 -26 -51l-243 -113q-39 -18 -64 -18h-70q-25 0 -64 18zM166 108q-53 48 -28 84l52 75q27 39 87 -6q79 -59 164.5 -97t207.5 -38q90 0 152 27t99.5 77.5t37.5 122.5
q0 52 -15.5 96.5t-49.5 74.5t-71 47q-61 28 -182.5 65t-212.5 80q-90 43 -143.5 104t-71 125.5t-17.5 147.5q0 127 74 219t181.5 122t218.5 30q127 0 221 -33t168 -86q52 -37 24 -78l-51 -73q-23 -33 -90 14q-51 36 -124.5 67.5t-145.5 31.5q-92 0 -153 -21.5t-96 -72.5
t-35 -118q0 -42 8 -77.5t41 -72.5t80 -57q63 -27 195.5 -63.5t231.5 -89.5q92 -49 132.5 -102.5t63 -116t22.5 -140.5q0 -142 -73 -237t-173 -132t-251 -37q-181 0 -300 42t-178 96z" />
    <glyph glyph-name="scaron" unicode="&#x161;" horiz-adv-x="944" 
d="M212 1335q-35 29 -12 55l27 31q23 26 57 -2l214 -179h2l214 179q34 28 57 2l27 -31q23 -26 -12 -55l-206 -171q-31 -26 -56 -26h-50q-25 0 -56 26zM101 98q-31 29 -13 54l45 63q22 30 65 -3q59 -45 131.5 -72t165.5 -27q55 0 98 13.5t75.5 50.5t32.5 99q0 36 -15.5 68
t-48 51.5t-63.5 30.5q-51 19 -101.5 31.5t-132.5 38.5q-55 17 -104 48.5t-85.5 85.5t-36.5 149q0 97 59 167t148 95.5t173 25.5q124 0 199.5 -28.5t130.5 -67.5q32 -23 9 -53l-45 -60q-21 -29 -65 2q-37 26 -105 49t-119 23q-63 0 -108 -14t-73 -48t-28 -80q0 -35 11 -62.5
t41 -50.5t84 -37q84 -22 153.5 -40t125.5 -44q73 -34 112.5 -75t54.5 -88.5t15 -105.5q0 -107 -63.5 -181t-141.5 -98.5t-188 -24.5q-149 0 -255.5 42.5t-137.5 72.5z" />
    <glyph glyph-name="Tcaron" unicode="&#x164;" horiz-adv-x="1240" 
d="M293 1641q-41 19 -26 51l23 50q15 32 56 13l288 -132h2l288 132q41 19 56 -13l23 -50q15 -32 -26 -51l-243 -113q-39 -18 -64 -18h-70q-25 0 -64 18zM91 1262q-55 0 -55 45v82q0 45 55 45h1058q55 0 55 -45v-82q0 -45 -55 -45h-433v-1207q0 -55 -50 -55h-92q-50 0 -50 55
v1207h-433z" />
    <glyph glyph-name="tcaron" unicode="&#x165;" horiz-adv-x="757" 
d="M512 1153q-25 13 -7 50q17 34 29 73.5t12 107.5v47q0 45 45 45h86q45 0 45 -45v-32q0 -91 -26.5 -152t-72.5 -110q-27 -28 -49 -17zM91 918q-45 0 -45 35v62q0 35 45 35h118v90q0 20 10 38l70 127q19 35 31 35h35q30 0 30 -35v-255h213q45 0 45 -35v-62q0 -35 -45 -35
h-213v-637q0 -105 31.5 -136.5t75.5 -31.5q34 0 81.5 20t65.5 34t28 -9l33 -77q8 -20 -12 -32q-39 -23 -114 -44.5t-150 -21.5q-104 0 -159.5 75t-55.5 212v648h-118z" />
    <glyph glyph-name="Utilde" unicode="&#x168;" horiz-adv-x="1402" 
d="M355 1575q-23 13 -9 45q28 65 85.5 108t146.5 43q75 0 159 -49t128 -49q48 0 81 27t49 52q19 29 38 18l42 -25q23 -13 9 -45q-28 -65 -85.5 -108t-146.5 -43q-75 0 -159 49t-128 49q-48 0 -81 -27t-49 -52q-19 -29 -38 -18zM170 547v832q0 55 50 55h92q50 0 50 -55v-802
q0 -280 79.5 -365.5t259.5 -85.5t259.5 85.5t79.5 365.5v802q0 55 50 55h92q50 0 50 -55v-832q0 -317 -145.5 -447t-385.5 -130t-385.5 130t-145.5 447z" />
    <glyph glyph-name="utilde" unicode="&#x169;" horiz-adv-x="1120" 
d="M262 1175q-22 10 -12 44q21 71 71.5 116t130.5 45q68 0 138 -55t109 -55q43 0 64 22t37 60q13 30 37 20l39 -17q22 -10 12 -44q-21 -71 -71.5 -116t-130.5 -45q-68 0 -138 55t-109 55q-43 0 -64 -22t-37 -60q-13 -30 -37 -20zM140 366v639q0 45 45 45h86q45 0 45 -45
v-591q0 -196 65 -248.5t161 -52.5q126 0 193 77.5t67 265.5v549q0 45 45 45h86q45 0 45 -45v-960q0 -45 -45 -45h-84q-45 0 -45 45v80h-4q-65 -72 -140 -107t-183 -35q-175 0 -256 102.5t-81 280.5z" />
    <glyph glyph-name="Umacron" unicode="&#x16a;" horiz-adv-x="1402" 
d="M381 1558q-45 0 -45 40v50q0 40 45 40h640q45 0 45 -40v-50q0 -40 -45 -40h-640zM170 547v832q0 55 50 55h92q50 0 50 -55v-802q0 -280 79.5 -365.5t259.5 -85.5t259.5 85.5t79.5 365.5v802q0 55 50 55h92q50 0 50 -55v-832q0 -317 -145.5 -447t-385.5 -130t-385.5 130
t-145.5 447z" />
    <glyph glyph-name="umacron" unicode="&#x16b;" horiz-adv-x="1120" 
d="M295 1240q-45 0 -45 35v40q0 35 45 35h528q45 0 45 -35v-40q0 -35 -45 -35h-528zM140 366v639q0 45 45 45h86q45 0 45 -45v-591q0 -196 65 -248.5t161 -52.5q126 0 193 77.5t67 265.5v549q0 45 45 45h86q45 0 45 -45v-960q0 -45 -45 -45h-84q-45 0 -45 45v80h-4
q-65 -72 -140 -107t-183 -35q-175 0 -256 102.5t-81 280.5z" />
    <glyph glyph-name="Ubreve" unicode="&#x16c;" horiz-adv-x="1402" 
d="M367 1773q-20 45 13 60l49 22q33 14 54 -21q34 -56 89 -96t149 -40t149 40t89 96q21 35 54 21l49 -22q33 -15 13 -60q-50 -116 -146 -170.5t-208 -54.5t-208 54.5t-146 170.5zM170 547v832q0 55 50 55h92q50 0 50 -55v-802q0 -280 79.5 -365.5t259.5 -85.5t259.5 85.5
t79.5 365.5v802q0 55 50 55h92q50 0 50 -55v-832q0 -317 -145.5 -447t-385.5 -130t-385.5 130t-145.5 447z" />
    <glyph glyph-name="ubreve" unicode="&#x16d;" horiz-adv-x="1120" 
d="M267 1362q-19 41 13 55l47 22q29 14 45 -18q33 -65 76 -105t130 -40t130 40t76 105q16 32 45 18l47 -22q32 -14 13 -55q-53 -116 -130.5 -166t-180.5 -50t-180.5 50t-130.5 166zM140 366v639q0 45 45 45h86q45 0 45 -45v-591q0 -196 65 -248.5t161 -52.5q126 0 193 77.5
t67 265.5v549q0 45 45 45h86q45 0 45 -45v-960q0 -45 -45 -45h-84q-45 0 -45 45v80h-4q-65 -72 -140 -107t-183 -35q-175 0 -256 102.5t-81 280.5z" />
    <glyph glyph-name="Uring" unicode="&#x16e;" horiz-adv-x="1402" 
d="M519 1707q0 75 52 124t130 49t130 -50t52 -123t-52 -123t-130 -50t-130 49t-52 124zM597 1707q0 -42 29 -70.5t75 -28.5t75 28.5t29 70.5t-29 70.5t-75 28.5t-75 -28.5t-29 -70.5zM170 547v832q0 55 50 55h92q50 0 50 -55v-802q0 -280 79.5 -365.5t259.5 -85.5
t259.5 85.5t79.5 365.5v802q0 55 50 55h92q50 0 50 -55v-832q0 -317 -145.5 -447t-385.5 -130t-385.5 130t-145.5 447z" />
    <glyph glyph-name="uring" unicode="&#x16f;" horiz-adv-x="1120" 
d="M379 1313q0 75 52.5 127.5t127.5 52.5t127.5 -52.5t52.5 -127.5t-52.5 -127.5t-127.5 -52.5t-127.5 52.5t-52.5 127.5zM455 1313q0 -44 30 -74t74 -30t74 30t30 74t-30 74t-74 30t-74 -30t-30 -74zM140 366v639q0 45 45 45h86q45 0 45 -45v-591q0 -196 65 -248.5
t161 -52.5q126 0 193 77.5t67 265.5v549q0 45 45 45h86q45 0 45 -45v-960q0 -45 -45 -45h-84q-45 0 -45 45v80h-4q-65 -72 -140 -107t-183 -35q-175 0 -256 102.5t-81 280.5z" />
    <glyph glyph-name="Uhungarumlaut" unicode="&#x170;" horiz-adv-x="1402" 
d="M481 1540q-55 0 -12 53l127 155q30 37 81 37h119q73 0 14 -52l-187 -164q-33 -29 -77 -29h-65zM851 1540q-55 0 -12 53l127 155q30 37 81 37h119q73 0 14 -52l-187 -164q-33 -29 -77 -29h-65zM170 547v832q0 55 50 55h92q50 0 50 -55v-802q0 -280 79.5 -365.5
t259.5 -85.5t259.5 85.5t79.5 365.5v802q0 55 50 55h92q50 0 50 -55v-832q0 -317 -145.5 -447t-385.5 -130t-385.5 130t-145.5 447z" />
    <glyph glyph-name="uhungarumlaut" unicode="&#x171;" horiz-adv-x="1120" 
d="M362 1150q-39 0 -12 53l99 195q19 37 81 37h97q55 0 14 -52l-160 -204q-23 -29 -77 -29h-42zM662 1150q-39 0 -12 53l99 195q19 37 81 37h97q55 0 14 -52l-160 -204q-23 -29 -77 -29h-42zM140 366v639q0 45 45 45h86q45 0 45 -45v-591q0 -196 65 -248.5t161 -52.5
q126 0 193 77.5t67 265.5v549q0 45 45 45h86q45 0 45 -45v-960q0 -45 -45 -45h-84q-45 0 -45 45v80h-4q-65 -72 -140 -107t-183 -35q-175 0 -256 102.5t-81 280.5z" />
    <glyph glyph-name="Wcircumflex" unicode="&#x174;" horiz-adv-x="1888" 
d="M591 1580q-15 32 26 51l243 113q39 18 64 18h70q25 0 64 -18l243 -113q41 -19 26 -51l-23 -50q-15 -32 -56 -13l-288 132h-2l-288 -132q-41 -19 -56 13zM64 1374q-16 60 26 60h122q32 0 43 -46l223 -961q14 -58 31.5 -126t30.5 -128h5q10 59 23.5 117t30.5 136l228 954
q13 54 64 54h138q51 0 64 -54l228 -954q17 -78 30.5 -136t23.5 -117h5q13 60 30.5 128t31.5 126l223 961q11 46 43 46h122q42 0 26 -60l-344 -1297q-20 -77 -74 -77h-125q-50 0 -71 84l-241 959q-18 73 -26 119.5t-14 96.5h-2q-6 -50 -14 -96.5t-26 -119.5l-241 -959
q-21 -84 -71 -84h-125q-54 0 -74 77z" />
    <glyph glyph-name="wcircumflex" unicode="&#x175;" horiz-adv-x="1444" 
d="M446 1182q-23 26 12 55l206 171q31 26 56 26h50q25 0 56 -26l206 -171q35 -29 12 -55l-27 -31q-23 -26 -57 2l-214 179h-2l-214 -179q-34 -28 -57 -2zM58 1001q-13 49 27 49h105q36 0 45 -39l147 -660q7 -29 21.5 -91t20.5 -91h4q5 28 17.5 84t23.5 98l176 660
q10 39 45 39h90q35 0 45 -39l176 -660q11 -42 23.5 -98t17.5 -84h4q6 29 20.5 91t21.5 91l147 660q9 39 45 39h105q40 0 27 -49l-248 -940q-16 -61 -54 -61h-120q-38 0 -54 61l-170 661q-18 70 -22.5 98t-7.5 53h-2q-3 -25 -7.5 -53t-22.5 -98l-170 -661q-16 -61 -54 -61
h-120q-38 0 -54 61z" />
    <glyph glyph-name="Ycircumflex" unicode="&#x176;" horiz-adv-x="1302" 
d="M297 1580q-15 32 26 51l243 113q39 18 64 18h70q25 0 64 -18l243 -113q41 -19 26 -51l-23 -50q-15 -32 -56 -13l-288 132h-2l-288 -132q-41 -19 -56 13zM97 1368q-43 66 27 66h112q44 0 72 -49l254 -437q42 -72 72 -125.5t58 -113.5h4q28 60 58 113.5t72 125.5l254 437
q28 49 72 49h112q70 0 27 -66l-501 -778v-535q0 -55 -50 -55h-92q-50 0 -50 55v535z" />
    <glyph glyph-name="ycircumflex" unicode="&#x177;" horiz-adv-x="990" 
d="M222 1182q-23 26 12 55l206 171q31 26 56 26h50q25 0 56 -26l206 -171q35 -29 12 -55l-27 -31q-23 -26 -57 2l-214 179h-2l-214 -179q-34 -28 -57 -2zM69 1001q-18 49 27 49h109q33 0 45 -39l210 -660q9 -27 27.5 -84.5t26.5 -102.5h2q8 45 19.5 81.5t34.5 105.5l212 660
q13 39 45 39h109q45 0 27 -49l-337 -940q-95 -265 -170 -371.5t-224 -106.5q-78 0 -124 23q-21 10 -14 31l26 81q7 21 27 12q41 -17 79 -17q70 0 114 75.5t70 151.5l20 59z" />
    <glyph glyph-name="Ydieresis" unicode="&#x178;" horiz-adv-x="1302" 
d="M365 1550q-45 0 -45 45v92q0 45 45 45h92q45 0 45 -45v-92q0 -45 -45 -45h-92zM843 1550q-45 0 -45 45v92q0 45 45 45h92q45 0 45 -45v-92q0 -45 -45 -45h-92zM97 1368q-43 66 27 66h112q44 0 72 -49l254 -437q42 -72 72 -125.5t58 -113.5h4q28 60 58 113.5t72 125.5
l254 437q28 49 72 49h112q70 0 27 -66l-501 -778v-535q0 -55 -50 -55h-92q-50 0 -50 55v535z" />
    <glyph glyph-name="Zacute" unicode="&#x179;" horiz-adv-x="1216" 
d="M513 1540q-57 0 -12 53l133 155q32 37 81 37h157q77 0 14 -52l-198 -164q-35 -29 -81 -29h-94zM120 0q-55 0 -55 45v48q0 48 30 89l786 1086v4q-40 -2 -80 -2h-649q-55 0 -55 45v74q0 45 55 45h922q55 0 55 -45v-31q0 -33 -20 -61l-796 -1131v-4q27 2 80 2h703
q55 0 55 -45v-74q0 -45 -55 -45h-976z" />
    <glyph glyph-name="zacute" unicode="&#x17a;" horiz-adv-x="950" 
d="M385 1150q-50 0 -12 53l139 195q26 37 81 37h111q59 0 14 -52l-178 -204q-25 -29 -81 -29h-74zM100 0q-45 0 -45 35v51q0 34 35 80l578 752v2q-30 -2 -60 -2h-484q-45 0 -45 35v62q0 35 45 35h702q45 0 45 -35v-47q0 -30 -37 -78l-582 -758v-2q30 2 60 2h538q45 0 45 -35
v-62q0 -35 -45 -35h-750z" />
    <glyph glyph-name="Zdotaccent" unicode="&#x17b;" horiz-adv-x="1216" 
d="M557 1545q-45 0 -45 45v102q0 45 45 45h102q45 0 45 -45v-102q0 -45 -45 -45h-102zM120 0q-55 0 -55 45v48q0 48 30 89l786 1086v4q-40 -2 -80 -2h-649q-55 0 -55 45v74q0 45 55 45h922q55 0 55 -45v-31q0 -33 -20 -61l-796 -1131v-4q27 2 80 2h703q55 0 55 -45v-74
q0 -45 -55 -45h-976z" />
    <glyph glyph-name="zdotaccent" unicode="&#x17c;" horiz-adv-x="950" 
d="M432 1240q-45 0 -45 45v86q0 45 45 45h86q45 0 45 -45v-86q0 -45 -45 -45h-86zM100 0q-45 0 -45 35v51q0 34 35 80l578 752v2q-30 -2 -60 -2h-484q-45 0 -45 35v62q0 35 45 35h702q45 0 45 -35v-47q0 -30 -37 -78l-582 -758v-2q30 2 60 2h538q45 0 45 -35v-62
q0 -35 -45 -35h-750z" />
    <glyph glyph-name="Zcaron" unicode="&#x17d;" horiz-adv-x="1216" 
d="M281 1641q-41 19 -26 51l23 50q15 32 56 13l288 -132h2l288 132q41 19 56 -13l23 -50q15 -32 -26 -51l-243 -113q-39 -18 -64 -18h-70q-25 0 -64 18zM120 0q-55 0 -55 45v48q0 48 30 89l786 1086v4q-40 -2 -80 -2h-649q-55 0 -55 45v74q0 45 55 45h922q55 0 55 -45v-31
q0 -33 -20 -61l-796 -1131v-4q27 2 80 2h703q55 0 55 -45v-74q0 -45 -55 -45h-976z" />
    <glyph glyph-name="zcaron" unicode="&#x17e;" horiz-adv-x="950" 
d="M211 1335q-35 29 -12 55l27 31q23 26 57 -2l214 -179h2l214 179q34 28 57 2l27 -31q23 -26 -12 -55l-206 -171q-31 -26 -56 -26h-50q-25 0 -56 26zM100 0q-45 0 -45 35v51q0 34 35 80l578 752v2q-30 -2 -60 -2h-484q-45 0 -45 35v62q0 35 45 35h702q45 0 45 -35v-47
q0 -30 -37 -78l-582 -758v-2q30 2 60 2h538q45 0 45 -35v-62q0 -35 -45 -35h-750z" />
    <glyph glyph-name="longs" unicode="&#x17f;" horiz-adv-x="580" 
d="M187 0q-45 0 -45 45v1154q0 167 93.5 230.5t216.5 63.5q60 0 96.5 -8.5t84.5 -32.5q22 -11 13 -32l-33 -74q-13 -29 -35 -14q-18 13 -43.5 22t-65.5 9q-62 0 -106.5 -40t-44.5 -153v-1125q0 -45 -45 -45h-86z" />
    <glyph glyph-name="uni0180" unicode="&#x180;" horiz-adv-x="1189" 
d="M75 1208q-45 0 -45 35v62q0 35 45 35h137v91q0 45 45 45h86q45 0 45 -45v-91h363q45 0 45 -35v-62q0 -35 -45 -35h-363v-222q0 -31 -2 -61h2q55 66 124 104t184 38q200 0 304 -163.5t104 -378.5t-104 -378.5t-304 -163.5q-115 0 -184 38t-124 104h-2l-6 -80
q-3 -45 -39 -45h-84q-45 0 -45 45v1163h-137zM388 410q0 -150 71.5 -223.5t179.5 -73.5q152 0 215.5 114t63.5 298t-63.5 298t-215.5 114q-108 0 -179.5 -73.5t-71.5 -223.5v-230z" />
    <glyph glyph-name="uni0186" unicode="&#x186;" horiz-adv-x="1402" 
d="M141 1196q59 115 192 191.5t335 76.5q325 0 498.5 -198.5t173.5 -548.5t-173.5 -548.5t-498.5 -198.5q-190 0 -314 64.5t-178 176.5q-28 58 9 80l79 46q40 23 71 -38q33 -63 108 -118t215 -55q250 0 363.5 155.5t113.5 435.5t-113.5 435.5t-363.5 155.5
q-144 0 -230.5 -66t-125.5 -138q-31 -58 -72 -35l-83 47q-36 21 -6 80z" />
    <glyph glyph-name="uni0189" unicode="&#x189;" horiz-adv-x="1486" 
d="M95 654q-55 0 -55 45v74q0 45 55 45h125v561q0 55 50 55h369q424 0 589.5 -187.5t165.5 -527.5t-165.5 -529.5t-589.5 -189.5h-369q-50 0 -50 55v599h-125zM412 164h218q330 0 444.5 140t114.5 415t-114.5 414t-444.5 139h-218v-454h311q55 0 55 -45v-74q0 -45 -55 -45
h-311v-490z" />
    <glyph glyph-name="uni018E" unicode="&#x18e;" horiz-adv-x="1270" 
d="M90 45v74q0 45 55 45h763v498h-673q-55 0 -55 45v74q0 45 55 45h673v444h-733q-55 0 -55 45v74q0 45 55 45h875q50 0 50 -55v-1324q0 -55 -50 -55h-905q-55 0 -55 45z" />
    <glyph glyph-name="uni018F" unicode="&#x18f;" horiz-adv-x="1474" 
d="M92 755q0 65 54 65h1026q-7 197 -116 342.5t-342 145.5q-134 0 -227 -36t-159 -91q-48 -40 -78 -11l-60 60q-29 29 22 76q74 68 200 113t295 45q330 0 502.5 -198.5t172.5 -548.5t-174.5 -548.5t-482.5 -198.5q-322 0 -477.5 198t-155.5 587zM298 656q0 -224 99 -377
t328 -153q212 0 327.5 147t123.5 383h-878z" />
    <glyph glyph-name="uni0190" unicode="&#x190;" horiz-adv-x="1194" 
d="M110 397q0 150 98 252t214 114v4q-110 32 -184.5 122t-74.5 203q0 140 116.5 256t339.5 116q106 0 217.5 -36t189.5 -99q57 -46 23 -83l-62 -69q-27 -30 -72 15q-48 47 -126.5 81.5t-165.5 34.5q-107 0 -186 -54t-79 -173q0 -102 67 -175t207 -73h106q47 0 47 -45v-70
q0 -43 -47 -43h-113q-106 0 -208 -66t-102 -195q0 -151 83.5 -219.5t227.5 -68.5q94 0 180 47t132 94q50 52 81 18l63 -69q29 -31 -16 -75q-62 -61 -169.5 -116t-264.5 -55q-230 0 -376 109.5t-146 317.5z" />
    <glyph glyph-name="uni0191" unicode="&#x191;" horiz-adv-x="1166" 
d="M-149 -382q-40 16 -28 58l21 71q14 46 68 21q62 -29 116 -29q78 0 116 51.5t38 247.5v1341q0 55 50 55h815q55 0 55 -45v-74q0 -45 -55 -45h-673v-474h587q55 0 55 -45v-74q0 -45 -55 -45h-587v-641q0 -227 -86 -317.5t-254 -90.5q-93 0 -183 35z" />
    <glyph glyph-name="florin" unicode="&#x192;" horiz-adv-x="652" 
d="M-31 -397q-22 10 -18 32l17 81q5 24 25 15q39 -18 96 -18q59 0 85.5 58t26.5 235v912h-107q-45 0 -45 35v62q0 35 45 35h107v149q0 167 90 230.5t206 63.5q69 0 111.5 -7t100.5 -31q22 -9 13 -32l-31 -79q-8 -20 -35 -8q-22 10 -54 18.5t-69 8.5q-83 0 -119.5 -40
t-36.5 -153v-120h183q45 0 45 -35v-62q0 -35 -45 -35h-183v-1011q0 -194 -73.5 -259t-182.5 -65q-106 0 -152 20z" />
    <glyph glyph-name="uni0194" unicode="&#x194;" horiz-adv-x="1282" 
d="M92 1368q-38 66 27 66h112q46 0 72 -49l254 -487q38 -74 65 -128t55 -114h4q28 60 55 114t65 128l254 487q26 49 72 49h112q65 0 27 -66l-482 -828q86 -100 130 -181t44 -136q0 -125 -74 -189t-207 -64t-207 64t-74 189q0 55 46 136t132 181zM588 223q0 -45 22 -71
t67 -26t67 26t22 71q0 20 -6.5 55.5t-80.5 145.5h-4q-74 -110 -80.5 -145.5t-6.5 -55.5z" />
    <glyph glyph-name="uni0195" unicode="&#x195;" horiz-adv-x="1694" 
d="M187 0q-45 0 -45 45v1386q0 45 45 45h86q45 0 45 -45v-446q0 -30 -2 -60h4q65 72 140 107t187 35q182 0 261.5 -102.5t79.5 -280.5v-316q0 -160 54 -207.5t141 -47.5q109 0 174.5 96.5t65.5 317.5q0 161 -47 272.5t-80 177.5q-21 43 9 53l98 34q33 11 57 -28
q51 -83 100 -210.5t49 -256.5q0 -299 -109 -442.5t-339 -143.5q-150 0 -249.5 88.5t-99.5 317.5v247q0 196 -65 248.5t-165 52.5q-130 0 -197 -77.5t-67 -265.5v-549q0 -45 -45 -45h-86z" />
    <glyph glyph-name="uni0196" unicode="&#x196;" horiz-adv-x="815" 
d="M170 358v1021q0 55 50 55h92q50 0 50 -55v-1037q0 -116 36.5 -166t108.5 -50q36 0 75.5 14t73.5 35q50 31 73 -14l29 -57q20 -39 -16 -66q-42 -31 -114 -49.5t-121 -18.5q-177 0 -257 90.5t-80 297.5z" />
    <glyph glyph-name="uni0197" unicode="&#x197;" horiz-adv-x="702" 
d="M305 0q-50 0 -50 55v589h-150q-55 0 -55 45v74q0 45 55 45h150v571q0 55 50 55h92q50 0 50 -55v-571h150q55 0 55 -45v-74q0 -45 -55 -45h-150v-589q0 -55 -50 -55h-92z" />
    <glyph glyph-name="uni019D" unicode="&#x19d;" horiz-adv-x="1462" 
d="M-125 -382q-40 16 -28 58l21 71q14 46 68 21q62 -29 116 -29q78 0 116 51.5t38 248.5v1340q0 55 50 55h128q70 0 100 -50l626 -1049h4q-2 40 -2 80v964q0 55 50 55h92q50 0 50 -55v-1324q0 -55 -50 -55h-88q-70 0 -100 50l-666 1113h-4q2 -40 2 -80v-1091
q0 -228 -86 -318.5t-254 -90.5q-93 0 -183 35z" />
    <glyph glyph-name="uni019E" unicode="&#x19e;" horiz-adv-x="1130" 
d="M187 0q-45 0 -45 45v960q0 45 45 45h84q45 0 45 -45v-80h4q65 72 140 107t187 35q182 0 261.5 -102.5t79.5 -280.5v-1039q0 -45 -45 -45h-86q-45 0 -45 45v991q0 196 -65 248.5t-165 52.5q-130 0 -197 -77.5t-67 -265.5v-549q0 -45 -45 -45h-86z" />
    <glyph glyph-name="uni019F" unicode="&#x19f;" horiz-adv-x="1524" 
d="M92 719q0 350 172.5 547.5t497.5 197.5t497.5 -198.5t172.5 -548.5t-172.5 -548.5t-497.5 -198.5t-497.5 199.5t-172.5 549.5zM298 664q10 -242 119.5 -390t344.5 -148t344.5 148t119.5 390h-928zM302 828h920q-19 201 -122 340.5t-338 139.5t-338 -139.5t-122 -340.5z
" />
    <glyph glyph-name="uni01A7" unicode="&#x1a7;" horiz-adv-x="1224" 
d="M108 376q0 78 22.5 140.5t63 116t132.5 102.5q99 53 231.5 89.5t195.5 63.5q47 20 80 57t41 72.5t8 77.5q0 67 -35 118t-96 72.5t-153 21.5q-72 0 -145.5 -31.5t-124.5 -67.5q-67 -47 -90 -14l-51 73q-28 41 24 78q74 53 168 86t221 33q111 0 218.5 -30t181.5 -122
t74 -219q0 -83 -17.5 -147.5t-71 -125.5t-143.5 -104q-91 -43 -212.5 -80t-182.5 -65q-37 -17 -71 -47t-49.5 -74.5t-15.5 -96.5q0 -72 37.5 -122.5t99.5 -77.5t152 -27q122 0 207.5 38t164.5 97q60 45 87 6l52 -75q25 -36 -28 -84q-59 -54 -178 -96t-300 -42
q-151 0 -251 37t-173 132t-73 237z" />
    <glyph glyph-name="uni01A8" unicode="&#x1a8;" horiz-adv-x="944" 
d="M75 287q0 58 15 105.5t54.5 88.5t112.5 75q56 26 125.5 44t153.5 40q54 14 84 37t41 50.5t11 62.5q0 46 -28 80t-73 48t-108 14q-51 0 -119 -23t-105 -49q-44 -31 -65 -2l-45 60q-23 30 9 53q55 39 130.5 67.5t199.5 28.5q84 0 173 -25.5t148 -95.5t59 -167
q0 -95 -36.5 -149t-85.5 -85.5t-104 -48.5q-82 -26 -132.5 -38.5t-101.5 -31.5q-31 -11 -63.5 -30.5t-48 -51.5t-15.5 -68q0 -62 32.5 -99t75.5 -50.5t98 -13.5q93 0 165.5 27t131.5 72q43 33 65 3l45 -63q18 -25 -13 -54q-31 -30 -137.5 -72.5t-255.5 -42.5
q-110 0 -188 24.5t-141.5 98.5t-63.5 181z" />
    <glyph glyph-name="uni01A9" unicode="&#x1a9;" horiz-adv-x="1208" 
d="M129 0q-55 0 -55 45v48q0 47 30 89l390 540q26 36 0 72l-374 505q-20 27 -20 61v29q0 45 55 45h898q55 0 55 -45v-74q0 -45 -55 -45h-610q-40 0 -80 2v-4l356 -482q24 -33 0 -67l-399 -553v-4q27 2 80 2h681q55 0 55 -45v-74q0 -45 -55 -45h-952z" />
    <glyph glyph-name="uni01B2" unicode="&#x1b2;" horiz-adv-x="1341" 
d="M170 547v832q0 55 50 55h92q50 0 50 -55v-802q0 -280 87.5 -365.5t243.5 -85.5q171 0 261 142.5t90 438.5q0 220 -69.5 364t-151.5 224q-47 46 -5 82l80 69q39 34 83 -15q131 -144 199.5 -324t68.5 -358q0 -365 -126.5 -572t-436.5 -207q-236 0 -376 130t-140 447z" />
    <glyph glyph-name="uni01B7" unicode="&#x1b7;" horiz-adv-x="1257" 
d="M157 160q-39 43 -5 77l64 64q32 32 81 -21q50 -55 132.5 -104.5t221.5 -49.5q131 0 228.5 78t97.5 203q0 139 -85.5 201.5t-251.5 62.5h-116q-55 0 -55 43v70q0 45 25 73l364 411v4q-40 -2 -80 -2h-571q-55 0 -55 45v74q0 45 55 45h866q55 0 55 -45v-35q0 -38 -20 -61
l-404 -456v-4q228 0 352 -125.5t124 -295.5q0 -205 -137.5 -323.5t-397.5 -118.5q-212 0 -325.5 67.5t-162.5 122.5z" />
    <glyph glyph-name="uni01CD" unicode="&#x1cd;" horiz-adv-x="1360" 
d="M353 1641q-41 19 -26 51l23 50q15 32 56 13l288 -132h2l288 132q41 19 56 -13l23 -50q15 -32 -26 -51l-243 -113q-39 -18 -64 -18h-70q-25 0 -64 18zM98 0q-52 0 -27 66l498 1307q23 61 66 61h140q43 0 66 -61l498 -1307q25 -66 -27 -66h-102q-53 0 -72 49l-125 331h-616
l-125 -331q-19 -49 -72 -49h-102zM460 544h490l-153 400q-21 56 -41.5 124t-48.5 193h-4q-28 -125 -48.5 -193t-41.5 -124z" />
    <glyph glyph-name="uni01CE" unicode="&#x1ce;" horiz-adv-x="1067" 
d="M274 1335q-35 29 -12 55l27 31q23 26 57 -2l214 -179h2l214 179q34 28 57 2l27 -31q23 -26 -12 -55l-206 -171q-31 -26 -56 -26h-50q-25 0 -56 26zM85 280q0 178 166.5 261t497.5 97v68q0 94 -42.5 162.5t-168.5 68.5q-80 0 -128 -15.5t-87.5 -41t-75.5 -65.5
q-27 -30 -51 -3l-52 60q-22 25 15 60q53 50 103 75t124.5 42.5t151.5 17.5q209 0 298 -107.5t89 -294.5v-620q0 -45 -45 -45h-90q-39 0 -39 45v49h-2q-79 -62 -154.5 -86.5t-168.5 -24.5q-164 0 -252.5 78.5t-88.5 218.5zM267 276q0 -62 26 -99.5t72 -48t96 -10.5
q77 0 146 15t142 79v295q-202 -15 -288 -36.5t-140 -74t-54 -120.5z" />
    <glyph glyph-name="uni01CF" unicode="&#x1cf;" horiz-adv-x="532" 
d="M-61 1641q-41 19 -26 51l23 50q15 32 56 13l288 -132h2l288 132q41 19 56 -13l23 -50q15 -32 -26 -51l-243 -113q-39 -18 -64 -18h-70q-25 0 -64 18zM220 0q-50 0 -50 55v1324q0 55 50 55h92q50 0 50 -55v-1324q0 -55 -50 -55h-92z" />
    <glyph glyph-name="uni01D1" unicode="&#x1d1;" horiz-adv-x="1524" 
d="M435 1641q-41 19 -26 51l23 50q15 32 56 13l288 -132h2l288 132q41 19 56 -13l23 -50q15 -32 -26 -51l-243 -113q-39 -18 -64 -18h-70q-25 0 -64 18zM92 717q0 350 172.5 548.5t497.5 198.5t497.5 -198.5t172.5 -548.5t-172.5 -548.5t-497.5 -198.5t-497.5 198.5
t-172.5 548.5zM297 717q0 -280 115 -435.5t350 -155.5t350 155.5t115 435.5t-115 435.5t-350 155.5t-350 -155.5t-115 -435.5z" />
    <glyph glyph-name="uni01D2" unicode="&#x1d2;" horiz-adv-x="1148" 
d="M310 1335q-35 29 -12 55l27 31q23 26 57 -2l214 -179h2l214 179q34 28 57 2l27 -31q23 -26 -12 -55l-206 -171q-31 -26 -56 -26h-50q-25 0 -56 26zM85 525q0 235 124.5 388.5t364.5 153.5t364.5 -153.5t124.5 -388.5t-124.5 -388.5t-364.5 -153.5t-364.5 153.5
t-124.5 388.5zM271 525q0 -210 83 -311t220 -101t220 101t83 311t-83 311t-220 101t-220 -101t-83 -311z" />
    <glyph glyph-name="uni01D3" unicode="&#x1d3;" horiz-adv-x="1402" 
d="M374 1641q-41 19 -26 51l23 50q15 32 56 13l288 -132h2l288 132q41 19 56 -13l23 -50q15 -32 -26 -51l-243 -113q-39 -18 -64 -18h-70q-25 0 -64 18zM170 547v832q0 55 50 55h92q50 0 50 -55v-802q0 -280 79.5 -365.5t259.5 -85.5t259.5 85.5t79.5 365.5v802q0 55 50 55
h92q50 0 50 -55v-832q0 -317 -145.5 -447t-385.5 -130t-385.5 130t-145.5 447z" />
    <glyph glyph-name="uni01D4" unicode="&#x1d4;" horiz-adv-x="1120" 
d="M295 1335q-35 29 -12 55l27 31q23 26 57 -2l214 -179h2l214 179q34 28 57 2l27 -31q23 -26 -12 -55l-206 -171q-31 -26 -56 -26h-50q-25 0 -56 26zM140 366v639q0 45 45 45h86q45 0 45 -45v-591q0 -196 65 -248.5t161 -52.5q126 0 193 77.5t67 265.5v549q0 45 45 45h86
q45 0 45 -45v-960q0 -45 -45 -45h-84q-45 0 -45 45v80h-4q-65 -72 -140 -107t-183 -35q-175 0 -256 102.5t-81 280.5z" />
    <glyph glyph-name="uni01DD" unicode="&#x1dd;" horiz-adv-x="1098" 
d="M89 547q0 45 41 45h697q-17 193 -104 268.5t-197 75.5q-116 0 -178 -39t-91 -77q-32 -42 -62 -16l-59 51q-23 20 0 55q19 29 108.5 93t281.5 64q250 0 368.5 -147t118.5 -395t-124 -395t-355 -147q-192 0 -318.5 134.5t-126.5 429.5zM266 462q4 -140 72 -245.5
t200 -105.5q116 0 197 77.5t96 273.5h-565z" />
    <glyph glyph-name="uni01E2" unicode="&#x1e2;" horiz-adv-x="1957" 
d="M673 1558q-45 0 -45 40v50q0 40 45 40h640q45 0 45 -40v-50q0 -40 -45 -40h-640zM105 0q-59 0 -27 66l644 1316q25 52 68 52h1024q55 0 55 -45v-74q0 -45 -55 -45h-693v-444h633q55 0 55 -45v-74q0 -45 -55 -45h-633v-498h723q55 0 55 -45v-74q0 -45 -55 -45h-865
q-50 0 -50 55v325h-489l-160 -331q-24 -49 -68 -49h-107zM521 544h408v726h-70q-17 -59 -37.5 -106.5t-51.5 -110.5z" />
    <glyph glyph-name="uni01E3" unicode="&#x1e3;" horiz-adv-x="1729" 
d="M596 1240q-45 0 -45 35v40q0 35 45 35h528q45 0 45 -35v-40q0 -35 -45 -35h-528zM85 280q0 178 164 261t490 97v68q0 94 -42.5 162.5t-163.5 68.5q-92 0 -139.5 -19.5t-79.5 -41.5t-67 -61q-27 -30 -51 -3l-52 60q-22 25 15 60q45 43 94 68.5t128.5 46t151.5 20.5
q101 0 185.5 -30t135.5 -124h3q79 95 167.5 124.5t178.5 29.5q186 0 311.5 -134.5t125.5 -429.5q0 -45 -41 -45h-680q16 -193 100.5 -268.5t191.5 -75.5q112 0 172.5 39t88.5 77q32 42 62 16l59 -51q23 -20 0 -55q-19 -29 -107.5 -93t-274.5 -64q-126 0 -216 38t-162 135h-2
q-113 -96 -211 -134.5t-199 -38.5q-159 0 -247.5 78.5t-88.5 218.5zM267 276q0 -52 16.5 -84.5t53 -53t119.5 -20.5q96 0 163 24t140 91q-20 132 -20 274q-200 -15 -287.5 -39.5t-136 -77t-48.5 -114.5zM915 588h548q-4 140 -70 245.5t-194 105.5q-112 0 -190.5 -77.5
t-93.5 -273.5z" />
    <glyph glyph-name="Gcaron" unicode="&#x1e6;" horiz-adv-x="1470" 
d="M449 1641q-41 19 -26 51l23 50q15 32 56 13l288 -132h2l288 132q41 19 56 -13l23 -50q15 -32 -26 -51l-243 -113q-39 -18 -64 -18h-70q-25 0 -64 18zM92 717q0 350 181 548.5t503 198.5q193 0 315 -66.5t179 -156.5q35 -56 -1 -81l-75 -52q-37 -26 -74 31
q-30 45 -113 107t-221 62q-245 0 -367 -155.5t-122 -435.5t119 -435.5t380 -155.5q130 0 226.5 31.5t135.5 87.5v265h-297q-55 0 -55 45v74q0 45 55 45h434q55 0 55 -45v-472q-122 -89 -244 -138t-320 -49q-330 0 -512 198.5t-182 548.5z" />
    <glyph glyph-name="gcaron" unicode="&#x1e7;" horiz-adv-x="1119" 
d="M267 1335q-35 29 -12 55l27 31q23 26 57 -2l214 -179h2l214 179q34 28 57 2l27 -31q23 -26 -12 -55l-206 -171q-31 -26 -56 -26h-50q-25 0 -56 26zM85 525q0 215 104 378.5t304 163.5q115 0 184 -38t124 -104h2l6 80q3 45 39 45h84q45 0 45 -45v-1013
q0 -192 -88.5 -300.5t-349.5 -108.5q-175 0 -262 39.5t-124 83.5q-27 33 -3 56l55 54q23 22 64 -14q53 -48 102 -68.5t169 -20.5q136 0 198.5 58t62.5 240v60q0 31 2 61h-2q-52 -69 -122.5 -109t-185.5 -40q-200 0 -304 163.5t-104 378.5zM271 525q0 -184 63.5 -298
t215.5 -114q108 0 179.5 73.5t71.5 223.5v230q0 150 -71.5 223.5t-179.5 73.5q-152 0 -215.5 -114t-63.5 -298z" />
    <glyph glyph-name="uni01E8" unicode="&#x1e8;" horiz-adv-x="1328" 
d="M401 1641q-41 19 -26 51l23 50q15 32 56 13l288 -132h2l288 132q41 19 56 -13l23 -50q15 -32 -26 -51l-243 -113q-39 -18 -64 -18h-70q-25 0 -64 18zM220 0q-50 0 -50 55v1324q0 55 50 55h92q50 0 50 -55v-588q0 -40 -2 -80h4l668 684q38 39 70 39h121q83 0 18 -66
l-508 -518l535 -784q44 -66 -18 -66h-122q-44 0 -70 39l-457 675l-239 -243v-416q0 -55 -50 -55h-92z" />
    <glyph glyph-name="uni01E9" unicode="&#x1e9;" horiz-adv-x="1003" 
d="M283 1744q-35 29 -12 55l27 31q23 26 57 -2l214 -179h2l214 179q34 28 57 2l27 -31q23 -26 -12 -55l-206 -171q-31 -26 -56 -26h-50q-25 0 -56 26zM187 0q-45 0 -45 45v1386q0 45 45 45h86q45 0 45 -45v-832q0 -30 -2 -60h2l405 485q22 26 53 26h91q76 0 26 -59
l-314 -374l359 -558q38 -59 -26 -59h-98q-33 0 -57 37l-288 449l-151 -180v-261q0 -45 -45 -45h-86z" />
    <glyph glyph-name="uni01EE" unicode="&#x1ee;" horiz-adv-x="1257" 
d="M297 1641q-41 19 -26 51l23 50q15 32 56 13l288 -132h2l288 132q41 19 56 -13l23 -50q15 -32 -26 -51l-243 -113q-39 -18 -64 -18h-70q-25 0 -64 18zM157 160q-39 43 -5 77l64 64q32 32 81 -21q50 -55 132.5 -104.5t221.5 -49.5q131 0 228.5 78t97.5 203
q0 139 -85.5 201.5t-251.5 62.5h-116q-55 0 -55 43v70q0 45 25 73l364 411v4q-40 -2 -80 -2h-571q-55 0 -55 45v74q0 45 55 45h866q55 0 55 -45v-35q0 -38 -20 -61l-404 -456v-4q228 0 352 -125.5t124 -295.5q0 -205 -137.5 -323.5t-397.5 -118.5q-212 0 -325.5 67.5
t-162.5 122.5z" />
    <glyph glyph-name="uni01EF" unicode="&#x1ef;" horiz-adv-x="982" 
d="M210 1335q-35 29 -12 55l27 31q23 26 57 -2l214 -179h2l214 179q34 28 57 2l27 -31q23 -26 -12 -55l-206 -171q-31 -26 -56 -26h-50q-25 0 -56 26zM98 -271q-21 36 2 55l60 49q30 25 62 -19q6 -8 66 -54.5t173 -46.5q148 0 202 74.5t54 226.5q0 142 -63 217t-238 75h-75
q-45 0 -45 35v51q0 36 35 80l358 446v2q-30 -2 -60 -2h-484q-45 0 -45 35v62q0 35 45 35h702q45 0 45 -35v-47q0 -32 -37 -78l-362 -452v-4q185 0 297.5 -107.5t112.5 -304.5q0 -226 -106.5 -332.5t-325.5 -106.5q-174 0 -269.5 66t-103.5 80z" />
    <glyph glyph-name="uni01F4" unicode="&#x1f4;" horiz-adv-x="1470" 
d="M681 1540q-57 0 -12 53l133 155q32 37 81 37h157q77 0 14 -52l-198 -164q-35 -29 -81 -29h-94zM92 717q0 350 181 548.5t503 198.5q193 0 315 -66.5t179 -156.5q35 -56 -1 -81l-75 -52q-37 -26 -74 31q-30 45 -113 107t-221 62q-245 0 -367 -155.5t-122 -435.5
t119 -435.5t380 -155.5q130 0 226.5 31.5t135.5 87.5v265h-297q-55 0 -55 45v74q0 45 55 45h434q55 0 55 -45v-472q-122 -89 -244 -138t-320 -49q-330 0 -512 198.5t-182 548.5z" />
    <glyph glyph-name="uni01F5" unicode="&#x1f5;" horiz-adv-x="1119" 
d="M441 1150q-50 0 -12 53l139 195q26 37 81 37h111q59 0 14 -52l-178 -204q-25 -29 -81 -29h-74zM85 525q0 215 104 378.5t304 163.5q115 0 184 -38t124 -104h2l6 80q3 45 39 45h84q45 0 45 -45v-1013q0 -192 -88.5 -300.5t-349.5 -108.5q-175 0 -262 39.5t-124 83.5
q-27 33 -3 56l55 54q23 22 64 -14q53 -48 102 -68.5t169 -20.5q136 0 198.5 58t62.5 240v60q0 31 2 61h-2q-52 -69 -122.5 -109t-185.5 -40q-200 0 -304 163.5t-104 378.5zM271 525q0 -184 63.5 -298t215.5 -114q108 0 179.5 73.5t71.5 223.5v230q0 150 -71.5 223.5
t-179.5 73.5q-152 0 -215.5 -114t-63.5 -298z" />
    <glyph glyph-name="uni01F8" unicode="&#x1f8;" horiz-adv-x="1438" 
d="M549 1733q-63 52 14 52h157q49 0 81 -37l133 -155q45 -53 -12 -53h-94q-46 0 -81 29zM220 0q-50 0 -50 55v1324q0 55 50 55h128q70 0 100 -50l626 -1049h4q-2 40 -2 80v964q0 55 50 55h92q50 0 50 -55v-1324q0 -55 -50 -55h-88q-70 0 -100 50l-666 1113h-4q2 -40 2 -80
v-1028q0 -55 -50 -55h-92z" />
    <glyph glyph-name="uni01F9" unicode="&#x1f9;" horiz-adv-x="1128" 
d="M405 1383q-45 52 14 52h111q55 0 81 -37l139 -195q38 -53 -12 -53h-74q-56 0 -81 29zM187 0q-45 0 -45 45v960q0 45 45 45h84q45 0 45 -45v-80h4q65 72 140 107t187 35q182 0 261.5 -102.5t79.5 -280.5v-639q0 -45 -45 -45h-86q-45 0 -45 45v591q0 196 -65 248.5
t-165 52.5q-130 0 -197 -77.5t-67 -265.5v-549q0 -45 -45 -45h-86z" />
    <glyph glyph-name="AEacute" unicode="&#x1fc;" horiz-adv-x="1957" 
d="M898 1540q-57 0 -12 53l133 155q32 37 81 37h157q77 0 14 -52l-198 -164q-35 -29 -81 -29h-94zM105 0q-59 0 -27 66l644 1316q25 52 68 52h1024q55 0 55 -45v-74q0 -45 -55 -45h-693v-444h633q55 0 55 -45v-74q0 -45 -55 -45h-633v-498h723q55 0 55 -45v-74
q0 -45 -55 -45h-865q-50 0 -50 55v325h-489l-160 -331q-24 -49 -68 -49h-107zM521 544h408v726h-70q-17 -59 -37.5 -106.5t-51.5 -110.5z" />
    <glyph glyph-name="aeacute" unicode="&#x1fd;" horiz-adv-x="1729" 
d="M770 1150q-50 0 -12 53l139 195q26 37 81 37h111q59 0 14 -52l-178 -204q-25 -29 -81 -29h-74zM85 280q0 178 164 261t490 97v68q0 94 -42.5 162.5t-163.5 68.5q-92 0 -139.5 -19.5t-79.5 -41.5t-67 -61q-27 -30 -51 -3l-52 60q-22 25 15 60q45 43 94 68.5t128.5 46
t151.5 20.5q101 0 185.5 -30t135.5 -124h3q79 95 167.5 124.5t178.5 29.5q186 0 311.5 -134.5t125.5 -429.5q0 -45 -41 -45h-680q16 -193 100.5 -268.5t191.5 -75.5q112 0 172.5 39t88.5 77q32 42 62 16l59 -51q23 -20 0 -55q-19 -29 -107.5 -93t-274.5 -64q-126 0 -216 38
t-162 135h-2q-113 -96 -211 -134.5t-199 -38.5q-159 0 -247.5 78.5t-88.5 218.5zM267 276q0 -52 16.5 -84.5t53 -53t119.5 -20.5q96 0 163 24t140 91q-20 132 -20 274q-200 -15 -287.5 -39.5t-136 -77t-48.5 -114.5zM915 588h548q-4 140 -70 245.5t-194 105.5
q-112 0 -190.5 -77.5t-93.5 -273.5z" />
    <glyph glyph-name="Oslashacute" unicode="&#x1fe;" horiz-adv-x="1524" 
d="M760 1600q-57 0 -12 53l133 155q32 37 81 37h157q77 0 14 -52l-198 -164q-35 -29 -81 -29h-94zM125 717q0 350 172.5 548.5t497.5 198.5q276 0 442 -143l121 134q37 41 70 10l45 -40q33 -30 -3 -71l-133 -147q128 -189 128 -490q0 -350 -172.5 -548.5t-497.5 -198.5
q-276 0 -442 143l-121 -134q-37 -41 -70 -10l-45 40q-33 30 3 71l133 147q-128 189 -128 490zM330 717q0 -201 59 -338l727 808q-114 121 -321 121q-235 0 -350 -155.5t-115 -435.5zM474 247q114 -121 321 -121q235 0 350 155.5t115 435.5q0 201 -59 338z" />
    <glyph glyph-name="oslashacute" unicode="&#x1ff;" horiz-adv-x="1148" 
d="M575 1189q-50 0 -12 53l139 195q26 37 81 37h111q59 0 14 -52l-178 -204q-25 -29 -81 -29h-74zM111 525q0 235 124.5 388.5t364.5 153.5q199 0 318 -105l78 83q31 33 57 9l44 -40q26 -24 -5 -57l-90 -96q87 -139 87 -336q0 -235 -124.5 -388.5t-364.5 -153.5
q-199 0 -318 105l-78 -83q-31 -33 -57 -9l-44 40q-26 24 5 57l90 96q-87 140 -87 336zM297 525q0 -118 26 -201l488 523q-81 90 -211 90q-137 0 -220 -101t-83 -311zM389 203q81 -90 211 -90q137 0 220 101t83 311q0 117 -26 201z" />
    <glyph glyph-name="uni0200" unicode="&#x200;" horiz-adv-x="1360" 
d="M303 1733q-59 52 14 52h119q51 0 81 -37l127 -155q43 -53 -12 -53h-65q-44 0 -77 29zM673 1733q-59 52 14 52h119q51 0 81 -37l127 -155q43 -53 -12 -53h-65q-44 0 -77 29zM98 0q-52 0 -27 66l498 1307q23 61 66 61h140q43 0 66 -61l498 -1307q25 -66 -27 -66h-102
q-53 0 -72 49l-125 331h-616l-125 -331q-19 -49 -72 -49h-102zM460 544h490l-153 400q-21 56 -41.5 124t-48.5 193h-4q-28 -125 -48.5 -193t-41.5 -124z" />
    <glyph glyph-name="uni0201" unicode="&#x201;" horiz-adv-x="1067" 
d="M224 1383q-41 52 14 52h97q62 0 81 -37l99 -195q27 -53 -12 -53h-42q-54 0 -77 29zM524 1383q-41 52 14 52h97q62 0 81 -37l99 -195q27 -53 -12 -53h-42q-54 0 -77 29zM85 280q0 178 166.5 261t497.5 97v68q0 94 -42.5 162.5t-168.5 68.5q-80 0 -128 -15.5t-87.5 -41
t-75.5 -65.5q-27 -30 -51 -3l-52 60q-22 25 15 60q53 50 103 75t124.5 42.5t151.5 17.5q209 0 298 -107.5t89 -294.5v-620q0 -45 -45 -45h-90q-39 0 -39 45v49h-2q-79 -62 -154.5 -86.5t-168.5 -24.5q-164 0 -252.5 78.5t-88.5 218.5zM267 276q0 -62 26 -99.5t72 -48
t96 -10.5q77 0 146 15t142 79v295q-202 -15 -288 -36.5t-140 -74t-54 -120.5z" />
    <glyph glyph-name="uni0202" unicode="&#x202;" horiz-adv-x="1360" 
d="M346 1634q50 116 146 170.5t208 54.5t208 -54.5t146 -170.5q20 -45 -13 -60l-49 -22q-33 -14 -54 21q-34 56 -89 96t-149 40t-149 -40t-89 -96q-21 -35 -54 -21l-49 22q-33 15 -13 60zM98 0q-52 0 -27 66l498 1307q23 61 66 61h140q43 0 66 -61l498 -1307q25 -66 -27 -66
h-102q-53 0 -72 49l-125 331h-616l-125 -331q-19 -49 -72 -49h-102zM460 544h490l-153 400q-21 56 -41.5 124t-48.5 193h-4q-28 -125 -48.5 -193t-41.5 -124z" />
    <glyph glyph-name="uni0203" unicode="&#x203;" horiz-adv-x="1067" 
d="M829.917 1227q18.9971 -41 -13.0039 -55l-47.001 -22q-29.001 -14 -44.999 18q-32.9961 65 -75.9932 105q-42.998 40 -129.998 40t-130.002 -40q-43.0029 -40 -76.0068 -105q-16.002 -32 -45.001 -18l-46.999 22q-31.999 14 -12.9961 55q53.0068 116 130.51 166
t180.503 50t180.497 -50t130.49 -166zM85 280q0 178 166.5 261t497.5 97v68q0 94 -42.5 162.5t-168.5 68.5q-80 0 -128 -15.5t-87.5 -41t-75.5 -65.5q-27 -30 -51 -3l-52 60q-22 25 15 60q53 50 103 75t124.5 42.5t151.5 17.5q209 0 298 -107.5t89 -294.5v-620
q0 -45 -45 -45h-90q-39 0 -39 45v49h-2q-79 -62 -154.5 -86.5t-168.5 -24.5q-164 0 -252.5 78.5t-88.5 218.5zM267 276q0 -62 26 -99.5t72 -48t96 -10.5q77 0 146 15t142 79v295q-202 -15 -288 -36.5t-140 -74t-54 -120.5z" />
    <glyph glyph-name="uni0204" unicode="&#x204;" horiz-adv-x="1270" 
d="M298 1733q-59 52 14 52h119q51 0 81 -37l127 -155q43 -53 -12 -53h-65q-44 0 -77 29zM668 1733q-59 52 14 52h119q51 0 81 -37l127 -155q43 -53 -12 -53h-65q-44 0 -77 29zM220 0q-50 0 -50 55v1324q0 55 50 55h875q55 0 55 -45v-74q0 -45 -55 -45h-733v-444h673
q55 0 55 -45v-74q0 -45 -55 -45h-673v-498h763q55 0 55 -45v-74q0 -45 -55 -45h-905z" />
    <glyph glyph-name="uni0205" unicode="&#x205;" horiz-adv-x="1098" 
d="M250 1383q-41 52 14 52h97q62 0 81 -37l99 -195q27 -53 -12 -53h-42q-54 0 -77 29zM550 1383q-41 52 14 52h97q62 0 81 -37l99 -195q27 -53 -12 -53h-42q-54 0 -77 29zM85 525q0 248 124 395t355 147q192 0 318.5 -134.5t126.5 -429.5q0 -45 -41 -45h-697
q17 -193 104 -268.5t197 -75.5q116 0 178 39t91 77q32 42 62 16l59 -51q23 -20 0 -55q-19 -29 -108.5 -93t-281.5 -64q-250 0 -368.5 147t-118.5 395zM267 588h565q-4 140 -72 245.5t-200 105.5q-116 0 -197 -77.5t-96 -273.5z" />
    <glyph glyph-name="uni0206" unicode="&#x206;" horiz-adv-x="1270" 
d="M341 1634q50 116 146 170.5t208 54.5t208 -54.5t146 -170.5q20 -45 -13 -60l-49 -22q-33 -14 -54 21q-34 56 -89 96t-149 40t-149 -40t-89 -96q-21 -35 -54 -21l-49 22q-33 15 -13 60zM220 0q-50 0 -50 55v1324q0 55 50 55h875q55 0 55 -45v-74q0 -45 -55 -45h-733v-444
h673q55 0 55 -45v-74q0 -45 -55 -45h-673v-498h763q55 0 55 -45v-74q0 -45 -55 -45h-905z" />
    <glyph glyph-name="uni0207" unicode="&#x207;" horiz-adv-x="1098" 
d="M855.917 1227q18.9971 -41 -13.0039 -55l-47.001 -22q-29.001 -14 -44.999 18q-32.9961 65 -75.9932 105q-42.998 40 -129.998 40t-130.002 -40q-43.0029 -40 -76.0068 -105q-16.002 -32 -45.001 -18l-46.999 22q-31.999 14 -12.9961 55q53.0068 116 130.51 166
t180.503 50t180.497 -50t130.49 -166zM85 525q0 248 124 395t355 147q192 0 318.5 -134.5t126.5 -429.5q0 -45 -41 -45h-697q17 -193 104 -268.5t197 -75.5q116 0 178 39t91 77q32 42 62 16l59 -51q23 -20 0 -55q-19 -29 -108.5 -93t-281.5 -64q-250 0 -368.5 147
t-118.5 395zM267 588h565q-4 140 -72 245.5t-200 105.5q-116 0 -197 -77.5t-96 -273.5z" />
    <glyph glyph-name="uni0208" unicode="&#x208;" horiz-adv-x="532" 
d="M-111 1733q-59 52 14 52h119q51 0 81 -37l127 -155q43 -53 -12 -53h-65q-44 0 -77 29zM259 1733q-59 52 14 52h119q51 0 81 -37l127 -155q43 -53 -12 -53h-65q-44 0 -77 29zM220 0q-50 0 -50 55v1324q0 55 50 55h92q50 0 50 -55v-1324q0 -55 -50 -55h-92z" />
    <glyph glyph-name="uni0209" unicode="&#x209;" horiz-adv-x="460" 
d="M-84 1383q-41 52 14 52h97q62 0 81 -37l99 -195q27 -53 -12 -53h-42q-54 0 -77 29zM216 1383q-41 52 14 52h97q62 0 81 -37l99 -195q27 -53 -12 -53h-42q-54 0 -77 29zM187 0q-45 0 -45 45v960q0 45 45 45h86q45 0 45 -45v-960q0 -45 -45 -45h-86z" />
    <glyph glyph-name="uni020A" unicode="&#x20a;" horiz-adv-x="532" 
d="M-68 1634q50 116 146 170.5t208 54.5t208 -54.5t146 -170.5q20 -45 -13 -60l-49 -22q-33 -14 -54 21q-34 56 -89 96t-149 40t-149 -40t-89 -96q-21 -35 -54 -21l-49 22q-33 15 -13 60zM220 0q-50 0 -50 55v1324q0 55 50 55h92q50 0 50 -55v-1324q0 -55 -50 -55h-92z" />
    <glyph glyph-name="uni020B" unicode="&#x20b;" horiz-adv-x="460" 
d="M521.917 1227q18.9971 -41 -13.0039 -55l-47.001 -22q-29.001 -14 -44.999 18q-32.9961 65 -75.9932 105q-42.998 40 -129.998 40t-130.002 -40q-43.0029 -40 -76.0068 -105q-16.002 -32 -45.001 -18l-46.999 22q-31.999 14 -12.9961 55q53.0068 116 130.51 166
t180.503 50t180.497 -50t130.49 -166zM187 0q-45 0 -45 45v960q0 45 45 45h86q45 0 45 -45v-960q0 -45 -45 -45h-86z" />
    <glyph glyph-name="uni020C" unicode="&#x20c;" horiz-adv-x="1524" 
d="M385 1733q-59 52 14 52h119q51 0 81 -37l127 -155q43 -53 -12 -53h-65q-44 0 -77 29zM755 1733q-59 52 14 52h119q51 0 81 -37l127 -155q43 -53 -12 -53h-65q-44 0 -77 29zM92 717q0 350 172.5 548.5t497.5 198.5t497.5 -198.5t172.5 -548.5t-172.5 -548.5t-497.5 -198.5
t-497.5 198.5t-172.5 548.5zM297 717q0 -280 115 -435.5t350 -155.5t350 155.5t115 435.5t-115 435.5t-350 155.5t-350 -155.5t-115 -435.5z" />
    <glyph glyph-name="uni020D" unicode="&#x20d;" horiz-adv-x="1148" 
d="M260 1383q-41 52 14 52h97q62 0 81 -37l99 -195q27 -53 -12 -53h-42q-54 0 -77 29zM560 1383q-41 52 14 52h97q62 0 81 -37l99 -195q27 -53 -12 -53h-42q-54 0 -77 29zM85 525q0 235 124.5 388.5t364.5 153.5t364.5 -153.5t124.5 -388.5t-124.5 -388.5t-364.5 -153.5
t-364.5 153.5t-124.5 388.5zM271 525q0 -210 83 -311t220 -101t220 101t83 311t-83 311t-220 101t-220 -101t-83 -311z" />
    <glyph glyph-name="uni020E" unicode="&#x20e;" horiz-adv-x="1524" 
d="M428 1634q50 116 146 170.5t208 54.5t208 -54.5t146 -170.5q20 -45 -13 -60l-49 -22q-33 -14 -54 21q-34 56 -89 96t-149 40t-149 -40t-89 -96q-21 -35 -54 -21l-49 22q-33 15 -13 60zM92 717q0 350 172.5 548.5t497.5 198.5t497.5 -198.5t172.5 -548.5t-172.5 -548.5
t-497.5 -198.5t-497.5 198.5t-172.5 548.5zM297 717q0 -280 115 -435.5t350 -155.5t350 155.5t115 435.5t-115 435.5t-350 155.5t-350 -155.5t-115 -435.5z" />
    <glyph glyph-name="uni020F" unicode="&#x20f;" horiz-adv-x="1148" 
d="M865.917 1227q18.9971 -41 -13.0039 -55l-47.001 -22q-29.001 -14 -44.999 18q-32.9961 65 -75.9932 105q-42.998 40 -129.998 40t-130.002 -40q-43.0029 -40 -76.0068 -105q-16.002 -32 -45.001 -18l-46.999 22q-31.999 14 -12.9961 55q53.0068 116 130.51 166
t180.503 50t180.497 -50t130.49 -166zM85 525q0 235 124.5 388.5t364.5 153.5t364.5 -153.5t124.5 -388.5t-124.5 -388.5t-364.5 -153.5t-364.5 153.5t-124.5 388.5zM271 525q0 -210 83 -311t220 -101t220 101t83 311t-83 311t-220 101t-220 -101t-83 -311z" />
    <glyph glyph-name="uni0210" unicode="&#x210;" horiz-adv-x="1394" 
d="M272 1733q-59 52 14 52h119q51 0 81 -37l127 -155q43 -53 -12 -53h-65q-44 0 -77 29zM642 1733q-59 52 14 52h119q51 0 81 -37l127 -155q43 -53 -12 -53h-65q-44 0 -77 29zM220 0q-50 0 -50 55v1324q0 55 50 55h483q289 0 418.5 -108t129.5 -285q0 -156 -104.5 -262
t-297.5 -122v-2q102 -76 135 -115.5t74 -106.5l226 -367q41 -66 -18 -66h-114q-47 0 -70 39l-208 357q-45 77 -129 151t-209 74h-174v-566q0 -55 -50 -55h-92zM362 785h289q195 0 300 51.5t105 216.5q0 126 -96 171.5t-261 45.5h-337v-485z" />
    <glyph glyph-name="uni0211" unicode="&#x211;" horiz-adv-x="722" 
d="M120 1383q-41 52 14 52h97q62 0 81 -37l99 -195q27 -53 -12 -53h-42q-54 0 -77 29zM420 1383q-41 52 14 52h97q62 0 81 -37l99 -195q27 -53 -12 -53h-42q-54 0 -77 29zM187 0q-45 0 -45 45v960q0 45 45 45h84q45 0 45 -45v-120h4q48 90 113 136t162 46q64 0 90 -11
q23 -9 17 -30l-23 -82q-5 -18 -26 -14q-35 7 -66 7q-117 0 -193 -105.5t-76 -287.5v-499q0 -45 -45 -45h-86z" />
    <glyph glyph-name="uni0212" unicode="&#x212;" horiz-adv-x="1394" 
d="M315 1634q50 116 146 170.5t208 54.5t208 -54.5t146 -170.5q20 -45 -13 -60l-49 -22q-33 -14 -54 21q-34 56 -89 96t-149 40t-149 -40t-89 -96q-21 -35 -54 -21l-49 22q-33 15 -13 60zM220 0q-50 0 -50 55v1324q0 55 50 55h483q289 0 418.5 -108t129.5 -285
q0 -156 -104.5 -262t-297.5 -122v-2q102 -76 135 -115.5t74 -106.5l226 -367q41 -66 -18 -66h-114q-47 0 -70 39l-208 357q-45 77 -129 151t-209 74h-174v-566q0 -55 -50 -55h-92zM362 785h289q195 0 300 51.5t105 216.5q0 126 -96 171.5t-261 45.5h-337v-485z" />
    <glyph glyph-name="uni0213" unicode="&#x213;" horiz-adv-x="722" 
d="M725.917 1227q18.9971 -41 -13.0039 -55l-47.001 -22q-29.001 -14 -44.999 18q-32.9961 65 -75.9932 105q-42.998 40 -129.998 40t-130.002 -40q-43.0029 -40 -76.0068 -105q-16.002 -32 -45.001 -18l-46.999 22q-31.999 14 -12.9961 55q53.0068 116 130.51 166
t180.503 50t180.497 -50t130.49 -166zM187 0q-45 0 -45 45v960q0 45 45 45h84q45 0 45 -45v-120h4q48 90 113 136t162 46q64 0 90 -11q23 -9 17 -30l-23 -82q-5 -18 -26 -14q-35 7 -66 7q-117 0 -193 -105.5t-76 -287.5v-499q0 -45 -45 -45h-86z" />
    <glyph glyph-name="uni0214" unicode="&#x214;" horiz-adv-x="1402" 
d="M324 1733q-59 52 14 52h119q51 0 81 -37l127 -155q43 -53 -12 -53h-65q-44 0 -77 29zM694 1733q-59 52 14 52h119q51 0 81 -37l127 -155q43 -53 -12 -53h-65q-44 0 -77 29zM170 547v832q0 55 50 55h92q50 0 50 -55v-802q0 -280 79.5 -365.5t259.5 -85.5t259.5 85.5
t79.5 365.5v802q0 55 50 55h92q50 0 50 -55v-832q0 -317 -145.5 -447t-385.5 -130t-385.5 130t-145.5 447z" />
    <glyph glyph-name="uni0215" unicode="&#x215;" horiz-adv-x="1120" 
d="M245 1383q-41 52 14 52h97q62 0 81 -37l99 -195q27 -53 -12 -53h-42q-54 0 -77 29zM545 1383q-41 52 14 52h97q62 0 81 -37l99 -195q27 -53 -12 -53h-42q-54 0 -77 29zM140 366v639q0 45 45 45h86q45 0 45 -45v-591q0 -196 65 -248.5t161 -52.5q126 0 193 77.5t67 265.5
v549q0 45 45 45h86q45 0 45 -45v-960q0 -45 -45 -45h-84q-45 0 -45 45v80h-4q-65 -72 -140 -107t-183 -35q-175 0 -256 102.5t-81 280.5z" />
    <glyph glyph-name="uni0216" unicode="&#x216;" horiz-adv-x="1402" 
d="M367 1634q50 116 146 170.5t208 54.5t208 -54.5t146 -170.5q20 -45 -13 -60l-49 -22q-33 -14 -54 21q-34 56 -89 96t-149 40t-149 -40t-89 -96q-21 -35 -54 -21l-49 22q-33 15 -13 60zM170 547v832q0 55 50 55h92q50 0 50 -55v-802q0 -280 79.5 -365.5t259.5 -85.5
t259.5 85.5t79.5 365.5v802q0 55 50 55h92q50 0 50 -55v-832q0 -317 -145.5 -447t-385.5 -130t-385.5 130t-145.5 447z" />
    <glyph glyph-name="uni0217" unicode="&#x217;" horiz-adv-x="1120" 
d="M850.917 1227q18.9971 -41 -13.0039 -55l-47.001 -22q-29.001 -14 -44.999 18q-32.9961 65 -75.9932 105q-42.998 40 -129.998 40t-130.002 -40q-43.0029 -40 -76.0068 -105q-16.002 -32 -45.001 -18l-46.999 22q-31.999 14 -12.9961 55q53.0068 116 130.51 166
t180.503 50t180.497 -50t130.49 -166zM140 366v639q0 45 45 45h86q45 0 45 -45v-591q0 -196 65 -248.5t161 -52.5q126 0 193 77.5t67 265.5v549q0 45 45 45h86q45 0 45 -45v-960q0 -45 -45 -45h-84q-45 0 -45 45v80h-4q-65 -72 -140 -107t-183 -35q-175 0 -256 102.5
t-81 280.5z" />
    <glyph glyph-name="uni021E" unicode="&#x21e;" horiz-adv-x="1422" 
d="M384 1641q-41 19 -26 51l23 50q15 32 56 13l288 -132h2l288 132q41 19 56 -13l23 -50q15 -32 -26 -51l-243 -113q-39 -18 -64 -18h-70q-25 0 -64 18zM220 0q-50 0 -50 55v1324q0 55 50 55h92q50 0 50 -55v-551h698v551q0 55 50 55h92q50 0 50 -55v-1324q0 -55 -50 -55
h-92q-50 0 -50 55v609h-698v-609q0 -55 -50 -55h-92z" />
    <glyph glyph-name="uni021F" unicode="&#x21f;" horiz-adv-x="1128" 
d="M301 1744q-35 29 -12 55l27 31q23 26 57 -2l214 -179h2l214 179q34 28 57 2l27 -31q23 -26 -12 -55l-206 -171q-31 -26 -56 -26h-50q-25 0 -56 26zM187 0q-45 0 -45 45v1386q0 45 45 45h86q45 0 45 -45v-446q0 -30 -2 -60h4q65 72 140 107t187 35q182 0 261.5 -102.5
t79.5 -280.5v-639q0 -45 -45 -45h-86q-45 0 -45 45v591q0 196 -65 248.5t-165 52.5q-130 0 -197 -77.5t-67 -265.5v-549q0 -45 -45 -45h-86z" />
    <glyph glyph-name="uni0220" unicode="&#x220;" horiz-adv-x="1422" 
d="M220 0q-50 0 -50 55v1324q0 55 50 55h82q47 0 50 -55l8 -130h4q76 111 200 163t249 52q215 0 327 -112t112 -320v-1377q0 -55 -50 -55h-92q-50 0 -50 55v1289q0 196 -69 280t-263 84q-124 0 -245 -93t-121 -340v-820q0 -55 -50 -55h-92z" />
    <glyph glyph-name="uni0226" unicode="&#x226;" horiz-adv-x="1360" 
d="M629 1545q-45 0 -45 45v102q0 45 45 45h102q45 0 45 -45v-102q0 -45 -45 -45h-102zM98 0q-52 0 -27 66l498 1307q23 61 66 61h140q43 0 66 -61l498 -1307q25 -66 -27 -66h-102q-53 0 -72 49l-125 331h-616l-125 -331q-19 -49 -72 -49h-102zM460 544h490l-153 400
q-21 56 -41.5 124t-48.5 193h-4q-28 -125 -48.5 -193t-41.5 -124z" />
    <glyph glyph-name="uni0227" unicode="&#x227;" horiz-adv-x="1067" 
d="M495 1240q-45 0 -45 45v86q0 45 45 45h86q45 0 45 -45v-86q0 -45 -45 -45h-86zM85 280q0 178 166.5 261t497.5 97v68q0 94 -42.5 162.5t-168.5 68.5q-80 0 -128 -15.5t-87.5 -41t-75.5 -65.5q-27 -30 -51 -3l-52 60q-22 25 15 60q53 50 103 75t124.5 42.5t151.5 17.5
q209 0 298 -107.5t89 -294.5v-620q0 -45 -45 -45h-90q-39 0 -39 45v49h-2q-79 -62 -154.5 -86.5t-168.5 -24.5q-164 0 -252.5 78.5t-88.5 218.5zM267 276q0 -62 26 -99.5t72 -48t96 -10.5q77 0 146 15t142 79v295q-202 -15 -288 -36.5t-140 -74t-54 -120.5z" />
    <glyph glyph-name="uni022E" unicode="&#x22e;" horiz-adv-x="1524" 
d="M711 1545q-45 0 -45 45v102q0 45 45 45h102q45 0 45 -45v-102q0 -45 -45 -45h-102zM92 717q0 350 172.5 548.5t497.5 198.5t497.5 -198.5t172.5 -548.5t-172.5 -548.5t-497.5 -198.5t-497.5 198.5t-172.5 548.5zM297 717q0 -280 115 -435.5t350 -155.5t350 155.5
t115 435.5t-115 435.5t-350 155.5t-350 -155.5t-115 -435.5z" />
    <glyph glyph-name="uni022F" unicode="&#x22f;" horiz-adv-x="1148" 
d="M531 1240q-45 0 -45 45v86q0 45 45 45h86q45 0 45 -45v-86q0 -45 -45 -45h-86zM85 525q0 235 124.5 388.5t364.5 153.5t364.5 -153.5t124.5 -388.5t-124.5 -388.5t-364.5 -153.5t-364.5 153.5t-124.5 388.5zM271 525q0 -210 83 -311t220 -101t220 101t83 311t-83 311
t-220 101t-220 -101t-83 -311z" />
    <glyph glyph-name="uni0232" unicode="&#x232;" horiz-adv-x="1302" 
d="M330 1558q-45 0 -45 40v50q0 40 45 40h640q45 0 45 -40v-50q0 -40 -45 -40h-640zM97 1368q-43 66 27 66h112q44 0 72 -49l254 -437q42 -72 72 -125.5t58 -113.5h4q28 60 58 113.5t72 125.5l254 437q28 49 72 49h112q70 0 27 -66l-501 -778v-535q0 -55 -50 -55h-92
q-50 0 -50 55v535z" />
    <glyph glyph-name="uni0233" unicode="&#x233;" horiz-adv-x="990" 
d="M234 1240q-45 0 -45 35v40q0 35 45 35h528q45 0 45 -35v-40q0 -35 -45 -35h-528zM69 1001q-18 49 27 49h109q33 0 45 -39l210 -660q9 -27 27.5 -84.5t26.5 -102.5h2q8 45 19.5 81.5t34.5 105.5l212 660q13 39 45 39h109q45 0 27 -49l-337 -940q-95 -265 -170 -371.5
t-224 -106.5q-78 0 -124 23q-21 10 -14 31l26 81q7 21 27 12q41 -17 79 -17q70 0 114 75.5t70 151.5l20 59z" />
    <glyph glyph-name="uni0237" unicode="&#x237;" horiz-adv-x="466" 
d="M-80 -397q-22 10 -18 32l17 81q5 24 25 15q39 -18 96 -18q59 0 85.5 58t26.5 235v999q0 45 45 45h86q45 0 45 -45v-1098q0 -194 -73.5 -259t-182.5 -65q-106 0 -152 20z" />
    <glyph glyph-name="uni0238" unicode="&#x238;" horiz-adv-x="1778" 
d="M85 525q0 215 104 378.5t304 163.5q115 0 184 -38t124 -104h2q-2 30 -2 61v445q0 45 45 45h86q45 0 45 -45v-445q0 -31 -2 -61h2q55 66 124 104t184 38q200 0 304 -163.5t104 -378.5t-104 -378.5t-304 -163.5q-115 0 -184 38t-124 104h-2l-6 -80q-3 -45 -39 -45h-82
q-36 0 -39 45l-6 80h-2q-55 -66 -124 -104t-184 -38q-200 0 -304 163.5t-104 378.5zM271 525q0 -184 63.5 -298t215.5 -114q108 0 179.5 73.5t71.5 223.5v230q0 150 -71.5 223.5t-179.5 73.5q-152 0 -215.5 -114t-63.5 -298zM977 410q0 -150 71.5 -223.5t179.5 -73.5
q152 0 215.5 114t63.5 298t-63.5 298t-215.5 114q-108 0 -179.5 -73.5t-71.5 -223.5v-230z" />
    <glyph glyph-name="uni0239" unicode="&#x239;" horiz-adv-x="1778" 
d="M85 525q0 215 104 378.5t304 163.5q115 0 184 -38t124 -104h2l6 80q3 45 39 45h82q36 0 39 -45l6 -80h2q55 66 124 104t184 38q200 0 304 -163.5t104 -378.5t-104 -378.5t-304 -163.5q-115 0 -184 38t-124 104h-2q2 -30 2 -61v-419q0 -45 -45 -45h-86q-45 0 -45 45v419
q0 31 2 61h-2q-55 -66 -124 -104t-184 -38q-200 0 -304 163.5t-104 378.5zM271 525q0 -184 63.5 -298t215.5 -114q108 0 179.5 73.5t71.5 223.5v230q0 150 -71.5 223.5t-179.5 73.5q-152 0 -215.5 -114t-63.5 -298zM977 410q0 -150 71.5 -223.5t179.5 -73.5q152 0 215.5 114
t63.5 298t-63.5 298t-215.5 114q-108 0 -179.5 -73.5t-71.5 -223.5v-230z" />
    <glyph glyph-name="uni0241" unicode="&#x241;" horiz-adv-x="1030" 
d="M141 1176q-32 20 -2 83q26 55 126.5 130t264.5 75q184 0 305 -105t121 -290q0 -175 -158 -356.5t-158 -357.5v-300q0 -55 -50 -55h-92q-50 0 -50 55v328q0 205 154.5 376t154.5 316q0 110 -66 172t-163 62q-90 0 -153.5 -35.5t-92.5 -104.5q-27 -64 -69 -38z" />
    <glyph glyph-name="uni0243" unicode="&#x243;" horiz-adv-x="1398" 
d="M95 345q-55 0 -55 45v68q0 45 55 45h115v876q0 55 50 55h390q340 0 458 -110t118 -265q0 -123 -98 -208.5t-190 -100.5v-3q101 -9 225.5 -100.5t124.5 -248.5q0 -170 -125.5 -284t-462.5 -114h-440q-50 0 -50 55v290h-115zM402 164h266q215 0 315 53t100 187
q0 124 -101.5 192t-313.5 68h-266v-161h288q55 0 55 -45v-68q0 -45 -55 -45h-288v-181zM402 808h251q167 0 272.5 71.5t105.5 179.5q0 103 -79 157t-299 54h-251v-462z" />
    <glyph glyph-name="uni0244" unicode="&#x244;" horiz-adv-x="1572" 
d="M105 644q-55 0 -55 45v74q0 45 55 45h150v571q0 55 50 55h92q50 0 50 -55v-571h678v571q0 55 50 55h92q50 0 50 -55v-571h150q55 0 55 -45v-74q0 -45 -55 -45h-150v-97q0 -317 -145.5 -447t-385.5 -130t-385.5 130t-145.5 447v97h-150zM447 577q0 -280 79.5 -365.5
t259.5 -85.5t259.5 85.5t79.5 365.5v67h-678v-67z" />
    <glyph glyph-name="uni0245" unicode="&#x245;" horiz-adv-x="1338" 
d="M98 0q-52 0 -27 66l487 1307q23 61 66 61h140q43 0 66 -61l487 -1307q25 -66 -27 -66h-102q-54 0 -72 49l-325 895q-21 59 -52.5 158.5t-42.5 158.5h-4q-11 -59 -42.5 -158.5t-52.5 -158.5l-325 -895q-18 -49 -72 -49h-102z" />
    <glyph glyph-name="uni0248" unicode="&#x248;" horiz-adv-x="890" 
d="M85 29q-46 25 -28 65l33 71q22 48 73 14q81 -53 170 -53t118 65.5t29 186.5v266h-180q-55 0 -55 45v74q0 45 55 45h180v571q0 55 50 55h92q50 0 50 -55v-571h131q55 0 55 -45v-74q0 -45 -55 -45h-131v-243q0 -198 -62 -314.5t-290 -116.5q-125 0 -235 59z" />
    <glyph glyph-name="uni0249" unicode="&#x249;" horiz-adv-x="640" 
d="M277 1240q-45 0 -45 45v86q0 45 45 45h86q45 0 45 -45v-86q0 -45 -45 -45h-86zM5 -397q-23 10 -18 32l17 81q5 24 25 15q40 -18 96 -18q59 0 85.5 58t26.5 235v476h-137q-45 0 -45 35v62q0 35 45 35h137v391q0 45 45 45h86q45 0 45 -45v-391h137q45 0 45 -35v-62
q0 -35 -45 -35h-137v-575q0 -194 -73.5 -259t-182.5 -65q-106 0 -152 20z" />
    <glyph glyph-name="uni0250" unicode="&#x250;" horiz-adv-x="1067" 
d="M143 385v620q0 45 45 45h90q39 0 39 -45v-49h2q79 62 154.5 86.5t168.5 24.5q164 0 252.5 -78.5t88.5 -218.5q0 -178 -166.5 -261t-497.5 -97v-68q0 -94 42.5 -162.5t168.5 -68.5q80 0 128 15.5t87.5 41t75.5 65.5q27 30 51 3l52 -60q22 -25 -15 -60q-53 -50 -103 -75
t-124.5 -42.5t-151.5 -17.5q-209 0 -298 107.5t-89 294.5zM319 543q202 15 288 36.5t140 74t54 120.5q0 62 -26 99.5t-72 48t-96 10.5q-77 0 -146 -15t-142 -79v-295z" />
    <glyph glyph-name="uni0251" unicode="&#x251;" horiz-adv-x="1103" 
d="M85 525q0 215 104 378.5t296 163.5q107 0 176 -38t124 -104h2l6 80q3 45 39 45h84q45 0 45 -45v-960q0 -45 -45 -45h-84q-36 0 -39 45l-6 80h-2q-55 -66 -124 -104t-176 -38q-192 0 -296 163.5t-104 378.5zM271 525q0 -184 63 -298t208 -114q100 0 171.5 73.5t71.5 223.5
v230q0 150 -71.5 223.5t-171.5 73.5q-145 0 -208 -114t-63 -298z" />
    <glyph glyph-name="uni0252" unicode="&#x252;" horiz-adv-x="1103" 
d="M143 45v960q0 45 45 45h84q36 0 39 -45l6 -80h2q55 66 124 104t176 38q192 0 296 -163.5t104 -378.5t-104 -378.5t-296 -163.5q-107 0 -176 38t-124 104h-2l-6 -80q-3 -45 -39 -45h-84q-45 0 -45 45zM319 410q0 -150 71.5 -223.5t171.5 -73.5q145 0 208 114t63 298
t-63 298t-208 114q-100 0 -171.5 -73.5t-71.5 -223.5v-230z" />
    <glyph glyph-name="uni0253" unicode="&#x253;" horiz-adv-x="1119" 
d="M187 0q-45 0 -45 45v1006q0 209 101.5 325.5t316.5 116.5q154 0 241.5 -39.5t124.5 -83.5q27 -33 3 -56l-55 -54q-21 -21 -50 4q-59 50 -113.5 74.5t-151.5 24.5q-118 0 -179.5 -68t-61.5 -270v-39q0 -31 -2 -61h2q55 66 124 104t184 38q200 0 304 -163.5t104 -378.5
t-104 -378.5t-304 -163.5q-115 0 -184 38t-124 104h-2l-6 -80q-3 -45 -39 -45h-84zM318 410q0 -150 71.5 -223.5t179.5 -73.5q152 0 215.5 114t63.5 298t-63.5 298t-215.5 114q-108 0 -179.5 -73.5t-71.5 -223.5v-230z" />
    <glyph glyph-name="uni0254" unicode="&#x254;" horiz-adv-x="1026" 
d="M98 869q25 43 113.5 120.5t277.5 77.5q240 0 356.5 -153.5t116.5 -388.5t-116.5 -388.5t-356.5 -153.5q-162 0 -247.5 57.5t-123.5 117.5q-21 33 9 53l63 41q30 21 60 -27q29 -46 81.5 -79t157.5 -33q137 0 212 101t75 311t-75 311t-212 101q-111 0 -170 -42.5t-86 -92.5
q-26 -47 -59 -27l-67 40q-30 18 -9 54z" />
    <glyph glyph-name="uni0255" unicode="&#x255;" horiz-adv-x="1026" 
d="M86 525q0 235 116 388.5t356 153.5q162 0 247.5 -57t123.5 -118q21 -33 -9 -53l-63 -41q-30 -21 -60 27q-29 46 -81.5 79t-157.5 33q-137 0 -212 -101t-75 -311q0 -169 36.5 -244t72.5 -104q29 91 110.5 174t211.5 83q103 0 175.5 -51t72.5 -150q0 -93 -97 -171.5
t-295 -78.5q-46 0 -97 7q-42 -133 -57 -216q-7 -41 -48 -31l-76 19q-29 7 -21 55q21 115 63 217q-78 30 -157 153t-79 338zM504 117q26 -4 54 -4q128 0 183 44.5t55 78.5q0 38 -26 53t-70 15q-54 0 -109 -48t-87 -139z" />
    <glyph glyph-name="uni0256" unicode="&#x256;" horiz-adv-x="1127" 
d="M85 525q0 215 104 378.5t304 163.5q115 0 184 -38t124 -104h2q-2 30 -2 61v445q0 45 45 45h86q45 0 45 -45v-1425q0 -177 26.5 -235t85.5 -58q57 0 96 18q20 9 25 -15l17 -81q4 -22 -18 -32q-46 -20 -152 -20q-109 0 -182.5 65t-73.5 259v157q0 31 2 61h-2
q-55 -66 -124 -104t-184 -38q-200 0 -304 163.5t-104 378.5zM271 525q0 -184 63.5 -298t215.5 -114q108 0 179.5 73.5t71.5 223.5v230q0 150 -71.5 223.5t-179.5 73.5q-152 0 -215.5 -114t-63.5 -298z" />
    <glyph glyph-name="uni0257" unicode="&#x257;" horiz-adv-x="1231" 
d="M85 525q0 215 104 378.5t304 163.5q115 0 184 -38t124 -104h2q-2 32 -2 61v213q0 167 93.5 230.5t211.5 63.5q55 0 92.5 -8.5t85.5 -32.5q23 -11 13 -32l-35 -74q-14 -29 -35 -14q-18 13 -43.5 22t-60.5 9q-57 0 -101.5 -40t-44.5 -153v-1125q0 -45 -45 -45h-84
q-36 0 -39 45l-6 80h-2q-55 -66 -124 -104t-184 -38q-200 0 -304 163.5t-104 378.5zM271 525q0 -184 63.5 -298t215.5 -114q108 0 179.5 73.5t71.5 223.5v230q0 150 -71.5 223.5t-179.5 73.5q-152 0 -215.5 -114t-63.5 -298z" />
    <glyph glyph-name="uni0258" unicode="&#x258;" horiz-adv-x="1098" 
d="M89 503q0 295 126.5 429.5t318.5 134.5q231 0 355 -147t124 -395t-118.5 -395t-368.5 -147q-192 0 -281.5 64t-108.5 93q-23 35 0 55l59 51q30 26 62 -16q29 -38 91 -77t178 -39q110 0 197 75.5t104 268.5h-697q-41 0 -41 45zM266 588h565q-15 196 -96 273.5t-197 77.5
q-132 0 -200 -105.5t-72 -245.5z" />
    <glyph glyph-name="uni0259" unicode="&#x259;" horiz-adv-x="1098" 
d="M89 547q0 45 41 45h697q-17 193 -104 268.5t-197 75.5q-116 0 -178 -39t-91 -77q-32 -42 -62 -16l-59 51q-23 20 0 55q19 29 108.5 93t281.5 64q250 0 368.5 -147t118.5 -395t-124 -395t-355 -147q-192 0 -318.5 134.5t-126.5 429.5zM266 462q4 -140 72 -245.5
t200 -105.5q116 0 197 77.5t96 273.5h-565z" />
    <glyph glyph-name="uni025A" unicode="&#x25a;" horiz-adv-x="1545" 
d="M283 343q37 -135 102 -183.5t153 -48.5q116 0 204.5 84.5t88.5 359.5zM102 395q0 29 41 45l669 257q-48 134 -118 186.5t-177 52.5t-169 -39t-91 -77q-32 -42 -62 -16l-59 51q-23 20 0 55q19 29 108.5 93t281.5 64q250 0 336.5 -107t115.5 -196l338 153q29 13 41 -7
l19 -31q18 -29 -2 -49q-38 -39 -57.5 -85t-19.5 -77q0 -56 22.5 -83.5t74.5 -27.5q55 0 114 26q25 11 36 -13l21 -46q10 -23 -5 -34q-36 -27 -82.5 -42.5t-107.5 -15.5q-94 0 -148.5 55.5t-54.5 131.5q0 27 8.5 54t24.5 52v4l-194 -93q7 -53 7 -111q0 -248 -124 -395
t-355 -147q-200 0 -316 128.5t-116 283.5z" />
    <glyph glyph-name="uni025B" unicode="&#x25b;" horiz-adv-x="918" 
d="M100 308q0 80 53 152.5t132 95.5v3q-59 27 -98.5 77t-39.5 156q0 102 96 188.5t259 86.5q112 0 180 -23.5t128 -73.5q43 -35 13 -65l-53 -53q-20 -19 -68 20q-26 21 -84 43t-110 22q-80 0 -132.5 -34.5t-52.5 -123.5t47.5 -127.5t138.5 -38.5h73q40 0 40 -35v-60
q0 -35 -40 -35h-82q-98 0 -156 -47.5t-58 -135.5q0 -76 48 -131.5t172 -55.5q82 0 142 37.5t72 50.5q38 40 64 14l55 -54q26 -26 -3 -55q-38 -38 -118 -80.5t-223 -42.5q-171 0 -283 75.5t-112 249.5z" />
    <glyph glyph-name="uni025C" unicode="&#x25c;" horiz-adv-x="918" 
d="M105 161l55 54q26 26 64 -14q12 -13 72 -50.5t142 -37.5q124 0 172 55.5t48 131.5q0 88 -58 135.5t-156 47.5h-82q-40 0 -40 35v60q0 35 40 35h73q91 0 138.5 38.5t47.5 127.5t-52.5 123.5t-132.5 34.5q-52 0 -110 -22t-84 -43q-48 -39 -68 -20l-53 53q-30 30 13 65
q60 50 128 73.5t180 23.5q163 0 259 -86.5t96 -188.5q0 -106 -39.5 -156t-98.5 -77v-3q79 -23 132 -95.5t53 -152.5q0 -174 -112 -249.5t-283 -75.5q-143 0 -223 42.5t-118 80.5q-29 29 -3 55z" />
    <glyph glyph-name="uni025D" unicode="&#x25d;" horiz-adv-x="918" 
d="M105 161l55 54q26 26 64 -14q12 -13 72 -50.5t142 -37.5q124 0 172 55.5t48 131.5q0 88 -58 135.5t-156 47.5h-82q-40 0 -40 35v60q0 35 40 35h73q91 0 138.5 38.5t47.5 127.5t-52.5 123.5t-132.5 34.5q-52 0 -110 -22t-84 -43q-48 -39 -68 -20l-53 53q-30 30 13 65
q60 50 128 73.5t180 23.5q163 0 249 -77.5t102 -155.5l266 83q31 10 41 -7l19 -31q18 -29 -2 -49q-38 -39 -57.5 -85t-19.5 -77q0 -56 22.5 -83.5t74.5 -27.5q55 0 114 26q25 11 36 -13l21 -46q10 -23 -5 -34q-36 -27 -82.5 -42.5t-107.5 -15.5q-94 0 -148.5 55.5
t-54.5 131.5q0 27 8.5 58.5t24.5 56.5v4l-160 -52q-10 -30 -37.5 -65t-86.5 -62v-3q79 -23 132 -95.5t53 -152.5q0 -174 -112 -249.5t-283 -75.5q-143 0 -223 42.5t-118 80.5q-29 29 -3 55z" />
    <glyph glyph-name="uni025E" unicode="&#x25e;" horiz-adv-x="1111" 
d="M86 525q0 235 124.5 388.5t364.5 153.5q193 0 291.5 -86.5t98.5 -188.5q0 -106 -39.5 -156t-98.5 -77v-3q79 -23 132 -95.5t53 -152.5q0 -174 -115 -249.5t-322 -75.5q-240 0 -364.5 153.5t-124.5 388.5zM272 525q0 -210 83 -311t220 -101q151 0 201 55.5t50 131.5
q0 88 -58 135.5t-156 47.5h-82q-40 0 -40 35v60q0 35 40 35h73q91 0 138.5 38.5t47.5 127.5t-55.5 123.5t-158.5 34.5q-137 0 -220 -101t-83 -311z" />
    <glyph glyph-name="uni025F" unicode="&#x25f;" horiz-adv-x="640" 
d="M5 -397q-23 10 -18 32l17 81q5 24 25 15q40 -18 96 -18q59 0 85.5 58t26.5 235v476h-137q-45 0 -45 35v62q0 35 45 35h137v391q0 45 45 45h86q45 0 45 -45v-391h137q45 0 45 -35v-62q0 -35 -45 -35h-137v-575q0 -194 -73.5 -259t-182.5 -65q-106 0 -152 20z" />
    <glyph glyph-name="uni0260" unicode="&#x260;" horiz-adv-x="1231" 
d="M85 525q0 215 104 378.5t304 163.5q115 0 184 -38t124 -104h2q-2 32 -2 61v213q0 167 93.5 230.5t211.5 63.5q55 0 92.5 -8.5t85.5 -32.5q23 -11 13 -32l-35 -74q-14 -29 -35 -14q-18 13 -43.5 22t-60.5 9q-57 0 -101.5 -40t-44.5 -153v-1178q0 -192 -88.5 -300.5
t-349.5 -108.5q-175 0 -262 39.5t-124 83.5q-27 33 -3 56l55 54q23 22 64 -14q53 -48 102 -68.5t169 -20.5q136 0 198.5 58t62.5 240v60q0 31 2 61h-2q-52 -69 -122.5 -109t-185.5 -40q-200 0 -304 163.5t-104 378.5zM271 525q0 -184 63.5 -298t215.5 -114q108 0 179.5 73.5
t71.5 223.5v230q0 150 -71.5 223.5t-179.5 73.5q-152 0 -215.5 -114t-63.5 -298z" />
    <glyph glyph-name="uni0261" unicode="&#x261;" horiz-adv-x="1119" 
d="M85 525q0 215 104 378.5t304 163.5q115 0 184 -38t124 -104h2l6 80q3 45 39 45h84q45 0 45 -45v-1013q0 -192 -88.5 -300.5t-349.5 -108.5q-175 0 -262 39.5t-124 83.5q-27 33 -3 56l55 54q23 22 64 -14q53 -48 102 -68.5t169 -20.5q136 0 198.5 58t62.5 240v60
q0 31 2 61h-2q-52 -69 -122.5 -109t-185.5 -40q-200 0 -304 163.5t-104 378.5zM271 525q0 -184 63.5 -298t215.5 -114q108 0 179.5 73.5t71.5 223.5v230q0 150 -71.5 223.5t-179.5 73.5q-152 0 -215.5 -114t-63.5 -298z" />
    <glyph glyph-name="uni0262" unicode="&#x262;" horiz-adv-x="1111" 
d="M85 525q0 235 116.5 388.5t366.5 153.5q162 0 248 -51.5t129 -107.5q24 -32 -5 -54l-59 -46q-28 -24 -62 21q-33 44 -89.5 76t-161.5 32q-150 0 -223.5 -101t-73.5 -311t73.5 -311t223.5 -101q102 0 159 23.5t98 64.5v171h-212q-45 0 -45 35v62q0 35 45 35h343
q45 0 45 -35v-325q-101 -82 -186 -121.5t-247 -39.5q-250 0 -366.5 153.5t-116.5 388.5z" />
    <glyph glyph-name="uni0263" unicode="&#x263;" horiz-adv-x="1010" 
d="M67 1001q-22 49 27 49h109q29 0 45 -39l243 -594q13 -31 21 -55t13 -51h4q5 27 13 51t21 55l243 594q16 39 45 39h109q49 0 27 -49l-354 -798q100 -160 135.5 -233t35.5 -143q0 -115 -58.5 -179t-218.5 -64t-218.5 64t-58.5 179q0 70 35.5 143t135.5 233zM426 -170
q0 -55 20.5 -85.5t80.5 -30.5t80.5 30.5t20.5 85.5q0 35 -25 95t-75 155h-2q-50 -95 -75 -155t-25 -95z" />
    <glyph glyph-name="uni0264" unicode="&#x264;" horiz-adv-x="1010" 
d="M81 1001q-36 49 27 49h125q17 0 45 -39l222 -305q18 -26 26 -42t13 -44h4q5 28 13 44t26 42l222 305q28 39 45 39h125q63 0 27 -49l-346 -465q101 -118 129 -190.5t28 -122.5q0 -109 -75 -174.5t-196 -65.5t-196 65.5t-75 174.5q0 50 28 122.5t129 190.5zM446 223
q0 -55 21 -82.5t74 -27.5t74 27.5t21 82.5q0 33 -11 78t-83 145h-2q-72 -100 -83 -145t-11 -78z" />
    <glyph glyph-name="uni0265" unicode="&#x265;" horiz-adv-x="1120" 
d="M140 366v639q0 45 45 45h86q45 0 45 -45v-591q0 -196 65 -248.5t161 -52.5q126 0 193 77.5t67 265.5v549q0 45 45 45h86q45 0 45 -45v-1360q0 -45 -45 -45h-86q-45 0 -45 45v420q0 30 2 60h-4q-65 -72 -140 -107t-183 -35q-175 0 -256 102.5t-81 280.5z" />
    <glyph glyph-name="uni0266" unicode="&#x266;" horiz-adv-x="1128" 
d="M187 0q-45 0 -45 45v1006q0 209 101.5 325.5t316.5 116.5q154 0 241.5 -39.5t124.5 -83.5q27 -33 3 -56l-55 -54q-21 -21 -50 4q-59 50 -113.5 74.5t-151.5 24.5q-118 0 -179.5 -68t-61.5 -270v-57q0 -30 -2 -60h4q65 72 140 107t187 35q182 0 261.5 -102.5t79.5 -280.5
v-622q0 -45 -45 -45h-86q-45 0 -45 45v574q0 196 -65 248.5t-165 52.5q-130 0 -197 -77.5t-67 -265.5v-532q0 -45 -45 -45h-86z" />
    <glyph glyph-name="uni0267" unicode="&#x267;" horiz-adv-x="1128" 
d="M187 0q-45 0 -45 45v1006q0 209 101.5 325.5t316.5 116.5q154 0 241.5 -39.5t124.5 -83.5q27 -33 3 -56l-55 -54q-21 -21 -50 4q-59 50 -113.5 74.5t-151.5 24.5q-118 0 -179.5 -68t-61.5 -270v-57q0 -30 -2 -60h4q65 72 140 107t187 35q182 0 261.5 -102.5t79.5 -280.5
v-760q0 -194 -73.5 -259t-182.5 -65q-106 0 -152 20q-22 10 -18 32l17 81q5 24 25 15q39 -18 96 -18q59 0 85.5 58t26.5 235v613q0 196 -65 248.5t-165 52.5q-130 0 -197 -77.5t-67 -265.5v-532q0 -45 -45 -45h-86z" />
    <glyph glyph-name="uni0268" unicode="&#x268;" horiz-adv-x="640" 
d="M95 482q-45 0 -45 35v62q0 35 45 35h137v391q0 45 45 45h86q45 0 45 -45v-391h137q45 0 45 -35v-62q0 -35 -45 -35h-137v-437q0 -45 -45 -45h-86q-45 0 -45 45v437h-137zM277 1240q-45 0 -45 45v86q0 45 45 45h86q45 0 45 -45v-86q0 -45 -45 -45h-86z" />
    <glyph glyph-name="uni0269" unicode="&#x269;" horiz-adv-x="660" 
d="M142 270v735q0 45 45 45h86q45 0 45 -45v-724q0 -105 25 -136.5t73 -31.5q28 0 70.5 20t60.5 34t28 -9l33 -77q8 -20 -12 -32q-39 -23 -91 -44.5t-149 -21.5q-100 0 -157 75t-57 212z" />
    <glyph glyph-name="uni026A" unicode="&#x26a;" horiz-adv-x="584" 
d="M145 0q-45 0 -45 35v60q0 35 45 35h59v790h-59q-45 0 -45 35v60q0 35 45 35h294q45 0 45 -35v-60q0 -35 -45 -35h-59v-790h59q45 0 45 -35v-60q0 -35 -45 -35h-294z" />
    <glyph glyph-name="uni026B" unicode="&#x26b;" horiz-adv-x="748" 
d="M65 665q-22 10 -12 44q21 71 71.5 116t130.5 45q28 0 41 -3v426q0 20 10 38l70 127q19 35 31 35h35q30 0 30 -35v-684q26 -14 54 -14q43 0 64 22t37 60q13 30 37 20l39 -17q22 -10 12 -44q-21 -71 -71.5 -116t-130.5 -45q-28 0 -41 3v-598q0 -45 -45 -45h-86
q-45 0 -45 45v691q-26 14 -54 14q-43 0 -64 -22t-37 -60q-13 -30 -37 -20z" />
    <glyph glyph-name="uni026C" unicode="&#x26c;" horiz-adv-x="834" 
d="M40 757q0 127 86 193t192 66v277q0 20 10 38l70 127q19 35 31 35h35q30 0 30 -35v-838q72 4 125 24t94 50q29 22 51 -11l34 -51q19 -29 -20 -53q-56 -35 -121 -57t-163 -32v-445q0 -45 -45 -45h-86q-45 0 -45 45v445q-124 10 -201 78t-77 189zM193 756q0 -76 38.5 -102
t86.5 -34v266q-64 0 -94.5 -37t-30.5 -93z" />
    <glyph glyph-name="uni026D" unicode="&#x26d;" horiz-adv-x="470" 
d="M142 -93v1386q0 20 10 38l70 127q19 35 31 35h35q30 0 30 -35v-1452q0 -177 26.5 -235t85.5 -58q57 0 96 18q20 9 25 -15l17 -81q4 -22 -18 -32q-46 -20 -152 -20q-109 0 -182.5 65t-73.5 259z" />
    <glyph glyph-name="uni026E" unicode="&#x26e;" horiz-adv-x="1186" 
d="M187 0q-45 0 -45 45v1248q0 20 10 38l70 127q19 35 31 35h35q30 0 30 -35v-408h712q45 0 45 -35v-47q0 -32 -37 -78l-362 -452v-4q185 0 297.5 -107.5t112.5 -304.5q0 -226 -106.5 -332.5t-325.5 -106.5q-174 0 -269.5 66t-103.5 80q-21 36 2 55l60 49q30 25 62 -19
q6 -8 66 -54.5t173 -46.5q148 0 202 74.5t54 226.5q0 142 -63 217t-238 75h-75q-45 0 -45 35v51q0 36 35 80l358 446v2q-30 -2 -60 -2h-494v-873q0 -45 -45 -45h-86z" />
    <glyph glyph-name="uni026F" unicode="&#x26f;" horiz-adv-x="1678" 
d="M140 366v639q0 45 45 45h86q45 0 45 -45v-581q0 -196 49 -253.5t151 -57.5q100 0 167 85.5t67 257.5v549q0 45 45 45h86q45 0 45 -45v-581q0 -196 49 -253.5t151 -57.5q100 0 167 77.5t67 265.5v549q0 45 45 45h86q45 0 45 -45v-960q0 -45 -45 -45h-84q-45 0 -45 45v80
h-4q-65 -72 -141 -107t-146 -35q-129 0 -198.5 64.5t-89.5 129.5h-4q-55 -82 -139 -138t-179 -56q-159 0 -240 102.5t-81 280.5z" />
    <glyph glyph-name="uni0270" unicode="&#x270;" horiz-adv-x="1678" 
d="M140 366v639q0 45 45 45h86q45 0 45 -45v-581q0 -196 49 -253.5t151 -57.5q100 0 167 85.5t67 257.5v549q0 45 45 45h86q45 0 45 -45v-581q0 -196 49 -253.5t151 -57.5q100 0 167 77.5t67 265.5v549q0 45 45 45h86q45 0 45 -45v-1360q0 -45 -45 -45h-86q-45 0 -45 45v419
q0 31 2 61h-4q-65 -72 -141 -107t-146 -35q-129 0 -198.5 64.5t-89.5 129.5h-4q-55 -82 -139 -138t-179 -56q-159 0 -240 102.5t-81 280.5z" />
    <glyph glyph-name="uni0271" unicode="&#x271;" horiz-adv-x="1678" 
d="M187 0q-45 0 -45 45v960q0 45 45 45h84q45 0 45 -45v-80h4q65 72 141 107t146 35q129 0 198.5 -64.5t89.5 -129.5h4q55 82 139 138t179 56q159 0 240 -102.5t81 -280.5v-777q0 -194 -73.5 -259t-182.5 -65q-106 0 -152 20q-22 10 -18 32l17 81q5 24 25 15q39 -18 96 -18
q59 0 85.5 58t26.5 235v620q0 196 -49 253.5t-151 57.5q-100 0 -167 -85.5t-67 -257.5v-549q0 -45 -45 -45h-86q-45 0 -45 45v581q0 196 -49 253.5t-151 57.5q-100 0 -167 -77.5t-67 -265.5v-549q0 -45 -45 -45h-86z" />
    <glyph glyph-name="uni0272" unicode="&#x272;" horiz-adv-x="1134" 
d="M-80 -397q-22 10 -18 32l17 81q5 24 25 15q39 -18 96 -18q59 0 85.5 58t26.5 235v999q0 45 45 45h84q45 0 45 -45v-80h4q65 72 140 107t187 35q182 0 261.5 -102.5t79.5 -280.5v-639q0 -45 -45 -45h-86q-45 0 -45 45v591q0 196 -65 248.5t-165 52.5q-130 0 -197 -77.5
t-67 -265.5v-687q0 -194 -73.5 -259t-182.5 -65q-106 0 -152 20z" />
    <glyph glyph-name="uni0273" unicode="&#x273;" horiz-adv-x="1138" 
d="M187 0q-45 0 -45 45v960q0 45 45 45h84q45 0 45 -45v-80h4q65 72 140 107t187 35q182 0 261.5 -102.5t79.5 -280.5v-678q0 -177 26.5 -235t85.5 -58q57 0 96 18q20 9 25 -15l17 -81q4 -22 -18 -32q-46 -20 -152 -20q-109 0 -182.5 65t-73.5 259v729q0 196 -65 248.5
t-165 52.5q-130 0 -197 -77.5t-67 -265.5v-549q0 -45 -45 -45h-86z" />
    <glyph glyph-name="uni0274" unicode="&#x274;" horiz-adv-x="1190" 
d="M187 0q-45 0 -45 45v960q0 45 45 45h125q54 0 86 -49l474 -715h2q-2 30 -2 60v659q0 45 45 45h86q45 0 45 -45v-960q0 -45 -45 -45h-91q-53 0 -86 49l-508 763h-2q2 -30 2 -60v-707q0 -45 -45 -45h-86z" />
    <glyph glyph-name="uni0275" unicode="&#x275;" horiz-adv-x="1148" 
d="M85 525q0 235 124.5 388.5t364.5 153.5t364.5 -153.5t124.5 -388.5t-124.5 -388.5t-364.5 -153.5t-364.5 153.5t-124.5 388.5zM272 482q8 -178 86.5 -273.5t215.5 -95.5t215.5 95.5t86.5 273.5h-604zM275 614h598q-15 144 -88.5 233.5t-210.5 89.5t-210.5 -89.5
t-88.5 -233.5z" />
    <glyph glyph-name="uni0276" unicode="&#x276;" horiz-adv-x="1609" 
d="M85 525q0 250 127 396t377 146q68 0 137.5 -8.5t137.5 -8.5h568q45 0 45 -35v-62q0 -35 -45 -35h-503v-310h459q45 0 45 -35v-63q0 -35 -45 -35h-459v-343h525q45 0 45 -35v-62q0 -35 -45 -35h-590q-68 0 -137.5 -8.5t-137.5 -8.5q-250 0 -377 146t-127 396zM273 525
q0 -195 77.5 -303.5t232.5 -108.5q110 0 170 19v786q-60 19 -170 19q-155 0 -232.5 -108.5t-77.5 -303.5z" />
    <glyph glyph-name="uni0277" unicode="&#x277;" horiz-adv-x="1438" 
d="M85 469q0 255 172 426.5t462 171.5t462 -171.5t172 -426.5q0 -205 -88.5 -345.5t-247.5 -140.5q-129 0 -197.5 55t-99.5 146h-2q-31 -91 -99.5 -146t-197.5 -55q-159 0 -247.5 140.5t-88.5 345.5zM271 479q0 -130 31 -248t141 -118q85 0 136.5 78.5t51.5 200.5v146
q0 40 35 40h106q35 0 35 -40v-146q0 -122 51.5 -200.5t136.5 -78.5q110 0 141 118t31 248q0 170 -107.5 314t-340.5 144t-340.5 -144t-107.5 -314z" />
    <glyph glyph-name="uni0278" unicode="&#x278;" horiz-adv-x="1286" 
d="M85 525q0 225 115 381.5t355 156.5v332q0 45 45 45h86q45 0 45 -45v-332q240 0 355 -156.5t115 -381.5t-115 -381.5t-355 -156.5v-342q0 -45 -45 -45h-86q-45 0 -45 45v342q-240 0 -355 156.5t-115 381.5zM271 525q0 -215 69.5 -311.5t214.5 -96.5v816
q-145 0 -214.5 -96.5t-69.5 -311.5zM731 117q145 0 214.5 96.5t69.5 311.5t-69.5 311.5t-214.5 96.5v-816z" />
    <glyph glyph-name="uni0279" unicode="&#x279;" horiz-adv-x="722" 
d="M26 24l23 82q5 18 26 14q35 -7 66 -7q117 0 193 105.5t76 287.5v499q0 45 45 45h86q45 0 45 -45v-960q0 -45 -45 -45h-84q-45 0 -45 45v120h-4q-48 -90 -113 -136t-162 -46q-64 0 -90 11q-23 9 -17 30z" />
    <glyph glyph-name="uni027A" unicode="&#x27a;" horiz-adv-x="722" 
d="M43 -6q-23 9 -17 30l23 82q5 18 26 14q35 -7 66 -7q117 0 193 105.5t76 287.5v925q0 45 45 45h86q45 0 45 -45v-1386q0 -45 -45 -45h-84q-45 0 -45 45v120h-4q-48 -90 -113 -136t-162 -46q-64 0 -90 11z" />
    <glyph glyph-name="uni027B" unicode="&#x27b;" horiz-adv-x="732" 
d="M43 -6q-23 9 -17 30l23 82q5 18 26 14q35 -7 66 -7q117 0 193 105.5t76 287.5v499q0 45 45 45h86q45 0 45 -45v-999q0 -177 26.5 -235t85.5 -58q57 0 96 18q20 9 25 -15l17 -81q5 -22 -18 -32q-46 -20 -152 -20q-109 0 -182.5 65.5t-73.5 258.5v198q0 30 2 60h-4
q-48 -90 -113.5 -136t-161.5 -46q-62 0 -90 11z" />
    <glyph glyph-name="uni027C" unicode="&#x27c;" horiz-adv-x="722" 
d="M187 -400q-45 0 -45 45v1360q0 45 45 45h84q45 0 45 -45v-120h4q48 90 113 136t162 46q64 0 90 -11q23 -9 17 -30l-23 -82q-5 -18 -26 -14q-35 7 -66 7q-117 0 -193 -105.5t-76 -287.5v-899q0 -45 -45 -45h-86z" />
    <glyph glyph-name="uni027D" unicode="&#x27d;" horiz-adv-x="722" 
d="M142 -93v1098q0 45 45 45h84q45 0 45 -45v-120h4q48 90 113 136t162 46q64 0 90 -11q23 -9 17 -30l-23 -82q-5 -18 -26 -14q-35 7 -66 7q-117 0 -193 -105.5t-76 -287.5v-538q0 -177 26.5 -235t85.5 -58q57 0 96 18q20 9 25 -15l17 -81q4 -22 -18 -32q-46 -20 -152 -20
q-109 0 -182.5 65t-73.5 259z" />
    <glyph glyph-name="uni027E" unicode="&#x27e;" horiz-adv-x="722" 
d="M187 0q-45 0 -45 45v500q0 220 112 371t341 151q64 0 90 -11q23 -9 17 -30l-23 -82q-5 -18 -26 -14q-35 7 -66 7q-117 0 -193 -107t-76 -311v-474q0 -45 -45 -45h-86z" />
    <glyph glyph-name="uni027F" unicode="&#x27f;" horiz-adv-x="722" 
d="M26 1026q-6 21 17 30q26 11 90 11q229 0 341 -151t112 -371v-900q0 -45 -45 -45h-86q-45 0 -45 45v874q0 204 -76 311t-193 107q-31 0 -66 -7q-21 -4 -26 14z" />
    <glyph glyph-name="uni0280" unicode="&#x280;" horiz-adv-x="1114" 
d="M187 0q-45 0 -45 45v960q0 45 45 45h377q229 0 325.5 -70t96.5 -219q0 -127 -74.5 -203t-247.5 -96v-2q71 -40 105.5 -75.5t60.5 -70.5l189 -255q44 -59 -26 -59h-110q-31 0 -57 37l-176 251q-54 77 -97 110.5t-111 33.5h-124v-387q0 -45 -45 -45h-86zM318 562h221
q106 0 183.5 39t77.5 160q0 91 -62 124.5t-200 33.5h-220v-357z" />
    <glyph glyph-name="uni0281" unicode="&#x281;" horiz-adv-x="1114" 
d="M142 45v960q0 45 45 45h86q45 0 45 -45v-387h124q68 0 111 33.5t97 110.5l176 251q26 37 57 37h110q70 0 26 -59l-189 -255q-26 -35 -60.5 -70.5t-105.5 -75.5v-2q173 -20 247.5 -96t74.5 -203q0 -149 -96.5 -219t-325.5 -70h-377q-45 0 -45 45zM318 131h220
q138 0 200 33.5t62 124.5q0 121 -77.5 160t-183.5 39h-221v-357z" />
    <glyph glyph-name="uni0282" unicode="&#x282;" horiz-adv-x="951" 
d="M71 -93v210q0 27 6 35l45 63q22 30 65 -3q59 -45 131.5 -72t165.5 -27q55 0 98 13.5t75.5 50.5t32.5 99q0 36 -15.5 68t-48 51.5t-63.5 30.5q-51 19 -101.5 31.5t-132.5 38.5q-55 17 -104 48.5t-85.5 85.5t-36.5 149q0 97 59 167t148 95.5t173 25.5q124 0 199.5 -28.5
t130.5 -67.5q32 -23 9 -53l-45 -60q-21 -29 -65 2q-37 26 -105 49t-119 23q-63 0 -108 -14t-73 -48t-28 -80q0 -35 11 -62.5t41 -50.5t84 -37q84 -22 153.5 -40t125.5 -44q73 -34 112.5 -75t54.5 -88.5t15 -105.5q0 -107 -63.5 -181t-141.5 -98.5t-188 -24.5
q-81 0 -138 10.5t-98 25.5v-13q0 -177 26.5 -235t85.5 -58q56 0 96 18q20 9 25 -15l17 -81q5 -22 -18 -32q-46 -20 -152 -20q-109 0 -182.5 65t-73.5 259z" />
    <glyph glyph-name="uni0283" unicode="&#x283;" horiz-adv-x="586" 
d="M-80 -397q-22 10 -18 32l17 81q5 24 25 15q39 -18 96 -18q59 0 85.5 58t26.5 235v1193q0 167 93.5 230.5t216.5 63.5q60 0 96.5 -8.5t84.5 -32.5q22 -11 13 -32l-33 -74q-13 -29 -35 -14q-18 13 -43.5 22t-65.5 9q-62 0 -106.5 -40t-44.5 -153v-1263q0 -194 -73.5 -259
t-182.5 -65q-106 0 -152 20z" />
    <glyph glyph-name="uni0284" unicode="&#x284;" horiz-adv-x="662" 
d="M5 -397q-23 10 -18 32l17 81q5 24 25 15q40 -18 96 -18q59 0 85.5 58t26.5 235v476h-137q-45 0 -45 35v62q0 35 45 35h137v585q0 167 93.5 230.5t211.5 63.5q55 0 92.5 -8.5t85.5 -32.5q23 -11 13 -32l-35 -74q-14 -29 -35 -14q-18 13 -43.5 22t-60.5 9q-57 0 -101.5 -40
t-44.5 -153v-556h137q45 0 45 -35v-62q0 -35 -45 -35h-137v-575q0 -194 -73.5 -259t-182.5 -65q-106 0 -152 20z" />
    <glyph glyph-name="uni0285" unicode="&#x285;" horiz-adv-x="722" 
d="M75 930q-21 -4 -26 14l-23 82q-6 21 17 30q26 11 90 11q229 0 341 -151t112 -371v-539q0 -177 26.5 -235t85.5 -58q57 0 96 18q20 9 25 -15l17 -81q4 -22 -18 -32q-46 -20 -152 -20q-109 0 -182.5 65t-73.5 259v612q0 204 -76 311t-193 107q-31 0 -66 -7z" />
    <glyph glyph-name="uni0286" unicode="&#x286;" horiz-adv-x="845" 
d="M8 -175q0 110 73.5 183t200.5 73q54 0 114 -21v1139q0 167 93.5 230.5t216.5 63.5q60 0 96.5 -8.5t84.5 -32.5q16 -8 16 -21q0 -4 -3 -11l-33 -74q-13 -29 -35 -14q-18 13 -43.5 22t-65.5 9q-62 0 -106.5 -40t-44.5 -153v-1165q98 -48 154.5 -116.5t78.5 -120.5
q18 -43 -5 -56l-54 -29q-38 -20 -54 18q-18 42 -48 77.5t-77 72.5q-9 -139 -87 -203.5t-194 -64.5t-197 64t-81 178zM165 -181q0 -58 31.5 -82t69.5 -24q92 0 108 70.5t20 139.5q-68 17 -118 17q-54 0 -82.5 -31.5t-28.5 -89.5z" />
    <glyph glyph-name="uni0287" unicode="&#x287;" horiz-adv-x="757" 
d="M64 969q-8 20 12 32q39 23 114 44.5t150 21.5q104 0 159.5 -75t55.5 -212v-648h118q45 0 45 -35v-62q0 -35 -45 -35h-118v-90q0 -20 -10 -38l-70 -127q-19 -35 -31 -35h-35q-30 0 -30 35v255h-213q-45 0 -45 35v62q0 35 45 35h213v637q0 105 -31.5 136.5t-75.5 31.5
q-34 0 -81.5 -20t-65.5 -34t-28 9z" />
    <glyph glyph-name="uni0288" unicode="&#x288;" horiz-adv-x="715" 
d="M91 918q-45 0 -45 35v62q0 35 45 35h118v90q0 20 10 38l70 127q19 35 31 35h35q30 0 30 -35v-255h213q45 0 45 -35v-62q0 -35 -45 -35h-213v-912q0 -177 26.5 -235t85.5 -58q57 0 96 18q20 9 25 -15l17 -81q5 -22 -18 -32q-46 -20 -152 -20q-109 0 -182.5 65t-73.5 259
v1011h-118z" />
    <glyph glyph-name="uni0289" unicode="&#x289;" horiz-adv-x="1302" 
d="M95 482q-45 0 -45 35v62q0 35 45 35h137v391q0 45 45 45h86q45 0 45 -45v-391h486v391q0 45 45 45h86q45 0 45 -45v-391h137q45 0 45 -35v-62q0 -35 -45 -35h-137v-437q0 -45 -45 -45h-84q-45 0 -45 45v80h-4q-65 -72 -140 -107t-183 -35q-175 0 -256 102.5t-81 280.5
v116h-137zM408 414q0 -196 65 -248.5t161 -52.5q126 0 193 77.5t67 265.5v26h-486v-68z" />
    <glyph glyph-name="uni028A" unicode="&#x28a;" horiz-adv-x="1196" 
d="M125 920q-45 0 -45 35v60q0 35 45 35h290q45 0 45 -45v-75q-125 -135 -150 -240t-25 -215q0 -160 79 -261t234 -101t234 101t79 261q0 110 -20 220t-155 235v75q0 45 45 45h290q45 0 45 -35v-60q0 -35 -45 -35h-144v-7q65 -52 117.5 -172t52.5 -283q0 -164 -117 -319.5
t-382 -155.5t-382 155.5t-117 319.5q0 163 52.5 283t117.5 172v7h-144z" />
    <glyph glyph-name="uni028B" unicode="&#x28b;" horiz-adv-x="1024" 
d="M142 389v616q0 45 45 45h86q45 0 45 -45v-637q0 -160 54 -207.5t141 -47.5q109 0 174.5 96.5t65.5 317.5q0 161 -47 272.5t-80 177.5q-21 43 9 53l98 34q33 11 57 -28q51 -83 100 -210.5t49 -256.5q0 -299 -109 -442.5t-339 -143.5q-150 0 -249.5 88.5t-99.5 317.5z" />
    <glyph glyph-name="uni028C" unicode="&#x28c;" horiz-adv-x="986" 
d="M89 0q-44 0 -27 49l328 940q21 61 54 61h132q33 0 54 -61l328 -940q17 -49 -27 -49h-109q-32 0 -45 39l-212 660q-26 81 -35.5 111.5t-17.5 75.5h-4q-8 -45 -17.5 -75.5t-35.5 -111.5l-212 -660q-13 -39 -45 -39h-109z" />
    <glyph glyph-name="uni028D" unicode="&#x28d;" horiz-adv-x="1444" 
d="M58 49l248 940q16 61 54 61h120q38 0 54 -61l170 -661q18 -70 22.5 -98t7.5 -53h2q3 25 7.5 53t22.5 98l170 661q16 61 54 61h120q38 0 54 -61l248 -940q13 -49 -27 -49h-105q-36 0 -45 39l-147 660q-7 29 -21.5 91t-20.5 91h-4q-5 -28 -17.5 -84t-23.5 -98l-176 -660
q-10 -39 -45 -39h-90q-35 0 -45 39l-176 660q-11 42 -23.5 98t-17.5 84h-4q-6 -29 -20.5 -91t-21.5 -91l-147 -660q-9 -39 -45 -39h-105q-40 0 -27 49z" />
    <glyph glyph-name="uni028E" unicode="&#x28e;" horiz-adv-x="990" 
d="M63 49l337 940q95 265 170 371.5t224 106.5q78 0 124 -23q21 -10 14 -31l-26 -81q-7 -21 -27 -12q-41 17 -79 17q-70 0 -114 -75.5t-70 -151.5l-20 -59l361 -1002q18 -49 -27 -49h-109q-33 0 -45 39l-210 660q-9 27 -27.5 84.5t-26.5 102.5h-2q-8 -45 -19.5 -81.5
t-34.5 -105.5l-212 -660q-13 -39 -45 -39h-109q-45 0 -27 49z" />
    <glyph glyph-name="uni028F" unicode="&#x28f;" horiz-adv-x="1026" 
d="M85 988q-40 62 23 62h94q32 0 54 -34l213 -335q23 -36 48 -77.5t35 -81.5h2q10 40 35 81.5t48 77.5l213 335q22 34 54 34h94q63 0 23 -62l-380 -583v-360q0 -45 -45 -45h-86q-45 0 -45 45v360z" />
    <glyph glyph-name="uni0290" unicode="&#x290;" horiz-adv-x="1033" 
d="M100 0q-45 0 -45 35v51q0 34 35 80l578 752v2q-30 -2 -60 -2h-484q-45 0 -45 35v62q0 35 45 35h702q45 0 45 -35v-47q0 -30 -37 -78l-582 -758v-2q30 2 60 2h538q45 0 45 -35v-91q0 -177 20 -235t85 -58q52 0 96 15q21 8 25 -16l12 -82q3 -23 -19 -31q-47 -16 -146 -16
q-102 0 -175.5 65t-73.5 259v93h-619z" />
    <glyph glyph-name="uni0291" unicode="&#x291;" horiz-adv-x="1080" 
d="M626 132h103q91 0 117 31t26 74q0 23 -16 45t-65 22q-54 0 -97.5 -54t-67.5 -118zM100 0q-45 0 -45 35v51q0 34 35 80l578 752v2q-30 -2 -60 -2h-484q-45 0 -45 35v62q0 35 45 35h702q45 0 45 -35v-47q0 -30 -37 -78l-582 -758v-2q30 2 60 2h163q61 160 143 231t187 71
q103 0 162 -55t59 -158q0 -91 -56 -156t-282 -65h-101q-35 -84 -71 -226q-10 -40 -48 -31l-76 19q-30 8 -21 55q19 93 57 183h-328z" />
    <glyph glyph-name="uni0292" unicode="&#x292;" horiz-adv-x="982" 
d="M98 -271q-21 36 2 55l60 49q30 25 62 -19q6 -8 66 -54.5t173 -46.5q148 0 202 74.5t54 226.5q0 142 -63 217t-238 75h-75q-45 0 -45 35v51q0 36 35 80l358 446v2q-30 -2 -60 -2h-484q-45 0 -45 35v62q0 35 45 35h702q45 0 45 -35v-47q0 -32 -37 -78l-362 -452v-4
q185 0 297.5 -107.5t112.5 -304.5q0 -226 -106.5 -332.5t-325.5 -106.5q-174 0 -269.5 66t-103.5 80z" />
    <glyph glyph-name="uni0293" unicode="&#x293;" horiz-adv-x="1010" 
d="M67 -174q0 105 100 172.5t274 67.5q77 0 143 -13t112 -31q-2 136 -64 210t-237 74h-75q-45 0 -45 35v51q0 36 35 80l358 446v2q-30 -2 -60 -2h-484q-45 0 -45 35v62q0 35 45 35h702q45 0 45 -35v-47q0 -32 -37 -78l-362 -452v-4q185 0 297.5 -107.5t112.5 -304.5
q0 -52 -6 -98q45 -37 92.5 -103.5t70.5 -122.5q19 -45 -5 -56l-65 -29q-41 -18 -54 18q-14 40 -38 75.5t-45 61.5q-27 -65 -124.5 -125t-271.5 -60q-97 0 -233 39t-136 204zM224 -190q0 -54 74 -75.5t130 -21.5q134 0 190 52.5t63 111.5q-28 13 -91.5 30.5t-154.5 17.5
q-78 0 -144.5 -22.5t-66.5 -92.5z" />
    <glyph glyph-name="uni0294" unicode="&#x294;" horiz-adv-x="995" 
d="M136 1193q-31 14 -3 86q27 67 121.5 140.5t258.5 73.5q212 0 312 -110.5t100 -284.5q0 -150 -164 -349.5t-164 -350.5v-353q0 -45 -45 -45h-86q-45 0 -45 45v387q0 192 154 372t154 300q0 140 -56 189.5t-153 49.5q-107 0 -161.5 -40t-83.5 -109q-23 -54 -65 -35z" />
    <glyph glyph-name="uni0295" unicode="&#x295;" horiz-adv-x="995" 
d="M99 1098q0 174 100 284.5t312 110.5q164 0 258.5 -73.5t121.5 -140.5q28 -72 -3 -86l-74 -34q-42 -19 -65 35q-29 69 -83.5 109t-161.5 40q-97 0 -153 -49.5t-56 -189.5q0 -120 154 -300t154 -372v-387q0 -45 -45 -45h-86q-45 0 -45 45v353q0 151 -164 350.5t-164 349.5z
" />
    <glyph glyph-name="uni0296" unicode="&#x296;" horiz-adv-x="995" 
d="M99 378q0 150 164 349.5t164 350.5v353q0 45 45 45h86q45 0 45 -45v-387q0 -192 -154 -372t-154 -300q0 -140 56 -189.5t153 -49.5q107 0 161.5 40t83.5 109q23 54 65 35l74 -34q31 -14 3 -86q-27 -67 -121.5 -140.5t-258.5 -73.5q-212 0 -312 110.5t-100 284.5z" />
    <glyph glyph-name="uni0297" unicode="&#x297;" horiz-adv-x="1026" 
d="M90 125v400q0 235 115.5 388.5t352.5 153.5q162 0 251 -63.5t124 -137.5q17 -36 -14 -52l-66 -35q-31 -17 -57 32t-79.5 87.5t-158.5 38.5q-140 0 -216 -101t-76 -311v-400q0 -210 76 -311t216 -101q111 0 170.5 46.5t84.5 102.5q22 49 56 32l70 -34q33 -16 14 -53
q-33 -65 -119.5 -144.5t-275.5 -79.5q-237 0 -352.5 154t-115.5 388z" />
    <glyph glyph-name="uni0298" unicode="&#x298;" horiz-adv-x="1524" 
d="M92 717q0 350 172.5 548.5t497.5 198.5t497.5 -198.5t172.5 -548.5t-172.5 -548.5t-497.5 -198.5t-497.5 198.5t-172.5 548.5zM297 717q0 -280 115 -435.5t350 -155.5t350 155.5t115 435.5t-115 435.5t-350 155.5t-350 -155.5t-115 -435.5zM706 611q-45 0 -45 45v122
q0 45 45 45h112q45 0 45 -45v-122q0 -45 -45 -45h-112z" />
    <glyph glyph-name="uni0299" unicode="&#x299;" horiz-adv-x="1062" 
d="M187 0q-45 0 -45 45v960q0 45 45 45h323q230 0 316 -74.5t86 -197.5q0 -77 -26 -130.5t-117 -95.5v-1q105 -35 149 -82t44 -187q0 -118 -87 -200t-315 -82h-373zM318 131h196q140 0 201 30.5t61 140.5q0 100 -70 136t-192 36h-196v-343zM318 605h156q120 0 191 34.5
t71 122.5q0 95 -61 126.5t-201 31.5h-156v-315z" />
    <glyph glyph-name="uni029A" unicode="&#x29a;" horiz-adv-x="1111" 
d="M100 308q0 80 53 152.5t132 95.5v3q-59 27 -98.5 77t-39.5 156q0 102 98.5 188.5t291.5 86.5q240 0 364.5 -153.5t124.5 -388.5t-124.5 -388.5t-364.5 -153.5q-207 0 -322 75.5t-115 249.5zM286 300q0 -76 50 -131.5t201 -55.5q137 0 220 101t83 311t-83 311t-220 101
q-103 0 -158.5 -34.5t-55.5 -123.5t47.5 -127.5t138.5 -38.5h73q40 0 40 -35v-60q0 -35 -40 -35h-82q-98 0 -156 -47.5t-58 -135.5z" />
    <glyph glyph-name="uni029B" unicode="&#x29b;" horiz-adv-x="1226" 
d="M85 525q0 235 116.5 388.5t366.5 153.5q147 0 228 -50h2q-2 32 -2 61v121q0 167 93.5 230.5t211.5 63.5q55 0 92.5 -8.5t85.5 -32.5q23 -11 13 -32l-35 -74q-14 -29 -35 -14q-18 13 -43.5 22t-60.5 9q-57 0 -101.5 -40t-44.5 -153v-251q0 -38 -20 -54l-63 -50
q-37 -30 -70 14t-89.5 76t-161.5 32q-150 0 -223.5 -101t-73.5 -311t73.5 -311t223.5 -101q102 0 159 23.5t98 64.5v171h-212q-45 0 -45 35v62q0 35 45 35h343q45 0 45 -35v-325q-101 -82 -186 -121.5t-247 -39.5q-250 0 -366.5 153.5t-116.5 388.5z" />
    <glyph glyph-name="uni029C" unicode="&#x29c;" horiz-adv-x="1120" 
d="M187 0q-45 0 -45 45v960q0 45 45 45h86q45 0 45 -45v-391h484v391q0 45 45 45h86q45 0 45 -45v-960q0 -45 -45 -45h-86q-45 0 -45 45v437h-484v-437q0 -45 -45 -45h-86z" />
    <glyph glyph-name="uni029D" unicode="&#x29d;" horiz-adv-x="808" 
d="M-4 -180q0 92 64.5 170t284.5 78h40v937q0 45 45 45h86q45 0 45 -45v-937h177q45 0 45 -35v-62q0 -35 -45 -35h-177v-29q0 -211 -88 -267.5t-211 -56.5q-119 0 -192.5 61.5t-73.5 175.5zM153 -186q0 -58 34 -79.5t73 -21.5q63 0 94 32.5t31 140.5v50h-54q-88 0 -133 -32
t-45 -90zM430 1240q-45 0 -45 45v86q0 45 45 45h86q45 0 45 -45v-86q0 -45 -45 -45h-86z" />
    <glyph glyph-name="uni029E" unicode="&#x29e;" horiz-adv-x="1003" 
d="M104 991q-38 59 26 59h98q33 0 57 -37l288 -449l151 180v261q0 45 45 45h86q45 0 45 -45v-1386q0 -45 -45 -45h-86q-45 0 -45 45v832q0 30 2 60h-2l-405 -485q-22 -26 -53 -26h-91q-76 0 -26 59l314 374z" />
    <glyph glyph-name="uni029F" unicode="&#x29f;" horiz-adv-x="868" 
d="M187 0q-45 0 -45 45v960q0 45 45 45h86q45 0 45 -45v-873h463q45 0 45 -35v-62q0 -35 -45 -35h-594z" />
    <glyph glyph-name="uni02A0" unicode="&#x2a0;" horiz-adv-x="1231" 
d="M1062 -355q0 -45 -45 -45h-86q-45 0 -45 45v419q0 31 2 61h-2q-55 -66 -124 -104t-184 -38q-200 0 -304 163.5t-104 378.5t104 378.5t304 163.5q115 0 184 -38t124 -104h2q-2 32 -2 61v213q0 167 93.5 230.5t211.5 63.5q55 0 92.5 -8.5t85.5 -32.5q23 -11 13 -32l-35 -74
q-14 -29 -35 -14q-18 13 -43.5 22t-60.5 9q-57 0 -101.5 -40t-44.5 -153v-1525zM170 525zM356 525q0 -184 63.5 -298t215.5 -114q108 0 179.5 73.5t71.5 223.5v230q0 150 -71.5 223.5t-179.5 73.5q-152 0 -215.5 -114t-63.5 -298z" />
    <glyph glyph-name="uni02A1" unicode="&#x2a1;" horiz-adv-x="995" 
d="M136 1193q-31 14 -3 86q27 67 121.5 140.5t258.5 73.5q212 0 312 -110.5t100 -284.5q0 -150 -162.5 -347.5t-165.5 -346.5h187q45 0 45 -35v-62q0 -35 -45 -35h-187v-227q0 -45 -45 -45h-86q-45 0 -45 45v227h-187q-45 0 -45 35v62q0 35 45 35h187v28q0 192 154 372
t154 300q0 140 -56 189.5t-153 49.5q-107 0 -161 -40t-84 -109q-23 -54 -65 -35z" />
    <glyph glyph-name="uni02A2" unicode="&#x2a2;" horiz-adv-x="995" 
d="M99 1098q0 174 100 284.5t312 110.5q164 0 258.5 -73.5t121.5 -140.5q28 -72 -3 -86l-74 -34q-42 -19 -65 35q-30 69 -84 109t-161 40q-97 0 -153 -49.5t-56 -189.5q0 -120 154 -300t154 -372v-28h187q45 0 45 -35v-62q0 -35 -45 -35h-187v-227q0 -45 -45 -45h-86
q-45 0 -45 45v227h-187q-45 0 -45 35v62q0 35 45 35h187q-3 149 -165.5 346.5t-162.5 347.5z" />
    <glyph glyph-name="uni02A3" unicode="&#x2a3;" horiz-adv-x="1862" 
d="M85 525q0 215 104 378.5t304 163.5q115 0 184 -38t124 -104h2q-2 30 -2 61v445q0 45 45 45h86q45 0 45 -45v-381h761q45 0 45 -35v-47q0 -30 -37 -78l-582 -758v-2q30 2 60 2h538q45 0 45 -35v-62q0 -35 -45 -35h-914q-36 0 -39 45l-6 80h-2q-55 -66 -124 -104t-184 -38
q-200 0 -304 163.5t-104 378.5zM271 525q0 -184 63.5 -298t215.5 -114q108 0 179.5 73.5t71.5 223.5v230q0 150 -71.5 223.5t-179.5 73.5q-152 0 -215.5 -114t-63.5 -298zM977 136h2l601 782v2q-30 -2 -60 -2h-543v-782z" />
    <glyph glyph-name="uni02A4" unicode="&#x2a4;" horiz-adv-x="1844" 
d="M271 525q0 -184 63.5 -298t215.5 -114q108 0 179.5 73.5t71.5 223.5v230q0 150 -71.5 223.5t-179.5 73.5q-152 0 -215.5 -114t-63.5 -298zM85 525q0 215 104 378.5t304 163.5q115 0 184 -38t124 -104h2q-2 30 -2 61v445q0 45 45 45h86q45 0 45 -45v-381h711q45 0 45 -35
v-47q0 -32 -37 -78l-362 -452v-4q185 0 297.5 -107.5t112.5 -304.5q0 -226 -106.5 -332.5t-325.5 -106.5q-174 0 -269.5 66t-103.5 80q-21 36 2 55l60 49q30 25 62 -19q6 -8 66 -54.5t173 -46.5q148 0 202 74.5t54 226.5q0 142 -63 217t-238 75h-75q-45 0 -45 35v51
q0 36 35 80l358 446v2q-30 -2 -60 -2h-493v-873q0 -45 -45 -45h-84q-36 0 -39 45l-6 80h-2q-55 -66 -124 -104t-184 -38q-200 0 -304 163.5t-104 378.5z" />
    <glyph glyph-name="uni02A5" unicode="&#x2a5;" horiz-adv-x="1992" 
d="M977 136h2l601 782v2q-30 -2 -60 -2h-543v-782zM271 525q0 -184 63.5 -298t215.5 -114q108 0 179.5 73.5t71.5 223.5v230q0 150 -71.5 223.5t-179.5 73.5q-152 0 -215.5 -114t-63.5 -298zM85 525q0 215 104 378.5t304 163.5q115 0 184 -38t124 -104h2q-2 30 -2 61v445
q0 45 45 45h86q45 0 45 -45v-381h761q45 0 45 -35v-47q0 -30 -37 -78l-582 -758v-2q30 2 60 2h163q61 160 143 231t187 71q103 0 162 -55t59 -158q0 -91 -56 -156t-282 -65h-101q-35 -84 -71 -226q-10 -40 -48 -31l-76 19q-30 8 -21 55q19 93 57 183h-492q-36 0 -39 45
l-6 80h-2q-55 -66 -124 -104t-184 -38q-200 0 -304 163.5t-104 378.5zM1538 132h103q91 0 117 31t26 74q0 23 -16 45t-65 22q-54 0 -97.5 -54t-67.5 -118z" />
    <glyph glyph-name="uni02A6" unicode="&#x2a6;" horiz-adv-x="1435" 
d="M91 918q-45 0 -45 35v62q0 35 45 35h118v90q0 20 10 38l70 127q19 35 31 35h35q30 0 30 -35v-255h441q72 17 141 17q124 0 199.5 -28.5t130.5 -67.5q32 -23 9 -53l-45 -60q-21 -29 -65 2q-37 26 -105 49t-119 23q-63 0 -108 -14t-73 -48t-28 -80q0 -35 11 -62.5t41 -50.5
t84 -37q84 -22 153.5 -40t125.5 -44q73 -34 112.5 -75t54.5 -88.5t15 -105.5q0 -107 -60 -178t-134 -90t-196 -19h-546q-104 0 -159.5 75t-55.5 212v631h-118zM385 298q0 -105 31.5 -135.5t75.5 -30.5h479q53 0 101.5 9.5t75 41t26.5 93.5q0 36 -15.5 68t-48 51.5
t-63.5 30.5q-51 19 -99 31t-135 39q-56 17 -104.5 48.5t-85 85.5t-36.5 149q0 78 38 139h-240v-620z" />
    <glyph glyph-name="uni02A7" unicode="&#x2a7;" horiz-adv-x="1054" 
d="M91 918q-45 0 -45 35v62q0 35 45 35h118v90q0 20 10 38l70 127q19 35 31 35h35q30 0 30 -35v-255h231v149q0 167 93.5 230.5t216.5 63.5q60 0 96.5 -8.5t84.5 -32.5q22 -11 13 -32l-33 -74q-13 -29 -35 -14q-18 13 -43.5 22t-65.5 9q-62 0 -106.5 -40t-44.5 -153v-1263
q0 -194 -73.5 -259t-182.5 -65q-106 0 -152 20q-22 10 -18 32l17 81q5 24 25 15q40 -18 96 -18q59 0 85.5 58t26.5 247q-19 -8 -70.5 -21.5t-121.5 -13.5q-104 0 -159.5 75t-55.5 212v648h-118zM385 281q0 -105 31.5 -136.5t75.5 -31.5q34 0 71 15.5t53 24.5v765h-231v-637z
" />
    <glyph glyph-name="uni02A8" unicode="&#x2a8;" horiz-adv-x="1526" 
d="M91 918q-45 0 -45 35v62q0 35 45 35h118v90q0 20 10 38l70 127q19 35 31 35h35q30 0 30 -35v-255h213q45 0 45 -35v-62q0 -35 -45 -35h-213v-637q0 -105 31.5 -136.5t75.5 -31.5q45 0 99.5 24t84.5 44q-42 59 -66 144.5t-24 199.5q0 235 116 388.5t356 153.5
q162 0 247 -57t124 -118q21 -33 -9 -53l-63 -41q-30 -20 -60 27q-29 46 -81.5 79t-157.5 33q-137 0 -212 -101t-75 -311q0 -139 11.5 -182.5t28.5 -74.5q47 40 148 103t213 63q130 0 204 -51t74 -150q0 -93 -97 -171.5t-295 -78.5q-105 0 -173.5 24t-120.5 66
q-60 -36 -131.5 -63t-177.5 -27q-128 0 -187 75t-59 212v648h-118zM895 162q61 -49 163 -49q128 0 183 44.5t55 78.5q0 38 -33 53t-100 15t-137 -42.5t-131 -99.5z" />
    <glyph glyph-name="uni02A9" unicode="&#x2a9;" horiz-adv-x="1589" 
d="M90 918q-45 0 -45 35v62q0 35 45 35h107v149q0 167 90 230.5t206 63.5q69 0 111 -7t101 -31q22 -9 13 -32l-31 -79q-8 -20 -35 -8q-23 10 -54.5 18.5t-68.5 8.5q-83 0 -119.5 -40t-36.5 -153v-120h359q45 0 45 -45v-80h4q65 72 140 107t187 35q182 0 261.5 -102.5
t79.5 -280.5v-777q0 -194 -73.5 -259t-182.5 -65q-106 0 -152 20q-22 10 -18 32l17 81q5 24 25 15q40 -18 96 -18q59 0 85.5 58t26.5 235v630q0 196 -65 248.5t-165 52.5q-130 0 -197 -77.5t-67 -265.5v-549q0 -45 -45 -45h-86q-45 0 -45 45v873h-230v-873q0 -45 -45 -45
h-86q-45 0 -45 45v873h-107z" />
    <glyph glyph-name="uni02AA" unicode="&#x2aa;" horiz-adv-x="1311" 
d="M187 0q-45 0 -45 45v1248q0 20 10 38l70 127q19 35 31 35h35q30 0 30 -35v-1071q98 -89 232 -181.5t296 -92.5q55 0 97 13.5t74.5 50.5t32.5 99q0 36 -15.5 68t-48 51.5t-63.5 30.5q-51 19 -101.5 31.5t-132.5 38.5q-55 17 -104 48.5t-85.5 85.5t-36.5 149q0 97 59 167
t148 95.5t173 25.5q124 0 199.5 -28.5t130.5 -67.5q32 -23 9 -53l-45 -60q-21 -29 -65 2q-37 26 -105 49t-119 23q-63 0 -108 -14t-73 -48t-28 -80q0 -35 11 -62.5t41 -50.5t84 -37q84 -22 153.5 -40t125.5 -44q73 -34 112.5 -75t54.5 -88.5t15 -105.5q0 -107 -63.5 -181
t-140.5 -98.5t-187 -24.5q-193 0 -319.5 71.5t-205.5 140.5h-4q2 -29 2 -59v-91q0 -45 -45 -45h-86z" />
    <glyph glyph-name="uni02AB" unicode="&#x2ab;" horiz-adv-x="1203" 
d="M187 0q-45 0 -45 45v1248q0 20 10 38l70 127q19 35 31 35h35q30 0 30 -35v-408h761q45 0 45 -35v-47q0 -30 -37 -78l-582 -758v-2q30 2 60 2h538q45 0 45 -35v-62q0 -35 -45 -35h-916zM318 136h2l601 782v2q-30 -2 -60 -2h-543v-782z" />
    <glyph glyph-name="uni02AC" unicode="&#x2ac;" horiz-adv-x="908" 
d="M49 601q-8 29 16 29h67q22 0 27 -23l92 -391q9 -39 15 -62t10 -48h2q4 25 9.5 48t15.5 62l100 391q6 23 27 23h64q21 0 27 -23l101 -391q10 -39 15 -62t9 -48h3q4 25 9.5 48t14.5 62l92 391q5 23 27 23h67q24 0 16 -29l-150 -564q-10 -37 -33 -37h-75q-22 0 -32 37
l-104 386q-10 39 -12 52.5t-6 38.5h-1q-4 -25 -6 -38.5t-12 -52.5l-104 -386q-10 -37 -33 -37h-75q-22 0 -32 37zM49 1405q-8 29 16 29h67q22 0 27 -23l92 -391q9 -39 15 -62t10 -48h2q4 25 9.5 48t15.5 62l100 391q6 23 27 23h64q21 0 27 -23l101 -391q10 -39 15 -62t9 -48
h3q4 25 9.5 48t14.5 62l92 391q5 23 27 23h67q24 0 16 -29l-150 -564q-10 -37 -33 -37h-75q-22 0 -32 37l-104 386q-10 39 -12 52.5t-6 38.5h-1q-4 -25 -6 -38.5t-12 -52.5l-104 -386q-10 -37 -33 -37h-75q-22 0 -32 37z" />
    <glyph glyph-name="uni02AD" unicode="&#x2ad;" horiz-adv-x="1032" 
d="M161 0q-45 0 -45 45v410q0 45 45 45h710q45 0 45 -45v-410q0 -45 -45 -45h-76q-45 0 -45 45v306h-468v-306q0 -45 -45 -45h-76zM161 934q-45 0 -45 45v410q0 45 45 45h710q45 0 45 -45v-410q0 -45 -45 -45h-76q-45 0 -45 45v306h-468v-306q0 -45 -45 -45h-76z" />
    <glyph glyph-name="uni02AE" unicode="&#x2ae;" horiz-adv-x="1259" 
d="M-76 1019q-7 21 17 30q49 18 106 18q221 0 314 -121.5t93 -386.5v-145q0 -196 65 -248.5t180 -52.5t182 77.5t67 265.5v549q0 45 45 45h86q45 0 45 -45v-1360q0 -45 -45 -45h-86q-45 0 -45 45v420q0 30 2 60h-4q-65 -72 -140 -107t-187 -35q-182 0 -261.5 102.5
t-79.5 280.5v173q0 229 -54 313.5t-173 84.5q-35 0 -75 -12q-20 -6 -26 14z" />
    <glyph glyph-name="uni02AF" unicode="&#x2af;" horiz-adv-x="1298" 
d="M-76 1019q-7 21 17 30q49 18 106 18q221 0 314 -121.5t93 -386.5v-145q0 -196 65 -248.5t180 -52.5t182 77.5t67 265.5v549q0 45 45 45h86q45 0 45 -45v-999q0 -177 26.5 -235t85.5 -58q48 0 86 35q22 21 41 -6l43 -62q15 -22 -13 -39q-92 -58 -189 -58q-109 0 -182.5 65
t-73.5 259v158q0 30 2 60h-4q-65 -72 -140 -107t-187 -35q-182 0 -261.5 102.5t-79.5 280.5v173q0 229 -54 313.5t-173 84.5q-35 0 -75 -12q-20 -6 -26 14z" />
    <glyph glyph-name="uni02B0" unicode="&#x2b0;" horiz-adv-x="676" 
d="M85 727v832q0 27 27 27h52q27 0 27 -27v-268q0 -18 -1 -36h2q77 85 196 85q205 0 205 -230v-383q0 -27 -27 -27h-52q-27 0 -27 27v355q0 118 -39 149t-99 31q-78 0 -118 -46.5t-40 -159.5v-329q0 -27 -27 -27h-52q-27 0 -27 27z" />
    <glyph glyph-name="uni02B1" unicode="&#x2b1;" horiz-adv-x="676" 
d="M85 727v604q0 265 251 265q158 0 220 -74q16 -20 1 -34l-33 -32q-13 -13 -30 2q-35 30 -67.5 45t-91.5 15q-71 0 -107.5 -41t-36.5 -162v-34q0 -18 -1 -36h2q77 85 196 85q205 0 205 -230v-373q0 -27 -27 -27h-52q-27 0 -27 27v344q0 118 -39 149.5t-99 31.5
q-78 0 -118 -46.5t-40 -159.5v-319q0 -27 -27 -27h-52q-27 0 -27 27z" />
    <glyph glyph-name="uni02B2" unicode="&#x2b2;" horiz-adv-x="279" 
d="M-59 481l10 49q3 14 15 9q23 -11 58 -11t51 34.5t16 141.5v599q0 27 27 27h51q27 0 27 -27v-659q0 -116 -44 -155t-109 -39q-63 0 -91 12q-13 6 -11 19zM91 1471v52q0 27 27 27h51q27 0 27 -27v-52q0 -27 -27 -27h-51q-27 0 -27 27z" />
    <glyph glyph-name="uni02B3" unicode="&#x2b3;" horiz-adv-x="433" 
d="M85 727v576q0 27 27 27h51q27 0 27 -27v-72h2q58 109 165 109q38 0 54 -6q14 -5 10 -18l-14 -50q-3 -11 -15 -8q-21 4 -40 4q-70 0 -115.5 -63t-45.5 -173v-299q0 -27 -27 -27h-52q-27 0 -27 27z" />
    <glyph glyph-name="uni02B4" unicode="&#x2b4;" horiz-adv-x="433" 
d="M16 714l14 50q3 11 15 8q21 -4 40 -4q70 0 115.5 63t45.5 173v299q0 27 27 27h52q27 0 27 -27v-576q0 -27 -27 -27h-50q-27 0 -27 27v72h-3q-58 -109 -165 -109q-38 0 -54 6q-14 5 -10 18z" />
    <glyph glyph-name="uni02B5" unicode="&#x2b5;" horiz-adv-x="439" 
d="M16 714l14 50q3 11 15 8q21 -4 40 -4q70 0 115.5 63t45.5 173v299q0 27 27 27h52q27 0 27 -27v-599q0 -106 16 -141t51 -35q34 0 58 11q12 5 15 -9l10 -49q3 -13 -11 -19q-28 -12 -91 -12q-65 0 -109.5 39t-44.5 155v119q0 18 2 36h-3q-58 -109 -165 -109q-37 0 -54 6
q-14 5 -10 18z" />
    <glyph glyph-name="uni02B6" unicode="&#x2b6;" horiz-adv-x="668" 
d="M85 727v576q0 27 27 27h52q27 0 27 -27v-232h74q41 0 67 20t58 66l106 151q16 22 34 22h66q42 0 15 -35l-113 -153q-40 -54 -100 -88v-1q193 -22 194 -180q0 -89 -58 -131t-196 -42h-226q-27 0 -27 27zM191 779h132q83 0 120 20t37 74q0 73 -46.5 96.5t-110.5 23.5h-132
v-214z" />
    <glyph glyph-name="uni02B7" unicode="&#x2b7;" horiz-adv-x="866" 
d="M35 1301q-8 29 16 29h63q22 0 27 -23l88 -396q18 -76 26 -110h2q9 48 25 110l105 396q6 23 27 23h54q21 0 27 -23l106 -396q16 -61 24 -110h3q7 34 25 110l88 396q5 23 27 23h63q24 0 16 -29l-148 -564q-10 -37 -33 -37h-72q-23 0 -32 37l-102 396q-13 52 -18 91h-1
q-5 -39 -18 -91l-102 -396q-10 -37 -33 -37h-72q-23 0 -32 37z" />
    <glyph glyph-name="uni02B8" unicode="&#x2b8;" horiz-adv-x="594" 
d="M42 1301q-11 29 16 29h65q20 0 27 -23l126 -396q27 -80 33 -113h1q6 32 32 113l127 396q8 23 27 23h66q27 0 16 -29l-202 -564q-57 -159 -102 -223t-135 -64q-47 0 -74 14q-12 6 -8 18l15 49q4 13 16 7q25 -10 48 -10q42 0 68.5 45.5t41.5 90.5l12 35z" />
    <glyph glyph-name="uni02B9" unicode="&#x2b9;" horiz-adv-x="460" 
d="M162 894q-34 0 -24 45l125 556q12 55 49 55h105q41 0 23 -55l-186 -556q-15 -45 -46 -45h-46z" />
    <glyph glyph-name="uni02BA" unicode="&#x2ba;" horiz-adv-x="837" 
d="M162 894q-34 0 -24 45l125 556q12 55 49 55h105q41 0 23 -55l-186 -556q-15 -45 -46 -45h-46zM539 894q-34 0 -24 45l125 556q12 55 49 55h105q41 0 23 -55l-186 -556q-15 -45 -46 -45h-46z" />
    <glyph glyph-name="uni02BE" unicode="&#x2be;" horiz-adv-x="614" 
d="M220 995q-30 0 -30 30v38q0 30 30 30q72 0 121 50t49 122t-49 122t-121 50q-30 0 -30 30v38q0 30 30 30q112 0 191 -80.5t79 -189.5t-79 -189.5t-191 -80.5z" />
    <glyph glyph-name="uni02BF" unicode="&#x2bf;" horiz-adv-x="614" 
d="M394 1535q30 0 30 -30v-38q0 -30 -30 -30q-72 0 -121 -50t-49 -122t49 -122t121 -50q30 0 30 -30v-38q0 -30 -30 -30q-112 0 -191 80.5t-79 189.5t79 189.5t191 80.5z" />
    </font>
</defs>
</svg>
