<?xml version="1.0" standalone="no"?>
<!DOCTYPE svg PUBLIC "-//W3C//DTD SVG 1.1//EN" "http://www.w3.org/Graphics/SVG/1.1/DTD/svg11.dtd" >
<svg xmlns="http://www.w3.org/2000/svg" xmlns:xlink="http://www.w3.org/1999/xlink" version="1.1">
<metadata>
Created by FontForge 20201107 at Thu Jun 12 13:50:17 2025
 By 
copyright missing
</metadata>
<defs>
<font id="PublicSans-Black" horiz-adv-x="1175" >
  <font-face 
    font-family="Public Sans Black"
    font-weight="900"
    font-stretch="normal"
    units-per-em="2048"
    panose-1="0 0 10 0 0 0 0 0 0 0"
    ascent="1597"
    descent="-451"
    x-height="1059"
    cap-height="1481"
    bbox="-979 -492 2886 2030"
    underline-thickness="102"
    underline-position="-204"
    unicode-range="U+000D-FB02"
  />
<missing-glyph horiz-adv-x="1298" 
d="M1120 1692q37 0 37 -43v-1921q0 -31 -16 -44.5t-51 -13.5h-893q-31 0 -43.5 11.5t-12.5 37.5v1926q0 47 39 47h940zM1053 1556q0 15 -9 25t-22 10h-703l734 -1708v1673zM246 -188q0 -21 10 -31t35 -10h688l-733 1695v-1654z" />
    <glyph glyph-name="fi" unicode="fi" horiz-adv-x="1396" 
d="M1303 1522v-336h-400v336h400zM786 1059v-271h-192v-788h-399v788h-170v271h170v141q0 130 85.5 205.5t231.5 75.5h283l2 -258h-123q-50 0 -69 -22.5t-19 -80.5v-61h200zM1303 1059v-1059h-400v1059h400z" />
    <glyph glyph-name="fl" unicode="fl" horiz-adv-x="1497" 
d="M1307 -23q-81 0 -145 11.5t-106 28.5t-72 46t-45.5 55t-24 65.5t-10 67t-1.5 68.5v1203h391v-1149q0 -22 4 -38.5t15.5 -33.5t36.5 -28.5t63 -16.5l43 -4v-242q-86 -33 -149 -33zM786 1059v-271h-192v-788h-399v788h-170v271h170v141q0 130 85.5 205.5t231.5 75.5h283
l2 -258h-123q-50 0 -69 -22.5t-19 -80.5v-61h200z" />
    <glyph glyph-name="f_f.liga" unicode="ff" horiz-adv-x="1867" 
d="M1718 1059v-271h-192v-788h-400v788h-172v271h172v141q0 130 85.5 205.5t230.5 75.5h284l3 -258h-123q-50 0 -70 -22.5t-20 -80.5v-61h202zM836 1059v-271h-197v-788h-399v788h-172v271h172v98q0 129 85 205t230 76h285l2 -260h-123q-50 0 -70 -21.5t-20 -79.5v-18h207z
" />
    <glyph glyph-name="colon_one_eight_F_colon.liga" unicode="&#x3a;&#x31;&#x38;F&#x3a;" horiz-adv-x="1613" 
d="M51 1559h1512q22 0 22 -25v-1507q0 -12 -6.5 -19.5t-15.5 -7.5h-1512q-22 0 -22 27v1507q0 25 22 25zM780 479q72 0 124 52t52 124q0 91 -75 144q53 50 53 119q0 63 -45.5 108t-108.5 45q-67 0 -111 -44.5t-44 -108.5t55 -119q-76 -51 -76 -144q0 -72 51.5 -124
t124.5 -52zM518 498v557q0 10 -8 10h-139q-6 0 -6 -10v-54q0 -8 6 -8h75v-495q0 -9 7 -9h57q8 0 8 9zM1274 1001v54q0 10 -8 10h-215q-9 0 -9 -10v-557q0 -9 9 -9h53q12 0 12 9v254h125q6 0 6 8v51q0 10 -6 10h-125v172h150q8 0 8 8zM780 836q-36 0 -61 23t-25 59
q0 35 25 59t61 24q35 0 59.5 -24t24.5 -59q0 -36 -24 -59t-60 -23zM780 760q44 0 74.5 -30.5t30.5 -74.5q0 -43 -30.5 -73.5t-74.5 -30.5q-43 0 -73.5 30.5t-30.5 73.5q0 44 30.5 74.5t73.5 30.5z" />
    <glyph glyph-name="colon_f_l_a_g_two_colon.liga" unicode="&#x3a;flag&#x32;&#x3a;" horiz-adv-x="2400" 
d="M109 1559h2183v-1557h-2183v1557zM2165 1321v109h-1096v-109h1096zM301 1198h129v121h-129v-121zM784 1198h125v121h-125v-121zM545 1079h125v119h-125v-119zM1069 1081h1096v113h-1096v-113zM305 958h125v121h-125v-121zM909 1079h-125v-121h125v121zM670 958h-125v-118
h125v118zM1069 842h1096v112h-1096v-112zM430 840h-125v-121h125v121zM909 840h-125v-121h125v121zM1069 602h1096v113h-1096v-113zM2165 475h-1932v-113h1932v113zM236 129h1929v107h-1929v-107z" />
    <glyph glyph-name="colon_f_l_a_g_colon.liga" unicode="&#x3a;flag&#x3a;" horiz-adv-x="2400" 
d="M109 1559h2183v-1557h-2183v1557zM2173 1438h-1946v-838h1946v119h-1106v121h1106v118h-1106v121h1106v119h-1106v121h1106v119zM467 1319v-121h-119v121h119zM946 1319v-121h-119v121h119zM707 1198v-119h-119v119h119zM467 1079v-121h-119v121h119zM946 1079v-121h-119
v121h119zM707 958v-118h-119v118h119zM467 840v-121h-119v121h119zM946 840v-121h-119v121h119zM2173 479h-1946v-119h1946v119zM227 121h1946v119h-1946v-119z" />
    <glyph glyph-name=".notdef" horiz-adv-x="1298" 
d="M1120 1692q37 0 37 -43v-1921q0 -31 -16 -44.5t-51 -13.5h-893q-31 0 -43.5 11.5t-12.5 37.5v1926q0 47 39 47h940zM1053 1556q0 15 -9 25t-22 10h-703l734 -1708v1673zM246 -188q0 -21 10 -31t35 -10h688l-733 1695v-1654z" />
    <glyph glyph-name="uni0000" horiz-adv-x="53" 
 />
    <glyph glyph-name="nonmarkingreturn" horiz-adv-x="682" 
 />
    <glyph glyph-name="CR" unicode="&#xd;" horiz-adv-x="495" 
 />
    <glyph glyph-name="space" unicode=" " horiz-adv-x="430" 
 />
    <glyph glyph-name="exclam" unicode="!" horiz-adv-x="628" 
d="M530 1481l-104 -951h-244l-112 951h460zM510 393v-393h-420v393h420z" />
    <glyph glyph-name="quotedbl" unicode="&#x22;" horiz-adv-x="1093" 
d="M520 1481l-94 -660h-186l-95 660h375zM1044 1481l-94 -660h-186l-94 660h374z" />
    <glyph glyph-name="numbersign" unicode="#" horiz-adv-x="1280" 
d="M1223 862h-252l-33 -227h219v-193h-246l-65 -448l-195 24l62 424h-250l-66 -448l-192 24l61 424h-227v193h256l33 227h-224v193h252l64 430l190 -19l-59 -411h252l63 430l193 -19l-60 -411h224v-193zM741 635l33 227h-252l-33 -227h252z" />
    <glyph glyph-name="dollar" unicode="$" horiz-adv-x="1435" 
d="M1354 420q0 -171 -117 -283.5t-324 -144.5v-170h-333v168q-465 62 -498 461h414q17 -78 83.5 -122t170.5 -44q89 0 135.5 38.5t46.5 96.5q0 63 -42 89t-145 42l-231 39q-178 29 -282 140.5t-107 295.5q-3 181 123.5 301.5t331.5 157.5v198h333v-200q199 -38 312 -161.5
t104 -289.5h-403q-3 38 -11 63.5t-25.5 49.5t-51.5 35.5t-84 11.5q-107 0 -155 -35t-48 -82q0 -53 34 -81t128 -48l231 -47q410 -84 410 -479z" />
    <glyph glyph-name="percent" unicode="%" horiz-adv-x="1986" 
d="M479 1503q107 0 198 -60t143 -157.5t52 -206.5q0 -164 -114.5 -287.5t-278.5 -123.5q-109 0 -201.5 58t-144 152t-51.5 201q0 109 52.5 206.5t144.5 157.5t200 60zM1636 1497l-995 -1505l-217 4l997 1501h215zM477 862q60 0 83.5 52t23.5 165q0 118 -24.5 175t-82.5 57
t-82 -57t-24 -175q0 -112 23.5 -164.5t82.5 -52.5zM1491 817q107 0 199 -60.5t144 -158t52 -205.5q0 -165 -115 -289t-280 -124q-109 0 -201.5 58.5t-144 153t-51.5 201.5q0 108 52.5 205.5t145 158t199.5 60.5zM1489 176q60 0 83 51.5t23 163.5q0 119 -24 175.5t-82 56.5
t-81.5 -57t-23.5 -175q0 -111 23 -163t82 -52z" />
    <glyph glyph-name="ampersand" unicode="&#x26;" horiz-adv-x="1748" 
d="M811 1503q140 0 253 -41t178 -116t65 -170q0 -107 -81.5 -200t-226.5 -190l148 -174l33 115.5t41 153.5h413q-39 -84 -153 -254.5t-150 -239.5l332 -387h-455l-110 127q-211 -137 -490 -137q-257 0 -381.5 103t-124.5 278q0 78 24 141.5t76.5 118.5t121 101.5
t172.5 101.5q-13 15 -45 51t-43.5 49.5t-32.5 43t-29 50t-15 50t-7 61.5q0 158 136 261t351 103zM831 1274q-52 -3 -84 -32.5t-32 -74.5q0 -58 78 -141l47 -49q125 87 125 178q0 58 -38.5 90t-95.5 29zM686 612q-69 -40 -110 -94.5t-25 -118.5q14 -55 62.5 -83.5t97.5 -28.5
q44 0 101.5 17.5t96.5 51.5z" />
    <glyph glyph-name="quotesingle" unicode="'" horiz-adv-x="550" 
d="M463 1481l-94 -660h-187l-94 660h375z" />
    <glyph glyph-name="parenleft" unicode="(" horiz-adv-x="739" 
d="M674 1481q-232 -435 -232 -914q0 -227 57.5 -440.5t174.5 -456.5h-283q-147 244 -220 449t-73 450q0 248 77 480t214 432h285z" />
    <glyph glyph-name="parenright" unicode=")" horiz-adv-x="739" 
d="M6 1481h285q137 -200 214 -432t77 -480q0 -245 -73 -450t-220 -449h-283q117 243 174.5 456.5t57.5 440.5q0 479 -232 914z" />
    <glyph glyph-name="asterisk" unicode="*" horiz-adv-x="1116" 
d="M727 561l-178 299l-178 -303l-203 143l227 265l-329 90l81 223l310 -141l-27 344h246l-35 -346l315 141l72 -225l-319 -86l223 -263z" />
    <glyph glyph-name="plus" unicode="+" horiz-adv-x="1261" 
d="M1145 887v-283h-379v-379h-283v379h-381v283h381v381h283v-381h379z" />
    <glyph glyph-name="comma" unicode="," horiz-adv-x="632" 
d="M102 -313l123 301l-119 14v346h363v-307l-236 -354h-131z" />
    <glyph glyph-name="hyphen" unicode="-" horiz-adv-x="835" 
d="M705 666v-281h-594v281h594z" />
    <glyph glyph-name="period" unicode="." horiz-adv-x="632" 
d="M512 401v-401h-420v401h420z" />
    <glyph glyph-name="slash" unicode="/" horiz-adv-x="835" 
d="M16 0l523 1481h264l-522 -1481h-265z" />
    <glyph glyph-name="zero" unicode="0" horiz-adv-x="1411" 
d="M707 1503q289 0 462.5 -204.5t173.5 -561.5q0 -356 -171.5 -554.5t-464.5 -198.5q-295 0 -468 199t-173 554q0 357 175 561.5t466 204.5zM705 295q110 0 155 98.5t45 341.5q0 250 -46 355.5t-154 105.5q-107 0 -153 -106t-46 -355q0 -241 45 -340.5t154 -99.5z" />
    <glyph glyph-name="one" unicode="1" horiz-adv-x="878" 
d="M293 0v1047l-246 -56v264l451 226h194v-1481h-399z" />
    <glyph glyph-name="two" unicode="2" horiz-adv-x="1337" 
d="M72 0v279l454 376q205 171 259.5 235t54.5 136q0 68 -47 111t-127 43q-89 0 -154.5 -53t-87.5 -169h-375q0 117 38.5 214.5t114 171.5t196.5 115.5t276 41.5q271 0 427 -129t156 -342q0 -111 -52 -193t-191 -210l-326 -299h584v-328h-1200z" />
    <glyph glyph-name="three" unicode="3" horiz-adv-x="1437" 
d="M47 1004q0 112 38.5 199.5t101.5 143t153 91t185 49.5t204 14q167 0 304.5 -48.5t219.5 -139.5t82 -207q0 -219 -264 -311q44 -12 85.5 -31t83 -50.5t72.5 -69.5t50.5 -91t19.5 -113q0 -89 -40 -166t-106.5 -130t-151.5 -90.5t-175 -55.5t-178 -18q-126 0 -225.5 14
t-187.5 49t-146 91.5t-91.5 145.5t-33.5 207h377q10 -56 39 -96t69.5 -61t80.5 -30t83 -9q106 0 174 43.5t68 105.5q0 63 -56.5 110t-148.5 48l-201 4v307l177 11q93 4 146.5 46.5t53.5 104.5q0 57 -60.5 94t-133.5 37q-44 0 -77.5 -3t-74 -14.5t-67.5 -32t-48 -58.5
t-26 -90h-375z" />
    <glyph glyph-name="four" unicode="4" horiz-adv-x="1323" 
d="M688 1481h395v-863h213v-335h-213v-283h-401l2 283h-647v321zM451 618h237v320z" />
    <glyph glyph-name="five" unicode="5" horiz-adv-x="1404" 
d="M223 1481h1012l-16 -320h-691l-22 -246q105 29 163 40.5t128 11.5q245 0 392.5 -129t147.5 -355q0 -236 -164 -369.5t-448 -133.5q-226 0 -406 88t-264 229l297 201q33 -42 53 -66t53 -55t62 -47t70.5 -27.5t87.5 -11.5q106 0 166.5 50.5t60.5 127.5q0 76 -56.5 129
t-164.5 53q-46 0 -89 -11.5t-112 -41.5q-22 -9 -29.5 -8.5t-29.5 10.5l-270 145z" />
    <glyph glyph-name="six" unicode="6" horiz-adv-x="1388" 
d="M723 1501q155 0 284 -54t209 -161.5t80 -249.5h-360q-24 82 -74 120t-129 38q-122 0 -185.5 -102t-39.5 -236q111 68 297 68q231 0 373.5 -122.5t142.5 -318.5q0 -141 -78 -254t-216.5 -177t-311.5 -64q-202 0 -350 90t-225 252t-77 377q0 371 178.5 582.5t481.5 211.5z
M700 637q-65 0 -130.5 -39.5t-65.5 -69.5q0 -125 52 -188.5t142 -63.5q81 0 143 54t62 135q0 60 -32 100.5t-76 56t-95 15.5z" />
    <glyph glyph-name="seven" unicode="7" horiz-adv-x="1239" 
d="M47 1481h1165v-408q-80 -89 -161.5 -214.5t-152 -269.5t-113.5 -301t-40 -288h-428q0 69 15 159t54 212.5t96.5 248t152.5 269.5t213 272h-801v320z" />
    <glyph glyph-name="eight" unicode="8" horiz-adv-x="1351" 
d="M668 1501q248 0 410.5 -120t162.5 -296q0 -49 -18 -93t-43.5 -72.5t-59 -52t-58 -35t-46.5 -19.5q108 -55 155 -91q136 -108 136 -284q0 -145 -82 -249t-228 -156.5t-342 -52.5q-180 0 -316 43t-214 130.5t-78 208.5q0 71 24 128t67 94.5t84 60t93 41.5q-1 1 -28 17.5
t-58.5 43t-65 64.5t-55.5 95t-22 122q0 96 39.5 181.5t112 150.5t184 103t246.5 38zM676 1212q-73 0 -120.5 -34.5t-47.5 -92.5q0 -79 96 -114l127 -45q54 -18 101 34t47 111q0 58 -54 99.5t-149 41.5zM684 270q90 0 138 34t48 93q0 43 -27.5 76t-101.5 59l-141 52
q-59 21 -116.5 -26.5t-57.5 -121.5q0 -81 60.5 -123.5t197.5 -42.5z" />
    <glyph glyph-name="nine" unicode="9" horiz-adv-x="1388" 
d="M662 -16q-115 0 -220 33.5t-184.5 93t-127 147.5t-48.5 191h375q12 -73 60.5 -115.5t125.5 -42.5q66 0 118.5 18t93.5 57t59 110t8 169q-101 -104 -314 -104q-235 0 -388.5 127t-153.5 333q0 142 78 255.5t216.5 177t311.5 63.5q304 0 477.5 -195.5t173.5 -523.5
q0 -405 -174 -599.5t-487 -194.5zM686 848q65 0 131 39t66 69q0 126 -52.5 190t-142.5 64q-79 0 -133.5 -53.5t-54.5 -136.5q0 -82 55 -127t131 -45z" />
    <glyph glyph-name="colon" unicode=":" horiz-adv-x="632" 
d="M512 1049v-394h-420v394h420zM512 399v-393h-420v393h420z" />
    <glyph glyph-name="semicolon" unicode=";" horiz-adv-x="632" 
d="M92 641v401h420v-401h-420zM86 -338l150 338h-144v395h420v-350l-268 -383h-158z" />
    <glyph glyph-name="less" unicode="&#x3c;" horiz-adv-x="1259" 
d="M1108 479v-332l-1016 392v317l1016 391v-327l-594 -226z" />
    <glyph glyph-name="equal" unicode="=" horiz-adv-x="1261" 
d="M1145 1079v-282h-1043v282h1043zM1145 598v-283h-1043v283h1043z" />
    <glyph glyph-name="greater" unicode="&#x3e;" horiz-adv-x="1259" 
d="M131 479l596 215l-596 226v327l1018 -391v-317l-1018 -392v332z" />
    <glyph glyph-name="question" unicode="?" horiz-adv-x="1138" 
d="M2 1128q66 183 206 278t347 95q225 0 370.5 -101.5t145.5 -240.5q0 -65 -21 -120t-55 -94.5t-74.5 -75t-81.5 -69.5t-75 -70t-55 -85.5t-21 -107.5h-311q0 103 31.5 187.5t76.5 139t89.5 99t76 88.5t31.5 86q0 46 -38.5 75t-92.5 29q-68 0 -126 -48t-91 -136zM741 393
v-393h-419v393h419z" />
    <glyph glyph-name="at" unicode="@" horiz-adv-x="1730" 
d="M1389 -70q-75 -65 -210.5 -110t-301.5 -45q-182 0 -332 58.5t-249 160.5t-153.5 237.5t-54.5 290.5q0 161 58.5 306t163.5 254t264 173t348 64q114 0 218.5 -23t199 -73.5t163.5 -124t109.5 -182t40.5 -240.5q0 -228 -110.5 -371t-289.5 -143q-128 0 -202 86
q-9 10 -13.5 9.5t-13.5 -11.5q-46 -51 -113.5 -82t-144.5 -31q-140 0 -229 97.5t-88 256.5q0 121 49 225t145.5 170t220.5 66q53 0 94.5 -13.5t62 -28t50.5 -42.5q6 -6 12 -4t7 12l4 25h213l-72 -428q-18 -100 47 -100q60 0 107 75t47 220q0 126 -41.5 217.5t-115.5 141.5
t-162 72.5t-195 22.5q-160 0 -280.5 -47t-190.5 -130t-104 -186.5t-34 -226.5q0 -279 161 -424t437 -145q67 0 120.5 8t98.5 26.5t75.5 35.5t74.5 47zM711 516q0 -66 32.5 -113t94.5 -47q74 0 125 64.5t51 144.5q0 65 -34 113.5t-95 48.5q-69 0 -121.5 -61.5t-52.5 -149.5z
" />
    <glyph glyph-name="A" unicode="A" horiz-adv-x="1499" 
d="M23 0l524 1481h407l525 -1481h-394l-98 287h-467l-100 -287h-397zM604 627h293l-145 473z" />
    <glyph glyph-name="B" unicode="B" horiz-adv-x="1443" 
d="M141 0v1481h592q305 0 449.5 -99t144.5 -292q0 -107 -54 -185t-186 -143q74 -22 128 -57.5t81.5 -70t43 -80.5t19 -77.5t3.5 -73.5q0 -210 -139 -306.5t-457 -96.5h-625zM541 903h250q70 0 111.5 38t41.5 97q0 65 -48 104.5t-120 39.5h-235v-279zM541 299h239
q83 0 129.5 45.5t46.5 108.5q0 62 -45.5 102.5t-119.5 40.5h-250v-297z" />
    <glyph glyph-name="C" unicode="C" horiz-adv-x="1525" 
d="M801 1501q263 0 440.5 -151.5t202.5 -391.5h-416q-18 105 -79.5 164.5t-162.5 59.5q-122 0 -190 -98.5t-68 -329.5q0 -236 69 -345.5t189 -109.5q98 0 161 72t81 182h416q-13 -100 -37 -178.5t-71.5 -155t-115.5 -127t-174.5 -81.5t-244.5 -31q-210 0 -372.5 101
t-249.5 278t-87 401q0 338 192.5 539.5t516.5 201.5z" />
    <glyph glyph-name="D" unicode="D" horiz-adv-x="1521" 
d="M141 1481q469 0 533 -2q197 -7 345 -63t239.5 -154t136.5 -227.5t45 -289.5q0 -164 -47 -299t-139.5 -235t-241 -155.5t-340.5 -55.5h-531v1481zM541 1167v-854h143q48 0 94 14.5t91 48t79 82.5t55 125t21 169q0 200 -92 307.5t-248 107.5h-143z" />
    <glyph glyph-name="E" unicode="E" horiz-adv-x="1347" 
d="M141 0v1481h1094l-2 -330h-690v-246h577v-321h-579v-252h696v-332h-1096z" />
    <glyph glyph-name="F" unicode="F" horiz-adv-x="1288" 
d="M141 1481h1086l-2 -326h-684v-266h571v-318h-571v-571h-400v1481z" />
    <glyph glyph-name="G" unicode="G" horiz-adv-x="1607" 
d="M793 -20q-208 0 -368 95.5t-246.5 267t-86.5 392.5q0 170 53.5 313.5t149 242.5t230 154.5t292.5 55.5q144 0 267 -46t204.5 -122t127.5 -173.5t48 -201.5h-415q-22 97 -82.5 155t-159.5 58q-58 0 -106.5 -22t-88.5 -69t-63 -132t-23 -200q0 -104 19 -182.5t48.5 -123
t71 -72t78.5 -36t80 -8.5q80 0 139.5 42t75.5 97l19 53h-258v268l678 -4v-782h-263v164q-26 -27 -41 -41t-46 -40t-60.5 -40.5t-71 -31t-92.5 -24t-110 -7.5z" />
    <glyph glyph-name="H" unicode="H" horiz-adv-x="1529" 
d="M989 594h-448v-594h-400v1481h400v-561h448v561h400v-1481h-400v594z" />
    <glyph glyph-name="I" unicode="I" horiz-adv-x="681" 
d="M141 1481h400v-1481h-400v1481z" />
    <glyph glyph-name="J" unicode="J" horiz-adv-x="870" 
d="M758 469q0 -103 -11.5 -177t-40 -136t-78 -99t-126 -57t-183.5 -20q-166 0 -268 20v358q92 -10 131 -10q102 0 139 51t37 172v910h400v-1012z" />
    <glyph glyph-name="K" unicode="K" horiz-adv-x="1540" 
d="M1497 0h-428l-330 625l-184 -238v-387h-414v1481h414v-598l428 598h449l-408 -566z" />
    <glyph glyph-name="L" unicode="L" horiz-adv-x="1183" 
d="M141 1481h400v-1153h592v-328h-992v1481z" />
    <glyph glyph-name="M" unicode="M" horiz-adv-x="1945" 
d="M141 0v1481h592l240 -903l241 903h590v-1481h-399v1073l-289 -1073h-287l-288 1073v-1073h-400z" />
    <glyph glyph-name="N" unicode="N" horiz-adv-x="1660" 
d="M1120 1481h400v-1481h-361l-618 883v-883h-400v1481h402l577 -826v826z" />
    <glyph glyph-name="O" unicode="O" horiz-adv-x="1617" 
d="M811 -20q-330 0 -524.5 205.5t-194.5 551.5q0 229 89.5 402.5t252.5 267.5t377 94q323 0 519 -208.5t196 -555.5q0 -228 -87.5 -399.5t-249.5 -264.5t-378 -93zM811 299q283 0 283 432q0 121 -21 209.5t-59.5 140.5t-88.5 76.5t-114 24.5q-132 0 -208.5 -108t-76.5 -343
q0 -227 76.5 -329.5t208.5 -102.5z" />
    <glyph glyph-name="P" unicode="P" horiz-adv-x="1370" 
d="M141 0v1481h586q166 0 296.5 -57.5t208 -172.5t77.5 -272q0 -219 -142.5 -344t-388.5 -125h-237v-510h-400zM537 807h229q73 0 124.5 59t51.5 133q0 75 -54.5 131t-121.5 56h-229v-379z" />
    <glyph glyph-name="Q" unicode="Q" horiz-adv-x="1609" 
d="M61 737q0 229 89.5 402.5t252.5 267.5t377 94q324 0 520.5 -208.5t196.5 -555.5q0 -348 -209 -573q12 -43 73.5 -76t135.5 -33v-311q-100 0 -164 7.5t-133.5 32.5t-130 74.5t-125.5 131.5q-90 -10 -164 -10q-330 0 -524.5 205.5t-194.5 551.5zM498 733q0 -232 71.5 -333
t210.5 -101t211 101t72 333q0 237 -73.5 343t-209.5 106t-209 -106t-73 -343z" />
    <glyph glyph-name="R" unicode="R" horiz-adv-x="1468" 
d="M1372 0h-407l-215 510h-209v-510h-400v1481h672q140 0 245 -36.5t167.5 -102t92.5 -150t30 -188.5q0 -160 -61.5 -261t-174.5 -170zM768 807q74 0 126 59t52 133q0 75 -54.5 131t-123.5 56h-227v-379h227z" />
    <glyph glyph-name="S" unicode="S" horiz-adv-x="1482" 
d="M752 -20q-96 0 -187 17t-175.5 54t-149.5 91t-107.5 133.5t-50.5 175.5h414q17 -78 83.5 -122t170.5 -44q106 0 174.5 31.5t68.5 103.5q0 22 -9 39.5t-28.5 30.5t-38.5 22t-53 16.5t-56.5 12t-62.5 10.5l-231 39q-178 29 -282 140.5t-107 295.5q-2 145 82.5 254
t224.5 164t313 55q132 0 249.5 -38.5t200 -103.5t134.5 -149.5t62 -175.5h-404q-9 84 -67.5 122t-165.5 38t-155 -35t-48 -82q0 -53 34.5 -82.5t127.5 -46.5l231 -39q89 -15 160.5 -43t118.5 -60t81.5 -74t52.5 -79.5t28.5 -83t13 -77.5t2.5 -70q0 -124 -84.5 -225
t-233 -158t-331.5 -57z" />
    <glyph glyph-name="T" unicode="T" horiz-adv-x="1308" 
d="M33 1130v351h1243v-351h-424v-1130h-399v1130h-420z" />
    <glyph glyph-name="U" unicode="U" horiz-adv-x="1531" 
d="M1419 612q0 -146 -33.5 -258.5t-106.5 -198t-198.5 -130.5t-300.5 -45t-300.5 45t-198.5 130.5t-106.5 198t-33.5 258.5v869h404v-885q0 -144 66 -213.5t169 -69.5q102 0 169 69.5t67 213.5v885h403v-869z" />
    <glyph glyph-name="V" unicode="V" horiz-adv-x="1482" 
d="M1460 1481l-499 -1481h-439l-499 1481h374l344 -1014l342 1014h377z" />
    <glyph glyph-name="W" unicode="W" horiz-adv-x="2015" 
d="M1982 1481l-442 -1481h-297l-235 805l-236 -805h-293l-446 1481h385l229 -795l221 795h279l229 -795l221 795h385z" />
    <glyph glyph-name="X" unicode="X" horiz-adv-x="1525" 
d="M1493 0h-498l-272 465l-266 -465h-424l483 748l-471 733h494l229 -402l227 402h418l-442 -676z" />
    <glyph glyph-name="Y" unicode="Y" horiz-adv-x="1470" 
d="M1458 1481l-526 -865v-616h-400v616l-522 865h430l293 -527l291 527h434z" />
    <glyph glyph-name="Z" unicode="Z" horiz-adv-x="1445" 
d="M92 0v182l699 971h-633v328h1206v-174l-713 -975h701v-332h-1260z" />
    <glyph glyph-name="bracketleft" unicode="[" horiz-adv-x="747" 
d="M121 1481h549v-213h-232v-1385h232v-213h-549v1811z" />
    <glyph glyph-name="backslash" unicode="\" horiz-adv-x="835" 
d="M532 0l-522 1481h264l523 -1481h-265z" />
    <glyph glyph-name="bracketright" unicode="]" horiz-adv-x="747" 
d="M567 1481v-1811h-549v213h232v1385h-232v213h549z" />
    <glyph glyph-name="asciicircum" unicode="^" horiz-adv-x="1013" 
d="M682 240l-188 454l-189 -454h-252l332 766q20 45 64.5 63t89 1.5t65.5 -62.5l328 -768h-250z" />
    <glyph glyph-name="underscore" unicode="_" horiz-adv-x="1198" 
d="M1071 -41v-278h-962v278h962z" />
    <glyph glyph-name="grave" unicode="`" horiz-adv-x="702" 
d="M115 1505l534 -219l-53 -158l-567 136z" />
    <glyph glyph-name="a" unicode="a" 
d="M422 -20q-158 0 -262.5 89.5t-104.5 247.5q0 175 140 269t423 94h82v45q0 51 -28 74t-88 22q-124 -5 -164 -92h-324q4 91 45 159.5t111 109.5t157.5 61t192.5 20q135 0 230 -23.5t148.5 -68.5t77 -102.5t23.5 -134.5v-750h-329l-35 168q-46 -104 -115 -146t-180 -42z
M561 231q58 0 97.5 37.5t41.5 89.5v134h-63q-27 0 -59.5 -6.5t-67 -21t-57.5 -42t-23 -64.5q0 -58 38.5 -92.5t92.5 -34.5z" />
    <glyph glyph-name="b" unicode="b" horiz-adv-x="1255" 
d="M750 -20q-105 0 -195 42.5t-131 124.5l-41 -147h-281v1522h400v-623q51 91 129 135.5t162 44.5q194 0 302.5 -145t108.5 -397q0 -257 -118.5 -407t-335.5 -150zM643 258q158 0 158 283q0 147 -40.5 202.5t-111.5 55.5q-147 0 -147 -258q0 -283 141 -283z" />
    <glyph glyph-name="c" unicode="c" horiz-adv-x="1105" 
d="M586 1079q109 0 197.5 -37t145.5 -100t88.5 -143.5t33.5 -171.5h-324q-4 26 -11.5 50t-22.5 50t-42 41.5t-63 15.5q-79 0 -124.5 -65.5t-45.5 -190.5q0 -128 49.5 -201t128.5 -73q35 0 62 17.5t41.5 45t21.5 50t10 43.5h313q0 -85 -31.5 -162.5t-88.5 -137t-145 -95
t-193 -35.5q-230 0 -382.5 152t-152.5 392q0 244 151.5 399.5t383.5 155.5z" />
    <glyph glyph-name="d" unicode="d" horiz-adv-x="1249" 
d="M506 -20q-217 0 -336 150t-119 407q0 252 109 397t303 145q90 0 168.5 -33t124.5 -108v584h399v-1522h-283l-47 217q-76 -237 -319 -237zM602 258q69 0 111.5 58.5t42.5 172.5v93q0 217 -158 217q-34 0 -60.5 -11t-50.5 -37.5t-37.5 -79.5t-13.5 -130q0 -150 45 -216.5
t121 -66.5z" />
    <glyph glyph-name="e" unicode="e" horiz-adv-x="1169" 
d="M442 438q-1 -90 42 -135t112 -45q61 0 102 22t64 80h352q-24 -170 -173.5 -275t-334.5 -105q-248 0 -401.5 147.5t-153.5 388.5q0 114 37 216t104.5 179t170.5 122.5t227 45.5q168 0 287.5 -73t176 -195t56.5 -281v-92h-668zM440 662h303q0 63 -40.5 106t-112.5 43
q-61 0 -105.5 -44.5t-44.5 -104.5z" />
    <glyph glyph-name="f" unicode="f" horiz-adv-x="800" 
d="M786 1059v-271h-192v-788h-399v788h-170v271h170v141q0 130 85.5 205.5t231.5 75.5h283l2 -258h-123q-50 0 -69 -22.5t-19 -80.5v-61h200z" />
    <glyph glyph-name="g" unicode="g" horiz-adv-x="1292" 
d="M629 -350q-301 0 -461 68.5t-160 175.5q0 20 5.5 38t14.5 32t22.5 26.5t27 22t30 17.5t30 13t29 10t24.5 7t19 4l9 2l-15 7.5t-21.5 11t-24 14t-26 18.5t-23.5 23.5t-20.5 29t-13 34t-5.5 40.5q0 67 62 118.5t181 67.5q-110 48 -168.5 136t-58.5 179q0 103 75 179.5
t196 113.5t268 37q103 0 171.5 -19.5t139.5 -56.5q247 96 348 138l-2 -283l-180 -25q12 -46 12 -81q0 -69 -34 -133.5t-96.5 -116.5t-162.5 -83.5t-221 -31.5q-88 0 -141 6q-29 -6 -29 -18q0 -18 29.5 -23.5t107.5 -9.5q22 -1 33 -2q164 -9 211 -12q210 -14 316 -101
t106 -217q0 -160 -156.5 -258t-447.5 -98zM612 592q56 0 91.5 39t35.5 100q0 62 -35.5 106t-91.5 44t-91.5 -44t-35.5 -106q0 -61 35.5 -100t91.5 -39zM690 -141q97 0 131.5 16t34.5 49q0 34 -34.5 54.5t-96.5 25.5l-193 12q-75 4 -106 -19t-31 -56q0 -49 67 -65.5
t228 -16.5z" />
    <glyph glyph-name="h" unicode="h" horiz-adv-x="1245" 
d="M102 0v1522h400v-594q23 29 42 47t52 40t79 33t105 11q154 0 262.5 -98t108.5 -252v-709h-399v662q0 42 -39 69t-86 27t-86 -29.5t-39 -71.5v-657h-400z" />
    <glyph glyph-name="i" unicode="i" horiz-adv-x="595" 
d="M502 1522v-336h-400v336h400zM502 1059v-1059h-400v1059h400z" />
    <glyph glyph-name="j" unicode="j" horiz-adv-x="647" 
d="M537 1522v-336h-400v336h400zM537 57q0 -397 -418 -397q-47 0 -81.5 9t-45.5 17l-10 9l-2 266l61 10q55 11 75.5 31.5t20.5 54.5v1002h400v-1002z" />
    <glyph glyph-name="k" unicode="k" horiz-adv-x="1226" 
d="M1210 0h-387l-243 389l-78 -90v-299h-400v1522h400v-842l313 379h393l-387 -438z" />
    <glyph glyph-name="l" unicode="l" horiz-adv-x="696" 
d="M506 -23q-81 0 -145 11.5t-106 28.5t-72 46t-45.5 55t-24 65.5t-10 67t-1.5 68.5v1203h392v-1149q0 -22 4 -38.5t15 -33.5t36 -28.5t63 -16.5l43 -4v-242q-86 -33 -149 -33z" />
    <glyph glyph-name="m" unicode="m" horiz-adv-x="1894" 
d="M102 0v1059h394v-127q122 147 344 147q86 0 165 -35t128 -112q55 67 144 107t177 40q84 0 162 -38.5t131 -116.5t53 -179v-745h-399v698q0 44 -38 71.5t-85 27.5q-80 0 -104.5 -39t-24.5 -123v-635h-397v698q0 43 -38.5 71t-86.5 28t-86.5 -28t-38.5 -71v-698h-400z" />
    <glyph glyph-name="n" unicode="n" horiz-adv-x="1247" 
d="M102 0v1059h396v-127q32 33 40 41t39 32.5t53.5 32.5t63 16.5t88.5 8.5q144 0 257.5 -101.5t113.5 -246.5v-715h-399v662q0 42 -38 69t-85 27q-48 0 -88.5 -27t-40.5 -69v-662h-400z" />
    <glyph glyph-name="o" unicode="o" horiz-adv-x="1177" 
d="M588 -20q-244 0 -390.5 151t-146.5 391q0 249 150.5 403t388.5 154q245 0 390.5 -155.5t145.5 -401.5q0 -239 -147 -390.5t-391 -151.5zM590 268q45 0 76.5 25t46 68t20.5 85t6 91q0 258 -149 258q-152 0 -152 -258q0 -38 3.5 -72t13.5 -71.5t26 -64t44 -44t65 -17.5z
" />
    <glyph glyph-name="p" unicode="p" horiz-adv-x="1255" 
d="M102 -330v1389h402v-123q105 143 291 143q85 0 157.5 -33.5t129.5 -98.5t89.5 -172t32.5 -243q0 -145 -38.5 -255t-104 -173t-143.5 -93.5t-166 -30.5q-84 0 -144 37.5t-106 142.5v-490h-400zM668 258q71 0 119.5 69.5t48.5 204.5q0 124 -49 195.5t-119 71.5
q-64 0 -115 -58.5t-51 -128.5v-159q0 -82 50 -138.5t116 -56.5z" />
    <glyph glyph-name="q" unicode="q" horiz-adv-x="1249" 
d="M1155 -330h-399v428q-126 -118 -283 -118q-87 0 -160.5 30.5t-133.5 93.5t-94 172.5t-34 255.5q0 136 33 243t90.5 172t130.5 98.5t158 33.5q77 0 154 -26t137 -76v82h401v-1389zM612 238q68 0 106 80.5t38 222.5q0 278 -144 278q-71 0 -114 -69.5t-43 -208.5
q0 -140 44 -221.5t113 -81.5z" />
    <glyph glyph-name="r" unicode="r" horiz-adv-x="862" 
d="M102 0v1059h385v-293q40 140 129 226.5t228 86.5l2 -374q-74 5 -128.5 4t-92.5 -16.5t-62 -32.5t-37.5 -44.5t-18.5 -52t-5 -55.5v-508h-400z" />
    <glyph glyph-name="s" unicode="s" horiz-adv-x="1107" 
d="M567 -20q-69 0 -133.5 11t-127.5 37t-112.5 65.5t-85.5 102t-49 140.5h328q11 -30 30.5 -49.5t46.5 -28t51 -11.5t58 -3q71 0 106.5 16.5t35.5 44.5q0 31 -31 46.5t-96 27.5l-158 24q-337 61 -340 324q-2 153 127 252.5t354 99.5q218 0 347.5 -95t123.5 -255h-323
q-21 98 -158 98q-127 0 -127 -67q0 -28 37 -45t123 -31l135 -25q78 -19 137.5 -51.5t93 -67.5t54.5 -76.5t28 -73.5t7 -62q0 -110 -65 -190t-172.5 -119t-244.5 -39z" />
    <glyph glyph-name="t" unicode="t" horiz-adv-x="905" 
d="M829 788h-231l2 -479q0 -57 64 -57h165v-236q-66 -32 -211 -32q-121 0 -205.5 23.5t-129 67t-63.5 96t-19 120.5v497h-172v271h186l59 330h324v-328h231v-273z" />
    <glyph glyph-name="u" unicode="u" horiz-adv-x="1247" 
d="M494 -20q-66 0 -134 22.5t-126 63.5t-95 106t-37 141v746h400v-690q0 -48 32.5 -78.5t90.5 -30.5t91.5 31t33.5 78v690h403l-8 -1059h-295l-47 217q-44 -237 -309 -237z" />
    <glyph glyph-name="v" unicode="v" horiz-adv-x="1091" 
d="M1085 1059l-411 -1059h-256l-412 1059h354l187 -541l178 541h360z" />
    <glyph glyph-name="w" unicode="w" horiz-adv-x="1626" 
d="M1620 1059l-373 -1059h-284l-158 514l-168 -514h-272l-359 1059h346l166 -514l156 514h276l152 -516l164 516h354z" />
    <glyph glyph-name="x" unicode="x" horiz-adv-x="1243" 
d="M1235 0h-410l-202 281l-205 -281h-410l406 553l-369 506h410l170 -230l168 230h409l-373 -506z" />
    <glyph glyph-name="y" unicode="y" horiz-adv-x="1202" 
d="M322 -338q-73 0 -131 11t-79 23l-22 11v252l103 -6q194 -15 220 85q1 2 1 3l4 20l-412 998h391l201 -576l209 576h389l-414 -998q-40 -98 -83 -169.5t-85 -115.5t-91 -69.5t-96 -35t-105 -9.5z" />
    <glyph glyph-name="z" unicode="z" horiz-adv-x="1124" 
d="M55 0v188l494 627h-449v244h955v-182l-500 -629h502v-248h-1002z" />
    <glyph glyph-name="braceleft" unicode="{" horiz-adv-x="886" 
d="M260 1210q0 67 33.5 120.5t87 85.5t114.5 48.5t123 16.5h191v-213h-104q-37 0 -62 -6.5t-37.5 -15t-19 -25.5t-7.5 -28t-1 -32v-379q-2 -48 -24 -84.5t-57.5 -57t-71 -31.5t-75.5 -15q-8 -1 -11 -3.5t-0.5 -5t11.5 -3.5q221 -19 228 -209v-383q0 -58 27.5 -82.5
t99.5 -24.5h104v-213h-184q-64 0 -126.5 16.5t-117 48.5t-88 86t-33.5 122v393q0 160 -231 160v184q125 0 178 39t53 129v362z" />
    <glyph glyph-name="bar" unicode="|" horiz-adv-x="565" 
d="M424 -330h-283v2022h283v-2022z" />
    <glyph glyph-name="braceright" unicode="}" horiz-adv-x="886" 
d="M571 1210v-362q0 -90 53.5 -129t178.5 -39v-184q-232 0 -232 -160v-393q0 -68 -33.5 -122t-87.5 -86t-116.5 -48.5t-126.5 -16.5h-184v213h104q72 0 99.5 24.5t27.5 82.5v383q7 190 227 209q9 1 11.5 3.5t-0.5 5t-11 3.5q-40 4 -75.5 15t-70.5 31.5t-57 57t-24 84.5v379
q0 21 -1 32t-7.5 28t-19 25.5t-37.5 15t-62 6.5h-104v213h190q62 0 123 -16.5t114.5 -48.5t87 -85.5t33.5 -120.5z" />
    <glyph glyph-name="asciitilde" unicode="~" horiz-adv-x="1335" 
d="M1202 780q-62 -113 -152.5 -171t-183.5 -58q-56 0 -113 22.5t-96 49t-89 49t-95 22.5q-37 0 -69.5 -12.5t-68 -44t-53 -50t-57.5 -65.5l-112 189q107 114 187.5 168.5t178.5 54.5q59 0 115.5 -22t93 -48.5t83 -48.5t87.5 -22q67 0 127 47.5t102 124.5z" />
    <glyph glyph-name="uni00A0" unicode="&#xa0;" horiz-adv-x="495" 
 />
    <glyph glyph-name="exclamdown" unicode="&#xa1;" horiz-adv-x="628" 
d="M516 666h-420v393h420v-393zM539 -330h-463l112 856h242z" />
    <glyph glyph-name="cent" unicode="&#xa2;" horiz-adv-x="1177" 
d="M635 481q35 0 62 17.5t41.5 45t21.5 50t10 43.5h313q0 -145 -86 -260t-237 -154v-223h-250v217q-187 37 -303.5 182t-116.5 353q0 211 116 359t304 185v185h250v-191q153 -40 239 -160t91 -276h-324q-4 26 -11.5 50t-22.5 50.5t-42 42t-63 15.5q-79 0 -124.5 -65.5
t-45.5 -190.5q0 -128 50 -201.5t128 -73.5z" />
    <glyph glyph-name="sterling" unicode="&#xa3;" horiz-adv-x="1390" 
d="M47 0v326h64q165 0 165 147q0 52 -18 211h-211v207h166l-10 199q-7 99 31.5 179t109.5 129.5t163 76t195 26.5q187 0 324.5 -86.5t208.5 -253.5l-344 -98q-32 75 -58 103t-67 28q-46 0 -72 -32.5t-26 -90.5q0 -46 20 -180h273v-207h-244q3 -126 -21 -199
q-14 -47 -37.5 -77t-80.5 -80h202q90 0 130.5 33.5t72.5 125.5l334 -65q-51 -211 -175.5 -316.5t-328.5 -105.5h-766z" />
    <glyph glyph-name="currency" unicode="&#xa4;" horiz-adv-x="1261" 
d="M627 252q-136 0 -248 65q-20 11 -35 -4l-133 -131l-156 160l148 145q-38 64 -56 123t-18 133q0 135 61 240q10 21 -4 35l-131 131l156 162l149 -150q129 78 256 78q135 0 256 -70q14 -7 23 2l117 119l155 -160l-129 -126q76 -124 76 -259q0 -145 -72 -251q-4 -7 0 -11
l125 -123l-155 -159l-127 129q-127 -78 -258 -78zM621 500q104 0 174.5 72.5t70.5 172.5q0 99 -70.5 172.5t-174.5 73.5q-103 0 -174.5 -74t-71.5 -172q0 -100 71.5 -172.5t174.5 -72.5z" />
    <glyph glyph-name="yen" unicode="&#xa5;" horiz-adv-x="1441" 
d="M1468 1481l-467 -750h250v-203h-299v-137h299v-201h-299v-190h-452v190h-299v201h299v137h-299v203h229l-461 750h516l287 -516l281 516h415z" />
    <glyph glyph-name="brokenbar" unicode="&#xa6;" horiz-adv-x="565" 
d="M424 844h-283v848h283v-848zM424 -330h-283v848h283v-848z" />
    <glyph glyph-name="section" unicode="&#xa7;" horiz-adv-x="1095" 
d="M541 -170q-187 0 -319 70.5t-179 169.5l238 114q25 -29 42.5 -45.5t48 -38t70 -31.5t88.5 -10q67 0 106.5 20t39.5 60q0 32 -27.5 56t-99.5 51l-139 51q-188 70 -268.5 147.5t-80.5 204.5q0 92 42 161.5t120 109.5q-74 50 -107.5 108t-33.5 131q0 149 119 245.5t321 96.5
q165 0 290 -70t171 -169l-238 -113q-29 30 -44.5 44.5t-45 37t-60 32t-65.5 9.5q-46 0 -73 -20t-27 -54q0 -44 76 -68l149 -55q188 -70 268.5 -147.5t80.5 -204.5q0 -173 -152 -270q92 -52 131 -112t39 -146q0 -166 -124 -265.5t-357 -99.5zM600 565q48 -6 72 25.5t16 79.5
q-12 57 -139 104l-74 29q-100 -8 -100 -94q0 -36 27 -57.5t114 -53.5z" />
    <glyph glyph-name="dieresis" unicode="&#xa8;" horiz-adv-x="925" 
d="M383 1481v-285h-340v285h340zM862 1481v-285h-340v285h340z" />
    <glyph glyph-name="copyright" unicode="&#xa9;" horiz-adv-x="1722" 
d="M850 -20q-155 0 -295.5 60t-242.5 161.5t-162 242.5t-60 297q0 154 60 294.5t162 242.5t242.5 162.5t295.5 60.5t296 -60.5t243 -162.5t162.5 -242.5t60.5 -294.5q0 -156 -60.5 -297.5t-162.5 -242.5t-243 -161t-296 -60zM850 182q245 0 392 151.5t147 407.5
q0 254 -147.5 408t-391.5 154q-246 0 -391.5 -153.5t-145.5 -408.5q0 -257 145 -408t392 -151zM856 1165q81 0 149.5 -27.5t113.5 -72t73.5 -95.5t38.5 -104l-268 -14q-15 121 -99 121q-121 0 -121 -228q0 -124 35.5 -177.5t104.5 -53.5q60 0 91.5 31.5t65.5 99.5l189 -37
q-5 -29 -19.5 -63.5t-45 -75t-71 -72.5t-103 -53.5t-134.5 -21.5q-184 0 -303 117t-119 302q0 189 119.5 306.5t302.5 117.5z" />
    <glyph glyph-name="ordfeminine" unicode="&#xaa;" horiz-adv-x="819" 
d="M272 815q-104 0 -160.5 52t-56.5 139q0 102 99.5 167.5t263.5 65.5h49v41q0 41 -23 56.5t-51 15.5q-77 0 -106 -76l-215 41q42 97 113 140.5t214 43.5q169 -1 236 -52t67 -153v-270q0 -114 9 -149l14 -50h-244l-14 58q-62 -39 -101.5 -54.5t-93.5 -15.5zM373 963
q46 0 73 24q21 17 21 39v90h-41q-56 0 -92.5 -26t-36.5 -68q0 -27 20 -43t56 -16z" />
    <glyph glyph-name="guillemotleft" unicode="&#xab;" horiz-adv-x="1099" 
d="M412 514l131 -393h-205l-219 393l217 410h207zM827 514l131 -393h-204l-222 393l220 410h206z" />
    <glyph glyph-name="logicalnot" unicode="&#xac;" horiz-adv-x="1261" 
d="M102 887h1043v-606h-320v323h-723v283z" />
    <glyph glyph-name="uni00AD" unicode="&#xad;" horiz-adv-x="835" 
d="M762 666v-281h-594v281h594z" />
    <glyph glyph-name="registered" unicode="&#xae;" horiz-adv-x="1153" 
d="M567 549q-199 0 -338 138.5t-139 336.5t139 337.5t338 139.5q97 0 184.5 -37.5t151.5 -101.5t101.5 -152.5t37.5 -185.5t-37.5 -185t-101.5 -151.5t-151.5 -101t-184.5 -37.5zM567 690q146 0 233 91t87 243q0 153 -87 244.5t-233 91.5q-148 0 -234.5 -91.5t-86.5 -244.5
t86 -243.5t235 -90.5zM367 786v471h229q91 0 143 -34t52 -97q0 -43 -25.5 -76t-67.5 -51l95 -213h-158l-66 197h-59v-197h-143zM510 1077h84q21 0 34 12t13 31q0 21 -15.5 32t-37.5 11h-78v-86z" />
    <glyph glyph-name="macron" unicode="&#xaf;" horiz-adv-x="925" 
d="M862 1481v-244h-819v244h819z" />
    <glyph glyph-name="degree" unicode="&#xb0;" horiz-adv-x="991" 
d="M848 1348q0 -159 -103.5 -261t-259.5 -102q-157 0 -259.5 102t-102.5 261q0 158 102.5 261t259.5 103q156 0 259.5 -103t103.5 -261zM625 1346q0 65 -39.5 106t-104.5 41q-64 0 -103.5 -41t-37.5 -106q2 -67 40 -108.5t103 -41.5q64 0 103 41.5t39 108.5z" />
    <glyph glyph-name="plusminus" unicode="&#xb1;" horiz-adv-x="1261" 
d="M766 1077h379v-282h-379v-379h-283v379h-381v282h381v381h283v-381zM102 31v280h1043v-280h-1043z" />
    <glyph glyph-name="uni00B2" unicode="&#xb2;" horiz-adv-x="819" 
d="M39 786v177l287 235q127 107 161.5 148.5t34.5 85.5q0 42 -29.5 69t-80.5 27q-125 0 -152 -139h-235q0 153 100.5 247.5t292.5 94.5q170 0 268 -81t98 -216q0 -69 -33 -121.5t-120 -132.5l-205 -187h369v-207h-756z" />
    <glyph glyph-name="uni00B3" unicode="&#xb3;" horiz-adv-x="849" 
d="M43 1417q0 71 24 126t64.5 90t97 57.5t116 31.5t128.5 9q161 0 271 -69t110 -179q0 -139 -166 -197q78 -21 137.5 -77.5t59.5 -145.5q0 -70 -38.5 -127t-99.5 -91t-131.5 -52.5t-140.5 -18.5q-101 0 -175.5 14.5t-134.5 49.5t-91 99t-31 157h238q8 -46 38 -75.5
t63.5 -39.5t70.5 -10q67 0 109 28t42 66q0 40 -35.5 69.5t-93.5 30.5l-125 2v193l111 6q58 3 91.5 30t33.5 66q0 35 -38.5 58.5t-82.5 23.5q-36 0 -62 -3.5t-55 -15.5t-46 -38.5t-21 -67.5h-238z" />
    <glyph glyph-name="acute" unicode="&#xb4;" horiz-adv-x="702" 
d="M571 1505l84 -241l-567 -136l-53 158z" />
    <glyph glyph-name="paragraph" unicode="&#xb6;" horiz-adv-x="1292" 
d="M1198 1264h-131v-1434h-236v1434h-133v-1434h-235v784q-82 10 -153 39.5t-130.5 80t-94 131.5t-34.5 184q0 190 129 311t355 121h663v-217z" />
    <glyph glyph-name="periodcentered" unicode="&#xb7;" horiz-adv-x="632" 
d="M487 924v-357h-370v357h370z" />
    <glyph glyph-name="cedilla" unicode="&#xb8;" horiz-adv-x="636" 
d="M575 -274q0 -77 -78.5 -126t-187.5 -49q-170 0 -272 60l49 121q98 -54 174 -54q42 0 68 14.5t26 39.5q0 39 -41.5 58.5t-140.5 19.5q-17 0 -21 3.5t1 20.5l75 176h162l-43 -116q116 0 172.5 -51t56.5 -117z" />
    <glyph glyph-name="uni00B9" unicode="&#xb9;" horiz-adv-x="649" 
d="M154 778v658l-156 -35v168l285 141h123v-932h-252z" />
    <glyph glyph-name="ordmasculine" unicode="&#xba;" horiz-adv-x="800" 
d="M399 1501q156 0 253.5 -97t97.5 -249q0 -149 -98.5 -244.5t-252.5 -95.5t-251 95.5t-97 244.5q0 153 99 249.5t249 96.5zM399 1346q-50 0 -73 -44.5t-23 -142.5q0 -96 23 -140t73 -44q51 0 75 44t24 140q0 98 -24 142.5t-75 44.5z" />
    <glyph glyph-name="guillemotright" unicode="&#xbb;" horiz-adv-x="1099" 
d="M254 514l-131 410h207l217 -410l-219 -393h-205zM670 514l-133 410h208l218 -410l-220 -393h-206z" />
    <glyph glyph-name="onequarter" unicode="&#xbc;" horiz-adv-x="2072" 
d="M154 565v658l-156 -35v168l285 141h123v-932h-252zM1509 1497l-995 -1505l-217 4l997 1501h215zM1624 932h250v-543h133v-211h-133v-178h-254l2 178h-408v203zM1475 389h149v201z" />
    <glyph glyph-name="onehalf" unicode="&#xbd;" horiz-adv-x="2009" 
d="M154 565v658l-156 -35v168l285 141h123v-932h-252zM1509 1497l-995 -1505l-217 4l997 1501h215zM1229 0v176l287 236q127 107 161.5 148t34.5 85q0 42 -29.5 69t-80.5 27q-125 0 -152 -139h-236q0 153 101 247.5t293 94.5q170 0 268 -81t98 -216q0 -69 -33 -121.5
t-120 -132.5l-205 -186h369v-207h-756z" />
    <glyph glyph-name="threequarters" unicode="&#xbe;" horiz-adv-x="2273" 
d="M43 1202q0 71 24 126t64.5 90t97 57.5t116 31.5t128.5 9q161 0 271 -69t110 -179q0 -139 -166 -197q78 -21 137.5 -77.5t59.5 -145.5q0 -70 -38.5 -127t-99.5 -91t-131.5 -52.5t-140.5 -18.5q-101 0 -175.5 14.5t-134.5 49.5t-91 99t-31 157h238q8 -46 38 -75.5
t63.5 -39.5t70.5 -10q67 0 109 28t42 66q0 40 -35.5 69.5t-93.5 30.5l-125 2v193l111 6q58 3 91.5 30t33.5 66q0 35 -38.5 58.5t-82.5 23.5q-36 0 -62 -3.5t-55 -15.5t-46 -38.5t-21 -67.5h-238zM1710 1497l-995 -1505l-217 4l997 1501h215zM1825 932h250v-543h133v-211
h-133v-178h-254l2 178h-408v203zM1675 389h150v201z" />
    <glyph glyph-name="questiondown" unicode="&#xbf;" horiz-adv-x="1163" 
d="M401 666v393h420v-393h-420zM1141 25q-66 -184 -206.5 -279.5t-346.5 -95.5q-249 0 -382.5 99t-133.5 245q0 66 21 120.5t54.5 92t74.5 69t81.5 59.5t74 56.5t54.5 66.5t21 83h313q0 -72 -22.5 -133.5t-56.5 -102.5t-73.5 -80.5t-73.5 -69t-56.5 -66t-22.5 -73.5
q0 -41 39 -68.5t92 -27.5q68 0 126.5 46.5t90.5 127.5z" />
    <glyph glyph-name="Agrave" unicode="&#xc0;" horiz-adv-x="1499" 
d="M553 1927l534 -219l-53 -158l-567 136zM23 0l524 1481h407l525 -1481h-394l-98 287h-467l-100 -287h-397zM604 627h293l-145 473z" />
    <glyph glyph-name="Aacute" unicode="&#xc1;" horiz-adv-x="1499" 
d="M1010 1927l84 -241l-568 -136l-53 158zM23 0l524 1481h407l525 -1481h-394l-98 287h-467l-100 -287h-397zM604 627h293l-145 473z" />
    <glyph glyph-name="Acircumflex" unicode="&#xc2;" horiz-adv-x="1499" 
d="M905 1610l-127 168l-145 -168h-271l283 313h270l275 -313h-285zM23 0l524 1481h407l525 -1481h-394l-98 287h-467l-100 -287h-397zM604 627h293l-145 473z" />
    <glyph glyph-name="Atilde" unicode="&#xc3;" horiz-adv-x="1499" 
d="M1149 1698q-35 -25 -89 -42.5t-112 -17.5q-60 0 -163 31t-160 31q-41 0 -72.5 -10.5t-69.5 -38.5q-17 -13 -28.5 -10.5t-18.5 24.5l-33 109q-7 13 -4.5 28t21.5 33q41 40 85 61t109 21q68 0 178.5 -34t153.5 -34q76 0 154 56q10 7 20 8.5t18 -5t11 -20.5l27 -131
q9 -33 -27 -59zM23 0l524 1481h407l525 -1481h-394l-98 287h-467l-100 -287h-397zM604 627h293l-145 473z" />
    <glyph glyph-name="Adieresis" unicode="&#xc4;" horiz-adv-x="1499" 
d="M711 1903v-285h-340v285h340zM1190 1903v-285h-340v285h340zM23 0l524 1481h407l525 -1481h-394l-98 287h-467l-100 -287h-397zM604 627h293l-145 473z" />
    <glyph glyph-name="Aring" unicode="&#xc5;" horiz-adv-x="1499" 
d="M1014 1800q0 -98 -68.5 -165.5t-165.5 -67.5q-98 0 -165.5 68.5t-67.5 168.5q0 94 68 160t165 66t165.5 -67.5t68.5 -162.5zM872 1798q0 40 -27 67t-67 27t-69 -27.5t-29 -66.5t29.5 -68.5t68.5 -29.5t66.5 29.5t27.5 68.5zM23 0l524 1481h407l525 -1481h-394l-98 287
h-467l-100 -287h-397zM604 627h293l-145 473z" />
    <glyph glyph-name="AE" unicode="&#xc6;" horiz-adv-x="2293" 
d="M2183 328v-328h-1171v287h-451l-141 -287h-397l768 1481h1374l-2 -326h-697v-250h437v-321h-437v-256h717zM1012 627v604l-305 -604h305z" />
    <glyph glyph-name="Ccedilla" unicode="&#xc7;" horiz-adv-x="1525" 
d="M786 299q98 0 161 72t81 182h416q-13 -94 -34.5 -168.5t-63.5 -148t-101.5 -124.5t-152 -86.5t-211.5 -43.5l-33 -88q116 0 172.5 -51t56.5 -117q0 -77 -78.5 -126t-187.5 -49q-170 0 -272 60l49 121q98 -54 174 -54q42 0 68 14.5t26 39.5q0 39 -41.5 58.5t-140.5 19.5
q-17 0 -21.5 3.5t0.5 20.5l64 150q-284 31 -454.5 245t-170.5 531q0 338 192.5 539.5t516.5 201.5q263 0 440.5 -151.5t202.5 -391.5h-416q-18 105 -79.5 164.5t-162.5 59.5q-122 0 -190 -98.5t-68 -329.5q0 -236 69 -345.5t189 -109.5z" />
    <glyph glyph-name="Egrave" unicode="&#xc8;" horiz-adv-x="1347" 
d="M461 1927l534 -219l-53 -158l-567 136zM141 0v1481h1094l-2 -330h-690v-246h577v-321h-579v-252h696v-332h-1096z" />
    <glyph glyph-name="Eacute" unicode="&#xc9;" horiz-adv-x="1347" 
d="M918 1927l83 -241l-567 -136l-53 158zM141 0v1481h1094l-2 -330h-690v-246h577v-321h-579v-252h696v-332h-1096z" />
    <glyph glyph-name="Ecircumflex" unicode="&#xca;" horiz-adv-x="1347" 
d="M813 1610l-127 168l-145 -168h-271l283 313h270l275 -313h-285zM141 0v1481h1094l-2 -330h-690v-246h577v-321h-579v-252h696v-332h-1096z" />
    <glyph glyph-name="Edieresis" unicode="&#xcb;" horiz-adv-x="1347" 
d="M618 1903v-285h-339v285h339zM1098 1903v-285h-340v285h340zM141 0v1481h1094l-2 -330h-690v-246h577v-321h-579v-252h696v-332h-1096z" />
    <glyph glyph-name="Igrave" unicode="&#xcc;" horiz-adv-x="681" 
d="M115 1927l534 -219l-53 -158l-567 136zM141 1481h400v-1481h-400v1481z" />
    <glyph glyph-name="Iacute" unicode="&#xcd;" horiz-adv-x="681" 
d="M571 1927l84 -241l-567 -136l-53 158zM141 1481h400v-1481h-400v1481z" />
    <glyph glyph-name="Icircumflex" unicode="&#xce;" horiz-adv-x="681" 
d="M467 1610l-127 168l-145 -168h-271l283 313h270l275 -313h-285zM141 1481h400v-1481h-400v1481z" />
    <glyph glyph-name="Idieresis" unicode="&#xcf;" horiz-adv-x="681" 
d="M272 1903v-285h-340v285h340zM752 1903v-285h-340v285h340zM141 1481h400v-1481h-400v1481z" />
    <glyph glyph-name="Eth" unicode="&#xd0;" horiz-adv-x="1607" 
d="M760 1479q197 -7 345 -63t239.5 -154t136.5 -227.5t45 -289.5q0 -164 -47 -299t-139.5 -235t-241 -155.5t-340.5 -55.5h-531v586h-104q-30 0 -41.5 11t-11.5 38v186q0 45 39 45h118v615q469 0 533 -2zM770 313q48 0 94 14.5t91 48t79 82.5t55 125t21 169q0 200 -92 307.5
t-248 107.5h-143v-301h221q17 0 27 -11t10 -28v-186q0 -30 -15.5 -42.5t-50.5 -12.5h-192v-273h143z" />
    <glyph glyph-name="Ntilde" unicode="&#xd1;" horiz-adv-x="1660" 
d="M1198 1698q-35 -25 -89 -42.5t-112 -17.5q-60 0 -163 31t-160 31q-41 0 -72.5 -10.5t-69.5 -38.5q-17 -13 -28.5 -10.5t-18.5 24.5l-32 109q-7 13 -5 28t21 33q41 39 85.5 60.5t109.5 21.5q68 0 178 -34t153 -34q76 0 154 56q10 7 20 8.5t18 -5t11 -20.5l27 -131
q9 -33 -27 -59zM1120 1481h400v-1481h-361l-618 883v-883h-400v1481h402l577 -826v826z" />
    <glyph glyph-name="Ograve" unicode="&#xd2;" horiz-adv-x="1617" 
d="M582 1927l534 -219l-53 -158l-567 136zM811 -20q-330 0 -524.5 205.5t-194.5 551.5q0 229 89.5 402.5t252.5 267.5t377 94q323 0 519 -208.5t196 -555.5q0 -228 -87.5 -399.5t-249.5 -264.5t-378 -93zM811 299q283 0 283 432q0 121 -21 209.5t-59.5 140.5t-88.5 76.5
t-114 24.5q-132 0 -208.5 -108t-76.5 -343q0 -227 76.5 -329.5t208.5 -102.5z" />
    <glyph glyph-name="Oacute" unicode="&#xd3;" horiz-adv-x="1617" 
d="M1038 1927l84 -241l-567 -136l-53 158zM811 -20q-330 0 -524.5 205.5t-194.5 551.5q0 229 89.5 402.5t252.5 267.5t377 94q323 0 519 -208.5t196 -555.5q0 -228 -87.5 -399.5t-249.5 -264.5t-378 -93zM811 299q283 0 283 432q0 121 -21 209.5t-59.5 140.5t-88.5 76.5
t-114 24.5q-132 0 -208.5 -108t-76.5 -343q0 -227 76.5 -329.5t208.5 -102.5z" />
    <glyph glyph-name="Ocircumflex" unicode="&#xd4;" horiz-adv-x="1617" 
d="M934 1610l-127 168l-145 -168h-271l283 313h270l275 -313h-285zM811 -20q-330 0 -524.5 205.5t-194.5 551.5q0 229 89.5 402.5t252.5 267.5t377 94q323 0 519 -208.5t196 -555.5q0 -228 -87.5 -399.5t-249.5 -264.5t-378 -93zM811 299q283 0 283 432q0 121 -21 209.5
t-59.5 140.5t-88.5 76.5t-114 24.5q-132 0 -208.5 -108t-76.5 -343q0 -227 76.5 -329.5t208.5 -102.5z" />
    <glyph glyph-name="Otilde" unicode="&#xd5;" horiz-adv-x="1617" 
d="M1178 1698q-35 -25 -89 -42.5t-112 -17.5q-60 0 -163.5 31t-160.5 31q-41 0 -72 -10.5t-69 -38.5q-17 -13 -28.5 -10.5t-18.5 24.5l-33 109q-7 13 -4.5 28t21.5 33q41 40 85 61t109 21q68 0 178.5 -34t153.5 -34q75 0 153 56q10 7 20.5 8.5t18.5 -5t11 -20.5l26 -131
q9 -33 -26 -59zM811 -20q-330 0 -524.5 205.5t-194.5 551.5q0 229 89.5 402.5t252.5 267.5t377 94q323 0 519 -208.5t196 -555.5q0 -228 -87.5 -399.5t-249.5 -264.5t-378 -93zM811 299q283 0 283 432q0 121 -21 209.5t-59.5 140.5t-88.5 76.5t-114 24.5q-132 0 -208.5 -108
t-76.5 -343q0 -227 76.5 -329.5t208.5 -102.5z" />
    <glyph glyph-name="Odieresis" unicode="&#xd6;" horiz-adv-x="1617" 
d="M739 1903v-285h-340v285h340zM1219 1903v-285h-340v285h340zM811 -20q-330 0 -524.5 205.5t-194.5 551.5q0 229 89.5 402.5t252.5 267.5t377 94q323 0 519 -208.5t196 -555.5q0 -228 -87.5 -399.5t-249.5 -264.5t-378 -93zM811 299q283 0 283 432q0 121 -21 209.5
t-59.5 140.5t-88.5 76.5t-114 24.5q-132 0 -208.5 -108t-76.5 -343q0 -227 76.5 -329.5t208.5 -102.5z" />
    <glyph glyph-name="multiply" unicode="&#xd7;" horiz-adv-x="1261" 
d="M1137 1057l-314 -312l310 -309l-201 -200l-309 309l-312 -309l-196 200l309 309l-311 312l196 200l314 -313l313 313z" />
    <glyph glyph-name="Oslash" unicode="&#xd8;" horiz-adv-x="1634" 
d="M1571 1370q13 -12 13 -26.5t-15 -26.5l-152 -150q107 -179 107 -430q0 -228 -87.5 -399.5t-249.5 -264.5t-378 -93q-271 0 -459 145l-114 -111q-22 -24 -41.5 -24t-44.5 24l-78 80q-22 22 -24 38.5t15 35.5l136 131q-109 185 -109 438q0 347 196.5 555.5t522.5 208.5
q279 0 463 -155l131 127q15 15 32 17.5t29 -9.5zM565 731q0 -49 2 -74l430 420q-56 117 -188 117q-130 0 -187 -107.5t-57 -355.5zM1049 731q0 49 -2 76l-426 -418q56 -98 188 -98q131 0 185.5 100.5t54.5 339.5z" />
    <glyph glyph-name="Ugrave" unicode="&#xd9;" horiz-adv-x="1531" 
d="M516 1927l535 -219l-54 -158l-567 136zM1419 612q0 -146 -33.5 -258.5t-106.5 -198t-198.5 -130.5t-300.5 -45t-300.5 45t-198.5 130.5t-106.5 198t-33.5 258.5v869h404v-885q0 -144 66 -213.5t169 -69.5q102 0 169 69.5t67 213.5v885h403v-869z" />
    <glyph glyph-name="Uacute" unicode="&#xda;" horiz-adv-x="1531" 
d="M973 1927l84 -241l-568 -136l-53 158zM1419 612q0 -146 -33.5 -258.5t-106.5 -198t-198.5 -130.5t-300.5 -45t-300.5 45t-198.5 130.5t-106.5 198t-33.5 258.5v869h404v-885q0 -144 66 -213.5t169 -69.5q102 0 169 69.5t67 213.5v885h403v-869z" />
    <glyph glyph-name="Ucircumflex" unicode="&#xdb;" horiz-adv-x="1531" 
d="M868 1610l-127 168l-145 -168h-270l282 313h271l274 -313h-285zM1419 612q0 -146 -33.5 -258.5t-106.5 -198t-198.5 -130.5t-300.5 -45t-300.5 45t-198.5 130.5t-106.5 198t-33.5 258.5v869h404v-885q0 -144 66 -213.5t169 -69.5q102 0 169 69.5t67 213.5v885h403v-869z
" />
    <glyph glyph-name="Udieresis" unicode="&#xdc;" horiz-adv-x="1531" 
d="M674 1903v-285h-340v285h340zM1153 1903v-285h-340v285h340zM1419 612q0 -146 -33.5 -258.5t-106.5 -198t-198.5 -130.5t-300.5 -45t-300.5 45t-198.5 130.5t-106.5 198t-33.5 258.5v869h404v-885q0 -144 66 -213.5t169 -69.5q102 0 169 69.5t67 213.5v885h403v-869z" />
    <glyph glyph-name="Yacute" unicode="&#xdd;" horiz-adv-x="1470" 
d="M1014 1927l84 -241l-568 -136l-53 158zM1458 1481l-526 -865v-616h-400v616l-522 865h430l293 -527l291 527h434z" />
    <glyph glyph-name="Thorn" unicode="&#xde;" horiz-adv-x="1529" 
d="M1468 743q0 -213 -150.5 -336.5t-397.5 -123.5h-324v-283h-455v1481h455v-267h270q168 0 302 -51t217 -159.5t83 -260.5zM1006 750q0 66 -48 105.5t-118 39.5h-244v-293h254q70 0 113 43t43 105z" />
    <glyph glyph-name="germandbls" unicode="&#xdf;" horiz-adv-x="1411" 
d="M731 1481q223 0 346 -82t123 -240q0 -105 -65.5 -176.5t-219.5 -134.5q-10 -3 -10 -12q0 -11 15 -17q48 -22 74 -34t69.5 -34t68 -37.5t59.5 -40t55 -47t43 -53t35 -62t20 -70.5t8 -83q0 -183 -122.5 -280.5t-338.5 -97.5q-161 0 -268 65l108 238q26 -18 40 -26.5
t46.5 -20t65.5 -11.5q50 0 83 22.5t33 67.5q0 40 -32 63.5t-121 61.5q-221 99 -221 295q0 122 102 228l33 33t34 35.5t24 30t20.5 37t5.5 36.5q0 42 -33.5 70t-93.5 28q-75 0 -116.5 -46.5t-41.5 -117.5v-1069h-391v721h-111v270h109q3 76 21 143.5t59.5 132.5t103.5 111
t159.5 74.5t221.5 28.5z" />
    <glyph glyph-name="agrave" unicode="&#xe0;" 
d="M375 1505l534 -219l-53 -158l-567 136zM422 -20q-158 0 -262.5 89.5t-104.5 247.5q0 175 140 269t423 94h82v45q0 51 -28 74t-88 22q-124 -5 -164 -92h-324q4 91 45 159.5t111 109.5t157.5 61t192.5 20q135 0 230 -23.5t148.5 -68.5t77 -102.5t23.5 -134.5v-750h-329
l-35 168q-46 -104 -115 -146t-180 -42zM561 231q58 0 97.5 37.5t41.5 89.5v134h-63q-27 0 -59.5 -6.5t-67 -21t-57.5 -42t-23 -64.5q0 -58 38.5 -92.5t92.5 -34.5z" />
    <glyph glyph-name="aacute" unicode="&#xe1;" 
d="M831 1505l84 -241l-567 -136l-53 158zM422 -20q-158 0 -262.5 89.5t-104.5 247.5q0 175 140 269t423 94h82v45q0 51 -28 74t-88 22q-124 -5 -164 -92h-324q4 91 45 159.5t111 109.5t157.5 61t192.5 20q135 0 230 -23.5t148.5 -68.5t77 -102.5t23.5 -134.5v-750h-329
l-35 168q-46 -104 -115 -146t-180 -42zM561 231q58 0 97.5 37.5t41.5 89.5v134h-63q-27 0 -59.5 -6.5t-67 -21t-57.5 -42t-23 -64.5q0 -58 38.5 -92.5t92.5 -34.5z" />
    <glyph glyph-name="acircumflex" unicode="&#xe2;" 
d="M727 1188l-127 168l-145 -168h-271l283 313h270l275 -313h-285zM422 -20q-158 0 -262.5 89.5t-104.5 247.5q0 175 140 269t423 94h82v45q0 51 -28 74t-88 22q-124 -5 -164 -92h-324q4 91 45 159.5t111 109.5t157.5 61t192.5 20q135 0 230 -23.5t148.5 -68.5t77 -102.5
t23.5 -134.5v-750h-329l-35 168q-46 -104 -115 -146t-180 -42zM561 231q58 0 97.5 37.5t41.5 89.5v134h-63q-27 0 -59.5 -6.5t-67 -21t-57.5 -42t-23 -64.5q0 -58 38.5 -92.5t92.5 -34.5z" />
    <glyph glyph-name="atilde" unicode="&#xe3;" 
d="M971 1276q-82 -59 -201 -59q-60 0 -163.5 30.5t-160.5 30.5q-41 0 -72 -10.5t-69 -38.5q-17 -13 -28.5 -10.5t-18.5 24.5l-33 109q-7 13 -4.5 28t21.5 33q41 40 85 61t109 21q68 0 178.5 -34t153.5 -34q76 0 154 56q10 7 20 8.5t18 -5t11 -20.5l26 -131q9 -33 -26 -59z
M422 -20q-158 0 -262.5 89.5t-104.5 247.5q0 175 140 269t423 94h82v45q0 51 -28 74t-88 22q-124 -5 -164 -92h-324q4 91 45 159.5t111 109.5t157.5 61t192.5 20q135 0 230 -23.5t148.5 -68.5t77 -102.5t23.5 -134.5v-750h-329l-35 168q-46 -104 -115 -146t-180 -42z
M561 231q58 0 97.5 37.5t41.5 89.5v134h-63q-27 0 -59.5 -6.5t-67 -21t-57.5 -42t-23 -64.5q0 -58 38.5 -92.5t92.5 -34.5z" />
    <glyph glyph-name="adieresis" unicode="&#xe4;" 
d="M532 1481v-285h-339v285h339zM1012 1481v-285h-340v285h340zM422 -20q-158 0 -262.5 89.5t-104.5 247.5q0 175 140 269t423 94h82v45q0 51 -28 74t-88 22q-124 -5 -164 -92h-324q4 91 45 159.5t111 109.5t157.5 61t192.5 20q135 0 230 -23.5t148.5 -68.5t77 -102.5
t23.5 -134.5v-750h-329l-35 168q-46 -104 -115 -146t-180 -42zM561 231q58 0 97.5 37.5t41.5 89.5v134h-63q-27 0 -59.5 -6.5t-67 -21t-57.5 -42t-23 -64.5q0 -58 38.5 -92.5t92.5 -34.5z" />
    <glyph glyph-name="aring" unicode="&#xe5;" 
d="M836 1378q0 -98 -68.5 -165.5t-165.5 -67.5q-98 0 -165.5 68.5t-67.5 168.5q0 94 68 160t165 66t165.5 -67.5t68.5 -162.5zM694 1376q0 40 -27 67t-67 27t-69 -27.5t-29 -66.5t29.5 -68.5t68.5 -29.5t66.5 29.5t27.5 68.5zM422 -20q-158 0 -262.5 89.5t-104.5 247.5
q0 175 140 269t423 94h82v45q0 51 -28 74t-88 22q-124 -5 -164 -92h-324q4 91 45 159.5t111 109.5t157.5 61t192.5 20q135 0 230 -23.5t148.5 -68.5t77 -102.5t23.5 -134.5v-750h-329l-35 168q-46 -104 -115 -146t-180 -42zM561 231q58 0 97.5 37.5t41.5 89.5v134h-63
q-27 0 -59.5 -6.5t-67 -21t-57.5 -42t-23 -64.5q0 -58 38.5 -92.5t92.5 -34.5z" />
    <glyph glyph-name="ae" unicode="&#xe6;" horiz-adv-x="1863" 
d="M1122 457q0 -104 57 -158.5t148 -54.5q57 0 111 28t123 97l241 -99q-110 -166 -228.5 -228t-299.5 -62q-124 0 -232 42.5t-184 118.5q-11 11 -20 0q-91 -87 -194 -124t-243 -37q-165 0 -255.5 83.5t-90.5 221.5q0 165 147 264.5t429 112.5l82 4v59q0 115 -117 115
q-124 0 -170 -123l-344 67q32 76 71 128t99.5 91t147 57.5t204.5 18.5q253 -3 373 -80q135 80 289 80q240 0 391 -166.5t151 -455.5h-686zM1284 844q-67 0 -112 -45.5t-44 -132.5l293 -2q0 35 -12.5 74t-45.5 72.5t-79 33.5zM713 469l-64 -4q-42 -3 -87 -20t-81.5 -52.5
t-36.5 -81.5q0 -44 31 -70t88 -26q61 0 105.5 28.5t44.5 75.5v150z" />
    <glyph glyph-name="ccedilla" unicode="&#xe7;" horiz-adv-x="1112" 
d="M596 254q35 0 62 17.5t41.5 45t21.5 50t10 43.5h313q0 -160 -102 -280t-278 -144l-33 -92q116 0 172.5 -51t56.5 -117q0 -77 -78.5 -126t-187.5 -49q-170 0 -272 60l49 121q98 -54 174 -54q42 0 68 14.5t26 39.5q0 39 -41.5 58.5t-140.5 19.5q-17 0 -21.5 3.5t0.5 20.5
l66 152q-198 28 -324.5 175t-126.5 363q0 244 151.5 399.5t383.5 155.5q109 0 197.5 -37t145.5 -100t88.5 -143.5t33.5 -171.5h-324q-4 26 -11.5 50t-22.5 50t-42 41.5t-63 15.5q-79 0 -124.5 -65.5t-45.5 -190.5q0 -128 49.5 -201t128.5 -73z" />
    <glyph glyph-name="egrave" unicode="&#xe8;" 
d="M365 1505l534 -219l-53 -158l-567 136zM442 438q-1 -90 42 -135t112 -45q61 0 102 22t64 80h352q-24 -170 -173.5 -275t-334.5 -105q-248 0 -401.5 147.5t-153.5 388.5q0 114 37 216t104.5 179t170.5 122.5t227 45.5q168 0 287.5 -73t176 -195t56.5 -281v-92h-668z
M440 662h303q0 63 -40.5 106t-112.5 43q-61 0 -105.5 -44.5t-44.5 -104.5z" />
    <glyph glyph-name="eacute" unicode="&#xe9;" 
d="M821 1505l84 -241l-567 -136l-53 158zM442 438q-1 -90 42 -135t112 -45q61 0 102 22t64 80h352q-24 -170 -173.5 -275t-334.5 -105q-248 0 -401.5 147.5t-153.5 388.5q0 114 37 216t104.5 179t170.5 122.5t227 45.5q168 0 287.5 -73t176 -195t56.5 -281v-92h-668z
M440 662h303q0 63 -40.5 106t-112.5 43q-61 0 -105.5 -44.5t-44.5 -104.5z" />
    <glyph glyph-name="ecircumflex" unicode="&#xea;" 
d="M717 1188l-127 168l-146 -168h-270l283 313h270l274 -313h-284zM442 438q-1 -90 42 -135t112 -45q61 0 102 22t64 80h352q-24 -170 -173.5 -275t-334.5 -105q-248 0 -401.5 147.5t-153.5 388.5q0 114 37 216t104.5 179t170.5 122.5t227 45.5q168 0 287.5 -73t176 -195
t56.5 -281v-92h-668zM440 662h303q0 63 -40.5 106t-112.5 43q-61 0 -105.5 -44.5t-44.5 -104.5z" />
    <glyph glyph-name="edieresis" unicode="&#xeb;" 
d="M522 1481v-285h-340v285h340zM1001 1481v-285h-339v285h339zM442 438q-1 -90 42 -135t112 -45q61 0 102 22t64 80h352q-24 -170 -173.5 -275t-334.5 -105q-248 0 -401.5 147.5t-153.5 388.5q0 114 37 216t104.5 179t170.5 122.5t227 45.5q168 0 287.5 -73t176 -195
t56.5 -281v-92h-668zM440 662h303q0 63 -40.5 106t-112.5 43q-61 0 -105.5 -44.5t-44.5 -104.5z" />
    <glyph glyph-name="igrave" unicode="&#xec;" horiz-adv-x="595" 
d="M82 1505l534 -219l-53 -158l-567 136zM502 1059v-1059h-400v1059h400z" />
    <glyph glyph-name="iacute" unicode="&#xed;" horiz-adv-x="595" 
d="M539 1505l84 -241l-568 -136l-53 158zM502 1059v-1059h-400v1059h400z" />
    <glyph glyph-name="icircumflex" unicode="&#xee;" horiz-adv-x="595" 
d="M434 1188l-127 168l-145 -168h-271l283 313h270l275 -313h-285zM502 1059v-1059h-400v1059h400z" />
    <glyph glyph-name="idieresis" unicode="&#xef;" horiz-adv-x="595" 
d="M240 1481v-285h-340v285h340zM719 1481v-285h-340v285h340zM502 1059v-1059h-400v1059h400z" />
    <glyph glyph-name="eth" unicode="&#xf0;" horiz-adv-x="1216" 
d="M1165 563q0 -268 -153 -425.5t-406 -157.5q-243 0 -399 149t-156 375q0 154 73.5 276.5t200.5 190t283 67.5q11 0 4 11q-50 68 -131 129l-221 -123l-67 108l165 90q-84 44 -190 80l205 170q161 -39 268 -92l176 98l62 -110l-111 -64q187 -131 292 -334t105 -438zM608 236
q81 0 117.5 67.5t36.5 208.5q0 143 -36.5 211t-117.5 68q-153 0 -153 -279q0 -141 37.5 -208.5t115.5 -67.5z" />
    <glyph glyph-name="ntilde" unicode="&#xf1;" horiz-adv-x="1247" 
d="M995 1276q-82 -59 -200 -59q-60 0 -163.5 30.5t-160.5 30.5q-41 0 -72 -10.5t-69 -38.5q-17 -13 -28.5 -10.5t-18.5 24.5l-33 109q-7 13 -5 28t21 33q41 39 85.5 60.5t109.5 21.5q68 0 178.5 -34t153.5 -34q75 0 153 56q10 7 20 8.5t18 -5t11 -20.5l27 -131
q9 -33 -27 -59zM102 0v1059h396v-127q32 33 40 41t39 32.5t53.5 32.5t63 16.5t88.5 8.5q144 0 257.5 -101.5t113.5 -246.5v-715h-399v662q0 42 -38 69t-85 27q-48 0 -88.5 -27t-40.5 -69v-662h-400z" />
    <glyph glyph-name="ograve" unicode="&#xf2;" horiz-adv-x="1177" 
d="M362 1505l535 -219l-53 -158l-568 136zM588 -20q-244 0 -390.5 151t-146.5 391q0 249 150.5 403t388.5 154q245 0 390.5 -155.5t145.5 -401.5q0 -239 -147 -390.5t-391 -151.5zM590 268q45 0 76.5 25t46 68t20.5 85t6 91q0 258 -149 258q-152 0 -152 -258q0 -38 3.5 -72
t13.5 -71.5t26 -64t44 -44t65 -17.5z" />
    <glyph glyph-name="oacute" unicode="&#xf3;" horiz-adv-x="1177" 
d="M819 1505l84 -241l-567 -136l-53 158zM588 -20q-244 0 -390.5 151t-146.5 391q0 249 150.5 403t388.5 154q245 0 390.5 -155.5t145.5 -401.5q0 -239 -147 -390.5t-391 -151.5zM590 268q45 0 76.5 25t46 68t20.5 85t6 91q0 258 -149 258q-152 0 -152 -258q0 -38 3.5 -72
t13.5 -71.5t26 -64t44 -44t65 -17.5z" />
    <glyph glyph-name="ocircumflex" unicode="&#xf4;" horiz-adv-x="1177" 
d="M715 1188l-127 168l-146 -168h-270l283 313h270l274 -313h-284zM588 -20q-244 0 -390.5 151t-146.5 391q0 249 150.5 403t388.5 154q245 0 390.5 -155.5t145.5 -401.5q0 -239 -147 -390.5t-391 -151.5zM590 268q45 0 76.5 25t46 68t20.5 85t6 91q0 258 -149 258
q-152 0 -152 -258q0 -38 3.5 -72t13.5 -71.5t26 -64t44 -44t65 -17.5z" />
    <glyph glyph-name="otilde" unicode="&#xf5;" horiz-adv-x="1177" 
d="M958 1276q-82 -59 -200 -59q-60 0 -163.5 30.5t-160.5 30.5q-41 0 -72 -10.5t-69 -38.5q-17 -13 -28.5 -10.5t-18.5 24.5l-33 109q-7 13 -5 28t21 33q41 39 85.5 60.5t109.5 21.5q68 0 178.5 -34t153.5 -34q75 0 153 56q10 7 20 8.5t18 -5t11 -20.5l27 -131
q9 -33 -27 -59zM588 -20q-244 0 -390.5 151t-146.5 391q0 249 150.5 403t388.5 154q245 0 390.5 -155.5t145.5 -401.5q0 -239 -147 -390.5t-391 -151.5zM590 268q45 0 76.5 25t46 68t20.5 85t6 91q0 258 -149 258q-152 0 -152 -258q0 -38 3.5 -72t13.5 -71.5t26 -64t44 -44
t65 -17.5z" />
    <glyph glyph-name="odieresis" unicode="&#xf6;" horiz-adv-x="1177" 
d="M520 1481v-285h-340v285h340zM999 1481v-285h-340v285h340zM588 -20q-244 0 -390.5 151t-146.5 391q0 249 150.5 403t388.5 154q245 0 390.5 -155.5t145.5 -401.5q0 -239 -147 -390.5t-391 -151.5zM590 268q45 0 76.5 25t46 68t20.5 85t6 91q0 258 -149 258
q-152 0 -152 -258q0 -38 3.5 -72t13.5 -71.5t26 -64t44 -44t65 -17.5z" />
    <glyph glyph-name="divide" unicode="&#xf7;" horiz-adv-x="1265" 
d="M815 1370v-364h-379v364h379zM1145 887v-283h-1043v283h1043zM815 485v-364h-379v364h379z" />
    <glyph glyph-name="oslash" unicode="&#xf8;" horiz-adv-x="1302" 
d="M1219 948l-105 -96q90 -137 90 -330q0 -239 -147 -390.5t-391 -151.5q-214 0 -359 120l-127 -118l-119 127l138 127q-70 128 -70 286q0 249 150.5 403t388.5 154q196 0 329 -102l105 98zM516 537v-7l244 228q-37 37 -92 37q-152 0 -152 -258zM817 537v36l-260 -241
q40 -64 111 -64q45 0 76.5 25t46 68t20.5 85t6 91z" />
    <glyph glyph-name="ugrave" unicode="&#xf9;" horiz-adv-x="1247" 
d="M399 1505l535 -219l-53 -158l-568 136zM494 -20q-66 0 -134 22.5t-126 63.5t-95 106t-37 141v746h400v-690q0 -48 32.5 -78.5t90.5 -30.5t91.5 31t33.5 78v690h403l-8 -1059h-295l-47 217q-44 -237 -309 -237z" />
    <glyph glyph-name="uacute" unicode="&#xfa;" horiz-adv-x="1247" 
d="M856 1505l84 -241l-567 -136l-54 158zM494 -20q-66 0 -134 22.5t-126 63.5t-95 106t-37 141v746h400v-690q0 -48 32.5 -78.5t90.5 -30.5t91.5 31t33.5 78v690h403l-8 -1059h-295l-47 217q-44 -237 -309 -237z" />
    <glyph glyph-name="ucircumflex" unicode="&#xfb;" horiz-adv-x="1247" 
d="M752 1188l-127 168l-146 -168h-270l283 313h270l274 -313h-284zM494 -20q-66 0 -134 22.5t-126 63.5t-95 106t-37 141v746h400v-690q0 -48 32.5 -78.5t90.5 -30.5t91.5 31t33.5 78v690h403l-8 -1059h-295l-47 217q-44 -237 -309 -237z" />
    <glyph glyph-name="udieresis" unicode="&#xfc;" horiz-adv-x="1247" 
d="M557 1481v-285h-340v285h340zM1036 1481v-285h-340v285h340zM494 -20q-66 0 -134 22.5t-126 63.5t-95 106t-37 141v746h400v-690q0 -48 32.5 -78.5t90.5 -30.5t91.5 31t33.5 78v690h403l-8 -1059h-295l-47 217q-44 -237 -309 -237z" />
    <glyph glyph-name="yacute" unicode="&#xfd;" horiz-adv-x="1202" 
d="M879 1505l84 -241l-568 -136l-53 158zM322 -338q-73 0 -131 11t-79 23l-22 11v252l103 -6q194 -15 220 85q1 2 1 3l4 20l-412 998h391l201 -576l209 576h389l-414 -998q-40 -98 -83 -169.5t-85 -115.5t-91 -69.5t-96 -35t-105 -9.5z" />
    <glyph glyph-name="thorn" unicode="&#xfe;" horiz-adv-x="1255" 
d="M504 1481v-545q67 72 138.5 107.5t170.5 35.5q175 0 283 -138.5t108 -408.5q0 -147 -31.5 -255.5t-88 -172t-127.5 -94t-158 -30.5q-149 0 -256 102q-25 23 -33 21.5t-8 -31.5v-402h-400v1811h402zM502 301q56 -80 139 -80q53 0 86.5 27t53.5 100t20 197
q0 166 -38.5 229.5t-121.5 63.5q-58 0 -98.5 -33t-40.5 -80v-424z" />
    <glyph glyph-name="ydieresis" unicode="&#xff;" horiz-adv-x="1202" 
d="M580 1481v-285h-340v285h340zM1059 1481v-285h-340v285h340zM322 -338q-73 0 -131 11t-79 23l-22 11v252l103 -6q194 -15 220 85q1 2 1 3l4 20l-412 998h391l201 -576l209 576h389l-414 -998q-40 -98 -83 -169.5t-85 -115.5t-91 -69.5t-96 -35t-105 -9.5z" />
    <glyph glyph-name="Amacron" unicode="&#x100;" horiz-adv-x="1499" 
d="M1190 1903v-244h-819v244h819zM23 0l524 1481h407l525 -1481h-394l-98 287h-467l-100 -287h-397zM604 627h293l-145 473z" />
    <glyph glyph-name="amacron" unicode="&#x101;" 
d="M1012 1481v-244h-819v244h819zM422 -20q-158 0 -262.5 89.5t-104.5 247.5q0 175 140 269t423 94h82v45q0 51 -28 74t-88 22q-124 -5 -164 -92h-324q4 91 45 159.5t111 109.5t157.5 61t192.5 20q135 0 230 -23.5t148.5 -68.5t77 -102.5t23.5 -134.5v-750h-329l-35 168
q-46 -104 -115 -146t-180 -42zM561 231q58 0 97.5 37.5t41.5 89.5v134h-63q-27 0 -59.5 -6.5t-67 -21t-57.5 -42t-23 -64.5q0 -58 38.5 -92.5t92.5 -34.5z" />
    <glyph glyph-name="Abreve" unicode="&#x102;" horiz-adv-x="1499" 
d="M1184 1903q-43 -145 -152 -221t-250 -76q-142 0 -252.5 74.5t-152.5 222.5h215q30 -53 82 -86t108 -33q51 0 104.5 33t80.5 86h217zM23 0l524 1481h407l525 -1481h-394l-98 287h-467l-100 -287h-397zM604 627h293l-145 473z" />
    <glyph glyph-name="abreve" unicode="&#x103;" 
d="M1006 1481q-43 -145 -152 -221t-250 -76q-142 0 -252.5 74.5t-152.5 222.5h215q30 -53 82 -86t108 -33q51 0 104 33t80 86h218zM422 -20q-158 0 -262.5 89.5t-104.5 247.5q0 175 140 269t423 94h82v45q0 51 -28 74t-88 22q-124 -5 -164 -92h-324q4 91 45 159.5t111 109.5
t157.5 61t192.5 20q135 0 230 -23.5t148.5 -68.5t77 -102.5t23.5 -134.5v-750h-329l-35 168q-46 -104 -115 -146t-180 -42zM561 231q58 0 97.5 37.5t41.5 89.5v134h-63q-27 0 -59.5 -6.5t-67 -21t-57.5 -42t-23 -64.5q0 -58 38.5 -92.5t92.5 -34.5z" />
    <glyph glyph-name="Aogonek" unicode="&#x104;" horiz-adv-x="1499" 
d="M1511 -145q22 9 29.5 3.5t7.5 -26.5v-104q0 -24 -20 -35q-31 -17 -91 -30t-126 -13q-113 0 -177.5 43.5t-64.5 130.5q0 54 34 96.5t126 79.5h-144l-98 287h-467l-100 -287h-397l524 1481h407l521 -1471h53q-107 -35 -146 -65t-39 -66q0 -57 56 -57q44 0 112 33zM604 627
h293l-145 473z" />
    <glyph glyph-name="aogonek" unicode="&#x105;" 
d="M1053 -143q22 9 29.5 3.5t7.5 -26.5v-104q0 -23 -21 -35q-31 -17 -91 -30t-126 -13q-113 0 -177.5 43.5t-64.5 130.5q0 53 33 95t121 79h-12l-35 168q-46 -104 -115 -146t-180 -42q-158 0 -262.5 89.5t-104.5 247.5q0 175 140 269t423 94h82v45q0 51 -28 74t-88 22
q-124 -5 -164 -92h-324q4 91 45 159.5t111 109.5t157.5 61t192.5 20q135 0 230 -23.5t148.5 -68.5t77 -102.5t23.5 -134.5v-750h-47q-86 -30 -117.5 -58t-31.5 -61q0 -57 55 -57q45 0 113 33zM700 358v134h-63q-27 0 -59.5 -6.5t-67 -21t-57.5 -42t-23 -64.5
q0 -58 38.5 -92.5t92.5 -34.5q58 0 97.5 37.5t41.5 89.5z" />
    <glyph glyph-name="Cacute" unicode="&#x106;" horiz-adv-x="1525" 
d="M1030 1927l84 -241l-567 -136l-53 158zM801 1501q263 0 440.5 -151.5t202.5 -391.5h-416q-18 105 -79.5 164.5t-162.5 59.5q-122 0 -190 -98.5t-68 -329.5q0 -236 69 -345.5t189 -109.5q98 0 161 72t81 182h416q-13 -100 -37 -178.5t-71.5 -155t-115.5 -127t-174.5 -81.5
t-244.5 -31q-210 0 -372.5 101t-249.5 278t-87 401q0 338 192.5 539.5t516.5 201.5z" />
    <glyph glyph-name="cacute" unicode="&#x107;" horiz-adv-x="1112" 
d="M815 1505l84 -241l-567 -136l-53 158zM586 1079q109 0 197.5 -37t145.5 -100t88.5 -143.5t33.5 -171.5h-324q-4 26 -11.5 50t-22.5 50t-42 41.5t-63 15.5q-79 0 -124.5 -65.5t-45.5 -190.5q0 -128 49.5 -201t128.5 -73q35 0 62 17.5t41.5 45t21.5 50t10 43.5h313
q0 -85 -31.5 -162.5t-88.5 -137t-145 -95t-193 -35.5q-230 0 -382.5 152t-152.5 392q0 244 151.5 399.5t383.5 155.5z" />
    <glyph glyph-name="Ccircumflex" unicode="&#x108;" horiz-adv-x="1525" 
d="M926 1610l-127 168l-146 -168h-270l283 313h270l274 -313h-284zM801 1501q263 0 440.5 -151.5t202.5 -391.5h-416q-18 105 -79.5 164.5t-162.5 59.5q-122 0 -190 -98.5t-68 -329.5q0 -236 69 -345.5t189 -109.5q98 0 161 72t81 182h416q-13 -100 -37 -178.5t-71.5 -155
t-115.5 -127t-174.5 -81.5t-244.5 -31q-210 0 -372.5 101t-249.5 278t-87 401q0 338 192.5 539.5t516.5 201.5z" />
    <glyph glyph-name="ccircumflex" unicode="&#x109;" horiz-adv-x="1112" 
d="M711 1188l-127 168l-146 -168h-270l283 313h270l274 -313h-284zM586 1079q109 0 197.5 -37t145.5 -100t88.5 -143.5t33.5 -171.5h-324q-4 26 -11.5 50t-22.5 50t-42 41.5t-63 15.5q-79 0 -124.5 -65.5t-45.5 -190.5q0 -128 49.5 -201t128.5 -73q35 0 62 17.5t41.5 45
t21.5 50t10 43.5h313q0 -85 -31.5 -162.5t-88.5 -137t-145 -95t-193 -35.5q-230 0 -382.5 152t-152.5 392q0 244 151.5 399.5t383.5 155.5z" />
    <glyph glyph-name="Cdotaccent" unicode="&#x10a;" horiz-adv-x="1525" 
d="M1001 1903v-334h-399v334h399zM801 1501q263 0 440.5 -151.5t202.5 -391.5h-416q-18 105 -79.5 164.5t-162.5 59.5q-122 0 -190 -98.5t-68 -329.5q0 -236 69 -345.5t189 -109.5q98 0 161 72t81 182h416q-13 -100 -37 -178.5t-71.5 -155t-115.5 -127t-174.5 -81.5
t-244.5 -31q-210 0 -372.5 101t-249.5 278t-87 401q0 338 192.5 539.5t516.5 201.5z" />
    <glyph glyph-name="cdotaccent" unicode="&#x10b;" horiz-adv-x="1112" 
d="M786 1481v-334h-399v334h399zM586 1079q109 0 197.5 -37t145.5 -100t88.5 -143.5t33.5 -171.5h-324q-4 26 -11.5 50t-22.5 50t-42 41.5t-63 15.5q-79 0 -124.5 -65.5t-45.5 -190.5q0 -128 49.5 -201t128.5 -73q35 0 62 17.5t41.5 45t21.5 50t10 43.5h313
q0 -85 -31.5 -162.5t-88.5 -137t-145 -95t-193 -35.5q-230 0 -382.5 152t-152.5 392q0 244 151.5 399.5t383.5 155.5z" />
    <glyph glyph-name="Ccaron" unicode="&#x10c;" horiz-adv-x="1525" 
d="M926 1905h284l-274 -316h-272l-281 316h270l146 -168zM801 1501q263 0 440.5 -151.5t202.5 -391.5h-416q-18 105 -79.5 164.5t-162.5 59.5q-122 0 -190 -98.5t-68 -329.5q0 -236 69 -345.5t189 -109.5q98 0 161 72t81 182h416q-13 -100 -37 -178.5t-71.5 -155
t-115.5 -127t-174.5 -81.5t-244.5 -31q-210 0 -372.5 101t-249.5 278t-87 401q0 338 192.5 539.5t516.5 201.5z" />
    <glyph glyph-name="ccaron" unicode="&#x10d;" horiz-adv-x="1112" 
d="M711 1483h284l-274 -316h-272l-281 316h270l146 -168zM586 1079q109 0 197.5 -37t145.5 -100t88.5 -143.5t33.5 -171.5h-324q-4 26 -11.5 50t-22.5 50t-42 41.5t-63 15.5q-79 0 -124.5 -65.5t-45.5 -190.5q0 -128 49.5 -201t128.5 -73q35 0 62 17.5t41.5 45t21.5 50
t10 43.5h313q0 -85 -31.5 -162.5t-88.5 -137t-145 -95t-193 -35.5q-230 0 -382.5 152t-152.5 392q0 244 151.5 399.5t383.5 155.5z" />
    <glyph glyph-name="Dcaron" unicode="&#x10e;" horiz-adv-x="1521" 
d="M889 1905h285l-275 -316h-272l-281 316h270l146 -168zM141 1481q469 0 533 -2q197 -7 345 -63t239.5 -154t136.5 -227.5t45 -289.5q0 -164 -47 -299t-139.5 -235t-241 -155.5t-340.5 -55.5h-531v1481zM541 1167v-854h143q48 0 94 14.5t91 48t79 82.5t55 125t21 169
q0 200 -92 307.5t-248 107.5h-143z" />
    <glyph glyph-name="dcaron" unicode="&#x10f;" horiz-adv-x="1249" 
d="M1182 1059q26 0 26 -25v-235q0 -9 -6 -21l-47 -112v-666h-283l-47 217q-76 -237 -319 -237q-217 0 -336 150t-119 407q0 252 109 397t303 145q90 0 168.5 -33t124.5 -108v584h399v-463h27zM756 489v93q0 217 -158 217q-34 0 -60.5 -11t-50.5 -37.5t-37.5 -79.5
t-13.5 -130q0 -150 45 -216.5t121 -66.5q69 0 111.5 58.5t42.5 172.5z" />
    <glyph glyph-name="Dcroat" unicode="&#x110;" horiz-adv-x="1607" 
d="M760 1479q197 -7 345 -63t239.5 -154t136.5 -227.5t45 -289.5q0 -164 -47 -299t-139.5 -235t-241 -155.5t-340.5 -55.5h-531v586h-104q-30 0 -41.5 11t-11.5 38v186q0 45 39 45h118v615q469 0 533 -2zM770 313q48 0 94 14.5t91 48t79 82.5t55 125t21 169q0 200 -92 307.5
t-248 107.5h-143v-301h221q17 0 27 -11t10 -28v-186q0 -30 -15.5 -42.5t-50.5 -12.5h-192v-273h143z" />
    <glyph glyph-name="dcroat" unicode="&#x111;" horiz-adv-x="1269" 
d="M1186 1372v-213h-31v-1159h-283l-47 217q-76 -237 -319 -237q-217 0 -336 150t-119 407q0 252 109 397t303 145q90 0 168.5 -33t124.5 -108v221h-312v213h312v150h399v-150h31zM756 489v93q0 217 -158 217q-34 0 -60.5 -11t-50.5 -37.5t-37.5 -79.5t-13.5 -130
q0 -150 45 -216.5t121 -66.5q69 0 111.5 58.5t42.5 172.5z" />
    <glyph glyph-name="Emacron" unicode="&#x112;" horiz-adv-x="1347" 
d="M1098 1903v-244h-819v244h819zM141 0v1481h1094l-2 -330h-690v-246h577v-321h-579v-252h696v-332h-1096z" />
    <glyph glyph-name="emacron" unicode="&#x113;" 
d="M1001 1481v-244h-819v244h819zM442 438q-1 -90 42 -135t112 -45q61 0 102 22t64 80h352q-24 -170 -173.5 -275t-334.5 -105q-248 0 -401.5 147.5t-153.5 388.5q0 114 37 216t104.5 179t170.5 122.5t227 45.5q168 0 287.5 -73t176 -195t56.5 -281v-92h-668zM440 662h303
q0 63 -40.5 106t-112.5 43q-61 0 -105.5 -44.5t-44.5 -104.5z" />
    <glyph glyph-name="Ebreve" unicode="&#x114;" horiz-adv-x="1347" 
d="M1092 1903q-43 -145 -152 -221t-250 -76q-142 0 -252.5 74.5t-152.5 222.5h215q30 -53 82 -86t108 -33q51 0 104 33t80 86h218zM141 0v1481h1094l-2 -330h-690v-246h577v-321h-579v-252h696v-332h-1096z" />
    <glyph glyph-name="ebreve" unicode="&#x115;" 
d="M995 1481q-43 -145 -151.5 -221t-249.5 -76q-142 0 -253 74.5t-153 222.5h215q30 -53 82 -86t109 -33q51 0 104 33t80 86h217zM442 438q-1 -90 42 -135t112 -45q61 0 102 22t64 80h352q-24 -170 -173.5 -275t-334.5 -105q-248 0 -401.5 147.5t-153.5 388.5q0 114 37 216
t104.5 179t170.5 122.5t227 45.5q168 0 287.5 -73t176 -195t56.5 -281v-92h-668zM440 662h303q0 63 -40.5 106t-112.5 43q-61 0 -105.5 -44.5t-44.5 -104.5z" />
    <glyph glyph-name="Edotaccent" unicode="&#x116;" horiz-adv-x="1347" 
d="M889 1903v-334h-400v334h400zM141 0v1481h1094l-2 -330h-690v-246h577v-321h-579v-252h696v-332h-1096z" />
    <glyph glyph-name="edotaccent" unicode="&#x117;" 
d="M793 1481v-334h-400v334h400zM442 438q-1 -90 42 -135t112 -45q61 0 102 22t64 80h352q-24 -170 -173.5 -275t-334.5 -105q-248 0 -401.5 147.5t-153.5 388.5q0 114 37 216t104.5 179t170.5 122.5t227 45.5q168 0 287.5 -73t176 -195t56.5 -281v-92h-668zM440 662h303
q0 63 -40.5 106t-112.5 43q-61 0 -105.5 -44.5t-44.5 -104.5z" />
    <glyph glyph-name="Eogonek" unicode="&#x118;" horiz-adv-x="1347" 
d="M1264 -143q22 9 29 3.5t7 -26.5v-104q0 -24 -20 -35q-31 -17 -91 -30t-126 -13q-113 0 -177.5 43.5t-64.5 130.5q0 53 33 95t121 79h-834v1481h1094l-2 -330h-690v-246h577v-321h-579v-252h696v-320h43q-106 -35 -145 -65t-39 -66q0 -57 55 -57q45 0 113 33z" />
    <glyph glyph-name="eogonek" unicode="&#x119;" 
d="M1114 360q-15 -104 -79.5 -186t-162.5 -131h27q-106 -35 -145 -65t-39 -66q0 -57 55 -57q47 0 113 32q22 10 29.5 4.5t7.5 -26.5v-105q0 -22 -21 -34q-31 -17 -91 -30t-126 -13q-113 0 -177.5 43.5t-64.5 130.5q0 77 70 129q-209 29 -334 172t-125 358q0 114 37 216
t104.5 179t170.5 122.5t227 45.5q168 0 287.5 -73t176 -195t56.5 -281v-92h-668q-1 -90 42 -135t112 -45q61 0 102 22t64 80h352zM590 811q-61 0 -105.5 -44.5t-44.5 -104.5h303q0 63 -40.5 106t-112.5 43z" />
    <glyph glyph-name="Ecaron" unicode="&#x11a;" horiz-adv-x="1347" 
d="M813 1905h285l-275 -316h-272l-281 316h271l145 -168zM141 0v1481h1094l-2 -330h-690v-246h577v-321h-579v-252h696v-332h-1096z" />
    <glyph glyph-name="ecaron" unicode="&#x11b;" 
d="M717 1483h284l-274 -316h-272l-281 316h270l146 -168zM442 438q-1 -90 42 -135t112 -45q61 0 102 22t64 80h352q-24 -170 -173.5 -275t-334.5 -105q-248 0 -401.5 147.5t-153.5 388.5q0 114 37 216t104.5 179t170.5 122.5t227 45.5q168 0 287.5 -73t176 -195t56.5 -281
v-92h-668zM440 662h303q0 63 -40.5 106t-112.5 43q-61 0 -105.5 -44.5t-44.5 -104.5z" />
    <glyph glyph-name="Gcircumflex" unicode="&#x11c;" horiz-adv-x="1607" 
d="M922 1610l-127 168l-146 -168h-270l283 313h270l274 -313h-284zM793 -20q-208 0 -368 95.5t-246.5 267t-86.5 392.5q0 170 53.5 313.5t149 242.5t230 154.5t292.5 55.5q144 0 267 -46t204.5 -122t127.5 -173.5t48 -201.5h-415q-22 97 -82.5 155t-159.5 58
q-58 0 -106.5 -22t-88.5 -69t-63 -132t-23 -200q0 -104 19 -182.5t48.5 -123t71 -72t78.5 -36t80 -8.5q80 0 139.5 42t75.5 97l19 53h-258v268l678 -4v-782h-263v164q-26 -27 -41 -41t-46 -40t-60.5 -40.5t-71 -31t-92.5 -24t-110 -7.5z" />
    <glyph glyph-name="gcircumflex" unicode="&#x11d;" horiz-adv-x="1292" 
d="M752 1188l-127 168l-146 -168h-270l283 313h270l274 -313h-284zM629 -350q-301 0 -461 68.5t-160 175.5q0 20 5.5 38t14.5 32t22.5 26.5t27 22t30 17.5t30 13t29 10t24.5 7t19 4l9 2l-15 7.5t-21.5 11t-24 14t-26 18.5t-23.5 23.5t-20.5 29t-13 34t-5.5 40.5
q0 67 62 118.5t181 67.5q-110 48 -168.5 136t-58.5 179q0 103 75 179.5t196 113.5t268 37q103 0 171.5 -19.5t139.5 -56.5q247 96 348 138l-2 -283l-180 -25q12 -46 12 -81q0 -69 -34 -133.5t-96.5 -116.5t-162.5 -83.5t-221 -31.5q-88 0 -141 6q-29 -6 -29 -18
q0 -18 29.5 -23.5t107.5 -9.5q22 -1 33 -2q164 -9 211 -12q210 -14 316 -101t106 -217q0 -160 -156.5 -258t-447.5 -98zM612 592q56 0 91.5 39t35.5 100q0 62 -35.5 106t-91.5 44t-91.5 -44t-35.5 -106q0 -61 35.5 -100t91.5 -39zM690 -141q97 0 131.5 16t34.5 49
q0 34 -34.5 54.5t-96.5 25.5l-193 12q-75 4 -106 -19t-31 -56q0 -49 67 -65.5t228 -16.5z" />
    <glyph glyph-name="Gbreve" unicode="&#x11e;" horiz-adv-x="1607" 
d="M1200 1903q-43 -145 -151.5 -221t-249.5 -76q-142 0 -253 74.5t-153 222.5h215q30 -53 82 -86t109 -33q51 0 104 33t80 86h217zM793 -20q-208 0 -368 95.5t-246.5 267t-86.5 392.5q0 170 53.5 313.5t149 242.5t230 154.5t292.5 55.5q144 0 267 -46t204.5 -122
t127.5 -173.5t48 -201.5h-415q-22 97 -82.5 155t-159.5 58q-58 0 -106.5 -22t-88.5 -69t-63 -132t-23 -200q0 -104 19 -182.5t48.5 -123t71 -72t78.5 -36t80 -8.5q80 0 139.5 42t75.5 97l19 53h-258v268l678 -4v-782h-263v164q-26 -27 -41 -41t-46 -40t-60.5 -40.5t-71 -31
t-92.5 -24t-110 -7.5z" />
    <glyph glyph-name="gbreve" unicode="&#x11f;" horiz-adv-x="1292" 
d="M1030 1481q-43 -145 -151.5 -221t-249.5 -76q-142 0 -253 74.5t-153 222.5h215q30 -53 82 -86t109 -33q51 0 104 33t80 86h217zM629 -350q-301 0 -461 68.5t-160 175.5q0 20 5.5 38t14.5 32t22.5 26.5t27 22t30 17.5t30 13t29 10t24.5 7t19 4l9 2l-15 7.5t-21.5 11
t-24 14t-26 18.5t-23.5 23.5t-20.5 29t-13 34t-5.5 40.5q0 67 62 118.5t181 67.5q-110 48 -168.5 136t-58.5 179q0 103 75 179.5t196 113.5t268 37q103 0 171.5 -19.5t139.5 -56.5q247 96 348 138l-2 -283l-180 -25q12 -46 12 -81q0 -69 -34 -133.5t-96.5 -116.5
t-162.5 -83.5t-221 -31.5q-88 0 -141 6q-29 -6 -29 -18q0 -18 29.5 -23.5t107.5 -9.5q22 -1 33 -2q164 -9 211 -12q210 -14 316 -101t106 -217q0 -160 -156.5 -258t-447.5 -98zM612 592q56 0 91.5 39t35.5 100q0 62 -35.5 106t-91.5 44t-91.5 -44t-35.5 -106
q0 -61 35.5 -100t91.5 -39zM690 -141q97 0 131.5 16t34.5 49q0 34 -34.5 54.5t-96.5 25.5l-193 12q-75 4 -106 -19t-31 -56q0 -49 67 -65.5t228 -16.5z" />
    <glyph glyph-name="Gdotaccent" unicode="&#x120;" horiz-adv-x="1607" 
d="M997 1903v-334h-399v334h399zM793 -20q-208 0 -368 95.5t-246.5 267t-86.5 392.5q0 170 53.5 313.5t149 242.5t230 154.5t292.5 55.5q144 0 267 -46t204.5 -122t127.5 -173.5t48 -201.5h-415q-22 97 -82.5 155t-159.5 58q-58 0 -106.5 -22t-88.5 -69t-63 -132t-23 -200
q0 -104 19 -182.5t48.5 -123t71 -72t78.5 -36t80 -8.5q80 0 139.5 42t75.5 97l19 53h-258v268l678 -4v-782h-263v164q-26 -27 -41 -41t-46 -40t-60.5 -40.5t-71 -31t-92.5 -24t-110 -7.5z" />
    <glyph glyph-name="gdotaccent" unicode="&#x121;" horiz-adv-x="1292" 
d="M827 1481v-334h-399v334h399zM629 -350q-301 0 -461 68.5t-160 175.5q0 20 5.5 38t14.5 32t22.5 26.5t27 22t30 17.5t30 13t29 10t24.5 7t19 4l9 2l-15 7.5t-21.5 11t-24 14t-26 18.5t-23.5 23.5t-20.5 29t-13 34t-5.5 40.5q0 67 62 118.5t181 67.5q-110 48 -168.5 136
t-58.5 179q0 103 75 179.5t196 113.5t268 37q103 0 171.5 -19.5t139.5 -56.5q247 96 348 138l-2 -283l-180 -25q12 -46 12 -81q0 -69 -34 -133.5t-96.5 -116.5t-162.5 -83.5t-221 -31.5q-88 0 -141 6q-29 -6 -29 -18q0 -18 29.5 -23.5t107.5 -9.5q22 -1 33 -2
q164 -9 211 -12q210 -14 316 -101t106 -217q0 -160 -156.5 -258t-447.5 -98zM612 592q56 0 91.5 39t35.5 100q0 62 -35.5 106t-91.5 44t-91.5 -44t-35.5 -106q0 -61 35.5 -100t91.5 -39zM690 -141q97 0 131.5 16t34.5 49q0 34 -34.5 54.5t-96.5 25.5l-193 12q-75 4 -106 -19
t-31 -56q0 -49 67 -65.5t228 -16.5z" />
    <glyph glyph-name="uni0122" unicode="&#x122;" horiz-adv-x="1607" 
d="M793 -20q-208 0 -368 95.5t-246.5 267t-86.5 392.5q0 170 53.5 313.5t149 242.5t230 154.5t292.5 55.5q144 0 267 -46t204.5 -122t127.5 -173.5t48 -201.5h-415q-22 97 -82.5 155t-159.5 58q-58 0 -106.5 -22t-88.5 -69t-63 -132t-23 -200q0 -104 19 -182.5t48.5 -123
t71 -72t78.5 -36t80 -8.5q80 0 139.5 42t75.5 97l19 53h-258v268l678 -4v-782h-263v164q-26 -27 -41 -41t-46 -40t-60.5 -40.5t-71 -31t-92.5 -24t-110 -7.5zM707 -492q-17 0 -25 14.5t0 26.5l68 91q15 20 8.5 38.5t-27.5 18.5h-18q-26 0 -35.5 9.5t-9.5 33.5v123
q0 39 34 39h189q33 0 33 -31v-174l-9 -27l-106 -133q-12 -17 -25.5 -23t-40.5 -6h-36z" />
    <glyph glyph-name="uni0123" unicode="&#x123;" horiz-adv-x="1292" 
d="M438 1196v221l137 172h136l-140 -188h125v-205h-258zM629 -350q-301 0 -461 68.5t-160 175.5q0 20 5.5 38t14.5 32t22.5 26.5t27 22t30 17.5t30 13t29 10t24.5 7t19 4l9 2l-15 7.5t-21.5 11t-24 14t-26 18.5t-23.5 23.5t-20.5 29t-13 34t-5.5 40.5q0 67 62 118.5
t181 67.5q-110 48 -168.5 136t-58.5 179q0 103 75 179.5t196 113.5t268 37q103 0 171.5 -19.5t139.5 -56.5q247 96 348 138l-2 -283l-180 -25q12 -46 12 -81q0 -69 -34 -133.5t-96.5 -116.5t-162.5 -83.5t-221 -31.5q-88 0 -141 6q-29 -6 -29 -18q0 -18 29.5 -23.5
t107.5 -9.5q22 -1 33 -2q164 -9 211 -12q210 -14 316 -101t106 -217q0 -160 -156.5 -258t-447.5 -98zM612 592q56 0 91.5 39t35.5 100q0 62 -35.5 106t-91.5 44t-91.5 -44t-35.5 -106q0 -61 35.5 -100t91.5 -39zM690 -141q97 0 131.5 16t34.5 49q0 34 -34.5 54.5t-96.5 25.5
l-193 12q-75 4 -106 -19t-31 -56q0 -49 67 -65.5t228 -16.5z" />
    <glyph glyph-name="Hcircumflex" unicode="&#x124;" horiz-adv-x="1529" 
d="M885 1610l-127 168l-146 -168h-270l283 313h270l274 -313h-284zM989 594h-448v-594h-400v1481h400v-561h448v561h400v-1481h-400v594z" />
    <glyph glyph-name="hcircumflex" unicode="&#x125;" horiz-adv-x="1245" 
d="M780 1059q154 0 262.5 -98t108.5 -252v-709h-399v662q0 42 -39 69t-86 27t-86 -29.5t-39 -71.5v-657h-400v1522h400v-320l270 299h270l275 -313h-285l-127 168l-145 -168h-258v-260q23 29 42 47t52 40t79 33t105 11z" />
    <glyph glyph-name="Hbar" unicode="&#x126;" horiz-adv-x="1658" 
d="M1585 1315q15 0 24 -10t9 -27v-121q0 -49 -57 -49h-76v-1108h-400v594h-448v-594h-399v1108h-172q-24 0 -33.5 10.5t-9.5 34.5v121q0 41 30 41h185v166h399v-166h448v166h400v-166h100zM1085 920v188h-448v-188h448z" />
    <glyph glyph-name="hbar" unicode="&#x127;" horiz-adv-x="1329" 
d="M864 1059q154 0 262.5 -98t108.5 -252v-709h-399v662q0 42 -39 69t-86 27t-86 -29.5t-39 -71.5v-657h-400v1159h-141v213h141v150h400v-150h198v-213h-198v-231q23 29 42 47t52 40t79 33t105 11z" />
    <glyph glyph-name="Itilde" unicode="&#x128;" horiz-adv-x="681" 
d="M711 1698q-35 -25 -89 -42.5t-112 -17.5q-60 0 -163.5 31t-160.5 31q-41 0 -72 -10.5t-69 -38.5q-17 -13 -28.5 -10.5t-18.5 24.5l-33 109q-7 13 -4.5 28t21.5 33q41 40 85 61t109 21q68 0 178.5 -34t153.5 -34q76 0 154 56q10 7 20 8.5t18 -5t11 -20.5l26 -131
q9 -33 -26 -59zM141 1481h400v-1481h-400v1481z" />
    <glyph glyph-name="itilde" unicode="&#x129;" horiz-adv-x="595" 
d="M678 1276q-82 -59 -201 -59q-60 0 -163 30.5t-160 30.5q-41 0 -72.5 -10.5t-69.5 -38.5q-17 -13 -28.5 -10.5t-18.5 24.5l-33 109q-7 13 -4.5 28t21.5 33q41 40 85 61t109 21q68 0 178.5 -34t153.5 -34q76 0 154 56q10 7 20 8.5t18 -5t11 -20.5l27 -131q9 -33 -27 -59z
M502 1059v-1059h-400v1059h400z" />
    <glyph glyph-name="Imacron" unicode="&#x12a;" horiz-adv-x="681" 
d="M752 1903v-244h-820v244h820zM141 1481h400v-1481h-400v1481z" />
    <glyph glyph-name="imacron" unicode="&#x12b;" horiz-adv-x="595" 
d="M719 1481v-244h-819v244h819zM502 1059v-1059h-400v1059h400z" />
    <glyph glyph-name="Ibreve" unicode="&#x12c;" horiz-adv-x="681" 
d="M745 1903q-43 -145 -151.5 -221t-249.5 -76q-142 0 -252.5 74.5t-152.5 222.5h215q30 -53 82 -86t108 -33q51 0 104 33t80 86h217zM141 1481h400v-1481h-400v1481z" />
    <glyph glyph-name="ibreve" unicode="&#x12d;" horiz-adv-x="595" 
d="M713 1481q-43 -145 -152 -221t-250 -76q-142 0 -252.5 74.5t-152.5 222.5h215q30 -53 82 -86t108 -33q51 0 104.5 33t80.5 86h217zM502 1059v-1059h-400v1059h400z" />
    <glyph glyph-name="Iogonek" unicode="&#x12e;" horiz-adv-x="681" 
d="M141 1481h400v-1481h-400v1481zM78 -188q0 58 39 103t147 83h273q-107 -35 -146 -65t-39 -66q0 -57 56 -57q46 0 112 32q22 10 29.5 4.5t7.5 -26.5v-105q0 -23 -20 -34q-31 -17 -91.5 -30t-126.5 -13q-113 0 -177 43.5t-64 130.5z" />
    <glyph glyph-name="iogonek" unicode="&#x12f;" horiz-adv-x="595" 
d="M111 1481h399v-334h-399v334zM473 -145q22 9 29.5 3.5t7.5 -26.5v-104q0 -23 -21 -35q-31 -17 -91 -30t-126 -13q-113 0 -177 43.5t-64 130.5q0 54 33.5 96.5t125.5 79.5h-88v1059h400v-1059h-43q-88 -32 -121 -60t-33 -61q0 -57 55 -57q45 0 113 33z" />
    <glyph glyph-name="Idotaccent" unicode="&#x130;" horiz-adv-x="681" 
d="M543 1903v-334h-400v334h400zM141 1481h400v-1481h-400v1481z" />
    <glyph glyph-name="dotlessi" unicode="&#x131;" horiz-adv-x="595" 
d="M502 1059v-1059h-400v1059h400z" />
    <glyph glyph-name="IJ" unicode="&#x132;" horiz-adv-x="1552" 
d="M141 1481h400v-1481h-400v1481zM1440 469q0 -103 -11.5 -177t-40 -136t-78 -99t-126 -57t-183.5 -20q-166 0 -268 20v358q92 -10 131 -10q102 0 139 51t37 172v910h400v-1012z" />
    <glyph glyph-name="ij" unicode="&#x133;" horiz-adv-x="1202" 
d="M551 1522v-336h-399v336h399zM1141 1522v-336h-400v336h400zM551 1059v-1059h-399v1059h399zM1141 57q0 -397 -418 -397q-47 0 -81.5 9t-45.5 17l-10 9l-2 266l61 10q55 11 75.5 31.5t20.5 54.5v1002h400v-1002z" />
    <glyph glyph-name="Jcircumflex" unicode="&#x134;" horiz-adv-x="870" 
d="M582 1610l-127 168l-146 -168h-270l283 313h270l274 -313h-284zM758 469q0 -103 -11.5 -177t-40 -136t-78 -99t-126 -57t-183.5 -20q-166 0 -268 20v358q92 -10 131 -10q102 0 139 51t37 172v910h400v-1012z" />
    <glyph glyph-name="jcircumflex" unicode="&#x135;" horiz-adv-x="661" 
d="M446 1188l-127 168l-145 -168h-270l282 313h271l274 -313h-285zM522 57q0 -397 -420 -397q-47 0 -81 9t-44 17l-10 9l-2 266l60 10q55 12 76.5 32t21.5 54v1002h399v-1002z" />
    <glyph glyph-name="uni0136" unicode="&#x136;" horiz-adv-x="1540" 
d="M1497 0h-428l-330 625l-184 -238v-387h-414v1481h414v-598l428 598h449l-408 -566zM649 -492q-17 0 -24.5 14.5t0.5 26.5l67 91q15 20 8.5 38.5t-26.5 18.5h-19q-26 0 -35.5 9.5t-9.5 33.5v123q0 39 35 39h189q32 0 32 -31v-174q0 -3 -8 -27l-106 -133q-12 -17 -25.5 -23
t-40.5 -6h-37z" />
    <glyph glyph-name="uni0137" unicode="&#x137;" horiz-adv-x="1226" 
d="M1210 0h-387l-243 389l-78 -90v-299h-400v1522h400v-842l313 379h393l-387 -438zM530 -492q-17 0 -24.5 14.5t0.5 26.5l67 91q15 20 9 38.5t-27 18.5h-18q-26 0 -35.5 9.5t-9.5 33.5v123q0 39 34 39h189q33 0 33 -31v-174l-9 -27l-106 -133q-12 -17 -25.5 -23t-40.5 -6
h-37z" />
    <glyph glyph-name="kgreenlandic" unicode="&#x138;" horiz-adv-x="1290" 
d="M1274 0h-451l-180 432l-141 -133v-299h-400v1059h400v-400l352 400h391l-340 -342z" />
    <glyph glyph-name="Lacute" unicode="&#x139;" horiz-adv-x="1183" 
d="M549 1927l84 -241l-567 -136l-54 158zM141 1481h400v-1153h592v-328h-992v1481z" />
    <glyph glyph-name="lacute" unicode="&#x13a;" horiz-adv-x="706" 
d="M541 2013l84 -241l-568 -136l-53 158zM506 -23q-81 0 -145 11.5t-106 28.5t-72 46t-45.5 55t-24 65.5t-10 67t-1.5 68.5v1203h392v-1149q0 -22 4 -38.5t15 -33.5t36 -28.5t63 -16.5l43 -4v-242q-86 -33 -149 -33z" />
    <glyph glyph-name="uni013B" unicode="&#x13b;" horiz-adv-x="1183" 
d="M141 1481h400v-1153h592v-328h-992v1481zM541 -492q-17 0 -25 14.5t0 26.5l68 91q15 20 8.5 38.5t-27.5 18.5h-18q-26 0 -35.5 9.5t-9.5 33.5v123q0 39 35 39h188q33 0 33 -31v-174q0 -3 -8 -27l-107 -133q-12 -17 -25.5 -23t-39.5 -6h-37z" />
    <glyph glyph-name="uni013C" unicode="&#x13c;" horiz-adv-x="706" 
d="M506 -23q-81 0 -145 11.5t-106 28.5t-72 46t-45.5 55t-24 65.5t-10 67t-1.5 68.5v1203h392v-1149q0 -22 4 -38.5t15 -33.5t36 -28.5t63 -16.5l43 -4v-242q-86 -33 -149 -33zM193 -492q-17 0 -25 14.5t0 26.5l68 91q15 20 8.5 38.5t-27.5 18.5h-18q-26 0 -35.5 9.5
t-9.5 33.5v123q0 39 34 39h189q33 0 33 -31v-174l-9 -27l-106 -133q-12 -17 -25.5 -23t-40.5 -6h-36z" />
    <glyph glyph-name="Lcaron" unicode="&#x13d;" horiz-adv-x="1183" 
d="M141 1481h400v-1153h592v-328h-992v1481zM813 989q-12 0 -17.5 10t-0.5 21l61 154q8 20 5.5 30t-19.5 13l-25 4q-19 2 -27 8.5t-8 23.5v197q0 31 27 31h195q26 0 26 -25v-235q0 -9 -6 -21l-76 -180q-6 -17 -19 -24t-42 -7h-74z" />
    <glyph glyph-name="lcaron" unicode="&#x13e;" horiz-adv-x="696" 
d="M608 1075q-12 0 -17.5 10t-0.5 21l61 154q8 20 5.5 30t-19.5 13l-25 4q-19 2 -26.5 8.5t-7.5 23.5v197q0 31 26 31h195q26 0 26 -25v-235q0 -9 -6 -21l-76 -180q-6 -17 -19 -24t-42 -7h-74zM506 -23q-81 0 -145 11.5t-106 28.5t-72 46t-45.5 55t-24 65.5t-10 67
t-1.5 68.5v1203h392v-1149q0 -22 4 -38.5t15 -33.5t36 -28.5t63 -16.5l43 -4v-242q-86 -33 -149 -33z" />
    <glyph glyph-name="Ldot" unicode="&#x13f;" horiz-adv-x="1294" 
d="M141 1481h400v-1153h592v-328h-992v1481zM1225 1012v-357h-371v357h371z" />
    <glyph glyph-name="ldot" unicode="&#x140;" horiz-adv-x="978" 
d="M506 -23q-81 0 -145 11.5t-106 28.5t-72 46t-45.5 55t-24 65.5t-10 67t-1.5 68.5v1203h392v-1149q0 -22 4 -38.5t15 -33.5t36 -28.5t63 -16.5l43 -4v-242q-86 -33 -149 -33zM999 748v-357h-370v357h370z" />
    <glyph glyph-name="Lslash" unicode="&#x141;" horiz-adv-x="1228" 
d="M586 328h592v-328h-992v602l-131 -37q-28 -9 -39.5 0t-11.5 35v240q0 22 9.5 32t29.5 15l143 39v555h400v-449l264 70q49 14 49 -35v-227q0 -36 -41 -47l-272 -78v-387z" />
    <glyph glyph-name="lslash" unicode="&#x142;" horiz-adv-x="823" 
d="M772 256l43 -4v-242q-86 -33 -149 -33q-81 0 -145 11.5t-106 28.5t-72 46t-45.5 55t-24 65.5t-10 67t-1.5 68.5v93l-184 -121v332l184 114v785h391v-539l72 45v-313l-72 -47v-295q0 -22 4 -38.5t15.5 -33.5t36.5 -28.5t63 -16.5z" />
    <glyph glyph-name="Nacute" unicode="&#x143;" horiz-adv-x="1660" 
d="M1059 1927l84 -241l-568 -136l-53 158zM1120 1481h400v-1481h-361l-618 883v-883h-400v1481h402l577 -826v826z" />
    <glyph glyph-name="nacute" unicode="&#x144;" horiz-adv-x="1247" 
d="M856 1505l84 -241l-567 -136l-54 158zM102 0v1059h396v-127q32 33 40 41t39 32.5t53.5 32.5t63 16.5t88.5 8.5q144 0 257.5 -101.5t113.5 -246.5v-715h-399v662q0 42 -38 69t-85 27q-48 0 -88.5 -27t-40.5 -69v-662h-400z" />
    <glyph glyph-name="uni0145" unicode="&#x145;" horiz-adv-x="1660" 
d="M1120 1481h400v-1481h-361l-618 883v-883h-400v1481h402l577 -826v826zM739 -492q-17 0 -24.5 14.5t0.5 26.5l67 91q15 20 8.5 38.5t-26.5 18.5h-19q-26 0 -35.5 9.5t-9.5 33.5v123q0 39 35 39h189q32 0 32 -31v-174q0 -3 -8 -27l-106 -133q-12 -17 -25.5 -23t-40.5 -6
h-37z" />
    <glyph glyph-name="uni0146" unicode="&#x146;" horiz-adv-x="1247" 
d="M102 0v1059h396v-127q32 33 40 41t39 32.5t53.5 32.5t63 16.5t88.5 8.5q144 0 257.5 -101.5t113.5 -246.5v-715h-399v662q0 42 -38 69t-85 27q-48 0 -88.5 -27t-40.5 -69v-662h-400zM537 -492q-17 0 -25 14.5t0 26.5l68 91q15 20 8.5 38.5t-27.5 18.5h-18
q-26 0 -35.5 9.5t-9.5 33.5v123q0 39 34 39h189q33 0 33 -31v-174l-9 -27l-106 -133q-12 -17 -25.5 -23t-40.5 -6h-36z" />
    <glyph glyph-name="Ncaron" unicode="&#x147;" horiz-adv-x="1660" 
d="M954 1905h285l-274 -316h-273l-280 316h270l145 -168zM1120 1481h400v-1481h-361l-618 883v-883h-400v1481h402l577 -826v826z" />
    <glyph glyph-name="ncaron" unicode="&#x148;" horiz-adv-x="1247" 
d="M752 1483h284l-274 -316h-273l-280 316h270l146 -168zM102 0v1059h396v-127q32 33 40 41t39 32.5t53.5 32.5t63 16.5t88.5 8.5q144 0 257.5 -101.5t113.5 -246.5v-715h-399v662q0 42 -38 69t-85 27q-48 0 -88.5 -27t-40.5 -69v-662h-400z" />
    <glyph glyph-name="napostrophe" unicode="&#x149;" horiz-adv-x="1552" 
d="M123 889q-13 0 -18.5 10.5t-2.5 20.5l62 215q7 19 4.5 28.5t-18.5 12.5l-23 4q-21 2 -29 9t-8 25v236q0 31 29 31h196q27 0 27 -25v-276q0 -9 -6 -21l-76 -239q-6 -17 -18.5 -24t-40.5 -7h-78zM408 0v1059h395v-127q32 33 40 41t39 32.5t53.5 32.5t63 16.5t88.5 8.5
q144 0 257.5 -101.5t113.5 -246.5v-715h-399v662q0 42 -38 69t-85 27q-48 0 -88.5 -27t-40.5 -69v-662h-399z" />
    <glyph glyph-name="Eng" unicode="&#x14a;" horiz-adv-x="1595" 
d="M1423 1481q31 0 31 -33v-1354q0 -235 -115.5 -339.5t-349.5 -104.5q-125 0 -260 24q-35 6 -49.5 26t-11.5 60l18 228q2 25 13 37.5t34 9.5q10 -1 34 -5.5t46 -7t41 -2.5q151 0 156 156v19l-480 579q-8 10 -13 8.5t-5 -12.5v-727q1 -23 -10 -33t-39 -10h-270q-52 0 -52 41
v1395q0 24 10.5 34.5t34.5 10.5h326q25 0 37.5 -6t30.5 -29l479 -588q13 -18 22 -16.5t9 24.5v574q0 41 45 41h288z" />
    <glyph glyph-name="eng" unicode="&#x14b;" horiz-adv-x="1265" 
d="M748 -340q-51 0 -83.5 7t-39.5 13l-7 7v276l50 6q47 8 67.5 26.5t20.5 55.5v649q0 44 -29 70.5t-76 26.5q-90 0 -145 -101v-696h-404l7 1059h391v-166q70 85 158.5 135.5t183.5 50.5q140 0 226.5 -88t86.5 -235v-699q0 -182 -112.5 -289.5t-294.5 -107.5z" />
    <glyph glyph-name="Omacron" unicode="&#x14c;" horiz-adv-x="1617" 
d="M1219 1903v-244h-820v244h820zM811 -20q-330 0 -524.5 205.5t-194.5 551.5q0 229 89.5 402.5t252.5 267.5t377 94q323 0 519 -208.5t196 -555.5q0 -228 -87.5 -399.5t-249.5 -264.5t-378 -93zM811 299q283 0 283 432q0 121 -21 209.5t-59.5 140.5t-88.5 76.5t-114 24.5
q-132 0 -208.5 -108t-76.5 -343q0 -227 76.5 -329.5t208.5 -102.5z" />
    <glyph glyph-name="omacron" unicode="&#x14d;" horiz-adv-x="1177" 
d="M999 1481v-244h-819v244h819zM588 -20q-244 0 -390.5 151t-146.5 391q0 249 150.5 403t388.5 154q245 0 390.5 -155.5t145.5 -401.5q0 -239 -147 -390.5t-391 -151.5zM590 268q45 0 76.5 25t46 68t20.5 85t6 91q0 258 -149 258q-152 0 -152 -258q0 -38 3.5 -72
t13.5 -71.5t26 -64t44 -44t65 -17.5z" />
    <glyph glyph-name="Obreve" unicode="&#x14e;" horiz-adv-x="1617" 
d="M1212 1903q-43 -145 -151.5 -221t-249.5 -76q-142 0 -252.5 74.5t-152.5 222.5h215q30 -53 82 -86t108 -33q51 0 104 33t80 86h217zM811 -20q-330 0 -524.5 205.5t-194.5 551.5q0 229 89.5 402.5t252.5 267.5t377 94q323 0 519 -208.5t196 -555.5q0 -228 -87.5 -399.5
t-249.5 -264.5t-378 -93zM811 299q283 0 283 432q0 121 -21 209.5t-59.5 140.5t-88.5 76.5t-114 24.5q-132 0 -208.5 -108t-76.5 -343q0 -227 76.5 -329.5t208.5 -102.5z" />
    <glyph glyph-name="obreve" unicode="&#x14f;" horiz-adv-x="1177" 
d="M993 1481q-43 -145 -151.5 -221t-249.5 -76q-142 0 -253 74.5t-153 222.5h215q30 -53 82 -86t109 -33q51 0 104 33t80 86h217zM588 -20q-244 0 -390.5 151t-146.5 391q0 249 150.5 403t388.5 154q245 0 390.5 -155.5t145.5 -401.5q0 -239 -147 -390.5t-391 -151.5z
M590 268q45 0 76.5 25t46 68t20.5 85t6 91q0 258 -149 258q-152 0 -152 -258q0 -38 3.5 -72t13.5 -71.5t26 -64t44 -44t65 -17.5z" />
    <glyph glyph-name="Ohungarumlaut" unicode="&#x150;" horiz-adv-x="1617" 
d="M698 1905l101 -119q41 -48 -8 -74l-285 -160q-27 -15 -37.5 -15.5t-26.5 15.5l-67 70q-12 13 -13.5 27.5t7.5 21.5l282 238q12 11 25 10t22 -14zM1137 1905l100 -119q36 -49 -8 -74l-287 -160q-25 -15 -35.5 -15.5t-27.5 15.5l-66 70q-13 13 -15 27.5t9 21.5l280 238
q28 24 50 -4zM811 -20q-330 0 -524.5 205.5t-194.5 551.5q0 229 89.5 402.5t252.5 267.5t377 94q323 0 519 -208.5t196 -555.5q0 -228 -87.5 -399.5t-249.5 -264.5t-378 -93zM811 299q283 0 283 432q0 121 -21 209.5t-59.5 140.5t-88.5 76.5t-114 24.5q-132 0 -208.5 -108
t-76.5 -343q0 -227 76.5 -329.5t208.5 -102.5z" />
    <glyph glyph-name="ohungarumlaut" unicode="&#x151;" horiz-adv-x="1177" 
d="M479 1483l101 -119q40 -47 -9 -74l-284 -160q-27 -15 -37.5 -15.5t-26.5 15.5l-67 70q-12 13 -13.5 27.5t7.5 21.5l282 238q12 11 25 10t22 -14zM918 1483l100 -119q36 -49 -8 -74l-287 -160q-25 -15 -36 -15.5t-28 15.5l-65 70q-13 13 -15 27.5t9 21.5l280 238
q28 24 50 -4zM588 -20q-244 0 -390.5 151t-146.5 391q0 249 150.5 403t388.5 154q245 0 390.5 -155.5t145.5 -401.5q0 -239 -147 -390.5t-391 -151.5zM590 268q45 0 76.5 25t46 68t20.5 85t6 91q0 258 -149 258q-152 0 -152 -258q0 -38 3.5 -72t13.5 -71.5t26 -64t44 -44
t65 -17.5z" />
    <glyph glyph-name="OE" unicode="&#x152;" horiz-adv-x="2330" 
d="M2220 328v-328h-1104q-109 -20 -280 -20q-347 0 -545.5 204.5t-198.5 552.5q0 350 204.5 557t561.5 207q158 0 258 -20h1088l-2 -326h-699v-250h439v-321h-439v-256h717zM811 291q131 0 185.5 100.5t54.5 339.5q0 247 -56 355t-184 108q-130 0 -187 -107.5t-57 -355.5
q0 -240 55.5 -340t188.5 -100z" />
    <glyph glyph-name="oe" unicode="&#x153;" horiz-adv-x="1904" 
d="M606 -20q-244 0 -399.5 152t-155.5 390q0 164 73.5 291.5t200 196.5t283.5 69q189 0 334 -98q15 -11 25.5 -11t25.5 11q137 98 314 98q240 0 391 -166.5t151 -455.5h-688q0 -104 57.5 -158.5t149.5 -54.5q56 0 109 28t122 97l242 -99q-109 -166 -227 -228t-299 -62
q-192 0 -338 100q-16 11 -35 -2q-148 -98 -336 -98zM1323 844q-67 0 -112 -45.5t-44 -132.5l295 -2q0 35 -13 74t-46.5 72.5t-79.5 33.5zM608 236q81 0 117.5 70t36.5 224q0 159 -36 230t-118 71q-79 0 -116 -72t-37 -229q0 -154 37 -224t116 -70z" />
    <glyph glyph-name="Racute" unicode="&#x154;" horiz-adv-x="1468" 
d="M948 1927l84 -241l-567 -136l-53 158zM1372 0h-407l-215 510h-209v-510h-400v1481h672q140 0 245 -36.5t167.5 -102t92.5 -150t30 -188.5q0 -160 -61.5 -261t-174.5 -170zM768 807q74 0 126 59t52 133q0 75 -54.5 131t-123.5 56h-227v-379h227z" />
    <glyph glyph-name="racute" unicode="&#x155;" horiz-adv-x="862" 
d="M713 1505l84 -241l-568 -136l-53 158zM102 0v1059h385v-293q40 140 129 226.5t228 86.5l2 -374q-74 5 -128.5 4t-92.5 -16.5t-62 -32.5t-37.5 -44.5t-18.5 -52t-5 -55.5v-508h-400z" />
    <glyph glyph-name="uni0156" unicode="&#x156;" horiz-adv-x="1468" 
d="M1372 0h-407l-215 510h-209v-510h-400v1481h672q140 0 245 -36.5t167.5 -102t92.5 -150t30 -188.5q0 -160 -61.5 -261t-174.5 -170zM768 807q74 0 126 59t52 133q0 75 -54.5 131t-123.5 56h-227v-379h227zM649 -492q-17 0 -24.5 14.5t0.5 26.5l67 91q15 20 8.5 38.5
t-26.5 18.5h-19q-26 0 -35.5 9.5t-9.5 33.5v123q0 39 35 39h189q32 0 32 -31v-174q0 -3 -8 -27l-106 -133q-12 -17 -25.5 -23t-40.5 -6h-37z" />
    <glyph glyph-name="uni0157" unicode="&#x157;" horiz-adv-x="862" 
d="M102 0v1059h385v-293q40 140 129 226.5t228 86.5l2 -374q-74 5 -128.5 4t-92.5 -16.5t-62 -32.5t-37.5 -44.5t-18.5 -52t-5 -55.5v-508h-400zM236 -492q-17 0 -25 14.5t0 26.5l68 91q15 20 8.5 38.5t-27.5 18.5h-18q-26 0 -35.5 9.5t-9.5 33.5v123q0 39 34 39h189
q33 0 33 -31v-174l-9 -27l-106 -133q-12 -17 -25.5 -23t-40.5 -6h-36z" />
    <glyph glyph-name="Rcaron" unicode="&#x158;" horiz-adv-x="1468" 
d="M844 1905h284l-274 -316h-272l-281 316h270l146 -168zM1372 0h-407l-215 510h-209v-510h-400v1481h672q140 0 245 -36.5t167.5 -102t92.5 -150t30 -188.5q0 -160 -61.5 -261t-174.5 -170zM768 807q74 0 126 59t52 133q0 75 -54.5 131t-123.5 56h-227v-379h227z" />
    <glyph glyph-name="rcaron" unicode="&#x159;" horiz-adv-x="862" 
d="M608 1483h285l-275 -316h-272l-280 316h270l145 -168zM102 0v1059h385v-293q40 140 129 226.5t228 86.5l2 -374q-74 5 -128.5 4t-92.5 -16.5t-62 -32.5t-37.5 -44.5t-18.5 -52t-5 -55.5v-508h-400z" />
    <glyph glyph-name="Sacute" unicode="&#x15a;" horiz-adv-x="1482" 
d="M975 1927l84 -241l-567 -136l-54 158zM752 -20q-96 0 -187 17t-175.5 54t-149.5 91t-107.5 133.5t-50.5 175.5h414q17 -78 83.5 -122t170.5 -44q106 0 174.5 31.5t68.5 103.5q0 22 -9 39.5t-28.5 30.5t-38.5 22t-53 16.5t-56.5 12t-62.5 10.5l-231 39q-178 29 -282 140.5
t-107 295.5q-2 145 82.5 254t224.5 164t313 55q132 0 249.5 -38.5t200 -103.5t134.5 -149.5t62 -175.5h-404q-9 84 -67.5 122t-165.5 38t-155 -35t-48 -82q0 -53 34.5 -82.5t127.5 -46.5l231 -39q89 -15 160.5 -43t118.5 -60t81.5 -74t52.5 -79.5t28.5 -83t13 -77.5t2.5 -70
q0 -124 -84.5 -225t-233 -158t-331.5 -57z" />
    <glyph glyph-name="sacute" unicode="&#x15b;" horiz-adv-x="1107" 
d="M801 1505l84 -241l-568 -136l-53 158zM567 -20q-69 0 -133.5 11t-127.5 37t-112.5 65.5t-85.5 102t-49 140.5h328q11 -30 30.5 -49.5t46.5 -28t51 -11.5t58 -3q71 0 106.5 16.5t35.5 44.5q0 31 -31 46.5t-96 27.5l-158 24q-337 61 -340 324q-2 153 127 252.5t354 99.5
q218 0 347.5 -95t123.5 -255h-323q-21 98 -158 98q-127 0 -127 -67q0 -28 37 -45t123 -31l135 -25q78 -19 137.5 -51.5t93 -67.5t54.5 -76.5t28 -73.5t7 -62q0 -110 -65 -190t-172.5 -119t-244.5 -39z" />
    <glyph glyph-name="Scircumflex" unicode="&#x15c;" horiz-adv-x="1482" 
d="M870 1610l-127 168l-145 -168h-270l282 313h271l274 -313h-285zM752 -20q-96 0 -187 17t-175.5 54t-149.5 91t-107.5 133.5t-50.5 175.5h414q17 -78 83.5 -122t170.5 -44q106 0 174.5 31.5t68.5 103.5q0 22 -9 39.5t-28.5 30.5t-38.5 22t-53 16.5t-56.5 12t-62.5 10.5
l-231 39q-178 29 -282 140.5t-107 295.5q-2 145 82.5 254t224.5 164t313 55q132 0 249.5 -38.5t200 -103.5t134.5 -149.5t62 -175.5h-404q-9 84 -67.5 122t-165.5 38t-155 -35t-48 -82q0 -53 34.5 -82.5t127.5 -46.5l231 -39q89 -15 160.5 -43t118.5 -60t81.5 -74
t52.5 -79.5t28.5 -83t13 -77.5t2.5 -70q0 -124 -84.5 -225t-233 -158t-331.5 -57z" />
    <glyph glyph-name="scircumflex" unicode="&#x15d;" horiz-adv-x="1107" 
d="M696 1188l-127 168l-145 -168h-270l282 313h271l274 -313h-285zM567 -20q-69 0 -133.5 11t-127.5 37t-112.5 65.5t-85.5 102t-49 140.5h328q11 -30 30.5 -49.5t46.5 -28t51 -11.5t58 -3q71 0 106.5 16.5t35.5 44.5q0 31 -31 46.5t-96 27.5l-158 24q-337 61 -340 324
q-2 153 127 252.5t354 99.5q218 0 347.5 -95t123.5 -255h-323q-21 98 -158 98q-127 0 -127 -67q0 -28 37 -45t123 -31l135 -25q78 -19 137.5 -51.5t93 -67.5t54.5 -76.5t28 -73.5t7 -62q0 -110 -65 -190t-172.5 -119t-244.5 -39z" />
    <glyph glyph-name="Scedilla" unicode="&#x15e;" horiz-adv-x="1482" 
d="M1401 420q0 -176 -162 -297.5t-414 -140.5l-32 -88q116 0 172.5 -51t56.5 -117q0 -77 -78.5 -126t-187.5 -49q-171 0 -273 60l49 121q98 -54 175 -54q42 0 68 14.5t26 39.5q0 39 -42 58.5t-141 19.5q-17 0 -21 3.5t1 20.5l64 150q-87 8 -166.5 29.5t-152.5 60t-128 91
t-90.5 126t-42.5 160.5h414q17 -78 83.5 -122t170.5 -44q106 0 174.5 31.5t68.5 103.5q0 22 -9 39.5t-28.5 30.5t-38.5 22t-53 16.5t-56.5 12t-62.5 10.5l-231 39q-178 29 -282 140.5t-107 295.5q-2 145 82.5 254t224.5 164t313 55q132 0 249.5 -38.5t200 -103.5
t134.5 -149.5t62 -175.5h-404q-9 84 -67.5 122t-165.5 38t-155 -35t-48 -82q0 -53 34.5 -82.5t127.5 -46.5l231 -39q89 -15 160.5 -43t118.5 -60t81.5 -74t52.5 -79.5t28.5 -83t13 -77.5t2.5 -70z" />
    <glyph glyph-name="scedilla" unicode="&#x15f;" horiz-adv-x="1107" 
d="M1049 328q0 -147 -110.5 -236.5t-289.5 -107.5l-33 -90q116 0 173 -51t57 -117q0 -77 -78.5 -126t-187.5 -49q-171 0 -273 60l49 121q98 -54 174 -54q42 0 68.5 15t26.5 39q0 39 -42 58.5t-141 19.5q-17 0 -21 3.5t1 20.5l63 150q-77 8 -144 30.5t-126.5 63t-100.5 106.5
t-55 152h328q11 -30 30.5 -49.5t46.5 -28t51 -11.5t58 -3q71 0 106.5 16.5t35.5 44.5q0 31 -31 46.5t-96 27.5l-158 24q-337 61 -340 324q-2 153 127 252.5t354 99.5q218 0 347.5 -95t123.5 -255h-323q-21 98 -158 98q-127 0 -127 -67q0 -28 37 -45t123 -31l135 -25
q78 -19 137.5 -51.5t93 -67.5t54.5 -76.5t28 -73.5t7 -62z" />
    <glyph glyph-name="Scaron" unicode="&#x160;" horiz-adv-x="1482" 
d="M870 1905h285l-274 -316h-273l-280 316h270l145 -168zM752 -20q-96 0 -187 17t-175.5 54t-149.5 91t-107.5 133.5t-50.5 175.5h414q17 -78 83.5 -122t170.5 -44q106 0 174.5 31.5t68.5 103.5q0 22 -9 39.5t-28.5 30.5t-38.5 22t-53 16.5t-56.5 12t-62.5 10.5l-231 39
q-178 29 -282 140.5t-107 295.5q-2 145 82.5 254t224.5 164t313 55q132 0 249.5 -38.5t200 -103.5t134.5 -149.5t62 -175.5h-404q-9 84 -67.5 122t-165.5 38t-155 -35t-48 -82q0 -53 34.5 -82.5t127.5 -46.5l231 -39q89 -15 160.5 -43t118.5 -60t81.5 -74t52.5 -79.5
t28.5 -83t13 -77.5t2.5 -70q0 -124 -84.5 -225t-233 -158t-331.5 -57z" />
    <glyph glyph-name="scaron" unicode="&#x161;" horiz-adv-x="1107" 
d="M696 1483h285l-274 -316h-273l-280 316h270l145 -168zM567 -20q-69 0 -133.5 11t-127.5 37t-112.5 65.5t-85.5 102t-49 140.5h328q11 -30 30.5 -49.5t46.5 -28t51 -11.5t58 -3q71 0 106.5 16.5t35.5 44.5q0 31 -31 46.5t-96 27.5l-158 24q-337 61 -340 324
q-2 153 127 252.5t354 99.5q218 0 347.5 -95t123.5 -255h-323q-21 98 -158 98q-127 0 -127 -67q0 -28 37 -45t123 -31l135 -25q78 -19 137.5 -51.5t93 -67.5t54.5 -76.5t28 -73.5t7 -62q0 -110 -65 -190t-172.5 -119t-244.5 -39z" />
    <glyph glyph-name="uni0162" unicode="&#x162;" horiz-adv-x="1308" 
d="M852 0h-94l-39 -106q116 0 172.5 -51t56.5 -117q0 -77 -78.5 -126t-187.5 -49q-170 0 -272 60l49 121q98 -54 174 -54q42 0 68 14.5t26 39.5q0 39 -41.5 58.5t-140.5 19.5q-17 0 -21.5 3.5t0.5 20.5l72 166h-143v1130h-420v351h1243v-351h-424v-1130z" />
    <glyph glyph-name="uni0163" unicode="&#x163;" horiz-adv-x="905" 
d="M829 1061v-273h-231l2 -479q0 -57 64 -57h165v-236q-66 -32 -211 -32h-6l-32 -90q116 0 172.5 -51t56.5 -117q0 -77 -78.5 -126t-187.5 -49q-171 0 -273 60l49 121q98 -54 175 -54q42 0 68 14.5t26 39.5q0 39 -41.5 58.5t-140.5 19.5q-17 0 -21.5 3.5t0.5 20.5l70 164
q-72 14 -123 42.5t-79 68t-40 84t-12 98.5v497h-172v271h186l59 330h324v-328h231z" />
    <glyph glyph-name="Tcaron" unicode="&#x164;" horiz-adv-x="1308" 
d="M797 1905h284l-274 -316h-272l-281 316h270l146 -168zM33 1130v351h1243v-351h-424v-1130h-399v1130h-420z" />
    <glyph glyph-name="tcaron" unicode="&#x165;" horiz-adv-x="905" 
d="M682 1137q-12 0 -17.5 9.5t-0.5 20.5l61 154q8 20 5.5 30t-19.5 13l-25 4q-19 2 -27 9t-8 24v196q0 31 27 31h194q27 0 27 -24v-236q0 -8 -6 -20l-76 -181q-6 -17 -19 -23.5t-42 -6.5h-74zM829 788h-231l2 -479q0 -57 64 -57h165v-236q-66 -32 -211 -32
q-121 0 -205.5 23.5t-129 67t-63.5 96t-19 120.5v497h-172v271h186l59 330h324v-328h231v-273z" />
    <glyph glyph-name="Tbar" unicode="&#x166;" horiz-adv-x="1308" 
d="M1276 1130h-424v-288h231v-281h-231v-561h-399v561h-244v281h244v288h-420v351h1243v-351z" />
    <glyph glyph-name="tbar" unicode="&#x167;" horiz-adv-x="1019" 
d="M907 788h-231v-112h164v-215h-162v-152q0 -57 63 -57h166v-236q-66 -32 -211 -32q-121 0 -205.5 23.5t-129 67t-63.5 96t-19 120.5v170h-181v215h181v112h-173v271h187l59 330h324v-328h231v-273z" />
    <glyph glyph-name="Utilde" unicode="&#x168;" horiz-adv-x="1531" 
d="M1112 1698q-35 -25 -89 -42.5t-112 -17.5q-60 0 -163 31t-160 31q-41 0 -72.5 -10.5t-69.5 -38.5q-17 -13 -28.5 -10.5t-18.5 24.5l-32 109q-7 13 -5 28t21 33q41 39 85.5 60.5t109.5 21.5q68 0 178 -34t153 -34q76 0 154 56q10 7 20 8.5t18 -5t11 -20.5l27 -131
q9 -33 -27 -59zM1419 612q0 -146 -33.5 -258.5t-106.5 -198t-198.5 -130.5t-300.5 -45t-300.5 45t-198.5 130.5t-106.5 198t-33.5 258.5v869h404v-885q0 -144 66 -213.5t169 -69.5q102 0 169 69.5t67 213.5v885h403v-869z" />
    <glyph glyph-name="utilde" unicode="&#x169;" horiz-adv-x="1247" 
d="M995 1276q-82 -59 -200 -59q-60 0 -163.5 30.5t-160.5 30.5q-41 0 -72 -10.5t-69 -38.5q-17 -13 -28.5 -10.5t-18.5 24.5l-33 109q-7 13 -5 28t21 33q41 39 85.5 60.5t109.5 21.5q68 0 178.5 -34t153.5 -34q75 0 153 56q10 7 20 8.5t18 -5t11 -20.5l27 -131
q9 -33 -27 -59zM494 -20q-66 0 -134 22.5t-126 63.5t-95 106t-37 141v746h400v-690q0 -48 32.5 -78.5t90.5 -30.5t91.5 31t33.5 78v690h403l-8 -1059h-295l-47 217q-44 -237 -309 -237z" />
    <glyph glyph-name="Umacron" unicode="&#x16a;" horiz-adv-x="1531" 
d="M1153 1903v-244h-819v244h819zM1419 612q0 -146 -33.5 -258.5t-106.5 -198t-198.5 -130.5t-300.5 -45t-300.5 45t-198.5 130.5t-106.5 198t-33.5 258.5v869h404v-885q0 -144 66 -213.5t169 -69.5q102 0 169 69.5t67 213.5v885h403v-869z" />
    <glyph glyph-name="umacron" unicode="&#x16b;" horiz-adv-x="1247" 
d="M1036 1481v-244h-819v244h819zM494 -20q-66 0 -134 22.5t-126 63.5t-95 106t-37 141v746h400v-690q0 -48 32.5 -78.5t90.5 -30.5t91.5 31t33.5 78v690h403l-8 -1059h-295l-47 217q-44 -237 -309 -237z" />
    <glyph glyph-name="Ubreve" unicode="&#x16c;" horiz-adv-x="1531" 
d="M1147 1903q-43 -145 -152 -221t-250 -76q-142 0 -252.5 74.5t-152.5 222.5h215q30 -53 82 -86t108 -33q51 0 104.5 33t80.5 86h217zM1419 612q0 -146 -33.5 -258.5t-106.5 -198t-198.5 -130.5t-300.5 -45t-300.5 45t-198.5 130.5t-106.5 198t-33.5 258.5v869h404v-885
q0 -144 66 -213.5t169 -69.5q102 0 169 69.5t67 213.5v885h403v-869z" />
    <glyph glyph-name="ubreve" unicode="&#x16d;" horiz-adv-x="1247" 
d="M1030 1481q-43 -145 -151.5 -221t-249.5 -76q-142 0 -253 74.5t-153 222.5h215q30 -53 82 -86t109 -33q51 0 104 33t80 86h217zM494 -20q-66 0 -134 22.5t-126 63.5t-95 106t-37 141v746h400v-690q0 -48 32.5 -78.5t90.5 -30.5t91.5 31t33.5 78v690h403l-8 -1059h-295
l-47 217q-44 -237 -309 -237z" />
    <glyph glyph-name="Uring" unicode="&#x16e;" horiz-adv-x="1531" 
d="M977 1800q0 -98 -68.5 -165.5t-165.5 -67.5q-98 0 -165.5 68.5t-67.5 168.5q0 94 68 160t165 66t165.5 -67.5t68.5 -162.5zM836 1798q0 40 -27.5 67t-67.5 27t-69 -27.5t-29 -66.5t29.5 -68.5t68.5 -29.5t67 29.5t28 68.5zM1419 612q0 -146 -33.5 -258.5t-106.5 -198
t-198.5 -130.5t-300.5 -45t-300.5 45t-198.5 130.5t-106.5 198t-33.5 258.5v869h404v-885q0 -144 66 -213.5t169 -69.5q102 0 169 69.5t67 213.5v885h403v-869z" />
    <glyph glyph-name="uring" unicode="&#x16f;" horiz-adv-x="1247" 
d="M860 1378q0 -98 -68 -165.5t-165 -67.5q-98 0 -166 68.5t-68 168.5q0 94 68.5 160t165.5 66t165 -67.5t68 -162.5zM719 1376q0 40 -27 67t-67 27t-69.5 -27.5t-29.5 -66.5q0 -38 30 -68t69 -30t66.5 29.5t27.5 68.5zM494 -20q-66 0 -134 22.5t-126 63.5t-95 106t-37 141
v746h400v-690q0 -48 32.5 -78.5t90.5 -30.5t91.5 31t33.5 78v690h403l-8 -1059h-295l-47 217q-44 -237 -309 -237z" />
    <glyph glyph-name="Uhungarumlaut" unicode="&#x170;" horiz-adv-x="1531" 
d="M633 1905l100 -119q41 -48 -8 -74l-285 -160q-19 -10 -28 -13.5t-17.5 -0.5t-17.5 14l-68 70q-12 13 -13.5 27.5t7.5 21.5l283 238q12 11 25 10t22 -14zM1071 1905l100 -119q36 -49 -8 -74l-286 -160q-25 -15 -36 -15.5t-28 15.5l-65 70q-14 14 -16 28t9 21l281 238
q27 24 49 -4zM1419 612q0 -146 -33.5 -258.5t-106.5 -198t-198.5 -130.5t-300.5 -45t-300.5 45t-198.5 130.5t-106.5 198t-33.5 258.5v869h404v-885q0 -144 66 -213.5t169 -69.5q102 0 169 69.5t67 213.5v885h403v-869z" />
    <glyph glyph-name="uhungarumlaut" unicode="&#x171;" horiz-adv-x="1247" 
d="M516 1483l100 -119q41 -48 -8 -74l-284 -160q-27 -15 -37.5 -15.5t-26.5 15.5l-67 70q-12 13 -14 27.5t7 21.5l283 238q12 11 25 10t22 -14zM954 1483l101 -119q36 -49 -8 -74l-287 -160q-25 -15 -36 -15.5t-28 15.5l-65 70q-13 13 -15 27.5t9 21.5l280 238q27 24 49 -4z
M494 -20q-66 0 -134 22.5t-126 63.5t-95 106t-37 141v746h400v-690q0 -48 32.5 -78.5t90.5 -30.5t91.5 31t33.5 78v690h403l-8 -1059h-295l-47 217q-44 -237 -309 -237z" />
    <glyph glyph-name="Uogonek" unicode="&#x172;" horiz-adv-x="1531" 
d="M1016 1481h403v-869q0 -132 -27 -236.5t-86.5 -188t-160 -134.5t-240.5 -67q-58 -25 -80 -48.5t-22 -52.5q0 -57 55 -57q45 0 113 33q22 9 29.5 3.5t7.5 -26.5v-104q0 -23 -21 -35q-31 -17 -91 -30t-126 -13q-113 0 -177.5 43.5t-64.5 130.5q0 47 25 85.5t92 72.5
q-137 17 -235.5 68.5t-156.5 134.5t-85 186.5t-27 234.5v869h404v-885q0 -144 66 -213.5t169 -69.5q102 0 169 69.5t67 213.5v885z" />
    <glyph glyph-name="uogonek" unicode="&#x173;" horiz-adv-x="1247" 
d="M1118 -143q22 9 29.5 3.5t7.5 -26.5v-104q0 -24 -20 -35q-31 -17 -91 -30t-126 -13q-113 0 -177.5 43.5t-64.5 130.5q0 56 36.5 100t135.5 82l-45 209q-44 -237 -309 -237q-66 0 -134 22.5t-126 63.5t-95 106t-37 141v746h400v-690q0 -48 32.5 -78.5t90.5 -30.5t91.5 31
t33.5 78v690h403l-8 -1059h-45q-86 -30 -118 -58t-32 -61q0 -57 56 -57q44 0 112 33z" />
    <glyph glyph-name="Wcircumflex" unicode="&#x174;" horiz-adv-x="2015" 
d="M1133 1610l-127 168l-146 -168h-270l282 313h271l274 -313h-284zM1982 1481l-442 -1481h-297l-235 805l-236 -805h-293l-446 1481h385l229 -795l221 795h279l229 -795l221 795h385z" />
    <glyph glyph-name="wcircumflex" unicode="&#x175;" horiz-adv-x="1626" 
d="M946 1188l-127 168l-145 -168h-271l283 313h270l275 -313h-285zM1620 1059l-373 -1059h-284l-158 514l-168 -514h-272l-359 1059h346l166 -514l156 514h276l152 -516l164 516h354z" />
    <glyph glyph-name="Ycircumflex" unicode="&#x176;" horiz-adv-x="1470" 
d="M909 1610l-127 168l-145 -168h-270l282 313h271l274 -313h-285zM1458 1481l-526 -865v-616h-400v616l-522 865h430l293 -527l291 527h434z" />
    <glyph glyph-name="ycircumflex" unicode="&#x177;" horiz-adv-x="1202" 
d="M774 1188l-127 168l-145 -168h-271l283 313h270l275 -313h-285zM322 -338q-73 0 -131 11t-79 23l-22 11v252l103 -6q194 -15 220 85q1 2 1 3l4 20l-412 998h391l201 -576l209 576h389l-414 -998q-40 -98 -83 -169.5t-85 -115.5t-91 -69.5t-96 -35t-105 -9.5z" />
    <glyph glyph-name="Ydieresis" unicode="&#x178;" horiz-adv-x="1470" 
d="M715 1903v-285h-340v285h340zM1194 1903v-285h-340v285h340zM1458 1481l-526 -865v-616h-400v616l-522 865h430l293 -527l291 527h434z" />
    <glyph glyph-name="Zacute" unicode="&#x179;" horiz-adv-x="1445" 
d="M1010 1927l84 -241l-568 -136l-53 158zM92 0v182l699 971h-633v328h1206v-174l-713 -975h701v-332h-1260z" />
    <glyph glyph-name="zacute" unicode="&#x17a;" horiz-adv-x="1124" 
d="M803 1505l84 -241l-568 -136l-53 158zM55 0v188l494 627h-449v244h955v-182l-500 -629h502v-248h-1002z" />
    <glyph glyph-name="Zdotaccent" unicode="&#x17b;" horiz-adv-x="1445" 
d="M981 1903v-334h-399v334h399zM92 0v182l699 971h-633v328h1206v-174l-713 -975h701v-332h-1260z" />
    <glyph glyph-name="zdotaccent" unicode="&#x17c;" horiz-adv-x="1124" 
d="M774 1481v-334h-399v334h399zM55 0v188l494 627h-449v244h955v-182l-500 -629h502v-248h-1002z" />
    <glyph glyph-name="Zcaron" unicode="&#x17d;" horiz-adv-x="1445" 
d="M905 1905h285l-275 -316h-272l-281 316h271l145 -168zM92 0v182l699 971h-633v328h1206v-174l-713 -975h701v-332h-1260z" />
    <glyph glyph-name="zcaron" unicode="&#x17e;" horiz-adv-x="1124" 
d="M698 1483h285l-274 -316h-273l-280 316h270l145 -168zM55 0v188l494 627h-449v244h955v-182l-500 -629h502v-248h-1002z" />
    <glyph glyph-name="uni018F" unicode="&#x18f;" horiz-adv-x="1613" 
d="M1042 893q0 262 -233 262q-89 0 -154 -51t-137 -168q-12 -22 -55 -2l-275 137q-34 13 -10 62q186 368 627 368q218 0 381.5 -94.5t249.5 -261.5t86 -385q0 -163 -59 -308.5t-157.5 -248.5t-231 -163t-275.5 -60q-346 0 -526.5 208t-180.5 594q0 26 2 38t12.5 20t32.5 8
h865q38 0 38 45zM1038 567l-417 2q-25 0 -34 -7t-9 -30q0 -102 59.5 -171.5t157.5 -69.5q117 0 171 66t72 210z" />
    <glyph glyph-name="florin" unicode="&#x192;" horiz-adv-x="1177" 
d="M1063 1059l-49 -271h-191l-149 -849q-23 -131 -122 -207t-245 -76h-291l39 260h125q53 0 76 25t35 100l133 747h-172l47 271h172l25 141q25 131 122 206t242 75h285l-43 -258h-123q-35 0 -68.5 -31t-40.5 -72l-10 -61h203z" />
    <glyph glyph-name="uni01C4" unicode="&#x1c4;" horiz-adv-x="2967" 
d="M2427 1905h285l-275 -316h-272l-281 316h270l146 -168zM141 1481q469 0 533 -2q197 -7 345 -63t239.5 -154t136.5 -227.5t45 -289.5q0 -164 -47 -299t-139.5 -235t-241 -155.5t-340.5 -55.5h-531v1481zM1614 0v182l698 971h-633v328h1207v-174l-713 -975h700v-332h-1259z
M541 1167v-854h143q48 0 94 14.5t91 48t79 82.5t55 125t21 169q0 200 -92 307.5t-248 107.5h-143z" />
    <glyph glyph-name="uni01C5" unicode="&#x1c5;" horiz-adv-x="2646" 
d="M2220 1483h285l-275 -316h-272l-281 316h271l145 -168zM141 1481q469 0 533 -2q197 -7 345 -63t239.5 -154t136.5 -227.5t45 -289.5q0 -164 -47 -299t-139.5 -235t-241 -155.5t-340.5 -55.5h-531v1481zM541 1167v-854h143q48 0 94 14.5t91 48t79 82.5t55 125t21 169
q0 200 -92 307.5t-248 107.5h-143zM1577 0v188l494 627h-449v244h954v-182l-499 -629h501v-248h-1001z" />
    <glyph glyph-name="uni01C6" unicode="&#x1c6;" horiz-adv-x="2373" 
d="M506 -20q-217 0 -336 150t-119 407q0 252 109 397t303 145q90 0 168.5 -33t124.5 -108v584h399v-1522h-283l-47 217q-76 -237 -319 -237zM1948 1483h284l-274 -316h-272l-281 316h270l146 -168zM1305 0v188l493 627h-448v244h954v-182l-500 -629h502v-248h-1001zM602 258
q69 0 111.5 58.5t42.5 172.5v93q0 217 -158 217q-34 0 -60.5 -11t-50.5 -37.5t-37.5 -79.5t-13.5 -130q0 -150 45 -216.5t121 -66.5z" />
    <glyph glyph-name="uni01C7" unicode="&#x1c7;" horiz-adv-x="2136" 
d="M141 1481h400v-1153h592v-328h-992v1481zM2023 469q0 -104 -11 -177.5t-40 -135.5t-78.5 -99t-125.5 -57t-183 -20q-166 0 -268 20v358q93 -10 131 -10q102 0 139 51t37 172v910h399v-1012z" />
    <glyph glyph-name="uni01C8" unicode="&#x1c8;" horiz-adv-x="1830" 
d="M1720 1522v-336h-399v336h399zM141 1481h400v-1153h592v-328h-992v1481zM1720 57q0 -397 -417 -397q-47 0 -81.5 9t-45.5 17l-11 9l-2 266l62 10q55 11 75.5 31.5t20.5 54.5v1002h399v-1002z" />
    <glyph glyph-name="uni01C9" unicode="&#x1c9;" horiz-adv-x="1325" 
d="M555 -23q-81 0 -145 11.5t-106 28.5t-71.5 46t-45 55t-24 65.5t-10 66.5t-1.5 69v1203h391v-1149q0 -22 4 -38.5t15.5 -33.5t36.5 -28.5t63 -16.5l43 -4v-242q-86 -33 -150 -33zM1264 1522v-336h-400v336h400zM1264 57q0 -397 -418 -397q-47 0 -81.5 9t-44.5 17l-11 9
l-2 266l61 10q55 11 75.5 31.5t20.5 54.5v1002h400v-1002z" />
    <glyph glyph-name="uni01CA" unicode="&#x1ca;" horiz-adv-x="2560" 
d="M1120 1481h400v-1481h-361l-618 883v-883h-400v1481h402l577 -826v826zM2419 469q0 -103 -11.5 -177t-40 -136t-78 -99t-126 -57t-183.5 -20q-166 0 -268 20v358q92 -10 131 -10q102 0 139 51t37 172v910h400v-1012z" />
    <glyph glyph-name="uni01CB" unicode="&#x1cb;" horiz-adv-x="2308" 
d="M2198 1522v-336h-400v336h400zM1120 1481h400v-1481h-361l-618 883v-883h-400v1481h402l577 -826v826zM2198 57q0 -397 -418 -397q-47 0 -81.5 9t-45.5 17l-11 9l-2 266l62 10q55 11 75.5 31.5t20.5 54.5v1002h400v-1002z" />
    <glyph glyph-name="uni01CC" unicode="&#x1cc;" horiz-adv-x="1832" 
d="M1772 1522v-336h-400v336h400zM152 0v1059h395v-127q32 33 40 41t39 32.5t53.5 32.5t63 16.5t88.5 8.5q144 0 257.5 -101.5t113.5 -246.5v-715h-399v662q0 42 -38 69t-85 27q-48 0 -88.5 -27t-40.5 -69v-662h-399zM1772 57q0 -397 -418 -397q-47 0 -81.5 9t-44.5 17
l-11 9l-3 266l62 10q55 11 75.5 31.5t20.5 54.5v1002h400v-1002z" />
    <glyph glyph-name="uni01EA" unicode="&#x1ea;" horiz-adv-x="1617" 
d="M1016 4q-92 -32 -126 -60t-34 -63q0 -57 55 -57q45 0 113 33q22 9 29.5 3.5t7.5 -26.5v-104q0 -23 -21 -35q-31 -17 -91 -30t-126 -13q-113 0 -177 43.5t-64 130.5q0 48 26.5 87t96.5 73q-285 34 -449 234.5t-164 516.5q0 229 89.5 402.5t252.5 267.5t377 94
q323 0 519 -208.5t196 -555.5q0 -285 -136 -479t-374 -254zM526 731q0 -227 76.5 -329.5t208.5 -102.5q283 0 283 432q0 121 -21 209.5t-59.5 140.5t-88.5 76.5t-114 24.5q-132 0 -208.5 -108t-76.5 -343z" />
    <glyph glyph-name="uni01EB" unicode="&#x1eb;" horiz-adv-x="1177" 
d="M1126 522q0 -184 -88.5 -319.5t-246.5 -190.5q-8 -4 -15 -4q-97 -33 -133.5 -62.5t-36.5 -64.5q0 -57 56 -57q44 0 112 33q22 9 29.5 3.5t7.5 -26.5v-104q0 -24 -20 -35q-31 -17 -91.5 -30t-126.5 -13q-113 0 -177 43.5t-64 130.5q0 50 28 90.5t105 75.5
q-192 37 -303 180t-111 350q0 249 150.5 403t388.5 154q245 0 390.5 -155.5t145.5 -401.5zM590 795q-152 0 -152 -258q0 -38 3.5 -72t13.5 -71.5t26 -64t44 -44t65 -17.5q45 0 76.5 25t46 68t20.5 85t6 91q0 258 -149 258z" />
    <glyph glyph-name="uni01F1" unicode="&#x1f1;" horiz-adv-x="2967" 
d="M141 1481q469 0 533 -2q197 -7 345 -63t239.5 -154t136.5 -227.5t45 -289.5q0 -164 -47 -299t-139.5 -235t-241 -155.5t-340.5 -55.5h-531v1481zM1614 0v182l698 971h-633v328h1207v-174l-713 -975h700v-332h-1259zM541 1167v-854h143q48 0 94 14.5t91 48t79 82.5t55 125
t21 169q0 200 -92 307.5t-248 107.5h-143z" />
    <glyph glyph-name="uni01F2" unicode="&#x1f2;" horiz-adv-x="2646" 
d="M141 1481q469 0 533 -2q197 -7 345 -63t239.5 -154t136.5 -227.5t45 -289.5q0 -164 -47 -299t-139.5 -235t-241 -155.5t-340.5 -55.5h-531v1481zM541 1167v-854h143q48 0 94 14.5t91 48t79 82.5t55 125t21 169q0 200 -92 307.5t-248 107.5h-143zM1577 0v188l494 627h-449
v244h954v-182l-499 -629h501v-248h-1001z" />
    <glyph glyph-name="uni01F3" unicode="&#x1f3;" horiz-adv-x="2373" 
d="M506 -20q-217 0 -336 150t-119 407q0 252 109 397t303 145q90 0 168.5 -33t124.5 -108v584h399v-1522h-283l-47 217q-76 -237 -319 -237zM1305 0v188l493 627h-448v244h954v-182l-500 -629h502v-248h-1001zM602 258q69 0 111.5 58.5t42.5 172.5v93q0 217 -158 217
q-34 0 -60.5 -11t-50.5 -37.5t-37.5 -79.5t-13.5 -130q0 -150 45 -216.5t121 -66.5z" />
    <glyph glyph-name="uni01F4" unicode="&#x1f4;" horiz-adv-x="1607" 
d="M1026 1927l84 -241l-567 -136l-54 158zM793 -20q-208 0 -368 95.5t-246.5 267t-86.5 392.5q0 170 53.5 313.5t149 242.5t230 154.5t292.5 55.5q144 0 267 -46t204.5 -122t127.5 -173.5t48 -201.5h-415q-22 97 -82.5 155t-159.5 58q-58 0 -106.5 -22t-88.5 -69t-63 -132
t-23 -200q0 -104 19 -182.5t48.5 -123t71 -72t78.5 -36t80 -8.5q80 0 139.5 42t75.5 97l19 53h-258v268l678 -4v-782h-263v164q-26 -27 -41 -41t-46 -40t-60.5 -40.5t-71 -31t-92.5 -24t-110 -7.5z" />
    <glyph glyph-name="uni01F5" unicode="&#x1f5;" horiz-adv-x="1370" 
d="M905 1505l84 -241l-567 -136l-53 158zM678 -350q-301 0 -461 68.5t-160 175.5q0 20 5.5 38t14.5 32t22.5 26.5t27 22t30 17.5t30 13t29 10t24.5 7l18 4l10 2l-15 7.5t-21.5 11t-24 14t-26 18.5t-23.5 23.5t-20.5 29t-13 34t-5.5 40.5q0 67 62 118.5t181 67.5
q-110 48 -168.5 136t-58.5 179q0 103 75 179.5t196 113.5t268 37q103 0 171.5 -19.5t139.5 -56.5q247 96 348 138l-2 -283l-180 -25q12 -46 12 -81q0 -69 -34 -133.5t-96.5 -116.5t-162.5 -83.5t-221 -31.5q-89 0 -141 6q-29 -6 -29 -18q0 -18 29.5 -23.5t107.5 -9.5
q22 -1 33 -2q164 -9 211 -12q210 -14 316 -101t106 -217q0 -160 -156.5 -258t-447.5 -98zM662 592q56 0 91 39t35 100q0 62 -35 106t-91 44t-91.5 -44t-35.5 -106q0 -61 35.5 -100t91.5 -39zM739 -141q97 0 131.5 16t34.5 49q0 34 -34.5 54.5t-96.5 25.5l-192 12
q-75 4 -106.5 -19t-31.5 -56q0 -49 67 -65.5t228 -16.5z" />
    <glyph glyph-name="Aringacute" unicode="&#x1fa;" horiz-adv-x="1658" 
d="M1067 1487l522 -1481h-475l-98 287h-467l-100 -287h-398l527 1481h51q-27 52 -27 106q0 68 39 119t102 72l33 141h205l-61 -149q55 -25 87.5 -74.5t32.5 -112.5q0 -55 -26 -102h53zM819 1681q-39 0 -68.5 -27.5t-29.5 -66.5q0 -38 30 -68t68 -30q39 0 67.5 29.5
t28.5 68.5q0 40 -28 67t-68 27zM633 633h295l-148 414z" />
    <glyph glyph-name="aringacute" unicode="&#x1fb;" 
d="M348 1128l-53 158l82 33q-8 27 -8 63q0 94 68 160t165 66q64 0 118 -31t85 -84l26 12l84 -241l-131 -31q-31 -41 -79 -64.5t-103 -23.5q-46 0 -98 20zM502 1376v-6l168 70q-27 30 -70 30q-40 0 -69 -27.5t-29 -66.5zM602 1079q135 0 230 -23.5t148.5 -68.5t77 -102.5
t23.5 -134.5v-750h-329l-35 168q-46 -104 -115 -146t-180 -42q-158 0 -262.5 89.5t-104.5 247.5q0 175 140 269t423 94h82v45q0 51 -28 74t-88 22q-124 -5 -164 -92h-324q4 91 45 159.5t111 109.5t157.5 61t192.5 20zM700 358v134h-63q-27 0 -59.5 -6.5t-67 -21t-57.5 -42
t-23 -64.5q0 -58 38.5 -92.5t92.5 -34.5q58 0 97.5 37.5t41.5 89.5z" />
    <glyph glyph-name="AEacute" unicode="&#x1fc;" horiz-adv-x="2293" 
d="M1667 1927l84 -241l-567 -136l-54 158zM2183 328v-328h-1171v287h-451l-141 -287h-397l768 1481h1374l-2 -326h-697v-250h437v-321h-437v-256h717zM1012 627v604l-305 -604h305z" />
    <glyph glyph-name="aeacute" unicode="&#x1fd;" horiz-adv-x="1869" 
d="M1159 1505l84 -241l-567 -136l-53 158zM1122 457q0 -104 57 -158.5t148 -54.5q57 0 111 28t123 97l241 -99q-110 -166 -228.5 -228t-299.5 -62q-124 0 -232 42.5t-184 118.5q-11 11 -20 0q-91 -87 -194 -124t-243 -37q-165 0 -255.5 83.5t-90.5 221.5q0 165 147 264.5
t429 112.5l82 4v59q0 115 -117 115q-124 0 -170 -123l-344 67q32 76 71 128t99.5 91t147 57.5t204.5 18.5q253 -3 373 -80q135 80 289 80q240 0 391 -166.5t151 -455.5h-686zM1284 844q-67 0 -112 -45.5t-44 -132.5l293 -2q0 35 -12.5 74t-45.5 72.5t-79 33.5zM713 469
l-64 -4q-42 -3 -87 -20t-81.5 -52.5t-36.5 -81.5q0 -44 31 -70t88 -26q61 0 105.5 28.5t44.5 75.5v150z" />
    <glyph glyph-name="Oslashacute" unicode="&#x1fe;" horiz-adv-x="1634" 
d="M1036 1927l84 -241l-567 -136l-53 158zM1571 1370q13 -12 13 -26.5t-15 -26.5l-152 -150q107 -179 107 -430q0 -228 -87.5 -399.5t-249.5 -264.5t-378 -93q-271 0 -459 145l-114 -111q-22 -24 -41.5 -24t-44.5 24l-78 80q-22 22 -24 38.5t15 35.5l136 131
q-109 185 -109 438q0 347 196.5 555.5t522.5 208.5q279 0 463 -155l131 127q15 15 32 17.5t29 -9.5zM565 731q0 -49 2 -74l430 420q-56 117 -188 117q-130 0 -187 -107.5t-57 -355.5zM1049 731q0 49 -2 76l-426 -418q56 -98 188 -98q131 0 185.5 100.5t54.5 339.5z" />
    <glyph glyph-name="oslashacute" unicode="&#x1ff;" horiz-adv-x="1302" 
d="M954 1264l-567 -136l-53 158l536 219zM1219 948l-105 -96q90 -137 90 -330q0 -239 -147 -390.5t-391 -151.5q-214 0 -359 120l-127 -118l-119 127l138 127q-70 128 -70 286q0 249 150.5 403t388.5 154q196 0 329 -102l105 98zM516 537v-7l244 228q-37 37 -92 37
q-152 0 -152 -258zM817 537v36l-260 -241q40 -64 111 -64q45 0 76.5 25t46 68t20.5 85t6 91z" />
    <glyph glyph-name="uni0200" unicode="&#x200;" horiz-adv-x="1499" 
d="M424 1931l328 -278l-117 -125l-375 211zM860 1931l328 -278l-115 -125l-377 211zM23 0l524 1481h407l525 -1481h-394l-98 287h-467l-100 -287h-397zM604 627h293l-145 473z" />
    <glyph glyph-name="uni0201" unicode="&#x201;" 
d="M246 1509l327 -278l-116 -125l-375 211zM682 1509l328 -278l-115 -125l-377 211zM422 -20q-158 0 -262.5 89.5t-104.5 247.5q0 175 140 269t423 94h82v45q0 51 -28 74t-88 22q-124 -5 -164 -92h-324q4 91 45 159.5t111 109.5t157.5 61t192.5 20q135 0 230 -23.5
t148.5 -68.5t77 -102.5t23.5 -134.5v-750h-329l-35 168q-46 -104 -115 -146t-180 -42zM561 231q58 0 97.5 37.5t41.5 89.5v134h-63q-27 0 -59.5 -6.5t-67 -21t-57.5 -42t-23 -64.5q0 -58 38.5 -92.5t92.5 -34.5z" />
    <glyph glyph-name="uni0202" unicode="&#x202;" horiz-adv-x="1499" 
d="M1229 1675h-217q-27 53 -80.5 86t-104.5 33q-56 0 -108 -33t-82 -86h-215q42 148 152.5 222.5t252.5 74.5q141 0 250 -76t152 -221zM23 0l524 1481h407l525 -1481h-394l-98 287h-467l-100 -287h-397zM604 627h293l-145 473z" />
    <glyph glyph-name="uni0203" unicode="&#x203;" 
d="M1051 1253h-217q-27 53 -80.5 86t-104.5 33q-56 0 -108 -33t-82 -86h-215q42 148 152.5 222.5t252.5 74.5q141 0 250 -76t152 -221zM422 -20q-158 0 -262.5 89.5t-104.5 247.5q0 175 140 269t423 94h82v45q0 51 -28 74t-88 22q-124 -5 -164 -92h-324q4 91 45 159.5
t111 109.5t157.5 61t192.5 20q135 0 230 -23.5t148.5 -68.5t77 -102.5t23.5 -134.5v-750h-329l-35 168q-46 -104 -115 -146t-180 -42zM561 231q58 0 97.5 37.5t41.5 89.5v134h-63q-27 0 -59.5 -6.5t-67 -21t-57.5 -42t-23 -64.5q0 -58 38.5 -92.5t92.5 -34.5z" />
    <glyph glyph-name="uni0204" unicode="&#x204;" horiz-adv-x="1347" 
d="M332 1931l327 -278l-116 -125l-375 211zM768 1931l328 -278l-115 -125l-377 211zM141 0v1481h1094l-2 -330h-690v-246h577v-321h-579v-252h696v-332h-1096z" />
    <glyph glyph-name="uni0205" unicode="&#x205;" 
d="M236 1509l327 -278l-117 -125l-374 211zM672 1509l327 -278l-114 -125l-377 211zM442 438q-1 -90 42 -135t112 -45q61 0 102 22t64 80h352q-24 -170 -173.5 -275t-334.5 -105q-248 0 -401.5 147.5t-153.5 388.5q0 114 37 216t104.5 179t170.5 122.5t227 45.5
q168 0 287.5 -73t176 -195t56.5 -281v-92h-668zM440 662h303q0 63 -40.5 106t-112.5 43q-61 0 -105.5 -44.5t-44.5 -104.5z" />
    <glyph glyph-name="uni0206" unicode="&#x206;" horiz-adv-x="1347" 
d="M1137 1675h-217q-27 53 -80.5 86t-104.5 33q-56 0 -108 -33t-82 -86h-215q42 148 152.5 222.5t252.5 74.5q141 0 250 -76t152 -221zM141 0v1481h1094l-2 -330h-690v-246h577v-321h-579v-252h696v-332h-1096z" />
    <glyph glyph-name="uni0207" unicode="&#x207;" 
d="M1040 1253h-217q-27 53 -80 86t-104 33q-56 0 -108 -33t-82 -86h-216q42 148 153 222.5t253 74.5q141 0 249.5 -76t151.5 -221zM442 438q-1 -90 42 -135t112 -45q61 0 102 22t64 80h352q-24 -170 -173.5 -275t-334.5 -105q-248 0 -401.5 147.5t-153.5 388.5q0 114 37 216
t104.5 179t170.5 122.5t227 45.5q168 0 287.5 -73t176 -195t56.5 -281v-92h-668zM440 662h303q0 63 -40.5 106t-112.5 43q-61 0 -105.5 -44.5t-44.5 -104.5z" />
    <glyph glyph-name="uni0208" unicode="&#x208;" horiz-adv-x="681" 
d="M-14 1931l327 -278l-116 -125l-375 211zM422 1931l328 -278l-115 -125l-377 211zM141 1481h400v-1481h-400v1481z" />
    <glyph glyph-name="uni0209" unicode="&#x209;" horiz-adv-x="595" 
d="M-47 1509l328 -278l-117 -125l-375 211zM389 1509l328 -278l-115 -125l-377 211zM502 1059v-1059h-400v1059h400z" />
    <glyph glyph-name="uni020A" unicode="&#x20a;" horiz-adv-x="681" 
d="M791 1675h-218q-27 53 -80 86t-104 33q-56 0 -108 -33t-82 -86h-215q42 148 152.5 222.5t252.5 74.5q141 0 250 -76t152 -221zM141 1481h400v-1481h-400v1481z" />
    <glyph glyph-name="uni020B" unicode="&#x20b;" horiz-adv-x="595" 
d="M758 1253h-217q-27 53 -80.5 86t-104.5 33q-56 0 -108 -33t-82 -86h-215q42 148 152.5 222.5t252.5 74.5q141 0 250 -76t152 -221zM502 1059v-1059h-400v1059h400z" />
    <glyph glyph-name="uni020C" unicode="&#x20c;" horiz-adv-x="1617" 
d="M453 1931l327 -278l-116 -125l-375 211zM889 1931l328 -278l-115 -125l-377 211zM811 -20q-330 0 -524.5 205.5t-194.5 551.5q0 229 89.5 402.5t252.5 267.5t377 94q323 0 519 -208.5t196 -555.5q0 -228 -87.5 -399.5t-249.5 -264.5t-378 -93zM811 299q283 0 283 432
q0 121 -21 209.5t-59.5 140.5t-88.5 76.5t-114 24.5q-132 0 -208.5 -108t-76.5 -343q0 -227 76.5 -329.5t208.5 -102.5z" />
    <glyph glyph-name="uni020D" unicode="&#x20d;" horiz-adv-x="1177" 
d="M233 1509l328 -278l-117 -125l-374 211zM670 1509l327 -278l-114 -125l-377 211zM588 -20q-244 0 -390.5 151t-146.5 391q0 249 150.5 403t388.5 154q245 0 390.5 -155.5t145.5 -401.5q0 -239 -147 -390.5t-391 -151.5zM590 268q45 0 76.5 25t46 68t20.5 85t6 91
q0 258 -149 258q-152 0 -152 -258q0 -38 3.5 -72t13.5 -71.5t26 -64t44 -44t65 -17.5z" />
    <glyph glyph-name="uni020E" unicode="&#x20e;" horiz-adv-x="1617" 
d="M1257 1675h-217q-27 53 -80 86t-104 33q-56 0 -108 -33t-82 -86h-215q42 148 152.5 222.5t252.5 74.5q141 0 249.5 -76t151.5 -221zM811 -20q-330 0 -524.5 205.5t-194.5 551.5q0 229 89.5 402.5t252.5 267.5t377 94q323 0 519 -208.5t196 -555.5q0 -228 -87.5 -399.5
t-249.5 -264.5t-378 -93zM811 299q283 0 283 432q0 121 -21 209.5t-59.5 140.5t-88.5 76.5t-114 24.5q-132 0 -208.5 -108t-76.5 -343q0 -227 76.5 -329.5t208.5 -102.5z" />
    <glyph glyph-name="uni020F" unicode="&#x20f;" horiz-adv-x="1177" 
d="M1038 1253h-217q-27 53 -80 86t-104 33q-57 0 -109 -33t-82 -86h-215q42 148 153 222.5t253 74.5q141 0 249.5 -76t151.5 -221zM588 -20q-244 0 -390.5 151t-146.5 391q0 249 150.5 403t388.5 154q245 0 390.5 -155.5t145.5 -401.5q0 -239 -147 -390.5t-391 -151.5z
M590 268q45 0 76.5 25t46 68t20.5 85t6 91q0 258 -149 258q-152 0 -152 -258q0 -38 3.5 -72t13.5 -71.5t26 -64t44 -44t65 -17.5z" />
    <glyph glyph-name="uni0210" unicode="&#x210;" horiz-adv-x="1468" 
d="M362 1931l328 -278l-117 -125l-374 211zM799 1931l327 -278l-114 -125l-377 211zM1372 0h-407l-215 510h-209v-510h-400v1481h672q140 0 245 -36.5t167.5 -102t92.5 -150t30 -188.5q0 -160 -61.5 -261t-174.5 -170zM768 807q74 0 126 59t52 133q0 75 -54.5 131t-123.5 56
h-227v-379h227z" />
    <glyph glyph-name="uni0211" unicode="&#x211;" horiz-adv-x="862" 
d="M127 1509l328 -278l-117 -125l-375 211zM563 1509l328 -278l-115 -125l-377 211zM102 0v1059h385v-293q40 140 129 226.5t228 86.5l2 -374q-74 5 -128.5 4t-92.5 -16.5t-62 -32.5t-37.5 -44.5t-18.5 -52t-5 -55.5v-508h-400z" />
    <glyph glyph-name="uni0212" unicode="&#x212;" horiz-adv-x="1468" 
d="M1167 1675h-217q-27 53 -80 86t-104 33q-57 0 -109 -33t-82 -86h-215q42 148 153 222.5t253 74.5q141 0 249.5 -76t151.5 -221zM1372 0h-407l-215 510h-209v-510h-400v1481h672q140 0 245 -36.5t167.5 -102t92.5 -150t30 -188.5q0 -160 -61.5 -261t-174.5 -170zM768 807
q74 0 126 59t52 133q0 75 -54.5 131t-123.5 56h-227v-379h227z" />
    <glyph glyph-name="uni0213" unicode="&#x213;" horiz-adv-x="862" 
d="M932 1253h-217q-27 53 -80.5 86t-104.5 33q-56 0 -108 -33t-82 -86h-215q42 148 152.5 222.5t252.5 74.5q141 0 250 -76t152 -221zM102 0v1059h385v-293q40 140 129 226.5t228 86.5l2 -374q-74 5 -128.5 4t-92.5 -16.5t-62 -32.5t-37.5 -44.5t-18.5 -52t-5 -55.5v-508
h-400z" />
    <glyph glyph-name="uni0214" unicode="&#x214;" horiz-adv-x="1531" 
d="M387 1931l328 -278l-117 -125l-375 211zM823 1931l328 -278l-115 -125l-377 211zM1419 612q0 -146 -33.5 -258.5t-106.5 -198t-198.5 -130.5t-300.5 -45t-300.5 45t-198.5 130.5t-106.5 198t-33.5 258.5v869h404v-885q0 -144 66 -213.5t169 -69.5q102 0 169 69.5
t67 213.5v885h403v-869z" />
    <glyph glyph-name="uni0215" unicode="&#x215;" horiz-adv-x="1247" 
d="M270 1509l328 -278l-117 -125l-375 211zM707 1509l327 -278l-114 -125l-377 211zM494 -20q-66 0 -134 22.5t-126 63.5t-95 106t-37 141v746h400v-690q0 -48 32.5 -78.5t90.5 -30.5t91.5 31t33.5 78v690h403l-8 -1059h-295l-47 217q-44 -237 -309 -237z" />
    <glyph glyph-name="uni0216" unicode="&#x216;" horiz-adv-x="1531" 
d="M1192 1675h-217q-27 53 -80 86t-104 33q-57 0 -109 -33t-82 -86h-215q42 148 153 222.5t253 74.5q141 0 249.5 -76t151.5 -221zM1419 612q0 -146 -33.5 -258.5t-106.5 -198t-198.5 -130.5t-300.5 -45t-300.5 45t-198.5 130.5t-106.5 198t-33.5 258.5v869h404v-885
q0 -144 66 -213.5t169 -69.5q102 0 169 69.5t67 213.5v885h403v-869z" />
    <glyph glyph-name="uni0217" unicode="&#x217;" horiz-adv-x="1247" 
d="M1075 1253h-217q-27 53 -80 86t-104 33q-57 0 -109 -33t-82 -86h-215q42 148 153 222.5t253 74.5q141 0 249.5 -76t151.5 -221zM494 -20q-66 0 -134 22.5t-126 63.5t-95 106t-37 141v746h400v-690q0 -48 32.5 -78.5t90.5 -30.5t91.5 31t33.5 78v690h403l-8 -1059h-295
l-47 217q-44 -237 -309 -237z" />
    <glyph glyph-name="uni0218" unicode="&#x218;" horiz-adv-x="1482" 
d="M752 -20q-96 0 -187 17t-175.5 54t-149.5 91t-107.5 133.5t-50.5 175.5h414q17 -78 83.5 -122t170.5 -44q106 0 174.5 31.5t68.5 103.5q0 22 -9 39.5t-28.5 30.5t-38.5 22t-53 16.5t-56.5 12t-62.5 10.5l-231 39q-178 29 -282 140.5t-107 295.5q-2 145 82.5 254
t224.5 164t313 55q132 0 249.5 -38.5t200 -103.5t134.5 -149.5t62 -175.5h-404q-9 84 -67.5 122t-165.5 38t-155 -35t-48 -82q0 -53 34.5 -82.5t127.5 -46.5l231 -39q89 -15 160.5 -43t118.5 -60t81.5 -74t52.5 -79.5t28.5 -83t13 -77.5t2.5 -70q0 -124 -84.5 -225
t-233 -158t-331.5 -57zM655 -492q-17 0 -24.5 14.5t0.5 26.5l67 91q15 20 8.5 38.5t-26.5 18.5h-18q-26 0 -36 9.5t-10 33.5v123q0 39 35 39h189q32 0 32 -31v-174q0 -3 -8 -27l-106 -133q-12 -17 -25.5 -23t-40.5 -6h-37z" />
    <glyph glyph-name="uni0219" unicode="&#x219;" horiz-adv-x="1107" 
d="M567 -20q-69 0 -133.5 11t-127.5 37t-112.5 65.5t-85.5 102t-49 140.5h328q11 -30 30.5 -49.5t46.5 -28t51 -11.5t58 -3q71 0 106.5 16.5t35.5 44.5q0 31 -31 46.5t-96 27.5l-158 24q-337 61 -340 324q-2 153 127 252.5t354 99.5q218 0 347.5 -95t123.5 -255h-323
q-21 98 -158 98q-127 0 -127 -67q0 -28 37 -45t123 -31l135 -25q78 -19 137.5 -51.5t93 -67.5t54.5 -76.5t28 -73.5t7 -62q0 -110 -65 -190t-172.5 -119t-244.5 -39zM479 -492q-17 0 -24.5 14.5t0.5 26.5l67 91q15 20 8.5 38.5t-26.5 18.5h-19q-26 0 -35.5 9.5t-9.5 33.5
v123q0 39 35 39h189q32 0 32 -31v-174q0 -3 -8 -27l-106 -133q-12 -17 -25.5 -23t-40.5 -6h-37z" />
    <glyph glyph-name="uni021A" unicode="&#x21a;" horiz-adv-x="1308" 
d="M33 1130v351h1243v-351h-424v-1130h-399v1130h-420zM582 -492q-17 0 -25 14.5t0 26.5l68 91q15 20 8.5 38.5t-27.5 18.5h-18q-26 0 -35.5 9.5t-9.5 33.5v123q0 39 35 39h188q33 0 33 -31v-174q0 -3 -8 -27l-107 -133q-12 -17 -25.5 -23t-40.5 -6h-36z" />
    <glyph glyph-name="uni021B" unicode="&#x21b;" horiz-adv-x="905" 
d="M829 788h-231l2 -479q0 -57 64 -57h165v-236q-66 -32 -211 -32q-121 0 -205.5 23.5t-129 67t-63.5 96t-19 120.5v497h-172v271h186l59 330h324v-328h231v-273zM442 -492q-17 0 -24.5 14.5t0.5 26.5l67 91q15 20 9 38.5t-27 18.5h-18q-26 0 -36 9.5t-10 33.5v123
q0 39 35 39h189q32 0 32 -31v-174q0 -3 -8 -27l-106 -133q-12 -17 -25.5 -23t-40.5 -6h-37z" />
    <glyph glyph-name="uni0237" unicode="&#x237;" horiz-adv-x="661" 
d="M522 57q0 -397 -420 -397q-47 0 -81 9t-44 17l-10 9l-2 266l60 10q55 12 76.5 32t21.5 54v1002h399v-1002z" />
    <glyph glyph-name="uni0259" unicode="&#x259;" horiz-adv-x="1169" 
d="M727 621q1 90 -42 135t-112 45q-61 0 -101.5 -22.5t-63.5 -80.5h-353q16 114 93 202.5t186 133.5t229 45q248 0 401.5 -147.5t153.5 -388.5q0 -153 -62.5 -280t-186.5 -205t-289 -78q-168 0 -287.5 72.5t-176.5 194.5t-57 281v93h668zM729 397h-303q0 -63 41 -106
t113 -43q61 0 105 44.5t44 104.5z" />
    <glyph glyph-name="uni02BC" unicode="&#x2bc;" horiz-adv-x="452" 
d="M123 889q-13 0 -18.5 10.5t-2.5 20.5l62 215q7 19 4.5 28.5t-18.5 12.5l-23 4q-21 2 -29 9t-8 25v236q0 31 29 31h196q27 0 27 -25v-276q0 -9 -6 -21l-76 -239q-6 -17 -18.5 -24t-40.5 -7h-78z" />
    <glyph glyph-name="circumflex" unicode="&#x2c6;" horiz-adv-x="903" 
d="M567 1188l-127 168l-145 -168h-270l282 313h271l274 -313h-285z" />
    <glyph glyph-name="caron" unicode="&#x2c7;" horiz-adv-x="903" 
d="M567 1483h285l-274 -316h-273l-280 316h270l145 -168z" />
    <glyph glyph-name="breve" unicode="&#x2d8;" horiz-adv-x="909" 
d="M848 1481q-43 -145 -152 -221t-250 -76q-142 0 -252.5 74.5t-152.5 222.5h215q30 -53 82 -86t108 -33q51 0 104.5 33t80.5 86h217z" />
    <glyph glyph-name="dotaccent" unicode="&#x2d9;" horiz-adv-x="503" 
d="M442 1481v-334h-399v334h399z" />
    <glyph glyph-name="ring" unicode="&#x2da;" horiz-adv-x="571" 
d="M510 1356q0 -98 -68.5 -166t-165.5 -68q-98 0 -165.5 69t-67.5 169q0 94 68 159.5t165 65.5t165.5 -67t68.5 -162zM369 1354q0 40 -27.5 67t-67.5 27t-69 -27.5t-29 -66.5t29.5 -69t68.5 -30t67 30t28 69z" />
    <glyph glyph-name="ogonek" unicode="&#x2db;" horiz-adv-x="583" 
d="M43 -174q0 58 39 103t147 83h273q-107 -35 -146 -65t-39 -66q0 -57 56 -57q44 0 112 33q22 9 29.5 3.5t7.5 -26.5v-104q0 -24 -20 -35q-31 -17 -91 -30t-126 -13q-113 0 -177.5 43.5t-64.5 130.5z" />
    <glyph glyph-name="tilde" unicode="&#x2dc;" horiz-adv-x="983" 
d="M848 1276q-82 -59 -201 -59q-60 0 -163 30.5t-160 30.5q-41 0 -72.5 -10.5t-69.5 -38.5q-17 -13 -28.5 -10.5t-18.5 24.5l-33 109q-7 13 -4.5 28t21.5 33q41 40 85 61t109 21q68 0 178.5 -34t153.5 -34q76 0 154 56q10 7 20 8.5t18 -5t11 -20.5l26 -131q9 -33 -26 -59z
" />
    <glyph glyph-name="hungarumlaut" unicode="&#x2dd;" horiz-adv-x="997" 
d="M379 1483l100 -119q41 -48 -8 -74l-285 -160q-19 -10 -28 -13.5t-17.5 -0.5t-17.5 14l-68 70q-12 13 -13.5 27.5t7.5 21.5l283 238q12 11 25 10t22 -14zM817 1483l101 -119q36 -48 -9 -74l-286 -160q-25 -15 -36 -15.5t-28 15.5l-65 70q-14 13 -16 27.5t9 21.5l281 238
q27 24 49 -4z" />
    <glyph glyph-name="gravecomb" unicode="&#x300;" horiz-adv-x="0" 
d="M-588 1505l535 -219l-53 -158l-568 136z" />
    <glyph glyph-name="acutecomb" unicode="&#x301;" horiz-adv-x="0" 
d="M-131 1505l84 -241l-567 -136l-54 158z" />
    <glyph glyph-name="uni0302" unicode="&#x302;" horiz-adv-x="0" 
d="M-336 1188l-127 168l-145 -168h-271l283 313h270l275 -313h-285z" />
    <glyph glyph-name="tildecomb" unicode="&#x303;" horiz-adv-x="0" 
d="M-135 1276q-82 -59 -201 -59q-60 0 -163 30.5t-160 30.5q-41 0 -72.5 -10.5t-69.5 -38.5q-17 -13 -28.5 -10.5t-18.5 24.5l-33 109q-7 13 -4.5 28t21.5 33q41 40 85 61t109 21q68 0 178.5 -34t153.5 -34q76 0 154 56q10 7 20 8.5t18 -5t11 -20.5l26 -131q9 -33 -26 -59z
" />
    <glyph glyph-name="uni0304" unicode="&#x304;" horiz-adv-x="0" 
d="M-63 1481v-244h-820v244h820z" />
    <glyph glyph-name="uni0306" unicode="&#x306;" horiz-adv-x="0" 
d="M-61 1481q-43 -145 -152 -221t-250 -76q-142 0 -252.5 74.5t-152.5 222.5h215q30 -53 82 -86t108 -33q51 0 104 33t80 86h218z" />
    <glyph glyph-name="uni0307" unicode="&#x307;" horiz-adv-x="0" 
d="M-61 1481v-334h-400v334h400z" />
    <glyph glyph-name="uni0308" unicode="&#x308;" horiz-adv-x="0" 
d="M-543 1481v-285h-340v285h340zM-63 1481v-285h-340v285h340z" />
    <glyph glyph-name="uni030A" unicode="&#x30a;" horiz-adv-x="0" 
d="M-61 1356q0 -98 -68.5 -166t-165.5 -68q-98 0 -165.5 69t-67.5 169q0 94 68 159.5t165 65.5t165.5 -67t68.5 -162zM-203 1354q0 40 -27 67t-67 27t-69 -27.5t-29 -66.5t29.5 -69t68.5 -30t66.5 30t27.5 69z" />
    <glyph glyph-name="uni030B" unicode="&#x30b;" horiz-adv-x="0" 
d="M-618 1483l100 -119q41 -48 -8 -74l-285 -160q-19 -10 -28 -13.5t-17.5 -0.5t-17.5 14l-68 70q-12 13 -13.5 27.5t7.5 21.5l282 238q12 11 25.5 10t22.5 -14zM-180 1483l100 -119q36 -49 -8 -74l-287 -160q-25 -15 -35.5 -15.5t-27.5 15.5l-66 70q-13 13 -15 27.5t9 21.5
l281 238q27 24 49 -4z" />
    <glyph glyph-name="uni030C" unicode="&#x30c;" horiz-adv-x="0" 
d="M-336 1483h285l-275 -316h-272l-281 316h271l145 -168z" />
    <glyph glyph-name="uni030F" unicode="&#x30f;" horiz-adv-x="0" 
d="M-815 1509l328 -278l-117 -125l-375 211zM-379 1509l328 -278l-115 -125l-377 211z" />
    <glyph glyph-name="uni0311" unicode="&#x311;" horiz-adv-x="0" 
d="M-8 1253h-217q-27 53 -80.5 86t-104.5 33q-56 0 -108 -33t-82 -86h-215q42 148 152.5 222.5t252.5 74.5q141 0 250 -76t152 -221z" />
    <glyph glyph-name="dotbelowcomb" unicode="&#x323;" horiz-adv-x="0" 
d="M-61 -111v-174q0 -45 -50 -45h-208q-22 0 -29.5 9.5t-7.5 29.5v176q0 37 24 37h244q27 0 27 -33z" />
    <glyph glyph-name="uni0326" unicode="&#x326;" horiz-adv-x="0" 
d="M-281 -492q-17 0 -24.5 14.5t0.5 26.5l67 91q15 20 8.5 38.5t-26.5 18.5h-18q-26 0 -35.5 9.5t-9.5 33.5v123q0 39 34 39h189q33 0 33 -31v-174l-9 -27l-106 -133q-12 -17 -25.5 -23t-40.5 -6h-37z" />
    <glyph glyph-name="uni0327" unicode="&#x327;" horiz-adv-x="0" 
d="M-61 -274q0 -77 -79 -126t-188 -49q-170 0 -272 60l49 121q98 -54 174 -54q42 0 68 14.5t26 39.5q0 39 -41.5 58.5t-140.5 19.5q-17 0 -21 3.5t1 20.5l75 176h162l-43 -116q116 0 173 -51t57 -117z" />
    <glyph glyph-name="uni0328" unicode="&#x328;" horiz-adv-x="0" 
d="M-541 -174q0 58 39.5 103t147.5 83h272q-106 -35 -145 -65t-39 -66q0 -57 55 -57q45 0 113 33q22 9 29.5 3.5t7.5 -26.5v-104q0 -23 -21 -35q-31 -17 -91 -30t-126 -13q-113 0 -177.5 43.5t-64.5 130.5z" />
    <glyph glyph-name="uni0394" unicode="&#x394;" horiz-adv-x="1462" 
d="M51 0v236l447 1245h448l445 -1248v-233h-1340zM479 317h465l-231 762z" />
    <glyph glyph-name="uni03A9" unicode="&#x3a9;" horiz-adv-x="1595" 
d="M795 1194q-51 0 -96.5 -21.5t-85 -67.5t-62.5 -130t-23 -197q0 -309 168 -459q47 -44 47 -83v-236h-641v328h242q-110 90 -182 219.5t-72 288.5q0 124 48.5 242t136 212.5t223.5 152.5t297 58q134 0 249.5 -40.5t195.5 -107.5t137 -154t83.5 -179t26.5 -182
q0 -143 -65 -269t-167 -215q-8 -9 -5.5 -17.5t12.5 -8.5h213v-328h-639v281q90 68 150.5 194.5t60.5 312.5q0 207 -71 306.5t-181 99.5z" />
    <glyph glyph-name="uni03BC" unicode="&#x3bc;" horiz-adv-x="1247" 
d="M600 260q85 0 150 82v717h403l-8 -1059h-389v164q-97 -123 -219 -164q-21 -7 -28 -16t-7 -27v-287h-400v1389h400v-701q0 -47 26.5 -72.5t71.5 -25.5z" />
    <glyph glyph-name="pi" unicode="&#x3c0;" horiz-adv-x="1415" 
d="M1352 788h-160v-788h-381v788h-221q0 -157 -36.5 -400.5t-84.5 -387.5h-375q45 175 79 402.5t34 365.5q0 20 -19 20h-145v271h1309v-271z" />
    <glyph glyph-name="uni1E0C" unicode="&#x1e0c;" horiz-adv-x="1603" 
d="M141 1481q469 0 533 -2q197 -7 345 -63t239.5 -154t136.5 -227.5t45 -289.5q0 -164 -47 -299t-139.5 -235t-241 -155.5t-340.5 -55.5h-531v1481zM541 1167v-854h143q48 0 94 14.5t91 48t79 82.5t55 125t21 169q0 200 -92 307.5t-248 107.5h-143zM942 -111v-174
q0 -45 -49 -45h-209q-22 0 -29.5 9.5t-7.5 29.5v176q0 37 25 37h243q27 0 27 -33z" />
    <glyph glyph-name="uni1E0D" unicode="&#x1e0d;" horiz-adv-x="1249" 
d="M506 -20q-217 0 -336 150t-119 407q0 252 109 397t303 145q90 0 168.5 -33t124.5 -108v584h399v-1522h-283l-47 217q-76 -237 -319 -237zM602 258q69 0 111.5 58.5t42.5 172.5v93q0 217 -158 217q-34 0 -60.5 -11t-50.5 -37.5t-37.5 -79.5t-13.5 -130q0 -150 45 -216.5
t121 -66.5zM758 -111v-174q0 -45 -49 -45h-209q-22 0 -29.5 9.5t-7.5 29.5v176q0 37 24 37h244q27 0 27 -33z" />
    <glyph glyph-name="uni1E24" unicode="&#x1e24;" horiz-adv-x="1529" 
d="M989 594h-448v-594h-400v1481h400v-561h448v561h400v-1481h-400v594zM903 -111v-174q0 -45 -49 -45h-209q-22 0 -29.5 9.5t-7.5 29.5v176q0 37 25 37h244q26 0 26 -33z" />
    <glyph glyph-name="uni1E25" unicode="&#x1e25;" horiz-adv-x="1245" 
d="M102 0v1522h400v-594q23 29 42 47t52 40t79 33t105 11q154 0 262.5 -98t108.5 -252v-709h-399v662q0 42 -39 69t-86 27t-86 -29.5t-39 -71.5v-657h-400zM776 -111v-174q0 -45 -49 -45h-209q-22 0 -29.5 9.5t-7.5 29.5v176q0 37 25 37h244q26 0 26 -33z" />
    <glyph glyph-name="uni1E44" unicode="&#x1e44;" horiz-adv-x="1660" 
d="M1030 1903v-334h-399v334h399zM1120 1481h400v-1481h-361l-618 883v-883h-400v1481h402l577 -826v826z" />
    <glyph glyph-name="uni1E45" unicode="&#x1e45;" horiz-adv-x="1247" 
d="M827 1481v-334h-399v334h399zM102 0v1059h396v-127q32 33 40 41t39 32.5t53.5 32.5t63 16.5t88.5 8.5q144 0 257.5 -101.5t113.5 -246.5v-715h-399v662q0 42 -38 69t-85 27q-48 0 -88.5 -27t-40.5 -69v-662h-400z" />
    <glyph glyph-name="uni1E5A" unicode="&#x1e5a;" horiz-adv-x="1468" 
d="M1372 0h-407l-215 510h-209v-510h-400v1481h672q140 0 245 -36.5t167.5 -102t92.5 -150t30 -188.5q0 -160 -61.5 -261t-174.5 -170zM768 807q74 0 126 59t52 133q0 75 -54.5 131t-123.5 56h-227v-379h227zM887 -111v-174q0 -45 -49 -45h-209q-22 0 -29.5 9.5t-7.5 29.5
v176q0 37 24 37h244q27 0 27 -33z" />
    <glyph glyph-name="uni1E5B" unicode="&#x1e5b;" horiz-adv-x="862" 
d="M102 0v1059h385v-293q40 140 129 226.5t228 86.5l2 -374q-74 5 -128.5 4t-92.5 -16.5t-62 -32.5t-37.5 -44.5t-18.5 -52t-5 -55.5v-508h-400zM473 -111v-174q0 -45 -49 -45h-209q-22 0 -29.5 9.5t-7.5 29.5v176q0 37 25 37h243q27 0 27 -33z" />
    <glyph glyph-name="uni1E62" unicode="&#x1e62;" horiz-adv-x="1482" 
d="M752 -20q-96 0 -187 17t-175.5 54t-149.5 91t-107.5 133.5t-50.5 175.5h414q17 -78 83.5 -122t170.5 -44q106 0 174.5 31.5t68.5 103.5q0 22 -9 39.5t-28.5 30.5t-38.5 22t-53 16.5t-56.5 12t-62.5 10.5l-231 39q-178 29 -282 140.5t-107 295.5q-2 145 82.5 254
t224.5 164t313 55q132 0 249.5 -38.5t200 -103.5t134.5 -149.5t62 -175.5h-404q-9 84 -67.5 122t-165.5 38t-155 -35t-48 -82q0 -53 34.5 -82.5t127.5 -46.5l231 -39q89 -15 160.5 -43t118.5 -60t81.5 -74t52.5 -79.5t28.5 -83t13 -77.5t2.5 -70q0 -124 -84.5 -225
t-233 -158t-331.5 -57zM893 -111v-174q0 -45 -49 -45h-209q-22 0 -29.5 9.5t-7.5 29.5v176q0 37 25 37h243q27 0 27 -33z" />
    <glyph glyph-name="uni1E63" unicode="&#x1e63;" horiz-adv-x="1107" 
d="M567 -20q-69 0 -133.5 11t-127.5 37t-112.5 65.5t-85.5 102t-49 140.5h328q11 -30 30.5 -49.5t46.5 -28t51 -11.5t58 -3q71 0 106.5 16.5t35.5 44.5q0 31 -31 46.5t-96 27.5l-158 24q-337 61 -340 324q-2 153 127 252.5t354 99.5q218 0 347.5 -95t123.5 -255h-323
q-21 98 -158 98q-127 0 -127 -67q0 -28 37 -45t123 -31l135 -25q78 -19 137.5 -51.5t93 -67.5t54.5 -76.5t28 -73.5t7 -62q0 -110 -65 -190t-172.5 -119t-244.5 -39zM717 -111v-174q0 -45 -49 -45h-209q-22 0 -29.5 9.5t-7.5 29.5v176q0 37 24 37h244q27 0 27 -33z" />
    <glyph glyph-name="uni1E6C" unicode="&#x1e6c;" horiz-adv-x="1308" 
d="M33 1130v351h1243v-351h-424v-1130h-399v1130h-420zM819 -111v-174q0 -45 -49 -45h-209q-22 0 -29.5 9.5t-7.5 29.5v176q0 37 25 37h244q26 0 26 -33z" />
    <glyph glyph-name="uni1E6D" unicode="&#x1e6d;" horiz-adv-x="905" 
d="M829 788h-231l2 -479q0 -57 64 -57h165v-236q-66 -32 -211 -32q-121 0 -205.5 23.5t-129 67t-63.5 96t-19 120.5v497h-172v271h186l59 330h324v-328h231v-273zM680 -111v-174q0 -45 -49 -45h-209q-22 0 -29.5 9.5t-7.5 29.5v176q0 37 25 37h243q27 0 27 -33z" />
    <glyph glyph-name="Wgrave" unicode="&#x1e80;" horiz-adv-x="2015" 
d="M780 1927l535 -219l-53 -158l-568 136zM1982 1481l-442 -1481h-297l-235 805l-236 -805h-293l-446 1481h385l229 -795l221 795h279l229 -795l221 795h385z" />
    <glyph glyph-name="wgrave" unicode="&#x1e81;" horiz-adv-x="1626" 
d="M594 1505l534 -219l-53 -158l-567 136zM1620 1059l-373 -1059h-284l-158 514l-168 -514h-272l-359 1059h346l166 -514l156 514h276l152 -516l164 516h354z" />
    <glyph glyph-name="Wacute" unicode="&#x1e82;" horiz-adv-x="2015" 
d="M1237 1927l84 -241l-567 -136l-54 158zM1982 1481l-442 -1481h-297l-235 805l-236 -805h-293l-446 1481h385l229 -795l221 795h279l229 -795l221 795h385z" />
    <glyph glyph-name="wacute" unicode="&#x1e83;" horiz-adv-x="1626" 
d="M1051 1505l84 -241l-568 -136l-53 158zM1620 1059l-373 -1059h-284l-158 514l-168 -514h-272l-359 1059h346l166 -514l156 514h276l152 -516l164 516h354z" />
    <glyph glyph-name="Wdieresis" unicode="&#x1e84;" horiz-adv-x="2015" 
d="M938 1903v-285h-340v285h340zM1417 1903v-285h-340v285h340zM1982 1481l-442 -1481h-297l-235 805l-236 -805h-293l-446 1481h385l229 -795l221 795h279l229 -795l221 795h385z" />
    <glyph glyph-name="wdieresis" unicode="&#x1e85;" horiz-adv-x="1626" 
d="M752 1481v-285h-340v285h340zM1231 1481v-285h-340v285h340zM1620 1059l-373 -1059h-284l-158 514l-168 -514h-272l-359 1059h346l166 -514l156 514h276l152 -516l164 516h354z" />
    <glyph glyph-name="uni1E92" unicode="&#x1e92;" horiz-adv-x="1445" 
d="M92 0v182l699 971h-633v328h1206v-174l-713 -975h701v-332h-1260zM881 -111v-174q0 -45 -50 -45h-208q-22 0 -29.5 9.5t-7.5 29.5v176q0 37 24 37h244q27 0 27 -33z" />
    <glyph glyph-name="uni1E93" unicode="&#x1e93;" horiz-adv-x="1183" 
d="M55 0v188l494 627h-449v244h955v-182l-500 -629h502v-248h-1002zM780 -111v-174q0 -45 -49 -45h-209q-22 0 -29.5 9.5t-7.5 29.5v176q0 37 25 37h244q26 0 26 -33z" />
    <glyph glyph-name="uni1EB8" unicode="&#x1eb8;" horiz-adv-x="1347" 
d="M141 0v1481h1094l-2 -330h-690v-246h577v-321h-579v-252h696v-332h-1096zM836 -111v-174q0 -45 -50 -45h-208q-22 0 -29.5 9.5t-7.5 29.5v176q0 37 24 37h244q27 0 27 -33z" />
    <glyph glyph-name="uni1EB9" unicode="&#x1eb9;" 
d="M442 438q-1 -90 42 -135t112 -45q61 0 102 22t64 80h352q-24 -170 -173.5 -275t-334.5 -105q-248 0 -401.5 147.5t-153.5 388.5q0 114 37 216t104.5 179t170.5 122.5t227 45.5q168 0 287.5 -73t176 -195t56.5 -281v-92h-668zM440 662h303q0 63 -40.5 106t-112.5 43
q-61 0 -105.5 -44.5t-44.5 -104.5zM745 -111v-174q0 -45 -49 -45h-209q-22 0 -29 9t-7 30v176q0 37 24 37h244q26 0 26 -33z" />
    <glyph glyph-name="uni1EBC" unicode="&#x1ebc;" horiz-adv-x="1347" 
d="M1057 1698q-35 -25 -89 -42.5t-112 -17.5q-60 0 -163.5 31t-160.5 31q-41 0 -72 -10.5t-69 -38.5q-17 -13 -28.5 -10.5t-18.5 24.5l-33 109q-7 13 -4.5 28t21.5 33q41 40 85 61t109 21q68 0 178.5 -34t153.5 -34q76 0 154 56q10 7 20 8.5t18 -5t11 -20.5l26 -131
q9 -33 -26 -59zM141 0v1481h1094l-2 -330h-690v-246h577v-321h-579v-252h696v-332h-1096z" />
    <glyph glyph-name="uni1EBD" unicode="&#x1ebd;" 
d="M961 1276q-82 -59 -201 -59q-60 0 -163.5 30.5t-160.5 30.5q-41 0 -72 -10.5t-69 -38.5q-17 -13 -28.5 -10.5t-18.5 24.5l-33 109q-7 13 -5 28t21 33q41 39 85.5 60.5t109.5 21.5q68 0 178.5 -34t153.5 -34q75 0 153 56q10 7 20.5 8.5t18.5 -5t11 -20.5l26 -131
q9 -33 -26 -59zM442 438q-1 -90 42 -135t112 -45q61 0 102 22t64 80h352q-24 -170 -173.5 -275t-334.5 -105q-248 0 -401.5 147.5t-153.5 388.5q0 114 37 216t104.5 179t170.5 122.5t227 45.5q168 0 287.5 -73t176 -195t56.5 -281v-92h-668zM440 662h303q0 63 -40.5 106
t-112.5 43q-61 0 -105.5 -44.5t-44.5 -104.5z" />
    <glyph glyph-name="uni1ECA" unicode="&#x1eca;" horiz-adv-x="681" 
d="M141 1481h400v-1481h-400v1481zM510 -111v-174q0 -45 -49 -45h-209q-22 0 -29.5 9.5t-7.5 29.5v176q0 37 25 37h243q27 0 27 -33z" />
    <glyph glyph-name="uni1ECB" unicode="&#x1ecb;" horiz-adv-x="612" 
d="M502 1522v-336h-400v336h400zM502 1059v-1059h-400v1059h400zM518 -111v-174q0 -45 -49 -45h-209q-22 0 -29.5 9.5t-7.5 29.5v176q0 37 25 37h244q26 0 26 -33z" />
    <glyph glyph-name="uni1ECC" unicode="&#x1ecc;" horiz-adv-x="1617" 
d="M811 -20q-330 0 -524.5 205.5t-194.5 551.5q0 229 89.5 402.5t252.5 267.5t377 94q323 0 519 -208.5t196 -555.5q0 -228 -87.5 -399.5t-249.5 -264.5t-378 -93zM811 299q283 0 283 432q0 121 -21 209.5t-59.5 140.5t-88.5 76.5t-114 24.5q-132 0 -208.5 -108t-76.5 -343
q0 -227 76.5 -329.5t208.5 -102.5zM961 -111v-174q0 -45 -50 -45h-209q-22 0 -29 9t-7 30v176q0 37 24 37h244q27 0 27 -33z" />
    <glyph glyph-name="uni1ECD" unicode="&#x1ecd;" horiz-adv-x="1177" 
d="M588 -20q-244 0 -390.5 151t-146.5 391q0 249 150.5 403t388.5 154q245 0 390.5 -155.5t145.5 -401.5q0 -239 -147 -390.5t-391 -151.5zM590 268q45 0 76.5 25t46 68t20.5 85t6 91q0 258 -149 258q-152 0 -152 -258q0 -38 3.5 -72t13.5 -71.5t26 -64t44 -44t65 -17.5z
M731 -111v-174q0 -45 -49 -45h-209q-22 0 -29.5 9.5t-7.5 29.5v176q0 37 25 37h244q26 0 26 -33z" />
    <glyph glyph-name="uni1EE4" unicode="&#x1ee4;" horiz-adv-x="1517" 
d="M1419 612q0 -146 -33.5 -258.5t-106.5 -198t-198.5 -130.5t-300.5 -45t-300.5 45t-198.5 130.5t-106.5 198t-33.5 258.5v869h404v-885q0 -144 66 -213.5t169 -69.5q102 0 169 69.5t67 213.5v885h403v-869zM979 -111v-174q0 -45 -49 -45h-209q-22 0 -29.5 9.5t-7.5 29.5
v176q0 37 25 37h243q27 0 27 -33z" />
    <glyph glyph-name="uni1EE5" unicode="&#x1ee5;" horiz-adv-x="1247" 
d="M494 -20q-66 0 -134 22.5t-126 63.5t-95 106t-37 141v746h400v-690q0 -48 32.5 -78.5t90.5 -30.5t91.5 31t33.5 78v690h403l-8 -1059h-295l-47 217q-44 -237 -309 -237zM776 -111v-174q0 -45 -49 -45h-209q-22 0 -29.5 9.5t-7.5 29.5v176q0 37 25 37h244q26 0 26 -33z
" />
    <glyph glyph-name="Ygrave" unicode="&#x1ef2;" horiz-adv-x="1470" 
d="M557 1927l535 -219l-54 -158l-567 136zM1458 1481l-526 -865v-616h-400v616l-522 865h430l293 -527l291 527h434z" />
    <glyph glyph-name="ygrave" unicode="&#x1ef3;" horiz-adv-x="1202" 
d="M422 1505l534 -219l-53 -158l-567 136zM322 -338q-73 0 -131 11t-79 23l-22 11v252l103 -6q194 -15 220 85q1 2 1 3l4 20l-412 998h391l201 -576l209 576h389l-414 -998q-40 -98 -83 -169.5t-85 -115.5t-91 -69.5t-96 -35t-105 -9.5z" />
    <glyph glyph-name="uni1EF8" unicode="&#x1ef8;" horiz-adv-x="1470" 
d="M1153 1698q-35 -25 -89 -42.5t-112 -17.5q-60 0 -163 31t-160 31q-41 0 -72.5 -10.5t-69.5 -38.5q-17 -13 -28.5 -10.5t-18.5 24.5l-32 109q-7 13 -5 28t21 33q41 40 85 61t109 21q68 0 178.5 -34t153.5 -34q76 0 154 56q10 7 20 8.5t18 -5t11 -20.5l27 -131
q9 -33 -27 -59zM1458 1481l-526 -865v-616h-400v616l-522 865h430l293 -527l291 527h434z" />
    <glyph glyph-name="uni1EF9" unicode="&#x1ef9;" horiz-adv-x="1202" 
d="M1018 1276q-82 -59 -201 -59q-60 0 -163 30.5t-160 30.5q-41 0 -72.5 -10.5t-69.5 -38.5q-17 -13 -28.5 -10.5t-18.5 24.5l-33 109q-7 13 -4.5 28t21.5 33q41 40 85 61t109 21q68 0 178.5 -34t153.5 -34q76 0 154 56q10 7 20 8.5t18 -5t11 -20.5l26 -131q9 -33 -26 -59z
M322 -338q-73 0 -131 11t-79 23l-22 11v252l103 -6q194 -15 220 85q1 2 1 3l4 20l-412 998h391l201 -576l209 576h389l-414 -998q-40 -98 -83 -169.5t-85 -115.5t-91 -69.5t-96 -35t-105 -9.5z" />
    <glyph glyph-name="endash" unicode="&#x2013;" horiz-adv-x="1277" 
d="M1151 645v-280h-1042v280h1042z" />
    <glyph glyph-name="emdash" unicode="&#x2014;" horiz-adv-x="1929" 
d="M1802 645v-280h-1693v280h1693z" />
    <glyph glyph-name="quoteleft" unicode="&#x2018;" horiz-adv-x="581" 
d="M416 1540l-123 -301l119 -14v-344h-363v305l236 354h131z" />
    <glyph glyph-name="quoteright" unicode="&#x2019;" horiz-adv-x="581" 
d="M102 821l123 301l-119 15v344h363v-305l-236 -355h-131z" />
    <glyph glyph-name="quotesinglbase" unicode="&#x201a;" horiz-adv-x="581" 
d="M102 -309l123 301l-119 14v346h363v-307l-236 -354h-131z" />
    <glyph glyph-name="quotedblleft" unicode="&#x201c;" horiz-adv-x="1093" 
d="M92 821v305l236 355h131l-123 -301l119 -15v-344h-363zM604 821v305l236 355h131l-123 -301l119 -15v-344h-363z" />
    <glyph glyph-name="quotedblright" unicode="&#x201d;" horiz-adv-x="1144" 
d="M102 821l123 301l-119 15v344h363v-305l-236 -355h-131zM612 821l125 301l-121 15v344h365v-305l-236 -355h-133z" />
    <glyph glyph-name="quotedblbase" unicode="&#x201e;" horiz-adv-x="1214" 
d="M160 -309l123 301l-119 14v346h362v-307l-235 -354h-131zM684 -309l123 301l-119 14v346h363v-307l-236 -354h-131z" />
    <glyph glyph-name="dagger" unicode="&#x2020;" horiz-adv-x="1185" 
d="M1073 1047v-336l-379 57l74 -1098h-369l72 1098l-377 -57v336l365 -52l-64 486h375l-63 -486z" />
    <glyph glyph-name="daggerdbl" unicode="&#x2021;" horiz-adv-x="1185" 
d="M698 725v-381l375 55v-336l-368 54l65 -447h-375l66 447l-367 -54v336l373 -55v381l-373 -55v334l365 -52l-64 529h373l-61 -529l366 52v-334z" />
    <glyph glyph-name="bullet" unicode="&#x2022;" horiz-adv-x="788" 
d="M379 444q-127 0 -217 91t-90 219q0 126 90 216.5t217 90.5t218 -90.5t91 -216.5q0 -128 -91 -219t-218 -91z" />
    <glyph glyph-name="ellipsis" unicode="&#x2026;" horiz-adv-x="2031" 
d="M569 401v-401h-419v401h419zM1286 401v-401h-420v401h420zM2003 401v-401h-420v401h420z" />
    <glyph glyph-name="perthousand" unicode="&#x2030;" horiz-adv-x="2856" 
d="M479 1503q107 0 198 -60t143 -157.5t52 -206.5q0 -164 -114.5 -287.5t-278.5 -123.5q-109 0 -201.5 58t-144 152t-51.5 201q0 109 52.5 206.5t144.5 157.5t200 60zM1636 1497l-995 -1505l-217 4l997 1501h215zM477 862q60 0 83.5 52t23.5 165q0 118 -24.5 175t-82.5 57
t-82 -57t-24 -175q0 -112 23.5 -164.5t82.5 -52.5zM1491 817q107 0 199 -60.5t144 -158t52 -205.5q0 -165 -115 -289t-280 -124q-109 0 -201.5 58.5t-144 153t-51.5 201.5q0 108 52.5 205.5t145 158t199.5 60.5zM2363 817q106 0 198 -60.5t144 -158t52 -205.5
q0 -107 -51.5 -201.5t-143 -153t-199.5 -58.5q-110 0 -202.5 58.5t-143.5 153t-51 201.5q0 108 52 205.5t144.5 158t200.5 60.5zM1489 176q60 0 83 51.5t23 163.5q0 119 -24 175.5t-82 56.5t-81.5 -57t-23.5 -175q0 -111 23 -163t82 -52zM2361 176q60 0 82.5 51.5
t22.5 163.5q0 119 -23.5 175.5t-81.5 56.5t-82 -57t-24 -175q0 -111 23.5 -163t82.5 -52z" />
    <glyph glyph-name="guilsinglleft" unicode="&#x2039;" horiz-adv-x="686" 
d="M412 514l131 -393h-205l-219 393l217 410h207z" />
    <glyph glyph-name="guilsinglright" unicode="&#x203a;" horiz-adv-x="686" 
d="M254 514l-131 410h207l217 -410l-219 -393h-205z" />
    <glyph glyph-name="fraction" unicode="&#x2044;" horiz-adv-x="540" 
d="M860 1497l-995 -1505l-217 4l997 1501h215z" />
    <glyph glyph-name="uni2070" unicode="&#x2070;" horiz-adv-x="882" 
d="M428 1731q182 0 291.5 -129.5t109.5 -354.5q0 -223 -108 -348t-293 -125q-186 0 -294.5 124.5t-108.5 348.5q0 225 110 354.5t293 129.5zM426 971q71 0 99 61t28 215q0 156 -29.5 222.5t-97.5 66.5t-96.5 -66t-28.5 -223q0 -151 28.5 -213.5t96.5 -62.5z" />
    <glyph glyph-name="uni2074" unicode="&#x2074;" horiz-adv-x="882" 
d="M434 1710h250v-543h133v-211h-133v-178h-254l2 178h-407v203zM285 1167h149v201z" />
    <glyph glyph-name="uni2075" unicode="&#x2075;" horiz-adv-x="854" 
d="M147 1710h635l-10 -201h-434l-14 -155q51 13 70 18t51 9.5t63 4.5q153 0 246.5 -81.5t93.5 -223.5q0 -148 -103.5 -231.5t-281.5 -83.5q-143 0 -256.5 55t-165.5 144l186 127q25 -33 42 -52t42.5 -39.5t55 -30t65.5 -9.5q67 0 105 32t38 80q0 47 -36 81t-103 34
q-52 0 -127 -33q-12 -6 -17.5 -6t-19.5 6l-170 92z" />
    <glyph glyph-name="uni2076" unicode="&#x2076;" horiz-adv-x="858" 
d="M436 1733q151 0 256 -80t105 -213h-228q-29 100 -127 100q-76 0 -115.5 -64t-25.5 -149q71 43 186 43q146 0 236 -77.5t90 -200.5q0 -134 -108.5 -223t-272.5 -89q-191 0 -301.5 124t-110.5 329q0 233 112.5 366.5t303.5 133.5zM422 1190q-41 0 -82 -25t-41 -45
q0 -79 32.5 -118t88.5 -39q53 0 91 33.5t38 84.5q0 55 -38 82t-89 27z" />
    <glyph glyph-name="uni2077" unicode="&#x2077;" horiz-adv-x="780" 
d="M57 1710h734v-256q-111 -125 -204 -321.5t-89 -354.5h-271q0 55 17 132t52.5 175t104.5 211t160 213h-504v201z" />
    <glyph glyph-name="uni2078" unicode="&#x2078;" horiz-adv-x="854" 
d="M416 1731q157 0 258.5 -75.5t101.5 -187.5q0 -38 -16 -70t-41 -52t-45.5 -31t-38.5 -17q78 -40 108 -67q74 -65 74 -168q0 -137 -110.5 -213t-298.5 -76q-172 0 -277.5 63t-105.5 177q0 145 170 205l-17 11q-18 11 -38 27t-41.5 40t-35.5 60t-14 77q0 125 99 211t268 86z
M422 1548q-46 0 -76.5 -21.5t-30.5 -58.5q0 -50 62 -71l80 -29q33 -10 62.5 23t29.5 69t-34 62t-93 26zM426 956q56 0 86.5 21.5t30.5 58.5q0 28 -17 48.5t-63 37.5l-90 31q-38 12 -73.5 -17t-35.5 -75q0 -105 162 -105z" />
    <glyph glyph-name="uni2079" unicode="&#x2079;" horiz-adv-x="858" 
d="M408 778q-97 0 -179.5 36t-133.5 104t-52 153h236q8 -47 38 -73.5t80 -26.5q87 0 136 52t38 171q-63 -66 -196 -66q-148 0 -245 80.5t-97 210.5q0 135 108.5 223.5t272.5 88.5q191 0 300 -123t109 -330q0 -255 -109 -377.5t-306 -122.5zM424 1321q41 0 82 25t41 45
q0 79 -33 119t-90 40q-50 0 -84.5 -33.5t-34.5 -86.5q0 -51 35.5 -80t83.5 -29z" />
    <glyph glyph-name="colonmonetary" unicode="&#x20a1;" horiz-adv-x="1261" 
d="M637 465q35 0 62 17.5t41.5 45t21.5 50t10 43.5h313q0 -137 -77.5 -248.5t-214.5 -157.5l-56 -213l-192 6l47 182q-71 6 -139 27l-56 -215l-190 6l76 301q-91 73 -141 182.5t-50 243.5q0 180 85.5 315.5t230.5 196.5l63 230l191 4l-48 -191h13q61 0 129 -14l55 201l190 4
l-73 -291q77 -62 119 -154.5t45 -197.5h-324q-4 26 -11.5 50t-22.5 50t-42 41.5t-63 15.5q-79 0 -124.5 -65.5t-45.5 -190.5q0 -128 49.5 -201t128.5 -73z" />
    <glyph glyph-name="franc" unicode="&#x20a3;" horiz-adv-x="1318" 
d="M1249 1155h-682v-266h441v-318h-441v-151h279v-203h-279v-217h-452v217h-172v203h172v1061h1136z" />
    <glyph glyph-name="lira" unicode="&#x20a4;" horiz-adv-x="1390" 
d="M1317 422q-45 -202 -178.5 -312t-325.5 -110h-766v326h64q128 0 157 90q8 21 8 57q0 16 -18 16h-209v201h201l-12 98h-189v203h160l-6 99q-7 99 31.5 179t109.5 129.5t163 76t195 26.5q78 0 154.5 -19.5t149.5 -58.5t134 -106.5t97 -155.5l-346 -98q-23 63 -50.5 97
t-74.5 34q-46 0 -72 -32.5t-26 -90.5q0 -15 4 -55q3 -25 24 -25h234v-203h-223l8 -98h215v-201h-228q-37 -99 -133 -161h211q85 0 131 36.5t72 122.5z" />
    <glyph glyph-name="uni20A6" unicode="&#x20a6;" horiz-adv-x="1681" 
d="M1640 909h-22v-299h22v-180h-22v-430h-361l-301 430h-317v-430h-399v430h-217v180h217v299h-217v181h217v391h401l274 -391h304v391h399v-391h22v-181zM1219 655v254h-179zM639 610h190l-190 273v-273z" />
    <glyph glyph-name="uni20A9" unicode="&#x20a9;" horiz-adv-x="2459" 
d="M2419 1149h-330l-37 -119h367v-201h-426l-248 -829h-297l-236 805l-235 -805h-293l-250 829h-411v201h350l-35 119h-315v201h253l-38 131h385l36 -131h377l37 131h279l37 -131h376l37 131h385l-39 -131h271v-201zM719 1149l35 -119h194l33 119h-262zM1677 1030l33 119
h-262l35 -119h194zM811 829l41 -143l39 143h-80zM1581 686l39 143h-80z" />
    <glyph glyph-name="dong" unicode="&#x20ab;" horiz-adv-x="1146" 
d="M1104 1380v-159h-123v-949h-326v99q-57 -60 -115 -87.5t-141 -27.5q-151 0 -241 116t-90 333q0 202 103 329t245 127q59 0 107 -18.5t95 -65.5q33 -22 33 13v131h-194v159h194v101h330v-101h123zM649 563v332q-29 33 -53.5 48t-60.5 15q-64 0 -99 -57.5t-35 -193.5
t33.5 -195t100.5 -59q50 0 82 30.5t32 79.5zM131 0v178h850v-178h-850z" />
    <glyph glyph-name="Euro" unicode="&#x20ac;" horiz-adv-x="1433" 
d="M879 307q72 0 145 47.5t111 108.5l211 -219q-88 -116 -226 -190t-295 -74q-214 0 -376 132.5t-232 356.5h-194v203h157q-4 58 -4 88q0 33 2 49h-155v201h184q63 229 229 360t393 131q165 0 301.5 -67.5t221.5 -184.5l-273 -192q-36 44 -59 68t-65 46.5t-89 22.5
q-148 0 -202 -184h280v-201h-309v-55q0 -55 2 -82h307v-203h-266q65 -162 201 -162z" />
    <glyph glyph-name="uni20B9" unicode="&#x20b9;" horiz-adv-x="1429" 
d="M1364 1300h-248q47 -57 64 -120h184v-181h-174q-17 -108 -85.5 -191.5t-170.5 -123.5q-18 -6 -6 -37l278 -647h-491l-213 612h-441v279h467q81 0 126 26.5t63 81.5h-656v181h650q-42 106 -193 106h-457v195h1303v-181z" />
    <glyph glyph-name="uni20BA" unicode="&#x20ba;" horiz-adv-x="1515" 
d="M1124 627l346 -72q-34 -92 -77.5 -167.5t-113.5 -149.5t-157 -124.5t-212 -82t-275 -31.5h-324v438l-166 -61l-69 190l235 86v117l-207 -76l-69 191l276 100v496h455v-330l221 80l70 -189l-291 -106v-117l260 94l68 -190l-328 -119v-276h47q95 5 177.5 84t133.5 215z" />
    <glyph glyph-name="uni2113" unicode="&#x2113;" horiz-adv-x="1286" 
d="M1083 440l-401 -460q-114 0 -198.5 23t-137 66.5t-82 93t-47.5 113.5q-3 14 -10 7l-88 -60l-82 209l172 131v400q0 263 133.5 400.5t362.5 137.5q105 0 181.5 -28.5t119 -80.5t62 -114.5t19.5 -140.5q0 -44 -5.5 -85.5t-20 -81t-28 -72.5t-40.5 -70t-46.5 -63.5
t-57 -62.5t-60 -58t-68.5 -59.5t-70 -56.5t-75 -59v-70q0 -56 47 -93.5t117 -37.5q71 0 145.5 41.5t139.5 112.5q-2 0 18 18zM616 997v-225q110 107 164 197.5t54 183.5q0 125 -95 125q-38 0 -63.5 -22.5t-42.5 -87t-17 -171.5z" />
    <glyph glyph-name="uni2116" unicode="&#x2116;" horiz-adv-x="2461" 
d="M2060 1501q156 0 253 -97t97 -249q0 -149 -98 -244.5t-252 -95.5t-251 95.5t-97 244.5q0 153 99 249.5t249 96.5zM1120 1481h400v-1481h-361l-618 883v-883h-400v1481h402l577 -826v826zM2060 1346q-50 0 -73 -44.5t-23 -142.5q0 -96 23 -140t73 -44q51 0 75 44t24 140
q0 98 -24 142.5t-75 44.5z" />
    <glyph glyph-name="uni2117" unicode="&#x2117;" horiz-adv-x="1722" 
d="M850 -20q-155 0 -295.5 60t-242.5 161.5t-162 242.5t-60 297q0 154 60 294.5t162 242.5t242.5 162.5t295.5 60.5t296 -60.5t243 -162.5t162.5 -242.5t60.5 -294.5q0 -156 -60.5 -297.5t-162.5 -242.5t-243 -161t-296 -60zM850 182q245 0 392 151.5t147 407.5
q0 254 -147.5 408t-391.5 154q-246 0 -391.5 -153.5t-145.5 -408.5q0 -257 145 -408t392 -151zM1247 862q0 -125 -80 -193.5t-213 -68.5h-170v-252h-241v787h385q139 0 229 -69.5t90 -203.5zM1001 866q0 48 -25 72.5t-63 24.5h-129v-195h136q38 0 59.5 26t21.5 72z" />
    <glyph glyph-name="uni2120" unicode="&#x2120;" horiz-adv-x="2142" 
d="M469 -12q-76 0 -146 17.5t-129.5 52t-98 92.5t-44.5 133h258q11 -50 52.5 -77.5t107.5 -27.5q152 0 152 84q0 20 -11.5 34.5t-37.5 23.5t-47 13.5t-58 10.5l-145 25q-112 18 -177.5 87.5t-66.5 184.5q-1 136 110.5 216.5t278.5 80.5q163 0 276 -87t125 -206h-252
q-8 100 -145 100q-66 0 -96.5 -22t-30.5 -51q0 -33 21.5 -51.5t80.5 -28.5l144 -25q77 -13 132.5 -41.5t84.5 -59t46 -71.5t20.5 -69.5t3.5 -63.5q0 -118 -116.5 -196t-291.5 -78zM1016 0v926h370l150 -566l152 566h368v-926h-250v672l-180 -672h-180l-180 672v-672h-250z
" />
    <glyph glyph-name="trademark" unicode="&#x2122;" horiz-adv-x="2033" 
d="M20 707v219h777v-219h-265v-707h-249v707h-263zM905 0v926h371l149 -566l152 566h369v-926h-250v672l-180 -672h-181l-180 672v-672h-250z" />
    <glyph glyph-name="uni2153" unicode="&#x2153;" horiz-adv-x="2039" 
d="M154 565v658l-156 -35v168l285 141h123v-932h-252zM1509 1497l-995 -1505l-217 4l997 1501h215zM1233 625q0 71 24 126t64.5 89.5t97 57t116 31.5t128.5 9q161 0 271 -69t110 -179q0 -138 -166 -196q78 -21 137.5 -78t59.5 -146q0 -70 -38.5 -127t-99.5 -91t-131.5 -52
t-140.5 -18q-101 0 -175.5 14.5t-134.5 49.5t-91 98.5t-31 156.5h237q8 -46 38 -75.5t63.5 -39.5t70.5 -10q67 0 109.5 28t42.5 66q0 40 -35.5 70t-93.5 31l-125 2v192l111 6q58 3 91.5 30t33.5 67q0 35 -38.5 58.5t-82.5 23.5q-36 0 -62 -3.5t-55.5 -15.5t-46.5 -38.5
t-21 -67.5h-237z" />
    <glyph glyph-name="uni2154" unicode="&#x2154;" horiz-adv-x="2209" 
d="M39 571v177l287 235q127 107 161.5 148.5t34.5 85.5q0 42 -29.5 69t-80.5 27q-125 0 -152 -139h-235q0 153 100.5 247.5t292.5 94.5q170 0 268 -81t98 -216q0 -69 -33 -121.5t-120 -132.5l-205 -187h369v-207h-756zM1679 1497l-995 -1505l-217 4l997 1501h215zM1403 625
q0 71 24 126t64.5 89.5t97 57t116 31.5t128.5 9q161 0 271 -69t110 -179q0 -138 -166 -196q78 -21 137.5 -78t59.5 -146q0 -70 -38.5 -127t-99.5 -91t-131.5 -52t-140.5 -18q-101 0 -175.5 14.5t-134.5 49.5t-91 98.5t-31 156.5h237q8 -46 38 -75.5t63.5 -39.5t70.5 -10
q67 0 109.5 28t42.5 66q0 40 -35.5 70t-93.5 31l-125 2v192l111 6q58 3 91.5 30t33.5 67q0 35 -38.5 58.5t-82.5 23.5q-36 0 -62 -3.5t-55.5 -15.5t-46.5 -38.5t-21 -67.5h-237z" />
    <glyph glyph-name="oneeighth" unicode="&#x215b;" horiz-adv-x="2043" 
d="M154 565v658l-156 -35v168l285 141h123v-932h-252zM1509 1497l-995 -1505l-217 4l997 1501h215zM1606 936q157 0 258.5 -75.5t101.5 -186.5q0 -38 -16 -70t-41 -52t-45.5 -31t-38.5 -17q79 -41 111 -70q71 -64 71 -166q0 -137 -111 -212.5t-299 -75.5q-172 0 -277.5 62.5
t-105.5 176.5q0 145 170 205l-18 11q-17 11 -37 27t-41 40t-35 60t-14 77q0 125 99 211t268 86zM1612 754q-46 0 -76.5 -21.5t-30.5 -58.5q0 -51 62 -72l80 -29q33 -10 62.5 23t29.5 70q0 36 -34 62t-93 26zM1616 162q56 0 86.5 21.5t30.5 58.5q0 28 -17 48.5t-63 37.5
l-90 30q-38 12 -73.5 -17t-35.5 -75q0 -104 162 -104z" />
    <glyph glyph-name="threeeighths" unicode="&#x215c;" horiz-adv-x="2244" 
d="M43 1202q0 71 24 126t64.5 90t97 57.5t116 31.5t128.5 9q161 0 271 -69t110 -179q0 -139 -166 -197q78 -21 137.5 -77.5t59.5 -145.5q0 -70 -38.5 -127t-99.5 -91t-131.5 -52.5t-140.5 -18.5q-101 0 -175.5 14.5t-134.5 49.5t-91 99t-31 157h238q8 -46 38 -75.5
t63.5 -39.5t70.5 -10q67 0 109 28t42 66q0 40 -35.5 69.5t-93.5 30.5l-125 2v193l111 6q58 3 91.5 30t33.5 66q0 35 -38.5 58.5t-82.5 23.5q-36 0 -62 -3.5t-55 -15.5t-46 -38.5t-21 -67.5h-238zM1710 1497l-995 -1505l-217 4l997 1501h215zM1806 936q157 0 259 -75.5
t102 -186.5q0 -38 -16.5 -70t-41.5 -52t-45.5 -31t-38.5 -17q79 -41 110 -69q73 -65 73 -167q0 -137 -111 -212.5t-299 -75.5q-172 0 -277.5 62.5t-105.5 176.5q0 145 170 205l-17 11q-18 11 -38 27t-41 40t-35 60t-14 77q0 125 98.5 211t267.5 86zM1812 754
q-46 0 -76 -21.5t-30 -58.5q0 -51 61 -72l80 -29q33 -10 62.5 23t29.5 70q0 36 -34 62t-93 26zM1817 162q56 0 86 21.5t30 58.5q0 28 -17 48.5t-63 37.5l-90 30q-37 12 -72.5 -17t-35.5 -75q0 -104 162 -104z" />
    <glyph glyph-name="fiveeighths" unicode="&#x215d;" horiz-adv-x="2248" 
d="M147 1497h635l-10 -201h-434l-14 -155q7 2 24 6.5t22.5 6t19.5 5t20.5 4.5t18.5 3.5t19.5 3.5t18 2t20.5 1.5t21 0.5q153 0 246.5 -81.5t93.5 -224.5q0 -148 -103.5 -231.5t-281.5 -83.5q-143 0 -256.5 55t-165.5 144l186 127q25 -33 42 -52t42.5 -39.5t55 -30t65.5 -9.5
q67 0 105 32t38 80q0 47 -36 81t-103 34q-52 0 -127 -33q-12 -6 -17.5 -6t-19.5 6l-170 92zM1714 1497l-995 -1505l-217 4l997 1501h215zM1810 936q157 0 259 -75.5t102 -186.5q0 -38 -16 -70t-41 -52t-45.5 -31t-38.5 -17q79 -41 111 -70q71 -64 71 -166
q0 -137 -111 -212.5t-299 -75.5q-172 0 -277.5 62.5t-105.5 176.5q0 145 170 205l-17 11q-18 11 -38 27t-41 40t-35 60t-14 77q0 125 98.5 211t267.5 86zM1817 754q-46 0 -76.5 -21.5t-30.5 -58.5q0 -51 62 -72l79 -29q33 -10 63 23.5t30 69.5t-34 62t-93 26zM1821 162
q56 0 86 21.5t30 58.5q0 28 -16.5 48.5t-62.5 37.5l-91 30q-37 12 -72.5 -17t-35.5 -75q0 -104 162 -104z" />
    <glyph glyph-name="seveneighths" unicode="&#x215e;" horiz-adv-x="2174" 
d="M1640 1497l-995 -1505l-217 4l997 1501h215zM57 1495h734v-256q-111 -125 -204 -321.5t-89 -354.5h-271q0 55 17 132t52.5 175t104.5 211t160 213h-504v201zM1737 936q157 0 258.5 -75.5t101.5 -186.5q0 -38 -16 -70t-41 -52t-45.5 -31t-38.5 -17q79 -41 111 -70
q71 -64 71 -166q0 -137 -110.5 -212.5t-298.5 -75.5q-172 0 -277.5 62.5t-105.5 176.5q0 145 170 205l-18 11q-17 11 -37 27t-41.5 40t-35.5 60t-14 77q0 125 99 211t268 86zM1743 754q-46 0 -76.5 -21.5t-30.5 -58.5q0 -51 62 -72l80 -29q33 -10 62.5 23t29.5 70
q0 36 -34 62t-93 26zM1747 162q56 0 86.5 21.5t30.5 58.5q0 28 -17 48.5t-63 37.5l-90 30q-38 12 -73.5 -17t-35.5 -75q0 -104 162 -104z" />
    <glyph glyph-name="partialdiff" unicode="&#x2202;" horiz-adv-x="1261" 
d="M203 1133l-105 229q60 49 174.5 94t262.5 45q142 0 259 -47.5t204 -141t135.5 -243.5t48.5 -344q0 -225 -63 -390t-197 -260t-330 -95q-246 0 -385 138.5t-139 356.5q0 139 56 252t165 180.5t252 67.5q63 0 114.5 -15t78 -31.5t61.5 -45.5q15 -13 23.5 -12.5t10.5 7.5
t2 21q0 34 -11 73.5t-38.5 84t-67 80t-103 59t-140.5 23.5q-61 0 -116.5 -15.5t-84.5 -30.5t-67 -40zM586 252h2q88 0 140.5 78t66.5 211q3 30 0.5 41.5t-13.5 29.5q-25 45 -67.5 77t-96.5 32q-80 0 -130 -75t-50 -187q0 -102 41 -154.5t107 -52.5z" />
    <glyph glyph-name="emptyset" unicode="&#x2205;" horiz-adv-x="1255" 
d="M1167 1130l-129 -120q78 -121 78 -265q0 -134 -66 -247.5t-179.5 -179.5t-247.5 -66q-161 0 -293 98l-146 -135l-121 127l148 135q-80 122 -80 268q0 99 39 190.5t105 157.5t157.5 105t190.5 39q169 0 299 -100l129 118zM299 745q0 -79 37 -151l459 426q-77 49 -172 49
q-133 0 -228.5 -96t-95.5 -228zM948 745q0 81 -37 148l-456 -426q74 -47 168 -47q135 0 230 95t95 230z" />
    <glyph glyph-name="product" unicode="&#x220f;" horiz-adv-x="1509" 
d="M1448 1481v-322h-168v-1159h-408v1159h-256v-1159h-407v1159h-166v322h1405z" />
    <glyph glyph-name="summation" unicode="&#x2211;" horiz-adv-x="1261" 
d="M1176 0h-1110v233l413 498l-393 488v262h1053v-314h-512l346 -389l-389 -446h592v-332z" />
    <glyph glyph-name="minus" unicode="&#x2212;" horiz-adv-x="1261" 
d="M1145 887v-283h-1043v283h1043z" />
    <glyph glyph-name="uni2219" unicode="&#x2219;" horiz-adv-x="788" 
d="M379 563q-76 0 -131 55t-55 132q0 76 54.5 131t131.5 55t131.5 -55t54.5 -131q0 -77 -55 -132t-131 -55z" />
    <glyph glyph-name="radical" unicode="&#x221a;" horiz-adv-x="1505" 
d="M1493 1692l-532 -2022h-398l-284 783l-168 -62l-78 213l456 162l267 -741l409 1667h328z" />
    <glyph glyph-name="infinity" unicode="&#x221e;" horiz-adv-x="1730" 
d="M1620 563v-4q0 -184 -111.5 -292.5t-273.5 -108.5q-61 0 -111.5 15.5t-96 50t-74.5 64.5t-76 85q-13 15 -19.5 15.5t-21.5 -15.5q-2 -2 -32.5 -37t-57 -58t-70.5 -54.5t-99 -48.5t-116 -17q-154 0 -262.5 108.5t-108.5 282.5q0 175 112 284t285 109q50 0 94.5 -11
t75.5 -26t68 -45.5t58.5 -52.5t60.5 -64q18 -20 26.5 -19.5t26.5 19.5q40 45 66 70.5t72 60t100.5 51.5t117.5 17q159 0 263 -104t104 -275zM485 389h4q53 0 104 37.5t87 85.5q15 23 14 33t-16 37q-92 135 -195 135q-67 0 -109 -45.5t-42 -116.5q0 -73 44 -119.5t109 -46.5z
M1233 717h-2q-37 0 -76 -22t-62.5 -45.5t-56.5 -61.5q-28 -32 0 -68q96 -131 203 -131q64 0 101.5 50t37.5 114q0 67 -40 115.5t-105 48.5z" />
    <glyph glyph-name="integral" unicode="&#x222b;" horiz-adv-x="1017" 
d="M301 1128q0 297 103 440.5t331 143.5q150 0 230 -51l-74 -320q-77 35 -133 35q-54 0 -76.5 -43.5t-22.5 -156.5q0 -174 16.5 -506t16.5 -422q0 -306 -104 -453t-330 -147q-141 0 -225 49l78 319q62 -32 127 -32q53 0 75.5 43.5t22.5 162.5q0 164 -17.5 506t-17.5 432z
" />
    <glyph glyph-name="approxequal" unicode="&#x2248;" horiz-adv-x="1335" 
d="M1202 944q-62 -113 -152.5 -171t-183.5 -58q-56 0 -113 22.5t-96 49t-89 49t-95 22.5q-37 0 -69.5 -12.5t-68 -44t-53 -50t-57.5 -65.5l-112 188q53 56 90 90.5t83.5 68.5t93.5 49.5t99 15.5q49 0 94.5 -14.5t80 -35.5t67 -42t68 -35.5t69.5 -14.5q67 0 127 47.5
t102 124.5zM1202 492q-62 -113 -152.5 -171.5t-183.5 -58.5q-56 0 -113 22.5t-96 49.5t-89 49.5t-95 22.5q-30 0 -60 -11t-50.5 -24t-49.5 -42t-42.5 -44.5t-43.5 -51.5l-114 189q107 114 187.5 168.5t178.5 54.5q59 0 115.5 -22t93 -48.5t83 -48.5t87.5 -22q67 0 127 47.5
t102 124.5z" />
    <glyph glyph-name="notequal" unicode="&#x2260;" horiz-adv-x="1261" 
d="M1190 797h-428l-86 -199h514v-283h-635l-127 -292h-186l129 292h-224v283h347l88 199h-435v282h558l124 285h179l-123 -285h305v-282z" />
    <glyph glyph-name="lessequal" unicode="&#x2264;" horiz-adv-x="1265" 
d="M1110 694v-332l-1016 394v317l1016 391v-329l-594 -224zM1135 297v-281h-1043v281h1043z" />
    <glyph glyph-name="greaterequal" unicode="&#x2265;" horiz-adv-x="1265" 
d="M135 694l596 217l-596 224v329l1018 -391v-317l-1018 -394v332zM113 297h1042v-281h-1042v281z" />
    <glyph glyph-name="lozenge" unicode="&#x25ca;" horiz-adv-x="1261" 
d="M772 0h-244l-387 741l396 740h245l387 -736zM657 1202l-225 -457l225 -475l228 471z" />
    <glyph glyph-name="i.loclTRK" horiz-adv-x="595" 
d="M510 1481v-334h-399v334h399zM502 1059v-1059h-400v1059h400z" />
    <glyph glyph-name="p.001" horiz-adv-x="1339" 
d="M139 -330v1389h402v-123q67 72 138.5 107.5t170.5 35.5q175 0 283 -138.5t108 -408.5q0 -147 -31.5 -255.5t-88 -172t-127.5 -94t-158 -30.5q-77 0 -146 28.5t-151 110.5v-449h-400zM680 238q76 0 117 69t41 234q0 83 -11.5 140t-34 86t-47.5 40.5t-59 11.5
q-72 0 -109.5 -53.5t-37.5 -183.5v-93q0 -251 141 -251z" />
    <glyph glyph-name="q.001" horiz-adv-x="1249" 
d="M1155 -330h-399v449q-84 -82 -153 -110.5t-146 -28.5q-87 0 -158 30.5t-128 93.5t-88.5 172.5t-31.5 255.5q0 270 108 408.5t283 138.5q99 0 171 -35.5t141 -107.5v123h401v-1389zM612 238q144 0 144 251v93q0 129 -38.5 183t-111.5 54q-34 0 -59 -11.5t-47 -40.5
t-33.5 -86t-11.5 -140q0 -165 41 -234t116 -69z" />
    <glyph glyph-name="l.ss01" horiz-adv-x="696" 
d="M147 0v1522h400v-1522h-400z" />
    <glyph glyph-name="zero.osf" horiz-adv-x="1411" 
d="M707 1503q289 0 462.5 -204.5t173.5 -561.5q0 -356 -171.5 -554.5t-464.5 -198.5q-295 0 -468 199t-173 554q0 357 175 561.5t466 204.5zM705 295q110 0 155 98.5t45 341.5q0 250 -46 355.5t-154 105.5q-107 0 -153 -106t-46 -355q0 -241 45 -340.5t154 -99.5z" />
    <glyph glyph-name="one.osf" horiz-adv-x="878" 
d="M293 0v1047l-246 -56v264l451 226h194v-1481h-399z" />
    <glyph glyph-name="two.osf" horiz-adv-x="1337" 
d="M72 0v279l454 376q205 171 259.5 235t54.5 136q0 68 -47 111t-127 43q-89 0 -154.5 -53t-87.5 -169h-375q0 117 38.5 214.5t114 171.5t196.5 115.5t276 41.5q271 0 427 -129t156 -342q0 -111 -52 -193t-191 -210l-326 -299h584v-328h-1200z" />
    <glyph glyph-name="three.osf" horiz-adv-x="1437" 
d="M47 1004q0 112 38.5 199.5t101.5 143t153 91t185 49.5t204 14q167 0 304.5 -48.5t219.5 -139.5t82 -207q0 -219 -264 -311q44 -12 85.5 -31t83 -50.5t72.5 -69.5t50.5 -91t19.5 -113q0 -89 -40 -166t-106.5 -130t-151.5 -90.5t-175 -55.5t-178 -18q-126 0 -225.5 14
t-187.5 49t-146 91.5t-91.5 145.5t-33.5 207h377q10 -56 39 -96t69.5 -61t80.5 -30t83 -9q106 0 174 43.5t68 105.5q0 63 -56.5 110t-148.5 48l-201 4v307l177 11q93 4 146.5 46.5t53.5 104.5q0 57 -60.5 94t-133.5 37q-44 0 -77.5 -3t-74 -14.5t-67.5 -32t-48 -58.5
t-26 -90h-375z" />
    <glyph glyph-name="four.osf" horiz-adv-x="1323" 
d="M688 1481h395v-863h213v-335h-213v-283h-401l2 283h-647v321zM451 618h237v320z" />
    <glyph glyph-name="five.osf" horiz-adv-x="1404" 
d="M223 1481h1012l-16 -320h-691l-22 -246q105 29 163 40.5t128 11.5q245 0 392.5 -129t147.5 -355q0 -236 -164 -369.5t-448 -133.5q-226 0 -406 88t-264 229l297 201q33 -42 53 -66t53 -55t62 -47t70.5 -27.5t87.5 -11.5q106 0 166.5 50.5t60.5 127.5q0 76 -56.5 129
t-164.5 53q-46 0 -89 -11.5t-112 -41.5q-22 -9 -29.5 -8.5t-29.5 10.5l-270 145z" />
    <glyph glyph-name="six.osf" horiz-adv-x="1388" 
d="M723 1501q155 0 284 -54t209 -161.5t80 -249.5h-360q-24 82 -74 120t-129 38q-122 0 -185.5 -102t-39.5 -236q111 68 297 68q231 0 373.5 -122.5t142.5 -318.5q0 -141 -78 -254t-216.5 -177t-311.5 -64q-202 0 -350 90t-225 252t-77 377q0 371 178.5 582.5t481.5 211.5z
M700 637q-65 0 -130.5 -39.5t-65.5 -69.5q0 -125 52 -188.5t142 -63.5q81 0 143 54t62 135q0 60 -32 100.5t-76 56t-95 15.5z" />
    <glyph glyph-name="seven.osf" horiz-adv-x="1239" 
d="M47 1481h1165v-408q-80 -89 -161.5 -214.5t-152 -269.5t-113.5 -301t-40 -288h-428q0 69 15 159t54 212.5t96.5 248t152.5 269.5t213 272h-801v320z" />
    <glyph glyph-name="eight.osf" horiz-adv-x="1351" 
d="M668 1501q248 0 410.5 -120t162.5 -296q0 -49 -18 -93t-43.5 -72.5t-59 -52t-58 -35t-46.5 -19.5q108 -55 155 -91q136 -108 136 -284q0 -145 -82 -249t-228 -156.5t-342 -52.5q-180 0 -316 43t-214 130.5t-78 208.5q0 71 24 128t67 94.5t84 60t93 41.5q-1 1 -28 17.5
t-58.5 43t-65 64.5t-55.5 95t-22 122q0 96 39.5 181.5t112 150.5t184 103t246.5 38zM676 1212q-73 0 -120.5 -34.5t-47.5 -92.5q0 -79 96 -114l127 -45q54 -18 101 34t47 111q0 58 -54 99.5t-149 41.5zM684 270q90 0 138 34t48 93q0 43 -27.5 76t-101.5 59l-141 52
q-59 21 -116.5 -26.5t-57.5 -121.5q0 -81 60.5 -123.5t197.5 -42.5z" />
    <glyph glyph-name="nine.osf" horiz-adv-x="1388" 
d="M662 -16q-115 0 -220 33.5t-184.5 93t-127 147.5t-48.5 191h375q12 -73 60.5 -115.5t125.5 -42.5q66 0 118.5 18t93.5 57t59 110t8 169q-101 -104 -314 -104q-235 0 -388.5 127t-153.5 333q0 142 78 255.5t216.5 177t311.5 63.5q304 0 477.5 -195.5t173.5 -523.5
q0 -405 -174 -599.5t-487 -194.5zM686 848q65 0 131 39t66 69q0 126 -52.5 190t-142.5 64q-79 0 -133.5 -53.5t-54.5 -136.5q0 -82 55 -127t131 -45z" />
    <glyph glyph-name="zero.tf" horiz-adv-x="1437" 
d="M737 1503q289 0 463 -204.5t174 -561.5q0 -355 -171.5 -554t-465.5 -199q-295 0 -468 199t-173 554q0 357 175 561.5t466 204.5zM735 295q110 0 155.5 98.5t45.5 341.5q0 249 -46.5 355t-154.5 106q-107 0 -152.5 -106t-45.5 -355q0 -242 44.5 -341t153.5 -99z" />
    <glyph glyph-name="one.tf" horiz-adv-x="1437" 
d="M963 369h299v-369h-1086v369h363v688l-363 -80v336l606 168h181v-1112z" />
    <glyph glyph-name="two.tf" horiz-adv-x="1437" 
d="M147 0v279l455 376q143 119 204.5 178.5t85 101t23.5 91.5q0 68 -47 111t-127 43q-89 0 -154 -53t-87 -169h-375q0 117 38.5 214.5t114 171.5t196.5 115.5t276 41.5q271 0 427 -129t156 -342q0 -111 -52 -193t-191 -210l-326 -299h584v-328h-1201z" />
    <glyph glyph-name="three.tf" horiz-adv-x="1437" 
d="M92 1004q0 112 38.5 199.5t101.5 143t153 91t185 49.5t204 14q167 0 304.5 -48.5t219.5 -139.5t82 -207q0 -219 -264 -311q44 -12 85.5 -31t83 -50.5t72.5 -69.5t50.5 -91t19.5 -113q0 -89 -40 -166t-106.5 -130t-151.5 -90.5t-175 -55.5t-178 -18q-126 0 -225.5 14
t-187.5 49t-146 91.5t-91.5 145.5t-33.5 207h377q10 -56 39 -96t69.5 -61t80.5 -30t83 -9q106 0 174 43.5t68 105.5q0 63 -56.5 110t-148.5 48l-200 4v307l176 11q93 4 146.5 46.5t53.5 104.5q0 57 -60.5 94t-133.5 37q-44 0 -77.5 -3t-74 -14.5t-67.5 -32t-48 -58.5
t-26 -90h-375z" />
    <glyph glyph-name="four.tf" horiz-adv-x="1437" 
d="M770 1481h395v-863h213v-335h-213v-283h-401l2 283h-647v321zM532 618h238v320z" />
    <glyph glyph-name="five.tf" horiz-adv-x="1437" 
d="M268 1481h1012l-16 -320h-691l-22 -246q105 29 163 40.5t128 11.5q245 0 392.5 -129t147.5 -355q0 -236 -164 -369.5t-448 -133.5q-226 0 -406 88t-264 229l297 201q33 -42 53 -66t53 -55t62 -47t70.5 -27.5t87.5 -11.5q106 0 166.5 50.5t60.5 127.5q0 76 -56.5 129
t-164.5 53q-46 0 -89 -11.5t-112 -41.5q-22 -9 -29.5 -8.5t-29.5 10.5l-270 145z" />
    <glyph glyph-name="six.tf" horiz-adv-x="1437" 
d="M776 1501q155 0 284.5 -54t209.5 -161.5t80 -249.5h-361q-24 82 -74 120t-129 38q-122 0 -185.5 -102t-39.5 -236q111 68 297 68q231 0 373.5 -122.5t142.5 -318.5q0 -141 -78 -254t-216.5 -177t-311.5 -64q-202 0 -350 90t-224.5 252t-76.5 377q0 371 178 582.5
t481 211.5zM754 637q-65 0 -131 -39.5t-66 -69.5q0 -125 52.5 -188.5t142.5 -63.5q81 0 142.5 54t61.5 135q0 60 -32 100.5t-75.5 56t-94.5 15.5z" />
    <glyph glyph-name="seven.tf" horiz-adv-x="1437" 
d="M109 1481h1185v-408q-80 -89 -161.5 -214.5t-152 -269.5t-113.5 -301t-40 -288h-458q0 69 15 155t53 202.5t95.5 236.5t152 259.5t212.5 268.5h-788v359z" />
    <glyph glyph-name="eight.tf" horiz-adv-x="1437" 
d="M737 1501q248 0 411 -120t163 -296q0 -61 -26 -112t-66.5 -83t-72.5 -49.5t-61 -27.5q108 -55 155 -91q136 -108 136 -284q0 -218 -176.5 -338t-474.5 -120q-180 0 -316 43t-214 130.5t-78 208.5q0 71 24 128t67 94.5t84 60t93 41.5q-1 1 -28 17.5t-58.5 43t-65 64.5
t-55.5 95t-22 122q0 96 39 181t111.5 150.5t184 103.5t246.5 38zM745 1212q-73 0 -120 -34t-47 -93q0 -79 96 -114l127 -45q54 -18 100.5 34t46.5 111q0 58 -54 99.5t-149 41.5zM754 270q90 0 138 34t48 93q0 43 -27.5 76t-101.5 59l-141 52q-59 21 -116.5 -26.5
t-57.5 -121.5q0 -81 60.5 -123.5t197.5 -42.5z" />
    <glyph glyph-name="nine.tf" horiz-adv-x="1437" 
d="M702 -16q-154 0 -285 56.5t-212 164.5t-82 244h375q12 -73 60.5 -115.5t125.5 -42.5q66 0 118.5 18t93.5 57t59 110t8 169q-101 -104 -314 -104q-235 0 -389 127t-154 333q0 142 78.5 255.5t217 177t311.5 63.5q304 0 477.5 -195.5t173.5 -523.5q0 -206 -46.5 -359.5
t-134.5 -248t-208 -140.5t-273 -46zM727 848q65 0 131 39t66 69q0 126 -52.5 190t-142.5 64q-79 0 -133.5 -53.5t-54.5 -136.5q0 -82 55 -127t131 -45z" />
    <glyph glyph-name="zero.subs" horiz-adv-x="882" 
d="M428 598q182 0 291.5 -129t109.5 -354q0 -223 -108 -348t-293 -125q-186 0 -294.5 124.5t-108.5 348.5q0 225 110 354t293 129zM426 -162q70 0 98.5 61.5t28.5 215.5q0 156 -29.5 222t-97.5 66t-96.5 -66t-28.5 -222q0 -152 28.5 -214.5t96.5 -62.5z" />
    <glyph glyph-name="one.subs" horiz-adv-x="649" 
d="M154 -338v657l-156 -34v168l285 141h123v-932h-252z" />
    <glyph glyph-name="two.subs" horiz-adv-x="819" 
d="M39 -338v176l287 236q127 107 161.5 148t34.5 85q0 42 -29.5 69t-80.5 27q-125 0 -152 -139h-235q0 153 100.5 247.5t292.5 94.5q170 0 268 -81t98 -216q0 -69 -33 -121.5t-120 -132.5l-205 -186h369v-207h-756z" />
    <glyph glyph-name="three.subs" horiz-adv-x="849" 
d="M43 287q0 71 24 126t64.5 89.5t97 57t116 31.5t128.5 9q161 0 271 -69t110 -179q0 -138 -166 -196q78 -21 137.5 -78t59.5 -146q0 -70 -38.5 -127t-99.5 -91t-131.5 -52t-140.5 -18q-101 0 -175.5 14.5t-134.5 49.5t-91 98.5t-31 156.5h238q8 -46 38 -75.5t63.5 -39.5
t70.5 -10q67 0 109 28t42 66q0 40 -35.5 70t-93.5 31l-125 2v192l111 6q58 3 91.5 30t33.5 67q0 35 -38.5 58.5t-82.5 23.5q-36 0 -62 -3.5t-55 -15.5t-46 -38.5t-21 -67.5h-238z" />
    <glyph glyph-name="four.subs" horiz-adv-x="882" 
d="M434 594h250v-543h133v-211h-133v-178h-254l2 178h-407v203zM285 51h149v201z" />
    <glyph glyph-name="five.subs" horiz-adv-x="854" 
d="M147 588h635l-10 -201h-434l-14 -156q7 2 24 6.5t22.5 6t19.5 5t20.5 4.5t18.5 3.5t19.5 3.5t18 2t20.5 1.5t21 0.5q153 0 246.5 -81.5t93.5 -223.5q0 -148 -103.5 -231.5t-281.5 -83.5q-143 0 -256.5 55t-165.5 143l186 127q25 -33 42 -52t42.5 -39.5t55 -30t65.5 -9.5
q66 0 104.5 32.5t38.5 80.5q0 47 -36 81t-103 34q-52 0 -127 -33q-12 -6 -17.5 -6t-19.5 6l-170 92z" />
    <glyph glyph-name="six.subs" horiz-adv-x="858" 
d="M436 596q151 0 256 -80t105 -213h-228q-29 100 -127 100q-76 0 -115.5 -64t-25.5 -149q71 43 186 43q146 0 236 -77.5t90 -200.5q0 -134 -108.5 -222.5t-272.5 -88.5q-191 0 -301.5 123.5t-110.5 328.5q0 233 112.5 366.5t303.5 133.5zM422 53q-41 0 -82 -24.5t-41 -44.5
q0 -79 32.5 -118.5t88.5 -39.5q52 0 90.5 34t38.5 85q0 55 -38 81.5t-89 26.5z" />
    <glyph glyph-name="seven.subs" horiz-adv-x="780" 
d="M57 594h734v-256q-111 -125 -204 -321.5t-89 -354.5h-271q0 55 17 132t52.5 175t104.5 211t160 213h-504v201z" />
    <glyph glyph-name="eight.subs" horiz-adv-x="854" 
d="M416 600q157 0 258.5 -75.5t101.5 -186.5q0 -38 -16 -70t-41 -52t-45.5 -31t-38.5 -17q79 -41 111 -70q71 -64 71 -166q0 -137 -110.5 -212.5t-298.5 -75.5q-172 0 -277.5 62.5t-105.5 176.5q0 145 170 205l-17 11q-18 11 -38 27t-41.5 40t-35.5 60t-14 77q0 125 99 211
t268 86zM422 418q-46 0 -76.5 -21.5t-30.5 -58.5q0 -51 62 -72l80 -28q33 -10 62.5 23t29.5 69t-34 62t-93 26zM426 -174q56 0 86.5 21.5t30.5 58.5q0 28 -17 48.5t-63 37.5l-90 31q-37 12 -73 -17.5t-36 -75.5q0 -104 162 -104z" />
    <glyph glyph-name="nine.subs" horiz-adv-x="858" 
d="M408 -358q-97 0 -179.5 35.5t-133.5 103.5t-52 153h236q8 -47 38 -73.5t80 -26.5q87 0 136 52t38 171q-62 -65 -196 -65q-148 0 -245 80.5t-97 210.5q0 135 108 223t273 88q191 0 300 -123t109 -330q0 -255 -109 -377t-306 -122zM424 184q41 0 82 25t41 45
q0 79 -33 119.5t-90 40.5q-50 0 -84.5 -34t-34.5 -87q0 -51 35.5 -80t83.5 -29z" />
    <glyph glyph-name="zero.dnom" horiz-adv-x="882" 
d="M428 936q182 0 291.5 -129t109.5 -354q0 -223 -108 -348t-293 -125q-186 0 -294.5 124.5t-108.5 348.5q0 225 110 354t293 129zM426 176q70 0 98.5 61.5t28.5 215.5q0 156 -29.5 222t-97.5 66t-96.5 -66t-28.5 -222q0 -152 28.5 -214.5t96.5 -62.5z" />
    <glyph glyph-name="one.dnom" horiz-adv-x="649" 
d="M154 0v657l-156 -34v168l285 141h123v-932h-252z" />
    <glyph glyph-name="two.dnom" horiz-adv-x="819" 
d="M39 0v176l287 236q127 107 161.5 148t34.5 85q0 42 -29.5 69t-80.5 27q-125 0 -152 -139h-235q0 153 100.5 247.5t292.5 94.5q170 0 268 -81t98 -216q0 -69 -33 -121.5t-120 -132.5l-205 -186h369v-207h-756z" />
    <glyph glyph-name="three.dnom" horiz-adv-x="849" 
d="M43 625q0 71 24 126t64.5 89.5t97 57t116 31.5t128.5 9q161 0 271 -69t110 -179q0 -138 -166 -196q78 -21 137.5 -78t59.5 -146q0 -70 -38.5 -127t-99.5 -91t-131.5 -52t-140.5 -18q-101 0 -175.5 14.5t-134.5 49.5t-91 98.5t-31 156.5h238q8 -46 38 -75.5t63.5 -39.5
t70.5 -10q67 0 109 28t42 66q0 40 -35.5 70t-93.5 31l-125 2v192l111 6q58 3 91.5 30t33.5 67q0 35 -38.5 58.5t-82.5 23.5q-36 0 -62 -3.5t-55 -15.5t-46 -38.5t-21 -67.5h-238z" />
    <glyph glyph-name="four.dnom" horiz-adv-x="882" 
d="M434 932h250v-543h133v-211h-133v-178h-254l2 178h-407v203zM285 389h149v201z" />
    <glyph glyph-name="five.dnom" horiz-adv-x="854" 
d="M147 926h635l-10 -201h-434l-14 -156q7 2 24 6.5t22.5 6t19.5 5t20.5 4.5t18.5 3.5t19.5 3.5t18 2t20.5 1.5t21 0.5q153 0 246.5 -81.5t93.5 -223.5q0 -148 -103.5 -231.5t-281.5 -83.5q-143 0 -256.5 55t-165.5 143l186 127q25 -33 42 -52t42.5 -39.5t55 -30t65.5 -9.5
q66 0 104.5 32.5t38.5 80.5q0 47 -35.5 80.5t-103.5 33.5q-54 0 -127 -32q-12 -6 -17.5 -6t-19.5 6l-170 92z" />
    <glyph glyph-name="six.dnom" horiz-adv-x="858" 
d="M436 934q151 0 256 -80t105 -213h-228q-29 100 -127 100q-76 0 -115.5 -64t-25.5 -149q71 43 186 43q146 0 236 -77.5t90 -200.5q0 -134 -108.5 -222.5t-272.5 -88.5q-191 0 -301.5 123.5t-110.5 328.5q0 233 112.5 366.5t303.5 133.5zM422 391q-41 0 -82 -24.5
t-41 -44.5q0 -79 32.5 -118.5t88.5 -39.5q52 0 90.5 34t38.5 85q0 55 -38 81.5t-89 26.5z" />
    <glyph glyph-name="seven.dnom" horiz-adv-x="780" 
d="M57 932h734v-256q-111 -125 -204 -321.5t-89 -354.5h-271q0 55 17 132t52.5 175t104.5 211t160 213h-504v201z" />
    <glyph glyph-name="eight.dnom" horiz-adv-x="854" 
d="M416 936q157 0 258.5 -75.5t101.5 -186.5q0 -38 -16 -70t-41 -52t-45.5 -31t-38.5 -17q79 -41 111 -70q71 -64 71 -166q0 -137 -110.5 -212.5t-298.5 -75.5q-172 0 -277.5 62.5t-105.5 176.5q0 145 170 205l-17 11q-18 11 -38 27t-41.5 40t-35.5 60t-14 77q0 125 99 211
t268 86zM422 754q-46 0 -76.5 -21.5t-30.5 -58.5q0 -51 62 -72l80 -29q33 -10 62.5 23t29.5 70q0 36 -34 62t-93 26zM426 162q56 0 86.5 21.5t30.5 58.5q0 28 -17 48.5t-63 37.5l-90 30q-38 12 -73.5 -17t-35.5 -75q0 -104 162 -104z" />
    <glyph glyph-name="nine.dnom" horiz-adv-x="858" 
d="M408 -20q-97 0 -179.5 35.5t-133.5 103.5t-52 153h236q8 -47 38 -73.5t80 -26.5q87 0 136 52t38 171q-62 -65 -196 -65q-148 0 -245 80.5t-97 210.5q0 135 108 223t273 88q191 0 300 -123t109 -330q0 -255 -109 -377t-306 -122zM424 522q41 0 82 25t41 45q0 79 -33 119.5
t-90 40.5q-50 0 -84.5 -34t-34.5 -87q0 -51 35.5 -80t83.5 -29z" />
    <glyph glyph-name="zero.numr" horiz-adv-x="882" 
d="M428 1518q182 0 291.5 -129.5t109.5 -354.5q0 -223 -108 -348t-293 -125q-186 0 -294.5 124.5t-108.5 348.5q0 225 110 354.5t293 129.5zM426 758q71 0 99 61t28 215q0 156 -29.5 222.5t-97.5 66.5t-96.5 -66t-28.5 -223q0 -151 28.5 -213.5t96.5 -62.5z" />
    <glyph glyph-name="one.numr" horiz-adv-x="649" 
d="M154 565v658l-156 -35v168l285 141h123v-932h-252z" />
    <glyph glyph-name="two.numr" horiz-adv-x="819" 
d="M39 571v177l287 235q127 107 161.5 148.5t34.5 85.5q0 42 -29.5 69t-80.5 27q-125 0 -152 -139h-235q0 153 100.5 247.5t292.5 94.5q170 0 268 -81t98 -216q0 -69 -33 -121.5t-120 -132.5l-205 -187h369v-207h-756z" />
    <glyph glyph-name="three.numr" horiz-adv-x="849" 
d="M43 1202q0 71 24 126t64.5 90t97 57.5t116 31.5t128.5 9q161 0 271 -69t110 -179q0 -139 -166 -197q78 -21 137.5 -77.5t59.5 -145.5q0 -70 -38.5 -127t-99.5 -91t-131.5 -52.5t-140.5 -18.5q-101 0 -175.5 14.5t-134.5 49.5t-91 99t-31 157h238q8 -46 38 -75.5
t63.5 -39.5t70.5 -10q67 0 109 28t42 66q0 40 -35.5 69.5t-93.5 30.5l-125 2v193l111 6q58 3 91.5 30t33.5 66q0 35 -38.5 58.5t-82.5 23.5q-36 0 -62 -3.5t-55 -15.5t-46 -38.5t-21 -67.5h-238z" />
    <glyph glyph-name="four.numr" horiz-adv-x="882" 
d="M434 1497h250v-543h133v-211h-133v-178h-254l2 178h-407v203zM285 954h149v201z" />
    <glyph glyph-name="five.numr" horiz-adv-x="854" 
d="M147 1497h635l-10 -201h-434l-14 -155q7 2 24 6.5t22.5 6t19.5 5t20.5 4.5t18.5 3.5t19.5 3.5t18 2t20.5 1.5t21 0.5q153 0 246.5 -81.5t93.5 -224.5q0 -148 -103.5 -231.5t-281.5 -83.5q-143 0 -256.5 55t-165.5 144l186 127q25 -33 42 -52t42.5 -39.5t55 -30t65.5 -9.5
q67 0 105 32t38 80q0 47 -36 81t-103 34q-52 0 -127 -33q-12 -6 -17.5 -6t-19.5 6l-170 92z" />
    <glyph glyph-name="six.numr" horiz-adv-x="858" 
d="M436 1518q151 0 256 -80t105 -213h-228q-29 100 -127 100q-76 0 -115.5 -64t-25.5 -149q71 43 186 43q146 0 236 -77.5t90 -200.5q0 -134 -108.5 -223t-272.5 -89q-191 0 -301.5 124t-110.5 329q0 233 112.5 366.5t303.5 133.5zM422 975q-41 0 -82 -25t-41 -45
q0 -79 32.5 -118t88.5 -39q53 0 91 33.5t38 84.5q0 55 -38 82t-89 27z" />
    <glyph glyph-name="seven.numr" horiz-adv-x="780" 
d="M57 1495h734v-256q-111 -125 -204 -321.5t-89 -354.5h-271q0 55 17 132t52.5 175t104.5 211t160 213h-504v201z" />
    <glyph glyph-name="eight.numr" horiz-adv-x="854" 
d="M416 1516q157 0 258.5 -75.5t101.5 -187.5q0 -38 -16 -70t-41 -52t-45.5 -31t-38.5 -17q78 -40 108 -67q74 -65 74 -168q0 -137 -110.5 -213t-298.5 -76q-172 0 -277.5 63t-105.5 177q0 145 170 205l-17 11q-18 11 -38 27t-41.5 40t-35.5 60t-14 77q0 125 99 211t268 86z
M422 1333q-46 0 -76.5 -21.5t-30.5 -58.5q0 -50 62 -71l80 -29q33 -10 62.5 23t29.5 69t-34 62t-93 26zM426 741q56 0 86.5 21.5t30.5 58.5q0 28 -17 48.5t-63 37.5l-90 31q-38 12 -73.5 -17t-35.5 -75q0 -105 162 -105z" />
    <glyph glyph-name="nine.numr" horiz-adv-x="858" 
d="M408 563q-97 0 -179.5 36t-133.5 104t-52 153h236q8 -47 38 -73.5t80 -26.5q87 0 136 52t38 171q-63 -66 -196 -66q-148 0 -245 80.5t-97 210.5q0 135 108.5 223.5t272.5 88.5q191 0 300 -123t109 -330q0 -255 -109 -377.5t-306 -122.5zM424 1106q41 0 82 25t41 45
q0 79 -33 119t-90 40q-50 0 -84.5 -34t-34.5 -87q0 -51 35.5 -79.5t83.5 -28.5z" />
    <glyph glyph-name="period.tf" horiz-adv-x="632" 
d="M569 401v-401h-419v401h419z" />
    <glyph glyph-name="comma.tf" horiz-adv-x="632" 
d="M160 -313l123 301l-119 14v346h362v-307l-235 -354h-131z" />
    <glyph glyph-name="bullet.uc" horiz-adv-x="788" 
d="M379 444q-127 0 -217 91t-90 219q0 126 90 216.5t217 90.5t218 -90.5t91 -216.5q0 -128 -91 -219t-218 -91z" />
    <glyph glyph-name="caroncomb.alt" horiz-adv-x="0" 
d="M-328 989q-12 0 -17.5 10t-0.5 21l61 154q8 20 5.5 30t-19.5 13l-25 4q-19 2 -26.5 8.5t-7.5 23.5v197q0 31 26 31h195q26 0 26 -25v-235q0 -9 -6 -21l-76 -180q-6 -17 -19 -24t-42 -7h-74z" />
    </font>
</defs>
</svg>
