<?xml version="1.0" standalone="no"?>
<!DOCTYPE svg PUBLIC "-//W3C//DTD SVG 1.1//EN" "http://www.w3.org/Graphics/SVG/1.1/DTD/svg11.dtd" >
<svg xmlns="http://www.w3.org/2000/svg" xmlns:xlink="http://www.w3.org/1999/xlink" version="1.1">
<metadata>
Created by FontForge 20201107 at Thu Jun 12 13:50:17 2025
 By 
copyright missing
</metadata>
<defs>
<font id="PublicSans-BlackItalic" horiz-adv-x="0" >
  <font-face 
    font-family="Public Sans Black"
    font-weight="900"
    font-style="italic"
    font-stretch="normal"
    units-per-em="2048"
    panose-1="0 0 10 0 0 0 0 0 0 0"
    ascent="1597"
    descent="-451"
    x-height="1057"
    cap-height="1481"
    bbox="-1024 -512 2736.61 2357"
    underline-thickness="102"
    underline-position="-204"
    slope="-8"
    unicode-range="U+000D-FB02"
  />
<missing-glyph horiz-adv-x="1300" 
d="M305 1690h1016l-283 -2020h-1013zM963 -125l241 1716h-739zM379 1475l-238 -1704h736z" />
    <glyph glyph-name="fi" unicode="fi" horiz-adv-x="1400" 
d="M1446 1520l-49 -334h-400l50 334h399zM862 1057l-39 -269h-190l-111 -788h-399l110 788h-172l39 269h170l21 143q19 129 114.5 205t241.5 76h283l-35 -260h-121q-50 0 -73.5 -21.5t-30.5 -79.5l-11 -63h203zM1378 1057l-147 -1057h-397l147 1057h397z" />
    <glyph glyph-name="fl" unicode="fl" horiz-adv-x="1499" 
d="M1231 -23q-81 0 -143 11.5t-101.5 28.5t-65 46t-37.5 55.5t-15 65.5t-0.5 66.5t8.5 68.5l170 1201h391l-162 -1147q-2 -27 0 -50t27.5 -41.5t74.5 -25.5l41 -4l-35 -242q-86 -33 -153 -33zM862 1057l-39 -269h-190l-111 -788h-399l110 788h-172l39 269h170l21 143
q19 129 114.5 205t241.5 76h283l-35 -260h-121q-50 0 -73.5 -21.5t-30.5 -79.5l-11 -63h203z" />
    <glyph glyph-name="colon_one_eight_F_colon.liga" unicode="&#x3a;&#x31;&#x38;F&#x3a;" horiz-adv-x="1826" 
d="M195 1556h1507q24 0 24 -24v-1505q0 -12 -6.5 -19.5t-17.5 -7.5h-1507q-25 0 -25 27v1505q0 24 25 24zM922 479q72 0 124 52t52 124q0 91 -76 144q53 47 53 116q0 64 -45 109t-108 45q-67 0 -111.5 -44.5t-44.5 -109.5q0 -64 55 -116q-76 -51 -76 -144q0 -72 52 -124
t125 -52zM659 498v555q0 10 -8 10h-137q-8 0 -8 -10v-52q0 -10 8 -10h74v-493q0 -9 6 -9h57q8 0 8 9zM1415 1001v52q0 10 -8 10h-215q-8 0 -8 -10v-555q0 -9 8 -9h53q12 0 12 9v252h123q9 0 9 8v53q0 8 -9 8h-123v172h150q8 0 8 10zM922 834q-36 0 -61 23t-25 58q0 36 25 61
t61 25q35 0 59.5 -24.5t24.5 -61.5q0 -35 -24 -58t-60 -23zM922 760q44 0 74 -30.5t30 -74.5t-30 -74t-74 -30q-43 0 -74 30t-31 74t31 74.5t74 30.5z" />
    <glyph glyph-name="colon_f_l_a_g_two_colon.liga" unicode="&#x3a;flag&#x32;&#x3a;" horiz-adv-x="2617" 
d="M252 1556h2183v-1554h-2183v1554zM2306 1321v109h-1094v-109h1094zM444 1198h129v119h-129v-119zM928 1198h125v119h-125v-119zM688 1077h125v121h-125v-121zM1212 1081h1094v113h-1094v-113zM449 958h124v119h-124v-119zM1053 1077h-125v-119h125v119zM813 958h-125
v-120h125v120zM1212 842h1094v112h-1094v-112zM573 838h-124v-119h124v119zM1053 838h-125v-119h125v119zM1212 602h1094v113h-1094v-113zM2306 475h-1929v-113h1929v113zM379 129h1927v107h-1927v-107z" />
    <glyph glyph-name="colon_f_l_a_g_colon.liga" unicode="&#x3a;flag&#x3a;" horiz-adv-x="2617" 
d="M252 1556h2183v-1554h-2183v1554zM2314 1436h-1943v-838h1943v121h-1104v119h1104v120h-1104v119h1104v121h-1104v119h1104v119zM610 1317v-119h-118v119h118zM1090 1317v-119h-119v119h119zM850 1198v-121h-119v121h119zM610 1077v-119h-118v119h118zM1090 1077v-119
h-119v119h119zM850 958v-120h-119v120h119zM610 838v-119h-118v119h118zM1090 838v-119h-119v119h119zM2314 479h-1943v-121h1943v121zM371 119h1943v121h-1943v-121z" />
    <glyph glyph-name=".notdef" horiz-adv-x="1300" 
d="M305 1690h1016l-283 -2020h-1013zM963 -125l241 1716h-739zM379 1475l-238 -1704h736z" />
    <glyph glyph-name="uni0000" 
 />
    <glyph glyph-name="nonmarkingreturn" horiz-adv-x="682" 
 />
    <glyph glyph-name="CR" unicode="&#xd;" horiz-adv-x="399" 
 />
    <glyph glyph-name="space" unicode=" " horiz-adv-x="481" 
 />
    <glyph glyph-name="exclam" unicode="!" horiz-adv-x="628" 
d="M664 1481l-244 -951h-242l25 951h461zM485 393l-55 -393h-420l53 393h422z" />
    <glyph glyph-name="quotedbl" unicode="&#x22;" horiz-adv-x="1091" 
d="M651 1481l-182 -662h-190v662h372zM1176 1481l-183 -662h-190v662h373z" />
    <glyph glyph-name="numbersign" unicode="#" horiz-adv-x="1282" 
d="M1272 862h-250l-66 -227h218l-29 -193h-244l-129 -446l-192 27l120 419h-245l-129 -446l-195 27l121 419h-223l24 193h254l66 227h-219l26 191h248l123 428l197 -19l-119 -409h245l123 428l197 -19l-119 -409h221zM756 635l63 227h-244l-65 -227h246z" />
    <glyph glyph-name="dollar" unicode="$" horiz-adv-x="1429" 
d="M1311 444q-26 -187 -182 -317.5t-379 -130.5l-23 -141h-252l23 141q-161 13 -280.5 69t-219.5 156l215 209q157 -129 324 -172l49 324q-128 16 -219 60.5t-137 108.5t-61.5 138.5t-2.5 159.5q17 116 97 213t197 151.5t242 54.5l25 131h246l-21 -137q232 -54 369 -176
l-186 -205q-79 67 -123 89t-101 22l-39 -277l148 -34q146 -38 230 -158.5t61 -278.5zM635 940l35 258q-61 0 -121 -41t-60 -104q0 -77 80 -99zM782 279q86 10 139.5 49.5t59.5 93.5q6 49 -29.5 80.5t-130.5 44.5z" />
    <glyph glyph-name="percent" unicode="%" horiz-adv-x="1984" 
d="M600 1503q110 0 196.5 -64t126 -166.5t23.5 -215.5q-22 -157 -147 -274t-283 -117q-113 0 -201 62t-128.5 162t-24.5 212q15 103 78.5 195t159.5 149t200 57zM1769 1497l-1210 -1505l-242 4l1211 1501h241zM508 862q125 0 156 238q16 106 3 157.5t-65 51.5
q-121 0 -158 -254q-15 -98 -2 -145.5t66 -47.5zM1516 815q110 0 196.5 -63.5t126 -165.5t23.5 -215q-22 -157 -148 -274t-284 -117q-113 0 -200.5 62t-127.5 162t-25 212q24 159 152.5 279t286.5 120zM1423 176q66 0 102 59t54 179q17 106 5 157.5t-64 51.5
q-126 0 -158 -254q-17 -98 -4.5 -145.5t65.5 -47.5z" />
    <glyph glyph-name="ampersand" unicode="&#x26;" horiz-adv-x="1748" 
d="M948 1503q140 0 247 -42t160.5 -117t39.5 -168q-14 -108 -109 -202t-252 -188l123 -174q100 236 113 269h411q-50 -85 -187.5 -256t-182.5 -238l278 -387h-454l-93 127q-231 -137 -512 -137q-256 0 -365.5 103t-84.5 278q11 78 44.5 141t93.5 118t134.5 101t184.5 100
q-10 15 -25.5 36t-25 33.5t-22 31t-19.5 31.5t-15.5 30t-12.5 32.5t-7 33.5t-3 37.5t3 40.5q23 160 173 263t365 103zM934 1274q-52 -3 -87.5 -33t-41.5 -74q-9 -59 57 -141l39 -51q74 49 110 91t42 87q7 59 -26.5 91.5t-92.5 29.5zM696 612q-179 -98 -164 -213
q4 -37 29 -64t55 -37.5t60 -10.5q44 0 105 17t104 50z" />
    <glyph glyph-name="quotesingle" unicode="'" horiz-adv-x="548" 
d="M594 1481l-182 -662h-191v662h373z" />
    <glyph glyph-name="parenleft" unicode="(" horiz-adv-x="755" 
d="M289 -330q-39 77 -68 142.5t-56 140.5t-43 147t-25 150.5t-6.5 163.5t15.5 176q64 463 398 891h319q-145 -209 -244.5 -447.5t-136.5 -488.5q-28 -230 -4.5 -430t99.5 -445h-248z" />
    <glyph glyph-name="parenright" unicode=")" horiz-adv-x="751" 
d="M-115 -330q143 209 242.5 448.5t136.5 487.5q29 227 6 430t-100 445h248q47 -92 80 -170t61 -170t41.5 -179.5t13.5 -190t-16 -210.5q-65 -468 -395 -891h-318z" />
    <glyph glyph-name="asterisk" unicode="*" horiz-adv-x="1118" 
d="M748 559l-138 301l-219 -301l-198 156l262 256l-316 90l111 211l297 -146l24 355h244l-82 -340l326 139l43 -233l-338 -91l194 -266z" />
    <glyph glyph-name="plus" unicode="+" horiz-adv-x="1263" 
d="M1198 887l-43 -283h-379l-53 -379h-281l54 379h-379l37 283h383l53 381h280l-53 -381h381z" />
    <glyph glyph-name="comma" unicode="," horiz-adv-x="634" 
d="M-16 -313l166 301l-117 14l47 346h362l-41 -307l-284 -354h-133z" />
    <glyph glyph-name="hyphen" unicode="-" horiz-adv-x="839" 
d="M727 664l-41 -279h-594l37 279h598z" />
    <glyph glyph-name="period" unicode="." horiz-adv-x="632" 
d="M494 401l-56 -401h-420l56 401h420z" />
    <glyph glyph-name="slash" unicode="/" horiz-adv-x="851" 
d="M-57 0l731 1481h278l-733 -1481h-276z" />
    <glyph glyph-name="zero" unicode="0" horiz-adv-x="1409" 
d="M842 1503q187 0 319 -99.5t186 -273.5t23 -393q-30 -219 -131.5 -389.5t-260.5 -267t-349 -96.5q-191 0 -324 96.5t-187 267t-24 389.5t134 393t265 273.5t349 99.5zM670 295q112 0 170 98t90 342q36 249 5.5 355t-138.5 106q-107 0 -168.5 -106.5t-98.5 -354.5
q-32 -241 -0.5 -340.5t140.5 -99.5z" />
    <glyph glyph-name="one" unicode="1" horiz-adv-x="882" 
d="M221 0l146 1047l-254 -58l37 266l483 226h196l-208 -1481h-400z" />
    <glyph glyph-name="two" unicode="2" horiz-adv-x="1331" 
d="M-8 0l39 276l506 379q160 119 230.5 179t99 101t34.5 91q9 68 -30.5 111t-120.5 43q-45 0 -82.5 -8t-81.5 -29t-88 -65.5t-86 -110.5l-283 127q147 210 313 308.5t377 98.5q267 0 400 -129t102 -342q-17 -111 -80 -193t-219 -210l-369 -299h584l-45 -328h-1200z" />
    <glyph glyph-name="three" unicode="3" horiz-adv-x="1368" 
d="M213 1255q91 108 262 177t350 69q253 0 400.5 -109t124.5 -286q-33 -219 -310 -311q53 -16 100.5 -43.5t89 -70t61 -105.5t9.5 -138q-15 -110 -87 -200t-175 -145t-218 -84t-226 -29q-192 0 -355 88.5t-225 224.5l308 194q87 -111 155 -153.5t178 -42.5q91 0 149.5 38.5
t67.5 102.5q11 71 -41 116t-147 48l-209 6l43 305l176 11q96 6 156.5 48.5t69.5 108.5q8 51 -34.5 87t-111.5 36q-92 0 -170 -37.5t-180 -128.5z" />
    <glyph glyph-name="four" unicode="4" horiz-adv-x="1323" 
d="M823 1481h394l-123 -863h213l-41 -301h-213l-45 -317h-402l47 317h-647l41 287zM381 618h319l64 447z" />
    <glyph glyph-name="five" unicode="5" horiz-adv-x="1402" 
d="M356 1481h1010l-61 -320h-689l-59 -248q105 30 166.5 42t132.5 12q245 0 374 -129t99 -355q-34 -236 -217 -369.5t-467 -133.5q-226 0 -392.5 88t-229.5 229l323 201q27 -43 43.5 -66t45 -54.5t55 -47.5t66 -27.5t85.5 -11.5q107 0 175 50.5t79 127.5q8 76 -40.5 129
t-156.5 53q-45 0 -89 -12t-117 -43q-23 -9 -31.5 -8.5t-28.5 12.5l-250 143z" />
    <glyph glyph-name="six" unicode="6" horiz-adv-x="1382" 
d="M862 1497q109 0 204 -36.5t154.5 -92t93.5 -118t36 -117.5l-357 -99q-31 79 -67.5 117.5t-106.5 38.5q-123 0 -195.5 -93t-80.5 -247q131 45 188 57.5t123 12.5q231 0 357.5 -123.5t97.5 -317.5q-19 -141 -113 -254t-242 -177t-321 -64q-202 0 -336 90t-186.5 251.5
t-22.5 376.5q52 371 261.5 583t512.5 212zM709 633q-47 0 -101.5 -16t-83.5 -35q-13 -9 -18 -20t-8 -38q-18 -118 26 -185t133 -67q78 0 139.5 53.5t73.5 135.5q11 83 -37 127.5t-124 44.5z" />
    <glyph glyph-name="seven" unicode="7" horiz-adv-x="1239" 
d="M180 1481h1166l-58 -410q-93 -88 -192.5 -213.5t-189.5 -269t-154.5 -300.5t-79.5 -288h-428q10 70 37.5 159.5t83.5 212t130.5 247.5t189.5 269.5t251 272.5h-801z" />
    <glyph glyph-name="eight" unicode="8" horiz-adv-x="1351" 
d="M805 1501q249 0 394.5 -120t119.5 -296q-7 -50 -31 -94t-53.5 -73t-65.5 -52t-62 -34.5t-48 -18.5q91 -53 123 -79q138 -112 112 -298q-30 -216 -223 -336t-491 -120q-180 0 -310 43t-196 130.5t-49 208.5q8 58 32 107t54 82t72 60.5t78 43.5t79 31q-1 1 -25.5 17.5
t-52.5 43t-56 64.5t-42.5 95t-5.5 122q14 96 65.5 181t133 150.5t197.5 103.5t251 38zM772 1210q-73 0 -125 -33.5t-59 -91.5q-5 -39 15.5 -69t64.5 -45l120 -45q51 -19 105.5 32.5t62.5 110.5q8 58 -40 99.5t-144 41.5zM649 270q89 0 142.5 34t62.5 93q5 44 -17.5 76.5
t-93.5 58.5l-135 50q-56 22 -119 -25t-75 -123q-11 -79 43.5 -121.5t191.5 -42.5z" />
    <glyph glyph-name="nine" unicode="9" horiz-adv-x="1388" 
d="M578 -16q-88 0 -167.5 24t-136 62.5t-99 86.5t-63.5 97.5t-22 93.5l354 101q33 -82 68.5 -120t105.5 -38q122 0 201 102t74 236q-124 -68 -307 -68q-231 0 -356 122t-99 318q31 214 222.5 355t453.5 141q152 0 267 -52t184.5 -146t95.5 -227t4 -294q-52 -370 -264 -582
t-516 -212zM729 848q67 0 138.5 39t74.5 69q18 125 -25.5 188.5t-134.5 63.5q-79 0 -141 -53t-72 -135q-13 -83 35 -127.5t125 -44.5z" />
    <glyph glyph-name="colon" unicode=":" horiz-adv-x="634" 
d="M588 1049l-58 -394h-417l53 394h422zM496 399l-56 -393h-417l53 393h420z" />
    <glyph glyph-name="semicolon" unicode=";" horiz-adv-x="643" 
d="M119 641l55 401h418l-55 -401h-418zM-37 -338l203 338h-137l53 395h422l-55 -364l-306 -369h-180z" />
    <glyph glyph-name="less" unicode="&#x3c;" horiz-adv-x="1263" 
d="M1100 471l-41 -315l-963 389l43 319l1073 391l-49 -346l-624 -215z" />
    <glyph glyph-name="equal" unicode="=" horiz-adv-x="1263" 
d="M1223 1077l-39 -280h-1043l39 280h1043zM1155 596l-39 -281h-1042l39 281h1042z" />
    <glyph glyph-name="greater" unicode="&#x3e;" horiz-adv-x="1259" 
d="M127 487l623 207l-564 232l45 315l963 -393l-47 -318l-1069 -389z" />
    <glyph glyph-name="question" unicode="?" horiz-adv-x="1148" 
d="M86 1133q186 368 600 368q232 0 367 -108.5t114 -257.5q-8 -61 -36.5 -112.5t-67 -88.5t-84 -70.5t-91.5 -66.5t-84.5 -69t-67 -84.5t-36.5 -106.5h-311q14 102 57.5 188t96.5 141.5t104.5 102t89.5 94t43 94.5q6 39 -23.5 61.5t-78.5 22.5q-70 0 -136 -49t-106 -137z
M735 393l-57 -393h-418l53 393h422z" />
    <glyph glyph-name="at" unicode="@" horiz-adv-x="1730" 
d="M1307 -92q-86 -54 -225 -93.5t-296 -39.5q-184 0 -328 60.5t-231 165.5t-123 245t-14 299q22 158 99 298.5t195 246t282 167.5t350 62q116 0 220 -24.5t192.5 -77t148.5 -129.5t86 -188.5t8 -246.5q-32 -220 -156.5 -355.5t-297.5 -135.5q-144 0 -203 110
q-23 -64 -103 -101.5t-186 -37.5q-146 0 -226 104t-55 271q26 180 154.5 310t308.5 130q82 0 129 -30t78 -78l29 55h219l-139 -446q-23 -80 20 -80q79 0 136.5 94.5t76.5 220.5q14 100 -2 176.5t-54.5 124.5t-99.5 78.5t-129.5 42.5t-152.5 12q-131 0 -241 -32.5
t-188.5 -88.5t-137.5 -134.5t-93 -167t-49 -189.5q-37 -271 99 -409t407 -138q129 0 209.5 30.5t171.5 94.5zM705 494q-7 -59 14.5 -99.5t77.5 -40.5q80 0 146 72.5t79 159.5q8 59 -15.5 100t-78.5 41q-74 0 -141 -68.5t-82 -164.5z" />
    <glyph glyph-name="A" unicode="A" horiz-adv-x="1497" 
d="M-51 0l731 1481h407l316 -1481h-393l-58 287h-467l-141 -287h-395zM616 627h293l-80 473z" />
    <glyph glyph-name="B" unicode="B" horiz-adv-x="1443" 
d="M68 0l208 1481h590q305 0 435 -99t102 -292q-14 -108 -78.5 -185.5t-206.5 -142.5q61 -19 105.5 -45.5t68.5 -58.5t38.5 -63t17.5 -68.5t1.5 -63.5t-6.5 -60q-20 -140 -91 -227.5t-209 -131.5t-353 -44h-622zM594 901h248q69 0 117 38.5t57 98.5q9 65 -33.5 104.5
t-114.5 39.5h-235zM510 299h240q82 0 134 45.5t62 108.5q8 62 -31.5 101.5t-113.5 39.5h-250z" />
    <glyph glyph-name="C" unicode="C" horiz-adv-x="1525" 
d="M936 1501q265 0 421.5 -144.5t147.5 -383.5l-399 -25q-3 108 -53.5 171t-147.5 63q-59 0 -111 -22t-100 -70t-83 -134t-52 -204q-15 -123 -5.5 -209t43 -140.5t79.5 -79t104 -24.5q97 0 166.5 71t106.5 183l391 -27q-28 -99 -62.5 -175.5t-92 -148.5t-133 -119
t-185.5 -75t-248 -28q-210 0 -357.5 101t-209 277.5t-31.5 401.5q47 337 267.5 539t543.5 202z" />
    <glyph glyph-name="D" unicode="D" horiz-adv-x="1519" 
d="M276 1481q466 0 531 -2q195 -7 334.5 -63.5t217.5 -154.5t105 -227.5t4 -290.5q-22 -164 -87.5 -298t-172.5 -234.5t-263 -155.5t-349 -55h-528zM631 1167l-119 -854h141q61 0 121.5 24t119 73t102.5 137t61 203q27 201 -50.5 309t-234.5 108h-141z" />
    <glyph glyph-name="E" unicode="E" horiz-adv-x="1347" 
d="M68 0l208 1481h1092l-49 -332h-688l-37 -246h577l-43 -321h-579l-35 -250h694l-47 -332h-1093z" />
    <glyph glyph-name="F" unicode="F" horiz-adv-x="1288" 
d="M276 1481h1084l-49 -328h-682l-37 -264h569l-43 -318h-571l-80 -571h-399z" />
    <glyph glyph-name="G" unicode="G" horiz-adv-x="1607" 
d="M713 -20q-207 0 -352.5 95.5t-207.5 267t-32 392.5q33 227 149 402t293.5 269.5t388.5 94.5q115 0 210.5 -29t160.5 -77t111 -113.5t69 -136t27 -146.5l-424 -61q-14 113 -62.5 173t-146.5 60q-58 0 -109.5 -22.5t-98.5 -70.5t-82 -133t-52 -200q-13 -77 -9 -136.5
t13 -104t30 -75.5t43 -51t51.5 -31.5t55.5 -16t56 -4.5q162 0 233 139l27 51h-258l39 270l675 -4l-110 -782h-260l22 164q-43 -39 -74 -62.5t-88 -56t-129.5 -49t-158.5 -16.5z" />
    <glyph glyph-name="H" unicode="H" horiz-adv-x="1529" 
d="M995 592h-446l-82 -592h-399l208 1481h398l-78 -561h448l78 561h400l-209 -1481h-400z" />
    <glyph glyph-name="I" unicode="I" horiz-adv-x="681" 
d="M276 1481h398l-207 -1481h-399z" />
    <glyph glyph-name="J" unicode="J" horiz-adv-x="870" 
d="M750 469q-19 -130 -49.5 -216t-88 -150.5t-148 -93.5t-222.5 -29q-167 0 -265 20l52 356q70 -8 127 -8q102 0 146 51.5t60 171.5l130 910h399z" />
    <glyph glyph-name="K" unicode="K" horiz-adv-x="1540" 
d="M1423 0h-430l-241 625l-217 -238l-54 -387h-413l208 1481h412l-84 -598l512 598h449l-488 -568z" />
    <glyph glyph-name="L" unicode="L" horiz-adv-x="1183" 
d="M276 1481h398l-160 -1153h590l-45 -328h-991z" />
    <glyph glyph-name="M" unicode="M" horiz-adv-x="1943" 
d="M68 0l208 1481h590l113 -903l369 903h587l-206 -1481h-400l150 1071l-437 -1071h-288l-138 1071l-149 -1071h-399z" />
    <glyph glyph-name="N" unicode="N" horiz-adv-x="1660" 
d="M1253 1481h400l-207 -1481h-363l-491 883l-125 -883h-399l208 1481h400l463 -826z" />
    <glyph glyph-name="O" unicode="O" horiz-adv-x="1615" 
d="M731 -20q-330 0 -495 205t-115 552q31 229 144 402.5t289 267.5t390 94q323 0 490 -209t118 -555q-50 -346 -273 -551.5t-548 -205.5zM776 299q132 0 221.5 102.5t120.5 329.5q32 235 -27 343t-190 108q-132 0 -224 -108.5t-126 -342.5q-58 -432 225 -432z" />
    <glyph glyph-name="P" unicode="P" horiz-adv-x="1368" 
d="M68 0l208 1481h584q166 0 288 -58t183 -173.5t39 -272.5q-31 -218 -190 -343.5t-404 -125.5h-237l-72 -508h-399zM575 807h228q74 0 134 58t71 132q10 77 -36.5 133t-115.5 56h-227z" />
    <glyph glyph-name="Q" unicode="Q" horiz-adv-x="1609" 
d="M90 737q31 229 144 402.5t289 267.5t390 94q325 0 492.5 -209t118.5 -555q-48 -347 -291 -573q6 -43 64 -76t133 -33l-46 -311q-100 0 -163.5 7.5t-129.5 32.5t-119 75t-106 131q-92 -10 -166 -10q-330 0 -495 205t-115 552zM522 733q-24 -159 0 -255.5t79 -137.5
t147 -41q137 0 222.5 101t116.5 333q34 236 -23.5 342.5t-193.5 106.5q-137 0 -225.5 -106t-122.5 -343z" />
    <glyph glyph-name="R" unicode="R" horiz-adv-x="1466" 
d="M1296 0h-405l-143 508h-209l-72 -508h-399l208 1481h670q140 0 240 -36.5t152.5 -102t70.5 -150t4 -188.5q-16 -109 -59 -194t-99.5 -138.5t-136.5 -98.5zM807 807q73 0 133.5 58t71.5 132q10 77 -36.5 133t-115.5 56h-227l-53 -379h227z" />
    <glyph glyph-name="S" unicode="S" horiz-adv-x="1476" 
d="M678 -20q-226 0 -401.5 84.5t-229.5 220.5l299 188q41 -60 80 -93.5t103.5 -53t160.5 -19.5q243 0 258 105q6 38 -10.5 65t-77.5 43l-317 84q-170 46 -261.5 158t-68.5 266q13 97 68.5 183t142.5 150.5t209 102t260 37.5q195 0 345 -69t202 -197l-299 -186
q-25 34 -33.5 45t-35.5 36t-50 34.5t-64 18.5t-92 9q-104 0 -158 -30t-61 -72q-4 -13 -1.5 -30t9.5 -32t34 -31t71 -28l319 -86q349 -97 307 -416q-32 -222 -223.5 -354.5t-484.5 -132.5z" />
    <glyph glyph-name="T" unicode="T" horiz-adv-x="1308" 
d="M117 1128l49 353h1243l-49 -353h-424l-158 -1128h-399l158 1128h-420z" />
    <glyph glyph-name="U" unicode="U" horiz-adv-x="1531" 
d="M1432 612q-21 -147 -71 -259t-135 -197.5t-217 -130.5t-307 -45q-117 0 -209.5 20.5t-156 59.5t-107 94.5t-63 126t-23.5 154t11 177.5l122 869h402l-123 -887q-11 -73 0 -129t40 -88t68 -48t87 -16q102 0 178 69t98 212l123 887h403z" />
    <glyph glyph-name="V" unicode="V" horiz-adv-x="1482" 
d="M1593 1481l-706 -1481h-441l-290 1481h374l203 -1014l484 1014h376z" />
    <glyph glyph-name="W" unicode="W" horiz-adv-x="2015" 
d="M2116 1481l-652 -1481h-297l-120 805l-349 -805h-292l-240 1481h385l119 -795l331 795h279l117 -795l334 795h385z" />
    <glyph glyph-name="X" unicode="X" horiz-adv-x="1525" 
d="M1419 0h-499l-207 465l-330 -465h-424l586 745l-367 736h494l172 -402l284 402h418l-538 -676z" />
    <glyph glyph-name="Y" unicode="Y" horiz-adv-x="1470" 
d="M1591 1481l-647 -865l-86 -616h-399l86 616l-402 865h430l220 -527l364 527h434z" />
    <glyph glyph-name="Z" unicode="Z" horiz-adv-x="1445" 
d="M18 0l27 182l834 969h-633l45 330h1206l-24 -176l-850 -973h700l-45 -332h-1260z" />
    <glyph glyph-name="bracketleft" unicode="[" horiz-adv-x="747" 
d="M0 -330l254 1811h549l-31 -213h-231l-193 -1385h232l-33 -213h-547z" />
    <glyph glyph-name="backslash" unicode="\" horiz-adv-x="823" 
d="M461 0l-318 1481h250l318 -1481h-250z" />
    <glyph glyph-name="bracketright" unicode="]" horiz-adv-x="749" 
d="M-100 -330l30 213h232l194 1385h-233l33 213h546l-253 -1811h-549z" />
    <glyph glyph-name="asciicircum" unicode="^" horiz-adv-x="1019" 
d="M659 240l-124 450l-252 -450h-271l447 776q26 44 72.5 57t87.5 -8t53 -68l225 -757h-238z" />
    <glyph glyph-name="underscore" unicode="_" horiz-adv-x="1196" 
d="M989 -39l-39 -280h-960l39 280h960z" />
    <glyph glyph-name="grave" unicode="`" horiz-adv-x="700" 
d="M242 1509l510 -231l-70 -152l-549 140z" />
    <glyph glyph-name="a" unicode="a" horiz-adv-x="1171" 
d="M342 -20q-157 0 -248 89t-69 248q24 175 177 269t437 94h82l6 45q12 115 -102 115q-122 0 -189 -123l-313 22q59 159 205 248.5t348 89.5q135 0 226.5 -23t138.5 -68t62.5 -103t4.5 -135l-104 -748h-330l-8 164q-43 -90 -128.5 -137t-195.5 -47zM516 231q57 0 103 37
t55 88l18 138h-63q-28 0 -60.5 -6t-69.5 -19.5t-63.5 -43t-32.5 -69.5q-9 -57 25 -91t88 -34z" />
    <glyph glyph-name="b" unicode="b" horiz-adv-x="1255" 
d="M672 -20q-95 0 -170 58.5t-107 149.5l-86 -188h-280l213 1520h399l-88 -623q63 92 147.5 136t169.5 44q193 0 281 -144t53 -396q-36 -258 -176 -407.5t-356 -149.5zM600 238q76 0 127 69t76 234q11 69 8 117.5t-11.5 79.5t-27 48.5t-38 24t-46.5 6.5q-72 0 -116.5 -52.5
t-63.5 -182.5l-12 -93q-35 -251 104 -251z" />
    <glyph glyph-name="c" unicode="c" horiz-adv-x="1153" 
d="M682 1077q108 0 195.5 -36t140 -94t77 -131t15.5 -148l-350 -41q-1 38 -4.5 64.5t-13.5 60.5t-33.5 52.5t-59.5 18.5q-76 0 -135 -83t-78 -212q-17 -131 21.5 -213t115.5 -82q29 0 53.5 13t40.5 31t31 45t22 45.5t15 42.5l326 -43q-13 -70 -58 -138.5t-113 -124
t-163.5 -90t-200.5 -34.5q-113 0 -208 39.5t-160 109.5t-94.5 172.5t-12.5 222.5q35 242 216 397.5t415 155.5z" />
    <glyph glyph-name="d" unicode="d" horiz-adv-x="1245" 
d="M426 -20q-217 0 -314 149t-61 408q35 252 164.5 396t323.5 144q212 0 266 -180l88 623h397l-213 -1520h-280l-27 180q-53 -85 -140 -142.5t-204 -57.5zM569 238q144 0 176 251l15 93q19 129 -11.5 182t-103.5 53q-34 0 -60.5 -11t-52.5 -39.5t-45.5 -85.5t-31.5 -140
q-23 -166 7.5 -234.5t106.5 -68.5z" />
    <glyph glyph-name="e" unicode="e" horiz-adv-x="1210" 
d="M432 416q-14 -91 29 -140t119 -49q63 0 122 32.5t93 86.5l295 -72q-83 -142 -224 -218t-317 -76q-251 0 -392 148.5t-108 385.5q22 152 107.5 279.5t225.5 205.5t304 78q127 0 224.5 -45t154 -122.5t78 -180.5t4.5 -221l-14 -92h-701zM467 668h328q11 81 -24.5 130.5
t-115.5 49.5q-82 0 -129.5 -49t-58.5 -131z" />
    <glyph glyph-name="f" unicode="f" horiz-adv-x="802" 
d="M862 1057l-39 -269h-190l-111 -788h-399l110 788h-172l39 269h170l21 143q19 129 114.5 205t241.5 76h283l-35 -260h-121q-50 0 -73.5 -21.5t-30.5 -79.5l-11 -63h203z" />
    <glyph glyph-name="g" unicode="g" horiz-adv-x="1290" 
d="M504 -350q-299 0 -449.5 68.5t-136.5 175.5q10 62 66 99t151 62q30 9 2 23q-121 67 -108 166q10 67 79.5 118.5t190.5 65.5q-102 50 -149.5 138t-34.5 177q15 104 101 180t211.5 113t272.5 37q104 0 170.5 -19t130.5 -55q5 -3 89 31l278 105l-41 -281l-141 -14
q-50 -5 -41 -47q2 -17 -2 -48q-10 -68 -52.5 -132t-112 -115.5t-173.5 -83t-225 -31.5q-86 0 -142 6q-27 -5 -30 -18q-1 -14 21 -21q20 -7 142 -14q159 -9 209 -12q209 -14 303 -101t76 -217q-23 -158 -193.5 -257t-461.5 -99zM621 590q57 0 98 40t49 101q9 62 -20.5 106
t-85.5 44t-98.5 -44t-51.5 -106q-8 -61 22.5 -101t86.5 -40zM596 -141q97 0 134 16.5t40 48.5q6 33 -26.5 54t-94.5 26l-188 12q-75 4 -109.5 -19t-38.5 -56q-7 -49 57.5 -65.5t225.5 -16.5z" />
    <glyph glyph-name="h" unicode="h" horiz-adv-x="1245" 
d="M29 0l213 1520h393l-96 -672q78 119 180.5 174t198.5 55q149 0 217.5 -84.5t46.5 -244.5l-105 -748h-399l98 700q6 44 -18.5 70.5t-71.5 26.5q-89 0 -162 -101l-98 -696h-397z" />
    <glyph glyph-name="i" unicode="i" horiz-adv-x="598" 
d="M643 1520l-49 -334h-399l49 334h399zM575 1057l-147 -1057h-397l147 1057h397z" />
    <glyph glyph-name="j" unicode="j" horiz-adv-x="647" 
d="M676 1520l-49 -334h-400l49 334h400zM469 57q-56 -397 -475 -397q-46 0 -79 9t-43 17l-9 9l37 266l61 10q56 12 80 32t29 54l141 1000h397z" />
    <glyph glyph-name="k" unicode="k" horiz-adv-x="1224" 
d="M1135 0h-387l-189 389l-90 -90l-43 -299h-397l213 1520h399l-109 -785l345 322h403l-449 -436z" />
    <glyph glyph-name="l" unicode="l" horiz-adv-x="696" 
d="M428 -23q-81 0 -143 11.5t-101.5 28.5t-65 46t-37.5 55.5t-15 65.5t-0.5 66.5t8.5 68.5l170 1201h391l-162 -1147q-2 -27 0 -50t27.5 -41.5t74.5 -25.5l41 -4l-34 -242q-86 -33 -154 -33z" />
    <glyph glyph-name="m" unicode="m" horiz-adv-x="1894" 
d="M29 0l147 1057h393l-28 -205q38 67 87 114t101 70.5t96.5 33t89.5 9.5q123 0 185.5 -66.5t73.5 -178.5q156 243 397 243q135 0 208 -88.5t50 -245.5l-103 -743h-399l98 698q4 43 -30 71t-80 28q-47 0 -91 -28.5t-50 -70.5q-5 -36 -11 -63l-88 -635h-397l98 698
q6 42 -29 70.5t-83 28.5q-47 0 -90.5 -28.5t-49.5 -70.5l-98 -698h-397z" />
    <glyph glyph-name="n" unicode="n" horiz-adv-x="1249" 
d="M29 0l147 1057h395l-28 -205q73 110 169.5 167.5t205.5 57.5q141 0 214.5 -87.5t53.5 -235.5l-107 -754h-399l98 700q6 42 -28 69.5t-82 27.5t-93 -27.5t-51 -69.5l-98 -700h-397z" />
    <glyph glyph-name="o" unicode="o" horiz-adv-x="1216" 
d="M528 -20q-245 0 -378 152t-99 390q35 247 215 401t420 154q164 0 281.5 -71.5t168.5 -197.5t29 -286q-34 -237 -212 -389.5t-425 -152.5zM567 227q45 0 82.5 31.5t61 82t38 99.5t21.5 97q9 43 6 95t-12 97t-38.5 75t-74.5 30q-46 0 -83 -29.5t-60 -77t-36.5 -94.5
t-20.5 -96q-9 -42 -7 -96t10.5 -101.5t37.5 -80t75 -32.5z" />
    <glyph glyph-name="p" unicode="p" horiz-adv-x="1253" 
d="M-18 -330l194 1387h399l-18 -142q57 71 145 116.5t187 45.5q85 0 150.5 -32.5t110 -100t58 -170t-5.5 -242.5q-20 -146 -66.5 -255t-111.5 -172.5t-140.5 -94t-162.5 -30.5q-228 0 -272 178l-68 -488h-399zM600 238q76 0 127 69t76 234q11 69 8 117.5t-11.5 79.5
t-27 48.5t-38 24t-46.5 6.5q-72 0 -116.5 -52.5t-63.5 -182.5l-12 -93q-35 -251 104 -251z" />
    <glyph glyph-name="q" unicode="q" horiz-adv-x="1249" 
d="M1034 -330h-399l61 447q-93 -81 -166.5 -109t-150.5 -28q-87 0 -153 29.5t-115 95.5t-63.5 171t3.5 256q40 269 167.5 407t301.5 138q99 0 165.5 -34.5t125.5 -106.5l14 121h402zM571 238q145 0 177 251l14 93q19 129 -11.5 182t-103.5 53q-34 0 -60.5 -11t-52.5 -39.5
t-45.5 -85.5t-31.5 -140q-23 -166 7.5 -234.5t106.5 -68.5z" />
    <glyph glyph-name="r" unicode="r" horiz-adv-x="862" 
d="M29 0l147 1057h385l-41 -291q61 139 162 225t240 86l-52 -372q-74 5 -129 4t-95.5 -16.5t-67 -33t-44 -45t-26 -52.5t-12.5 -56l-70 -506h-397z" />
    <glyph glyph-name="s" unicode="s" horiz-adv-x="1144" 
d="M502 -20q-192 0 -318.5 74t-165.5 188l258 120q32 -44 103 -81t162 -37q55 0 104 13t53 40q3 20 -17.5 35t-46 22t-63.5 13l-153 28q-154 27 -231.5 105.5t-59.5 210.5q21 163 167 264.5t374 101.5q180 0 286 -67t144 -170l-258 -115q-24 42 -80.5 68t-134.5 26
q-61 0 -109 -14.5t-51 -42.5q-1 -6 0.5 -11t5.5 -9.5t9 -8t14 -7t17.5 -6.5t22 -6.5t25 -6t30 -7t32.5 -8.5l161 -35q311 -78 277 -317q-24 -169 -176.5 -264.5t-380.5 -95.5z" />
    <glyph glyph-name="t" unicode="t" horiz-adv-x="907" 
d="M868 788h-231l-64 -479q-6 -33 8 -45t44 -12h168l-33 -236q-71 -32 -215 -32q-98 0 -170 15.5t-113.5 43t-66.5 66t-28 84.5t3 98l70 497h-174l38 269h187l106 329h324l-47 -327h231z" />
    <glyph glyph-name="u" unicode="u" horiz-adv-x="1245" 
d="M381 -20q-65 0 -125 22.5t-105 63.5t-67 105.5t-12 141.5l104 744h399l-100 -707q-6 -49 23 -79.5t88 -30.5q58 0 94.5 30.5t42.5 79.5l100 707h402l-156 -1057h-293l-26 180q-66 -97 -173.5 -148.5t-195.5 -51.5z" />
    <glyph glyph-name="v" unicode="v" horiz-adv-x="1150" 
d="M1219 1057l-580 -1057h-277l-282 1057h395l129 -541l275 541h340z" />
    <glyph glyph-name="w" unicode="w" horiz-adv-x="1644" 
d="M1712 1057l-520 -1057h-285l-86 512l-239 -512h-291l-211 1057h366l95 -512l227 512h274l80 -514l236 514h354z" />
    <glyph glyph-name="x" unicode="x" horiz-adv-x="1243" 
d="M1161 0h-409l-164 281l-246 -281h-408l482 553l-297 504h409l138 -230l200 230h408l-440 -504z" />
    <glyph glyph-name="y" unicode="y" horiz-adv-x="1202" 
d="M199 -338q-73 0 -129.5 11t-76.5 23l-20 11l37 254l103 -8q30 -4 56 -1.5t45.5 3.5t37 7.5t29.5 11t22.5 13t16.5 13.5t11.5 13.5t7.5 12t5 9.5l2 6l4 20l-270 996h391l121 -574l289 574h389l-553 -996q-67 -122 -131.5 -202.5t-129 -122.5t-123.5 -58t-134 -16z" />
    <glyph glyph-name="z" unicode="z" horiz-adv-x="1124" 
d="M-18 0l26 188l582 627h-451l35 242h954l-26 -180l-586 -629h500l-33 -248h-1001z" />
    <glyph glyph-name="braceleft" unicode="{" horiz-adv-x="888" 
d="M516 -330q-64 0 -126 18.5t-113 52.5t-78 90t-17 124l54 393q14 73 -35.5 110.5t-175.5 37.5l26 184q122 0 183 44t73 136l53 361q9 67 48.5 119t96.5 81.5t119 44.5t124 15h196l-31 -213h-94q-46 0 -77 -10.5t-46 -30t-20.5 -37t-7.5 -41.5l-56 -379q-9 -48 -34 -83
t-62 -54t-69 -29t-72 -16q-34 0 -35 -8q0 -1 2 -2q41 -2 78 -13t71.5 -34t52 -67t11.5 -104l-68 -477h234l-33 -213h-172z" />
    <glyph glyph-name="bar" unicode="|" horiz-adv-x="565" 
d="M301 -330h-278l282 2020h283z" />
    <glyph glyph-name="braceright" unicode="}" horiz-adv-x="888" 
d="M-96 -330l30 213h97q45 0 76 10.5t45.5 30.5t20.5 37t9 41l54 379q10 48 35 83t62 54t68.5 29t71.5 16q32 0 36 9q1 2 -1 3q-42 2 -79 12.5t-71.5 33.5t-52.5 66.5t-12 103.5l67 477h-233l33 213h174q87 0 166 -30.5t130 -97t38 -155.5l-56 -393q-14 -75 34.5 -111.5
t176.5 -36.5l-28 -186q-121 0 -181.5 -44t-72.5 -136l-52 -361q-13 -88 -77.5 -149t-144.5 -86t-165 -25h-198z" />
    <glyph glyph-name="asciitilde" unicode="~" horiz-adv-x="1347" 
d="M1245 754q-75 -102 -169 -152.5t-181 -50.5q-59 0 -114.5 22.5t-91.5 49t-81.5 49t-87.5 22.5q-50 0 -101.5 -29.5t-85.5 -63.5t-81 -89l-111 225q128 103 212 150t175 47q62 0 117 -22t88 -48.5t75 -48.5t81 -22q69 0 136 51.5t114 130.5z" />
    <glyph glyph-name="uni00A0" unicode="&#xa0;" horiz-adv-x="399" 
 />
    <glyph glyph-name="exclamdown" unicode="&#xa1;" horiz-adv-x="628" 
d="M537 664h-420l57 393h418zM418 -330h-463l231 856h242z" />
    <glyph glyph-name="cent" unicode="&#xa2;" horiz-adv-x="1216" 
d="M719 1051q-76 0 -135 -83t-78 -212q-17 -131 21.5 -213t115.5 -82q29 0 53.5 13t40.5 30.5t31 44.5t22 45.5t15 42.5l325 -43q-19 -105 -105 -202t-214 -146l-37 -246h-248l29 209q-141 9 -246.5 78.5t-157 191t-30.5 273.5q33 231 200.5 384t387.5 167l24 178h252
l-31 -215q119 -51 178.5 -154t47.5 -217l-351 -41q-1 25 -2 41.5t-4.5 42.5t-11 43.5t-19 35t-30 26t-43.5 8.5z" />
    <glyph glyph-name="sterling" unicode="&#xa3;" horiz-adv-x="1396" 
d="M-27 0l45 326h58q72 0 123 32.5t67 77.5q5 14 9 32.5t6 39.5t3.5 39t2 41.5t0.5 36.5v34v25h-217l30 207h172l13 211q5 79 37.5 145.5t84 112.5t119.5 78.5t143.5 47.5t155.5 15q79 0 154 -20.5t143 -61t119 -109.5t72 -159l-326 -90q-14 61 -39 97t-71 36
q-53 0 -96.5 -46t-43.5 -110v-145l279 -2l-45 -207h-234v-21.5v-24v-23.5t-1 -25t-2 -24t-3 -25l-4.5 -22.5t-6 -23t-7.5 -20.5q-16 -36 -51.5 -78t-75.5 -69h162q79 0 131 37.5t86 119.5l342 -67q-68 -202 -214.5 -310t-342.5 -108h-777z" />
    <glyph glyph-name="currency" unicode="&#xa4;" horiz-adv-x="1263" 
d="M604 252q-147 0 -237 78q-26 0 -45 -25l-140 -121l-149 170l174 152q-23 40 -34.5 74t-16.5 83t8 101q14 116 88 237q23 11 14 25l-123 137l166 144l117 -133q157 63 276 63q146 0 246 -80q12 3 21.5 11t11.5 14l123 104l147 -170l-153 -131q68 -110 45 -262
q-17 -132 -99 -250q-3 3 -5 2.5t-3.5 -2t-1.5 -2.5l109 -127l-162 -141l-98 114q-153 -65 -279 -65zM602 500q109 0 197.5 80t103.5 186q11 92 -46.5 157.5t-154.5 65.5q-109 0 -195.5 -80t-100.5 -186q-14 -92 42.5 -157.5t153.5 -65.5z" />
    <glyph glyph-name="yen" unicode="&#xa5;" horiz-adv-x="1441" 
d="M1602 1481l-574 -750h242l-31 -203h-297l-18 -137h297l-29 -201h-299l-27 -190h-452l26 190h-303l33 201h299l20 137h-303l31 203h242l-357 750h492l217 -514l354 514h437z" />
    <glyph glyph-name="brokenbar" unicode="&#xa6;" horiz-adv-x="567" 
d="M467 844h-279l117 846h281zM301 -330h-278l116 846h285z" />
    <glyph glyph-name="section" unicode="&#xa7;" horiz-adv-x="1085" 
d="M829 440q80 -48 112.5 -112.5t19.5 -155.5q-22 -158 -154.5 -250t-360.5 -92q-189 0 -311.5 75t-152.5 181l200 88q59 -55 87 -72q69 -43 169 -43q67 0 113 26.5t51 59.5q5 31 -15.5 56t-90.5 53l-123 47q-180 71 -250.5 153.5t-52.5 215.5q24 177 198 260
q-130 92 -106 250q21 140 146.5 230.5t320.5 90.5q165 0 282 -75.5t150 -178.5l-205 -90q-5 4 -25 21.5t-27.5 24t-26 20.5t-31 20t-31 14.5t-37.5 11.5t-39 3q-54 0 -91.5 -24t-37.5 -58q0 -26 13.5 -39t45.5 -27l142 -55q179 -70 251 -152.5t52 -216.5q-23 -162 -185 -260
zM586 565q74 0 100 62q9 20 10.5 40.5t-15 47t-56.5 41.5l-115 47q-36 0 -69 -22.5t-48 -61.5q-5 -19 -7 -37t16 -38t57 -34z" />
    <glyph glyph-name="dieresis" unicode="&#xa8;" horiz-adv-x="929" 
d="M520 1481l-43 -285h-340l41 285h342zM999 1481l-43 -285h-340l41 285h342z" />
    <glyph glyph-name="copyright" unicode="&#xa9;" horiz-adv-x="1720" 
d="M788 -20q-158 0 -292.5 62t-223.5 166.5t-130 249.5t-19 304q28 202 151 372t308 268.5t389 98.5q209 0 373 -105.5t243 -286t49 -390.5q-28 -203 -151.5 -373.5t-308.5 -268t-388 -97.5zM786 182q250 0 423 158.5t210 421.5q34 246 -86 392t-358 146
q-253 0 -425.5 -159.5t-209.5 -421.5q-35 -249 84 -393t362 -144zM930 1165q81 0 147 -27.5t106 -72.5t61.5 -96t23.5 -103l-252 -16q-1 20 -1.5 30.5t-5 31t-11.5 31t-21.5 19.5t-34.5 9q-64 0 -109 -61.5t-63 -186.5q-17 -117 7 -164t87 -47q32 0 57.5 9t48 31t35.5 39.5
t37 53.5l201 -41q-11 -37 -39 -80.5t-75 -91t-123 -79t-164 -31.5q-189 0 -296 124t-81 316q27 181 157.5 292t307.5 111z" />
    <glyph glyph-name="ordfeminine" unicode="&#xaa;" horiz-adv-x="800" 
d="M328 815q-108 0 -161.5 58.5t-41.5 154.5q28 190 383 211l61 4l6 33q13 76 -51 76q-33 0 -65 -22.5t-53 -53.5l-236 49q35 62 75 98.5t107 57t166 20.5q173 -1 237.5 -57.5t53.5 -161.5l-61 -457h-226v39q-65 -28 -105 -38.5t-89 -10.5zM418 963q36 0 75 28t46 66l12 63
l-21 -2q-168 -18 -168 -108q0 -47 56 -47z" />
    <glyph glyph-name="guillemotleft" unicode="&#xab;" horiz-adv-x="1110" 
d="M406 494l77 -375h-192l-172 409l264 396h225zM821 494l78 -375h-192l-175 409l267 396h225z" />
    <glyph glyph-name="logicalnot" unicode="&#xac;" horiz-adv-x="1263" 
d="M1198 887l-29 -185l-59 -421h-317l45 323h-721l37 283h1044z" />
    <glyph glyph-name="uni00AD" unicode="&#xad;" horiz-adv-x="839" 
d="M784 664l-41 -279h-593l36 279h598z" />
    <glyph glyph-name="registered" unicode="&#xae;" horiz-adv-x="1153" 
d="M569 549q-199 0 -318 138.5t-91 336.5q28 197 186.5 337t355.5 140q129 0 229.5 -64t149 -174t31.5 -239q-19 -130 -99 -239.5t-198 -172.5t-246 -63zM590 690q145 0 244 90t122 244q20 151 -54 242.5t-220 91.5q-147 0 -246 -91t-121 -243q-23 -154 51.5 -244t223.5 -90
zM401 786l66 471h229q92 0 139.5 -35t38.5 -96q-11 -87 -110 -127l63 -213h-155l-39 195h-60l-28 -195h-144zM586 1075h84q21 0 36.5 13t18.5 32t-11.5 31t-37.5 12h-78z" />
    <glyph glyph-name="macron" unicode="&#xaf;" horiz-adv-x="927" 
d="M997 1481l-36 -246h-820l35 246h821z" />
    <glyph glyph-name="degree" unicode="&#xb0;" horiz-adv-x="993" 
d="M963 1325q-22 -151 -133.5 -246.5t-262.5 -95.5q-163 0 -256.5 109t-68.5 276q22 151 132.5 246.5t262.5 95.5q162 0 255.5 -110t70.5 -275zM745 1366q6 58 -22.5 92.5t-87.5 34.5q-70 0 -121.5 -48.5t-60.5 -121.5q-8 -59 21 -93t89 -34q70 0 120.5 48.5t61.5 121.5z
" />
    <glyph glyph-name="plusminus" unicode="&#xb1;" horiz-adv-x="1263" 
d="M844 1075h379l-39 -280h-379l-55 -379h-283l55 379h-381l39 280h381l55 381h283zM35 31l37 280h1044l-41 -280h-1040z" />
    <glyph glyph-name="uni00B2" unicode="&#xb2;" horiz-adv-x="813" 
d="M70 786l24 175l320 237q142 105 182.5 147t46.5 87q6 42 -19.5 69t-76.5 27q-59 0 -111 -27.5t-102 -105.5l-176 80q91 131 196 193.5t238 62.5q168 0 251 -81.5t64 -215.5q-10 -69 -50 -121t-138 -133l-232 -187h367l-29 -207h-755z" />
    <glyph glyph-name="uni00B3" unicode="&#xb3;" horiz-adv-x="804" 
d="M229 1577q59 68 166 111t219 43q160 0 252.5 -68t79.5 -180q-20 -139 -194 -197q74 -23 123.5 -78.5t37.5 -144.5q-10 -70 -55 -127t-110 -91t-137 -52.5t-142 -18.5q-121 0 -223 56t-142 141l195 123q54 -70 97 -97.5t112 -27.5q58 0 94.5 25t42.5 65q6 44 -26.5 72.5
t-92.5 29.5l-131 4l27 193l110 6q61 3 99 29.5t43 68.5q6 32 -20.5 55t-69.5 23q-58 0 -107.5 -23.5t-114.5 -80.5z" />
    <glyph glyph-name="acute" unicode="&#xb4;" horiz-adv-x="696" 
d="M694 1509l58 -252l-574 -133l-37 170z" />
    <glyph glyph-name="uni00B5" unicode="&#xb5;" horiz-adv-x="1247" 
d="M-18 -330l194 1387h402l-103 -711q-6 -44 15.5 -65t54.5 -21q34 0 64 11t45.5 23t37 31.5t27.5 24.5l104 707h404l-158 -1057h-391l29 174q-49 -71 -97 -113.5t-106 -62.5q-79 -26 -84 -53l-39 -275h-399z" />
    <glyph glyph-name="paragraph" unicode="&#xb6;" horiz-adv-x="1292" 
d="M1300 1264h-131l-202 -1434h-234l201 1434h-131l-205 -1434h-233l112 793q-80 8 -147 38t-119 82.5t-75 136.5t-9 189q27 183 168.5 297.5t366.5 114.5h669z" />
    <glyph glyph-name="periodcentered" unicode="&#xb7;" horiz-adv-x="630" 
d="M541 924l-49 -357h-369l49 357h369z" />
    <glyph glyph-name="cedilla" unicode="&#xb8;" horiz-adv-x="636" 
d="M459 -295q-10 -71 -88.5 -112.5t-182.5 -41.5q-185 0 -276 84l47 82q115 -39 166 -39q47 0 80.5 22t38.5 54q5 30 -29.5 43t-128.5 13q-23 0 -32.5 8.5t-2.5 25.5l101 166h165l-53 -116q110 0 157.5 -57.5t37.5 -131.5z" />
    <glyph glyph-name="uni00B9" unicode="&#xb9;" horiz-adv-x="649" 
d="M188 778l93 658l-160 -35l22 168l303 141h125l-131 -932h-252z" />
    <glyph glyph-name="ordmasculine" unicode="&#xba;" horiz-adv-x="796" 
d="M516 1501q163 0 249.5 -105t63.5 -266q-19 -140 -123 -227.5t-253 -87.5q-159 0 -246.5 102.5t-65.5 258.5q20 145 126.5 235t248.5 90zM526 1346q-109 0 -139 -209q-13 -89 -0.5 -126.5t55.5 -37.5q117 0 144 209q12 89 -2 126.5t-58 37.5z" />
    <glyph glyph-name="guillemotright" unicode="&#xbb;" horiz-adv-x="1110" 
d="M266 528l-73 396h190l170 -430l-264 -375h-223zM680 528l-74 396h193l170 -430l-264 -375h-224z" />
    <glyph glyph-name="onequarter" unicode="&#xbc;" horiz-adv-x="2054" 
d="M160 565l92 658l-160 -35l23 168l303 141h125l-131 -932h-252zM1653 1497l-1211 -1505l-241 4l1210 1501h242zM1665 932h248l-78 -543h133l-24 -190h-136l-28 -199h-252l31 199h-408l25 182zM1386 389h201l41 281z" />
    <glyph glyph-name="onehalf" unicode="&#xbd;" horiz-adv-x="1986" 
d="M160 565l92 658l-160 -35l23 168l303 141h125l-131 -932h-252zM1653 1497l-1211 -1505l-241 4l1210 1501h242zM1133 0l24 174l320 238q143 106 183 147t46 86q6 42 -19.5 69t-76.5 27q-59 0 -111 -27.5t-102 -105.5l-176 80q91 131 196 193.5t238 62.5q168 0 251 -81.5
t64 -215.5q-10 -69 -50 -121t-138 -133l-232 -186h367l-29 -207h-755z" />
    <glyph glyph-name="threequarters" unicode="&#xbe;" horiz-adv-x="2250" 
d="M199 1362q59 68 166 111t219 43q160 0 252 -68t79 -180q-20 -139 -194 -197q75 -23 124.5 -78.5t37.5 -144.5q-10 -70 -55.5 -127t-110.5 -91t-137 -52.5t-142 -18.5q-120 0 -222 55.5t-142 141.5l194 123q54 -70 97 -97.5t112 -27.5q58 0 94.5 25t42.5 65q6 44 -26 72.5
t-92 29.5l-131 4l26 193l111 6q61 3 98.5 29.5t42.5 68.5q6 32 -20.5 55t-69.5 23q-58 0 -107 -23t-114 -81zM1849 1497l-1210 -1505l-242 4l1211 1501h241zM1862 932h247l-77 -543h133l-25 -190h-135l-29 -199h-252l31 199h-407l24 182zM1583 389h201l41 281z" />
    <glyph glyph-name="questiondown" unicode="&#xbf;" horiz-adv-x="1175" 
d="M420 664l55 393h420l-55 -393h-420zM1081 18q-189 -368 -602 -368q-129 0 -228 30t-156 81t-81 116t-14 139q8 61 36.5 111.5t67 85t83.5 65t89.5 57.5t82.5 55.5t64 67t32 83.5h309q-8 -72 -38.5 -134t-70 -104t-85.5 -83t-84.5 -73t-67 -72t-33.5 -81q-4 -32 26.5 -53
t77.5 -21q70 0 136.5 47t107.5 127z" />
    <glyph glyph-name="Agrave" unicode="&#xc0;" horiz-adv-x="1497" 
d="M743 1933l510 -231l-69 -152l-549 140zM-51 0l731 1481h407l316 -1481h-393l-58 287h-467l-141 -287h-395zM616 627h293l-80 473z" />
    <glyph glyph-name="Aacute" unicode="&#xc1;" horiz-adv-x="1497" 
d="M1194 1933l57 -252l-573 -133l-37 170zM-51 0l731 1481h407l316 -1481h-393l-58 287h-467l-141 -287h-395zM616 627h293l-80 473z" />
    <glyph glyph-name="Acircumflex" unicode="&#xc2;" horiz-adv-x="1497" 
d="M1071 1612l-106 170l-172 -170h-283l319 313h267l233 -313h-258zM-51 0l731 1481h407l316 -1481h-393l-58 287h-467l-141 -287h-395zM616 627h293l-80 473z" />
    <glyph glyph-name="Atilde" unicode="&#xc3;" horiz-adv-x="1497" 
d="M1348 1690q-118 -58 -230 -58q-65 0 -163.5 32t-149.5 32q-28 0 -53.5 -7.5t-40.5 -16t-46.5 -29t-50.5 -31.5l-43 223q58 38 108 58t114 20q74 0 179 -34t142 -34q53 0 125 38t92 42zM-51 0l731 1481h407l316 -1481h-393l-58 287h-467l-141 -287h-395zM616 627h293
l-80 473z" />
    <glyph glyph-name="Adieresis" unicode="&#xc4;" horiz-adv-x="1497" 
d="M905 1905l-43 -285h-340l41 285h342zM1384 1905l-43 -285h-340l41 285h342zM-51 0l731 1481h407l316 -1481h-393l-58 287h-467l-141 -287h-395zM616 627h293l-80 473z" />
    <glyph glyph-name="Aring" unicode="&#xc5;" horiz-adv-x="1497" 
d="M1188 1778q-13 -92 -84 -151.5t-164 -59.5q-103 0 -165.5 75.5t-47.5 182.5q12 87 83.5 146t162.5 59q102 0 165.5 -74.5t49.5 -177.5zM1055 1819q4 33 -15.5 52t-54.5 19q-45 0 -85.5 -34t-47.5 -80q-2 -32 19 -54t55 -22q45 0 83 36t46 83zM-51 0l731 1481h407
l316 -1481h-393l-58 287h-467l-141 -287h-395zM616 627h293l-80 473z" />
    <glyph glyph-name="AE" unicode="&#xc6;" horiz-adv-x="2304" 
d="M2163 328l-43 -328h-1170l39 287h-440l-184 -287h-416l979 1481h1380l-47 -328h-698l-33 -250h438l-49 -321h-434l-37 -254h715zM1038 627l80 577l-377 -577h297z" />
    <glyph glyph-name="Ccedilla" unicode="&#xc7;" horiz-adv-x="1525" 
d="M905 1182q-59 0 -111 -22t-100 -70t-83 -134t-52 -204q-15 -123 -5.5 -209t43 -140.5t79.5 -79t104 -24.5q97 0 166.5 71t106.5 183l391 -27q-26 -94 -58.5 -167t-85 -142.5t-119.5 -116.5t-164.5 -79t-219.5 -39l-41 -88q110 0 157 -57t37 -132q-10 -71 -88 -112.5
t-182 -41.5q-186 0 -277 84l48 82q115 -39 165 -39q47 0 80.5 22t38.5 54q5 30 -29 43t-128 13q-23 0 -32.5 8.5t-2.5 25.5l86 142q-273 34 -410 247t-94 527q47 337 267.5 539t543.5 202q265 0 421.5 -144.5t147.5 -383.5l-399 -25q-3 108 -53.5 171t-147.5 63z" />
    <glyph glyph-name="Egrave" unicode="&#xc8;" horiz-adv-x="1347" 
d="M651 1933l510 -231l-69 -152l-549 140zM68 0l208 1481h1092l-49 -332h-688l-37 -246h577l-43 -321h-579l-35 -250h694l-47 -332h-1093z" />
    <glyph glyph-name="Eacute" unicode="&#xc9;" horiz-adv-x="1347" 
d="M1102 1933l57 -252l-573 -133l-37 170zM68 0l208 1481h1092l-49 -332h-688l-37 -246h577l-43 -321h-579l-35 -250h694l-47 -332h-1093z" />
    <glyph glyph-name="Ecircumflex" unicode="&#xca;" horiz-adv-x="1347" 
d="M979 1612l-107 170l-172 -170h-282l319 313h267l233 -313h-258zM68 0l208 1481h1092l-49 -332h-688l-37 -246h577l-43 -321h-579l-35 -250h694l-47 -332h-1093z" />
    <glyph glyph-name="Edieresis" unicode="&#xcb;" horiz-adv-x="1347" 
d="M813 1905l-43 -285h-340l41 285h342zM1292 1905l-43 -285h-340l41 285h342zM68 0l208 1481h1092l-49 -332h-688l-37 -246h577l-43 -321h-579l-35 -250h694l-47 -332h-1093z" />
    <glyph glyph-name="Igrave" unicode="&#xcc;" horiz-adv-x="679" 
d="M301 1933l510 -231l-70 -152l-548 140zM272 1481h398l-207 -1481h-400z" />
    <glyph glyph-name="Iacute" unicode="&#xcd;" horiz-adv-x="677" 
d="M756 1933l57 -252l-573 -133l-37 170zM276 1481h398l-207 -1481h-399z" />
    <glyph glyph-name="Icircumflex" unicode="&#xce;" horiz-adv-x="673" 
d="M637 1612l-107 170l-172 -170h-282l319 313h267l233 -313h-258zM281 1481h397l-207 -1481h-399z" />
    <glyph glyph-name="Idieresis" unicode="&#xcf;" horiz-adv-x="686" 
d="M469 1905l-43 -285h-340l41 285h342zM948 1905l-43 -285h-340l41 285h342zM279 1481h397l-207 -1481h-399z" />
    <glyph glyph-name="Eth" unicode="&#xd0;" horiz-adv-x="1548" 
d="M836 1479q195 -7 334.5 -63.5t217.5 -154.5t105 -227.5t4 -290.5q-22 -164 -87.5 -298t-172.5 -234.5t-263 -155.5t-349 -55h-529l82 584h-100l39 282h102l86 615q467 0 531 -2zM1085 750q27 201 -50 309t-234 108h-142l-41 -301h314l-39 -282h-315l-37 -271h141
q61 0 121.5 24t118.5 73t102 137t61 203z" />
    <glyph glyph-name="Ntilde" unicode="&#xd1;" horiz-adv-x="1660" 
d="M1403 1690q-118 -58 -229 -58q-65 0 -164 32t-150 32q-28 0 -53.5 -7.5t-40 -16t-45.5 -28.5t-51 -32l-43 223q59 38 108 58t113 20q74 0 179 -34t142 -34q53 0 125 38t92 42zM1253 1481h400l-207 -1481h-363l-491 883l-125 -883h-399l208 1481h400l463 -826z" />
    <glyph glyph-name="Ograve" unicode="&#xd2;" horiz-adv-x="1615" 
d="M766 1933l510 -231l-70 -152l-549 140zM731 -20q-330 0 -495 205t-115 552q31 229 144 402.5t289 267.5t390 94q323 0 490 -209t118 -555q-50 -346 -273 -551.5t-548 -205.5zM776 299q132 0 221.5 102.5t120.5 329.5q32 235 -27 343t-190 108q-132 0 -224 -108.5
t-126 -342.5q-58 -432 225 -432z" />
    <glyph glyph-name="Oacute" unicode="&#xd3;" horiz-adv-x="1615" 
d="M1214 1933l58 -252l-574 -133l-36 170zM731 -20q-330 0 -495 205t-115 552q31 229 144 402.5t289 267.5t390 94q323 0 490 -209t118 -555q-50 -346 -273 -551.5t-548 -205.5zM776 299q132 0 221.5 102.5t120.5 329.5q32 235 -27 343t-190 108q-132 0 -224 -108.5
t-126 -342.5q-58 -432 225 -432z" />
    <glyph glyph-name="Ocircumflex" unicode="&#xd4;" horiz-adv-x="1615" 
d="M1092 1612l-107 170l-172 -170h-283l320 313h266l234 -313h-258zM731 -20q-330 0 -495 205t-115 552q31 229 144 402.5t289 267.5t390 94q323 0 490 -209t118 -555q-50 -346 -273 -551.5t-548 -205.5zM776 299q132 0 221.5 102.5t120.5 329.5q32 235 -27 343t-190 108
q-132 0 -224 -108.5t-126 -342.5q-58 -432 225 -432z" />
    <glyph glyph-name="Otilde" unicode="&#xd5;" horiz-adv-x="1615" 
d="M1370 1690q-118 -58 -229 -58q-65 0 -164 32t-150 32q-28 0 -53.5 -7.5t-40 -16t-45.5 -28.5t-51 -32l-43 223q59 38 108 58t113 20q74 0 179.5 -34t142.5 -34q53 0 125 38t92 42zM731 -20q-330 0 -495 205t-115 552q31 229 144 402.5t289 267.5t390 94q323 0 490 -209
t118 -555q-50 -346 -273 -551.5t-548 -205.5zM776 299q132 0 221.5 102.5t120.5 329.5q32 235 -27 343t-190 108q-132 0 -224 -108.5t-126 -342.5q-58 -432 225 -432z" />
    <glyph glyph-name="Odieresis" unicode="&#xd6;" horiz-adv-x="1615" 
d="M928 1905l-43 -285h-340l41 285h342zM1407 1905l-43 -285h-340l41 285h342zM731 -20q-330 0 -495 205t-115 552q31 229 144 402.5t289 267.5t390 94q323 0 490 -209t118 -555q-50 -346 -273 -551.5t-548 -205.5zM776 299q132 0 221.5 102.5t120.5 329.5q32 235 -27 343
t-190 108q-132 0 -224 -108.5t-126 -342.5q-58 -432 225 -432z" />
    <glyph glyph-name="multiply" unicode="&#xd7;" horiz-adv-x="1265" 
d="M1212 1042l-358 -313l266 -307l-213 -186l-266 309l-354 -309l-183 213l353 309l-269 313l211 184l271 -311l354 311z" />
    <glyph glyph-name="Oslash" unicode="&#xd8;" horiz-adv-x="1669" 
d="M150 -31l-154 183l194 155q-85 194 -49 451q33 225 143 393t281.5 259t382.5 91q140 0 254.5 -43.5t194.5 -120.5l182 170l152 -180l-207 -170q82 -196 45 -442q-47 -337 -264.5 -536t-538.5 -199q-275 0 -442 151zM602 649l496 436q-20 59 -58.5 84t-101.5 25
q-121 0 -196 -95t-115 -300q-17 -81 -25 -150zM778 291q127 0 202.5 99t113.5 319q11 62 16 106l-496 -436q22 -49 61.5 -68.5t102.5 -19.5z" />
    <glyph glyph-name="Ugrave" unicode="&#xd9;" horiz-adv-x="1531" 
d="M711 1933l510 -231l-70 -152l-549 140zM1432 612q-21 -147 -71 -259t-135 -197.5t-217 -130.5t-307 -45q-117 0 -209.5 20.5t-156 59.5t-107 94.5t-63 126t-23.5 154t11 177.5l122 869h402l-123 -887q-11 -73 0 -129t40 -88t68 -48t87 -16q102 0 178 69t98 212l123 887
h403z" />
    <glyph glyph-name="Uacute" unicode="&#xda;" horiz-adv-x="1531" 
d="M1163 1933l58 -252l-574 -133l-37 170zM1432 612q-21 -147 -71 -259t-135 -197.5t-217 -130.5t-307 -45q-117 0 -209.5 20.5t-156 59.5t-107 94.5t-63 126t-23.5 154t11 177.5l122 869h402l-123 -887q-11 -73 0 -129t40 -88t68 -48t87 -16q102 0 178 69t98 212l123 887
h403z" />
    <glyph glyph-name="Ucircumflex" unicode="&#xdb;" horiz-adv-x="1531" 
d="M1040 1612l-106 170l-172 -170h-283l320 313h266l233 -313h-258zM1432 612q-21 -147 -71 -259t-135 -197.5t-217 -130.5t-307 -45q-117 0 -209.5 20.5t-156 59.5t-107 94.5t-63 126t-23.5 154t11 177.5l122 869h402l-123 -887q-11 -73 0 -129t40 -88t68 -48t87 -16
q102 0 178 69t98 212l123 887h403z" />
    <glyph glyph-name="Udieresis" unicode="&#xdc;" horiz-adv-x="1531" 
d="M877 1905l-43 -285h-340l41 285h342zM1356 1905l-43 -285h-340l41 285h342zM1432 612q-21 -147 -71 -259t-135 -197.5t-217 -130.5t-307 -45q-117 0 -209.5 20.5t-156 59.5t-107 94.5t-63 126t-23.5 154t11 177.5l122 869h402l-123 -887q-11 -73 0 -129t40 -88t68 -48
t87 -16q102 0 178 69t98 212l123 887h403z" />
    <glyph glyph-name="Yacute" unicode="&#xdd;" horiz-adv-x="1470" 
d="M1198 1933l57 -252l-573 -133l-37 170zM1591 1481l-647 -865l-86 -616h-399l86 616l-402 865h430l220 -527l364 527h434z" />
    <glyph glyph-name="Thorn" unicode="&#xde;" horiz-adv-x="1527" 
d="M1493 721q-29 -205 -191.5 -321.5t-408.5 -116.5h-334l-39 -283h-452l208 1481h453l-39 -269h264q99 0 186 -19.5t158 -60t119 -98t68.5 -138t7.5 -175.5zM1038 770q9 58 -30 90.5t-109 32.5h-252l-43 -291h248q71 0 124 49.5t62 118.5z" />
    <glyph glyph-name="germandbls" unicode="&#xdf;" horiz-adv-x="1411" 
d="M948 803q77 -32 126.5 -56.5t108.5 -66t90 -86.5t47.5 -111.5t4.5 -146.5q-23 -175 -154 -265.5t-340 -90.5q-176 0 -270 94l113 184q12 -3 39.5 -12t56 -15t57.5 -6q54 0 96.5 30t51.5 83q4 29 -17 47.5t-84 52.5q-16 8 -24 13q-101 41 -155 117.5t-38 187.5
q7 45 28.5 88.5t40.5 68t56 66.5q2 2 22 16.5t24 17.5t21 16.5t21.5 19t17.5 18t17.5 21t11.5 20.5t10.5 23.5t4.5 23.5q5 35 -19 55.5t-79 20.5q-82 0 -135 -51t-64 -125l-150 -1055h-391l105 721h-113l37 268h110q12 77 37.5 144t74 132.5t115 112t167 75t223.5 28.5
q227 0 343.5 -89.5t94.5 -254.5q-14 -97 -84 -164t-229 -133q-9 1 -18 -7.5t-11 -19.5l2 -8v-2z" />
    <glyph glyph-name="agrave" unicode="&#xe0;" horiz-adv-x="1171" 
d="M522 1509l510 -231l-69 -152l-549 140zM342 -20q-157 0 -248 89t-69 248q24 175 177 269t437 94h82l6 45q12 115 -102 115q-122 0 -189 -123l-313 22q59 159 205 248.5t348 89.5q135 0 226.5 -23t138.5 -68t62.5 -103t4.5 -135l-104 -748h-330l-8 164
q-43 -90 -128.5 -137t-195.5 -47zM516 231q57 0 103 37t55 88l18 138h-63q-28 0 -60.5 -6t-69.5 -19.5t-63.5 -43t-32.5 -69.5q-9 -57 25 -91t88 -34z" />
    <glyph glyph-name="aacute" unicode="&#xe1;" horiz-adv-x="1171" 
d="M971 1509l57 -252l-573 -133l-37 170zM342 -20q-157 0 -248 89t-69 248q24 175 177 269t437 94h82l6 45q12 115 -102 115q-122 0 -189 -123l-313 22q59 159 205 248.5t348 89.5q135 0 226.5 -23t138.5 -68t62.5 -103t4.5 -135l-104 -748h-330l-8 164q-43 -90 -128.5 -137
t-195.5 -47zM516 231q57 0 103 37t55 88l18 138h-63q-28 0 -60.5 -6t-69.5 -19.5t-63.5 -43t-32.5 -69.5q-9 -57 25 -91t88 -34z" />
    <glyph glyph-name="acircumflex" unicode="&#xe2;" horiz-adv-x="1171" 
d="M848 1188l-107 170l-172 -170h-282l319 313h266l234 -313h-258zM342 -20q-157 0 -248 89t-69 248q24 175 177 269t437 94h82l6 45q12 115 -102 115q-122 0 -189 -123l-313 22q59 159 205 248.5t348 89.5q135 0 226.5 -23t138.5 -68t62.5 -103t4.5 -135l-104 -748h-330
l-8 164q-43 -90 -128.5 -137t-195.5 -47zM516 231q57 0 103 37t55 88l18 138h-63q-28 0 -60.5 -6t-69.5 -19.5t-63.5 -43t-32.5 -69.5q-9 -57 25 -91t88 -34z" />
    <glyph glyph-name="atilde" unicode="&#xe3;" horiz-adv-x="1171" 
d="M1126 1266q-118 -58 -229 -58q-65 0 -163.5 32t-149.5 32q-28 0 -53.5 -7.5t-40.5 -16t-46.5 -29t-50.5 -31.5l-43 223q59 38 108 58t113 20q74 0 179.5 -34t142.5 -34q53 0 125 38t92 42zM342 -20q-157 0 -248 89t-69 248q24 175 177 269t437 94h82l6 45
q12 115 -102 115q-122 0 -189 -123l-313 22q59 159 205 248.5t348 89.5q135 0 226.5 -23t138.5 -68t62.5 -103t4.5 -135l-104 -748h-330l-8 164q-43 -90 -128.5 -137t-195.5 -47zM516 231q57 0 103 37t55 88l18 138h-63q-28 0 -60.5 -6t-69.5 -19.5t-63.5 -43t-32.5 -69.5
q-9 -57 25 -91t88 -34z" />
    <glyph glyph-name="adieresis" unicode="&#xe4;" horiz-adv-x="1171" 
d="M684 1481l-43 -285h-340l41 285h342zM1163 1481l-43 -285h-340l41 285h342zM342 -20q-157 0 -248 89t-69 248q24 175 177 269t437 94h82l6 45q12 115 -102 115q-122 0 -189 -123l-313 22q59 159 205 248.5t348 89.5q135 0 226.5 -23t138.5 -68t62.5 -103t4.5 -135
l-104 -748h-330l-8 164q-43 -90 -128.5 -137t-195.5 -47zM516 231q57 0 103 37t55 88l18 138h-63q-28 0 -60.5 -6t-69.5 -19.5t-63.5 -43t-32.5 -69.5q-9 -57 25 -91t88 -34z" />
    <glyph glyph-name="aring" unicode="&#xe5;" horiz-adv-x="1171" 
d="M965 1354q-13 -92 -84 -151.5t-164 -59.5q-103 0 -165.5 75.5t-47.5 182.5q12 87 83.5 146t162.5 59q102 0 165.5 -74.5t49.5 -177.5zM831 1395q4 33 -15 52t-54 19q-45 0 -85.5 -34t-47.5 -80q-2 -33 19 -54.5t54 -21.5q45 0 83 36t46 83zM342 -20q-157 0 -248 89
t-69 248q24 175 177 269t437 94h82l6 45q12 115 -102 115q-122 0 -189 -123l-313 22q59 159 205 248.5t348 89.5q135 0 226.5 -23t138.5 -68t62.5 -103t4.5 -135l-104 -748h-330l-8 164q-43 -90 -128.5 -137t-195.5 -47zM516 231q57 0 103 37t55 88l18 138h-63
q-28 0 -60.5 -6t-69.5 -19.5t-63.5 -43t-32.5 -69.5q-9 -57 25 -91t88 -34z" />
    <glyph glyph-name="ae" unicode="&#xe6;" horiz-adv-x="1878" 
d="M1112 457q-11 -108 33.5 -160.5t126.5 -52.5q58 0 113 29t126 98l267 -115q-137 -161 -262 -218.5t-306 -57.5q-129 0 -231.5 47t-163.5 131q-7 0 -17.5 -12t-13.5 -23q-99 -77 -204.5 -110t-239.5 -33q-171 0 -253.5 90.5t-61.5 236.5q22 156 177.5 248t438.5 104l90 5
l12 63q9 30 2.5 50t-15.5 32t-27 18.5t-32 8.5t-30 2q-54 0 -99 -34t-73 -87l-365 76q55 99 120.5 158.5t174 92.5t267.5 33q257 -3 362 -80q140 80 299 80q120 0 218 -41t163.5 -119.5t90.5 -194t-1 -265.5h-686zM1333 842q-71 0 -124.5 -50t-63.5 -139h334
q3 70 -40.5 129.5t-105.5 59.5zM705 469l-56 -4q-43 -3 -93.5 -23t-95 -61t-50.5 -92q-5 -36 18 -55t74 -19q65 0 120 34.5t62 82.5z" />
    <glyph glyph-name="ccedilla" unicode="&#xe7;" horiz-adv-x="1153" 
d="M649 823q-76 0 -135 -83t-78 -212q-17 -131 21.5 -213t115.5 -82q29 0 53.5 13t40.5 31t31 45t22 45.5t15 42.5l326 -43q-25 -130 -147.5 -242t-295.5 -139l-43 -92q110 0 157.5 -57.5t37.5 -131.5q-10 -71 -88 -112.5t-182 -41.5q-186 0 -277 84l47 82q115 -39 166 -39
q47 0 80.5 22t38.5 54q5 30 -29.5 43t-128.5 13q-23 0 -32.5 8.5t-2.5 25.5l84 142q-200 27 -312.5 173.5t-82.5 364.5q35 242 216 397.5t415 155.5q108 0 195.5 -36t140 -94t77 -131t15.5 -148l-350 -41q-1 38 -4.5 64.5t-13.5 60.5t-33.5 52.5t-59.5 18.5z" />
    <glyph glyph-name="egrave" unicode="&#xe8;" horiz-adv-x="1210" 
d="M522 1509l510 -231l-69 -152l-549 140zM432 416q-14 -91 29 -140t119 -49q63 0 122 32.5t93 86.5l295 -72q-83 -142 -224 -218t-317 -76q-251 0 -392 148.5t-108 385.5q22 152 107.5 279.5t225.5 205.5t304 78q127 0 224.5 -45t154 -122.5t78 -180.5t4.5 -221l-14 -92
h-701zM467 668h328q11 81 -24.5 130.5t-115.5 49.5q-82 0 -129.5 -49t-58.5 -131z" />
    <glyph glyph-name="eacute" unicode="&#xe9;" horiz-adv-x="1210" 
d="M971 1509l57 -252l-573 -133l-37 170zM432 416q-14 -91 29 -140t119 -49q63 0 122 32.5t93 86.5l295 -72q-83 -142 -224 -218t-317 -76q-251 0 -392 148.5t-108 385.5q22 152 107.5 279.5t225.5 205.5t304 78q127 0 224.5 -45t154 -122.5t78 -180.5t4.5 -221l-14 -92
h-701zM467 668h328q11 81 -24.5 130.5t-115.5 49.5q-82 0 -129.5 -49t-58.5 -131z" />
    <glyph glyph-name="ecircumflex" unicode="&#xea;" horiz-adv-x="1210" 
d="M848 1188l-107 170l-172 -170h-282l319 313h266l234 -313h-258zM432 416q-14 -91 29 -140t119 -49q63 0 122 32.5t93 86.5l295 -72q-83 -142 -224 -218t-317 -76q-251 0 -392 148.5t-108 385.5q22 152 107.5 279.5t225.5 205.5t304 78q127 0 224.5 -45t154 -122.5
t78 -180.5t4.5 -221l-14 -92h-701zM467 668h328q11 81 -24.5 130.5t-115.5 49.5q-82 0 -129.5 -49t-58.5 -131z" />
    <glyph glyph-name="edieresis" unicode="&#xeb;" horiz-adv-x="1210" 
d="M684 1481l-43 -285h-340l41 285h342zM1163 1481l-43 -285h-340l41 285h342zM432 416q-14 -91 29 -140t119 -49q63 0 122 32.5t93 86.5l295 -72q-83 -142 -224 -218t-317 -76q-251 0 -392 148.5t-108 385.5q22 152 107.5 279.5t225.5 205.5t304 78q127 0 224.5 -45
t154 -122.5t78 -180.5t4.5 -221l-14 -92h-701zM467 668h328q11 81 -24.5 130.5t-115.5 49.5q-82 0 -129.5 -49t-58.5 -131z" />
    <glyph glyph-name="igrave" unicode="&#xec;" horiz-adv-x="593" 
d="M209 1509l510 -231l-70 -152l-549 140zM557 1057l-149 -1057h-398l148 1057h399z" />
    <glyph glyph-name="iacute" unicode="&#xed;" horiz-adv-x="589" 
d="M662 1509l57 -252l-574 -133l-36 170zM561 1057l-149 -1057h-398l148 1057h399z" />
    <glyph glyph-name="icircumflex" unicode="&#xee;" horiz-adv-x="587" 
d="M545 1188l-107 170l-172 -170h-282l319 313h266l234 -313h-258zM567 1057l-149 -1057h-398l148 1057h399z" />
    <glyph glyph-name="idieresis" unicode="&#xef;" horiz-adv-x="600" 
d="M377 1481l-43 -285h-340l41 285h342zM856 1481l-43 -285h-340l41 285h342zM563 1057l-149 -1057h-398l148 1057h399z" />
    <glyph glyph-name="eth" unicode="&#xf0;" horiz-adv-x="1216" 
d="M1167 541q-36 -259 -206 -410t-416 -151q-165 0 -286 72t-175 196t-33 276q21 149 108.5 267t220.5 182.5t286 64.5q10 0 17 9t9 20q-35 48 -110 117l-232 -133l-65 120l180 89q-61 33 -182 90l200 145q134 -21 273 -90l184 108l55 -129l-121 -55q169 -132 247.5 -339
t45.5 -449zM551 236q173 0 211 296q20 136 -3.5 197.5t-96.5 61.5q-169 0 -213 -302q-17 -135 6 -194t96 -59z" />
    <glyph glyph-name="ntilde" unicode="&#xf1;" horiz-adv-x="1249" 
d="M1157 1266q-118 -58 -229 -58q-65 0 -164 32t-150 32q-28 0 -53.5 -7.5t-40 -16t-45.5 -28.5t-51 -32l-43 223q59 38 108 58t113 20q74 0 179.5 -34t142.5 -34q53 0 125 38t92 42zM29 0l147 1057h395l-28 -205q73 110 169.5 167.5t205.5 57.5q141 0 214.5 -87.5
t53.5 -235.5l-107 -754h-399l98 700q6 42 -28 69.5t-82 27.5t-93 -27.5t-51 -69.5l-98 -700h-397z" />
    <glyph glyph-name="ograve" unicode="&#xf2;" horiz-adv-x="1216" 
d="M520 1509l510 -231l-69 -152l-549 140zM528 -20q-245 0 -378 152t-99 390q35 247 215 401t420 154q164 0 281.5 -71.5t168.5 -197.5t29 -286q-34 -237 -212 -389.5t-425 -152.5zM567 227q45 0 82.5 31.5t61 82t38 99.5t21.5 97q9 43 6 95t-12 97t-38.5 75t-74.5 30
q-46 0 -83 -29.5t-60 -77t-36.5 -94.5t-20.5 -96q-9 -42 -7 -96t10.5 -101.5t37.5 -80t75 -32.5z" />
    <glyph glyph-name="oacute" unicode="&#xf3;" horiz-adv-x="1216" 
d="M969 1509l57 -252l-573 -133l-37 170zM528 -20q-245 0 -378 152t-99 390q35 247 215 401t420 154q164 0 281.5 -71.5t168.5 -197.5t29 -286q-34 -237 -212 -389.5t-425 -152.5zM567 227q45 0 82.5 31.5t61 82t38 99.5t21.5 97q9 43 6 95t-12 97t-38.5 75t-74.5 30
q-46 0 -83 -29.5t-60 -77t-36.5 -94.5t-20.5 -96q-9 -42 -7 -96t10.5 -101.5t37.5 -80t75 -32.5z" />
    <glyph glyph-name="ocircumflex" unicode="&#xf4;" horiz-adv-x="1216" 
d="M846 1188l-107 170l-172 -170h-282l319 313h266l234 -313h-258zM528 -20q-245 0 -378 152t-99 390q35 247 215 401t420 154q164 0 281.5 -71.5t168.5 -197.5t29 -286q-34 -237 -212 -389.5t-425 -152.5zM567 227q45 0 82.5 31.5t61 82t38 99.5t21.5 97q9 43 6 95t-12 97
t-38.5 75t-74.5 30q-46 0 -83 -29.5t-60 -77t-36.5 -94.5t-20.5 -96q-9 -42 -7 -96t10.5 -101.5t37.5 -80t75 -32.5z" />
    <glyph glyph-name="otilde" unicode="&#xf5;" horiz-adv-x="1216" 
d="M1124 1266q-118 -58 -229 -58q-65 0 -163.5 32t-149.5 32q-28 0 -53.5 -7.5t-40.5 -16t-46.5 -29t-50.5 -31.5l-43 223q59 38 108 58t113 20q74 0 179.5 -34t142.5 -34q53 0 125 38t92 42zM528 -20q-245 0 -378 152t-99 390q35 247 215 401t420 154q164 0 281.5 -71.5
t168.5 -197.5t29 -286q-34 -237 -212 -389.5t-425 -152.5zM567 227q45 0 82.5 31.5t61 82t38 99.5t21.5 97q9 43 6 95t-12 97t-38.5 75t-74.5 30q-46 0 -83 -29.5t-60 -77t-36.5 -94.5t-20.5 -96q-9 -42 -7 -96t10.5 -101.5t37.5 -80t75 -32.5z" />
    <glyph glyph-name="odieresis" unicode="&#xf6;" horiz-adv-x="1216" 
d="M682 1481l-43 -285h-340l41 285h342zM1161 1481l-43 -285h-340l41 285h342zM528 -20q-245 0 -378 152t-99 390q35 247 215 401t420 154q164 0 281.5 -71.5t168.5 -197.5t29 -286q-34 -237 -212 -389.5t-425 -152.5zM567 227q45 0 82.5 31.5t61 82t38 99.5t21.5 97
q9 43 6 95t-12 97t-38.5 75t-74.5 30q-46 0 -83 -29.5t-60 -77t-36.5 -94.5t-20.5 -96q-9 -42 -7 -96t10.5 -101.5t37.5 -80t75 -32.5z" />
    <glyph glyph-name="divide" unicode="&#xf7;" horiz-adv-x="1267" 
d="M934 1368l-51 -362h-377l49 362h379zM1198 887l-43 -283h-1038l37 283h1044zM811 485l-53 -364h-379l53 364h379z" />
    <glyph glyph-name="oslash" unicode="&#xf8;" horiz-adv-x="1304" 
d="M1278 934l-125 -105q63 -132 39 -307q-34 -237 -212 -389.5t-425 -152.5q-191 0 -317 96l-115 -94l-119 139l117 94q-67 133 -43 307q35 247 215 401t420 154q198 0 327 -104l121 98zM477 537q-1 -5 -2 -15.5t-2 -15.5l307 252q-30 76 -102 76q-46 0 -83 -29.5t-60.5 -77
t-37 -94.5t-20.5 -96zM797 537l-299 -246q31 -64 96 -64q45 0 82.5 31.5t61 82t38 99.5t21.5 97z" />
    <glyph glyph-name="ugrave" unicode="&#xf9;" horiz-adv-x="1245" 
d="M530 1509l510 -231l-69 -152l-549 140zM381 -20q-65 0 -125 22.5t-105 63.5t-67 105.5t-12 141.5l104 744h399l-100 -707q-6 -49 23 -79.5t88 -30.5q58 0 94.5 30.5t42.5 79.5l100 707h402l-156 -1057h-293l-26 180q-66 -97 -173.5 -148.5t-195.5 -51.5z" />
    <glyph glyph-name="uacute" unicode="&#xfa;" horiz-adv-x="1245" 
d="M981 1509l57 -252l-573 -133l-37 170zM381 -20q-65 0 -125 22.5t-105 63.5t-67 105.5t-12 141.5l104 744h399l-100 -707q-6 -49 23 -79.5t88 -30.5q58 0 94.5 30.5t42.5 79.5l100 707h402l-156 -1057h-293l-26 180q-66 -97 -173.5 -148.5t-195.5 -51.5z" />
    <glyph glyph-name="ucircumflex" unicode="&#xfb;" horiz-adv-x="1245" 
d="M858 1188l-106 170l-172 -170h-283l319 313h267l233 -313h-258zM381 -20q-65 0 -125 22.5t-105 63.5t-67 105.5t-12 141.5l104 744h399l-100 -707q-6 -49 23 -79.5t88 -30.5q58 0 94.5 30.5t42.5 79.5l100 707h402l-156 -1057h-293l-26 180q-66 -97 -173.5 -148.5
t-195.5 -51.5z" />
    <glyph glyph-name="udieresis" unicode="&#xfc;" horiz-adv-x="1245" 
d="M692 1481l-43 -285h-340l41 285h342zM1171 1481l-43 -285h-340l41 285h342zM381 -20q-65 0 -125 22.5t-105 63.5t-67 105.5t-12 141.5l104 744h399l-100 -707q-6 -49 23 -79.5t88 -30.5q58 0 94.5 30.5t42.5 79.5l100 707h402l-156 -1057h-293l-26 180
q-66 -97 -173.5 -148.5t-195.5 -51.5z" />
    <glyph glyph-name="yacute" unicode="&#xfd;" horiz-adv-x="1202" 
d="M1004 1509l57 -252l-574 -133l-36 170zM199 -338q-73 0 -129.5 11t-76.5 23l-20 11l37 254l103 -8q30 -4 56 -1.5t45.5 3.5t37 7.5t29.5 11t22.5 13t16.5 13.5t11.5 13.5t7.5 12t5 9.5l2 6l4 20l-270 996h391l121 -574l289 574h389l-553 -996q-67 -122 -131.5 -202.5
t-129 -122.5t-123.5 -58t-134 -16z" />
    <glyph glyph-name="thorn" unicode="&#xfe;" horiz-adv-x="1253" 
d="M-18 -330l254 1811h401l-72 -516q71 57 144 84.5t165 27.5q87 0 155 -34.5t114.5 -105t61 -177t-4.5 -250.5q-20 -143 -64.5 -248t-107.5 -165t-135.5 -88.5t-157.5 -28.5q-30 0 -56 4t-65.5 17.5t-83 47.5t-86.5 86l-63 -465h-399zM573 219q38 0 67.5 10t51 32t37 46.5
t28.5 65.5t22 76t22 91l6 27q17 108 6.5 168t-36.5 80.5t-77 20.5q-63 0 -114.5 -37.5t-59.5 -85.5l-63 -422q9 -24 46.5 -48t63.5 -24z" />
    <glyph glyph-name="ydieresis" unicode="&#xff;" horiz-adv-x="1202" 
d="M715 1481l-43 -285h-340l41 285h342zM1194 1481l-43 -285h-340l41 285h342zM199 -338q-73 0 -129.5 11t-76.5 23l-20 11l37 254l103 -8q30 -4 56 -1.5t45.5 3.5t37 7.5t29.5 11t22.5 13t16.5 13.5t11.5 13.5t7.5 12t5 9.5l2 6l4 20l-270 996h391l121 -574l289 574h389
l-553 -996q-67 -122 -131.5 -202.5t-129 -122.5t-123.5 -58t-134 -16z" />
    <glyph glyph-name="Amacron" unicode="&#x100;" horiz-adv-x="1497" 
d="M1384 1905l-36 -246h-820l35 246h821zM-51 0l731 1481h407l316 -1481h-393l-58 287h-467l-141 -287h-395zM616 627h293l-80 473z" />
    <glyph glyph-name="amacron" unicode="&#x101;" horiz-adv-x="1171" 
d="M1161 1481l-37 -246h-819l35 246h821zM342 -20q-157 0 -248 89t-69 248q24 175 177 269t437 94h82l6 45q12 115 -102 115q-122 0 -189 -123l-313 22q59 159 205 248.5t348 89.5q135 0 226.5 -23t138.5 -68t62.5 -103t4.5 -135l-104 -748h-330l-8 164q-43 -90 -128.5 -137
t-195.5 -47zM516 231q57 0 103 37t55 88l18 138h-63q-28 0 -60.5 -6t-69.5 -19.5t-63.5 -43t-32.5 -69.5q-9 -57 25 -91t88 -34z" />
    <glyph glyph-name="Abreve" unicode="&#x102;" horiz-adv-x="1497" 
d="M1374 1905q-64 -149 -184 -223t-264 -74q-75 0 -133.5 13.5t-110.5 45.5t-85.5 92t-45.5 146h190q32 -56 84 -88.5t107 -32.5q61 0 118.5 30t92.5 91h231zM-51 0l731 1481h407l316 -1481h-393l-58 287h-467l-141 -287h-395zM616 627h293l-80 473z" />
    <glyph glyph-name="abreve" unicode="&#x103;" horiz-adv-x="1171" 
d="M1151 1481q-64 -149 -184.5 -223t-264.5 -74q-75 0 -133.5 13.5t-110 45.5t-85 92t-45.5 146h190q32 -56 84 -88.5t107 -32.5q61 0 118.5 30t92.5 91h231zM342 -20q-157 0 -248 89t-69 248q24 175 177 269t437 94h82l6 45q12 115 -102 115q-122 0 -189 -123l-313 22
q59 159 205 248.5t348 89.5q135 0 226.5 -23t138.5 -68t62.5 -103t4.5 -135l-104 -748h-330l-8 164q-43 -90 -128.5 -137t-195.5 -47zM516 231q57 0 103 37t55 88l18 138h-63q-28 0 -60.5 -6t-69.5 -19.5t-63.5 -43t-32.5 -69.5q-9 -57 25 -91t88 -34z" />
    <glyph glyph-name="Aogonek" unicode="&#x104;" horiz-adv-x="1497" 
d="M1247 -141q-3 -47 41 -47q24 0 48.5 6t39 12t40.5 19l36 18l-25 -186q-127 -31 -227 -31q-117 0 -179.5 51t-49.5 145q7 47 40.5 83t123.5 71h-125l-58 287h-467l-141 -287h-395l731 1481h407l314 -1473l59 -2q-112 -34 -161 -69.5t-52 -77.5zM616 627h293l-80 473z" />
    <glyph glyph-name="aogonek" unicode="&#x105;" horiz-adv-x="1191" 
d="M676 1077q135 0 226.5 -23t138.5 -68t62.5 -103t4.5 -135l-102 -740h14q-12 -4 -16 -4v-4h-11q-180 -60 -186 -139q-3 -47 41 -47q24 0 48.5 6t39 12t40.5 19l36 18l-25 -186q-127 -31 -227 -31q-117 0 -180 51t-50 145q7 46 40 82.5t118 69.5h-14l-8 164
q-43 -90 -128.5 -137t-195.5 -47q-157 0 -248 89t-69 248q24 175 177 269t437 94h82l6 45q12 115 -102 115q-122 0 -189 -123l-313 22q59 159 205 248.5t348 89.5zM516 231q57 0 103 37t55 88l18 138h-63q-28 0 -60.5 -6t-69.5 -19.5t-63.5 -43t-32.5 -69.5q-9 -57 25 -91
t88 -34z" />
    <glyph glyph-name="Cacute" unicode="&#x106;" horiz-adv-x="1525" 
d="M1204 1933l58 -252l-574 -133l-37 170zM936 1501q265 0 421.5 -144.5t147.5 -383.5l-399 -25q-3 108 -53.5 171t-147.5 63q-59 0 -111 -22t-100 -70t-83 -134t-52 -204q-15 -123 -5.5 -209t43 -140.5t79.5 -79t104 -24.5q97 0 166.5 71t106.5 183l391 -27
q-28 -99 -62.5 -175.5t-92 -148.5t-133 -119t-185.5 -75t-248 -28q-210 0 -357.5 101t-209 277.5t-31.5 401.5q47 337 267.5 539t543.5 202z" />
    <glyph glyph-name="cacute" unicode="&#x107;" horiz-adv-x="1153" 
d="M965 1509l57 -252l-573 -133l-37 170zM682 1077q108 0 195.5 -36t140 -94t77 -131t15.5 -148l-350 -41q-1 38 -4.5 64.5t-13.5 60.5t-33.5 52.5t-59.5 18.5q-76 0 -135 -83t-78 -212q-17 -131 21.5 -213t115.5 -82q29 0 53.5 13t40.5 31t31 45t22 45.5t15 42.5l326 -43
q-13 -70 -58 -138.5t-113 -124t-163.5 -90t-200.5 -34.5q-113 0 -208 39.5t-160 109.5t-94.5 172.5t-12.5 222.5q35 242 216 397.5t415 155.5z" />
    <glyph glyph-name="Ccircumflex" unicode="&#x108;" horiz-adv-x="1525" 
d="M1081 1612l-106 170l-172 -170h-283l320 313h266l233 -313h-258zM936 1501q265 0 421.5 -144.5t147.5 -383.5l-399 -25q-3 108 -53.5 171t-147.5 63q-59 0 -111 -22t-100 -70t-83 -134t-52 -204q-15 -123 -5.5 -209t43 -140.5t79.5 -79t104 -24.5q97 0 166.5 71
t106.5 183l391 -27q-28 -99 -62.5 -175.5t-92 -148.5t-133 -119t-185.5 -75t-248 -28q-210 0 -357.5 101t-209 277.5t-31.5 401.5q47 337 267.5 539t543.5 202z" />
    <glyph glyph-name="ccircumflex" unicode="&#x109;" horiz-adv-x="1153" 
d="M842 1188l-107 170l-172 -170h-282l319 313h266l234 -313h-258zM682 1077q108 0 195.5 -36t140 -94t77 -131t15.5 -148l-350 -41q-1 38 -4.5 64.5t-13.5 60.5t-33.5 52.5t-59.5 18.5q-76 0 -135 -83t-78 -212q-17 -131 21.5 -213t115.5 -82q29 0 53.5 13t40.5 31t31 45
t22 45.5t15 42.5l326 -43q-13 -70 -58 -138.5t-113 -124t-163.5 -90t-200.5 -34.5q-113 0 -208 39.5t-160 109.5t-94.5 172.5t-12.5 222.5q35 242 216 397.5t415 155.5z" />
    <glyph glyph-name="Cdotaccent" unicode="&#x10a;" horiz-adv-x="1525" 
d="M1184 1905l-47 -336h-400l47 336h400zM936 1501q265 0 421.5 -144.5t147.5 -383.5l-399 -25q-3 108 -53.5 171t-147.5 63q-59 0 -111 -22t-100 -70t-83 -134t-52 -204q-15 -123 -5.5 -209t43 -140.5t79.5 -79t104 -24.5q97 0 166.5 71t106.5 183l391 -27
q-28 -99 -62.5 -175.5t-92 -148.5t-133 -119t-185.5 -75t-248 -28q-210 0 -357.5 101t-209 277.5t-31.5 401.5q47 337 267.5 539t543.5 202z" />
    <glyph glyph-name="cdotaccent" unicode="&#x10b;" horiz-adv-x="1153" 
d="M944 1481l-47 -336h-399l47 336h399zM682 1077q108 0 195.5 -36t140 -94t77 -131t15.5 -148l-350 -41q-1 38 -4.5 64.5t-13.5 60.5t-33.5 52.5t-59.5 18.5q-76 0 -135 -83t-78 -212q-17 -131 21.5 -213t115.5 -82q29 0 53.5 13t40.5 31t31 45t22 45.5t15 42.5l326 -43
q-13 -70 -58 -138.5t-113 -124t-163.5 -90t-200.5 -34.5q-113 0 -208 39.5t-160 109.5t-94.5 172.5t-12.5 222.5q35 242 216 397.5t415 155.5z" />
    <glyph glyph-name="Ccaron" unicode="&#x10c;" horiz-adv-x="1525" 
d="M1098 1907h309l-320 -316h-266l-246 316h244l125 -166zM936 1501q265 0 421.5 -144.5t147.5 -383.5l-399 -25q-3 108 -53.5 171t-147.5 63q-59 0 -111 -22t-100 -70t-83 -134t-52 -204q-15 -123 -5.5 -209t43 -140.5t79.5 -79t104 -24.5q97 0 166.5 71t106.5 183l391 -27
q-28 -99 -62.5 -175.5t-92 -148.5t-133 -119t-185.5 -75t-248 -28q-210 0 -357.5 101t-209 277.5t-31.5 401.5q47 337 267.5 539t543.5 202z" />
    <glyph glyph-name="ccaron" unicode="&#x10d;" horiz-adv-x="1153" 
d="M858 1483h309l-319 -316h-266l-246 316h244l125 -166zM682 1077q108 0 195.5 -36t140 -94t77 -131t15.5 -148l-350 -41q-1 38 -4.5 64.5t-13.5 60.5t-33.5 52.5t-59.5 18.5q-76 0 -135 -83t-78 -212q-17 -131 21.5 -213t115.5 -82q29 0 53.5 13t40.5 31t31 45t22 45.5
t15 42.5l326 -43q-13 -70 -58 -138.5t-113 -124t-163.5 -90t-200.5 -34.5q-113 0 -208 39.5t-160 109.5t-94.5 172.5t-12.5 222.5q35 242 216 397.5t415 155.5z" />
    <glyph glyph-name="Dcaron" unicode="&#x10e;" horiz-adv-x="1519" 
d="M1071 1907h309l-319 -316h-266l-246 316h244l125 -166zM276 1481q466 0 531 -2q195 -7 334.5 -63.5t217.5 -154.5t105 -227.5t4 -290.5q-22 -164 -87.5 -298t-172.5 -234.5t-263 -155.5t-349 -55h-528zM631 1167l-119 -854h141q61 0 121.5 24t119 73t102.5 137t61 203
q27 201 -50.5 309t-234.5 108h-141z" />
    <glyph glyph-name="dcaron" unicode="&#x10f;" horiz-adv-x="1316" 
d="M1290 1520l-65 -463h55l-41 -281l-72 -129l-90 -647h-280l-27 180q-53 -85 -140 -142.5t-204 -57.5q-217 0 -314 149t-61 408q35 252 164.5 396t323.5 144q212 0 266 -180l88 623h397zM760 582q19 129 -11.5 182t-103.5 53q-34 0 -60.5 -11t-52.5 -39.5t-45.5 -85.5
t-31.5 -140q-23 -166 7.5 -234.5t106.5 -68.5q144 0 176 251z" />
    <glyph glyph-name="Dcroat" unicode="&#x110;" horiz-adv-x="1548" 
d="M836 1479q195 -7 334.5 -63.5t217.5 -154.5t105 -227.5t4 -290.5q-22 -164 -87.5 -298t-172.5 -234.5t-263 -155.5t-349 -55h-529l82 584h-100l39 282h102l86 615q467 0 531 -2zM1085 750q27 201 -50 309t-234 108h-142l-41 -301h314l-39 -282h-315l-37 -271h141
q61 0 121.5 24t118.5 73t102 137t61 203z" />
    <glyph glyph-name="dcroat" unicode="&#x111;" horiz-adv-x="1382" 
d="M1415 1370l-29 -213h-147l-162 -1157h-280l-27 180q-53 -85 -140 -142.5t-204 -57.5q-217 0 -314 149t-61 408q35 252 164.5 396t323.5 144q212 0 266 -180l37 260h-197l29 213h198l21 150h397l-20 -150h145zM760 582q19 129 -11.5 182t-103.5 53q-34 0 -60.5 -11
t-52.5 -39.5t-45.5 -85.5t-31.5 -140q-23 -166 7.5 -234.5t106.5 -68.5q144 0 176 251z" />
    <glyph glyph-name="Emacron" unicode="&#x112;" horiz-adv-x="1347" 
d="M1292 1905l-37 -246h-819l35 246h821zM68 0l208 1481h1092l-49 -332h-688l-37 -246h577l-43 -321h-579l-35 -250h694l-47 -332h-1093z" />
    <glyph glyph-name="emacron" unicode="&#x113;" horiz-adv-x="1210" 
d="M1161 1481l-37 -246h-819l35 246h821zM432 416q-14 -91 29 -140t119 -49q63 0 122 32.5t93 86.5l295 -72q-83 -142 -224 -218t-317 -76q-251 0 -392 148.5t-108 385.5q22 152 107.5 279.5t225.5 205.5t304 78q127 0 224.5 -45t154 -122.5t78 -180.5t4.5 -221l-14 -92
h-701zM467 668h328q11 81 -24.5 130.5t-115.5 49.5q-82 0 -129.5 -49t-58.5 -131z" />
    <glyph glyph-name="Ebreve" unicode="&#x114;" horiz-adv-x="1347" 
d="M1282 1905q-64 -149 -184 -223t-264 -74q-75 0 -133.5 13.5t-110.5 45.5t-85.5 92t-45.5 146h190q32 -56 84 -88.5t107 -32.5q61 0 118.5 30t92.5 91h231zM68 0l208 1481h1092l-49 -332h-688l-37 -246h577l-43 -321h-579l-35 -250h694l-47 -332h-1093z" />
    <glyph glyph-name="ebreve" unicode="&#x115;" horiz-adv-x="1210" 
d="M1151 1481q-64 -149 -184.5 -223t-264.5 -74q-75 0 -133.5 13.5t-110 45.5t-85 92t-45.5 146h190q32 -56 84 -88.5t107 -32.5q61 0 118.5 30t92.5 91h231zM432 416q-14 -91 29 -140t119 -49q63 0 122 32.5t93 86.5l295 -72q-83 -142 -224 -218t-317 -76
q-251 0 -392 148.5t-108 385.5q22 152 107.5 279.5t225.5 205.5t304 78q127 0 224.5 -45t154 -122.5t78 -180.5t4.5 -221l-14 -92h-701zM467 668h328q11 81 -24.5 130.5t-115.5 49.5q-82 0 -129.5 -49t-58.5 -131z" />
    <glyph glyph-name="Edotaccent" unicode="&#x116;" horiz-adv-x="1347" 
d="M1081 1905l-47 -336h-399l47 336h399zM68 0l208 1481h1092l-49 -332h-688l-37 -246h577l-43 -321h-579l-35 -250h694l-47 -332h-1093z" />
    <glyph glyph-name="edotaccent" unicode="&#x117;" horiz-adv-x="1210" 
d="M950 1481l-47 -336h-399l47 336h399zM432 416q-14 -91 29 -140t119 -49q63 0 122 32.5t93 86.5l295 -72q-83 -142 -224 -218t-317 -76q-251 0 -392 148.5t-108 385.5q22 152 107.5 279.5t225.5 205.5t304 78q127 0 224.5 -45t154 -122.5t78 -180.5t4.5 -221l-14 -92h-701
zM467 668h328q11 81 -24.5 130.5t-115.5 49.5q-82 0 -129.5 -49t-58.5 -131z" />
    <glyph glyph-name="Eogonek" unicode="&#x118;" horiz-adv-x="1345" 
d="M1319 1149h-688l-37 -246h577l-43 -321h-579l-35 -250h694l-45 -322l49 -2q-112 -34 -161 -69.5t-52 -77.5q-3 -47 41 -47q24 0 48.5 6t39 12t40.5 19l36 18l-24 -186q-127 -31 -228 -31q-117 0 -179.5 51t-49.5 145q7 46 40 82.5t118 69.5h-813l208 1481h1092z" />
    <glyph glyph-name="eogonek" unicode="&#x119;" horiz-adv-x="1210" 
d="M686 1077q127 0 224.5 -45t154 -122.5t78 -180.5t4.5 -221l-14 -92h-701q-14 -91 29 -140t119 -49q63 0 122 32.5t93 86.5l295 -72q-89 -155 -256 -235h30q-207 -62 -213 -148q-3 -47 41 -47q24 0 48.5 6t39 12.5t40 19.5t36.5 18l-25 -187q-123 -30 -227 -30
q-117 0 -179.5 51t-49.5 145q11 65 71 109q-207 30 -317 172.5t-80 353.5q22 152 107.5 279.5t225.5 205.5t304 78zM795 668q11 81 -24.5 130.5t-115.5 49.5q-82 0 -129.5 -49t-58.5 -131h328z" />
    <glyph glyph-name="Ecaron" unicode="&#x11a;" horiz-adv-x="1347" 
d="M995 1907h310l-320 -316h-266l-246 316h244l125 -166zM68 0l208 1481h1092l-49 -332h-688l-37 -246h577l-43 -321h-579l-35 -250h694l-47 -332h-1093z" />
    <glyph glyph-name="ecaron" unicode="&#x11b;" horiz-adv-x="1210" 
d="M864 1483h310l-320 -316h-266l-246 316h244l125 -166zM432 416q-14 -91 29 -140t119 -49q63 0 122 32.5t93 86.5l295 -72q-83 -142 -224 -218t-317 -76q-251 0 -392 148.5t-108 385.5q22 152 107.5 279.5t225.5 205.5t304 78q127 0 224.5 -45t154 -122.5t78 -180.5
t4.5 -221l-14 -92h-701zM467 668h328q11 81 -24.5 130.5t-115.5 49.5q-82 0 -129.5 -49t-58.5 -131z" />
    <glyph glyph-name="Gcircumflex" unicode="&#x11c;" horiz-adv-x="1607" 
d="M1077 1612l-106 170l-172 -170h-283l320 313h266l233 -313h-258zM713 -20q-207 0 -352.5 95.5t-207.5 267t-32 392.5q33 227 149 402t293.5 269.5t388.5 94.5q115 0 210.5 -29t160.5 -77t111 -113.5t69 -136t27 -146.5l-424 -61q-14 113 -62.5 173t-146.5 60
q-58 0 -109.5 -22.5t-98.5 -70.5t-82 -133t-52 -200q-13 -77 -9 -136.5t13 -104t30 -75.5t43 -51t51.5 -31.5t55.5 -16t56 -4.5q162 0 233 139l27 51h-258l39 270l675 -4l-110 -782h-260l22 164q-43 -39 -74 -62.5t-88 -56t-129.5 -49t-158.5 -16.5z" />
    <glyph glyph-name="gcircumflex" unicode="&#x11d;" horiz-adv-x="1290" 
d="M893 1188l-107 170l-172 -170h-282l319 313h267l233 -313h-258zM504 -350q-299 0 -449.5 68.5t-136.5 175.5q10 62 66 99t151 62q30 9 2 23q-121 67 -108 166q10 67 79.5 118.5t190.5 65.5q-102 50 -149.5 138t-34.5 177q15 104 101 180t211.5 113t272.5 37
q104 0 170.5 -19t130.5 -55q5 -3 89 31l278 105l-41 -281l-141 -14q-50 -5 -41 -47q2 -17 -2 -48q-10 -68 -52.5 -132t-112 -115.5t-173.5 -83t-225 -31.5q-86 0 -142 6q-27 -5 -30 -18q-1 -14 21 -21q20 -7 142 -14q159 -9 209 -12q209 -14 303 -101t76 -217
q-23 -158 -193.5 -257t-461.5 -99zM621 590q57 0 98 40t49 101q9 62 -20.5 106t-85.5 44t-98.5 -44t-51.5 -106q-8 -61 22.5 -101t86.5 -40zM596 -141q97 0 134 16.5t40 48.5q6 33 -26.5 54t-94.5 26l-188 12q-75 4 -109.5 -19t-38.5 -56q-7 -49 57.5 -65.5t225.5 -16.5z
" />
    <glyph glyph-name="Gbreve" unicode="&#x11e;" horiz-adv-x="1607" 
d="M1380 1905q-64 -149 -184 -223t-264 -74q-75 0 -133.5 13.5t-110.5 45.5t-85.5 92t-45.5 146h191q32 -56 83.5 -88.5t106.5 -32.5q61 0 118.5 30t92.5 91h231zM713 -20q-207 0 -352.5 95.5t-207.5 267t-32 392.5q33 227 149 402t293.5 269.5t388.5 94.5q115 0 210.5 -29
t160.5 -77t111 -113.5t69 -136t27 -146.5l-424 -61q-14 113 -62.5 173t-146.5 60q-58 0 -109.5 -22.5t-98.5 -70.5t-82 -133t-52 -200q-13 -77 -9 -136.5t13 -104t30 -75.5t43 -51t51.5 -31.5t55.5 -16t56 -4.5q162 0 233 139l27 51h-258l39 270l675 -4l-110 -782h-260
l22 164q-43 -39 -74 -62.5t-88 -56t-129.5 -49t-158.5 -16.5z" />
    <glyph glyph-name="gbreve" unicode="&#x11f;" horiz-adv-x="1290" 
d="M1196 1481q-64 -149 -184 -223t-264 -74q-75 0 -133.5 13.5t-110.5 45.5t-85.5 92t-45.5 146h190q32 -56 84 -88.5t107 -32.5q61 0 118.5 30t92.5 91h231zM504 -350q-299 0 -449.5 68.5t-136.5 175.5q10 62 66 99t151 62q30 9 2 23q-121 67 -108 166q10 67 79.5 118.5
t190.5 65.5q-102 50 -149.5 138t-34.5 177q15 104 101 180t211.5 113t272.5 37q104 0 170.5 -19t130.5 -55q5 -3 89 31l278 105l-41 -281l-141 -14q-50 -5 -41 -47q2 -17 -2 -48q-10 -68 -52.5 -132t-112 -115.5t-173.5 -83t-225 -31.5q-86 0 -142 6q-27 -5 -30 -18
q-1 -14 21 -21q20 -7 142 -14q159 -9 209 -12q209 -14 303 -101t76 -217q-23 -158 -193.5 -257t-461.5 -99zM621 590q57 0 98 40t49 101q9 62 -20.5 106t-85.5 44t-98.5 -44t-51.5 -106q-8 -61 22.5 -101t86.5 -40zM596 -141q97 0 134 16.5t40 48.5q6 33 -26.5 54t-94.5 26
l-188 12q-75 4 -109.5 -19t-38.5 -56q-7 -49 57.5 -65.5t225.5 -16.5z" />
    <glyph glyph-name="Gdotaccent" unicode="&#x120;" horiz-adv-x="1607" 
d="M1180 1905l-47 -336h-400l47 336h400zM713 -20q-207 0 -352.5 95.5t-207.5 267t-32 392.5q33 227 149 402t293.5 269.5t388.5 94.5q115 0 210.5 -29t160.5 -77t111 -113.5t69 -136t27 -146.5l-424 -61q-14 113 -62.5 173t-146.5 60q-58 0 -109.5 -22.5t-98.5 -70.5
t-82 -133t-52 -200q-13 -77 -9 -136.5t13 -104t30 -75.5t43 -51t51.5 -31.5t55.5 -16t56 -4.5q162 0 233 139l27 51h-258l39 270l675 -4l-110 -782h-260l22 164q-43 -39 -74 -62.5t-88 -56t-129.5 -49t-158.5 -16.5z" />
    <glyph glyph-name="gdotaccent" unicode="&#x121;" horiz-adv-x="1290" 
d="M995 1481l-47 -336h-399l47 336h399zM504 -350q-299 0 -449.5 68.5t-136.5 175.5q10 62 66 99t151 62q30 9 2 23q-121 67 -108 166q10 67 79.5 118.5t190.5 65.5q-102 50 -149.5 138t-34.5 177q15 104 101 180t211.5 113t272.5 37q104 0 170.5 -19t130.5 -55q5 -3 89 31
l278 105l-41 -281l-141 -14q-50 -5 -41 -47q2 -17 -2 -48q-10 -68 -52.5 -132t-112 -115.5t-173.5 -83t-225 -31.5q-86 0 -142 6q-27 -5 -30 -18q-1 -14 21 -21q20 -7 142 -14q159 -9 209 -12q209 -14 303 -101t76 -217q-23 -158 -193.5 -257t-461.5 -99zM621 590
q57 0 98 40t49 101q9 62 -20.5 106t-85.5 44t-98.5 -44t-51.5 -106q-8 -61 22.5 -101t86.5 -40zM596 -141q97 0 134 16.5t40 48.5q6 33 -26.5 54t-94.5 26l-188 12q-75 4 -109.5 -19t-38.5 -56q-7 -49 57.5 -65.5t225.5 -16.5z" />
    <glyph glyph-name="uni0122" unicode="&#x122;" horiz-adv-x="1607" 
d="M713 -20q-207 0 -352.5 95.5t-207.5 267t-32 392.5q33 227 149 402t293.5 269.5t388.5 94.5q115 0 210.5 -29t160.5 -77t111 -113.5t69 -136t27 -146.5l-424 -61q-14 113 -62.5 173t-146.5 60q-58 0 -109.5 -22.5t-98.5 -70.5t-82 -133t-52 -200q-13 -77 -9 -136.5
t13 -104t30 -75.5t43 -51t51.5 -31.5t55.5 -16t56 -4.5q162 0 233 139l27 51h-258l39 270l675 -4l-110 -782h-260l22 164q-43 -39 -74 -62.5t-88 -56t-129.5 -49t-158.5 -16.5zM506 -492l164 189h-135l32 205h256l-30 -217l-179 -177h-108z" />
    <glyph glyph-name="uni0123" unicode="&#x123;" horiz-adv-x="1290" 
d="M645 1196l31 217l178 176h109l-162 -188h133l-33 -205h-256zM504 -350q-299 0 -449.5 68.5t-136.5 175.5q10 62 66 99t151 62q30 9 2 23q-121 67 -108 166q10 67 79.5 118.5t190.5 65.5q-102 50 -149.5 138t-34.5 177q15 104 101 180t211.5 113t272.5 37q104 0 170.5 -19
t130.5 -55q5 -3 89 31l278 105l-41 -281l-141 -14q-50 -5 -41 -47q2 -17 -2 -48q-10 -68 -52.5 -132t-112 -115.5t-173.5 -83t-225 -31.5q-86 0 -142 6q-27 -5 -30 -18q-1 -14 21 -21q20 -7 142 -14q159 -9 209 -12q209 -14 303 -101t76 -217q-23 -158 -193.5 -257
t-461.5 -99zM621 590q57 0 98 40t49 101q9 62 -20.5 106t-85.5 44t-98.5 -44t-51.5 -106q-8 -61 22.5 -101t86.5 -40zM596 -141q97 0 134 16.5t40 48.5q6 33 -26.5 54t-94.5 26l-188 12q-75 4 -109.5 -19t-38.5 -56q-7 -49 57.5 -65.5t225.5 -16.5z" />
    <glyph glyph-name="Hcircumflex" unicode="&#x124;" horiz-adv-x="1529" 
d="M1051 1612l-107 170l-172 -170h-283l320 313h266l234 -313h-258zM995 592h-446l-82 -592h-399l208 1481h398l-78 -561h448l78 561h400l-209 -1481h-400z" />
    <glyph glyph-name="hcircumflex" unicode="&#x125;" horiz-adv-x="1251" 
d="M29 0l213 1520h393l-96 -672q78 119 180.5 174t198.5 55q149 0 217.5 -84.5t46.5 -244.5l-105 -748h-399l98 700q6 44 -18.5 70.5t-71.5 26.5q-89 0 -162 -101l-98 -696h-397zM1157 1188l-106 170l-172 -170h-283l319 313h267l233 -313h-258z" />
    <glyph glyph-name="Hbar" unicode="&#x126;" horiz-adv-x="1660" 
d="M1731 1313l-33 -205h-230l-155 -1108h-400l82 592h-446l-82 -592h-399l155 1108h-117l27 205h119l24 168h398l-23 -168h449l22 168h400l-25 -168h234zM1044 920l27 188h-448l-27 -188h448z" />
    <glyph glyph-name="hbar" unicode="&#x127;" horiz-adv-x="1277" 
d="M950 1077q149 0 217.5 -84.5t46.5 -244.5l-104 -748h-399l98 700q6 44 -18.5 70.5t-71.5 26.5q-89 0 -162 -101l-98 -696h-398l162 1157h-88l29 213h90l20 150h394l-21 -150h258l-28 -213h-261l-45 -309q78 119 180.5 174t198.5 55z" />
    <glyph glyph-name="Itilde" unicode="&#x128;" horiz-adv-x="698" 
d="M920 1690q-118 -58 -230 -58q-65 0 -163.5 32t-149.5 32q-28 0 -53.5 -7.5t-40.5 -16t-46.5 -29t-50.5 -31.5l-43 223q58 38 108 58t114 20q74 0 179 -34t142 -34q53 0 125 38t92 42zM281 1481h397l-207 -1481h-399z" />
    <glyph glyph-name="itilde" unicode="&#x129;" horiz-adv-x="612" 
d="M827 1266q-118 -58 -229 -58q-65 0 -163.5 32t-149.5 32q-28 0 -53.5 -7.5t-40.5 -16t-46.5 -29t-50.5 -31.5l-43 223q59 38 108 58t113 20q74 0 179.5 -34t142.5 -34q53 0 125 38t92 42zM571 1057l-149 -1057h-397l147 1057h399z" />
    <glyph glyph-name="Imacron" unicode="&#x12a;" horiz-adv-x="686" 
d="M948 1905l-37 -246h-819l35 246h821zM274 1481h398l-207 -1481h-399z" />
    <glyph glyph-name="imacron" unicode="&#x12b;" horiz-adv-x="598" 
d="M854 1481l-37 -246h-819l35 246h821zM563 1057l-149 -1057h-398l148 1057h399z" />
    <glyph glyph-name="Ibreve" unicode="&#x12c;" horiz-adv-x="698" 
d="M954 1905q-64 -149 -184 -223t-264 -74q-75 0 -133.5 13.5t-110.5 45.5t-85.5 92t-45.5 146h191q32 -56 83.5 -88.5t106.5 -32.5q61 0 118.5 30t92.5 91h231zM295 1481h397l-207 -1481h-399z" />
    <glyph glyph-name="ibreve" unicode="&#x12d;" horiz-adv-x="612" 
d="M862 1481q-64 -149 -184 -223t-264 -74q-75 0 -133.5 13.5t-110.5 45.5t-85.5 92t-45.5 146h190q32 -56 84 -88.5t107 -32.5q61 0 118.5 30t92.5 91h231zM582 1057l-150 -1057h-397l147 1057h400z" />
    <glyph glyph-name="Iogonek" unicode="&#x12e;" horiz-adv-x="681" 
d="M469 -6q-207 -62 -213 -148q-3 -47 41 -47q24 0 48.5 6t39 12.5t40 19.5t36.5 18l-25 -187q-122 -30 -227 -30q-117 0 -179.5 51t-49.5 145q7 50 47 89t149 77h-113l209 1481h398l-207 -1481h-209z" />
    <glyph glyph-name="iogonek" unicode="&#x12f;" horiz-adv-x="595" 
d="M244 1481h399l-47 -336h-399zM164 1057h399l-149 -1051h10q-2 0 -5 -1t-5 -1v-4h-11q-186 -60 -192 -141q-3 -47 41 -47q24 0 48.5 6t39 12t40.5 19l36 18l-25 -186q-127 -31 -227 -31q-117 0 -180 51t-50 145q7 47 40.5 83t123.5 71h-82z" />
    <glyph glyph-name="Idotaccent" unicode="&#x130;" horiz-adv-x="681" 
d="M735 1905l-47 -336h-399l47 336h399zM276 1481h398l-207 -1481h-399z" />
    <glyph glyph-name="dotlessi" unicode="&#x131;" horiz-adv-x="595" 
d="M575 1057l-149 -1057h-397l147 1057h399z" />
    <glyph glyph-name="Jcircumflex" unicode="&#x134;" horiz-adv-x="862" 
d="M752 1612l-107 170l-172 -170h-283l320 313h266l234 -313h-258zM748 469q-19 -130 -49.5 -216t-88 -150.5t-148 -93.5t-222.5 -29q-167 0 -265 20l52 356q70 -8 127 -8q102 0 146 51.5t60 171.5l129 910h400z" />
    <glyph glyph-name="jcircumflex" unicode="&#x135;" horiz-adv-x="653" 
d="M557 1188l-106 170l-172 -170h-283l319 313h267l233 -313h-258zM500 45q-29 -197 -141 -291t-318 -94q-53 0 -89 11t-46 21l-10 11l36 260l76 14q31 6 51.5 18.5t29.5 31.5t12 29t5 28l136 973h401z" />
    <glyph glyph-name="uni0136" unicode="&#x136;" horiz-adv-x="1540" 
d="M1423 0h-430l-241 625l-217 -238l-54 -387h-413l208 1481h412l-84 -598l512 598h449l-488 -568zM467 -492l164 189h-135l32 205h256l-30 -217l-179 -177h-108z" />
    <glyph glyph-name="uni0137" unicode="&#x137;" horiz-adv-x="1224" 
d="M1135 0h-387l-189 389l-90 -90l-43 -299h-397l213 1520h399l-109 -785l345 322h403l-449 -436zM365 -492l163 189h-135l33 205h256l-31 -217l-178 -177h-108z" />
    <glyph glyph-name="kgreenlandic" unicode="&#x138;" horiz-adv-x="1282" 
d="M1192 0h-434l-121 424l-170 -139l-41 -285h-397l147 1057h397l-51 -381l391 381h424l-413 -357z" />
    <glyph glyph-name="Lacute" unicode="&#x139;" horiz-adv-x="1179" 
d="M733 1933l58 -252l-574 -133l-37 170zM272 1481h398l-160 -1153h590l-45 -328h-992z" />
    <glyph glyph-name="lacute" unicode="&#x13a;" horiz-adv-x="694" 
d="M735 2019l58 -252l-574 -133l-37 170zM416 -23q-81 0 -143 11.5t-101.5 28.5t-65.5 46t-38 55.5t-14.5 65t-0.5 66.5t8 69l170 1201h392l-162 -1147q-2 -27 0 -50t27.5 -41.5t74.5 -25.5l41 -4l-35 -242q-86 -33 -153 -33z" />
    <glyph glyph-name="uni013B" unicode="&#x13b;" horiz-adv-x="1183" 
d="M276 1481h398l-160 -1153h590l-45 -328h-991zM358 -492l164 189h-135l33 205h256l-31 -217l-178 -177h-109z" />
    <glyph glyph-name="uni013C" unicode="&#x13c;" horiz-adv-x="706" 
d="M428 -23q-81 0 -143 11.5t-101.5 28.5t-65 46t-37.5 55.5t-15 65.5t-0.5 66.5t8.5 68.5l170 1201h391l-162 -1147q-2 -27 0 -50t27.5 -41.5t74.5 -25.5l41 -4l-34 -242q-86 -33 -154 -33zM16 -492l164 189h-135l33 205h256l-31 -217l-178 -177h-109z" />
    <glyph glyph-name="Lcaron" unicode="&#x13d;" horiz-adv-x="1183" 
d="M276 1481h398l-160 -1153h590l-45 -328h-991zM840 987l127 227l-84 9l37 258h247l-41 -281l-116 -213h-170z" />
    <glyph glyph-name="lcaron" unicode="&#x13e;" horiz-adv-x="948" 
d="M655 1073l127 227l-84 9l37 258h248l-41 -281l-117 -213h-170zM428 -23q-81 0 -143 11.5t-101.5 28.5t-65 46t-37.5 55.5t-15 65.5t-0.5 66.5t8.5 68.5l170 1201h391l-162 -1147q-2 -27 0 -50t27.5 -41.5t74.5 -25.5l41 -4l-34 -242q-86 -33 -154 -33z" />
    <glyph glyph-name="Ldot" unicode="&#x13f;" horiz-adv-x="1202" 
d="M276 1481h398l-160 -1153h590l-45 -328h-991zM1176 1012l-50 -357h-368l49 357h369z" />
    <glyph glyph-name="ldot" unicode="&#x140;" horiz-adv-x="907" 
d="M428 -23q-81 0 -143 11.5t-101.5 28.5t-65 46t-37.5 55.5t-15 65.5t-0.5 66.5t8.5 68.5l170 1201h391l-162 -1147q-2 -27 0 -50t27.5 -41.5t74.5 -25.5l41 -4l-34 -242q-86 -33 -154 -33zM958 748l-49 -357h-368l49 357h368z" />
    <glyph glyph-name="Lslash" unicode="&#x141;" horiz-adv-x="1191" 
d="M522 328h590l-45 -328h-991l82 586l-152 -41l47 336l152 39l80 561h397l-64 -455l365 94l-47 -321l-363 -99z" />
    <glyph glyph-name="lslash" unicode="&#x142;" horiz-adv-x="790" 
d="M637 635l-37 -262q-2 -27 0 -50t27.5 -41.5t74.5 -25.5l41 -4l-34 -242q-86 -33 -154 -33q-81 0 -143 11.5t-101.5 28.5t-65 46t-37.5 55.5t-15 65.5t-0.5 66.5t8.5 68.5l8 60l-166 -98l49 352l166 96l113 791h391l-78 -545l113 63l-47 -336z" />
    <glyph glyph-name="Nacute" unicode="&#x143;" horiz-adv-x="1660" 
d="M1247 1933l58 -252l-574 -133l-37 170zM1253 1481h400l-207 -1481h-363l-491 883l-125 -883h-399l208 1481h400l463 -826z" />
    <glyph glyph-name="nacute" unicode="&#x144;" horiz-adv-x="1249" 
d="M1001 1509l58 -252l-574 -133l-36 170zM29 0l147 1057h395l-28 -205q73 110 169.5 167.5t205.5 57.5q141 0 214.5 -87.5t53.5 -235.5l-107 -754h-399l98 700q6 42 -28 69.5t-82 27.5t-93 -27.5t-51 -69.5l-98 -700h-397z" />
    <glyph glyph-name="uni0145" unicode="&#x145;" horiz-adv-x="1660" 
d="M1253 1481h400l-207 -1481h-363l-491 883l-125 -883h-399l208 1481h400l463 -826zM555 -492l164 189h-135l32 205h256l-30 -217l-178 -177h-109z" />
    <glyph glyph-name="uni0146" unicode="&#x146;" horiz-adv-x="1249" 
d="M29 0l147 1057h395l-28 -205q73 110 169.5 167.5t205.5 57.5q141 0 214.5 -87.5t53.5 -235.5l-107 -754h-399l98 700q6 42 -28 69.5t-82 27.5t-93 -27.5t-51 -69.5l-98 -700h-397zM371 -492l164 189h-136l33 205h256l-31 -217l-178 -177h-108z" />
    <glyph glyph-name="Ncaron" unicode="&#x147;" horiz-adv-x="1660" 
d="M1141 1907h309l-320 -316h-266l-246 316h244l125 -166zM1253 1481h400l-207 -1481h-363l-491 883l-125 -883h-399l208 1481h400l463 -826z" />
    <glyph glyph-name="ncaron" unicode="&#x148;" horiz-adv-x="1249" 
d="M895 1483h309l-319 -316h-267l-245 316h243l125 -166zM29 0l147 1057h395l-28 -205q73 110 169.5 167.5t205.5 57.5q141 0 214.5 -87.5t53.5 -235.5l-107 -754h-399l98 700q6 42 -28 69.5t-82 27.5t-93 -27.5t-51 -69.5l-98 -700h-397z" />
    <glyph glyph-name="Eng" unicode="&#x14a;" horiz-adv-x="1597" 
d="M1589 1481l-196 -1399q-33 -234 -157 -333t-353 -99q-179 0 -340 47l71 305q38 -8 117.5 -18.5t108.5 -10.5q75 0 106 34t47 118l4 20l-444 670l-113 -815h-372l213 1481h389l463 -674l92 674h364z" />
    <glyph glyph-name="eng" unicode="&#x14b;" horiz-adv-x="1267" 
d="M905 1077q146 0 224.5 -93.5t58.5 -242.5l-98 -696q-19 -127 -86 -215.5t-161.5 -129t-209.5 -40.5q-44 0 -76.5 10t-42.5 20l-10 9l37 262l86 23q58 20 69 96l84 602q8 60 -16.5 89.5t-52.5 29.5q-18 0 -37 -6t-31 -11.5t-31.5 -22l-26 -22t-28.5 -28t-25 -25.5
l-100 -686h-403l157 1057h389l-20 -137q174 157 350 157z" />
    <glyph glyph-name="Omacron" unicode="&#x14c;" horiz-adv-x="1615" 
d="M1405 1905l-37 -246h-819l35 246h821zM731 -20q-330 0 -495 205t-115 552q31 229 144 402.5t289 267.5t390 94q323 0 490 -209t118 -555q-50 -346 -273 -551.5t-548 -205.5zM776 299q132 0 221.5 102.5t120.5 329.5q32 235 -27 343t-190 108q-132 0 -224 -108.5
t-126 -342.5q-58 -432 225 -432z" />
    <glyph glyph-name="omacron" unicode="&#x14d;" horiz-adv-x="1216" 
d="M1159 1481l-37 -246h-819l35 246h821zM528 -20q-245 0 -378 152t-99 390q35 247 215 401t420 154q164 0 281.5 -71.5t168.5 -197.5t29 -286q-34 -237 -212 -389.5t-425 -152.5zM567 227q45 0 82.5 31.5t61 82t38 99.5t21.5 97q9 43 6 95t-12 97t-38.5 75t-74.5 30
q-46 0 -83 -29.5t-60 -77t-36.5 -94.5t-20.5 -96q-9 -42 -7 -96t10.5 -101.5t37.5 -80t75 -32.5z" />
    <glyph glyph-name="Obreve" unicode="&#x14e;" horiz-adv-x="1615" 
d="M1395 1905q-64 -149 -184.5 -223t-264.5 -74q-75 0 -133.5 13.5t-110.5 45.5t-85.5 92t-45.5 146h191q32 -56 83.5 -88.5t106.5 -32.5q61 0 118.5 30t92.5 91h232zM731 -20q-330 0 -495 205t-115 552q31 229 144 402.5t289 267.5t390 94q323 0 490 -209t118 -555
q-50 -346 -273 -551.5t-548 -205.5zM776 299q132 0 221.5 102.5t120.5 329.5q32 235 -27 343t-190 108q-132 0 -224 -108.5t-126 -342.5q-58 -432 225 -432z" />
    <glyph glyph-name="obreve" unicode="&#x14f;" horiz-adv-x="1216" 
d="M1149 1481q-64 -149 -184.5 -223t-264.5 -74q-75 0 -133.5 13.5t-110 45.5t-85 92t-45.5 146h190q32 -56 84 -88.5t107 -32.5q61 0 118.5 30t92.5 91h231zM528 -20q-245 0 -378 152t-99 390q35 247 215 401t420 154q164 0 281.5 -71.5t168.5 -197.5t29 -286
q-34 -237 -212 -389.5t-425 -152.5zM567 227q45 0 82.5 31.5t61 82t38 99.5t21.5 97q9 43 6 95t-12 97t-38.5 75t-74.5 30q-46 0 -83 -29.5t-60 -77t-36.5 -94.5t-20.5 -96q-9 -42 -7 -96t10.5 -101.5t37.5 -80t75 -32.5z" />
    <glyph glyph-name="Ohungarumlaut" unicode="&#x150;" horiz-adv-x="1615" 
d="M854 1935l145 -206l-391 -201l-112 137zM1290 1935l146 -206l-392 -201l-110 137zM731 -20q-330 0 -495 205t-115 552q31 229 144 402.5t289 267.5t390 94q323 0 490 -209t118 -555q-50 -346 -273 -551.5t-548 -205.5zM776 299q132 0 221.5 102.5t120.5 329.5
q32 235 -27 343t-190 108q-132 0 -224 -108.5t-126 -342.5q-58 -432 225 -432z" />
    <glyph glyph-name="ohungarumlaut" unicode="&#x151;" horiz-adv-x="1216" 
d="M608 1511l146 -206l-392 -201l-112 137zM1044 1511l146 -206l-391 -201l-111 137zM528 -20q-245 0 -378 152t-99 390q35 247 215 401t420 154q164 0 281.5 -71.5t168.5 -197.5t29 -286q-34 -237 -212 -389.5t-425 -152.5zM567 227q45 0 82.5 31.5t61 82t38 99.5t21.5 97
q9 43 6 95t-12 97t-38.5 75t-74.5 30q-46 0 -83 -29.5t-60 -77t-36.5 -94.5t-20.5 -96q-9 -42 -7 -96t10.5 -101.5t37.5 -80t75 -32.5z" />
    <glyph glyph-name="OE" unicode="&#x152;" horiz-adv-x="2330" 
d="M2189 328l-43 -328h-995l-100 -2q-100 -18 -279 -18q-233 0 -391 96t-223.5 271.5t-32.5 410.5q48 343 275 543t579 200q155 0 262 -22l82 2h1012l-47 -328h-699l-33 -250h439l-49 -321h-435l-36 -254h714zM762 291q135 0 210 108t109 353q34 239 -2.5 340.5
t-156.5 101.5q-137 0 -215 -115t-113 -370q-34 -232 3.5 -325t164.5 -93z" />
    <glyph glyph-name="oe" unicode="&#x153;" horiz-adv-x="1918" 
d="M545 -20q-251 0 -388.5 159t-103.5 406q35 239 209 385.5t408 146.5q201 0 321 -110q17 -4 29.5 3t28.5 25q155 82 317 82q119 0 215.5 -42.5t160 -121t89 -196t6.5 -260.5h-686q-11 -108 34 -160.5t126 -52.5q58 0 113.5 28.5t127.5 98.5l267 -115
q-137 -161 -262 -218.5t-306 -57.5q-201 0 -325 114q-20 0 -39 -33q-165 -81 -342 -81zM1382 844q-72 0 -129 -51.5t-67 -139.5l295 11q2 35 -4 73.5t-30.5 72.5t-64.5 34zM551 236q172 0 215 317q22 149 -1.5 212.5t-98.5 63.5q-85 0 -137.5 -78t-75.5 -243
q-20 -148 2.5 -210t95.5 -62z" />
    <glyph glyph-name="Racute" unicode="&#x154;" horiz-adv-x="1466" 
d="M1137 1933l57 -252l-573 -133l-37 170zM1296 0h-405l-143 508h-209l-72 -508h-399l208 1481h670q140 0 240 -36.5t152.5 -102t70.5 -150t4 -188.5q-16 -109 -59 -194t-99.5 -138.5t-136.5 -98.5zM807 807q73 0 133.5 58t71.5 132q10 77 -36.5 133t-115.5 56h-227
l-53 -379h227z" />
    <glyph glyph-name="racute" unicode="&#x155;" horiz-adv-x="862" 
d="M858 1509l57 -252l-573 -133l-37 170zM29 0l147 1057h385l-41 -291q61 139 162 225t240 86l-52 -372q-74 5 -129 4t-95.5 -16.5t-67 -33t-44 -45t-26 -52.5t-12.5 -56l-70 -506h-397z" />
    <glyph glyph-name="uni0156" unicode="&#x156;" horiz-adv-x="1466" 
d="M1296 0h-405l-143 508h-209l-72 -508h-399l208 1481h670q140 0 240 -36.5t152.5 -102t70.5 -150t4 -188.5q-16 -109 -59 -194t-99.5 -138.5t-136.5 -98.5zM807 807q73 0 133.5 58t71.5 132q10 77 -36.5 133t-115.5 56h-227l-53 -379h227zM467 -492l164 189h-135l32 205
h256l-30 -217l-179 -177h-108z" />
    <glyph glyph-name="uni0157" unicode="&#x157;" horiz-adv-x="862" 
d="M29 0l147 1057h385l-41 -291q61 139 162 225t240 86l-52 -372q-74 5 -129 4t-95.5 -16.5t-67 -33t-44 -45t-26 -52.5t-12.5 -56l-70 -506h-397zM70 -492l163 189h-135l33 205h256l-31 -217l-178 -177h-108z" />
    <glyph glyph-name="Rcaron" unicode="&#x158;" horiz-adv-x="1466" 
d="M1030 1907h309l-319 -316h-266l-246 316h244l125 -166zM1296 0h-405l-143 508h-209l-72 -508h-399l208 1481h670q140 0 240 -36.5t152.5 -102t70.5 -150t4 -188.5q-16 -109 -59 -194t-99.5 -138.5t-136.5 -98.5zM807 807q73 0 133.5 58t71.5 132q10 77 -36.5 133
t-115.5 56h-227l-53 -379h227z" />
    <glyph glyph-name="rcaron" unicode="&#x159;" horiz-adv-x="866" 
d="M721 1483h309l-319 -316h-267l-245 316h243l125 -166zM-2 0l147 1057h385l-41 -291q61 139 162 225t240 86l-51 -372q-74 5 -129 4t-96 -16.5t-67.5 -33t-44 -45t-26 -52.5t-12.5 -56l-70 -506h-397z" />
    <glyph glyph-name="Sacute" unicode="&#x15a;" horiz-adv-x="1476" 
d="M1176 1933l57 -252l-574 -133l-36 170zM678 -20q-226 0 -401.5 84.5t-229.5 220.5l299 188q41 -60 80 -93.5t103.5 -53t160.5 -19.5q243 0 258 105q6 38 -10.5 65t-77.5 43l-317 84q-170 46 -261.5 158t-68.5 266q13 97 68.5 183t142.5 150.5t209 102t260 37.5
q195 0 345 -69t202 -197l-299 -186q-25 34 -33.5 45t-35.5 36t-50 34.5t-64 18.5t-92 9q-104 0 -158 -30t-61 -72q-4 -13 -1.5 -30t9.5 -32t34 -31t71 -28l319 -86q349 -97 307 -416q-32 -222 -223.5 -354.5t-484.5 -132.5z" />
    <glyph glyph-name="sacute" unicode="&#x15b;" horiz-adv-x="1144" 
d="M928 1509l57 -252l-573 -133l-37 170zM502 -20q-192 0 -318.5 74t-165.5 188l258 120q32 -44 103 -81t162 -37q55 0 104 13t53 40q3 20 -17.5 35t-46 22t-63.5 13l-153 28q-154 27 -231.5 105.5t-59.5 210.5q21 163 167 264.5t374 101.5q180 0 286 -67t144 -170
l-258 -115q-24 42 -80.5 68t-134.5 26q-61 0 -109 -14.5t-51 -42.5q-1 -6 0.5 -11t5.5 -9.5t9 -8t14 -7t17.5 -6.5t22 -6.5t25 -6t30 -7t32.5 -8.5l161 -35q311 -78 277 -317q-24 -169 -176.5 -264.5t-380.5 -95.5z" />
    <glyph glyph-name="Scircumflex" unicode="&#x15c;" horiz-adv-x="1476" 
d="M1053 1612l-107 170l-172 -170h-282l319 313h266l234 -313h-258zM678 -20q-226 0 -401.5 84.5t-229.5 220.5l299 188q41 -60 80 -93.5t103.5 -53t160.5 -19.5q243 0 258 105q6 38 -10.5 65t-77.5 43l-317 84q-170 46 -261.5 158t-68.5 266q13 97 68.5 183t142.5 150.5
t209 102t260 37.5q195 0 345 -69t202 -197l-299 -186q-25 34 -33.5 45t-35.5 36t-50 34.5t-64 18.5t-92 9q-104 0 -158 -30t-61 -72q-4 -13 -1.5 -30t9.5 -32t34 -31t71 -28l319 -86q349 -97 307 -416q-32 -222 -223.5 -354.5t-484.5 -132.5z" />
    <glyph glyph-name="scircumflex" unicode="&#x15d;" horiz-adv-x="1144" 
d="M821 1188l-106 170l-172 -170h-283l320 313h266l233 -313h-258zM502 -20q-192 0 -318.5 74t-165.5 188l258 120q32 -44 103 -81t162 -37q55 0 104 13t53 40q3 20 -17.5 35t-46 22t-63.5 13l-153 28q-154 27 -231.5 105.5t-59.5 210.5q21 163 167 264.5t374 101.5
q180 0 286 -67t144 -170l-258 -115q-24 42 -80.5 68t-134.5 26q-61 0 -109 -14.5t-51 -42.5q-1 -6 0.5 -11t5.5 -9.5t9 -8t14 -7t17.5 -6.5t22 -6.5t25 -6t30 -7t32.5 -8.5l161 -35q311 -78 277 -317q-24 -169 -176.5 -264.5t-380.5 -95.5z" />
    <glyph glyph-name="Scedilla" unicode="&#x15e;" horiz-adv-x="1476" 
d="M1079 883q349 -97 307 -416q-29 -203 -194 -333t-422 -150l-41 -90q110 0 157.5 -57.5t37.5 -131.5q-10 -71 -88.5 -112.5t-182.5 -41.5q-185 0 -276 84l47 82q115 -39 166 -39q47 0 80.5 22t38.5 54q5 30 -29.5 43t-128.5 13q-23 0 -32.5 8.5t-2.5 25.5l84 138
q-201 15 -352.5 97t-200.5 206l299 188q41 -60 80 -93.5t103.5 -53t160.5 -19.5q243 0 258 105q6 38 -10.5 65t-77.5 43l-317 84q-170 46 -261.5 158t-68.5 266q13 97 68.5 183t142.5 150.5t209 102t260 37.5q195 0 345 -69t202 -197l-299 -186q-25 34 -33.5 45t-35.5 36
t-50 34.5t-64 18.5t-92 9q-104 0 -158 -30t-61 -72q-4 -13 -1.5 -30t9.5 -32t34 -31t71 -28z" />
    <glyph glyph-name="scedilla" unicode="&#x15f;" horiz-adv-x="1144" 
d="M782 657q311 -78 277 -317q-21 -152 -146.5 -244.5t-320.5 -111.5l-51 -111q110 0 157 -57t37 -131q-10 -71 -88 -112.5t-182 -41.5q-186 0 -277 84l48 82q115 -39 165 -39q47 0 80.5 22t38.5 54q5 30 -29 42.5t-129 12.5q-22 0 -31.5 9t-2.5 26l96 160q-160 14 -265 85
t-141 173l258 120q32 -44 103 -81t162 -37q55 0 104 13t53 40q3 20 -17.5 35t-46 22t-63.5 13l-153 28q-154 27 -231.5 105.5t-59.5 210.5q21 163 167 264.5t374 101.5q180 0 286 -67t144 -170l-258 -115q-24 42 -80.5 68t-134.5 26q-61 0 -109 -14.5t-51 -42.5
q-1 -6 0.5 -11t5.5 -9.5t9 -8t14 -7t17.5 -6.5t22 -6.5t25 -6t30 -7t32.5 -8.5z" />
    <glyph glyph-name="Scaron" unicode="&#x160;" horiz-adv-x="1476" 
d="M1069 1907h309l-319 -316h-266l-246 316h244l124 -166zM678 -20q-226 0 -401.5 84.5t-229.5 220.5l299 188q41 -60 80 -93.5t103.5 -53t160.5 -19.5q243 0 258 105q6 38 -10.5 65t-77.5 43l-317 84q-170 46 -261.5 158t-68.5 266q13 97 68.5 183t142.5 150.5t209 102
t260 37.5q195 0 345 -69t202 -197l-299 -186q-25 34 -33.5 45t-35.5 36t-50 34.5t-64 18.5t-92 9q-104 0 -158 -30t-61 -72q-4 -13 -1.5 -30t9.5 -32t34 -31t71 -28l319 -86q349 -97 307 -416q-32 -222 -223.5 -354.5t-484.5 -132.5z" />
    <glyph glyph-name="scaron" unicode="&#x161;" horiz-adv-x="1144" 
d="M821 1483h309l-319 -316h-266l-246 316h244l125 -166zM502 -20q-192 0 -318.5 74t-165.5 188l258 120q32 -44 103 -81t162 -37q55 0 104 13t53 40q3 20 -17.5 35t-46 22t-63.5 13l-153 28q-154 27 -231.5 105.5t-59.5 210.5q21 163 167 264.5t374 101.5q180 0 286 -67
t144 -170l-258 -115q-24 42 -80.5 68t-134.5 26q-61 0 -109 -14.5t-51 -42.5q-1 -6 0.5 -11t5.5 -9.5t9 -8t14 -7t17.5 -6.5t22 -6.5t25 -6t30 -7t32.5 -8.5l161 -35q311 -78 277 -317q-24 -169 -176.5 -264.5t-380.5 -95.5z" />
    <glyph glyph-name="uni0162" unicode="&#x162;" horiz-adv-x="1308" 
d="M166 1481h1243l-49 -353h-424l-158 -1128h-88l-49 -106q110 0 157.5 -57.5t37.5 -131.5q-10 -71 -88.5 -112.5t-182.5 -41.5q-185 0 -276 84l47 82q115 -39 166 -39q47 0 80.5 22t38.5 54q5 30 -29.5 43t-128.5 13q-23 0 -32.5 8.5t-2.5 25.5l94 156h-143l158 1128h-420z
" />
    <glyph glyph-name="uni0163" unicode="&#x163;" horiz-adv-x="907" 
d="M637 788l-64 -479q-6 -33 8 -45t44 -12h168l-33 -236q-71 -32 -215 -32h-4l-41 -90q110 0 157 -57t37 -132q-10 -71 -88 -112.5t-182 -41.5q-186 0 -277 84l48 82q115 -39 165 -39q47 0 80.5 22t38.5 54q5 30 -29 43t-128 13q-23 0 -32.5 8.5t-2.5 25.5l92 154
q-69 14 -115.5 42.5t-67.5 66.5t-28.5 85t2.5 99l70 497h-174l38 269h187l106 329h324l-47 -327h231l-37 -271h-231z" />
    <glyph glyph-name="Tcaron" unicode="&#x164;" horiz-adv-x="1308" 
d="M983 1907h309l-319 -316h-266l-246 316h244l124 -166zM117 1128l49 353h1243l-49 -353h-424l-158 -1128h-399l158 1128h-420z" />
    <glyph glyph-name="tcaron" unicode="&#x165;" horiz-adv-x="907" 
d="M727 1133l127 227l-84 8l37 258h248l-41 -280l-117 -213h-170zM868 788h-231l-64 -479q-6 -33 8 -45t44 -12h168l-33 -236q-71 -32 -215 -32q-98 0 -170 15.5t-113.5 43t-66.5 66t-28 84.5t3 98l70 497h-174l38 269h187l106 329h324l-47 -327h231z" />
    <glyph glyph-name="Tbar" unicode="&#x166;" horiz-adv-x="1308" 
d="M1360 1128h-424l-41 -286h289l-41 -281h-287l-78 -561h-399l78 561h-185l37 281h187l41 286h-420l49 353h1243z" />
    <glyph glyph-name="tbar" unicode="&#x167;" horiz-adv-x="1013" 
d="M938 788h-231l-15 -114h217l-28 -213h-217l-21 -152q-6 -33 8 -45t43 -12h168l-33 -236q-71 -32 -215 -32q-121 0 -202 23t-120 66.5t-50.5 96t-1.5 121.5l24 170h-125l29 213h125l16 114h-174l39 269h186l107 329h324l-48 -327h232z" />
    <glyph glyph-name="Utilde" unicode="&#x168;" horiz-adv-x="1531" 
d="M1315 1690q-118 -58 -230 -58q-65 0 -163.5 32t-149.5 32q-28 0 -53.5 -7.5t-40 -16t-45.5 -28.5t-51 -32l-43 223q59 38 108 58t113 20q74 0 179 -34t142 -34q53 0 125 38t92 42zM1432 612q-21 -147 -71 -259t-135 -197.5t-217 -130.5t-307 -45q-117 0 -209.5 20.5
t-156 59.5t-107 94.5t-63 126t-23.5 154t11 177.5l122 869h402l-123 -887q-11 -73 0 -129t40 -88t68 -48t87 -16q102 0 178 69t98 212l123 887h403z" />
    <glyph glyph-name="utilde" unicode="&#x169;" horiz-adv-x="1245" 
d="M1135 1266q-118 -58 -230 -58q-65 0 -163.5 32t-149.5 32q-28 0 -53.5 -7.5t-40.5 -16t-46.5 -29t-50.5 -31.5l-43 223q58 38 108 58t114 20q74 0 179 -34t142 -34q53 0 125 38t92 42zM381 -20q-65 0 -125 22.5t-105 63.5t-67 105.5t-12 141.5l104 744h399l-100 -707
q-6 -49 23 -79.5t88 -30.5q58 0 94.5 30.5t42.5 79.5l100 707h402l-156 -1057h-293l-26 180q-66 -97 -173.5 -148.5t-195.5 -51.5z" />
    <glyph glyph-name="Umacron" unicode="&#x16a;" horiz-adv-x="1531" 
d="M1350 1905l-37 -246h-819l34 246h822zM1432 612q-21 -147 -71 -259t-135 -197.5t-217 -130.5t-307 -45q-117 0 -209.5 20.5t-156 59.5t-107 94.5t-63 126t-23.5 154t11 177.5l122 869h402l-123 -887q-11 -73 0 -129t40 -88t68 -48t87 -16q102 0 178 69t98 212l123 887
h403z" />
    <glyph glyph-name="umacron" unicode="&#x16b;" horiz-adv-x="1245" 
d="M1171 1481l-36 -246h-820l35 246h821zM381 -20q-65 0 -125 22.5t-105 63.5t-67 105.5t-12 141.5l104 744h399l-100 -707q-6 -49 23 -79.5t88 -30.5q58 0 94.5 30.5t42.5 79.5l100 707h402l-156 -1057h-293l-26 180q-66 -97 -173.5 -148.5t-195.5 -51.5z" />
    <glyph glyph-name="Ubreve" unicode="&#x16c;" horiz-adv-x="1531" 
d="M1343 1905q-64 -149 -184 -223t-264 -74q-75 0 -133.5 13.5t-110.5 45.5t-85.5 92t-45.5 146h191q32 -56 83.5 -88.5t106.5 -32.5q61 0 118.5 30t92.5 91h231zM1432 612q-21 -147 -71 -259t-135 -197.5t-217 -130.5t-307 -45q-117 0 -209.5 20.5t-156 59.5t-107 94.5
t-63 126t-23.5 154t11 177.5l122 869h402l-123 -887q-11 -73 0 -129t40 -88t68 -48t87 -16q102 0 178 69t98 212l123 887h403z" />
    <glyph glyph-name="ubreve" unicode="&#x16d;" horiz-adv-x="1245" 
d="M1161 1481q-64 -149 -184 -223t-264 -74q-75 0 -133.5 13.5t-110.5 45.5t-85.5 92t-45.5 146h190q32 -56 84 -88.5t107 -32.5q61 0 118.5 30t92.5 91h231zM381 -20q-65 0 -125 22.5t-105 63.5t-67 105.5t-12 141.5l104 744h399l-100 -707q-6 -49 23 -79.5t88 -30.5
q58 0 94.5 30.5t42.5 79.5l100 707h402l-156 -1057h-293l-26 180q-66 -97 -173.5 -148.5t-195.5 -51.5z" />
    <glyph glyph-name="Uring" unicode="&#x16e;" horiz-adv-x="1531" 
d="M1153 1778q-13 -92 -84 -151.5t-164 -59.5q-103 0 -165.5 75.5t-47.5 182.5q12 87 83.5 146t162.5 59q102 0 165.5 -74.5t49.5 -177.5zM1020 1819q4 33 -15.5 52t-54.5 19q-45 0 -85.5 -34t-47.5 -80q-2 -32 19 -54t55 -22q45 0 83 36t46 83zM1432 612q-21 -147 -71 -259
t-135 -197.5t-217 -130.5t-307 -45q-117 0 -209.5 20.5t-156 59.5t-107 94.5t-63 126t-23.5 154t11 177.5l122 869h402l-123 -887q-11 -73 0 -129t40 -88t68 -48t87 -16q102 0 178 69t98 212l123 887h403z" />
    <glyph glyph-name="uring" unicode="&#x16f;" horiz-adv-x="1245" 
d="M975 1354q-13 -92 -84 -151.5t-164 -59.5q-103 0 -165.5 75.5t-47.5 182.5q12 87 83.5 146t162.5 59q102 0 165.5 -74.5t49.5 -177.5zM842 1395q4 33 -15.5 52t-54.5 19q-45 0 -85.5 -34t-47.5 -80q-2 -32 19 -54t55 -22q45 0 83 36t46 83zM381 -20q-65 0 -125 22.5
t-105 63.5t-67 105.5t-12 141.5l104 744h399l-100 -707q-6 -49 23 -79.5t88 -30.5q58 0 94.5 30.5t42.5 79.5l100 707h402l-156 -1057h-293l-26 180q-66 -97 -173.5 -148.5t-195.5 -51.5z" />
    <glyph glyph-name="Uhungarumlaut" unicode="&#x170;" horiz-adv-x="1531" 
d="M799 1935l145 -206l-391 -201l-113 137zM1235 1935l145 -206l-391 -201l-110 137zM1432 612q-21 -147 -71 -259t-135 -197.5t-217 -130.5t-307 -45q-117 0 -209.5 20.5t-156 59.5t-107 94.5t-63 126t-23.5 154t11 177.5l122 869h402l-123 -887q-11 -73 0 -129t40 -88
t68 -48t87 -16q102 0 178 69t98 212l123 887h403z" />
    <glyph glyph-name="uhungarumlaut" unicode="&#x171;" horiz-adv-x="1245" 
d="M618 1511l146 -206l-391 -201l-113 137zM1055 1511l145 -206l-391 -201l-111 137zM381 -20q-65 0 -125 22.5t-105 63.5t-67 105.5t-12 141.5l104 744h399l-100 -707q-6 -49 23 -79.5t88 -30.5q58 0 94.5 30.5t42.5 79.5l100 707h402l-156 -1057h-293l-26 180
q-66 -97 -173.5 -148.5t-195.5 -51.5z" />
    <glyph glyph-name="Uogonek" unicode="&#x172;" horiz-adv-x="1531" 
d="M1149 1481h403l-120 -869q-19 -130 -59.5 -232t-109 -185t-172 -135t-239.5 -70q-74 -30 -107 -60t-36 -65q-3 -47 41 -47q24 0 48 6t38.5 12.5t40 19t36.5 17.5l-24 -186q-127 -31 -227 -31q-117 0 -180 51.5t-50 145.5q5 40 31.5 73t91.5 64q-105 14 -183 51
t-125.5 92.5t-74 129t-29 161t10.5 188.5l122 869h402l-123 -887q-11 -73 0 -129t40 -88t68 -48t87 -16q102 0 178 69t98 212z" />
    <glyph glyph-name="uogonek" unicode="&#x173;" horiz-adv-x="1247" 
d="M1042 0q-180 -60 -186 -139q-3 -47 41 -47q24 0 48.5 6t39 12t40.5 19l36 18l-25 -186q-127 -31 -227 -31q-117 0 -179.5 51t-49.5 145q7 50 46.5 89t147.5 77l-24 166q-66 -97 -173.5 -148.5t-195.5 -51.5q-65 0 -125 22.5t-105 63.5t-67 105.5t-12 141.5l104 744h399
l-100 -707q-6 -49 23 -79.5t88 -30.5q58 0 94.5 30.5t42.5 79.5l100 707h402l-156 -1057h-27z" />
    <glyph glyph-name="Wcircumflex" unicode="&#x174;" horiz-adv-x="2015" 
d="M1296 1612l-106 170l-172 -170h-283l320 313h266l233 -313h-258zM2116 1481l-652 -1481h-297l-120 805l-349 -805h-292l-240 1481h385l119 -795l331 795h279l117 -795l334 795h385z" />
    <glyph glyph-name="wcircumflex" unicode="&#x175;" horiz-adv-x="1644" 
d="M1051 1188l-107 170l-172 -170h-283l320 313h266l234 -313h-258zM1712 1057l-520 -1057h-285l-86 512l-239 -512h-291l-211 1057h366l95 -512l227 512h274l80 -514l236 514h354z" />
    <glyph glyph-name="Ycircumflex" unicode="&#x176;" horiz-adv-x="1470" 
d="M1075 1612l-106 170l-172 -170h-283l320 313h266l233 -313h-258zM1591 1481l-647 -865l-86 -616h-399l86 616l-402 865h430l220 -527l364 527h434z" />
    <glyph glyph-name="ycircumflex" unicode="&#x177;" horiz-adv-x="1202" 
d="M881 1188l-107 170l-172 -170h-283l320 313h266l234 -313h-258zM199 -338q-73 0 -129.5 11t-76.5 23l-20 11l37 254l103 -8q30 -4 56 -1.5t45.5 3.5t37 7.5t29.5 11t22.5 13t16.5 13.5t11.5 13.5t7.5 12t5 9.5l2 6l4 20l-270 996h391l121 -574l289 574h389l-553 -996
q-67 -122 -131.5 -202.5t-129 -122.5t-123.5 -58t-134 -16z" />
    <glyph glyph-name="Ydieresis" unicode="&#x178;" horiz-adv-x="1470" 
d="M911 1905l-43 -285h-340l41 285h342zM1391 1905l-43 -285h-340l41 285h342zM1591 1481l-647 -865l-86 -616h-399l86 616l-402 865h430l220 -527l364 527h434z" />
    <glyph glyph-name="Zacute" unicode="&#x179;" horiz-adv-x="1445" 
d="M1194 1933l57 -252l-573 -133l-37 170zM18 0l27 182l834 969h-633l45 330h1206l-24 -176l-850 -973h700l-45 -332h-1260z" />
    <glyph glyph-name="zacute" unicode="&#x17a;" horiz-adv-x="1124" 
d="M928 1509l57 -252l-573 -133l-37 170zM-18 0l26 188l582 627h-451l35 242h954l-26 -180l-586 -629h500l-33 -248h-1001z" />
    <glyph glyph-name="Zdotaccent" unicode="&#x17b;" horiz-adv-x="1445" 
d="M1174 1905l-48 -336h-399l47 336h400zM18 0l27 182l834 969h-633l45 330h1206l-24 -176l-850 -973h700l-45 -332h-1260z" />
    <glyph glyph-name="zdotaccent" unicode="&#x17c;" horiz-adv-x="1124" 
d="M907 1481l-47 -336h-399l47 336h399zM-18 0l26 188l582 627h-451l35 242h954l-26 -180l-586 -629h500l-33 -248h-1001z" />
    <glyph glyph-name="Zcaron" unicode="&#x17d;" horiz-adv-x="1445" 
d="M1087 1907h310l-320 -316h-266l-246 316h244l125 -166zM18 0l27 182l834 969h-633l45 330h1206l-24 -176l-850 -973h700l-45 -332h-1260z" />
    <glyph glyph-name="zcaron" unicode="&#x17e;" horiz-adv-x="1124" 
d="M821 1483h309l-319 -316h-266l-246 316h244l125 -166zM-18 0l26 188l582 627h-451l35 242h954l-26 -180l-586 -629h500l-33 -248h-1001z" />
    <glyph glyph-name="uni018F" unicode="&#x18f;" horiz-adv-x="1613" 
d="M1085 848q36 305 -172 305q-96 0 -170 -56t-163 -184l-355 185q247 403 701 403q222 0 375 -98t216.5 -270.5t32.5 -395.5q-30 -212 -152.5 -387t-298 -272.5t-362.5 -97.5q-349 0 -502 226t-98 642h948zM1044 580l-460 -13q-13 -119 29.5 -197.5t131.5 -78.5
q122 0 191 71.5t108 217.5z" />
    <glyph glyph-name="florin" unicode="&#x192;" horiz-adv-x="1187" 
d="M1143 1057l-84 -269h-191l-274 -862q-41 -129 -145 -199.5t-250 -70.5h-305l77 260h119q52 0 82 30t53 105l234 737h-172l86 269h174l45 151q43 130 147.5 201.5t249.5 71.5h299l-82 -260h-119q-34 0 -75 -35t-54 -76l-18 -53h203z" />
    <glyph glyph-name="Ohorn" unicode="&#x1a0;" horiz-adv-x="1513" 
d="M1337 1384q132 -96 188.5 -263t26.5 -384q-50 -346 -273 -551.5t-548 -205.5q-330 0 -495 205t-115 552q31 229 144 402.5t289 267.5t390 94q89 0 158 -14q127 11 182 119h234q-63 -146 -181 -222zM1118 731q32 235 -27 343t-190 108q-132 0 -224 -108.5t-126 -342.5
q-58 -432 225 -432q132 0 221.5 102.5t120.5 329.5z" />
    <glyph glyph-name="ohorn" unicode="&#x1a1;" horiz-adv-x="1183" 
d="M1036 954q80 -76 114 -187t15 -245q-34 -237 -212 -389.5t-425 -152.5q-245 0 -378 152t-99 390q35 247 215 401t420 154q84 0 158 -18q83 28 125 106h233q-56 -135 -166 -211zM770 537q9 43 6 95t-12 97t-38.5 75t-74.5 30q-46 0 -83 -29.5t-60 -77t-36.5 -94.5
t-20.5 -96q-9 -42 -7 -96t10.5 -101.5t37.5 -80t75 -32.5q45 0 82.5 31.5t61 82t38 99.5t21.5 97z" />
    <glyph glyph-name="Uhorn" unicode="&#x1af;" horiz-adv-x="1497" 
d="M1937 1612q-59 -138 -167 -211.5t-240 -83.5l-98 -705q-21 -147 -71 -259t-135 -197.5t-217 -130.5t-307 -45q-117 0 -209.5 20.5t-156 59.5t-107 94.5t-63 126t-23.5 154t11 177.5l122 869h402l-123 -887q-11 -73 0 -129t40 -88t68 -48t87 -16q102 0 178 69t98 212
l123 887h346v10q62 0 119 29t90 92h233z" />
    <glyph glyph-name="uhorn" unicode="&#x1b0;" horiz-adv-x="1261" 
d="M1477 1176q-85 -199 -275 -267l-133 -909h-293l-26 180q-66 -97 -173.5 -148.5t-195.5 -51.5q-65 0 -125 22.5t-105 63.5t-67 105.5t-12 141.5l104 744h399l-100 -707q-6 -49 23 -79.5t88 -30.5q58 0 94.5 30.5t42.5 79.5l100 707h244q121 15 176 119h234z" />
    <glyph glyph-name="uni01EA" unicode="&#x1ea;" horiz-adv-x="1615" 
d="M944 1501q323 0 490 -209t118 -555q-39 -280 -197.5 -472t-398.5 -257h11q-112 -34 -161 -69.5t-52 -77.5q-3 -47 41 -47q24 0 48 6t38.5 12.5t40 19t36.5 17.5l-24 -186q-127 -31 -227 -31q-117 0 -180 51t-50 145q5 41 32.5 75t96.5 65q-269 38 -399 237.5t-86 511.5
q31 229 144 402.5t289 267.5t390 94zM1118 731q32 235 -27 343t-190 108q-132 0 -224 -108.5t-126 -342.5q-58 -432 225 -432q132 0 221.5 102.5t120.5 329.5z" />
    <glyph glyph-name="uni01EB" unicode="&#x1eb;" horiz-adv-x="1216" 
d="M686 1077q164 0 281.5 -71.5t168.5 -197.5t29 -286q-26 -184 -144.5 -321.5t-293.5 -192.5h23q-112 -34 -161 -69.5t-52 -77.5q-3 -47 41 -47q24 0 48 6t38.5 12.5t40 19t36.5 17.5l-24 -186q-127 -31 -228 -31q-117 0 -179.5 51t-49.5 145q5 43 34.5 77.5t104.5 66.5
q-187 40 -282 183.5t-66 346.5q35 247 215 401t420 154zM770 537q9 43 6 95t-12 97t-38.5 75t-74.5 30q-46 0 -83 -29.5t-60 -77t-36.5 -94.5t-20.5 -96q-9 -42 -7 -96t10.5 -101.5t37.5 -80t75 -32.5q45 0 82.5 31.5t61 82t38 99.5t21.5 97z" />
    <glyph glyph-name="Aringacute" unicode="&#x1fa;" horiz-adv-x="1624" 
d="M1184 1481l297 -1481h-463l-49 287h-447l-137 -287h-408l719 1481h72q-32 59 -23 133q9 65 54.5 111t111.5 61l50 137h221l-99 -156q52 -30 78 -82.5t17 -117.5q-5 -42 -33 -86h39zM858 1565q-4 -32 17.5 -54t54.5 -22q45 0 84 36.5t45 82.5q3 33 -16.5 52t-55.5 19
q-45 0 -84 -33.5t-45 -80.5zM651 627h273l-76 411z" />
    <glyph glyph-name="aringacute" unicode="&#x1fb;" horiz-adv-x="1171" 
d="M455 1124l-37 170l86 33q-6 37 0 74q12 87 83.5 146t162.5 59q62 0 112 -29.5t78 -79.5l31 12l57 -252l-121 -28q-76 -86 -190 -86q-46 0 -94 20zM762 1466q-38 0 -74 -24.5t-51 -61.5l178 68q-18 18 -53 18zM676 1077q135 0 226.5 -23t138.5 -68t62.5 -103t4.5 -135
l-104 -748h-330l-8 164q-43 -90 -128.5 -137t-195.5 -47q-157 0 -248 89t-69 248q24 175 177 269t437 94h82l6 45q12 115 -102 115q-122 0 -189 -123l-313 22q59 159 205 248.5t348 89.5zM674 356l18 138h-63q-28 0 -60.5 -6t-69.5 -19.5t-63.5 -43t-32.5 -69.5
q-9 -57 25 -91t88 -34q57 0 103 37t55 88z" />
    <glyph glyph-name="AEacute" unicode="&#x1fc;" horiz-adv-x="2304" 
d="M1864 1933l57 -252l-573 -133l-37 170zM2163 328l-43 -328h-1170l39 287h-440l-184 -287h-416l979 1481h1380l-47 -328h-698l-33 -250h438l-49 -321h-434l-37 -254h715zM1038 627l80 577l-377 -577h297z" />
    <glyph glyph-name="aeacute" unicode="&#x1fd;" horiz-adv-x="1878" 
d="M1300 1509l58 -252l-574 -133l-36 170zM1112 457q-11 -108 33.5 -160.5t126.5 -52.5q58 0 113 29t126 98l267 -115q-137 -161 -262 -218.5t-306 -57.5q-129 0 -231.5 47t-163.5 131q-7 0 -17.5 -12t-13.5 -23q-99 -77 -204.5 -110t-239.5 -33q-171 0 -253.5 90.5
t-61.5 236.5q22 156 177.5 248t438.5 104l90 5l12 63q9 30 2.5 50t-15.5 32t-27 18.5t-32 8.5t-30 2q-54 0 -99 -34t-73 -87l-365 76q55 99 120.5 158.5t174 92.5t267.5 33q257 -3 362 -80q140 80 299 80q120 0 218 -41t163.5 -119.5t90.5 -194t-1 -265.5h-686zM1333 842
q-71 0 -124.5 -50t-63.5 -139h334q3 70 -40.5 129.5t-105.5 59.5zM705 469l-56 -4q-43 -3 -93.5 -23t-95 -61t-50.5 -92q-5 -36 18 -55t74 -19q65 0 120 34.5t62 82.5z" />
    <glyph glyph-name="Oslashacute" unicode="&#x1fe;" horiz-adv-x="1669" 
d="M1245 1933l58 -252l-574 -133l-37 170zM150 -31l-154 183l194 155q-85 194 -49 451q33 225 143 393t281.5 259t382.5 91q140 0 254.5 -43.5t194.5 -120.5l182 170l152 -180l-207 -170q82 -196 45 -442q-47 -337 -264.5 -536t-538.5 -199q-275 0 -442 151zM602 649
l496 436q-20 59 -58.5 84t-101.5 25q-121 0 -196 -95t-115 -300q-17 -81 -25 -150zM778 291q127 0 202.5 99t113.5 319q11 62 16 106l-496 -436q22 -49 61.5 -68.5t102.5 -19.5z" />
    <glyph glyph-name="oslashacute" unicode="&#x1ff;" horiz-adv-x="1304" 
d="M1036 1257l-573 -133l-37 170l553 215zM1278 934l-125 -105q63 -132 39 -307q-34 -237 -212 -389.5t-425 -152.5q-191 0 -317 96l-115 -94l-119 139l117 94q-67 133 -43 307q35 247 215 401t420 154q198 0 327 -104l121 98zM477 537q-1 -5 -2 -15.5t-2 -15.5l307 252
q-30 76 -102 76q-46 0 -83 -29.5t-60.5 -77t-37 -94.5t-20.5 -96zM797 537l-299 -246q31 -64 96 -64q45 0 82.5 31.5t61 82t38 99.5t21.5 97z" />
    <glyph glyph-name="uni0200" unicode="&#x200;" horiz-adv-x="1497" 
d="M608 1933l301 -295l-116 -106l-369 221zM1044 1933l304 -295l-119 -106l-367 221zM-51 0l731 1481h407l316 -1481h-393l-58 287h-467l-141 -287h-395zM616 627h293l-80 473z" />
    <glyph glyph-name="uni0201" unicode="&#x201;" horiz-adv-x="1171" 
d="M387 1509l301 -295l-117 -106l-368 221zM823 1509l303 -295l-118 -106l-367 221zM342 -20q-157 0 -248 89t-69 248q24 175 177 269t437 94h82l6 45q12 115 -102 115q-122 0 -189 -123l-313 22q59 159 205 248.5t348 89.5q135 0 226.5 -23t138.5 -68t62.5 -103t4.5 -135
l-104 -748h-330l-8 164q-43 -90 -128.5 -137t-195.5 -47zM516 231q57 0 103 37t55 88l18 138h-63q-28 0 -60.5 -6t-69.5 -19.5t-63.5 -43t-32.5 -69.5q-9 -57 25 -91t88 -34z" />
    <glyph glyph-name="uni0202" unicode="&#x202;" horiz-adv-x="1497" 
d="M559 1608q66 150 182 223.5t258 73.5q153 0 258 -70t127 -227h-192q-30 56 -81.5 87t-106.5 31q-61 0 -119 -29t-94 -89h-232zM-51 0l731 1481h407l316 -1481h-393l-58 287h-467l-141 -287h-395zM616 627h293l-80 473z" />
    <glyph glyph-name="uni0203" unicode="&#x203;" horiz-adv-x="1189" 
d="M362 1184q66 150 182.5 223.5t258.5 73.5q153 0 258 -70t127 -227h-193q-30 56 -81.5 87.5t-106.5 31.5q-61 0 -119 -29.5t-94 -89.5h-232zM342 -20q-157 0 -248 89t-69 248q24 175 177 269t437 94h82l6 45q12 115 -102 115q-122 0 -189 -123l-313 22q59 159 205 248.5
t348 89.5q135 0 226.5 -23t138.5 -68t62.5 -103t4.5 -135l-104 -748h-330l-8 164q-43 -90 -128.5 -137t-195.5 -47zM516 231q57 0 103 37t55 88l18 138h-63q-28 0 -60.5 -6t-69.5 -19.5t-63.5 -43t-32.5 -69.5q-9 -57 25 -91t88 -34z" />
    <glyph glyph-name="uni0204" unicode="&#x204;" horiz-adv-x="1347" 
d="M516 1933l301 -295l-117 -106l-368 221zM952 1933l303 -295l-118 -106l-367 221zM68 0l208 1481h1092l-49 -332h-688l-37 -246h577l-43 -321h-579l-35 -250h694l-47 -332h-1093z" />
    <glyph glyph-name="uni0205" unicode="&#x205;" horiz-adv-x="1210" 
d="M387 1509l301 -295l-117 -106l-368 221zM823 1509l303 -295l-118 -106l-367 221zM432 416q-14 -91 29 -140t119 -49q63 0 122 32.5t93 86.5l295 -72q-83 -142 -224 -218t-317 -76q-251 0 -392 148.5t-108 385.5q22 152 107.5 279.5t225.5 205.5t304 78q127 0 224.5 -45
t154 -122.5t78 -180.5t4.5 -221l-14 -92h-701zM467 668h328q11 81 -24.5 130.5t-115.5 49.5q-82 0 -129.5 -49t-58.5 -131z" />
    <glyph glyph-name="uni0206" unicode="&#x206;" horiz-adv-x="1347" 
d="M467 1608q66 150 182 223.5t258 73.5q153 0 258 -70t127 -227h-192q-30 56 -81.5 87t-107.5 31q-61 0 -119 -29t-94 -89h-231zM68 0l208 1481h1092l-49 -332h-688l-37 -246h577l-43 -321h-579l-35 -250h694l-47 -332h-1093z" />
    <glyph glyph-name="uni0207" unicode="&#x207;" horiz-adv-x="1210" 
d="M362 1184q66 150 182.5 223.5t258.5 73.5q153 0 258 -70t127 -227h-193q-30 56 -81.5 87.5t-106.5 31.5q-61 0 -119 -29.5t-94 -89.5h-232zM432 416q-14 -91 29 -140t119 -49q63 0 122 32.5t93 86.5l295 -72q-83 -142 -224 -218t-317 -76q-251 0 -392 148.5t-108 385.5
q22 152 107.5 279.5t225.5 205.5t304 78q127 0 224.5 -45t154 -122.5t78 -180.5t4.5 -221l-14 -92h-701zM467 668h328q11 81 -24.5 130.5t-115.5 49.5q-82 0 -129.5 -49t-58.5 -131z" />
    <glyph glyph-name="uni0208" unicode="&#x208;" horiz-adv-x="694" 
d="M178 1933l301 -295l-117 -106l-368 221zM614 1933l304 -295l-119 -106l-367 221zM285 1481h397l-207 -1481h-399z" />
    <glyph glyph-name="uni0209" unicode="&#x209;" horiz-adv-x="608" 
d="M86 1509l301 -295l-117 -106l-368 221zM522 1509l303 -295l-118 -106l-367 221zM569 1057l-149 -1057h-397l147 1057h399z" />
    <glyph glyph-name="uni020A" unicode="&#x20a;" horiz-adv-x="700" 
d="M135 1608q66 150 182 223.5t258 73.5q73 0 134.5 -15.5t115.5 -48.5t89.5 -92.5t46.5 -140.5h-193q-30 56 -81.5 87t-106.5 31q-61 0 -119 -29t-94 -89h-232zM291 1481h397l-207 -1481h-399z" />
    <glyph glyph-name="uni020B" unicode="&#x20b;" horiz-adv-x="614" 
d="M43 1184q66 150 182 223.5t258 73.5q153 0 258 -70t127 -227h-192q-30 56 -82 87.5t-107 31.5q-61 0 -119 -29.5t-94 -89.5h-231zM551 1057l-150 -1057h-397l148 1057h399z" />
    <glyph glyph-name="uni020C" unicode="&#x20c;" horiz-adv-x="1615" 
d="M631 1933l301 -295l-117 -106l-369 221zM1067 1933l303 -295l-119 -106l-366 221zM731 -20q-330 0 -495 205t-115 552q31 229 144 402.5t289 267.5t390 94q323 0 490 -209t118 -555q-50 -346 -273 -551.5t-548 -205.5zM776 299q132 0 221.5 102.5t120.5 329.5
q32 235 -27 343t-190 108q-132 0 -224 -108.5t-126 -342.5q-58 -432 225 -432z" />
    <glyph glyph-name="uni020D" unicode="&#x20d;" horiz-adv-x="1216" 
d="M385 1509l301 -295l-117 -106l-368 221zM821 1509l303 -295l-118 -106l-367 221zM528 -20q-245 0 -378 152t-99 390q35 247 215 401t420 154q164 0 281.5 -71.5t168.5 -197.5t29 -286q-34 -237 -212 -389.5t-425 -152.5zM567 227q45 0 82.5 31.5t61 82t38 99.5t21.5 97
q9 43 6 95t-12 97t-38.5 75t-74.5 30q-46 0 -83 -29.5t-60 -77t-36.5 -94.5t-20.5 -96q-9 -42 -7 -96t10.5 -101.5t37.5 -80t75 -32.5z" />
    <glyph glyph-name="uni020E" unicode="&#x20e;" horiz-adv-x="1615" 
d="M606 1608q66 150 182.5 223.5t258.5 73.5q153 0 258 -70t127 -227h-193q-30 56 -81.5 87t-106.5 31q-61 0 -119 -29t-94 -89h-232zM731 -20q-330 0 -495 205t-115 552q31 229 144 402.5t289 267.5t390 94q323 0 490 -209t118 -555q-50 -346 -273 -551.5t-548 -205.5z
M776 299q132 0 221.5 102.5t120.5 329.5q32 235 -27 343t-190 108q-132 0 -224 -108.5t-126 -342.5q-58 -432 225 -432z" />
    <glyph glyph-name="uni020F" unicode="&#x20f;" horiz-adv-x="1216" 
d="M360 1184q66 150 182.5 223.5t258.5 73.5q153 0 258 -70t127 -227h-193q-30 56 -81.5 87.5t-106.5 31.5q-61 0 -119 -29.5t-94 -89.5h-232zM528 -20q-245 0 -378 152t-99 390q35 247 215 401t420 154q164 0 281.5 -71.5t168.5 -197.5t29 -286q-34 -237 -212 -389.5
t-425 -152.5zM567 227q45 0 82.5 31.5t61 82t38 99.5t21.5 97q9 43 6 95t-12 97t-38.5 75t-74.5 30q-46 0 -83 -29.5t-60 -77t-36.5 -94.5t-20.5 -96q-9 -42 -7 -96t10.5 -101.5t37.5 -80t75 -32.5z" />
    <glyph glyph-name="uni0210" unicode="&#x210;" horiz-adv-x="1466" 
d="M553 1933l301 -295l-117 -106l-368 221zM989 1933l303 -295l-118 -106l-367 221zM1296 0h-405l-143 508h-209l-72 -508h-399l208 1481h670q140 0 240 -36.5t152.5 -102t70.5 -150t4 -188.5q-16 -109 -59 -194t-99.5 -138.5t-136.5 -98.5zM807 807q73 0 133.5 58t71.5 132
q10 77 -36.5 133t-115.5 56h-227l-53 -379h227z" />
    <glyph glyph-name="uni0211" unicode="&#x211;" horiz-adv-x="874" 
d="M260 1509l301 -295l-117 -106l-368 221zM696 1509l303 -295l-118 -106l-367 221zM14 0l148 1057h385l-41 -291q61 140 161.5 225.5t239.5 85.5l-51 -372q-74 5 -129 4t-96 -16.5t-67.5 -33t-44 -45t-26 -52.5t-12.5 -56l-69 -506h-398z" />
    <glyph glyph-name="uni0212" unicode="&#x212;" horiz-adv-x="1466" 
d="M528 1608q66 150 182.5 223.5t258.5 73.5q153 0 258 -70t127 -227h-193q-30 56 -81.5 87t-106.5 31q-61 0 -119 -29t-94 -89h-232zM1296 0h-405l-143 508h-209l-72 -508h-399l208 1481h670q140 0 240 -36.5t152.5 -102t70.5 -150t4 -188.5q-16 -109 -59 -194
t-99.5 -138.5t-136.5 -98.5zM807 807q73 0 133.5 58t71.5 132q10 77 -36.5 133t-115.5 56h-227l-53 -379h227z" />
    <glyph glyph-name="uni0213" unicode="&#x213;" horiz-adv-x="913" 
d="M250 1184q66 150 182 223.5t258 73.5q153 0 258 -70t127 -227h-192q-30 56 -82 87.5t-107 31.5q-61 0 -119 -29.5t-94 -89.5h-231zM29 0l147 1057h385l-41 -291q61 139 162 225t240 86l-52 -372q-74 5 -129 4t-95.5 -16.5t-67 -33t-44 -45t-26 -52.5t-12.5 -56l-70 -506
h-397z" />
    <glyph glyph-name="uni0214" unicode="&#x214;" horiz-adv-x="1531" 
d="M580 1933l301 -295l-117 -106l-369 221zM1016 1933l303 -295l-119 -106l-366 221zM1432 612q-21 -147 -71 -259t-135 -197.5t-217 -130.5t-307 -45q-117 0 -209.5 20.5t-156 59.5t-107 94.5t-63 126t-23.5 154t11 177.5l122 869h402l-123 -887q-11 -73 0 -129t40 -88
t68 -48t87 -16q102 0 178 69t98 212l123 887h403z" />
    <glyph glyph-name="uni0215" unicode="&#x215;" horiz-adv-x="1249" 
d="M399 1509l301 -295l-116 -106l-369 221zM836 1509l303 -295l-119 -106l-367 221zM385 -20q-65 0 -125 22.5t-105 63.5t-67 105.5t-12 141.5l104 744h400l-101 -707q-6 -49 23 -79.5t88 -30.5q58 0 94.5 30.5t42.5 79.5l100 707h402l-156 -1057h-293l-26 180
q-66 -97 -173.5 -148.5t-195.5 -51.5z" />
    <glyph glyph-name="uni0216" unicode="&#x216;" horiz-adv-x="1531" 
d="M551 1608q66 150 182 223.5t258 73.5q153 0 258 -70t127 -227h-192q-30 56 -81.5 87t-107.5 31q-61 0 -119 -29t-94 -89h-231zM1432 612q-21 -147 -71 -259t-135 -197.5t-217 -130.5t-307 -45q-117 0 -209.5 20.5t-156 59.5t-107 94.5t-63 126t-23.5 154t11 177.5
l122 869h402l-123 -887q-11 -73 0 -129t40 -88t68 -48t87 -16q102 0 178 69t98 212l123 887h403z" />
    <glyph glyph-name="uni0217" unicode="&#x217;" horiz-adv-x="1245" 
d="M346 1184q66 150 182 223.5t258 73.5q153 0 258 -70t127 -227h-192q-30 56 -81.5 87.5t-106.5 31.5q-61 0 -119 -29.5t-94 -89.5h-232zM381 -20q-65 0 -125 22.5t-105 63.5t-67 105.5t-12 141.5l104 744h399l-100 -707q-6 -49 23 -79.5t88 -30.5q58 0 94.5 30.5
t42.5 79.5l100 707h402l-156 -1057h-293l-26 180q-66 -97 -173.5 -148.5t-195.5 -51.5z" />
    <glyph glyph-name="uni0218" unicode="&#x218;" horiz-adv-x="1476" 
d="M678 -20q-226 0 -401.5 84.5t-229.5 220.5l299 188q41 -60 80 -93.5t103.5 -53t160.5 -19.5q243 0 258 105q6 38 -10.5 65t-77.5 43l-317 84q-170 46 -261.5 158t-68.5 266q13 97 68.5 183t142.5 150.5t209 102t260 37.5q195 0 345 -69t202 -197l-299 -186
q-25 34 -33.5 45t-35.5 36t-50 34.5t-64 18.5t-92 9q-104 0 -158 -30t-61 -72q-4 -13 -1.5 -30t9.5 -32t34 -31t71 -28l319 -86q349 -97 307 -416q-32 -222 -223.5 -354.5t-484.5 -132.5zM485 -492l164 189h-135l33 205h256l-31 -217l-178 -177h-109z" />
    <glyph glyph-name="uni0219" unicode="&#x219;" horiz-adv-x="1144" 
d="M502 -20q-192 0 -318.5 74t-165.5 188l258 120q32 -44 103 -81t162 -37q55 0 104 13t53 40q3 20 -17.5 35t-46 22t-63.5 13l-153 28q-154 27 -231.5 105.5t-59.5 210.5q21 163 167 264.5t374 101.5q180 0 286 -67t144 -170l-258 -115q-24 42 -80.5 68t-134.5 26
q-61 0 -109 -14.5t-51 -42.5q-1 -6 0.5 -11t5.5 -9.5t9 -8t14 -7t17.5 -6.5t22 -6.5t25 -6t30 -7t32.5 -8.5l161 -35q311 -78 277 -317q-24 -169 -176.5 -264.5t-380.5 -95.5zM297 -512l164 188h-135l32 205h256l-30 -217l-178 -176h-109z" />
    <glyph glyph-name="uni021A" unicode="&#x21a;" horiz-adv-x="1308" 
d="M117 1128l49 353h1243l-49 -353h-424l-158 -1128h-399l158 1128h-420zM397 -492l164 189h-135l33 205h256l-31 -217l-178 -177h-109z" />
    <glyph glyph-name="uni021B" unicode="&#x21b;" horiz-adv-x="907" 
d="M868 788h-231l-64 -479q-6 -33 8 -45t44 -12h168l-33 -236q-71 -32 -215 -32q-98 0 -170 15.5t-113.5 43t-66.5 66t-28 84.5t3 98l70 497h-174l38 269h187l106 329h324l-47 -327h231zM256 -492l164 189h-135l32 205h256l-30 -217l-178 -177h-109z" />
    <glyph glyph-name="uni0237" unicode="&#x237;" horiz-adv-x="661" 
d="M453 45q-29 -197 -141 -291t-318 -94q-53 0 -89.5 11t-46.5 21l-10 11l37 260l76 14q31 6 51.5 18.5t29.5 31.5t12 29t5 28l136 973h401z" />
    <glyph glyph-name="uni0259" unicode="&#x259;" horiz-adv-x="1210" 
d="M778 643q14 91 -28.5 139.5t-118.5 48.5q-63 0 -122 -32t-93 -86l-295 71q83 142 224 218.5t317 76.5q251 0 391.5 -148.5t107.5 -385.5q-22 -152 -107.5 -279.5t-225.5 -205.5t-304 -78q-127 0 -224.5 45t-154 122.5t-78 180.5t-4.5 221l15 92h700zM743 391h-327
q-11 -81 24 -130.5t115 -49.5q82 0 129.5 49t58.5 131z" />
    <glyph glyph-name="uni02BC" unicode="&#x2bc;" horiz-adv-x="454" 
d="M147 889l123 274l-88 25l41 293h252l-37 -277l-147 -315h-144z" />
    <glyph glyph-name="circumflex" unicode="&#x2c6;" horiz-adv-x="894" 
d="M678 1188l-107 170l-172 -170h-282l319 313h266l234 -313h-258z" />
    <glyph glyph-name="caron" unicode="&#x2c7;" horiz-adv-x="907" 
d="M680 1483h309l-319 -316h-267l-245 316h243l125 -166z" />
    <glyph glyph-name="breve" unicode="&#x2d8;" horiz-adv-x="925" 
d="M997 1481q-64 -149 -184 -223t-264 -74q-75 0 -133.5 13.5t-110.5 45.5t-85.5 92t-45.5 146h191q32 -56 83.5 -88.5t106.5 -32.5q61 0 118.5 30t92.5 91h231z" />
    <glyph glyph-name="dotaccent" unicode="&#x2d9;" horiz-adv-x="503" 
d="M575 1481l-47 -336h-399l47 336h399z" />
    <glyph glyph-name="ring" unicode="&#x2da;" horiz-adv-x="571" 
d="M623 1333q-13 -92 -84 -151.5t-164 -59.5q-103 0 -165.5 75.5t-47.5 182.5q12 87 83.5 146t162.5 59q102 0 165.5 -74.5t49.5 -177.5zM489 1374q4 33 -15.5 52.5t-53.5 19.5q-45 0 -85.5 -34t-47.5 -81q-2 -33 19 -54.5t54 -21.5q45 0 83 36t46 83z" />
    <glyph glyph-name="ogonek" unicode="&#x2db;" horiz-adv-x="583" 
d="M-53 -152q7 50 49 90t154 78l286 -8q-112 -34 -161 -69.5t-52 -77.5q-3 -47 41 -47q24 0 48.5 6t39 12t40.5 19l36 18l-25 -186q-127 -31 -227 -31q-117 0 -179.5 51t-49.5 145z" />
    <glyph glyph-name="tilde" unicode="&#x2dc;" horiz-adv-x="999" 
d="M997 1266q-118 -58 -229 -58q-65 0 -163.5 32t-149.5 32q-28 0 -53.5 -7.5t-40.5 -16t-46.5 -29t-50.5 -31.5l-43 223q59 38 108 58t113 20q74 0 179.5 -34t142.5 -34q53 0 125 38t92 42z" />
    <glyph glyph-name="hungarumlaut" unicode="&#x2dd;" horiz-adv-x="1036" 
d="M500 1511l145 -206l-391 -201l-113 137zM936 1511l145 -206l-391 -201l-110 137z" />
    <glyph glyph-name="gravecomb" unicode="&#x300;" 
d="M-459 1509l510 -231l-69 -152l-549 140z" />
    <glyph glyph-name="acutecomb" unicode="&#x301;" 
d="M-2 1509l57 -252l-573 -133l-37 170z" />
    <glyph glyph-name="uni0302" unicode="&#x302;" 
d="M-217 1188l-107 170l-172 -170h-282l319 313h266l234 -313h-258z" />
    <glyph glyph-name="tildecomb" unicode="&#x303;" 
d="M-2 1266q-118 -58 -229 -58q-65 0 -164 32t-150 32q-28 0 -53.5 -7.5t-40 -16t-45.5 -28.5t-51 -32l-43 223q59 38 108 58t113 20q74 0 179 -34t142 -34q53 0 125.5 38t92.5 42z" />
    <glyph glyph-name="uni0304" unicode="&#x304;" 
d="M70 1481l-37 -246h-819l34 246h822z" />
    <glyph glyph-name="uni0306" unicode="&#x306;" 
d="M72 1481q-64 -149 -184.5 -223t-264.5 -74q-75 0 -133.5 13.5t-110.5 45.5t-85.5 92t-45.5 146h191q32 -56 83.5 -88.5t106.5 -32.5q61 0 118.5 30t92.5 91h232z" />
    <glyph glyph-name="uni0307" unicode="&#x307;" 
d="M72 1481l-47 -336h-400l47 336h400z" />
    <glyph glyph-name="uni0308" unicode="&#x308;" 
d="M-410 1481l-43 -285h-340l41 285h342zM70 1481l-43 -285h-340l41 285h342z" />
    <glyph glyph-name="hookabovecomb" unicode="&#x309;" 
d="M-672 1554l58 -143q76 43 133 43q25 0 44.5 -10t16.5 -31q-6 -34 -36 -61t-105 -70l72 -125q57 42 84.5 63.5t65 57.5t55.5 70.5t24 74.5q12 85 -45 137t-154 52q-14 0 -27.5 -1t-30 -5t-26.5 -6t-30.5 -9.5t-28.5 -10.5t-35 -13t-35 -13z" />
    <glyph glyph-name="uni030A" unicode="&#x30a;" 
d="M51 1333q-13 -92 -84 -151.5t-164 -59.5q-103 0 -165.5 75.5t-47.5 182.5q12 87 83.5 146t162.5 59q102 0 165.5 -74.5t49.5 -177.5zM-82 1374q4 33 -15.5 52.5t-54.5 19.5q-45 0 -85.5 -34t-47.5 -81q-2 -32 19 -54t55 -22q45 0 83 36t46 83z" />
    <glyph glyph-name="uni030B" unicode="&#x30b;" 
d="M-537 1511l146 -206l-391 -201l-113 137zM-100 1511l145 -206l-391 -201l-111 137z" />
    <glyph glyph-name="uni030C" unicode="&#x30c;" 
d="M-227 1483h309l-320 -316h-266l-246 316h244l125 -166z" />
    <glyph glyph-name="uni030F" unicode="&#x30f;" 
d="M-694 1509l301 -295l-117 -106l-369 221zM-258 1509l303 -295l-119 -106l-366 221z" />
    <glyph glyph-name="uni0311" unicode="&#x311;" 
d="M-741 1184q66 150 182 223.5t258 73.5q153 0 258 -70t127 -227h-193q-30 56 -81.5 87.5t-106.5 31.5q-61 0 -119 -29.5t-94 -89.5h-231z" />
    <glyph glyph-name="uni031B" unicode="&#x31b;" 
d="M-145 1176q-63 -149 -184 -223t-265 -74l6 176q62 0 119 29t90 92h234z" />
    <glyph glyph-name="dotbelowcomb" unicode="&#x323;" 
d="M-147 -78l-35 -252h-297l39 252h293z" />
    <glyph glyph-name="uni0326" unicode="&#x326;" 
d="M-469 -492l164 189h-135l32 205h256l-30 -217l-178 -177h-109z" />
    <glyph glyph-name="uni0327" unicode="&#x327;" 
d="M-178 -295q-10 -71 -88.5 -112.5t-182.5 -41.5q-185 0 -276 84l47 82q115 -39 166 -39q47 0 80.5 22t38.5 54q5 30 -29.5 43t-128.5 13q-23 0 -32.5 8.5t-2.5 25.5l101 166h166l-54 -116q110 0 157.5 -57.5t37.5 -131.5z" />
    <glyph glyph-name="uni0328" unicode="&#x328;" 
d="M-637 -152q7 50 49 90t154 78l287 -8q-112 -34 -161 -69.5t-52 -77.5q-3 -47 41 -47q24 0 48 6t38.5 12.5t40 19t36.5 17.5l-24 -186q-127 -31 -228 -31q-117 0 -179.5 51t-49.5 145z" />
    <glyph glyph-name="pi" unicode="&#x3c0;" horiz-adv-x="1417" 
d="M119 1057h1308l-36 -269h-162l-109 -788h-383l111 788h-221q-21 -153 -86 -395.5t-129 -392.5h-398q71 173 140 406.5t90 384.5q-3 -3 -11 -3h-153z" />
    <glyph glyph-name="uni1E0C" unicode="&#x1e0c;" horiz-adv-x="1601" 
d="M276 1481q466 0 531 -2q195 -7 334.5 -63.5t217.5 -154.5t105 -227.5t4 -290.5q-22 -164 -87.5 -298t-172.5 -234.5t-263 -155.5t-349 -55h-528zM631 1167l-119 -854h141q61 0 121.5 24t119 73t102.5 137t61 203q27 201 -50.5 309t-234.5 108h-141zM743 -78l-34 -252
h-297l39 252h292z" />
    <glyph glyph-name="uni1E0D" unicode="&#x1e0d;" horiz-adv-x="1245" 
d="M426 -20q-217 0 -314 149t-61 408q35 252 164.5 396t323.5 144q212 0 266 -180l88 623h397l-213 -1520h-280l-27 180q-53 -85 -140 -142.5t-204 -57.5zM569 238q144 0 176 251l15 93q19 129 -11.5 182t-103.5 53q-34 0 -60.5 -11t-52.5 -39.5t-45.5 -85.5t-31.5 -140
q-23 -166 7.5 -234.5t106.5 -68.5zM678 -78l-35 -252h-297l39 252h293z" />
    <glyph glyph-name="uni1E24" unicode="&#x1e24;" horiz-adv-x="1529" 
d="M995 592h-446l-82 -592h-399l208 1481h398l-78 -561h448l78 561h400l-209 -1481h-400zM815 -78l-35 -252h-297l39 252h293z" />
    <glyph glyph-name="uni1E25" unicode="&#x1e25;" horiz-adv-x="1245" 
d="M29 0l213 1520h393l-96 -672q78 119 180.5 174t198.5 55q149 0 217.5 -84.5t46.5 -244.5l-105 -748h-399l98 700q6 44 -18.5 70.5t-71.5 26.5q-89 0 -162 -101l-98 -696h-397zM711 -78l-35 -252h-297l39 252h293z" />
    <glyph glyph-name="uni1E44" unicode="&#x1e44;" horiz-adv-x="1660" 
d="M1227 1905l-47 -336h-400l47 336h400zM1253 1481h400l-207 -1481h-363l-491 883l-125 -883h-399l208 1481h400l463 -826z" />
    <glyph glyph-name="uni1E45" unicode="&#x1e45;" horiz-adv-x="1249" 
d="M981 1481l-47 -336h-399l47 336h399zM29 0l147 1057h395l-28 -205q73 110 169.5 167.5t205.5 57.5q141 0 214.5 -87.5t53.5 -235.5l-107 -754h-399l98 700q6 42 -28 69.5t-82 27.5t-93 -27.5t-51 -69.5l-98 -700h-397z" />
    <glyph glyph-name="uni1E5A" unicode="&#x1e5a;" horiz-adv-x="1466" 
d="M1296 0h-405l-143 508h-209l-72 -508h-399l208 1481h670q140 0 240 -36.5t152.5 -102t70.5 -150t4 -188.5q-16 -109 -59 -194t-99.5 -138.5t-136.5 -98.5zM807 807q73 0 133.5 58t71.5 132q10 77 -36.5 133t-115.5 56h-227l-53 -379h227zM805 -78l-35 -252h-297l39 252
h293z" />
    <glyph glyph-name="uni1E5B" unicode="&#x1e5b;" horiz-adv-x="862" 
d="M29 0l147 1057h385l-41 -291q61 139 162 225t240 86l-52 -372q-74 5 -129 4t-95.5 -16.5t-67 -33t-44 -45t-26 -52.5t-12.5 -56l-70 -506h-397zM408 -78l-35 -252h-297l39 252h293z" />
    <glyph glyph-name="uni1E62" unicode="&#x1e62;" horiz-adv-x="1476" 
d="M678 -20q-226 0 -401.5 84.5t-229.5 220.5l299 188q41 -60 80 -93.5t103.5 -53t160.5 -19.5q243 0 258 105q6 38 -10.5 65t-77.5 43l-317 84q-170 46 -261.5 158t-68.5 266q13 97 68.5 183t142.5 150.5t209 102t260 37.5q195 0 345 -69t202 -197l-299 -186
q-25 34 -33.5 45t-35.5 36t-50 34.5t-64 18.5t-92 9q-104 0 -158 -30t-61 -72q-4 -13 -1.5 -30t9.5 -32t34 -31t71 -28l319 -86q349 -97 307 -416q-32 -222 -223.5 -354.5t-484.5 -132.5zM823 -78l-35 -252h-296l38 252h293z" />
    <glyph glyph-name="uni1E63" unicode="&#x1e63;" horiz-adv-x="1144" 
d="M502 -20q-192 0 -318.5 74t-165.5 188l258 120q32 -44 103 -81t162 -37q55 0 104 13t53 40q3 20 -17.5 35t-46 22t-63.5 13l-153 28q-154 27 -231.5 105.5t-59.5 210.5q21 163 167 264.5t374 101.5q180 0 286 -67t144 -170l-258 -115q-24 42 -80.5 68t-134.5 26
q-61 0 -109 -14.5t-51 -42.5q-1 -6 0.5 -11t5.5 -9.5t9 -8t14 -7t17.5 -6.5t22 -6.5t25 -6t30 -7t32.5 -8.5l161 -35q311 -78 277 -317q-24 -169 -176.5 -264.5t-380.5 -95.5zM637 -98l-35 -252h-297l39 252h293z" />
    <glyph glyph-name="uni1E6C" unicode="&#x1e6c;" horiz-adv-x="1308" 
d="M117 1128l49 353h1243l-49 -353h-424l-158 -1128h-399l158 1128h-420zM735 -78l-35 -252h-297l39 252h293z" />
    <glyph glyph-name="uni1E6D" unicode="&#x1e6d;" horiz-adv-x="907" 
d="M868 788h-231l-64 -479q-6 -33 8 -45t44 -12h168l-33 -236q-71 -32 -215 -32q-98 0 -170 15.5t-113.5 43t-66.5 66t-28 84.5t3 98l70 497h-174l38 269h187l106 329h324l-47 -327h231zM596 -78l-35 -252h-297l39 252h293z" />
    <glyph glyph-name="Wgrave" unicode="&#x1e80;" horiz-adv-x="2015" 
d="M971 1933l510 -231l-70 -152l-549 140zM2116 1481l-652 -1481h-297l-120 805l-349 -805h-292l-240 1481h385l119 -795l331 795h279l117 -795l334 795h385z" />
    <glyph glyph-name="wgrave" unicode="&#x1e81;" horiz-adv-x="1644" 
d="M723 1509l510 -231l-70 -152l-549 140zM1712 1057l-520 -1057h-285l-86 512l-239 -512h-291l-211 1057h366l95 -512l227 512h274l80 -514l236 514h354z" />
    <glyph glyph-name="Wacute" unicode="&#x1e82;" horiz-adv-x="2015" 
d="M1419 1933l58 -252l-574 -133l-37 170zM2116 1481l-652 -1481h-297l-120 805l-349 -805h-292l-240 1481h385l119 -795l331 795h279l117 -795l334 795h385z" />
    <glyph glyph-name="wacute" unicode="&#x1e83;" horiz-adv-x="1644" 
d="M1174 1509l57 -252l-574 -133l-36 170zM1712 1057l-520 -1057h-285l-86 512l-239 -512h-291l-211 1057h366l95 -512l227 512h274l80 -514l236 514h354z" />
    <glyph glyph-name="Wdieresis" unicode="&#x1e84;" horiz-adv-x="2015" 
d="M1133 1905l-43 -285h-340l41 285h342zM1612 1905l-43 -285h-340l41 285h342zM2116 1481l-652 -1481h-297l-120 805l-349 -805h-292l-240 1481h385l119 -795l331 795h279l117 -795l334 795h385z" />
    <glyph glyph-name="wdieresis" unicode="&#x1e85;" horiz-adv-x="1644" 
d="M885 1481l-43 -285h-340l41 285h342zM1364 1481l-43 -285h-340l41 285h342zM1712 1057l-520 -1057h-285l-86 512l-239 -512h-291l-211 1057h366l95 -512l227 512h274l80 -514l236 514h354z" />
    <glyph glyph-name="uni1E92" unicode="&#x1e92;" horiz-adv-x="1445" 
d="M18 0l27 182l834 969h-633l45 330h1206l-24 -176l-850 -973h700l-45 -332h-1260zM795 -78l-35 -252h-297l39 252h293z" />
    <glyph glyph-name="uni1E93" unicode="&#x1e93;" horiz-adv-x="1183" 
d="M-18 0l26 188l582 627h-451l35 242h954l-26 -180l-586 -629h500l-33 -248h-1001zM627 -78l-35 -252h-297l39 252h293z" />
    <glyph glyph-name="uni1EA0" unicode="&#x1ea0;" horiz-adv-x="1474" 
d="M-51 0l731 1481h407l316 -1481h-393l-58 287h-467l-141 -287h-395zM616 627h293l-80 473zM852 -78l-35 -252h-297l39 252h293z" />
    <glyph glyph-name="uni1EA1" unicode="&#x1ea1;" horiz-adv-x="1142" 
d="M342 -20q-157 0 -248 89t-69 248q24 175 177 269t437 94h82l6 45q12 115 -102 115q-122 0 -189 -123l-313 22q59 159 205 248.5t348 89.5q135 0 226.5 -23t138.5 -68t62.5 -103t4.5 -135l-104 -748h-330l-8 164q-43 -90 -128.5 -137t-195.5 -47zM516 231q57 0 103 37
t55 88l18 138h-63q-28 0 -60.5 -6t-69.5 -19.5t-63.5 -43t-32.5 -69.5q-9 -57 25 -91t88 -34zM598 -78l-35 -252h-297l39 252h293z" />
    <glyph glyph-name="uni1EA2" unicode="&#x1ea2;" horiz-adv-x="1497" 
d="M737 1978l58 -143q76 43 133 43q25 0 44.5 -10t16.5 -31q-6 -34 -36 -61t-105 -70l72 -125q57 42 84.5 63.5t65 57.5t55.5 70.5t24 74.5q12 85 -45 137t-154 52q-14 0 -27.5 -1t-30 -5t-26.5 -6t-30.5 -9.5t-28.5 -10.5t-35 -13t-35 -13zM-51 0l731 1481h407l316 -1481
h-393l-58 287h-467l-141 -287h-395zM616 627h293l-80 473z" />
    <glyph glyph-name="uni1EA3" unicode="&#x1ea3;" horiz-adv-x="1193" 
d="M502 1554l57 -143q76 43 133 43q25 0 45 -10t17 -31q-6 -34 -36 -61t-106 -70l72 -125q57 42 84.5 63.5t65 57.5t55.5 70.5t24 74.5q12 85 -44.5 137t-153.5 52q-14 0 -27.5 -1t-30 -5t-26.5 -6t-30.5 -9.5t-28.5 -10.5t-35 -13t-35 -13zM342 -20q-157 0 -248 89t-69 248
q24 175 177 269t437 94h82l6 45q12 115 -102 115q-122 0 -189 -123l-313 22q59 159 205 248.5t348 89.5q135 0 226.5 -23t138.5 -68t62.5 -103t4.5 -135l-104 -748h-330l-8 164q-43 -90 -128.5 -137t-195.5 -47zM516 231q57 0 103 37t55 88l18 138h-63q-28 0 -60.5 -6
t-69.5 -19.5t-63.5 -43t-32.5 -69.5q-9 -57 25 -91t88 -34z" />
    <glyph glyph-name="uni1EA4" unicode="&#x1ea4;" horiz-adv-x="1497" 
d="M1229 2324l57 -251l-573 -134l-37 170zM1071 1612l-106 170l-172 -170h-283l319 313h267l233 -313h-258zM-51 0l731 1481h407l316 -1481h-393l-58 287h-467l-141 -287h-395zM616 627h293l-80 473z" />
    <glyph glyph-name="uni1EA5" unicode="&#x1ea5;" horiz-adv-x="1193" 
d="M1006 1901l57 -252l-574 -133l-36 170zM848 1188l-107 170l-172 -170h-282l319 313h266l234 -313h-258zM342 -20q-157 0 -248 89t-69 248q24 175 177 269t437 94h82l6 45q12 115 -102 115q-122 0 -189 -123l-313 22q59 159 205 248.5t348 89.5q135 0 226.5 -23t138.5 -68
t62.5 -103t4.5 -135l-104 -748h-330l-8 164q-43 -90 -128.5 -137t-195.5 -47zM516 231q57 0 103 37t55 88l18 138h-63q-28 0 -60.5 -6t-69.5 -19.5t-63.5 -43t-32.5 -69.5q-9 -57 25 -91t88 -34z" />
    <glyph glyph-name="uni1EA6" unicode="&#x1ea6;" horiz-adv-x="1497" 
d="M780 2324l510 -231l-69 -151l-549 139zM1071 1612l-106 170l-172 -170h-283l319 313h267l233 -313h-258zM-51 0l731 1481h407l316 -1481h-393l-58 287h-467l-141 -287h-395zM616 627h293l-80 473z" />
    <glyph glyph-name="uni1EA7" unicode="&#x1ea7;" horiz-adv-x="1193" 
d="M557 1901l510 -232l-70 -151l-548 139zM848 1188l-107 170l-172 -170h-282l319 313h266l234 -313h-258zM342 -20q-157 0 -248 89t-69 248q24 175 177 269t437 94h82l6 45q12 115 -102 115q-122 0 -189 -123l-313 22q59 159 205 248.5t348 89.5q135 0 226.5 -23t138.5 -68
t62.5 -103t4.5 -135l-104 -748h-330l-8 164q-43 -90 -128.5 -137t-195.5 -47zM516 231q57 0 103 37t55 88l18 138h-63q-28 0 -60.5 -6t-69.5 -19.5t-63.5 -43t-32.5 -69.5q-9 -57 25 -91t88 -34z" />
    <glyph glyph-name="uni1EA8" unicode="&#x1ea8;" horiz-adv-x="1497" 
d="M1153 2140l57 -143q76 43 133 43q25 0 45 -10t17 -31q-6 -34 -36 -61t-105 -70l71 -125q47 34 68 50t56.5 47t52.5 53t32.5 53t20.5 63q12 85 -45 137t-154 52q-14 0 -27.5 -1t-30 -5t-26.5 -6t-30.5 -9.5t-28.5 -10.5t-35 -13t-35 -13zM1071 1612l-106 170l-172 -170
h-283l319 313h267l233 -313h-258zM-51 0l731 1481h407l316 -1481h-393l-58 287h-467l-141 -287h-395zM616 627h293l-80 473z" />
    <glyph glyph-name="uni1EA9" unicode="&#x1ea9;" horiz-adv-x="1193" 
d="M930 1716l57 -143q76 43 133 43q25 0 45 -10t17 -31q-6 -34 -36 -61t-106 -70l72 -125q57 42 84.5 63.5t65 57.5t55.5 70.5t24 74.5q12 85 -44.5 137t-153.5 52q-14 0 -27.5 -1t-30 -5t-26.5 -6t-30.5 -9.5t-28.5 -10.5t-35 -13t-35 -13zM848 1188l-107 170l-172 -170
h-282l319 313h266l234 -313h-258zM342 -20q-157 0 -248 89t-69 248q24 175 177 269t437 94h82l6 45q12 115 -102 115q-122 0 -189 -123l-313 22q59 159 205 248.5t348 89.5q135 0 226.5 -23t138.5 -68t62.5 -103t4.5 -135l-104 -748h-330l-8 164q-43 -90 -128.5 -137
t-195.5 -47zM516 231q57 0 103 37t55 88l18 138h-63q-28 0 -60.5 -6t-69.5 -19.5t-63.5 -43t-32.5 -69.5q-9 -57 25 -91t88 -34z" />
    <glyph glyph-name="uni1EAA" unicode="&#x1eaa;" horiz-adv-x="1497" 
d="M1384 2081q-118 -58 -229 -58q-65 0 -163.5 32t-149.5 32q-28 0 -53.5 -7.5t-40.5 -16t-46.5 -29t-50.5 -31.5l-43 223q59 38 108 58t113 20q74 0 179.5 -34t142.5 -34q53 0 125 38t92 42zM1071 1612l-106 170l-172 -170h-283l319 313h267l233 -313h-258zM-51 0l731 1481
h407l316 -1481h-393l-58 287h-467l-141 -287h-395zM616 627h293l-80 473z" />
    <glyph glyph-name="uni1EAB" unicode="&#x1eab;" horiz-adv-x="1193" 
d="M1161 1657q-118 -58 -229 -58q-65 0 -164 32t-150 32q-28 0 -53.5 -7.5t-40 -16t-45.5 -28.5t-51 -32l-43 223q59 38 108 58t113 20q74 0 179.5 -34t142.5 -34q53 0 125 38t92 42zM848 1188l-107 170l-172 -170h-282l319 313h266l234 -313h-258zM342 -20q-157 0 -248 89
t-69 248q24 175 177 269t437 94h82l6 45q12 115 -102 115q-122 0 -189 -123l-313 22q59 159 205 248.5t348 89.5q135 0 226.5 -23t138.5 -68t62.5 -103t4.5 -135l-104 -748h-330l-8 164q-43 -90 -128.5 -137t-195.5 -47zM516 231q57 0 103 37t55 88l18 138h-63
q-28 0 -60.5 -6t-69.5 -19.5t-63.5 -43t-32.5 -69.5q-9 -57 25 -91t88 -34z" />
    <glyph glyph-name="uni1EAC" unicode="&#x1eac;" horiz-adv-x="1474" 
d="M1071 1612l-106 170l-172 -170h-283l319 313h267l233 -313h-258zM-51 0l731 1481h407l316 -1481h-393l-58 287h-467l-141 -287h-395zM616 627h293l-80 473zM852 -78l-35 -252h-297l39 252h293z" />
    <glyph glyph-name="uni1EAD" unicode="&#x1ead;" horiz-adv-x="1142" 
d="M848 1188l-107 170l-172 -170h-282l319 313h266l234 -313h-258zM342 -20q-157 0 -248 89t-69 248q24 175 177 269t437 94h82l6 45q12 115 -102 115q-122 0 -189 -123l-313 22q59 159 205 248.5t348 89.5q135 0 226.5 -23t138.5 -68t62.5 -103t4.5 -135l-104 -748h-330
l-8 164q-43 -90 -128.5 -137t-195.5 -47zM516 231q57 0 103 37t55 88l18 138h-63q-28 0 -60.5 -6t-69.5 -19.5t-63.5 -43t-32.5 -69.5q-9 -57 25 -91t88 -34zM598 -78l-35 -252h-297l39 252h293z" />
    <glyph glyph-name="uni1EAE" unicode="&#x1eae;" horiz-adv-x="1497" 
d="M1237 2357l57 -252l-573 -133l-37 170zM1374 1905q-64 -149 -184 -223t-264 -74q-75 0 -133.5 13.5t-110.5 45.5t-85.5 92t-45.5 146h190q32 -56 84 -88.5t107 -32.5q61 0 118.5 30t92.5 91h231zM-51 0l731 1481h407l316 -1481h-393l-58 287h-467l-141 -287h-395z
M616 627h293l-80 473z" />
    <glyph glyph-name="uni1EAF" unicode="&#x1eaf;" horiz-adv-x="1193" 
d="M1014 1933l57 -252l-573 -133l-37 170zM1151 1481q-64 -149 -184.5 -223t-264.5 -74q-75 0 -133.5 13.5t-110 45.5t-85 92t-45.5 146h190q32 -56 84 -88.5t107 -32.5q61 0 118.5 30t92.5 91h231zM342 -20q-157 0 -248 89t-69 248q24 175 177 269t437 94h82l6 45
q12 115 -102 115q-122 0 -189 -123l-313 22q59 159 205 248.5t348 89.5q135 0 226.5 -23t138.5 -68t62.5 -103t4.5 -135l-104 -748h-330l-8 164q-43 -90 -128.5 -137t-195.5 -47zM516 231q57 0 103 37t55 88l18 138h-63q-28 0 -60.5 -6t-69.5 -19.5t-63.5 -43t-32.5 -69.5
q-9 -57 25 -91t88 -34z" />
    <glyph glyph-name="uni1EB0" unicode="&#x1eb0;" horiz-adv-x="1497" 
d="M788 2357l510 -231l-69 -152l-549 140zM1374 1905q-64 -149 -184 -223t-264 -74q-75 0 -133.5 13.5t-110.5 45.5t-85.5 92t-45.5 146h190q32 -56 84 -88.5t107 -32.5q61 0 118.5 30t92.5 91h231zM-51 0l731 1481h407l316 -1481h-393l-58 287h-467l-141 -287h-395z
M616 627h293l-80 473z" />
    <glyph glyph-name="uni1EB1" unicode="&#x1eb1;" horiz-adv-x="1193" 
d="M565 1933l510 -231l-69 -152l-549 140zM1151 1481q-64 -149 -184.5 -223t-264.5 -74q-75 0 -133.5 13.5t-110 45.5t-85 92t-45.5 146h190q32 -56 84 -88.5t107 -32.5q61 0 118.5 30t92.5 91h231zM342 -20q-157 0 -248 89t-69 248q24 175 177 269t437 94h82l6 45
q12 115 -102 115q-122 0 -189 -123l-313 22q59 159 205 248.5t348 89.5q135 0 226.5 -23t138.5 -68t62.5 -103t4.5 -135l-104 -748h-330l-8 164q-43 -90 -128.5 -137t-195.5 -47zM516 231q57 0 103 37t55 88l18 138h-63q-28 0 -60.5 -6t-69.5 -19.5t-63.5 -43t-32.5 -69.5
q-9 -57 25 -91t88 -34z" />
    <glyph glyph-name="uni1EB2" unicode="&#x1eb2;" horiz-adv-x="1497" 
d="M741 2259l58 -143q76 43 133 43q25 0 44.5 -10t16.5 -31q-6 -34 -36 -61t-105 -70l72 -125q57 42 84.5 63.5t65 57.5t55.5 70.5t24 74.5q12 85 -45 136.5t-154 51.5q-11 0 -21.5 -0.5t-23 -3t-21 -4t-23 -6t-21.5 -6t-24.5 -8t-23.5 -8.5t-27.5 -10.5t-27.5 -10.5z
M1374 1905q-64 -149 -184 -223t-264 -74q-75 0 -133.5 13.5t-110.5 45.5t-85.5 92t-45.5 146h190q32 -56 84 -88.5t107 -32.5q61 0 118.5 30t92.5 91h231zM-51 0l731 1481h407l316 -1481h-393l-58 287h-467l-141 -287h-395zM616 627h293l-80 473z" />
    <glyph glyph-name="uni1EB3" unicode="&#x1eb3;" horiz-adv-x="1193" 
d="M545 1978l57 -143q76 43 133 43q25 0 45 -10t17 -31q-6 -34 -36 -61t-106 -70l72 -125q57 42 84.5 63.5t65 57.5t55.5 70.5t24 74.5q12 85 -44.5 137t-153.5 52q-14 0 -27.5 -1t-30 -5t-26.5 -6t-30.5 -9.5t-28.5 -10.5t-35 -13t-35 -13zM1151 1481q-64 -149 -184.5 -223
t-264.5 -74q-75 0 -133.5 13.5t-110 45.5t-85 92t-45.5 146h190q32 -56 84 -88.5t107 -32.5q61 0 118.5 30t92.5 91h231zM342 -20q-157 0 -248 89t-69 248q24 175 177 269t437 94h82l6 45q12 115 -102 115q-122 0 -189 -123l-313 22q59 159 205 248.5t348 89.5
q135 0 226.5 -23t138.5 -68t62.5 -103t4.5 -135l-104 -748h-330l-8 164q-43 -90 -128.5 -137t-195.5 -47zM516 231q57 0 103 37t55 88l18 138h-63q-28 0 -60.5 -6t-69.5 -19.5t-63.5 -43t-32.5 -69.5q-9 -57 25 -91t88 -34z" />
    <glyph glyph-name="uni1EB4" unicode="&#x1eb4;" horiz-adv-x="1497" 
d="M1393 2114q-118 -58 -230 -58q-65 0 -163.5 32t-149.5 32q-28 0 -53.5 -7.5t-40.5 -16t-46.5 -29t-50.5 -31.5l-43 223q58 38 108 58t114 20q74 0 179 -34t142 -34q53 0 125 38t92 42zM1374 1905q-64 -149 -184 -223t-264 -74q-75 0 -133.5 13.5t-110.5 45.5t-85.5 92
t-45.5 146h190q32 -56 84 -88.5t107 -32.5q61 0 118.5 30t92.5 91h231zM-51 0l731 1481h407l316 -1481h-393l-58 287h-467l-141 -287h-395zM616 627h293l-80 473z" />
    <glyph glyph-name="uni1EB5" unicode="&#x1eb5;" horiz-adv-x="1193" 
d="M1169 1690q-118 -58 -229 -58q-65 0 -163.5 32t-149.5 32q-28 0 -53.5 -7.5t-40.5 -16t-46.5 -29t-50.5 -31.5l-43 223q59 38 108 58t113 20q74 0 179.5 -34t142.5 -34q53 0 125 38t92 42zM1151 1481q-64 -149 -184.5 -223t-264.5 -74q-75 0 -133.5 13.5t-110 45.5
t-85 92t-45.5 146h190q32 -56 84 -88.5t107 -32.5q61 0 118.5 30t92.5 91h231zM342 -20q-157 0 -248 89t-69 248q24 175 177 269t437 94h82l6 45q12 115 -102 115q-122 0 -189 -123l-313 22q59 159 205 248.5t348 89.5q135 0 226.5 -23t138.5 -68t62.5 -103t4.5 -135
l-104 -748h-330l-8 164q-43 -90 -128.5 -137t-195.5 -47zM516 231q57 0 103 37t55 88l18 138h-63q-28 0 -60.5 -6t-69.5 -19.5t-63.5 -43t-32.5 -69.5q-9 -57 25 -91t88 -34z" />
    <glyph glyph-name="uni1EB6" unicode="&#x1eb6;" horiz-adv-x="1474" 
d="M1374 1905q-64 -149 -184 -223t-264 -74q-75 0 -133.5 13.5t-110.5 45.5t-85.5 92t-45.5 146h190q32 -56 84 -88.5t107 -32.5q61 0 118.5 30t92.5 91h231zM-51 0l731 1481h407l316 -1481h-393l-58 287h-467l-141 -287h-395zM616 627h293l-80 473zM852 -78l-35 -252h-297
l39 252h293z" />
    <glyph glyph-name="uni1EB7" unicode="&#x1eb7;" horiz-adv-x="1142" 
d="M1151 1481q-64 -149 -184.5 -223t-264.5 -74q-75 0 -133.5 13.5t-110 45.5t-85 92t-45.5 146h190q32 -56 84 -88.5t107 -32.5q61 0 118.5 30t92.5 91h231zM342 -20q-157 0 -248 89t-69 248q24 175 177 269t437 94h82l6 45q12 115 -102 115q-122 0 -189 -123l-313 22
q59 159 205 248.5t348 89.5q135 0 226.5 -23t138.5 -68t62.5 -103t4.5 -135l-104 -748h-330l-8 164q-43 -90 -128.5 -137t-195.5 -47zM516 231q57 0 103 37t55 88l18 138h-63q-28 0 -60.5 -6t-69.5 -19.5t-63.5 -43t-32.5 -69.5q-9 -57 25 -91t88 -34zM598 -78l-35 -252
h-297l39 252h293z" />
    <glyph glyph-name="uni1EB8" unicode="&#x1eb8;" horiz-adv-x="1347" 
d="M68 0l208 1481h1092l-49 -332h-688l-37 -246h577l-43 -321h-579l-35 -250h694l-47 -332h-1093zM748 -78l-35 -252h-297l39 252h293z" />
    <glyph glyph-name="uni1EB9" unicode="&#x1eb9;" horiz-adv-x="1210" 
d="M432 416q-14 -91 29 -140t119 -49q63 0 122 32.5t93 86.5l295 -72q-83 -142 -224 -218t-317 -76q-251 0 -392 148.5t-108 385.5q22 152 107.5 279.5t225.5 205.5t304 78q127 0 224.5 -45t154 -122.5t78 -180.5t4.5 -221l-14 -92h-701zM467 668h328q11 81 -24.5 130.5
t-115.5 49.5q-82 0 -129.5 -49t-58.5 -131zM684 -78l-35 -252h-297l39 252h293z" />
    <glyph glyph-name="uni1EBA" unicode="&#x1eba;" horiz-adv-x="1347" 
d="M645 1978l57 -143q76 43 134 43q25 0 44.5 -10t16.5 -31q-6 -34 -36 -61t-105 -70l71 -125q47 34 68 50t56.5 47t52.5 53t32.5 53t20.5 63q12 85 -45 137t-154 52q-14 0 -27.5 -1t-30 -5t-26.5 -6t-30.5 -9.5t-28.5 -10.5t-35 -13t-35 -13zM68 0l208 1481h1092l-49 -332
h-688l-37 -246h577l-43 -321h-579l-35 -250h694l-47 -332h-1093z" />
    <glyph glyph-name="uni1EBB" unicode="&#x1ebb;" horiz-adv-x="1189" 
d="M502 1554l57 -143q76 43 133 43q25 0 45 -10t17 -31q-6 -34 -36 -61t-106 -70l72 -125q57 42 84.5 63.5t65 57.5t55.5 70.5t24 74.5q12 85 -44.5 137t-153.5 52q-14 0 -27.5 -1t-30 -5t-26.5 -6t-30.5 -9.5t-28.5 -10.5t-35 -13t-35 -13zM432 416q-14 -91 29 -140
t119 -49q63 0 122 32.5t93 86.5l295 -72q-83 -142 -224 -218t-317 -76q-251 0 -392 148.5t-108 385.5q22 152 107.5 279.5t225.5 205.5t304 78q127 0 224.5 -45t154 -122.5t78 -180.5t4.5 -221l-14 -92h-701zM467 668h328q11 81 -24.5 130.5t-115.5 49.5q-82 0 -129.5 -49
t-58.5 -131z" />
    <glyph glyph-name="uni1EBC" unicode="&#x1ebc;" horiz-adv-x="1347" 
d="M1255 1690q-118 -58 -229 -58q-65 0 -163.5 32t-149.5 32q-28 0 -53.5 -7.5t-40.5 -16t-46.5 -29t-50.5 -31.5l-43 223q59 38 108 58t113 20q74 0 179.5 -34t142.5 -34q53 0 125 38t92 42zM68 0l208 1481h1092l-49 -332h-688l-37 -246h577l-43 -321h-579l-35 -250h694
l-47 -332h-1093z" />
    <glyph glyph-name="uni1EBD" unicode="&#x1ebd;" horiz-adv-x="1210" 
d="M1126 1266q-118 -58 -229 -58q-65 0 -163.5 32t-149.5 32q-28 0 -53.5 -7.5t-40.5 -16t-46.5 -29t-50.5 -31.5l-43 223q59 38 108 58t113 20q74 0 179.5 -34t142.5 -34q53 0 125 38t92 42zM432 416q-14 -91 29 -140t119 -49q63 0 122 32.5t93 86.5l295 -72
q-83 -142 -224 -218t-317 -76q-251 0 -392 148.5t-108 385.5q22 152 107.5 279.5t225.5 205.5t304 78q127 0 224.5 -45t154 -122.5t78 -180.5t4.5 -221l-14 -92h-701zM467 668h328q11 81 -24.5 130.5t-115.5 49.5q-82 0 -129.5 -49t-58.5 -131z" />
    <glyph glyph-name="uni1EBE" unicode="&#x1ebe;" horiz-adv-x="1347" 
d="M1137 2324l57 -251l-573 -134l-37 170zM979 1612l-107 170l-172 -170h-282l319 313h267l233 -313h-258zM68 0l208 1481h1092l-49 -332h-688l-37 -246h577l-43 -321h-579l-35 -250h694l-47 -332h-1093z" />
    <glyph glyph-name="uni1EBF" unicode="&#x1ebf;" horiz-adv-x="1189" 
d="M1006 1901l57 -252l-574 -133l-36 170zM848 1188l-107 170l-172 -170h-282l319 313h266l234 -313h-258zM432 416q-14 -91 29 -140t119 -49q63 0 122 32.5t93 86.5l295 -72q-83 -142 -224 -218t-317 -76q-251 0 -392 148.5t-108 385.5q22 152 107.5 279.5t225.5 205.5
t304 78q127 0 224.5 -45t154 -122.5t78 -180.5t4.5 -221l-14 -92h-701zM467 668h328q11 81 -24.5 130.5t-115.5 49.5q-82 0 -129.5 -49t-58.5 -131z" />
    <glyph glyph-name="uni1EC0" unicode="&#x1ec0;" horiz-adv-x="1347" 
d="M688 2324l510 -231l-70 -151l-548 139zM979 1612l-107 170l-172 -170h-282l319 313h267l233 -313h-258zM68 0l208 1481h1092l-49 -332h-688l-37 -246h577l-43 -321h-579l-35 -250h694l-47 -332h-1093z" />
    <glyph glyph-name="uni1EC1" unicode="&#x1ec1;" horiz-adv-x="1189" 
d="M557 1901l510 -232l-70 -151l-548 139zM848 1188l-107 170l-172 -170h-282l319 313h266l234 -313h-258zM432 416q-14 -91 29 -140t119 -49q63 0 122 32.5t93 86.5l295 -72q-83 -142 -224 -218t-317 -76q-251 0 -392 148.5t-108 385.5q22 152 107.5 279.5t225.5 205.5
t304 78q127 0 224.5 -45t154 -122.5t78 -180.5t4.5 -221l-14 -92h-701zM467 668h328q11 81 -24.5 130.5t-115.5 49.5q-82 0 -129.5 -49t-58.5 -131z" />
    <glyph glyph-name="uni1EC2" unicode="&#x1ec2;" horiz-adv-x="1347" 
d="M1061 2140l57 -143q76 43 133 43q25 0 45 -10t17 -31q-6 -34 -36 -61t-106 -70l72 -125q47 34 68 50t56.5 47t52.5 53t32.5 53t20.5 63q12 85 -45 137t-154 52q-14 0 -27.5 -1t-30 -5t-26.5 -6t-30.5 -9.5t-28.5 -10.5t-35 -13t-35 -13zM979 1612l-107 170l-172 -170
h-282l319 313h267l233 -313h-258zM68 0l208 1481h1092l-49 -332h-688l-37 -246h577l-43 -321h-579l-35 -250h694l-47 -332h-1093z" />
    <glyph glyph-name="uni1EC3" unicode="&#x1ec3;" horiz-adv-x="1189" 
d="M930 1716l57 -143q76 43 133 43q25 0 45 -10t17 -31q-6 -34 -36 -61t-106 -70l72 -125q57 42 84.5 63.5t65 57.5t55.5 70.5t24 74.5q12 85 -44.5 137t-153.5 52q-14 0 -27.5 -1t-30 -5t-26.5 -6t-30.5 -9.5t-28.5 -10.5t-35 -13t-35 -13zM848 1188l-107 170l-172 -170
h-282l319 313h266l234 -313h-258zM432 416q-14 -91 29 -140t119 -49q63 0 122 32.5t93 86.5l295 -72q-83 -142 -224 -218t-317 -76q-251 0 -392 148.5t-108 385.5q22 152 107.5 279.5t225.5 205.5t304 78q127 0 224.5 -45t154 -122.5t78 -180.5t4.5 -221l-14 -92h-701z
M467 668h328q11 81 -24.5 130.5t-115.5 49.5q-82 0 -129.5 -49t-58.5 -131z" />
    <glyph glyph-name="uni1EC4" unicode="&#x1ec4;" horiz-adv-x="1347" 
d="M1292 2081q-118 -58 -229 -58q-65 0 -163.5 32t-149.5 32q-28 0 -53.5 -7.5t-40.5 -16t-46.5 -29t-50.5 -31.5l-43 223q59 38 108 58t113 20q74 0 179.5 -34t142.5 -34q53 0 125 38t92 42zM979 1612l-107 170l-172 -170h-282l319 313h267l233 -313h-258zM68 0l208 1481
h1092l-49 -332h-688l-37 -246h577l-43 -321h-579l-35 -250h694l-47 -332h-1093z" />
    <glyph glyph-name="uni1EC5" unicode="&#x1ec5;" horiz-adv-x="1189" 
d="M1161 1657q-118 -58 -229 -58q-65 0 -164 32t-150 32q-28 0 -53.5 -7.5t-40 -16t-45.5 -28.5t-51 -32l-43 223q59 38 108 58t113 20q74 0 179.5 -34t142.5 -34q53 0 125 38t92 42zM848 1188l-107 170l-172 -170h-282l319 313h266l234 -313h-258zM432 416q-14 -91 29 -140
t119 -49q63 0 122 32.5t93 86.5l295 -72q-83 -142 -224 -218t-317 -76q-251 0 -392 148.5t-108 385.5q22 152 107.5 279.5t225.5 205.5t304 78q127 0 224.5 -45t154 -122.5t78 -180.5t4.5 -221l-14 -92h-701zM467 668h328q11 81 -24.5 130.5t-115.5 49.5q-82 0 -129.5 -49
t-58.5 -131z" />
    <glyph glyph-name="uni1EC6" unicode="&#x1ec6;" horiz-adv-x="1347" 
d="M979 1612l-107 170l-172 -170h-282l319 313h267l233 -313h-258zM68 0l208 1481h1092l-49 -332h-688l-37 -246h577l-43 -321h-579l-35 -250h694l-47 -332h-1093zM748 -78l-35 -252h-297l39 252h293z" />
    <glyph glyph-name="uni1EC7" unicode="&#x1ec7;" horiz-adv-x="1189" 
d="M848 1188l-107 170l-172 -170h-282l319 313h266l234 -313h-258zM432 416q-14 -91 29 -140t119 -49q63 0 122 32.5t93 86.5l295 -72q-83 -142 -224 -218t-317 -76q-251 0 -392 148.5t-108 385.5q22 152 107.5 279.5t225.5 205.5t304 78q127 0 224.5 -45t154 -122.5
t78 -180.5t4.5 -221l-14 -92h-701zM467 668h328q11 81 -24.5 130.5t-115.5 49.5q-82 0 -129.5 -49t-58.5 -131zM684 -78l-35 -252h-297l39 252h293z" />
    <glyph glyph-name="uni1EC8" unicode="&#x1ec8;" horiz-adv-x="681" 
d="M299 1978l57 -143q76 43 133 43q25 0 45 -10t17 -31q-6 -34 -36 -61t-105 -70l71 -125q47 34 68 50t56.5 47t52.5 53t32.5 53t20.5 63q12 85 -45 137t-154 52q-14 0 -27.5 -1t-30 -5t-26.5 -6t-30.5 -9.5t-28.5 -10.5t-35 -13t-35 -13zM276 1481h398l-207 -1481h-399z
" />
    <glyph glyph-name="uni1EC9" unicode="&#x1ec9;" horiz-adv-x="620" 
d="M207 1554l57 -143q76 43 133 43q25 0 45 -10t17 -31q-6 -34 -36 -61t-106 -70l72 -125q57 42 84.5 63.5t65 57.5t55.5 70.5t24 74.5q12 85 -44.5 137t-153.5 52q-14 0 -27.5 -1t-30 -5t-26.5 -6t-30.5 -9.5t-28.5 -10.5t-35 -13t-35 -13zM575 1057l-149 -1057h-397
l147 1057h399z" />
    <glyph glyph-name="uni1ECA" unicode="&#x1eca;" horiz-adv-x="681" 
d="M276 1481h398l-207 -1481h-399zM422 -78l-35 -252h-297l39 252h293z" />
    <glyph glyph-name="uni1ECB" unicode="&#x1ecb;" horiz-adv-x="598" 
d="M643 1520l-49 -334h-399l49 334h399zM575 1057l-147 -1057h-397l147 1057h397zM367 -78l-35 -252h-297l39 252h293z" />
    <glyph glyph-name="uni1ECC" unicode="&#x1ecc;" horiz-adv-x="1615" 
d="M731 -20q-330 0 -495 205t-115 552q31 229 144 402.5t289 267.5t390 94q323 0 490 -209t118 -555q-50 -346 -273 -551.5t-548 -205.5zM776 299q132 0 221.5 102.5t120.5 329.5q32 235 -27 343t-190 108q-132 0 -224 -108.5t-126 -342.5q-58 -432 225 -432zM866 -78
l-35 -252h-296l38 252h293z" />
    <glyph glyph-name="uni1ECD" unicode="&#x1ecd;" horiz-adv-x="1216" 
d="M528 -20q-245 0 -378 152t-99 390q35 247 215 401t420 154q164 0 281.5 -71.5t168.5 -197.5t29 -286q-34 -237 -212 -389.5t-425 -152.5zM567 227q45 0 82.5 31.5t61 82t38 99.5t21.5 97q9 43 6 95t-12 97t-38.5 75t-74.5 30q-46 0 -83 -29.5t-60 -77t-36.5 -94.5
t-20.5 -96q-9 -42 -7 -96t10.5 -101.5t37.5 -80t75 -32.5zM670 -78l-35 -252h-297l39 252h293z" />
    <glyph glyph-name="uni1ECE" unicode="&#x1ece;" horiz-adv-x="1552" 
d="M733 1978l58 -143q76 43 133 43q25 0 44.5 -10t16.5 -31q-6 -34 -36 -61t-105 -70l71 -125q47 34 68 50t56.5 47t52.5 53t32.5 53t20.5 63q12 85 -45 137t-154 52q-14 0 -27.5 -1t-30 -5t-26.5 -6t-30.5 -9.5t-28.5 -10.5t-35 -13t-35 -13zM731 -20q-330 0 -495 205
t-115 552q31 229 144 402.5t289 267.5t390 94q323 0 490 -209t118 -555q-50 -346 -273 -551.5t-548 -205.5zM776 299q132 0 221.5 102.5t120.5 329.5q32 235 -27 343t-190 108q-132 0 -224 -108.5t-126 -342.5q-58 -432 225 -432z" />
    <glyph glyph-name="uni1ECF" unicode="&#x1ecf;" horiz-adv-x="1204" 
d="M500 1554l57 -143q76 43 133 43q25 0 45 -10t17 -31q-6 -34 -36 -61t-106 -70l72 -125q57 42 84.5 63.5t65 57.5t55.5 70.5t24 74.5q12 85 -44.5 137t-153.5 52q-14 0 -27.5 -1t-30 -5t-26.5 -6t-30.5 -9.5t-28.5 -10.5t-35 -13t-35 -13zM528 -20q-245 0 -378 152
t-99 390q35 247 215 401t420 154q164 0 281.5 -71.5t168.5 -197.5t29 -286q-34 -237 -212 -389.5t-425 -152.5zM567 227q45 0 82.5 31.5t61 82t38 99.5t21.5 97q9 43 6 95t-12 97t-38.5 75t-74.5 30q-46 0 -83 -29.5t-60 -77t-36.5 -94.5t-20.5 -96q-9 -42 -7 -96
t10.5 -101.5t37.5 -80t75 -32.5z" />
    <glyph glyph-name="uni1ED0" unicode="&#x1ed0;" horiz-adv-x="1552" 
d="M1237 2324l57 -251l-573 -134l-37 170zM1079 1612l-106 170l-172 -170h-283l320 313h266l233 -313h-258zM731 -20q-330 0 -495 205t-115 552q31 229 144 402.5t289 267.5t390 94q323 0 490 -209t118 -555q-50 -346 -273 -551.5t-548 -205.5zM776 299q132 0 221.5 102.5
t120.5 329.5q32 235 -27 343t-190 108q-132 0 -224 -108.5t-126 -342.5q-58 -432 225 -432z" />
    <glyph glyph-name="uni1ED1" unicode="&#x1ed1;" horiz-adv-x="1204" 
d="M1004 1901l57 -252l-574 -133l-36 170zM846 1188l-107 170l-172 -170h-282l319 313h266l234 -313h-258zM528 -20q-245 0 -378 152t-99 390q35 247 215 401t420 154q164 0 281.5 -71.5t168.5 -197.5t29 -286q-34 -237 -212 -389.5t-425 -152.5zM567 227q45 0 82.5 31.5
t61 82t38 99.5t21.5 97q9 43 6 95t-12 97t-38.5 75t-74.5 30q-46 0 -83 -29.5t-60 -77t-36.5 -94.5t-20.5 -96q-9 -42 -7 -96t10.5 -101.5t37.5 -80t75 -32.5z" />
    <glyph glyph-name="uni1ED2" unicode="&#x1ed2;" horiz-adv-x="1552" 
d="M788 2324l510 -231l-69 -151l-549 139zM1079 1612l-106 170l-172 -170h-283l320 313h266l233 -313h-258zM731 -20q-330 0 -495 205t-115 552q31 229 144 402.5t289 267.5t390 94q323 0 490 -209t118 -555q-50 -346 -273 -551.5t-548 -205.5zM776 299q132 0 221.5 102.5
t120.5 329.5q32 235 -27 343t-190 108q-132 0 -224 -108.5t-126 -342.5q-58 -432 225 -432z" />
    <glyph glyph-name="uni1ED3" unicode="&#x1ed3;" horiz-adv-x="1204" 
d="M555 1901l510 -232l-70 -151l-549 139zM846 1188l-107 170l-172 -170h-282l319 313h266l234 -313h-258zM528 -20q-245 0 -378 152t-99 390q35 247 215 401t420 154q164 0 281.5 -71.5t168.5 -197.5t29 -286q-34 -237 -212 -389.5t-425 -152.5zM567 227q45 0 82.5 31.5
t61 82t38 99.5t21.5 97q9 43 6 95t-12 97t-38.5 75t-74.5 30q-46 0 -83 -29.5t-60 -77t-36.5 -94.5t-20.5 -96q-9 -42 -7 -96t10.5 -101.5t37.5 -80t75 -32.5z" />
    <glyph glyph-name="uni1ED4" unicode="&#x1ed4;" horiz-adv-x="1552" 
d="M1161 2140l58 -143q76 43 133 43q25 0 44.5 -10t16.5 -31q-6 -34 -36 -61t-105 -70l71 -125q47 34 68 50t56.5 47t52.5 53t32.5 53t20.5 63q12 85 -45 137t-154 52q-14 0 -27.5 -1t-30 -5t-26.5 -6t-30.5 -9.5t-28.5 -10.5t-35 -13t-35 -13zM1079 1612l-106 170
l-172 -170h-283l320 313h266l233 -313h-258zM731 -20q-330 0 -495 205t-115 552q31 229 144 402.5t289 267.5t390 94q323 0 490 -209t118 -555q-50 -346 -273 -551.5t-548 -205.5zM776 299q132 0 221.5 102.5t120.5 329.5q32 235 -27 343t-190 108q-132 0 -224 -108.5
t-126 -342.5q-58 -432 225 -432z" />
    <glyph glyph-name="uni1ED5" unicode="&#x1ed5;" horiz-adv-x="1204" 
d="M928 1716l57 -143q76 43 133 43q25 0 45 -10t17 -31q-6 -34 -36 -61t-106 -70l72 -125q57 42 84.5 63.5t65 57.5t55.5 70.5t24 74.5q12 85 -44.5 137t-153.5 52q-14 0 -27.5 -1t-30 -5t-26.5 -6t-30.5 -9.5t-28.5 -10.5t-35 -13t-35 -13zM846 1188l-107 170l-172 -170
h-282l319 313h266l234 -313h-258zM528 -20q-245 0 -378 152t-99 390q35 247 215 401t420 154q164 0 281.5 -71.5t168.5 -197.5t29 -286q-34 -237 -212 -389.5t-425 -152.5zM567 227q45 0 82.5 31.5t61 82t38 99.5t21.5 97q9 43 6 95t-12 97t-38.5 75t-74.5 30
q-46 0 -83 -29.5t-60 -77t-36.5 -94.5t-20.5 -96q-9 -42 -7 -96t10.5 -101.5t37.5 -80t75 -32.5z" />
    <glyph glyph-name="uni1ED6" unicode="&#x1ed6;" horiz-adv-x="1552" 
d="M1393 2081q-118 -58 -230 -58q-65 0 -163.5 32t-149.5 32q-28 0 -53.5 -7.5t-40.5 -16t-46.5 -29t-50.5 -31.5l-43 223q58 38 108 58t114 20q74 0 179 -34t142 -34q53 0 125 38t92 42zM1079 1612l-106 170l-172 -170h-283l320 313h266l233 -313h-258zM731 -20
q-330 0 -495 205t-115 552q31 229 144 402.5t289 267.5t390 94q323 0 490 -209t118 -555q-50 -346 -273 -551.5t-548 -205.5zM776 299q132 0 221.5 102.5t120.5 329.5q32 235 -27 343t-190 108q-132 0 -224 -108.5t-126 -342.5q-58 -432 225 -432z" />
    <glyph glyph-name="uni1ED7" unicode="&#x1ed7;" horiz-adv-x="1204" 
d="M1159 1657q-118 -58 -229 -58q-65 0 -164 32t-150 32q-28 0 -53.5 -7.5t-40 -16t-45.5 -28.5t-51 -32l-43 223q59 38 108 58t113 20q74 0 179.5 -34t142.5 -34q53 0 125 38t92 42zM846 1188l-107 170l-172 -170h-282l319 313h266l234 -313h-258zM528 -20q-245 0 -378 152
t-99 390q35 247 215 401t420 154q164 0 281.5 -71.5t168.5 -197.5t29 -286q-34 -237 -212 -389.5t-425 -152.5zM567 227q45 0 82.5 31.5t61 82t38 99.5t21.5 97q9 43 6 95t-12 97t-38.5 75t-74.5 30q-46 0 -83 -29.5t-60 -77t-36.5 -94.5t-20.5 -96q-9 -42 -7 -96
t10.5 -101.5t37.5 -80t75 -32.5z" />
    <glyph glyph-name="uni1ED8" unicode="&#x1ed8;" horiz-adv-x="1552" 
d="M1079 1612l-106 170l-172 -170h-283l320 313h266l233 -313h-258zM731 -20q-330 0 -495 205t-115 552q31 229 144 402.5t289 267.5t390 94q323 0 490 -209t118 -555q-50 -346 -273 -551.5t-548 -205.5zM776 299q132 0 221.5 102.5t120.5 329.5q32 235 -27 343t-190 108
q-132 0 -224 -108.5t-126 -342.5q-58 -432 225 -432zM854 -78l-35 -252h-297l39 252h293z" />
    <glyph glyph-name="uni1ED9" unicode="&#x1ed9;" horiz-adv-x="1204" 
d="M846 1188l-107 170l-172 -170h-282l319 313h266l234 -313h-258zM528 -20q-245 0 -378 152t-99 390q35 247 215 401t420 154q164 0 281.5 -71.5t168.5 -197.5t29 -286q-34 -237 -212 -389.5t-425 -152.5zM567 227q45 0 82.5 31.5t61 82t38 99.5t21.5 97q9 43 6 95t-12 97
t-38.5 75t-74.5 30q-46 0 -83 -29.5t-60 -77t-36.5 -94.5t-20.5 -96q-9 -42 -7 -96t10.5 -101.5t37.5 -80t75 -32.5zM670 -78l-35 -252h-297l39 252h293z" />
    <glyph glyph-name="uni1EDA" unicode="&#x1eda;" horiz-adv-x="1513" 
d="M1253 1681l-573 -133l-37 170l553 215zM1337 1384q132 -96 188.5 -263t26.5 -384q-50 -346 -273 -551.5t-548 -205.5q-330 0 -495 205t-115 552q31 229 144 402.5t289 267.5t390 94q89 0 158 -14q127 11 182 119h234q-63 -146 -181 -222zM1118 731q32 235 -27 343
t-190 108q-132 0 -224 -108.5t-126 -342.5q-58 -432 225 -432q132 0 221.5 102.5t120.5 329.5z" />
    <glyph glyph-name="uni1EDB" unicode="&#x1edb;" horiz-adv-x="1183" 
d="M1022 1257l-573 -133l-37 170l553 215zM1036 954q80 -76 114 -187t15 -245q-34 -237 -212 -389.5t-425 -152.5q-245 0 -378 152t-99 390q35 247 215 401t420 154q84 0 158 -18q83 28 125 106h233q-56 -135 -166 -211zM770 537q9 43 6 95t-12 97t-38.5 75t-74.5 30
q-46 0 -83 -29.5t-60 -77t-36.5 -94.5t-20.5 -96q-9 -42 -7 -96t10.5 -101.5t37.5 -80t75 -32.5q45 0 82.5 31.5t61 82t38 99.5t21.5 97z" />
    <glyph glyph-name="uni1EDC" unicode="&#x1edc;" horiz-adv-x="1513" 
d="M1257 1702l-69 -152l-549 140l109 243zM1337 1384q132 -96 188.5 -263t26.5 -384q-50 -346 -273 -551.5t-548 -205.5q-330 0 -495 205t-115 552q31 229 144 402.5t289 267.5t390 94q89 0 158 -14q127 11 182 119h234q-63 -146 -181 -222zM1118 731q32 235 -27 343
t-190 108q-132 0 -224 -108.5t-126 -342.5q-58 -432 225 -432q132 0 221.5 102.5t120.5 329.5z" />
    <glyph glyph-name="uni1EDD" unicode="&#x1edd;" horiz-adv-x="1183" 
d="M1036 954q80 -76 114 -187t15 -245q-34 -237 -212 -389.5t-425 -152.5q-245 0 -378 152t-99 390q35 247 215 401t420 154q84 0 158 -18q61 20 102 69l-538 138l108 243l510 -231l-51 -113h227q-56 -135 -166 -211zM770 537q9 43 6 95t-12 97t-38.5 75t-74.5 30
q-46 0 -83 -29.5t-60 -77t-36.5 -94.5t-20.5 -96q-9 -42 -7 -96t10.5 -101.5t37.5 -80t75 -32.5q45 0 82.5 31.5t61 82t38 99.5t21.5 97z" />
    <glyph glyph-name="uni1EDE" unicode="&#x1ede;" horiz-adv-x="1513" 
d="M918 1878q-58 0 -134 -43l-57 143q8 3 35 13t35 13t28.5 10.5t30.5 9.5t26.5 6t30 5t27.5 1q97 0 154 -52t45 -137q-5 -32 -20.5 -63t-32.5 -53t-52.5 -53t-56.5 -47t-68 -50l-71 125q75 43 105 70t36 61q3 21 -16.5 31t-44.5 10zM1337 1384q132 -96 188.5 -263
t26.5 -384q-50 -346 -273 -551.5t-548 -205.5q-330 0 -495 205t-115 552q31 229 144 402.5t289 267.5t390 94q89 0 158 -14q127 11 182 119h234q-63 -146 -181 -222zM1118 731q32 235 -27 343t-190 108q-132 0 -224 -108.5t-126 -342.5q-58 -432 225 -432q132 0 221.5 102.5
t120.5 329.5z" />
    <glyph glyph-name="uni1EDF" unicode="&#x1edf;" horiz-adv-x="1183" 
d="M686 1454q-57 0 -133 -43l-57 143q8 3 35 13t35 13t28.5 10.5t30.5 9.5t26.5 6t30 5t27.5 1q97 0 153.5 -52t44.5 -137q-6 -40 -24 -74.5t-55.5 -70.5t-65 -57.5t-84.5 -63.5l-72 125q76 43 106 70t36 61q3 21 -17 31t-45 10zM1036 954q80 -76 114 -187t15 -245
q-34 -237 -212 -389.5t-425 -152.5q-245 0 -378 152t-99 390q35 247 215 401t420 154q84 0 158 -18q83 28 125 106h233q-56 -135 -166 -211zM770 537q9 43 6 95t-12 97t-38.5 75t-74.5 30q-46 0 -83 -29.5t-60 -77t-36.5 -94.5t-20.5 -96q-9 -42 -7 -96t10.5 -101.5
t37.5 -80t75 -32.5q45 0 82.5 31.5t61 82t38 99.5t21.5 97z" />
    <glyph glyph-name="uni1EE0" unicode="&#x1ee0;" horiz-adv-x="1513" 
d="M809 1696q-28 0 -53.5 -7.5t-40.5 -16t-46.5 -29t-50.5 -31.5l-43 223q58 38 108 58t114 20q74 0 179 -34t142 -34q53 0 125 38t92 42l17 -235q-118 -58 -230 -58q-65 0 -163.5 32t-149.5 32zM1337 1384q132 -96 188.5 -263t26.5 -384q-50 -346 -273 -551.5t-548 -205.5
q-330 0 -495 205t-115 552q31 229 144 402.5t289 267.5t390 94q89 0 158 -14q127 11 182 119h234q-63 -146 -181 -222zM1118 731q32 235 -27 343t-190 108q-132 0 -224 -108.5t-126 -342.5q-58 -432 225 -432q132 0 221.5 102.5t120.5 329.5z" />
    <glyph glyph-name="uni1EE1" unicode="&#x1ee1;" horiz-adv-x="1183" 
d="M578 1272q-28 0 -53.5 -7.5t-40.5 -16t-46.5 -29t-50.5 -31.5l-43 223q59 38 108 58t113 20q74 0 179.5 -34t142.5 -34q53 0 125 38t92 42l16 -235q-118 -58 -229 -58q-65 0 -163.5 32t-149.5 32zM1036 954q80 -76 114 -187t15 -245q-34 -237 -212 -389.5t-425 -152.5
q-245 0 -378 152t-99 390q35 247 215 401t420 154q84 0 158 -18q83 28 125 106h233q-56 -135 -166 -211zM770 537q9 43 6 95t-12 97t-38.5 75t-74.5 30q-46 0 -83 -29.5t-60 -77t-36.5 -94.5t-20.5 -96q-9 -42 -7 -96t10.5 -101.5t37.5 -80t75 -32.5q45 0 82.5 31.5t61 82
t38 99.5t21.5 97z" />
    <glyph glyph-name="uni1EE2" unicode="&#x1ee2;" horiz-adv-x="1513" 
d="M1337 1384q132 -96 188.5 -263t26.5 -384q-50 -346 -273 -551.5t-548 -205.5q-330 0 -495 205t-115 552q31 229 144 402.5t289 267.5t390 94q89 0 158 -14q127 11 182 119h234q-63 -146 -181 -222zM1118 731q32 235 -27 343t-190 108q-132 0 -224 -108.5t-126 -342.5
q-58 -432 225 -432q132 0 221.5 102.5t120.5 329.5zM524 -330l39 252h293l-35 -252h-297z" />
    <glyph glyph-name="uni1EE3" unicode="&#x1ee3;" horiz-adv-x="1183" 
d="M1036 954q80 -76 114 -187t15 -245q-34 -237 -212 -389.5t-425 -152.5q-245 0 -378 152t-99 390q35 247 215 401t420 154q84 0 158 -18q83 28 125 106h233q-56 -135 -166 -211zM770 537q9 43 6 95t-12 97t-38.5 75t-74.5 30q-46 0 -83 -29.5t-60 -77t-36.5 -94.5
t-20.5 -96q-9 -42 -7 -96t10.5 -101.5t37.5 -80t75 -32.5q45 0 82.5 31.5t61 82t38 99.5t21.5 97zM340 -330l39 252h293l-35 -252h-297z" />
    <glyph glyph-name="uni1EE4" unicode="&#x1ee4;" horiz-adv-x="1517" 
d="M1432 612q-21 -147 -71 -259t-135 -197.5t-217 -130.5t-307 -45q-117 0 -209.5 20.5t-156 59.5t-107 94.5t-63 126t-23.5 154t11 177.5l122 869h402l-123 -887q-11 -73 0 -129t40 -88t68 -48t87 -16q102 0 178 69t98 212l123 887h403zM782 -78l-34 -252h-297l38 252h293z
" />
    <glyph glyph-name="uni1EE5" unicode="&#x1ee5;" horiz-adv-x="1245" 
d="M381 -20q-65 0 -125 22.5t-105 63.5t-67 105.5t-12 141.5l104 744h399l-100 -707q-6 -49 23 -79.5t88 -30.5q58 0 94.5 30.5t42.5 79.5l100 707h402l-156 -1057h-293l-26 180q-66 -97 -173.5 -148.5t-195.5 -51.5zM690 -78l-35 -252h-297l39 252h293z" />
    <glyph glyph-name="uni1EE6" unicode="&#x1ee6;" horiz-adv-x="1536" 
d="M690 1978l58 -143q76 43 133 43q25 0 44.5 -10t16.5 -31q-6 -34 -36 -61t-105 -70l71 -125q47 34 68 50t56.5 47t52.5 53t32.5 53t20.5 63q12 85 -45 137t-154 52q-14 0 -27.5 -1t-30 -5t-26.5 -6t-30.5 -9.5t-28.5 -10.5t-35 -13t-35 -13zM1432 612q-21 -147 -71 -259
t-135 -197.5t-217 -130.5t-307 -45q-117 0 -209.5 20.5t-156 59.5t-107 94.5t-63 126t-23.5 154t11 177.5l122 869h402l-123 -887q-11 -73 0 -129t40 -88t68 -48t87 -16q102 0 178 69t98 212l123 887h403z" />
    <glyph glyph-name="uni1EE7" unicode="&#x1ee7;" horiz-adv-x="1245" 
d="M524 1554l58 -143q76 43 133 43q25 0 44.5 -10t16.5 -31q-6 -34 -36 -61t-105 -70l72 -125q57 42 84.5 63.5t65 57.5t55.5 70.5t24 74.5q12 85 -45 137t-154 52q-14 0 -27.5 -1t-30 -5t-26.5 -6t-30.5 -9.5t-28.5 -10.5t-35 -13t-35 -13zM381 -20q-65 0 -125 22.5
t-105 63.5t-67 105.5t-12 141.5l104 744h399l-100 -707q-6 -49 23 -79.5t88 -30.5q58 0 94.5 30.5t42.5 79.5l100 707h402l-156 -1057h-293l-26 180q-66 -97 -173.5 -148.5t-195.5 -51.5z" />
    <glyph glyph-name="uni1EE8" unicode="&#x1ee8;" horiz-adv-x="1497" 
d="M1237 1681l-573 -133l-37 170l553 215zM1937 1612q-59 -138 -167 -211.5t-240 -83.5l-98 -705q-21 -147 -71 -259t-135 -197.5t-217 -130.5t-307 -45q-117 0 -209.5 20.5t-156 59.5t-107 94.5t-63 126t-23.5 154t11 177.5l122 869h402l-123 -887q-11 -73 0 -129t40 -88
t68 -48t87 -16q102 0 178 69t98 212l123 887h346v10q62 0 119 29t90 92h233z" />
    <glyph glyph-name="uni1EE9" unicode="&#x1ee9;" horiz-adv-x="1261" 
d="M1010 1257l-574 -133l-37 170l553 215zM1477 1176q-85 -199 -275 -267l-133 -909h-293l-26 180q-66 -97 -173.5 -148.5t-195.5 -51.5q-65 0 -125 22.5t-105 63.5t-67 105.5t-12 141.5l104 744h399l-100 -707q-6 -49 23 -79.5t88 -30.5q58 0 94.5 30.5t42.5 79.5l100 707
h244q121 15 176 119h234z" />
    <glyph glyph-name="uni1EEA" unicode="&#x1eea;" horiz-adv-x="1497" 
d="M1241 1702l-70 -152l-548 140l108 243zM1937 1612q-59 -138 -167 -211.5t-240 -83.5l-98 -705q-21 -147 -71 -259t-135 -197.5t-217 -130.5t-307 -45q-117 0 -209.5 20.5t-156 59.5t-107 94.5t-63 126t-23.5 154t11 177.5l122 869h402l-123 -887q-11 -73 0 -129t40 -88
t68 -48t87 -16q102 0 178 69t98 212l123 887h346v10q62 0 119 29t90 92h233z" />
    <glyph glyph-name="uni1EEB" unicode="&#x1eeb;" horiz-adv-x="1261" 
d="M1012 1278l-70 -152l-549 140l109 243zM1477 1176q-85 -199 -275 -267l-133 -909h-293l-26 180q-66 -97 -173.5 -148.5t-195.5 -51.5q-65 0 -125 22.5t-105 63.5t-67 105.5t-12 141.5l104 744h399l-100 -707q-6 -49 23 -79.5t88 -30.5q58 0 94.5 30.5t42.5 79.5l100 707
h244q121 15 176 119h234z" />
    <glyph glyph-name="uni1EEC" unicode="&#x1eec;" horiz-adv-x="1497" 
d="M901 1878q-57 0 -133 -43l-57 143q8 3 35 13t35 13t28.5 10.5t30.5 9.5t26.5 6t30 5t27.5 1q97 0 153.5 -52t44.5 -137q-6 -40 -24 -74.5t-55.5 -70.5t-65 -57.5t-84.5 -63.5l-72 125q76 43 106 70t36 61q3 21 -17 31t-45 10zM1937 1612q-59 -138 -167 -211.5t-240 -83.5
l-98 -705q-21 -147 -71 -259t-135 -197.5t-217 -130.5t-307 -45q-117 0 -209.5 20.5t-156 59.5t-107 94.5t-63 126t-23.5 154t11 177.5l122 869h402l-123 -887q-11 -73 0 -129t40 -88t68 -48t87 -16q102 0 178 69t98 212l123 887h346v10q62 0 119 29t90 92h233z" />
    <glyph glyph-name="uni1EED" unicode="&#x1eed;" horiz-adv-x="1261" 
d="M686 1454q-57 0 -133 -43l-57 143q8 3 35 13t35 13t28.5 10.5t30.5 9.5t26.5 6t30 5t27.5 1q97 0 153.5 -52t44.5 -137q-6 -40 -24 -74.5t-55.5 -70.5t-65 -57.5t-84.5 -63.5l-72 125q76 43 106 70t36 61q3 21 -17 31t-45 10zM1477 1176q-85 -199 -275 -267l-133 -909
h-293l-26 180q-66 -97 -173.5 -148.5t-195.5 -51.5q-65 0 -125 22.5t-105 63.5t-67 105.5t-12 141.5l104 744h399l-100 -707q-6 -49 23 -79.5t88 -30.5q58 0 94.5 30.5t42.5 79.5l100 707h244q121 15 176 119h234z" />
    <glyph glyph-name="uni1EEE" unicode="&#x1eee;" horiz-adv-x="1497" 
d="M793 1696q-28 0 -53.5 -7.5t-40.5 -16t-46.5 -29t-50.5 -31.5l-43 223q59 38 108 58t113 20q74 0 179.5 -34t142.5 -34q53 0 125 38t92 42l16 -235q-118 -58 -229 -58q-65 0 -163.5 32t-149.5 32zM1937 1612q-59 -138 -167 -211.5t-240 -83.5l-98 -705q-21 -147 -71 -259
t-135 -197.5t-217 -130.5t-307 -45q-117 0 -209.5 20.5t-156 59.5t-107 94.5t-63 126t-23.5 154t11 177.5l122 869h402l-123 -887q-11 -73 0 -129t40 -88t68 -48t87 -16q102 0 178 69t98 212l123 887h346v10q62 0 119 29t90 92h233z" />
    <glyph glyph-name="uni1EEF" unicode="&#x1eef;" horiz-adv-x="1261" 
d="M563 1272q-28 0 -53.5 -7.5t-40 -16t-45.5 -28.5t-51 -32l-43 223q59 38 108 58t113 20q74 0 179 -34t142 -34q53 0 125.5 38t92.5 42l16 -235q-118 -58 -229 -58q-65 0 -164 32t-150 32zM1477 1176q-85 -199 -275 -267l-133 -909h-293l-26 180q-66 -97 -173.5 -148.5
t-195.5 -51.5q-65 0 -125 22.5t-105 63.5t-67 105.5t-12 141.5l104 744h399l-100 -707q-6 -49 23 -79.5t88 -30.5q58 0 94.5 30.5t42.5 79.5l100 707h244q121 15 176 119h234z" />
    <glyph glyph-name="uni1EF0" unicode="&#x1ef0;" horiz-adv-x="1497" 
d="M1937 1612q-59 -138 -167 -211.5t-240 -83.5l-98 -705q-21 -147 -71 -259t-135 -197.5t-217 -130.5t-307 -45q-117 0 -209.5 20.5t-156 59.5t-107 94.5t-63 126t-23.5 154t11 177.5l122 869h402l-123 -887q-11 -73 0 -129t40 -88t68 -48t87 -16q102 0 178 69t98 212
l123 887h346v10q62 0 119 29t90 92h233zM500 -330l39 252h292l-34 -252h-297z" />
    <glyph glyph-name="uni1EF1" unicode="&#x1ef1;" horiz-adv-x="1261" 
d="M1477 1176q-85 -199 -275 -267l-133 -909h-293l-26 180q-66 -97 -173.5 -148.5t-195.5 -51.5q-65 0 -125 22.5t-105 63.5t-67 105.5t-12 141.5l104 744h399l-100 -707q-6 -49 23 -79.5t88 -30.5q58 0 94.5 30.5t42.5 79.5l100 707h244q121 15 176 119h234zM328 -330
l39 252h292l-34 -252h-297z" />
    <glyph glyph-name="Ygrave" unicode="&#x1ef2;" horiz-adv-x="1470" 
d="M750 1933l510 -231l-70 -152l-549 140zM1591 1481l-647 -865l-86 -616h-399l86 616l-402 865h430l220 -527l364 527h434z" />
    <glyph glyph-name="ygrave" unicode="&#x1ef3;" horiz-adv-x="1202" 
d="M553 1509l510 -231l-70 -152l-549 140zM199 -338q-73 0 -129.5 11t-76.5 23l-20 11l37 254l103 -8q30 -4 56 -1.5t45.5 3.5t37 7.5t29.5 11t22.5 13t16.5 13.5t11.5 13.5t7.5 12t5 9.5l2 6l4 20l-270 996h391l121 -574l289 574h389l-553 -996q-67 -122 -131.5 -202.5
t-129 -122.5t-123.5 -58t-134 -16z" />
    <glyph glyph-name="uni1EF4" unicode="&#x1ef4;" horiz-adv-x="1425" 
d="M1591 1481l-647 -865l-86 -616h-399l86 616l-402 865h430l220 -527l364 527h434zM805 -78l-35 -252h-297l39 252h293z" />
    <glyph glyph-name="uni1EF5" unicode="&#x1ef5;" horiz-adv-x="1122" 
d="M199 -338q-73 0 -129.5 11t-76.5 23l-20 11l37 254l103 -8q30 -4 56 -1.5t45.5 3.5t37 7.5t29.5 11t22.5 13t16.5 13.5t11.5 13.5t7.5 12t5 9.5l2 6l4 20l-270 996h391l121 -574l289 574h389l-553 -996q-67 -122 -131.5 -202.5t-129 -122.5t-123.5 -58t-134 -16z
M1047 -78l-35 -252h-297l39 252h293z" />
    <glyph glyph-name="uni1EF6" unicode="&#x1ef6;" horiz-adv-x="1443" 
d="M729 1978l57 -143q76 43 134 43q25 0 44.5 -10t16.5 -31q-6 -34 -36 -61t-105 -70l71 -125q47 34 68 50t56.5 47t52.5 53t32.5 53t20.5 63q12 85 -45 137t-154 52q-14 0 -27.5 -1t-30 -5t-26.5 -6t-30.5 -9.5t-28.5 -10.5t-35 -13t-35 -13zM1591 1481l-647 -865l-86 -616
h-399l86 616l-402 865h430l220 -527l364 527h434z" />
    <glyph glyph-name="uni1EF7" unicode="&#x1ef7;" horiz-adv-x="1202" 
d="M547 1554l57 -143q76 43 133 43q25 0 45 -10t17 -31q-6 -34 -36 -61t-106 -70l72 -125q57 42 84.5 63.5t65 57.5t55.5 70.5t24 74.5q12 85 -44.5 137t-153.5 52q-14 0 -27.5 -1t-30 -5t-26.5 -6t-30.5 -9.5t-28.5 -10.5t-35 -13t-35 -13zM199 -338q-73 0 -129.5 11
t-76.5 23l-20 11l37 254l103 -8q30 -4 56 -1.5t45.5 3.5t37 7.5t29.5 11t22.5 13t16.5 13.5t11.5 13.5t7.5 12t5 9.5l2 6l4 20l-270 996h391l121 -574l289 574h389l-553 -996q-67 -122 -131.5 -202.5t-129 -122.5t-123.5 -58t-134 -16z" />
    <glyph glyph-name="uni1EF8" unicode="&#x1ef8;" horiz-adv-x="1470" 
d="M1354 1690q-118 -58 -230 -58q-65 0 -163.5 32t-149.5 32q-28 0 -53.5 -7.5t-40 -16t-45.5 -28.5t-51 -32l-43 223q59 38 108 58t113 20q74 0 179 -34t142 -34q53 0 125 38t92 42zM1591 1481l-647 -865l-86 -616h-399l86 616l-402 865h430l220 -527l364 527h434z" />
    <glyph glyph-name="uni1EF9" unicode="&#x1ef9;" horiz-adv-x="1202" 
d="M1157 1266q-118 -58 -229 -58q-65 0 -164 32t-150 32q-28 0 -53.5 -7.5t-40 -16t-45.5 -28.5t-51 -32l-43 223q59 38 108 58t113 20q74 0 179.5 -34t142.5 -34q53 0 125 38t92 42zM199 -338q-73 0 -129.5 11t-76.5 23l-20 11l37 254l103 -8q30 -4 56 -1.5t45.5 3.5
t37 7.5t29.5 11t22.5 13t16.5 13.5t11.5 13.5t7.5 12t5 9.5l2 6l4 20l-270 996h391l121 -574l289 574h389l-553 -996q-67 -122 -131.5 -202.5t-129 -122.5t-123.5 -58t-134 -16z" />
    <glyph glyph-name="endash" unicode="&#x2013;" horiz-adv-x="1277" 
d="M1163 645l-35 -280h-1042l39 280h1038z" />
    <glyph glyph-name="emdash" unicode="&#x2014;" horiz-adv-x="1927" 
d="M1815 645l-37 -280h-1692l39 280h1690z" />
    <glyph glyph-name="quoteleft" unicode="&#x2018;" horiz-adv-x="583" 
d="M559 1542l-168 -303l117 -12l-47 -346h-363l43 305l285 356h133z" />
    <glyph glyph-name="quoteright" unicode="&#x2019;" horiz-adv-x="583" 
d="M143 819l168 303l-116 13l47 346h362l-43 -305l-285 -357h-133z" />
    <glyph glyph-name="quotesinglbase" unicode="&#x201a;" horiz-adv-x="577" 
d="M-16 -309l170 295l-125 18l49 346h362l-41 -289l-299 -370h-116z" />
    <glyph glyph-name="quotedblleft" unicode="&#x201c;" horiz-adv-x="1095" 
d="M133 819l45 307l285 355h131l-164 -301l117 -15l-49 -346h-365zM645 819l43 307l287 355h131l-166 -301l119 -15l-51 -346h-363z" />
    <glyph glyph-name="quotedblright" unicode="&#x201d;" horiz-adv-x="1146" 
d="M143 819l168 303l-116 13l47 346h362l-43 -305l-285 -357h-133zM655 819l168 303l-118 13l47 346h364l-45 -305l-285 -357h-131z" />
    <glyph glyph-name="quotedblbase" unicode="&#x201e;" horiz-adv-x="1304" 
d="M43 -309l211 295l-123 18l98 346h363l-82 -289l-350 -370h-117zM567 -309l211 295l-123 18l99 346h362l-82 -289l-350 -370h-117z" />
    <glyph glyph-name="dagger" unicode="&#x2020;" horiz-adv-x="1183" 
d="M1143 1049l-45 -334l-369 55l-82 -1100h-371l228 1094l-383 -57l45 337l362 -55l4 492h373l-131 -484z" />
    <glyph glyph-name="daggerdbl" unicode="&#x2021;" horiz-adv-x="1185" 
d="M727 729l-55 -383l383 57l-47 -337l-363 53l2 -449h-375l125 443l-368 -54l47 336l364 -55l56 383l-381 -59l45 337l360 -53l12 533h373l-137 -527l371 54l-47 -336z" />
    <glyph glyph-name="bullet" unicode="&#x2022;" horiz-adv-x="786" 
d="M383 444q-132 0 -214 97.5t-63 232.5q17 120 113.5 202.5t218.5 82.5q132 0 214.5 -97.5t62.5 -230.5q-17 -120 -113.5 -203.5t-218.5 -83.5z" />
    <glyph glyph-name="ellipsis" unicode="&#x2026;" horiz-adv-x="2031" 
d="M551 401l-55 -401h-420l55 401h420zM1268 401l-56 -401h-419l55 401h420zM1985 401l-56 -401h-420l56 401h420z" />
    <glyph glyph-name="perthousand" unicode="&#x2030;" horiz-adv-x="2854" 
d="M600 1503q110 0 196.5 -64t126 -166.5t23.5 -215.5q-22 -157 -147 -274t-283 -117q-113 0 -201 62t-128.5 162t-24.5 212q15 103 78.5 195t159.5 149t200 57zM1810 1497l-1210 -1505l-242 4l1211 1501h241zM508 862q125 0 156 238q16 106 3 157.5t-65 51.5
q-121 0 -158 -254q-15 -98 -2 -145.5t66 -47.5zM1516 815q110 0 196.5 -63.5t126 -165.5t23.5 -215q-22 -157 -148 -274t-284 -117q-113 0 -200.5 62t-127.5 162t-25 212q24 159 152.5 279t286.5 120zM2384 815q111 0 198 -63.5t126.5 -165.5t23.5 -215q-24 -157 -149 -274
t-283 -117q-113 0 -201 62t-127.5 162t-23.5 212q15 103 78 194.5t158.5 148t199.5 56.5zM1423 176q66 0 102 59t54 179q17 106 5 157.5t-64 51.5q-126 0 -158 -254q-17 -98 -4.5 -145.5t65.5 -47.5zM2294 176q65 0 101 59t54 179q16 106 3.5 157.5t-64.5 51.5
q-121 0 -158 -254q-16 -98 -2.5 -145.5t66.5 -47.5z" />
    <glyph glyph-name="guilsinglleft" unicode="&#x2039;" horiz-adv-x="696" 
d="M406 494l77 -375h-192l-172 409l264 396h225z" />
    <glyph glyph-name="guilsinglright" unicode="&#x203a;" horiz-adv-x="696" 
d="M266 528l-73 396h190l170 -430l-264 -375h-223z" />
    <glyph glyph-name="fraction" unicode="&#x2044;" horiz-adv-x="569" 
d="M1024 1497l-1210 -1505l-242 4l1210 1501h242z" />
    <glyph glyph-name="uni2070" unicode="&#x2070;" horiz-adv-x="878" 
d="M596 1731q178 0 270 -136.5t62 -347.5q-30 -209 -158 -341t-309 -132t-273.5 132t-62.5 341q30 211 160.5 347.5t310.5 136.5zM487 971q70 0 106 61t58 215q23 157 3.5 223t-87.5 66q-67 0 -106 -66.5t-62 -222.5q-20 -152 -0.5 -214t88.5 -62z" />
    <glyph glyph-name="uni2074" unicode="&#x2074;" horiz-adv-x="882" 
d="M602 1710h248l-78 -543h133l-24 -190h-136l-28 -199h-252l31 199h-408l25 182zM324 1167h200l41 281z" />
    <glyph glyph-name="uni2075" unicode="&#x2075;" horiz-adv-x="851" 
d="M311 1710h637l-39 -201h-434l-37 -155q125 32 189 32q154 0 235.5 -81t61.5 -224q-22 -149 -136.5 -232t-293.5 -83q-143 0 -248 55t-144 144l203 127q20 -33 35 -52t37.5 -39.5t50.5 -30t64 -9.5q66 0 108.5 32t50.5 80q5 48 -25.5 81.5t-99.5 33.5q-50 0 -129 -35
q-13 -6 -19 -5.5t-18 7.5l-157 90z" />
    <glyph glyph-name="uni2076" unicode="&#x2076;" horiz-adv-x="851" 
d="M606 1731q69 0 128.5 -23t96.5 -58.5t58.5 -74.5t23.5 -74l-225 -61q-21 49 -43 72.5t-65 23.5q-78 0 -123.5 -58t-50.5 -155q79 28 115.5 35.5t78.5 7.5q146 0 226 -77t61 -199q-19 -134 -140 -223t-286 -89q-189 0 -279.5 123.5t-62.5 329.5q32 233 164 366.5
t323 133.5zM510 1186q-29 0 -63.5 -10t-53.5 -21q-14 -11 -16 -37q-12 -74 15.5 -115.5t84.5 -41.5q48 0 87 33.5t46 84.5t-22.5 79t-77.5 28z" />
    <glyph glyph-name="uni2077" unicode="&#x2077;" horiz-adv-x="780" 
d="M223 1710h733l-34 -258q-129 -121 -250 -318t-140 -356h-268q8 55 35 132.5t76 175t133.5 210.5t189.5 213h-501z" />
    <glyph glyph-name="uni2078" unicode="&#x2078;" horiz-adv-x="854" 
d="M584 1731q157 0 248.5 -76t74.5 -187q-5 -39 -25.5 -71.5t-48.5 -52t-50 -30.5t-40 -16l15 -9q26 -15 40.5 -24.5t38.5 -31.5t35.5 -43t18.5 -55t2 -74q-20 -136 -142 -211.5t-309 -75.5q-172 0 -268.5 63t-79.5 177q18 145 197 205q0 1 -15.5 11t-33 27t-35.5 40.5
t-27 59.5t-4 77q20 125 130.5 211t277.5 86zM563 1548q-46 0 -78 -21.5t-36 -58.5q-3 -24 9.5 -43t39.5 -28l75 -29q32 -11 67 21.5t40 68.5q5 37 -25.5 63.5t-91.5 26.5zM485 956q58 0 91 21.5t38 58.5q3 28 -10 48.5t-59 37.5l-84 31q-36 12 -76 -17t-47 -77
q-6 -49 28 -76t119 -27z" />
    <glyph glyph-name="uni2079" unicode="&#x2079;" horiz-adv-x="860" 
d="M438 778q-133 0 -218 75.5t-87 154.5l221 63q22 -52 45 -76t66 -24q77 0 126 64t46 149q-79 -43 -193 -43q-145 0 -223 77t-63 201q20 134 140.5 223t285.5 89q191 0 282.5 -124t63.5 -329q-32 -232 -166 -366t-326 -134zM535 1321q42 0 86.5 25t46.5 45q12 79 -15.5 118
t-85.5 39q-50 0 -88.5 -33t-44.5 -85q-8 -52 22.5 -80.5t78.5 -28.5z" />
    <glyph glyph-name="colonmonetary" unicode="&#x20a1;" horiz-adv-x="1300" 
d="M1231 1481l-131 -338q96 -116 80 -264l-351 -41q-1 25 -2 41.5t-4.5 42.5t-11 43t-19 34.5t-30 26t-43.5 8.5q-76 0 -135 -83t-78 -212q-17 -131 21.5 -213t115.5 -82q29 0 53.5 13t40.5 31t31 45t22 45.5t15 42.5l325 -43q-18 -95 -90 -183.5t-182 -142.5l-102 -250
l-201 6l72 182h-31q-52 0 -98 9l-82 -197l-199 6l100 258q-110 70 -163.5 191.5t-32.5 277.5q29 201 162.5 345.5t320.5 189.5l84 205l205 6l-78 -197q61 -5 123 -29l90 220z" />
    <glyph glyph-name="franc" unicode="&#x20a3;" horiz-adv-x="1323" 
d="M1341 1153h-684l-36 -264h442l-47 -318h-438l-21 -151h277l-29 -203h-277l-30 -217h-453l31 217h-176l32 203h172l148 1061h1137z" />
    <glyph glyph-name="lira" unicode="&#x20a4;" horiz-adv-x="1396" 
d="M1307 418q-68 -202 -214.5 -310t-342.5 -108h-777l45 326h58q133 0 178 110q10 5 20 60v-1q-1 -1 -4 -3.5t-8 -2.5h-215l25 201h209v98h-193l27 201h166l4 113q5 79 37.5 145.5t84 112.5t119.5 78.5t143.5 47.5t155.5 15q79 0 154 -20.5t143 -61t119 -109.5t72 -159
l-326 -90q-9 32 -16.5 50.5t-20 40.5t-31 32t-42.5 10q-51 0 -89 -40.5t-45 -104.5q-1 -3 -1.5 -9.5t-1.5 -20t-3 -26.5q1 -4 9 -4h8h243l-28 -201h-226l-4 -98h217l-30 -201h-207q-52 -82 -137 -161h166q79 0 131 37.5t86 119.5z" />
    <glyph glyph-name="uni20A6" unicode="&#x20a6;" horiz-adv-x="1683" 
d="M1694 907h-113l-41 -297h113l-27 -182h-113l-59 -428h-362l-238 428h-317l-62 -428h-399l59 428h-125l25 182h127l41 297h-125l24 183h127l56 391h399l219 -391h303l56 391h399l-55 -391h114zM1147 655l35 252h-176zM561 610h191l-152 273z" />
    <glyph glyph-name="uni20A9" unicode="&#x20a9;" horiz-adv-x="2461" 
d="M2507 1147h-424l-51 -117h458l-30 -203h-516l-365 -827h-297l-121 805l-348 -805h-293l-133 827h-324l33 203h258l-20 117h-221l24 203h164l-20 131h385l20 -131h375l55 131h279l18 -131h377l55 131h385l-57 -131h360zM715 1147l18 -117h195l49 117h-262zM1657 1030
l49 117h-262l16 -117h197zM784 686l60 141h-80zM1511 686l60 141h-80z" />
    <glyph glyph-name="dong" unicode="&#x20ab;" horiz-adv-x="1148" 
d="M1223 1378l-21 -159h-123l-135 -947h-330l15 72q-61 -47 -119 -67.5t-133 -20.5q-157 0 -235.5 123.5t-45.5 347.5q27 193 142 313.5t251 120.5q16 0 34 -2t57 -11t77.5 -35t65.5 -66l25 172h-193l20 159h195l14 103h332l-14 -103h121zM655 575l50 326q-22 32 -43 44.5
t-52 12.5q-42 0 -74.5 -23t-53.5 -66.5t-33.5 -84.5t-24.5 -100q-19 -129 2.5 -180t83.5 -51q54 0 95.5 35.5t49.5 86.5zM55 0l29 178h846l-25 -178h-850z" />
    <glyph glyph-name="Euro" unicode="&#x20ac;" horiz-adv-x="1437" 
d="M831 307q75 0 154 50t121 112l207 -246q-108 -108 -252 -175.5t-297 -67.5q-215 0 -361 132.5t-186 356.5h-203l33 201h156q4 72 10 112q1 4 2 13.5t2 13.5h-154l27 201h182q89 229 270.5 360t407.5 131q168 0 297 -73t197 -197l-260 -168q-29 34 -42.5 48.5t-41.5 38.5
t-57 34t-64 10q-153 0 -240 -184h273l-27 -201h-307l-12 -78q-1 -10 -4.5 -30.5t-4.5 -30.5h308l-27 -201h-272q34 -162 165 -162z" />
    <glyph glyph-name="uni20B9" unicode="&#x20b9;" horiz-adv-x="1431" 
d="M1473 1298h-259q41 -57 52 -118h190l-24 -183h-172q-27 -110 -104 -193.5t-185 -127.5q-14 -1 -23.5 -13.5t-7.5 -25.5l188 -637h-479l-129 612h-442l37 279h458q147 0 203 106h-647l25 183h657q-19 104 -178 104h-463l29 197h1300z" />
    <glyph glyph-name="uni20BA" unicode="&#x20ba;" horiz-adv-x="1523" 
d="M1120 625l361 -76q-47 -91 -100 -165t-133.5 -148t-174 -124t-224 -81t-282.5 -31h-331l59 432l-166 -57l-47 200l246 84l14 103l-209 -72l-47 203l289 98l67 490h455l-45 -324l221 76l49 -199l-303 -104l-14 -105l264 90l49 -200l-346 -119l-37 -268h39q94 5 188 84.5
t158 212.5z" />
    <glyph glyph-name="uni2113" unicode="&#x2113;" horiz-adv-x="1284" 
d="M1047 444l-431 -464q-94 0 -167 17t-119.5 45t-77 70t-45 86.5t-19.5 98.5q-2 -1 -6 -11t-6 -12l-94 -55l-57 225l188 129l57 400q37 264 182.5 396t370.5 132q108 0 183.5 -31.5t111.5 -84.5t50 -123t-1 -148q-7 -53 -22 -101.5t-41 -94t-51.5 -83t-67.5 -80t-74 -73
t-87 -73t-90.5 -69t-98.5 -72.5l-33 -24l-8 -57q-6 -55 30.5 -87t102.5 -32q76 0 159 46.5t154 123.5zM678 983l-25 -180q245 189 267 371q17 104 -62 104q-136 0 -180 -295z" />
    <glyph glyph-name="uni2116" unicode="&#x2116;" horiz-adv-x="2441" 
d="M2161 1501q163 0 249.5 -105t63.5 -266q-19 -140 -123.5 -227.5t-253.5 -87.5q-159 0 -246 102.5t-65 258.5q20 145 126.5 235t248.5 90zM1253 1481h400l-207 -1481h-363l-491 883l-125 -883h-399l208 1481h400l463 -826zM2171 1346q-109 0 -139 -209
q-13 -89 -0.5 -126.5t55.5 -37.5q116 0 143 209q12 89 -1.5 126.5t-57.5 37.5z" />
    <glyph glyph-name="uni2117" unicode="&#x2117;" horiz-adv-x="1720" 
d="M788 -20q-158 0 -292.5 62t-223.5 166.5t-130 249.5t-19 304q28 202 151 372t308 268.5t389 98.5q209 0 373 -105.5t243 -286t49 -390.5q-28 -203 -151.5 -373.5t-308.5 -268t-388 -97.5zM786 182q250 0 423 158.5t210 421.5q34 246 -86 392t-358 146
q-253 0 -425.5 -159.5t-209.5 -421.5q-35 -249 84 -393t362 -144zM516 348l113 785h375q141 0 223 -75.5t63 -217.5q-17 -118 -101 -179t-216 -61h-178l-35 -252h-244zM819 768h148q34 0 57 35.5t27 64.5q7 48 -18.5 71.5t-51.5 23.5h-137z" />
    <glyph glyph-name="uni2120" unicode="&#x2120;" horiz-adv-x="2054" 
d="M397 -12q-142 0 -251.5 52t-143.5 138l188 117q38 -55 83.5 -78.5t132.5 -23.5q151 0 159 65q4 24 -6 41.5t-47 26.5l-199 51q-107 30 -163.5 99.5t-43.5 166.5q18 125 135.5 210t290.5 85q122 0 215.5 -43t124.5 -123l-186 -117q-35 47 -55 61q-41 29 -117 29
q-64 0 -98 -18.5t-37 -44.5q-1 -14 -1 -26.5t17.5 -26.5t53.5 -23l198 -55q218 -60 193 -258q-20 -139 -140 -222t-303 -83zM856 0l129 926h369l71 -566l230 566h368l-129 -926h-249l92 670l-273 -670h-180l-86 670l-92 -670h-250z" />
    <glyph glyph-name="trademark" unicode="&#x2122;" horiz-adv-x="2017" 
d="M47 705l31 221h776l-31 -221h-264l-98 -705h-250l98 705h-262zM817 0l129 926h369l71 -566l230 566h369l-130 -926h-249l92 670l-273 -670h-180l-86 670l-92 -670h-250z" />
    <glyph glyph-name="uni2126" unicode="&#x2126;" horiz-adv-x="1529" 
d="M883 1194q-55 0 -106.5 -23.5t-100 -72.5t-85 -137t-52.5 -205q-43 -293 92 -453q54 -33 45 -80l-29 -223h-643l47 328h275q-52 39 -94.5 89.5t-76.5 119t-43.5 147t3.5 172.5q16 120 78.5 234.5t160.5 206.5t239 148t300 56q136 0 247.5 -42t183.5 -111.5t118 -159
t60 -185t1 -188.5q-19 -136 -96.5 -258.5t-187.5 -218.5q-21 -5 -22 -8q-1 -2 7 -2h219l-49 -328h-637l43 307q97 60 175 186.5t108 317.5q29 199 -23 291t-157 92z" />
    <glyph glyph-name="estimated" unicode="&#x212e;" horiz-adv-x="1720" 
d="M1466 303q-139 -147 -315.5 -235t-362.5 -88q-158 0 -292.5 62t-223.5 166.5t-130 249.5t-19 304q28 202 151 372t308 268.5t389 98.5q206 0 370.5 -102.5t245.5 -277t53 -376.5v-2q-1 -5 -3 -5h-4q-6 1 -11 1h-1114l-82 -577q145 -82 344 -82q159 0 298.5 59.5
t234.5 163.5h163zM987 1401q-204 0 -373 -107q-26 -3 -34 -34l-60 -420h727l68 491q-153 70 -328 70z" />
    <glyph glyph-name="uni2153" unicode="&#x2153;" horiz-adv-x="1976" 
d="M160 565l92 658l-160 -35l23 168l303 141h125l-131 -932h-252zM1653 1497l-1211 -1505l-241 4l1210 1501h242zM1290 784q59 68 166 111t219 43q160 0 252.5 -68t79.5 -180q-20 -138 -195 -196q74 -23 124 -79t38 -145q-10 -70 -55 -127t-110 -91t-137 -52t-142 -18
q-121 0 -223 55.5t-142 140.5l195 123q54 -70 97 -97.5t112 -27.5q58 0 94.5 25t42.5 65q6 44 -26.5 73t-92.5 30l-131 4l27 192l110 6q61 3 99 30t43 69q6 32 -20.5 55t-69.5 23q-58 0 -107.5 -23.5t-114.5 -81.5z" />
    <glyph glyph-name="uni2154" unicode="&#x2154;" horiz-adv-x="2142" 
d="M39 571l24 174l320 238q142 105 182.5 147t46.5 87q6 42 -19.5 69t-76.5 27q-59 0 -111 -27.5t-102 -105.5l-176 80q91 131 196 193.5t238 62.5q168 0 251.5 -81.5t64.5 -215.5q-10 -69 -50.5 -121t-138.5 -133l-231 -187h366l-28 -207h-756zM1819 1497l-1211 -1505
l-241 4l1210 1501h242zM1456 784q59 68 166 111t219 43q160 0 252.5 -68t79.5 -180q-20 -138 -195 -196q74 -23 124 -79t38 -145q-10 -70 -55 -127t-110 -91t-137 -52t-142 -18q-121 0 -223 55.5t-142 140.5l195 123q54 -70 97 -97.5t112 -27.5q58 0 94.5 25t42.5 65
q6 44 -26.5 73t-92.5 30l-131 4l27 192l110 6q61 3 99 30t43 69q6 32 -21 55t-70 23q-58 0 -107 -23.5t-114 -81.5z" />
    <glyph glyph-name="oneeighth" unicode="&#x215b;" horiz-adv-x="2027" 
d="M160 565l92 658l-160 -35l23 168l303 141h125l-131 -932h-252zM1653 1497l-1211 -1505l-241 4l1210 1501h242zM1645 936q157 0 248.5 -75.5t74.5 -186.5q-5 -39 -25.5 -71.5t-48.5 -52t-50 -30.5t-40 -16l15 -9q26 -15 40.5 -24.5t38 -31.5t35.5 -43.5t19 -55.5t2 -74
q-20 -136 -141.5 -211t-309.5 -75q-172 0 -268.5 62.5t-79.5 176.5q18 145 197 205q0 1 -15.5 11t-33 27t-35.5 40.5t-27 59.5t-4 77q20 125 130.5 211t277.5 86zM1624 754q-46 0 -78.5 -21.5t-36.5 -58.5q-3 -24 10 -43.5t40 -28.5l75 -29q32 -11 67 22t40 69
q5 37 -25.5 63.5t-91.5 26.5zM1546 162q58 0 91 21.5t38 58.5q3 28 -10 48.5t-59 37.5l-84 30q-36 12 -76 -17t-47 -77q-6 -49 28 -75.5t119 -26.5z" />
    <glyph glyph-name="threeeighths" unicode="&#x215c;" horiz-adv-x="2224" 
d="M199 1362q59 68 166 111t219 43q160 0 252 -68t79 -180q-20 -139 -194 -197q75 -23 124.5 -78.5t37.5 -144.5q-10 -70 -55.5 -127t-110.5 -91t-137 -52.5t-142 -18.5q-120 0 -222 55.5t-142 141.5l194 123q54 -70 97 -97.5t112 -27.5q58 0 94.5 25t42.5 65q6 44 -26 72.5
t-92 29.5l-131 4l26 193l111 6q61 3 98.5 29.5t42.5 68.5q6 32 -20.5 55t-69.5 23q-58 0 -107 -23t-114 -81zM1849 1497l-1210 -1505l-242 4l1211 1501h241zM1841 936q157 0 249 -75.5t75 -186.5q-5 -39 -25.5 -71.5t-48.5 -52t-50 -30.5t-40 -16q66 -40 86 -58
q78 -69 63 -180q-20 -136 -141 -211t-309 -75q-172 0 -268.5 62.5t-79.5 176.5q18 145 196 205q0 1 -15.5 11t-32.5 27t-35 40.5t-27 59.5t-4 77q20 126 130 211.5t277 85.5zM1821 754q-46 0 -78.5 -21.5t-36.5 -58.5q-3 -24 9.5 -43.5t39.5 -28.5l76 -29q32 -11 66.5 21.5
t39.5 69.5t-25 63.5t-91 26.5zM1743 162q58 0 91 21.5t38 58.5q3 28 -10.5 48.5t-59.5 37.5l-84 30q-36 12 -76 -17t-47 -77q-6 -49 28.5 -75.5t119.5 -26.5z" />
    <glyph glyph-name="fiveeighths" unicode="&#x215d;" horiz-adv-x="2226" 
d="M281 1497h637l-39 -201h-435l-36 -155q5 1 24 6t24 6.5t20.5 5t21 4.5t18 3.5t20 3.5t18.5 2t21 1.5t21 0.5q154 0 235.5 -81.5t61.5 -224.5q-22 -149 -136.5 -232t-293.5 -83q-143 0 -247.5 55t-143.5 144l202 127q20 -33 35 -52t37.5 -39.5t50.5 -30t64 -9.5
q66 0 109 32t51 80q5 48 -25.5 81.5t-99.5 33.5q-50 0 -129 -35q-13 -6 -19 -5.5t-18 7.5l-158 90zM1851 1497l-1210 -1505l-242 4l1211 1501h241zM1843 936q157 0 249 -75.5t75 -186.5q-5 -39 -25.5 -71.5t-48.5 -52t-50 -30.5t-40 -16q66 -40 86 -58q78 -69 63 -180
q-20 -136 -141 -211t-309 -75q-172 0 -268.5 62.5t-79.5 176.5q18 145 196 205q0 1 -15.5 11t-32.5 27t-35 40.5t-27 59.5t-4 77q20 126 130 211.5t277 85.5zM1823 754q-46 0 -78.5 -21.5t-36.5 -58.5q-3 -24 9.5 -43.5t39.5 -28.5l76 -29q32 -11 66.5 21.5t39.5 69.5
t-25 63.5t-91 26.5zM1745 162q58 0 91 21.5t38 58.5q3 28 -10.5 48.5t-59.5 37.5l-84 30q-36 12 -76 -17t-47 -77q-6 -49 28.5 -75.5t119.5 -26.5z" />
    <glyph glyph-name="seveneighths" unicode="&#x215e;" horiz-adv-x="2154" 
d="M1780 1497l-1211 -1505l-241 4l1210 1501h242zM193 1495h733l-35 -258q-129 -121 -249.5 -318t-139.5 -356h-269q7 55 34.5 132.5t77 175t134 210.5t189.5 213h-502zM1772 936q157 0 248.5 -75.5t74.5 -186.5q-5 -39 -25.5 -71.5t-48.5 -52t-50 -30.5t-40 -16l15 -9
q26 -15 40.5 -24.5t38 -31.5t35.5 -43.5t19 -55.5t2 -74q-20 -136 -141.5 -211t-309.5 -75q-172 0 -268.5 62.5t-79.5 176.5q18 145 197 205q0 1 -15.5 11t-33 27t-35.5 40.5t-27 59.5t-4 77q20 125 130.5 211t277.5 86zM1751 754q-46 0 -78.5 -21.5t-36.5 -58.5
q-3 -24 10 -43.5t40 -28.5l75 -29q32 -11 67 22t40 69q5 37 -25.5 63.5t-91.5 26.5zM1673 162q58 0 91 21.5t38 58.5q3 28 -10 48.5t-59 37.5l-84 30q-36 12 -76 -17t-47 -77q-6 -49 28 -75.5t119 -26.5z" />
    <glyph glyph-name="partialdiff" unicode="&#x2202;" horiz-adv-x="1261" 
d="M301 1116l-88 270q230 115 442 115q144 0 257 -49.5t189 -146.5t104.5 -251t0.5 -352q-23 -163 -77 -294.5t-137 -227.5t-201 -148t-263 -52q-168 0 -281.5 69t-159 185t-24.5 264q29 204 171.5 339.5t353.5 135.5q95 0 149 -29t92 -78q24 -12 38 6t20 48q4 31 -1.5 67.5
t-25.5 78t-53 74.5t-91 55t-132 22q-154 0 -283 -101zM537 252h2q90 0 158 85.5t100 225.5q8 21 9 32t-3 38q-58 88 -141 88q-88 0 -154.5 -82t-81.5 -203q-28 -184 111 -184z" />
    <glyph glyph-name="emptyset" unicode="&#x2205;" horiz-adv-x="1257" 
d="M1251 1116l-149 -123q62 -124 41 -270q-28 -196 -187.5 -333.5t-357.5 -137.5q-157 0 -281 96l-161 -133l-117 139l168 138q-62 126 -41 274q28 196 185.5 332.5t355.5 136.5q167 0 284 -100l146 118zM328 723q-9 -71 8 -125l526 430q-64 39 -147 39
q-140 0 -253.5 -101.5t-133.5 -242.5zM981 766q9 67 -8 121l-524 -430q61 -37 143 -37q139 0 254 102.5t135 243.5z" />
    <glyph glyph-name="uni2206" unicode="&#x2206;" horiz-adv-x="1396" 
d="M-45 0l39 262l610 1219h447l272 -1260l-31 -221h-1337zM430 317h469l-127 760z" />
    <glyph glyph-name="product" unicode="&#x220f;" horiz-adv-x="1509" 
d="M1581 1481l-47 -322h-166l-162 -1159h-409l164 1159h-256l-162 -1159h-410l164 1159h-166l45 322h1405z" />
    <glyph glyph-name="summation" unicode="&#x2211;" horiz-adv-x="1263" 
d="M1104 0h-1112l37 252l485 496l-328 483l35 250h1053l-45 -314h-527l308 -403l-441 -432h580z" />
    <glyph glyph-name="minus" unicode="&#x2212;" horiz-adv-x="1263" 
d="M1198 887l-43 -283h-1038l37 283h1044z" />
    <glyph glyph-name="radical" unicode="&#x221a;" horiz-adv-x="1509" 
d="M1661 1690l-819 -2020h-396l-174 776l-172 -59l-55 225l467 158l164 -743l643 1663h342z" />
    <glyph glyph-name="infinity" unicode="&#x221e;" horiz-adv-x="1730" 
d="M1622 551l-2 -4q-17 -123 -80.5 -212.5t-151.5 -133t-190 -43.5q-64 0 -115 17t-90.5 53t-66 71.5t-60.5 91.5q-13 6 -22.5 -3t-24.5 -34q-7 -5 -51.5 -42.5t-86.5 -68t-113 -58t-142 -27.5q-78 0 -144.5 30t-112 83t-66 131t-7.5 169q25 167 145 269t287 102
q52 0 96.5 -12t75 -28.5t61.5 -48t50.5 -57.5t48.5 -69q10 -7 17.5 -7.5t15.5 6t12.5 13t14.5 21.5q99 84 145 113q111 69 229 69q164 0 258.5 -109.5t69.5 -281.5zM457 389h4q54 0 113.5 43.5t97.5 95.5q22 18 25.5 28.5t-3.5 43.5q-77 117 -170 117q-71 0 -125.5 -53
t-66.5 -132q-9 -65 25.5 -104t99.5 -39zM1266 717h-2q-96 0 -211 -148q-36 -20 -29 -67q79 -113 178 -113q69 0 119.5 57.5t60.5 128.5q9 60 -21 101t-95 41z" />
    <glyph glyph-name="integral" unicode="&#x222b;" horiz-adv-x="1013" 
d="M387 1149q40 289 157 425t339 136q86 0 147.5 -25.5t83.5 -62.5l-98 -254q-16 0 -58 3t-67 3q-60 0 -94.5 -50.5t-51.5 -170.5q-25 -172 -54.5 -506.5t-41.5 -421.5q-42 -297 -161.5 -436t-340.5 -139q-82 0 -140.5 22.5t-86.5 55.5l100 262q16 0 57.5 -3t65.5 -3
q59 0 93.5 51t52.5 176q22 159 53.5 502t44.5 436z" />
    <glyph glyph-name="approxequal" unicode="&#x2248;" horiz-adv-x="1347" 
d="M1268 920q-73 -104 -168 -154.5t-185 -50.5q-58 0 -113.5 22.5t-90.5 49t-80.5 49t-87.5 22.5q-72 0 -135 -49t-132 -133l-112 221q126 105 210 153t177 48q51 0 96 -14.5t77 -35.5t61 -42t60.5 -35.5t63.5 -14.5q70 0 137.5 51t116.5 130zM1206 469
q-75 -104 -170 -155.5t-184 -51.5q-59 0 -114.5 22.5t-91 49.5t-81 49.5t-86.5 22.5q-39 0 -76 -15t-72.5 -45t-60 -56t-59.5 -67l-111 221q126 105 210 153t177 48q62 0 117 -22t88 -48.5t74.5 -48.5t79.5 -22q70 0 137.5 50t114.5 128z" />
    <glyph glyph-name="notequal" unicode="&#x2260;" horiz-adv-x="1263" 
d="M1229 797h-324l-114 -201h409l-39 -281h-532l-168 -292h-203l170 292h-309l39 281h432l117 201h-521l39 280h643l166 285h197l-164 -285h201z" />
    <glyph glyph-name="lessequal" unicode="&#x2264;" horiz-adv-x="1267" 
d="M1135 684l-45 -313l-961 389l45 319l1069 391l-47 -344l-625 -217zM1104 297l-41 -281h-1040l36 281h1045z" />
    <glyph glyph-name="greaterequal" unicode="&#x2265;" horiz-adv-x="1265" 
d="M160 702l624 207l-561 232l43 315l961 -393l-45 -318l-1069 -389zM80 297h1042l-41 -281h-1040z" />
    <glyph glyph-name="lozenge" unicode="&#x25ca;" horiz-adv-x="1263" 
d="M707 0h-244l-289 758l488 723h243l293 -758zM760 1202l-303 -477l151 -453l301 480z" />
    <glyph glyph-name="i.loclTRK" horiz-adv-x="608" 
d="M655 1481l-47 -336h-399l47 336h399zM575 1057l-149 -1057h-397l147 1057h399z" />
    <glyph glyph-name="g.001" horiz-adv-x="1282" 
d="M1081 244q-20 -141 -65 -247.5t-102.5 -171t-134 -104.5t-151 -54.5t-161.5 -14.5q-73 0 -133 7t-126 25.5t-124.5 56.5t-106.5 95l158 164q87 -96 283 -96q105 0 172 59t80 168l10 76q-20 -41 -45 -71.5t-54.5 -48t-53.5 -28t-57 -14.5t-48.5 -5t-44.5 -1
q-160 0 -252 109.5t-92 312.5q0 178 57.5 318t165 219t248.5 79q40 0 79.5 -8.5t80.5 -28t71.5 -58t42.5 -91.5l25 166h395zM715 422l39 299q1 53 -36 80.5t-81 27.5q-211 0 -211 -391q0 -88 27.5 -125t85.5 -37q64 0 116 43.5t60 102.5z" />
    <glyph glyph-name="l.ss01" horiz-adv-x="698" 
d="M74 0l215 1520h399l-215 -1520h-399z" />
    <glyph glyph-name="one.osf" horiz-adv-x="882" 
d="M221 0l146 1047l-254 -58l37 266l483 226h196l-208 -1481h-400z" />
    <glyph glyph-name="two.osf" horiz-adv-x="1331" 
d="M-8 0l39 276l506 379q160 119 230.5 179t99 101t34.5 91q9 68 -30.5 111t-120.5 43q-45 0 -82.5 -8t-81.5 -29t-88 -65.5t-86 -110.5l-283 127q147 210 313 308.5t377 98.5q267 0 400 -129t102 -342q-17 -111 -80 -193t-219 -210l-369 -299h584l-45 -328h-1200z" />
    <glyph glyph-name="three.osf" horiz-adv-x="1368" 
d="M213 1255q91 108 262 177t350 69q253 0 400.5 -109t124.5 -286q-33 -219 -310 -311q53 -16 100.5 -43.5t89 -70t61 -105.5t9.5 -138q-15 -110 -87 -200t-175 -145t-218 -84t-226 -29q-192 0 -355 88.5t-225 224.5l308 194q87 -111 155 -153.5t178 -42.5q91 0 149.5 38.5
t67.5 102.5q11 71 -41 116t-147 48l-209 6l43 305l176 11q96 6 156.5 48.5t69.5 108.5q8 51 -34.5 87t-111.5 36q-92 0 -170 -37.5t-180 -128.5z" />
    <glyph glyph-name="four.osf" horiz-adv-x="1323" 
d="M823 1481h394l-123 -863h213l-41 -301h-213l-45 -317h-402l47 317h-647l41 287zM381 618h319l64 447z" />
    <glyph glyph-name="five.osf" horiz-adv-x="1402" 
d="M356 1481h1010l-61 -320h-689l-59 -248q105 30 166.5 42t132.5 12q245 0 374 -129t99 -355q-34 -236 -217 -369.5t-467 -133.5q-226 0 -392.5 88t-229.5 229l323 201q27 -43 43.5 -66t45 -54.5t55 -47.5t66 -27.5t85.5 -11.5q107 0 175 50.5t79 127.5q8 76 -40.5 129
t-156.5 53q-45 0 -89 -12t-117 -43q-23 -9 -31.5 -8.5t-28.5 12.5l-250 143z" />
    <glyph glyph-name="six.osf" horiz-adv-x="1382" 
d="M862 1497q109 0 204 -36.5t154.5 -92t93.5 -118t36 -117.5l-357 -99q-31 79 -67.5 117.5t-106.5 38.5q-123 0 -195.5 -93t-80.5 -247q131 45 188 57.5t123 12.5q231 0 357.5 -123.5t97.5 -317.5q-19 -141 -113 -254t-242 -177t-321 -64q-202 0 -336 90t-186.5 251.5
t-22.5 376.5q52 371 261.5 583t512.5 212zM709 633q-47 0 -101.5 -16t-83.5 -35q-13 -9 -18 -20t-8 -38q-18 -118 26 -185t133 -67q78 0 139.5 53.5t73.5 135.5q11 83 -37 127.5t-124 44.5z" />
    <glyph glyph-name="seven.osf" horiz-adv-x="1239" 
d="M180 1481h1166l-58 -410q-93 -88 -192.5 -213.5t-189.5 -269t-154.5 -300.5t-79.5 -288h-428q10 70 37.5 159.5t83.5 212t130.5 247.5t189.5 269.5t251 272.5h-801z" />
    <glyph glyph-name="eight.osf" horiz-adv-x="1351" 
d="M805 1501q249 0 394.5 -120t119.5 -296q-7 -50 -31 -94t-53.5 -73t-65.5 -52t-62 -34.5t-48 -18.5q91 -53 123 -79q138 -112 112 -298q-30 -216 -223 -336t-491 -120q-180 0 -310 43t-196 130.5t-49 208.5q8 58 32 107t54 82t72 60.5t78 43.5t79 31q-1 1 -25.5 17.5
t-52.5 43t-56 64.5t-42.5 95t-5.5 122q14 96 65.5 181t133 150.5t197.5 103.5t251 38zM772 1210q-73 0 -125 -33.5t-59 -91.5q-5 -39 15.5 -69t64.5 -45l120 -45q51 -19 105.5 32.5t62.5 110.5q8 58 -40 99.5t-144 41.5zM649 270q89 0 142.5 34t62.5 93q5 44 -17.5 76.5
t-93.5 58.5l-135 50q-56 22 -119 -25t-75 -123q-11 -79 43.5 -121.5t191.5 -42.5z" />
    <glyph glyph-name="nine.osf" horiz-adv-x="1388" 
d="M578 -16q-88 0 -167.5 24t-136 62.5t-99 86.5t-63.5 97.5t-22 93.5l354 101q33 -82 68.5 -120t105.5 -38q122 0 201 102t74 236q-124 -68 -307 -68q-231 0 -356 122t-99 318q31 214 222.5 355t453.5 141q152 0 267 -52t184.5 -146t95.5 -227t4 -294q-52 -370 -264 -582
t-516 -212zM729 848q67 0 138.5 39t74.5 69q18 125 -25.5 188.5t-134.5 63.5q-79 0 -141 -53t-72 -135q-13 -83 35 -127.5t125 -44.5z" />
    <glyph glyph-name="zero.tf" horiz-adv-x="1435" 
d="M872 1503q187 0 319 -99.5t186.5 -273.5t23.5 -393q-30 -219 -132 -389.5t-261 -267t-349 -96.5q-191 0 -323.5 96.5t-186.5 267t-24 389.5t134 393t264.5 273.5t348.5 99.5zM700 295q112 0 170.5 98.5t90.5 341.5q36 249 5 355t-139 106q-107 0 -168 -106.5t-98 -354.5
q-32 -241 -1 -340.5t140 -99.5z" />
    <glyph glyph-name="one.tf" horiz-adv-x="1622" 
d="M1073 369h299v-369h-1085v369h364v686l-364 -80v336l608 170h178v-1112z" />
    <glyph glyph-name="two.tf" horiz-adv-x="1431" 
d="M68 0l38 276l506 379q161 119 231 178.5t99 101t35 91.5q9 68 -31 111t-121 43q-45 0 -82.5 -8t-81.5 -29t-88 -65.5t-86 -110.5l-282 127q147 210 313 308.5t377 98.5q267 0 400 -129t102 -342q-17 -111 -80 -193t-219 -210l-369 -299h584l-45 -328h-1200z" />
    <glyph glyph-name="three.tf" horiz-adv-x="1368" 
d="M258 1255q91 108 262 177t350 69q253 0 400.5 -109t124.5 -286q-33 -219 -310 -311q42 -12 80.5 -31.5t76 -51t63 -69.5t37.5 -91.5t4 -113.5q-15 -110 -87.5 -200t-175.5 -145t-218 -84t-226 -29q-192 0 -355 88.5t-225 224.5l308 194q87 -111 155 -153.5t178 -42.5
q91 0 150 38.5t68 102.5q11 71 -41.5 116t-147.5 48l-209 6l43 305l176 11q96 6 156.5 48.5t69.5 108.5q8 51 -34.5 87t-111.5 36q-92 0 -170 -37.5t-180 -128.5z" />
    <glyph glyph-name="four.tf" horiz-adv-x="1437" 
d="M905 1481h393l-122 -863h213l-41 -301h-213l-45 -317h-402l47 317h-647l41 287zM463 618h319l64 447z" />
    <glyph glyph-name="five.tf" horiz-adv-x="1435" 
d="M401 1481h1010l-61 -320h-688l-60 -248q105 30 166.5 42t132.5 12q245 0 374 -129t99 -355q-34 -236 -217 -369.5t-467 -133.5q-226 0 -392.5 88t-229.5 229l323 201q27 -43 43.5 -66t45 -54.5t55 -47.5t66 -27.5t85.5 -11.5q107 0 175 50.5t79 127.5q8 76 -40.5 129
t-156.5 53q-45 0 -89 -12t-117 -43q-23 -9 -31.5 -8.5t-28.5 12.5l-250 143z" />
    <glyph glyph-name="six.tf" horiz-adv-x="1431" 
d="M915 1497q109 0 204 -36.5t154.5 -92t93.5 -118t36 -117.5l-356 -99q-31 79 -68 117.5t-107 38.5q-123 0 -195.5 -93t-80.5 -247q131 45 188 57.5t123 12.5q231 0 357.5 -123.5t97.5 -317.5q-19 -141 -113 -254t-242 -177t-321 -64q-202 0 -336 90t-186.5 251.5
t-22.5 376.5q52 371 261.5 583t512.5 212zM762 633q-47 0 -101 -16t-83 -35q-23 -17 -27 -58q-18 -118 26 -185t134 -67q78 0 139.5 53.5t73.5 135.5q11 83 -37 127.5t-125 44.5z" />
    </font>
</defs>
</svg>
