<?xml version="1.0" standalone="no"?>
<!DOCTYPE svg PUBLIC "-//W3C//DTD SVG 1.1//EN" "http://www.w3.org/Graphics/SVG/1.1/DTD/svg11.dtd" >
<svg xmlns="http://www.w3.org/2000/svg" xmlns:xlink="http://www.w3.org/1999/xlink" version="1.1">
<metadata>
Created by FontForge 20201107 at Thu Jun 12 13:50:17 2025
 By 
copyright missing
</metadata>
<defs>
<font id="PublicSans-Bold" horiz-adv-x="1169" >
  <font-face 
    font-family="Public Sans"
    font-weight="700"
    font-stretch="normal"
    units-per-em="2048"
    panose-1="0 0 8 0 0 0 0 0 0 0"
    ascent="1597"
    descent="-451"
    x-height="1059"
    cap-height="1481"
    bbox="-877 -485 2759 2028"
    underline-thickness="102"
    underline-position="-204"
    unicode-range="U+000D-FB02"
  />
<missing-glyph horiz-adv-x="1347" 
d="M1147 1692q37 0 37 -43v-1921q0 -31 -16.5 -44.5t-51.5 -13.5h-893q-31 0 -43 11.5t-12 37.5v1926q0 47 39 47h940zM1079 1556q0 15 -8.5 25t-21.5 10h-703l733 -1708v1673zM272 -188q0 -21 10 -31t35 -10h689l-734 1695v-1654z" />
    <glyph glyph-name="fi" unicode="fi" horiz-adv-x="1372" 
d="M1245 1522v-293h-305v293h305zM764 1059v-207h-223v-852h-299v852h-195v207h195v151q0 129 75 200t213 71h244v-199h-139q-56 0 -77 -27.5t-21 -93.5v-102h227zM1243 1059v-1059h-299v1059h299z" />
    <glyph glyph-name="fl" unicode="fl" horiz-adv-x="1470" 
d="M1278 -18q-90 0 -155 19t-100 47t-55 73.5t-25 83.5t-5 92v1225h295v-1188q0 -62 26.5 -97t92.5 -42l49 -2v-187q-70 -24 -123 -24zM764 1059v-207h-223v-852h-299v852h-195v207h195v151q0 129 75 200t213 71h244v-199h-139q-56 0 -77 -27.5t-21 -93.5v-102h227z" />
    <glyph glyph-name="f_f.liga" unicode="ff" horiz-adv-x="1767" 
d="M1638 1059v-207h-223v-852h-299v852h-196v207h196v151q0 129 75 200t212 71h246v-199h-140q-56 0 -78 -27.5t-22 -93.5v-102h229zM793 1059v-207h-228v-852h-299v852h-196v207h196v123q0 128 75.5 199t211.5 71h246v-201h-140q-56 0 -78 -27t-22 -91v-74h234z" />
    <glyph glyph-name="colon_one_eight_F_colon.liga" unicode="&#x3a;&#x31;&#x38;F&#x3a;" horiz-adv-x="1599" 
d="M45 1559h1509q23 0 23 -25v-1507q0 -27 -23 -27h-1509q-25 0 -25 27v1507q0 25 25 25zM774 479q71 0 122.5 52t51.5 124q0 93 -76 144q56 53 56 119q0 63 -46 108t-108 45q-67 0 -112.5 -44.5t-45.5 -108.5q0 -63 56 -119q-76 -51 -76 -144q0 -73 52 -124.5t126 -51.5z
M510 498v557q0 10 -8 10h-137q-9 0 -9 -10v-54q0 -8 9 -8h73v-495q0 -9 8 -9h56q8 0 8 9zM1266 1001v54q0 10 -9 10h-215q-8 0 -8 -10v-557q0 -9 8 -9h54q12 0 12 9v254h125q8 0 8 8v51q0 10 -8 10h-125v172h149q9 0 9 8zM774 836q-37 0 -61.5 23t-24.5 59q0 35 24.5 59
t61.5 24q34 0 58 -24t24 -59q0 -36 -24 -59t-58 -23zM774 760q43 0 73 -30.5t30 -74.5q0 -43 -30 -73.5t-73 -30.5q-44 0 -75 30.5t-31 73.5q0 44 31 74.5t75 30.5z" />
    <glyph glyph-name="colon_f_l_a_g_two_colon.liga" unicode="&#x3a;flag&#x32;&#x3a;" horiz-adv-x="2385" 
d="M100 1559h2186v-1557h-2186v1557zM2157 1321v109h-1096v-109h1096zM295 1198h127v121h-127v-121zM776 1198h125v121h-125v-121zM537 1079h125v119h-125v-119zM1061 1081h1096v113h-1096v-113zM297 958h125v121h-125v-121zM901 1079h-125v-121h125v121zM662 958h-125v-118
h125v118zM1061 842h1096v112h-1096v-112zM422 840h-125v-121h125v121zM901 840h-125v-121h125v121zM1061 602h1096v113h-1096v-113zM2157 475h-1932v-113h1932v113zM227 129h1930v107h-1930v-107z" />
    <glyph glyph-name="colon_f_l_a_g_colon.liga" unicode="&#x3a;flag&#x3a;" horiz-adv-x="2385" 
d="M100 1559h2186v-1557h-2186v1557zM2165 1438h-1946v-838h1946v119h-1106v121h1106v118h-1106v121h1106v119h-1106v121h1106v119zM459 1319v-121h-119v121h119zM938 1319v-121h-119v121h119zM698 1198v-119h-118v119h118zM459 1079v-121h-119v121h119zM938 1079v-121h-119
v121h119zM698 958v-118h-118v118h118zM459 840v-121h-119v121h119zM938 840v-121h-119v121h119zM2165 479h-1946v-119h1946v119zM219 121h1946v119h-1946v-119z" />
    <glyph glyph-name=".notdef" horiz-adv-x="1347" 
d="M1147 1692q37 0 37 -43v-1921q0 -31 -16.5 -44.5t-51.5 -13.5h-893q-31 0 -43 11.5t-12 37.5v1926q0 47 39 47h940zM1079 1556q0 15 -8.5 25t-21.5 10h-703l733 -1708v1673zM272 -188q0 -21 10 -31t35 -10h689l-734 1695v-1654z" />
    <glyph glyph-name="uni0000" horiz-adv-x="57" 
 />
    <glyph glyph-name="nonmarkingreturn" horiz-adv-x="682" 
 />
    <glyph glyph-name="CR" unicode="&#xd;" horiz-adv-x="491" 
 />
    <glyph glyph-name="space" unicode=" " horiz-adv-x="462" 
 />
    <glyph glyph-name="exclam" unicode="!" horiz-adv-x="579" 
d="M455 1481l-78 -1024h-189l-82 1024h349zM444 319v-319h-327v319h327z" />
    <glyph glyph-name="quotedbl" unicode="&#x22;" horiz-adv-x="987" 
d="M461 1481l-78 -574h-150l-77 574h305zM909 1481l-80 -574h-149l-76 574h305z" />
    <glyph glyph-name="numbersign" unicode="#" horiz-adv-x="1259" 
d="M1190 881h-244l-39 -265h217v-155h-241l-68 -465l-158 20l66 445h-277l-67 -465l-156 20l66 445h-234v155h258l39 265h-231v155h254l67 449l154 -17l-64 -432h277l68 449l155 -17l-63 -432h221v-155zM748 616l38 265h-276l-39 -265h277z" />
    <glyph glyph-name="dollar" unicode="$" horiz-adv-x="1396" 
d="M1294 401q0 -166 -119 -276.5t-325 -136.5v-183h-258v183q-214 24 -341.5 131.5t-148.5 296.5l312 6q25 -99 106 -152t205 -53q109 0 180.5 52.5t71.5 131.5t-50 120t-163 67l-244 51q-175 37 -273.5 139t-99.5 269q-3 177 122 294.5t329 149.5v201h258v-203
q192 -33 303.5 -153t108.5 -281l-303 -4q-14 105 -68 158t-168 53q-120 0 -191 -50t-71 -131q0 -67 44.5 -104.5t164.5 -67.5l237 -57q381 -93 381 -451z" />
    <glyph glyph-name="percent" unicode="%" horiz-adv-x="1929" 
d="M473 1503q158 0 265.5 -122.5t107.5 -301.5q0 -177 -106.5 -296t-266.5 -119t-267.5 119t-107.5 296q0 179 108.5 301.5t266.5 122.5zM1587 1497l-995 -1505l-174 2l997 1503h172zM471 815q154 0 154 264q0 130 -38.5 201.5t-115.5 71.5q-75 0 -114.5 -72.5t-39.5 -200.5
q0 -126 39 -195t115 -69zM1446 821q158 0 265.5 -123t107.5 -301q0 -177 -107 -297t-266 -120q-161 0 -269 120t-108 297q0 178 109 301t268 123zM1444 133q76 0 113.5 69t37.5 193q0 129 -38.5 202t-112.5 73q-75 0 -114.5 -73.5t-39.5 -201.5q0 -123 39 -192.5t115 -69.5z
" />
    <glyph glyph-name="ampersand" unicode="&#x26;" horiz-adv-x="1609" 
d="M729 1503q193 0 323 -89.5t130 -231.5q0 -205 -328 -396l231 -272q86 181 101 328h307q-18 -64 -53.5 -139t-61.5 -119.5t-81.5 -131.5t-69.5 -110l293 -342h-342l-127 145q-212 -155 -478 -155q-236 0 -356.5 103.5t-120.5 277.5q0 147 89.5 250t285.5 206
q-49 55 -74 85t-53 73t-39.5 84t-11.5 88q0 149 122 247.5t314 98.5zM743 1321q-71 -1 -113 -42t-42 -101q0 -85 100 -197l43 -45q106 66 147.5 120t41.5 113q0 76 -51.5 115.5t-125.5 36.5zM616 657q-91 -51 -143 -119t-41 -149q9 -79 72.5 -125.5t142.5 -46.5
q63 0 135.5 28t124.5 77z" />
    <glyph glyph-name="quotesingle" unicode="'" horiz-adv-x="536" 
d="M420 1481l-78 -574h-149l-78 574h305z" />
    <glyph glyph-name="parenleft" unicode="(" horiz-adv-x="686" 
d="M625 1481q-110 -208 -173 -443t-63 -471q0 -226 56.5 -441t170.5 -456h-208q-143 240 -214 447t-71 452q0 246 77.5 479.5t213.5 432.5h211z" />
    <glyph glyph-name="parenright" unicode=")" horiz-adv-x="692" 
d="M18 1481h211q136 -199 213.5 -432.5t77.5 -479.5t-70.5 -452.5t-213.5 -446.5h-209q114 241 170.5 456t56.5 441q0 236 -63 471t-173 443z" />
    <glyph glyph-name="asterisk" unicode="*" horiz-adv-x="974" 
d="M653 670l-168 280l-172 -284l-159 110l211 254l-302 82l64 174l285 -123l-23 318h195l-27 -320l289 129l55 -176l-293 -84l207 -248z" />
    <glyph glyph-name="plus" unicode="+" horiz-adv-x="1206" 
d="M1081 854v-217h-372v-375h-217v373h-377v219h374v375h220v-375h372z" />
    <glyph glyph-name="comma" unicode="," horiz-adv-x="567" 
d="M96 -287l119 279l-104 10v289h303v-254l-207 -324h-111z" />
    <glyph glyph-name="hyphen" unicode="-" horiz-adv-x="815" 
d="M680 637v-219h-559v217z" />
    <glyph glyph-name="period" unicode="." horiz-adv-x="557" 
d="M432 326v-326h-328v326h328z" />
    <glyph glyph-name="slash" unicode="/" horiz-adv-x="782" 
d="M23 -37l518 1518h207l-517 -1518h-208z" />
    <glyph glyph-name="zero" unicode="0" horiz-adv-x="1368" 
d="M684 1503q270 0 435 -202.5t165 -563.5q0 -359 -163.5 -557t-436.5 -198q-275 0 -438.5 197t-163.5 556q0 182 44.5 328t124.5 242t190.5 147t242.5 51zM684 223q137 0 203.5 120.5t66.5 391.5q0 277 -68 404t-202 127q-135 0 -202.5 -127t-67.5 -404q0 -269 67.5 -390.5
t202.5 -121.5z" />
    <glyph glyph-name="one" unicode="1" horiz-adv-x="839" 
d="M326 0v1147l-265 -76v207l406 203h160v-1481h-301z" />
    <glyph glyph-name="two" unicode="2" horiz-adv-x="1271" 
d="M82 0v223l465 418q191 167 251 245.5t60 166.5q0 94 -66 147t-161 53q-98 0 -175.5 -52t-113.5 -165l-276 19q27 204 173 325t400 121q243 0 387.5 -121t144.5 -325q0 -81 -29.5 -151t-84 -136t-160.5 -168l-365 -348h654v-252h-1104z" />
    <glyph glyph-name="three" unicode="3" horiz-adv-x="1378" 
d="M86 1098q9 89 47.5 159t95.5 115t133.5 74.5t157.5 42t172 12.5q157 0 285 -49t202 -138t74 -200q0 -227 -274 -321q137 -37 229 -131.5t92 -235.5q0 -103 -52.5 -188.5t-139.5 -141t-196.5 -86t-225.5 -30.5q-133 0 -233.5 19.5t-183.5 65t-134 127t-67 199.5l278 19
q27 -70 81.5 -114.5t112.5 -60.5t124 -16q136 0 219.5 59.5t83.5 147.5q0 94 -80.5 154.5t-198.5 62.5l-201 2v236l172 8q121 3 197 60.5t76 142.5q0 76 -74 127t-174 51q-58 0 -104.5 -8t-91.5 -28t-76.5 -59t-46.5 -96z" />
    <glyph glyph-name="four" unicode="4" horiz-adv-x="1302" 
d="M731 1481h299v-895h221v-258h-221v-328h-301l2 328h-668v252zM375 586h356v479z" />
    <glyph glyph-name="five" unicode="5" horiz-adv-x="1372" 
d="M233 1481h957l-14 -246h-705l-31 -356q78 29 111 40.5t91.5 23t117.5 11.5q151 0 267.5 -52.5t185.5 -160.5t69 -258q0 -235 -162 -369t-432 -134q-196 0 -358.5 76t-251.5 204l221 158q36 -41 59.5 -65t58.5 -53t67 -44.5t75 -26t92 -10.5q143 0 224 71t81 183
q0 109 -73.5 174.5t-200.5 65.5q-65 0 -122 -20t-140 -62q-20 -8 -24.5 -8t-24.5 10l-203 112z" />
    <glyph glyph-name="six" unicode="6" horiz-adv-x="1333" 
d="M709 1507q210 0 356.5 -106.5t163.5 -280.5l-266 -20q-35 85 -93 127.5t-153 42.5q-159 0 -240 -139.5t-61 -368.5q50 72 141 110.5t197 38.5q227 0 362 -123.5t135 -318.5q0 -139 -73 -249t-201 -170t-289 -60q-284 0 -446 196t-162 531q0 369 169 579.5t460 210.5z
M686 688q-100 0 -181 -54.5t-81 -123.5q12 -146 79 -220.5t177 -74.5q106 0 181 69t75 173q0 105 -72.5 168t-177.5 63z" />
    <glyph glyph-name="seven" unicode="7" horiz-adv-x="1214" 
d="M61 1481h1106v-305q-187 -235 -346 -585t-168 -591h-323q8 99 42 232t96 298t170.5 352.5t244.5 352.5h-822v246z" />
    <glyph glyph-name="eight" unicode="8" horiz-adv-x="1320" 
d="M653 1501q235 0 386 -116.5t151 -294.5q0 -55 -19 -103.5t-45.5 -80.5t-61 -58.5t-58 -39t-43.5 -20.5q5 -3 30 -14.5t36.5 -17t37 -20t39.5 -25.5t37 -30t36.5 -37t29.5 -43.5t25 -52t15 -60t6 -70.5q0 -205 -166 -321.5t-444 -116.5q-264 0 -420.5 101.5t-156.5 283.5
q0 234 272 344q-1 0 -20.5 11t-37 23t-44.5 32t-48.5 46.5t-41.5 59t-31 75.5t-11 91q0 193 150 323.5t397 130.5zM659 1276q-101 0 -168 -52.5t-67 -136.5q0 -125 145 -163l160 -47q57 -15 119.5 55.5t62.5 148.5q0 84 -67.5 139.5t-184.5 55.5zM666 205q122 0 192 50.5
t70 137.5q0 64 -38 106.5t-128 69.5l-191 58q-63 20 -139 -47t-76 -164q0 -101 76.5 -156t233.5 -55z" />
    <glyph glyph-name="nine" unicode="9" horiz-adv-x="1333" 
d="M618 -18q-208 0 -356.5 109t-165.5 280l275 18q64 -170 235 -170q170 0 263 127t75 391q-43 -82 -134.5 -128t-215.5 -46q-229 0 -371.5 127.5t-142.5 329.5q0 211 158.5 345t402.5 134q285 0 446.5 -195t161.5 -532q0 -394 -166 -592t-465 -198zM645 801q98 0 179 56
t81 122q-12 147 -78.5 222t-175.5 75q-105 0 -175 -68.5t-70 -173.5q0 -103 67.5 -168t171.5 -65z" />
    <glyph glyph-name="colon" unicode=":" horiz-adv-x="557" 
d="M432 1034v-321h-328v321h328zM432 326v-320h-328v320h328z" />
    <glyph glyph-name="semicolon" unicode=";" horiz-adv-x="577" 
d="M106 702v326h328v-326h-328zM92 -315l133 315h-116v322h327v-285l-223 -352h-121z" />
    <glyph glyph-name="less" unicode="&#x3c;" horiz-adv-x="1202" 
d="M1049 469v-256l-945 365v249l945 367v-256l-615 -238z" />
    <glyph glyph-name="equal" unicode="=" horiz-adv-x="1206" 
d="M1081 1049v-218h-966v218h966zM1081 582v-220h-966v218z" />
    <glyph glyph-name="greater" unicode="&#x3e;" horiz-adv-x="1202" 
d="M139 469l617 231l-619 238v256l946 -367v-249l-944 -365v256z" />
    <glyph glyph-name="question" unicode="?" horiz-adv-x="1110" 
d="M27 1165q66 162 200.5 249t321.5 87q216 0 350.5 -100t134.5 -248q0 -68 -22 -126.5t-56.5 -102t-77 -84t-84.5 -80t-76.5 -81.5t-56.5 -97.5t-22 -118.5h-240q0 105 35 193t85 147.5t100 112t85 108.5t35 113q0 72 -54.5 115.5t-139.5 43.5q-84 0 -157.5 -52.5
t-106.5 -139.5zM682 319v-319h-326v319h326z" />
    <glyph glyph-name="at" unicode="@" horiz-adv-x="1712" 
d="M1370 -70q-82 -68 -211 -111.5t-282 -43.5q-180 0 -329 58.5t-247.5 160.5t-152.5 237.5t-54 290.5q0 161 58.5 306t163 254t260 173t339.5 64q111 0 213.5 -23t195 -73.5t161 -123.5t109 -181.5t40.5 -239.5q0 -228 -110 -372t-283 -144q-146 0 -192 94q-8 12 -12 11.5
t-13 -11.5q-104 -123 -266 -123q-130 0 -217 98t-86 256q0 123 48.5 227.5t142 169t212.5 64.5q77 0 127 -26.5t90 -75.5q4 -5 10 -3.5t7 11.5l10 43h172l-74 -440q-21 -125 62 -125q78 0 135 88t57 246q0 107 -30 191.5t-81 139.5t-121 91t-146 51.5t-161 15.5
q-159 0 -283 -50.5t-199 -138t-113.5 -200t-38.5 -242.5q0 -277 166.5 -436.5t459.5 -159.5q67 0 120 8.5t100 28.5t75.5 37t77.5 49zM666 508q0 -85 37.5 -140t105.5 -55q85 0 147 72.5t68 169.5q7 94 -36 153.5t-116 59.5q-86 0 -146 -75.5t-60 -184.5z" />
    <glyph glyph-name="A" unicode="A" horiz-adv-x="1478" 
d="M53 0l531 1481h315l528 -1481h-297l-120 344h-535l-123 -344h-299zM543 604h395l-197 588z" />
    <glyph glyph-name="B" unicode="B" horiz-adv-x="1413" 
d="M168 0v1481h537q571 0 571 -389q0 -114 -58 -194.5t-198 -139.5q72 -18 125.5 -48.5t85 -64.5t50.5 -77.5t25.5 -82.5t6.5 -84q0 -205 -140.5 -303t-443.5 -98h-561zM467 868h285q64 0 116 18.5t86.5 62t34.5 106.5q0 93 -71 143.5t-187 50.5h-264v-381zM467 231h268
q131 0 202 53.5t71 145.5q0 96 -71 148.5t-185 52.5h-285v-400z" />
    <glyph glyph-name="C" unicode="C" horiz-adv-x="1482" 
d="M776 1501q250 0 417 -141t191 -359l-313 -4q-22 121 -99 189.5t-204 68.5q-330 0 -330 -507q0 -264 87 -393.5t249 -129.5q115 0 193 76t102 197l311 -6q-14 -110 -53 -199t-108 -161t-180.5 -112t-256.5 -40q-204 0 -357 97t-234.5 272t-81.5 403q0 346 179 547.5
t488 201.5z" />
    <glyph glyph-name="D" unicode="D" horiz-adv-x="1478" 
d="M168 1481q315 0 442 -2q393 -9 580.5 -198.5t187.5 -532.5q0 -355 -195 -551.5t-583 -196.5h-432v1481zM469 1239v-997h137q99 0 179.5 27.5t144.5 86t99.5 158.5t35.5 236q0 489 -455 489h-141z" />
    <glyph glyph-name="E" unicode="E" horiz-adv-x="1318" 
d="M168 0v1481h1018l-2 -252h-715v-359h621v-247h-623v-367l729 -2v-254h-1028z" />
    <glyph glyph-name="F" unicode="F" horiz-adv-x="1249" 
d="M168 1481h1008l-2 -250h-705v-373h610v-244h-610v-614h-301v1481z" />
    <glyph glyph-name="G" unicode="G" horiz-adv-x="1564" 
d="M776 -20q-305 0 -486 205.5t-181 549.5q0 350 188.5 558t495.5 208q128 0 240 -41.5t190 -110.5t124 -159t50 -186l-316 -7q-23 111 -100.5 181.5t-194.5 70.5q-160 0 -256 -124.5t-96 -376.5q0 -140 29.5 -241.5t82 -157.5t114.5 -81.5t137 -25.5q123 0 201.5 74
t88.5 163l15 90h-307v207l620 -2v-774h-205v193q-33 -43 -68 -76.5t-87 -66.5t-123 -51.5t-156 -18.5z" />
    <glyph glyph-name="H" unicode="H" horiz-adv-x="1495" 
d="M1030 637h-563v-637h-299v1481h299v-594h563v594h301v-1481h-301v637z" />
    <glyph glyph-name="I" unicode="I" horiz-adv-x="630" 
d="M168 1481h299v-1481h-299v1481z" />
    <glyph glyph-name="J" unicode="J" horiz-adv-x="833" 
d="M686 412q0 -113 -16.5 -189t-58.5 -133t-116.5 -83.5t-187.5 -26.5q-131 0 -256 32l6 275q3 -1 31 -8t40.5 -9.5t37 -6t45.5 -3.5q100 0 138 53t38 179v989h299v-1069z" />
    <glyph glyph-name="K" unicode="K" horiz-adv-x="1472" 
d="M1417 0h-327l-394 690l-217 -266v-424h-311v1481h311v-678l539 678h344l-449 -572z" />
    <glyph glyph-name="L" unicode="L" horiz-adv-x="1171" 
d="M168 1481h301v-1229h643v-252h-944v1481z" />
    <glyph glyph-name="M" unicode="M" horiz-adv-x="1880" 
d="M168 0v1481h434l338 -1055l342 1055h434v-1481h-303v1133l-354 -1133h-236l-354 1126v-1126h-301z" />
    <glyph glyph-name="N" unicode="N" horiz-adv-x="1603" 
d="M1139 1481h301v-1481h-271l-702 1018v-1018h-299v1481h297l674 -981v981z" />
    <glyph glyph-name="O" unicode="O" horiz-adv-x="1581" 
d="M793 -20q-317 0 -500.5 202t-183.5 553q0 354 186 560t498 206q310 0 493.5 -205.5t183.5 -558.5q0 -351 -182 -554t-495 -203zM793 225q352 0 352 508q0 268 -92 395t-260 127t-262.5 -127.5t-94.5 -394.5q0 -260 94 -384t263 -124z" />
    <glyph glyph-name="P" unicode="P" horiz-adv-x="1345" 
d="M168 0v1481h545q164 0 291 -55.5t201.5 -166.5t74.5 -264q0 -219 -143 -343t-385 -124h-283v-528h-301zM467 760h276q112 0 184 72t72 180t-74.5 173.5t-185.5 65.5h-272v-491z" />
    <glyph glyph-name="Q" unicode="Q" horiz-adv-x="1564" 
d="M80 737q0 354 185 559t499 205q312 0 496 -205t184 -559q0 -407 -248 -612q24 -62 90.5 -98.5t151.5 -38.5v-240q-81 0 -141 8.5t-125.5 33.5t-124.5 75.5t-115 128.5q-98 -14 -168 -14q-316 0 -500 201.5t-184 555.5zM410 733q0 -264 90 -386t264 -122q173 0 263.5 122
t90.5 388q0 520 -354 520t-354 -522z" />
    <glyph glyph-name="R" unicode="R" horiz-adv-x="1433" 
d="M1317 0h-309l-242 571h-299v-571h-299v1481h625q256 0 383 -119.5t127 -323.5q0 -84 -20.5 -152.5t-58.5 -118t-81.5 -84t-100.5 -62.5zM739 801q119 0 189.5 63.5t70.5 165.5q0 101 -66.5 162t-170.5 61h-295v-452h272z" />
    <glyph glyph-name="S" unicode="S" horiz-adv-x="1454" 
d="M735 -20q-115 0 -221 27t-194.5 79t-147 137t-70.5 193l312 6q21 -98 107.5 -152.5t211.5 -54.5q134 0 219.5 47.5t85.5 138.5q0 78 -67.5 122.5t-188.5 68.5l-262 51q-175 33 -273.5 135t-99.5 269q-2 136 75 240t209.5 158t297.5 54q129 0 239 -37t185 -99t121 -141.5
t55 -166.5l-303 -4q-27 211 -293 211q-120 0 -193 -50.5t-73 -130.5q0 -68 45.5 -107t163.5 -65l256 -53q414 -79 414 -455q0 -181 -170.5 -301t-440.5 -120z" />
    <glyph glyph-name="T" unicode="T" horiz-adv-x="1251" 
d="M33 1214v267h1186v-267h-439v-1214h-299v1214h-448z" />
    <glyph glyph-name="U" unicode="U" horiz-adv-x="1501" 
d="M1354 565q0 -283 -141 -434t-453 -151q-159 0 -274 40.5t-184.5 119t-101.5 185.5t-32 248v908h305v-930q0 -160 77 -239t210 -79q134 0 212.5 79t78.5 239v930h303v-916z" />
    <glyph glyph-name="V" unicode="V" horiz-adv-x="1409" 
d="M1384 1481l-512 -1481h-337l-508 1481h284l391 -1133l396 1133h286z" />
    <glyph glyph-name="W" unicode="W" horiz-adv-x="1990" 
d="M1948 1481l-437 -1481h-239l-279 969l-278 -969h-236l-436 1481h293l276 -977l275 977h215l280 -977l275 977h291z" />
    <glyph glyph-name="X" unicode="X" horiz-adv-x="1441" 
d="M1399 0h-373l-332 532l-327 -532h-324l492 752l-478 729h373l293 -477l295 477h319l-456 -690z" />
    <glyph glyph-name="Y" unicode="Y" horiz-adv-x="1357" 
d="M1341 1481l-514 -858v-623h-299v623l-514 858h324l342 -600l336 600h325z" />
    <glyph glyph-name="Z" unicode="Z" horiz-adv-x="1372" 
d="M100 0v145l752 1086h-700v250h1128v-140l-764 -1087h756v-254h-1172z" />
    <glyph glyph-name="bracketleft" unicode="[" horiz-adv-x="690" 
d="M154 1481h469v-170h-224l-2 -1471h226v-170h-469v1811z" />
    <glyph glyph-name="backslash" unicode="\" horiz-adv-x="782" 
d="M535 -37l-519 1518h209l518 -1518h-208z" />
    <glyph glyph-name="bracketright" unicode="]" horiz-adv-x="702" 
d="M496 1481v-1811h-469v170h225l-2 1471h-223v170h469z" />
    <glyph glyph-name="asciicircum" unicode="^" horiz-adv-x="997" 
d="M700 250l-211 524l-213 -522h-202l319 754q19 45 57.5 63t77 1.5t58.5 -62.5l317 -758h-203z" />
    <glyph glyph-name="underscore" unicode="_" horiz-adv-x="1138" 
d="M1006 -66v-217h-887v215z" />
    <glyph glyph-name="grave" unicode="`" horiz-adv-x="655" 
d="M94 1503l518 -211l-43 -127l-542 144z" />
    <glyph glyph-name="a" unicode="a" 
d="M438 -20q-157 0 -257.5 86t-100.5 237q0 176 132.5 266t410.5 93l131 2v63q0 75 -45.5 113.5t-130.5 38.5q-70 -2 -127.5 -36t-79.5 -100h-248q7 160 136 248t333 88q448 0 448 -334v-745h-249l-25 180q-52 -110 -131.5 -155t-196.5 -45zM539 176q82 0 148.5 54.5
t66.5 123.5v156l-107 -2q-125 -2 -203.5 -43t-78.5 -131q0 -73 49 -115.5t125 -42.5z" />
    <glyph glyph-name="b" unicode="b" horiz-adv-x="1234" 
d="M707 -20q-114 0 -204.5 49.5t-127.5 122.5l-31 -152h-215v1522h299v-617q45 76 129 125t186 49q201 0 310.5 -147.5t109.5 -396.5q0 -257 -119.5 -406t-336.5 -149zM631 195q105 0 166 83t61 261q0 323 -217 323q-83 0 -138 -58t-75 -173v-148q0 -135 58 -211.5
t145 -76.5z" />
    <glyph glyph-name="c" unicode="c" horiz-adv-x="1112" 
d="M588 1079q190 0 310 -114t134 -291l-250 -2q-17 78 -64 129t-126 51q-110 0 -174 -86t-64 -238q0 -155 66 -245t176 -90q79 0 127.5 54t62.5 124h242q-12 -171 -133 -281t-307 -110q-225 0 -368.5 151t-143.5 393q0 246 143 400.5t369 154.5z" />
    <glyph glyph-name="d" unicode="d" horiz-adv-x="1220" 
d="M522 -20q-211 0 -328.5 145t-117.5 403q0 254 112.5 402.5t313.5 148.5q194 0 301 -137v580h299v-1522h-217l-33 211q-80 -231 -330 -231zM592 195q91 0 151 69.5t60 177.5v224q-42 196 -209 196q-104 0 -165.5 -78t-61.5 -249q0 -175 61.5 -257.5t163.5 -82.5z" />
    <glyph glyph-name="e" unicode="e" horiz-adv-x="1163" 
d="M373 461q-2 -123 57.5 -193.5t165.5 -70.5q164 0 215 139h268q-30 -165 -165.5 -260.5t-309.5 -95.5q-237 0 -382.5 146t-145.5 392q0 160 59.5 286t177 200.5t275.5 74.5q237 0 365 -146t128 -390v-82h-708zM371 639h432q0 101 -56 166t-159 65q-98 0 -157.5 -69
t-59.5 -162z" />
    <glyph glyph-name="f" unicode="f" horiz-adv-x="806" 
d="M764 1059v-207h-223v-852h-299v852h-195v207h195v151q0 129 75 200t213 71h244v-199h-139q-56 0 -77 -27.5t-21 -93.5v-102h227z" />
    <glyph glyph-name="g" unicode="g" horiz-adv-x="1275" 
d="M614 -350q-279 0 -428 71t-149 189q0 41 19 75t49 55.5t57 35.5t53.5 24t28.5 11l-20 11q-21 10 -29.5 15.5t-27.5 20t-28.5 28t-17.5 35t-8 45.5q0 60 56 107t161 65q-106 49 -159.5 130t-53.5 175q0 103 67 179t179.5 114.5t254.5 38.5q101 0 171.5 -21.5t136.5 -62.5
q244 97 311 125v-231l-184 -29q24 -70 24 -113q0 -68 -31 -130t-89 -111.5t-151.5 -79t-209.5 -29.5q-48 0 -102 4q-107 -5 -107 -43q0 -23 40 -31.5t146 -15.5q118 -5 220 -12q194 -13 289.5 -93.5t95.5 -209.5q0 -156 -146 -249t-418 -93zM606 561q89 0 139 47t50 127
q0 81 -50.5 132t-138.5 51q-86 0 -138 -51.5t-52 -131.5t50.5 -127t139.5 -47zM662 -182q125 0 178 29t53 90q0 103 -160 112l-244 17q-69 3 -114 -33.5t-45 -87.5q0 -68 81 -97.5t251 -29.5z" />
    <glyph glyph-name="h" unicode="h" horiz-adv-x="1218" 
d="M129 0v1522h297v-602q100 145 305 145q155 0 262 -93t107 -239v-733h-299v690q0 66 -50.5 105t-125.5 39q-80 0 -138.5 -41t-58.5 -111v-682h-299z" />
    <glyph glyph-name="i" unicode="i" horiz-adv-x="565" 
d="M438 1522v-293h-305v293h305zM436 1059v-1059h-299v1059h299z" />
    <glyph glyph-name="j" unicode="j" horiz-adv-x="600" 
d="M465 1522v-293h-305v293h305zM461 8q0 -176 -85.5 -262t-271.5 -86q-49 0 -83 7t-43 15l-9 7l-2 200l82 9q64 9 88.5 34t24.5 78v1049h299v-1051z" />
    <glyph glyph-name="k" unicode="k" horiz-adv-x="1193" 
d="M1153 0h-299l-285 457l-141 -150v-307h-299v1522h299v-918l406 455h305l-383 -422z" />
    <glyph glyph-name="l" unicode="l" horiz-adv-x="663" 
d="M471 -18q-90 0 -155 19t-100 47t-55 73.5t-25 83.5t-5 92v1225h295v-1188q0 -62 26.5 -97t92.5 -42l49 -2v-187q-70 -24 -123 -24z" />
    <glyph glyph-name="m" unicode="m" horiz-adv-x="1865" 
d="M129 0v1059h293v-137q118 157 338 157q98 0 181 -38t128 -117q52 72 140 113.5t186 41.5q64 0 124.5 -20t112.5 -60.5t83.5 -111t31.5 -160.5v-727h-299v694q0 86 -49.5 126t-124.5 40q-189 0 -189 -192v-668h-297v721q0 64 -52 101.5t-124 37.5q-70 0 -127 -39t-57 -110
v-711h-299z" />
    <glyph glyph-name="n" unicode="n" horiz-adv-x="1220" 
d="M129 0v1059h295v-137q57 71 125 109t182 38q98 0 182 -43.5t136.5 -127.5t52.5 -191v-707h-299v670q0 76 -50 120t-126 44q-80 0 -139.5 -40t-59.5 -108v-686h-299z" />
    <glyph glyph-name="o" unicode="o" 
d="M584 -20q-235 0 -373.5 150t-138.5 392q0 249 142 403t372 154q235 0 372.5 -154.5t137.5 -400.5q0 -242 -138.5 -393t-373.5 -151zM586 203q60 0 104 27.5t68 76t35.5 104.5t11.5 121q0 66 -11.5 122.5t-36 104t-68.5 74.5t-103 27q-79 0 -130.5 -48.5t-71 -119
t-19.5 -160.5q0 -65 11.5 -121t36 -104t69 -76t104.5 -28z" />
    <glyph glyph-name="p" unicode="p" horiz-adv-x="1234" 
d="M129 -330v1389h299v-133q53 69 131.5 111t177.5 42q89 0 165 -33.5t134.5 -98.5t91.5 -169.5t33 -238.5q0 -140 -37 -249t-101 -175.5t-146 -100.5t-177 -34q-85 0 -152.5 38.5t-119.5 135.5v-484h-299zM643 195q103 0 171.5 89t68.5 251q0 155 -68.5 241t-167.5 86
q-88 0 -153.5 -67.5t-65.5 -145.5v-272q23 -80 82.5 -131t132.5 -51z" />
    <glyph glyph-name="q" unicode="q" horiz-adv-x="1228" 
d="M1110 -330h-299v430q-133 -120 -295 -120q-195 0 -317.5 141.5t-122.5 417.5q0 134 33.5 238.5t92.5 169.5t135 98.5t165 33.5q163 0 309 -127v107h299v-1389zM612 180q74 0 124.5 67t74.5 189v162q0 127 -55.5 203t-147.5 76q-100 0 -164.5 -85.5t-64.5 -250.5
t65.5 -263t167.5 -98z" />
    <glyph glyph-name="r" unicode="r" horiz-adv-x="831" 
d="M129 0v1059h289v-260q47 122 144.5 201t225.5 79l3 -282q-94 7 -166.5 -10.5t-114 -52t-62 -77t-20.5 -90.5v-567h-299z" />
    <glyph glyph-name="s" unicode="s" horiz-adv-x="1089" 
d="M557 -20q-85 0 -162.5 19t-144.5 58t-113 106.5t-59 155.5h252q42 -135 231 -135q90 0 140.5 30t50.5 81q0 43 -36.5 67t-107.5 41l-186 39q-308 65 -311 301q-1 150 123 243t325 93q197 0 316.5 -92t117.5 -235h-250q-12 65 -64 98t-128 33q-75 0 -126.5 -27.5
t-51.5 -89.5q0 -40 40 -64.5t130 -42.5l172 -38q85 -21 146 -59t90.5 -83.5t42 -86t12.5 -81.5q0 -105 -61 -181.5t-161.5 -113t-226.5 -36.5z" />
    <glyph glyph-name="t" unicode="t" horiz-adv-x="864" 
d="M768 852h-236l3 -561q0 -56 20 -76t61 -20h158v-181q-63 -26 -186 -26q-102 0 -172.5 20t-109 59.5t-54.5 89.5t-16 117v578h-173v207h183l41 319h245v-317h236v-209z" />
    <glyph glyph-name="u" unicode="u" horiz-adv-x="1220" 
d="M522 -20q-67 1 -134.5 23t-126 62.5t-95.5 109.5t-37 153v733h299v-696q0 -81 53 -124.5t129 -43.5q82 0 135.5 47t53.5 127v690h303l-6 -1061h-226l-32 217q-13 -70 -47 -119.5t-80.5 -73.5t-92 -34t-96.5 -10z" />
    <glyph glyph-name="v" unicode="v" horiz-adv-x="1067" 
d="M1040 1059l-397 -1059h-217l-397 1059h270l231 -674h9l227 674h274z" />
    <glyph glyph-name="w" unicode="w" horiz-adv-x="1628" 
d="M1591 1059l-348 -1059h-237l-197 641l-199 -641h-229l-344 1059h264l203 -658h8l195 658h213l198 -658h6l197 658h270z" />
    <glyph glyph-name="x" unicode="x" horiz-adv-x="1204" 
d="M1167 0h-313l-252 344l-254 -344h-313l407 551l-370 508h311l221 -297l219 297h314l-375 -508z" />
    <glyph glyph-name="y" unicode="y" horiz-adv-x="1157" 
d="M295 -338q-64 0 -113.5 9t-67.5 19l-18 9v190l107 -4q52 -3 92 4t60.5 16.5t37 29t20 27t9.5 24.5l18 59l-411 1014h295l254 -690l258 690h292l-430 -1065q-41 -99 -86 -165.5t-96 -102t-103 -50t-118 -14.5z" />
    <glyph glyph-name="z" unicode="z" horiz-adv-x="1075" 
d="M72 0v154l546 716h-503v189h878v-152l-551 -714h557v-193h-927z" />
    <glyph glyph-name="braceleft" unicode="{" horiz-adv-x="784" 
d="M256 1239q0 113 94 177.5t219 64.5h150v-170h-90q-80 0 -103.5 -26t-23.5 -79v-407q-3 -98 -66.5 -149t-148.5 -60q-8 -1 -11 -3.5t-0.5 -5t11.5 -3.5q39 -3 73 -15t67.5 -35.5t53.5 -67t21 -102.5v-411q0 -58 27.5 -82.5t99.5 -24.5h90v-170h-146q-84 0 -154.5 26.5
t-116.5 83.5t-46 136v416q0 77 -58 126.5t-173 49.5v151q120 0 175.5 46.5t55.5 138.5v395z" />
    <glyph glyph-name="bar" unicode="|" horiz-adv-x="550" 
d="M387 -330h-219v2022h219v-2022z" />
    <glyph glyph-name="braceright" unicode="}" horiz-adv-x="794" 
d="M492 1239v-395q0 -92 55.5 -138.5t175.5 -46.5v-151q-115 0 -173 -49.5t-58 -126.5v-416q0 -79 -46.5 -136t-117 -83.5t-154.5 -26.5h-145v170h90q72 0 99.5 24.5t27.5 82.5v411q1 59 21 102.5t53.5 67t67.5 35.5t73 15q9 1 11.5 3.5t-0.5 5t-11 3.5q-85 9 -148.5 60
t-66.5 149v407q0 53 -23.5 79t-103.5 26h-90v170h149q127 0 220.5 -64.5t93.5 -177.5z" />
    <glyph glyph-name="asciitilde" unicode="~" horiz-adv-x="1259" 
d="M1126 772q-50 -88 -130 -136t-171 -48q-55 0 -110 20t-92.5 43.5t-87.5 43.5t-95 20q-37 0 -70 -11t-65 -36.5t-50 -43.5t-52 -55l-84 150q90 92 161 137t162 45q56 0 111 -19.5t92 -43t85 -43t91 -19.5q129 0 217 146z" />
    <glyph glyph-name="uni00A0" unicode="&#xa0;" horiz-adv-x="487" 
 />
    <glyph glyph-name="exclamdown" unicode="&#xa1;" horiz-adv-x="579" 
d="M449 739h-328v320h328v-320zM461 -330h-350l82 930h186z" />
    <glyph glyph-name="cent" unicode="&#xa2;" horiz-adv-x="1150" 
d="M627 420q79 0 127.5 54t60.5 124h244q-11 -147 -103.5 -251t-240.5 -132v-215h-199v215q-185 34 -297.5 179t-112.5 358q0 217 112 364.5t298 181.5v183h199v-183q151 -29 243.5 -137t104.5 -260l-250 -2q-17 78 -64.5 129t-125.5 51q-110 0 -174 -85.5t-64 -237.5
q0 -155 66 -245.5t176 -90.5z" />
    <glyph glyph-name="sterling" unicode="&#xa3;" horiz-adv-x="1331" 
d="M41 0v248h70q81 0 128.5 51.5t47.5 159.5q0 73 -23 235h-209v166h176l-20 184q-15 107 17.5 195.5t99 144.5t155.5 86.5t189 30.5q166 0 293.5 -77.5t185.5 -215.5l-260 -80q-35 73 -73.5 104.5t-100.5 31.5q-74 0 -120 -46.5t-46 -127.5q0 -68 33 -230h301v-166h-279
q12 -140 -4 -215q-10 -82 -38.5 -131.5t-80.5 -97.5h275q99 0 148.5 36t82.5 128l254 -56q-99 -358 -463 -358h-739z" />
    <glyph glyph-name="currency" unicode="&#xa4;" horiz-adv-x="1189" 
d="M592 301q-126 0 -232 64q-18 12 -32 -5l-121 -120l-125 129l135 133q-72 112 -72 241q0 131 62 226q8 20 -4 32l-121 121l125 129l137 -137q113 76 240 76q124 0 235 -68q16 -7 25 2l112 115l125 -129l-125 -123q74 -117 74 -242q0 -139 -67 -233q-3 -10 2 -14l118 -117
l-125 -129l-124 125q-120 -76 -242 -76zM588 498q104 0 176 73.5t72 173.5q0 99 -72 173.5t-176 74.5q-102 0 -174 -74.5t-72 -173.5q0 -100 71.5 -173.5t174.5 -73.5z" />
    <glyph glyph-name="yen" unicode="&#xa5;" horiz-adv-x="1353" 
d="M1362 1481l-473 -768h268v-162h-305v-160h305v-162h-305v-229h-340v229h-305v162h305v158h-305v164h248l-465 768h387l338 -592l334 592h313z" />
    <glyph glyph-name="brokenbar" unicode="&#xa6;" horiz-adv-x="550" 
d="M387 856h-219v836h219v-836zM387 -330h-219v836h219v-836z" />
    <glyph glyph-name="section" unicode="&#xa7;" horiz-adv-x="1052" 
d="M528 -160q-168 0 -294.5 69t-174.5 171l183 90q109 -145 282 -145q83 0 134 28t51 82q0 42 -36 76.5t-126 69.5l-156 59q-165 62 -238 137t-73 189q0 93 48 162t132 108q-91 53 -128.5 113.5t-37.5 136.5q0 137 113 226t301 89q149 0 265 -65.5t165 -159.5l-184 -90
q-53 61 -109.5 97t-128.5 36t-114 -28.5t-42 -76.5q0 -66 115 -112l160 -62q174 -67 250 -145t76 -197q0 -169 -166 -266q94 -53 136 -113.5t42 -144.5q0 -150 -117.5 -242t-327.5 -92zM584 526q60 -6 98.5 34.5t32.5 98.5q-3 45 -38.5 80t-117.5 66l-90 35
q-68 -4 -107.5 -41.5t-39.5 -89.5q0 -46 32 -75t127 -65z" />
    <glyph glyph-name="dieresis" unicode="&#xa8;" horiz-adv-x="751" 
d="M301 1481v-256h-264v256h264zM700 1481v-256h-264v256h264z" />
    <glyph glyph-name="copyright" unicode="&#xa9;" horiz-adv-x="1703" 
d="M846 -20q-208 0 -383 101t-277 276.5t-102 383.5q0 154 60 294.5t162 242.5t243.5 162.5t296.5 60.5q154 0 294.5 -60.5t242.5 -162.5t162.5 -242.5t60.5 -294.5q0 -156 -60.5 -297.5t-162.5 -242.5t-242.5 -161t-294.5 -60zM846 147q254 0 416.5 163t162.5 431
q0 266 -163 431t-416 165q-256 0 -418 -164.5t-162 -431.5q0 -269 161.5 -431.5t418.5 -162.5zM850 1169q72 0 134 -23.5t105.5 -62.5t73 -84.5t45.5 -95.5l-209 -22q-22 61 -54 96t-87 35q-81 0 -128.5 -68t-47.5 -196q0 -135 49.5 -203t138.5 -68q66 0 110.5 37.5
t78.5 106.5l149 -39q-15 -43 -41.5 -84.5t-68.5 -84t-106.5 -68.5t-141.5 -26q-179 0 -293.5 118t-114.5 306q0 189 115 307.5t293 118.5z" />
    <glyph glyph-name="ordfeminine" unicode="&#xaa;" horiz-adv-x="841" 
d="M299 813q-104 0 -161.5 51t-57.5 137q0 100 93 162t255 66l80 6v43q0 53 -31 75.5t-78 22.5q-93 0 -135 -86l-168 35q40 89 111.5 131.5t198.5 42.5q154 -1 220 -55t66 -158v-256q0 -106 8 -143l15 -62h-193l-14 72q-61 -45 -105.5 -64.5t-103.5 -19.5zM373 934
q59 0 102 37q33 30 33 59v100l-66 -4q-81 -3 -126.5 -32.5t-45.5 -79.5q0 -36 28 -58t75 -22z" />
    <glyph glyph-name="guillemotleft" unicode="&#xab;" horiz-adv-x="1021" 
d="M338 514l166 -383h-160l-242 383l242 399h160zM727 514l166 -383h-158l-243 383l243 399h160z" />
    <glyph glyph-name="logicalnot" unicode="&#xac;" horiz-adv-x="1206" 
d="M115 854h966v-526h-241v309l-725 -2v219z" />
    <glyph glyph-name="uni00AD" unicode="&#xad;" horiz-adv-x="804" 
d="M721 637v-219h-559v217z" />
    <glyph glyph-name="registered" unicode="&#xae;" horiz-adv-x="1134" 
d="M561 549q-199 0 -338 138.5t-139 336.5t139 337.5t338 139.5q97 0 184.5 -37.5t151.5 -101.5t101.5 -152.5t37.5 -185.5t-37.5 -185t-101.5 -151.5t-151.5 -101t-184.5 -37.5zM561 668q156 0 251 97t95 259t-95 260t-251 98q-158 0 -253 -97.5t-95 -260.5t95 -259.5
t253 -96.5zM369 786v471h223q84 0 131 -32t47 -92q0 -90 -94 -127l92 -220h-127l-74 205h-82v-205h-116zM485 1075h101q28 0 45.5 12.5t17.5 36.5t-18 38t-51 14h-95v-101z" />
    <glyph glyph-name="macron" unicode="&#xaf;" horiz-adv-x="808" 
d="M758 1468v-190h-721v190h721z" />
    <glyph glyph-name="degree" unicode="&#xb0;" horiz-adv-x="972" 
d="M823 1368q0 -150 -97.5 -246t-246.5 -96q-148 0 -245 96t-97 246t97 247t245 97t246 -97t98 -247zM641 1366q0 76 -45 124t-121 48q-75 0 -120.5 -48.5t-43.5 -123.5q2 -78 46.5 -126t119.5 -48q74 0 119 48.5t45 125.5z" />
    <glyph glyph-name="plusminus" unicode="&#xb1;" horiz-adv-x="1206" 
d="M709 1028h372v-217h-372v-375h-217v375h-377v217h374v375h220v-375zM115 74v215l966 2v-217h-966z" />
    <glyph glyph-name="uni00B2" unicode="&#xb2;" horiz-adv-x="802" 
d="M41 786v142l293 262q119 103 156.5 153t37.5 105q0 60 -41.5 93.5t-101.5 33.5t-108.5 -33t-71.5 -102l-174 10q16 129 108 205t252 76q153 0 244 -76.5t90 -204.5q0 -74 -37 -133t-135 -154l-229 -219h411v-158h-694z" />
    <glyph glyph-name="uni00B3" unicode="&#xb3;" horiz-adv-x="833" 
d="M63 1477q7 70 41.5 121t89 79t116.5 41t134 13q152 0 253.5 -69t101.5 -175q0 -143 -172 -203q84 -22 142 -81.5t58 -147.5q0 -127 -116 -204t-271 -77q-83 0 -146.5 12t-115.5 40.5t-84 80t-43 125.5l176 12q47 -120 201 -120q86 0 138 37t52 94q0 59 -51.5 97
t-124.5 38l-125 2v149l109 5q74 1 122 37.5t48 89.5q0 48 -46.5 80t-109.5 32q-167 0 -202 -121z" />
    <glyph glyph-name="acute" unicode="&#xb4;" horiz-adv-x="655" 
d="M549 1503l67 -194l-542 -144l-43 127z" />
    <glyph glyph-name="paragraph" unicode="&#xb6;" horiz-adv-x="1224" 
d="M1106 1311h-127v-1481h-182v1481h-121v-1481h-182v782q-183 13 -302.5 127t-119.5 303q0 90 31.5 169t90.5 139.5t150.5 95.5t204.5 35h557v-170z" />
    <glyph glyph-name="periodcentered" unicode="&#xb7;" horiz-adv-x="544" 
d="M416 893v-295h-305v295h305z" />
    <glyph glyph-name="cedilla" unicode="&#xb8;" horiz-adv-x="563" 
d="M512 -270q0 -75 -71 -120.5t-173 -45.5q-144 0 -235 55l41 102q81 -51 157 -51q48 0 75.5 17t27.5 47q0 41 -40.5 62t-133.5 22q-14 0 -17.5 3t0.5 15l76 174h131l-45 -121q106 -1 156.5 -48t50.5 -111z" />
    <glyph glyph-name="uni00B9" unicode="&#xb9;" horiz-adv-x="632" 
d="M170 778v721l-168 -47v129l256 129h102v-932h-190z" />
    <glyph glyph-name="ordmasculine" unicode="&#xba;" horiz-adv-x="817" 
d="M408 1501q151 0 243 -96.5t92 -249.5q0 -151 -92 -245.5t-243 -94.5t-243.5 95t-92.5 245q0 154 94.5 250t241.5 96zM408 1372q-138 0 -138 -213q0 -215 138 -215q137 0 137 215q0 213 -137 213z" />
    <glyph glyph-name="guillemotright" unicode="&#xbb;" horiz-adv-x="1019" 
d="M281 514l-166 399h159l240 -399l-242 -383h-157zM672 514l-170 399h162l241 -399l-241 -383h-160z" />
    <glyph glyph-name="onequarter" unicode="&#xbc;" horiz-adv-x="2031" 
d="M170 565v721l-168 -47v129l256 129h102v-932h-190zM1470 1497l-995 -1505l-174 2l999 1503h170zM1622 932h188v-563h140v-162h-140v-207h-188v207h-420v158zM1399 369h223v301z" />
    <glyph glyph-name="onehalf" unicode="&#xbd;" horiz-adv-x="1966" 
d="M170 565v721l-168 -47v129l256 129h102v-932h-190zM1470 1497l-995 -1505l-174 2l999 1503h170zM1206 0v141l293 262q119 103 157 153.5t38 105.5q0 60 -41.5 93t-102.5 33q-60 0 -108.5 -33t-71.5 -102l-174 11q15 129 107.5 204.5t252.5 75.5q153 0 244 -76t90 -204
q0 -74 -37 -133t-135 -154l-229 -219h412v-158h-695z" />
    <glyph glyph-name="threequarters" unicode="&#xbe;" horiz-adv-x="2230" 
d="M63 1262q7 70 41.5 121t89 79t116.5 41t134 13q152 0 253.5 -69t101.5 -175q0 -143 -172 -203q84 -22 142 -81.5t58 -147.5q0 -127 -116 -204t-271 -77q-83 0 -146.5 12t-115.5 40.5t-84 80t-43 125.5l176 12q47 -120 201 -120q86 0 138 37t52 94q0 59 -51.5 97
t-124.5 38l-125 2v149l109 4q74 1 122 37.5t48 89.5q0 48 -46.5 80.5t-109.5 32.5q-167 0 -202 -121zM1671 1497l-995 -1505l-174 2l999 1503h170zM1821 932h188v-563h139v-162h-139v-207h-188v207h-420v158zM1597 369h224v301z" />
    <glyph glyph-name="questiondown" unicode="&#xbf;" horiz-adv-x="1118" 
d="M422 739v320h328v-320h-328zM1077 -12q-66 -164 -200 -251t-322 -87q-233 0 -359 98.5t-126 251.5q0 67 21.5 123t56.5 95t76.5 73.5t83.5 67t77 66.5t56.5 81t21.5 102h242q0 -69 -19 -128.5t-48.5 -102t-66 -79.5t-73 -69.5t-66 -63.5t-48.5 -69t-19 -80
q0 -68 55 -110.5t139 -42.5t158 51.5t106 134.5z" />
    <glyph glyph-name="Agrave" unicode="&#xc0;" horiz-adv-x="1478" 
d="M522 1925l518 -211l-43 -127l-542 144zM53 0l531 1481h315l528 -1481h-297l-120 344h-535l-123 -344h-299zM543 604h395l-197 588z" />
    <glyph glyph-name="Aacute" unicode="&#xc1;" horiz-adv-x="1478" 
d="M987 1925l68 -194l-543 -144l-43 127zM53 0l531 1481h315l528 -1481h-297l-120 344h-535l-123 -344h-299zM543 604h395l-197 588z" />
    <glyph glyph-name="Acircumflex" unicode="&#xc2;" horiz-adv-x="1478" 
d="M895 1640l-135 154l-150 -154h-221l270 277h205l264 -277h-233zM53 0l531 1481h315l528 -1481h-297l-120 344h-535l-123 -344h-299zM543 604h395l-197 588z" />
    <glyph glyph-name="Atilde" unicode="&#xc3;" horiz-adv-x="1478" 
d="M1092 1731q-74 -54 -179 -54q-59 0 -151.5 30t-143.5 30q-38 0 -66 -11t-65 -36q-11 -8 -17.5 -9.5t-11.5 3.5t-9 18l-29 84q-5 10 -3 22.5t17 24.5q37 36 77.5 55t98.5 19q60 0 159 -32t142 -32q69 0 138 49q32 22 41 -14l24 -100q6 -27 -22 -47zM53 0l531 1481h315
l528 -1481h-297l-120 344h-535l-123 -344h-299zM543 604h395l-197 588z" />
    <glyph glyph-name="Adieresis" unicode="&#xc4;" horiz-adv-x="1478" 
d="M692 1903v-256h-264v256h264zM1092 1903v-256h-265v256h265zM53 0l531 1481h315l528 -1481h-297l-120 344h-535l-123 -344h-299zM543 604h395l-197 588z" />
    <glyph glyph-name="Aring" unicode="&#xc5;" horiz-adv-x="1478" 
d="M983 1808q0 -95 -65 -159t-158 -64q-94 0 -158.5 65.5t-64.5 161.5q0 89 65.5 152.5t157.5 63.5t157.5 -64.5t65.5 -155.5zM858 1806q0 43 -28.5 72t-71.5 29q-42 0 -73.5 -29.5t-31.5 -71.5q0 -41 32 -72.5t73 -31.5q42 0 71 31t29 73zM53 0l531 1481h315l528 -1481
h-297l-120 344h-535l-123 -344h-299zM543 604h395l-197 588z" />
    <glyph glyph-name="AE" unicode="&#xc6;" horiz-adv-x="2199" 
d="M2077 250v-250h-1065v346h-477l-183 -346h-299l793 1481h1208v-248h-702v-365h479v-245h-479v-373h725zM1012 604v680l-365 -680h365z" />
    <glyph glyph-name="Ccedilla" unicode="&#xc7;" horiz-adv-x="1482" 
d="M774 225q115 0 193 76t102 197l311 -6q-13 -103 -48.5 -188.5t-97.5 -156t-160.5 -114t-227.5 -51.5l-35 -93q106 -1 156.5 -48t50.5 -111q0 -75 -71 -120.5t-173 -45.5q-144 0 -235 55l41 102q81 -51 157 -51q48 0 75.5 17t27.5 47q0 41 -40.5 62t-133.5 22
q-14 0 -17.5 3t0.5 15l64 146q-278 26 -441 235t-163 535q0 346 179 547.5t488 201.5q250 0 417 -141t191 -359l-313 -4q-22 121 -99 189.5t-204 68.5q-330 0 -330 -507q0 -264 87 -393.5t249 -129.5z" />
    <glyph glyph-name="Egrave" unicode="&#xc8;" horiz-adv-x="1318" 
d="M446 1925l519 -211l-43 -127l-543 144zM168 0v1481h1018l-2 -252h-715v-359h621v-247h-623v-367l729 -2v-254h-1028z" />
    <glyph glyph-name="Eacute" unicode="&#xc9;" horiz-adv-x="1318" 
d="M913 1925l68 -194l-543 -144l-43 127zM168 0v1481h1018l-2 -252h-715v-359h621v-247h-623v-367l729 -2v-254h-1028z" />
    <glyph glyph-name="Ecircumflex" unicode="&#xca;" horiz-adv-x="1318" 
d="M819 1640l-135 154l-149 -154h-222l271 277h204l265 -277h-234zM168 0v1481h1018l-2 -252h-715v-359h621v-247h-623v-367l729 -2v-254h-1028z" />
    <glyph glyph-name="Edieresis" unicode="&#xcb;" horiz-adv-x="1318" 
d="M616 1903v-256h-264v256h264zM1016 1903v-256h-264v256h264zM168 0v1481h1018l-2 -252h-715v-359h621v-247h-623v-367l729 -2v-254h-1028z" />
    <glyph glyph-name="Igrave" unicode="&#xcc;" horiz-adv-x="630" 
d="M82 1925l518 -211l-43 -127l-543 144zM168 1481h299v-1481h-299v1481z" />
    <glyph glyph-name="Iacute" unicode="&#xcd;" horiz-adv-x="630" 
d="M549 1925l67 -194l-542 -144l-43 127zM168 1481h299v-1481h-299v1481z" />
    <glyph glyph-name="Icircumflex" unicode="&#xce;" horiz-adv-x="630" 
d="M455 1640l-136 154l-149 -154h-223l272 277h205l264 -277h-233zM168 1481h299v-1481h-299v1481z" />
    <glyph glyph-name="Idieresis" unicode="&#xcf;" horiz-adv-x="630" 
d="M252 1903v-256h-264v256h264zM651 1903v-256h-264v256h264zM168 1481h299v-1481h-299v1481z" />
    <glyph glyph-name="Eth" unicode="&#xd0;" horiz-adv-x="1538" 
d="M672 1479q393 -9 580.5 -198.5t187.5 -532.5q0 -355 -195 -551.5t-583 -196.5h-435v623h-112q-25 0 -34 9t-9 32v141q0 37 30 37h125v639q318 0 445 -2zM668 242q99 0 179.5 27.5t144.5 86t99 158.5t35 236q0 489 -454 489h-142v-397h263q13 0 21.5 -8.5t8.5 -22.5v-143
q0 -24 -12.5 -34.5t-40.5 -10.5h-240v-381h138z" />
    <glyph glyph-name="Ntilde" unicode="&#xd1;" horiz-adv-x="1603" 
d="M1143 1731q-74 -54 -178 -54q-59 0 -151.5 30t-143.5 30q-38 0 -66 -11t-65 -36q-11 -7 -17.5 -9t-12 3t-9.5 18l-29 84q-5 10 -3 22.5t17 24.5q78 74 177 74q60 0 159 -32t142 -32q68 0 137 49q32 22 41 -14l24 -100q6 -27 -22 -47zM1139 1481h301v-1481h-271l-702 1018
v-1018h-299v1481h297l674 -981v981z" />
    <glyph glyph-name="Ograve" unicode="&#xd2;" horiz-adv-x="1581" 
d="M553 1925l518 -211l-43 -127l-543 144zM793 -20q-317 0 -500.5 202t-183.5 553q0 354 186 560t498 206q310 0 493.5 -205.5t183.5 -558.5q0 -351 -182 -554t-495 -203zM793 225q352 0 352 508q0 268 -92 395t-260 127t-262.5 -127.5t-94.5 -394.5q0 -260 94 -384
t263 -124z" />
    <glyph glyph-name="Oacute" unicode="&#xd3;" horiz-adv-x="1581" 
d="M1020 1925l67 -194l-542 -144l-43 127zM793 -20q-317 0 -500.5 202t-183.5 553q0 354 186 560t498 206q310 0 493.5 -205.5t183.5 -558.5q0 -351 -182 -554t-495 -203zM793 225q352 0 352 508q0 268 -92 395t-260 127t-262.5 -127.5t-94.5 -394.5q0 -260 94 -384
t263 -124z" />
    <glyph glyph-name="Ocircumflex" unicode="&#xd4;" horiz-adv-x="1581" 
d="M926 1640l-135 154l-150 -154h-221l270 277h205l264 -277h-233zM793 -20q-317 0 -500.5 202t-183.5 553q0 354 186 560t498 206q310 0 493.5 -205.5t183.5 -558.5q0 -351 -182 -554t-495 -203zM793 225q352 0 352 508q0 268 -92 395t-260 127t-262.5 -127.5t-94.5 -394.5
q0 -260 94 -384t263 -124z" />
    <glyph glyph-name="Otilde" unicode="&#xd5;" horiz-adv-x="1581" 
d="M1122 1731q-74 -54 -178 -54q-59 0 -151.5 30t-143.5 30q-38 0 -66 -11t-65 -36q-11 -7 -17.5 -9t-12 3t-9.5 18l-28 84q-5 10 -3 22.5t17 24.5q37 36 77.5 55t98.5 19q60 0 159 -32t142 -32q68 0 137 49q32 22 41 -14l25 -100q6 -27 -23 -47zM793 -20q-317 0 -500.5 202
t-183.5 553q0 354 186 560t498 206q310 0 493.5 -205.5t183.5 -558.5q0 -351 -182 -554t-495 -203zM793 225q352 0 352 508q0 268 -92 395t-260 127t-262.5 -127.5t-94.5 -394.5q0 -260 94 -384t263 -124z" />
    <glyph glyph-name="Odieresis" unicode="&#xd6;" horiz-adv-x="1581" 
d="M723 1903v-256h-264v256h264zM1122 1903v-256h-264v256h264zM793 -20q-317 0 -500.5 202t-183.5 553q0 354 186 560t498 206q310 0 493.5 -205.5t183.5 -558.5q0 -351 -182 -554t-495 -203zM793 225q352 0 352 508q0 268 -92 395t-260 127t-262.5 -127.5t-94.5 -394.5
q0 -260 94 -384t263 -124z" />
    <glyph glyph-name="multiply" unicode="&#xd7;" horiz-adv-x="1191" 
d="M1063 1063l-318 -318l316 -315l-156 -156l-315 316l-316 -316l-151 156l313 313l-315 318l151 153l318 -315l317 318z" />
    <glyph glyph-name="Oslash" unicode="&#xd8;" horiz-adv-x="1568" 
d="M1507 1397q24 -24 0 -45l-157 -164q108 -178 108 -451q0 -351 -183 -554t-497 -203q-276 0 -450 157l-125 -129q-33 -39 -70 -2l-65 66q-19 19 -21 31.5t12 27.5l146 152q-109 185 -109 452q0 355 184.5 560.5t497.5 205.5q277 0 455 -164l135 142q30 27 51 6zM455 733
q0 -107 24 -180l545 577q-77 134 -246 134q-166 0 -244.5 -127.5t-78.5 -403.5zM1100 733q0 102 -25 185l-543 -578q77 -119 248 -119q167 0 243.5 121t76.5 391z" />
    <glyph glyph-name="Ugrave" unicode="&#xd9;" horiz-adv-x="1501" 
d="M498 1925l518 -211l-43 -127l-543 144zM1354 565q0 -283 -141 -434t-453 -151q-159 0 -274 40.5t-184.5 119t-101.5 185.5t-32 248v908h305v-930q0 -160 77 -239t210 -79q134 0 212.5 79t78.5 239v930h303v-916z" />
    <glyph glyph-name="Uacute" unicode="&#xda;" horiz-adv-x="1501" 
d="M965 1925l67 -194l-543 -144l-43 127zM1354 565q0 -283 -141 -434t-453 -151q-159 0 -274 40.5t-184.5 119t-101.5 185.5t-32 248v908h305v-930q0 -160 77 -239t210 -79q134 0 212.5 79t78.5 239v930h303v-916z" />
    <glyph glyph-name="Ucircumflex" unicode="&#xdb;" horiz-adv-x="1501" 
d="M870 1640l-135 154l-149 -154h-221l270 277h205l264 -277h-234zM1354 565q0 -283 -141 -434t-453 -151q-159 0 -274 40.5t-184.5 119t-101.5 185.5t-32 248v908h305v-930q0 -160 77 -239t210 -79q134 0 212.5 79t78.5 239v930h303v-916z" />
    <glyph glyph-name="Udieresis" unicode="&#xdc;" horiz-adv-x="1501" 
d="M668 1903v-256h-265v256h265zM1067 1903v-256h-264v256h264zM1354 565q0 -283 -141 -434t-453 -151q-159 0 -274 40.5t-184.5 119t-101.5 185.5t-32 248v908h305v-930q0 -160 77 -239t210 -79q134 0 212.5 79t78.5 239v930h303v-916z" />
    <glyph glyph-name="Yacute" unicode="&#xdd;" horiz-adv-x="1357" 
d="M938 1925l68 -194l-543 -144l-43 127zM1341 1481l-514 -858v-623h-299v623l-514 858h324l342 -600l336 600h325z" />
    <glyph glyph-name="Thorn" unicode="&#xde;" horiz-adv-x="1456" 
d="M1391 754q0 -213 -148 -330t-393 -117h-340v-307h-342v1481h342v-285h301q123 0 227 -27t183.5 -80.5t124.5 -139t45 -195.5zM1042 758q0 95 -68.5 144.5t-182.5 49.5h-281v-399h293q110 0 174.5 54t64.5 151z" />
    <glyph glyph-name="germandbls" unicode="&#xdf;" horiz-adv-x="1341" 
d="M696 1481q203 0 310.5 -81t107.5 -222q0 -105 -63 -170.5t-203 -126.5q-34 -19 -45.5 -29.5t-11.5 -28.5q0 -20 12 -29t47 -20q159 -67 220 -106q160 -100 185 -258q5 -31 5 -66q0 -174 -119 -269t-316 -95q-161 0 -274 67l90 184q30 -19 48 -28.5t53.5 -20t72.5 -10.5
q78 0 127 36.5t49 104.5q0 35 -13 60.5t-44.5 46.5t-59.5 33.5t-83 33.5q-102 43 -161 105t-59 162q0 72 34.5 125.5t99.5 99.5q7 6 28.5 22.5t29.5 23.5t24.5 22t23.5 25.5t16.5 25.5t13 30.5t3.5 32.5q0 57 -42.5 91t-119.5 34q-95 0 -150 -58.5t-55 -158.5v-1069h-295
v805h-123v207h121q2 77 20.5 144.5t58.5 127.5t98 103.5t144.5 68.5t194.5 25z" />
    <glyph glyph-name="agrave" unicode="&#xe0;" 
d="M354 1503l518 -211l-43 -127l-542 144zM438 -20q-157 0 -257.5 86t-100.5 237q0 176 132.5 266t410.5 93l131 2v63q0 75 -45.5 113.5t-130.5 38.5q-70 -2 -127.5 -36t-79.5 -100h-248q7 160 136 248t333 88q448 0 448 -334v-745h-249l-25 180q-52 -110 -131.5 -155
t-196.5 -45zM539 176q82 0 148.5 54.5t66.5 123.5v156l-107 -2q-125 -2 -203.5 -43t-78.5 -131q0 -73 49 -115.5t125 -42.5z" />
    <glyph glyph-name="aacute" unicode="&#xe1;" 
d="M819 1503l68 -194l-543 -144l-43 127zM438 -20q-157 0 -257.5 86t-100.5 237q0 176 132.5 266t410.5 93l131 2v63q0 75 -45.5 113.5t-130.5 38.5q-70 -2 -127.5 -36t-79.5 -100h-248q7 160 136 248t333 88q448 0 448 -334v-745h-249l-25 180q-52 -110 -131.5 -155
t-196.5 -45zM539 176q82 0 148.5 54.5t66.5 123.5v156l-107 -2q-125 -2 -203.5 -43t-78.5 -131q0 -73 49 -115.5t125 -42.5z" />
    <glyph glyph-name="acircumflex" unicode="&#xe2;" 
d="M727 1219l-135 153l-150 -153h-221l271 276h204l265 -276h-234zM438 -20q-157 0 -257.5 86t-100.5 237q0 176 132.5 266t410.5 93l131 2v63q0 75 -45.5 113.5t-130.5 38.5q-70 -2 -127.5 -36t-79.5 -100h-248q7 160 136 248t333 88q448 0 448 -334v-745h-249l-25 180
q-52 -110 -131.5 -155t-196.5 -45zM539 176q82 0 148.5 54.5t66.5 123.5v156l-107 -2q-125 -2 -203.5 -43t-78.5 -131q0 -73 49 -115.5t125 -42.5z" />
    <glyph glyph-name="atilde" unicode="&#xe3;" 
d="M924 1309q-74 -54 -179 -54q-59 0 -151 30t-143 30q-38 0 -67 -11t-65 -36q-11 -8 -17.5 -9.5t-11.5 3.5t-9 18l-29 84q-5 10 -3 22.5t17 24.5q37 36 77.5 55t98.5 19q60 0 159 -32t142 -32q69 0 138 49q32 22 41 -14l24 -100q6 -27 -22 -47zM438 -20q-157 0 -257.5 86
t-100.5 237q0 176 132.5 266t410.5 93l131 2v63q0 75 -45.5 113.5t-130.5 38.5q-70 -2 -127.5 -36t-79.5 -100h-248q7 160 136 248t333 88q448 0 448 -334v-745h-249l-25 180q-52 -110 -131.5 -155t-196.5 -45zM539 176q82 0 148.5 54.5t66.5 123.5v156l-107 -2
q-125 -2 -203.5 -43t-78.5 -131q0 -73 49 -115.5t125 -42.5z" />
    <glyph glyph-name="adieresis" unicode="&#xe4;" 
d="M524 1481v-256h-264v256h264zM924 1481v-256h-265v256h265zM438 -20q-157 0 -257.5 86t-100.5 237q0 176 132.5 266t410.5 93l131 2v63q0 75 -45.5 113.5t-130.5 38.5q-70 -2 -127.5 -36t-79.5 -100h-248q7 160 136 248t333 88q448 0 448 -334v-745h-249l-25 180
q-52 -110 -131.5 -155t-196.5 -45zM539 176q82 0 148.5 54.5t66.5 123.5v156l-107 -2q-125 -2 -203.5 -43t-78.5 -131q0 -73 49 -115.5t125 -42.5z" />
    <glyph glyph-name="aring" unicode="&#xe5;" 
d="M815 1386q0 -95 -65 -159t-158 -64q-94 0 -158.5 65.5t-64.5 162.5q0 89 65.5 152t157.5 63t157.5 -64.5t65.5 -155.5zM690 1384q0 43 -28.5 72t-71.5 29q-42 0 -73.5 -29.5t-31.5 -71.5q0 -41 32 -72.5t73 -31.5q42 0 71 31t29 73zM438 -20q-157 0 -257.5 86t-100.5 237
q0 176 132.5 266t410.5 93l131 2v63q0 75 -45.5 113.5t-130.5 38.5q-70 -2 -127.5 -36t-79.5 -100h-248q7 160 136 248t333 88q448 0 448 -334v-745h-249l-25 180q-52 -110 -131.5 -155t-196.5 -45zM539 176q82 0 148.5 54.5t66.5 123.5v156l-107 -2q-125 -2 -203.5 -43
t-78.5 -131q0 -73 49 -115.5t125 -42.5z" />
    <glyph glyph-name="ae" unicode="&#xe6;" horiz-adv-x="1884" 
d="M1065 473q0 -125 76.5 -207t189.5 -82q82 0 143.5 36.5t131.5 113.5l186 -82q-94 -147 -212 -209.5t-288 -62.5q-246 0 -411 184q-11 11 -19 0q-87 -90 -190 -137t-250 -47q-162 0 -252 82t-90 219q0 160 138 255.5t407 110.5l137 8v70q0 80 -44 123t-132 43
q-149 0 -224 -148l-253 60q64 141 177 208.5t312 67.5q266 -3 365 -129q129 129 327 129q230 0 373 -162t143 -444h-741zM1300 893q-98 0 -163.5 -67.5t-65.5 -186.5l442 -2q0 95 -58.5 175.5t-154.5 80.5zM762 498l-111 -9q-118 -10 -197 -58.5t-79 -129.5
q0 -63 43.5 -99.5t120.5 -35.5q91 3 157 49.5t66 114.5v168z" />
    <glyph glyph-name="ccedilla" unicode="&#xe7;" horiz-adv-x="1118" 
d="M596 193q79 0 127.5 54t62.5 124h242q-11 -156 -113.5 -262t-265.5 -125l-35 -95q106 -1 156.5 -48t50.5 -111q0 -76 -70.5 -121t-172.5 -45q-145 0 -236 55l41 102q81 -51 158 -51q48 0 75 17t27 47q0 41 -40.5 62t-133.5 22q-13 0 -17 3t1 15l63 148
q-197 25 -318.5 172t-121.5 368q0 246 143 400.5t369 154.5q190 0 310 -114t134 -291l-250 -2q-17 78 -64 129t-126 51q-110 0 -174 -86t-64 -238q0 -155 66 -245t176 -90z" />
    <glyph glyph-name="egrave" unicode="&#xe8;" 
d="M352 1503l518 -211l-43 -127l-542 144zM373 461q-2 -123 57.5 -193.5t165.5 -70.5q164 0 215 139h268q-30 -165 -165.5 -260.5t-309.5 -95.5q-237 0 -382.5 146t-145.5 392q0 160 59.5 286t177 200.5t275.5 74.5q237 0 365 -146t128 -390v-82h-708zM371 639h432
q0 101 -56 166t-159 65q-98 0 -157.5 -69t-59.5 -162z" />
    <glyph glyph-name="eacute" unicode="&#xe9;" 
d="M817 1503l68 -194l-543 -144l-43 127zM373 461q-2 -123 57.5 -193.5t165.5 -70.5q164 0 215 139h268q-30 -165 -165.5 -260.5t-309.5 -95.5q-237 0 -382.5 146t-145.5 392q0 160 59.5 286t177 200.5t275.5 74.5q237 0 365 -146t128 -390v-82h-708zM371 639h432
q0 101 -56 166t-159 65q-98 0 -157.5 -69t-59.5 -162z" />
    <glyph glyph-name="ecircumflex" unicode="&#xea;" 
d="M723 1219l-135 153l-150 -153h-221l270 276h207l262 -276h-233zM373 461q-2 -123 57.5 -193.5t165.5 -70.5q164 0 215 139h268q-30 -165 -165.5 -260.5t-309.5 -95.5q-237 0 -382.5 146t-145.5 392q0 160 59.5 286t177 200.5t275.5 74.5q237 0 365 -146t128 -390v-82
h-708zM371 639h432q0 101 -56 166t-159 65q-98 0 -157.5 -69t-59.5 -162z" />
    <glyph glyph-name="edieresis" unicode="&#xeb;" 
d="M522 1481v-256h-264v256h264zM922 1481v-256h-267v256h267zM373 461q-2 -123 57.5 -193.5t165.5 -70.5q164 0 215 139h268q-30 -165 -165.5 -260.5t-309.5 -95.5q-237 0 -382.5 146t-145.5 392q0 160 59.5 286t177 200.5t275.5 74.5q237 0 365 -146t128 -390v-82h-708z
M371 639h432q0 101 -56 166t-159 65q-98 0 -157.5 -69t-59.5 -162z" />
    <glyph glyph-name="igrave" unicode="&#xec;" horiz-adv-x="561" 
d="M49 1503l518 -211l-43 -127l-542 144zM432 1059v-1059h-299v1059h299z" />
    <glyph glyph-name="iacute" unicode="&#xed;" horiz-adv-x="561" 
d="M514 1503l68 -194l-543 -144l-43 127zM432 1059v-1059h-299v1059h299z" />
    <glyph glyph-name="icircumflex" unicode="&#xee;" horiz-adv-x="561" 
d="M422 1219l-135 153l-150 -153h-223l272 276h205l264 -276h-233zM432 1059v-1059h-299v1059h299z" />
    <glyph glyph-name="idieresis" unicode="&#xef;" horiz-adv-x="561" 
d="M219 1481v-256h-264v256h264zM618 1481v-256h-264v256h264zM432 1059v-1059h-299v1059h299z" />
    <glyph glyph-name="eth" unicode="&#xf0;" horiz-adv-x="1214" 
d="M1141 547q0 -258 -146.5 -412.5t-390.5 -154.5q-233 0 -382.5 148.5t-149.5 375.5q0 233 150.5 383.5t379.5 150.5q75 0 109 -34q-61 114 -195 210l-262 -147l-57 94l213 119q-76 42 -207 90l164 133q152 -44 262 -100l190 104l51 -96l-133 -76q197 -138 300.5 -342
t103.5 -446zM608 180q109 0 169.5 87.5t60.5 242.5q0 157 -60.5 245.5t-169.5 88.5t-170 -88.5t-61 -245.5q0 -155 61 -242.5t170 -87.5z" />
    <glyph glyph-name="ntilde" unicode="&#xf1;" horiz-adv-x="1220" 
d="M952 1309q-74 -54 -178 -54q-59 0 -151.5 30t-143.5 30q-38 0 -66 -11t-65 -36q-11 -7 -17.5 -9t-12 3t-9.5 18l-28 84q-5 10 -3 22.5t17 24.5q37 36 77.5 55t98.5 19q60 0 159 -32t142 -32q68 0 137 49q32 22 41 -14l25 -100q6 -27 -23 -47zM129 0v1059h295v-137
q57 71 125 109t182 38q98 0 182 -43.5t136.5 -127.5t52.5 -191v-707h-299v670q0 76 -50 120t-126 44q-80 0 -139.5 -40t-59.5 -108v-686h-299z" />
    <glyph glyph-name="ograve" unicode="&#xf2;" 
d="M348 1503l518 -211l-43 -127l-542 144zM584 -20q-235 0 -373.5 150t-138.5 392q0 249 142 403t372 154q235 0 372.5 -154.5t137.5 -400.5q0 -242 -138.5 -393t-373.5 -151zM586 203q60 0 104 27.5t68 76t35.5 104.5t11.5 121q0 66 -11.5 122.5t-36 104t-68.5 74.5
t-103 27q-79 0 -130.5 -48.5t-71 -119t-19.5 -160.5q0 -65 11.5 -121t36 -104t69 -76t104.5 -28z" />
    <glyph glyph-name="oacute" unicode="&#xf3;" 
d="M813 1503l68 -194l-543 -144l-43 127zM584 -20q-235 0 -373.5 150t-138.5 392q0 249 142 403t372 154q235 0 372.5 -154.5t137.5 -400.5q0 -242 -138.5 -393t-373.5 -151zM586 203q60 0 104 27.5t68 76t35.5 104.5t11.5 121q0 66 -11.5 122.5t-36 104t-68.5 74.5t-103 27
q-79 0 -130.5 -48.5t-71 -119t-19.5 -160.5q0 -65 11.5 -121t36 -104t69 -76t104.5 -28z" />
    <glyph glyph-name="ocircumflex" unicode="&#xf4;" 
d="M721 1219l-135 153l-150 -153h-221l270 276h205l264 -276h-233zM584 -20q-235 0 -373.5 150t-138.5 392q0 249 142 403t372 154q235 0 372.5 -154.5t137.5 -400.5q0 -242 -138.5 -393t-373.5 -151zM586 203q60 0 104 27.5t68 76t35.5 104.5t11.5 121q0 66 -11.5 122.5
t-36 104t-68.5 74.5t-103 27q-79 0 -130.5 -48.5t-71 -119t-19.5 -160.5q0 -65 11.5 -121t36 -104t69 -76t104.5 -28z" />
    <glyph glyph-name="otilde" unicode="&#xf5;" 
d="M918 1309q-74 -54 -179 -54q-59 0 -151.5 30t-143.5 30q-38 0 -66 -11t-65 -36q-11 -7 -17.5 -9t-12 3t-9.5 18l-28 84q-5 10 -3 22.5t17 24.5q37 36 77.5 55t98.5 19q60 0 159 -32t142 -32q68 0 137 49q32 22 41 -14l25 -100q6 -27 -22 -47zM584 -20q-235 0 -373.5 150
t-138.5 392q0 249 142 403t372 154q235 0 372.5 -154.5t137.5 -400.5q0 -242 -138.5 -393t-373.5 -151zM586 203q60 0 104 27.5t68 76t35.5 104.5t11.5 121q0 66 -11.5 122.5t-36 104t-68.5 74.5t-103 27q-79 0 -130.5 -48.5t-71 -119t-19.5 -160.5q0 -65 11.5 -121t36 -104
t69 -76t104.5 -28z" />
    <glyph glyph-name="odieresis" unicode="&#xf6;" 
d="M518 1481v-256h-264v256h264zM918 1481v-256h-265v256h265zM584 -20q-235 0 -373.5 150t-138.5 392q0 249 142 403t372 154q235 0 372.5 -154.5t137.5 -400.5q0 -242 -138.5 -393t-373.5 -151zM586 203q60 0 104 27.5t68 76t35.5 104.5t11.5 121q0 66 -11.5 122.5
t-36 104t-68.5 74.5t-103 27q-79 0 -130.5 -48.5t-71 -119t-19.5 -160.5q0 -65 11.5 -121t36 -104t69 -76t104.5 -28z" />
    <glyph glyph-name="divide" unicode="&#xf7;" horiz-adv-x="1210" 
d="M756 1298v-299h-312v299h312zM1081 854v-217l-966 -2v219h966zM756 492v-299h-312v299h312z" />
    <glyph glyph-name="oslash" unicode="&#xf8;" horiz-adv-x="1257" 
d="M1188 967l-123 -115q84 -137 84 -328q0 -242 -138.5 -393t-373.5 -151q-217 0 -354 131l-131 -125l-99 104l142 135q-70 128 -70 297q0 249 142 403t372 154q201 0 336 -116l115 108zM418 532q0 -46 6 -92l367 348q-56 72 -152 72q-79 0 -130.5 -48.5t-71 -119
t-19.5 -160.5zM858 532q0 69 -10 113l-373 -352q57 -90 166 -90q59 0 102.5 27.5t67.5 76t35.5 104.5t11.5 121z" />
    <glyph glyph-name="ugrave" unicode="&#xf9;" horiz-adv-x="1220" 
d="M369 1503l518 -211l-43 -127l-543 144zM522 -20q-67 1 -134.5 23t-126 62.5t-95.5 109.5t-37 153v733h299v-696q0 -81 53 -124.5t129 -43.5q82 0 135.5 47t53.5 127v690h303l-6 -1061h-226l-32 217q-13 -70 -47 -119.5t-80.5 -73.5t-92 -34t-96.5 -10z" />
    <glyph glyph-name="uacute" unicode="&#xfa;" horiz-adv-x="1220" 
d="M834 1503l67 -194l-543 -144l-43 127zM522 -20q-67 1 -134.5 23t-126 62.5t-95.5 109.5t-37 153v733h299v-696q0 -81 53 -124.5t129 -43.5q82 0 135.5 47t53.5 127v690h303l-6 -1061h-226l-32 217q-13 -70 -47 -119.5t-80.5 -73.5t-92 -34t-96.5 -10z" />
    <glyph glyph-name="ucircumflex" unicode="&#xfb;" horiz-adv-x="1220" 
d="M741 1219l-135 153l-149 -153h-221l270 276h205l264 -276h-234zM522 -20q-67 1 -134.5 23t-126 62.5t-95.5 109.5t-37 153v733h299v-696q0 -81 53 -124.5t129 -43.5q82 0 135.5 47t53.5 127v690h303l-6 -1061h-226l-32 217q-13 -70 -47 -119.5t-80.5 -73.5t-92 -34
t-96.5 -10z" />
    <glyph glyph-name="udieresis" unicode="&#xfc;" horiz-adv-x="1220" 
d="M539 1481v-256h-265v256h265zM938 1481v-256h-264v256h264zM522 -20q-67 1 -134.5 23t-126 62.5t-95.5 109.5t-37 153v733h299v-696q0 -81 53 -124.5t129 -43.5q82 0 135.5 47t53.5 127v690h303l-6 -1061h-226l-32 217q-13 -70 -47 -119.5t-80.5 -73.5t-92 -34t-96.5 -10
z" />
    <glyph glyph-name="yacute" unicode="&#xfd;" horiz-adv-x="1157" 
d="M840 1503l67 -194l-542 -144l-43 127zM295 -338q-64 0 -113.5 9t-67.5 19l-18 9v190l107 -4q52 -3 92 4t60.5 16.5t37 29t20 27t9.5 24.5l18 59l-411 1014h295l254 -690l258 690h292l-430 -1065q-41 -99 -86 -165.5t-96 -102t-103 -50t-118 -14.5z" />
    <glyph glyph-name="thorn" unicode="&#xfe;" horiz-adv-x="1234" 
d="M428 1481v-555q67 71 139.5 112t182.5 41q89 0 163 -33.5t130 -98.5t87 -169.5t31 -238.5q0 -141 -32 -249t-90 -175t-135 -101t-171 -34q-157 0 -268 102q-15 13 -22.5 16t-11 -3t-3.5 -25v-400h-299v1811h299zM428 272q89 -102 197 -102q233 0 233 373q0 346 -229 346
q-84 0 -142.5 -50t-58.5 -114v-453z" />
    <glyph glyph-name="ydieresis" unicode="&#xff;" horiz-adv-x="1157" 
d="M545 1481v-256h-264v256h264zM944 1481v-256h-264v256h264zM295 -338q-64 0 -113.5 9t-67.5 19l-18 9v190l107 -4q52 -3 92 4t60.5 16.5t37 29t20 27t9.5 24.5l18 59l-411 1014h295l254 -690l258 690h292l-430 -1065q-41 -99 -86 -165.5t-96 -102t-103 -50t-118 -14.5z
" />
    <glyph glyph-name="Amacron" unicode="&#x100;" horiz-adv-x="1478" 
d="M1120 1890v-190h-721v190h721zM53 0l531 1481h315l528 -1481h-297l-120 344h-535l-123 -344h-299zM543 604h395l-197 588z" />
    <glyph glyph-name="amacron" unicode="&#x101;" 
d="M952 1468v-190h-721v190h721zM438 -20q-157 0 -257.5 86t-100.5 237q0 176 132.5 266t410.5 93l131 2v63q0 75 -45.5 113.5t-130.5 38.5q-70 -2 -127.5 -36t-79.5 -100h-248q7 160 136 248t333 88q448 0 448 -334v-745h-249l-25 180q-52 -110 -131.5 -155t-196.5 -45z
M539 176q82 0 148.5 54.5t66.5 123.5v156l-107 -2q-125 -2 -203.5 -43t-78.5 -131q0 -73 49 -115.5t125 -42.5z" />
    <glyph glyph-name="Abreve" unicode="&#x102;" horiz-adv-x="1478" 
d="M1120 1903q-35 -120 -131.5 -190.5t-228.5 -70.5q-130 0 -227 68.5t-132 192.5h179q28 -48 74.5 -80.5t105.5 -32.5q55 0 103.5 32.5t76.5 80.5h180zM53 0l531 1481h315l528 -1481h-297l-120 344h-535l-123 -344h-299zM543 604h395l-197 588z" />
    <glyph glyph-name="abreve" unicode="&#x103;" 
d="M952 1481q-35 -120 -131.5 -190t-228.5 -70q-130 0 -227 68t-132 192h179q28 -48 74.5 -80.5t105.5 -32.5q55 0 103.5 32.5t76.5 80.5h180zM438 -20q-157 0 -257.5 86t-100.5 237q0 176 132.5 266t410.5 93l131 2v63q0 75 -45.5 113.5t-130.5 38.5q-70 -2 -127.5 -36
t-79.5 -100h-248q7 160 136 248t333 88q448 0 448 -334v-745h-249l-25 180q-52 -110 -131.5 -155t-196.5 -45zM539 176q82 0 148.5 54.5t66.5 123.5v156l-107 -2q-125 -2 -203.5 -43t-78.5 -131q0 -73 49 -115.5t125 -42.5z" />
    <glyph glyph-name="Aogonek" unicode="&#x104;" horiz-adv-x="1478" 
d="M1462 -176q17 7 23 3t6 -22v-84q0 -20 -16 -28q-76 -39 -199 -39q-106 0 -164.5 43t-58.5 125q0 56 34.5 99t124.5 79h-82l-120 344h-535l-123 -344h-299l531 1481h315l524 -1473h35q-105 -39 -146.5 -73t-41.5 -76q0 -66 73 -66q59 0 119 31zM543 604h395l-197 588z" />
    <glyph glyph-name="aogonek" unicode="&#x105;" 
d="M1036 -172q17 7 23 3.5t6 -21.5v-84q0 -21 -16 -29q-76 -39 -199 -39q-106 0 -164.5 43t-58.5 125q0 56 36 99.5t128 80.5l-25 174q-52 -110 -131.5 -155t-196.5 -45q-157 0 -257.5 86t-100.5 237q0 176 132.5 266t410.5 93l131 2v63q0 75 -45.5 113.5t-130.5 38.5
q-70 -2 -127.5 -36t-79.5 -100h-248q7 160 136 248t333 88q448 0 448 -334v-745h-41q-86 -34 -120.5 -66t-34.5 -71q0 -66 74 -66q58 0 118 31zM754 354v156l-107 -2q-125 -2 -203.5 -43t-78.5 -131q0 -73 49 -115.5t125 -42.5q82 0 148.5 54.5t66.5 123.5z" />
    <glyph glyph-name="Cacute" unicode="&#x106;" horiz-adv-x="1482" 
d="M1010 1925l67 -194l-542 -144l-43 127zM776 1501q250 0 417 -141t191 -359l-313 -4q-22 121 -99 189.5t-204 68.5q-330 0 -330 -507q0 -264 87 -393.5t249 -129.5q115 0 193 76t102 197l311 -6q-14 -110 -53 -199t-108 -161t-180.5 -112t-256.5 -40q-204 0 -357 97
t-234.5 272t-81.5 403q0 346 179 547.5t488 201.5z" />
    <glyph glyph-name="cacute" unicode="&#x107;" horiz-adv-x="1118" 
d="M815 1503l66 -194l-543 -144l-43 127zM588 1079q190 0 310 -114t134 -291l-250 -2q-17 78 -64 129t-126 51q-110 0 -174 -86t-64 -238q0 -155 66 -245t176 -90q79 0 127.5 54t62.5 124h242q-12 -171 -133 -281t-307 -110q-225 0 -368.5 151t-143.5 393q0 246 143 400.5
t369 154.5z" />
    <glyph glyph-name="Ccircumflex" unicode="&#x108;" horiz-adv-x="1482" 
d="M915 1640l-135 154l-149 -154h-221l270 277h205l264 -277h-234zM776 1501q250 0 417 -141t191 -359l-313 -4q-22 121 -99 189.5t-204 68.5q-330 0 -330 -507q0 -264 87 -393.5t249 -129.5q115 0 193 76t102 197l311 -6q-14 -110 -53 -199t-108 -161t-180.5 -112
t-256.5 -40q-204 0 -357 97t-234.5 272t-81.5 403q0 346 179 547.5t488 201.5z" />
    <glyph glyph-name="ccircumflex" unicode="&#x109;" horiz-adv-x="1118" 
d="M719 1219l-133 153l-152 -153h-221l270 276h207l264 -276h-235zM588 1079q190 0 310 -114t134 -291l-250 -2q-17 78 -64 129t-126 51q-110 0 -174 -86t-64 -238q0 -155 66 -245t176 -90q79 0 127.5 54t62.5 124h242q-12 -171 -133 -281t-307 -110q-225 0 -368.5 151
t-143.5 393q0 246 143 400.5t369 154.5z" />
    <glyph glyph-name="Cdotaccent" unicode="&#x10a;" horiz-adv-x="1482" 
d="M936 1903v-291h-305v291h305zM776 1501q250 0 417 -141t191 -359l-313 -4q-22 121 -99 189.5t-204 68.5q-330 0 -330 -507q0 -264 87 -393.5t249 -129.5q115 0 193 76t102 197l311 -6q-14 -110 -53 -199t-108 -161t-180.5 -112t-256.5 -40q-204 0 -357 97t-234.5 272
t-81.5 403q0 346 179 547.5t488 201.5z" />
    <glyph glyph-name="cdotaccent" unicode="&#x10b;" horiz-adv-x="1118" 
d="M739 1481v-291h-305v291h305zM588 1079q190 0 310 -114t134 -291l-250 -2q-17 78 -64 129t-126 51q-110 0 -174 -86t-64 -238q0 -155 66 -245t176 -90q79 0 127.5 54t62.5 124h242q-12 -171 -133 -281t-307 -110q-225 0 -368.5 151t-143.5 393q0 246 143 400.5t369 154.5
z" />
    <glyph glyph-name="Ccaron" unicode="&#x10c;" horiz-adv-x="1482" 
d="M915 1905h234l-264 -279h-207l-270 279h223l149 -154zM776 1501q250 0 417 -141t191 -359l-313 -4q-22 121 -99 189.5t-204 68.5q-330 0 -330 -507q0 -264 87 -393.5t249 -129.5q115 0 193 76t102 197l311 -6q-14 -110 -53 -199t-108 -161t-180.5 -112t-256.5 -40
q-204 0 -357 97t-234.5 272t-81.5 403q0 346 179 547.5t488 201.5z" />
    <glyph glyph-name="ccaron" unicode="&#x10d;" horiz-adv-x="1118" 
d="M719 1483h235l-264 -279h-207l-270 279h221l152 -154zM588 1079q190 0 310 -114t134 -291l-250 -2q-17 78 -64 129t-126 51q-110 0 -174 -86t-64 -238q0 -155 66 -245t176 -90q79 0 127.5 54t62.5 124h242q-12 -171 -133 -281t-307 -110q-225 0 -368.5 151t-143.5 393
q0 246 143 400.5t369 154.5z" />
    <glyph glyph-name="Dcaron" unicode="&#x10e;" horiz-adv-x="1478" 
d="M866 1905h234l-264 -279h-207l-271 279h224l149 -154zM168 1481q315 0 442 -2q393 -9 580.5 -198.5t187.5 -532.5q0 -355 -195 -551.5t-583 -196.5h-432v1481zM469 1239v-997h137q99 0 179.5 27.5t144.5 86t99.5 158.5t35.5 236q0 489 -455 489h-141z" />
    <glyph glyph-name="dcaron" unicode="&#x10f;" horiz-adv-x="1220" 
d="M1200 1190q23 0 23 -21v-213q0 -4 -6 -16l-72 -172q-11 -23 -43 -25v-743h-217l-33 211q-80 -231 -330 -231q-211 0 -328.5 145t-117.5 403q0 254 112.5 402.5t313.5 148.5q194 0 301 -137v580h299v-332h98zM803 442v224q-42 196 -209 196q-104 0 -165.5 -78t-61.5 -249
q0 -175 61.5 -257.5t163.5 -82.5q91 0 151 69.5t60 177.5z" />
    <glyph glyph-name="Dcroat" unicode="&#x110;" horiz-adv-x="1538" 
d="M672 1479q393 -9 580.5 -198.5t187.5 -532.5q0 -355 -195 -551.5t-583 -196.5h-435v623h-112q-25 0 -34 9t-9 32v141q0 37 30 37h125v639q318 0 445 -2zM668 242q99 0 179.5 27.5t144.5 86t99 158.5t35 236q0 489 -454 489h-142v-397h263q13 0 21.5 -8.5t8.5 -22.5v-143
q0 -24 -12.5 -34.5t-40.5 -10.5h-240v-381h138z" />
    <glyph glyph-name="dcroat" unicode="&#x111;" horiz-adv-x="1249" 
d="M1176 1356v-168h-74v-1188h-217l-33 211q-80 -231 -330 -231q-211 0 -328.5 145t-117.5 403q0 254 112.5 402.5t313.5 148.5q194 0 301 -137v246h-318v168h318v166h299v-166h74zM803 442v224q-42 196 -209 196q-104 0 -165.5 -78t-61.5 -249q0 -175 61.5 -257.5
t163.5 -82.5q91 0 151 69.5t60 177.5z" />
    <glyph glyph-name="Emacron" unicode="&#x112;" horiz-adv-x="1318" 
d="M1047 1890v-190h-721v190h721zM168 0v1481h1018l-2 -252h-715v-359h621v-247h-623v-367l729 -2v-254h-1028z" />
    <glyph glyph-name="emacron" unicode="&#x113;" 
d="M950 1468v-190h-721v190h721zM373 461q-2 -123 57.5 -193.5t165.5 -70.5q164 0 215 139h268q-30 -165 -165.5 -260.5t-309.5 -95.5q-237 0 -382.5 146t-145.5 392q0 160 59.5 286t177 200.5t275.5 74.5q237 0 365 -146t128 -390v-82h-708zM371 639h432q0 101 -56 166
t-159 65q-98 0 -157.5 -69t-59.5 -162z" />
    <glyph glyph-name="Ebreve" unicode="&#x114;" horiz-adv-x="1318" 
d="M1047 1903q-35 -120 -132 -190.5t-229 -70.5q-130 0 -226.5 68.5t-131.5 192.5h178q28 -48 74.5 -80.5t105.5 -32.5q55 0 103.5 32.5t76.5 80.5h181zM168 0v1481h1018l-2 -252h-715v-359h621v-247h-623v-367l729 -2v-254h-1028z" />
    <glyph glyph-name="ebreve" unicode="&#x115;" 
d="M950 1481q-35 -120 -131.5 -190t-228.5 -70q-130 0 -227 68t-132 192h179q28 -48 74.5 -80.5t105.5 -32.5q55 0 104.5 32.5t75.5 80.5h180zM373 461q-2 -123 57.5 -193.5t165.5 -70.5q164 0 215 139h268q-30 -165 -165.5 -260.5t-309.5 -95.5q-237 0 -382.5 146
t-145.5 392q0 160 59.5 286t177 200.5t275.5 74.5q237 0 365 -146t128 -390v-82h-708zM371 639h432q0 101 -56 166t-159 65q-98 0 -157.5 -69t-59.5 -162z" />
    <glyph glyph-name="Edotaccent" unicode="&#x116;" horiz-adv-x="1318" 
d="M838 1903v-291h-306v291h306zM168 0v1481h1018l-2 -252h-715v-359h621v-247h-623v-367l729 -2v-254h-1028z" />
    <glyph glyph-name="edotaccent" unicode="&#x117;" 
d="M743 1481v-291h-305v291h305zM373 461q-2 -123 57.5 -193.5t165.5 -70.5q164 0 215 139h268q-30 -165 -165.5 -260.5t-309.5 -95.5q-237 0 -382.5 146t-145.5 392q0 160 59.5 286t177 200.5t275.5 74.5q237 0 365 -146t128 -390v-82h-708zM371 639h432q0 101 -56 166
t-159 65q-98 0 -157.5 -69t-59.5 -162z" />
    <glyph glyph-name="Eogonek" unicode="&#x118;" horiz-adv-x="1318" 
d="M1227 -176q17 7 22.5 3t5.5 -22v-84q0 -20 -16 -28q-76 -39 -199 -39q-106 0 -164.5 43t-58.5 125q0 56 35 99t125 79h-809v1481h1018l-2 -252h-715v-359h621v-247h-623v-367l729 -2v-246h27q-105 -39 -147 -73t-42 -76q0 -66 74 -66q59 0 119 31z" />
    <glyph glyph-name="eogonek" unicode="&#x119;" 
d="M1081 461h-708q-2 -123 57.5 -193.5t165.5 -70.5q164 0 215 139h268q-18 -102 -79 -178.5t-152 -122.5h16q-106 -39 -148 -73t-42 -77q0 -65 74 -65q60 0 118 30q31 16 31 -18v-84q0 -17 -18 -29q-27 -15 -82.5 -26.5t-114.5 -11.5q-105 0 -164 43t-59 124q0 83 73 136
q-207 22 -331.5 165.5t-124.5 368.5q0 160 59.5 286t177 200.5t275.5 74.5q237 0 365 -146t128 -390v-82zM371 639h432q0 101 -56 166t-159 65q-98 0 -157.5 -69t-59.5 -162z" />
    <glyph glyph-name="Ecaron" unicode="&#x11a;" horiz-adv-x="1318" 
d="M819 1905h234l-265 -279h-206l-271 279h224l149 -154zM168 0v1481h1018l-2 -252h-715v-359h621v-247h-623v-367l729 -2v-254h-1028z" />
    <glyph glyph-name="ecaron" unicode="&#x11b;" 
d="M723 1483h233l-262 -279h-209l-268 279h221l150 -154zM373 461q-2 -123 57.5 -193.5t165.5 -70.5q164 0 215 139h268q-30 -165 -165.5 -260.5t-309.5 -95.5q-237 0 -382.5 146t-145.5 392q0 160 59.5 286t177 200.5t275.5 74.5q237 0 365 -146t128 -390v-82h-708z
M371 639h432q0 101 -56 166t-159 65q-98 0 -157.5 -69t-59.5 -162z" />
    <glyph glyph-name="Gcircumflex" unicode="&#x11c;" horiz-adv-x="1564" 
d="M913 1640l-135 154l-149 -154h-221l270 277h205l264 -277h-234zM776 -20q-305 0 -486 205.5t-181 549.5q0 350 188.5 558t495.5 208q128 0 240 -41.5t190 -110.5t124 -159t50 -186l-316 -7q-23 111 -100.5 181.5t-194.5 70.5q-160 0 -256 -124.5t-96 -376.5
q0 -140 29.5 -241.5t82 -157.5t114.5 -81.5t137 -25.5q123 0 201.5 74t88.5 163l15 90h-307v207l620 -2v-774h-205v193q-33 -43 -68 -76.5t-87 -66.5t-123 -51.5t-156 -18.5z" />
    <glyph glyph-name="gcircumflex" unicode="&#x11d;" horiz-adv-x="1275" 
d="M752 1219l-136 153l-149 -153h-221l270 276h205l264 -276h-233zM614 -350q-279 0 -428 71t-149 189q0 41 19 75t49 55.5t57 35.5t53.5 24t28.5 11l-20 11q-21 10 -29.5 15.5t-27.5 20t-28.5 28t-17.5 35t-8 45.5q0 60 56 107t161 65q-106 49 -159.5 130t-53.5 175
q0 103 67 179t179.5 114.5t254.5 38.5q101 0 171.5 -21.5t136.5 -62.5q244 97 311 125v-231l-184 -29q24 -70 24 -113q0 -68 -31 -130t-89 -111.5t-151.5 -79t-209.5 -29.5q-48 0 -102 4q-107 -5 -107 -43q0 -23 40 -31.5t146 -15.5q118 -5 220 -12q194 -13 289.5 -93.5
t95.5 -209.5q0 -156 -146 -249t-418 -93zM606 561q89 0 139 47t50 127q0 81 -50.5 132t-138.5 51q-86 0 -138 -51.5t-52 -131.5t50.5 -127t139.5 -47zM662 -182q125 0 178 29t53 90q0 103 -160 112l-244 17q-69 3 -114 -33.5t-45 -87.5q0 -68 81 -97.5t251 -29.5z" />
    <glyph glyph-name="Gbreve" unicode="&#x11e;" horiz-adv-x="1564" 
d="M1139 1903q-35 -120 -132 -190.5t-229 -70.5q-130 0 -226.5 68.5t-131.5 192.5h178q28 -48 74.5 -80.5t105.5 -32.5q55 0 103.5 32.5t76.5 80.5h181zM776 -20q-305 0 -486 205.5t-181 549.5q0 350 188.5 558t495.5 208q128 0 240 -41.5t190 -110.5t124 -159t50 -186
l-316 -7q-23 111 -100.5 181.5t-194.5 70.5q-160 0 -256 -124.5t-96 -376.5q0 -140 29.5 -241.5t82 -157.5t114.5 -81.5t137 -25.5q123 0 201.5 74t88.5 163l15 90h-307v207l620 -2v-774h-205v193q-33 -43 -68 -76.5t-87 -66.5t-123 -51.5t-156 -18.5z" />
    <glyph glyph-name="gbreve" unicode="&#x11f;" horiz-adv-x="1275" 
d="M979 1481q-35 -120 -132 -190t-229 -70q-130 0 -226.5 68t-131.5 192h178q28 -48 74.5 -80.5t105.5 -32.5q55 0 104 32.5t77 80.5h180zM614 -350q-279 0 -428 71t-149 189q0 41 19 75t49 55.5t57 35.5t53.5 24t28.5 11l-20 11q-21 10 -29.5 15.5t-27.5 20t-28.5 28
t-17.5 35t-8 45.5q0 60 56 107t161 65q-106 49 -159.5 130t-53.5 175q0 103 67 179t179.5 114.5t254.5 38.5q101 0 171.5 -21.5t136.5 -62.5q244 97 311 125v-231l-184 -29q24 -70 24 -113q0 -68 -31 -130t-89 -111.5t-151.5 -79t-209.5 -29.5q-48 0 -102 4
q-107 -5 -107 -43q0 -23 40 -31.5t146 -15.5q118 -5 220 -12q194 -13 289.5 -93.5t95.5 -209.5q0 -156 -146 -249t-418 -93zM606 561q89 0 139 47t50 127q0 81 -50.5 132t-138.5 51q-86 0 -138 -51.5t-52 -131.5t50.5 -127t139.5 -47zM662 -182q125 0 178 29t53 90
q0 103 -160 112l-244 17q-69 3 -114 -33.5t-45 -87.5q0 -68 81 -97.5t251 -29.5z" />
    <glyph glyph-name="Gdotaccent" unicode="&#x120;" horiz-adv-x="1564" 
d="M932 1903v-291h-305v291h305zM776 -20q-305 0 -486 205.5t-181 549.5q0 350 188.5 558t495.5 208q128 0 240 -41.5t190 -110.5t124 -159t50 -186l-316 -7q-23 111 -100.5 181.5t-194.5 70.5q-160 0 -256 -124.5t-96 -376.5q0 -140 29.5 -241.5t82 -157.5t114.5 -81.5
t137 -25.5q123 0 201.5 74t88.5 163l15 90h-307v207l620 -2v-774h-205v193q-33 -43 -68 -76.5t-87 -66.5t-123 -51.5t-156 -18.5z" />
    <glyph glyph-name="gdotaccent" unicode="&#x121;" horiz-adv-x="1275" 
d="M770 1481v-291h-305v291h305zM614 -350q-279 0 -428 71t-149 189q0 41 19 75t49 55.5t57 35.5t53.5 24t28.5 11l-20 11q-21 10 -29.5 15.5t-27.5 20t-28.5 28t-17.5 35t-8 45.5q0 60 56 107t161 65q-106 49 -159.5 130t-53.5 175q0 103 67 179t179.5 114.5t254.5 38.5
q101 0 171.5 -21.5t136.5 -62.5q244 97 311 125v-231l-184 -29q24 -70 24 -113q0 -68 -31 -130t-89 -111.5t-151.5 -79t-209.5 -29.5q-48 0 -102 4q-107 -5 -107 -43q0 -23 40 -31.5t146 -15.5q118 -5 220 -12q194 -13 289.5 -93.5t95.5 -209.5q0 -156 -146 -249t-418 -93z
M606 561q89 0 139 47t50 127q0 81 -50.5 132t-138.5 51q-86 0 -138 -51.5t-52 -131.5t50.5 -127t139.5 -47zM662 -182q125 0 178 29t53 90q0 103 -160 112l-244 17q-69 3 -114 -33.5t-45 -87.5q0 -68 81 -97.5t251 -29.5z" />
    <glyph glyph-name="uni0122" unicode="&#x122;" horiz-adv-x="1564" 
d="M776 -20q-305 0 -486 205.5t-181 549.5q0 350 188.5 558t495.5 208q128 0 240 -41.5t190 -110.5t124 -159t50 -186l-316 -7q-23 111 -100.5 181.5t-194.5 70.5q-160 0 -256 -124.5t-96 -376.5q0 -140 29.5 -241.5t82 -157.5t114.5 -81.5t137 -25.5q123 0 201.5 74
t88.5 163l15 90h-307v207l620 -2v-774h-205v193q-33 -43 -68 -76.5t-87 -66.5t-123 -51.5t-156 -18.5zM705 -485q-13 0 -20 11.5t-1 20.5l64 97q11 17 5.5 31t-22.5 14h-18q-20 0 -27.5 8t-7.5 27v124q0 33 29 33h157q27 0 27 -26v-166q0 -7 -8 -23l-92 -127
q-14 -24 -54 -24h-32z" />
    <glyph glyph-name="uni0123" unicode="&#x123;" horiz-adv-x="1275" 
d="M459 1217v206l114 160h113l-115 -174h101v-192h-213zM614 -350q-279 0 -428 71t-149 189q0 41 19 75t49 55.5t57 35.5t53.5 24t28.5 11l-20 11q-21 10 -29.5 15.5t-27.5 20t-28.5 28t-17.5 35t-8 45.5q0 60 56 107t161 65q-106 49 -159.5 130t-53.5 175q0 103 67 179
t179.5 114.5t254.5 38.5q101 0 171.5 -21.5t136.5 -62.5q244 97 311 125v-231l-184 -29q24 -70 24 -113q0 -68 -31 -130t-89 -111.5t-151.5 -79t-209.5 -29.5q-48 0 -102 4q-107 -5 -107 -43q0 -23 40 -31.5t146 -15.5q118 -5 220 -12q194 -13 289.5 -93.5t95.5 -209.5
q0 -156 -146 -249t-418 -93zM606 561q89 0 139 47t50 127q0 81 -50.5 132t-138.5 51q-86 0 -138 -51.5t-52 -131.5t50.5 -127t139.5 -47zM662 -182q125 0 178 29t53 90q0 103 -160 112l-244 17q-69 3 -114 -33.5t-45 -87.5q0 -68 81 -97.5t251 -29.5z" />
    <glyph glyph-name="Hcircumflex" unicode="&#x124;" horiz-adv-x="1495" 
d="M881 1640l-136 154l-149 -154h-221l270 277h205l264 -277h-233zM1030 637h-563v-637h-299v1481h299v-594h563v594h301v-1481h-301v637z" />
    <glyph glyph-name="hcircumflex" unicode="&#x125;" horiz-adv-x="1218" 
d="M129 0v1522h297v-602q100 145 305 145q155 0 262 -93t107 -239v-733h-299v690q0 66 -50.5 105t-125.5 39q-80 0 -138.5 -41t-58.5 -111v-682h-299zM963 1219l-136 153l-149 -153h-221l270 276h205l264 -276h-233z" />
    <glyph glyph-name="Hbar" unicode="&#x126;" horiz-adv-x="1583" 
d="M1526 1290q26 0 26 -30v-97q0 -41 -47 -41h-108v-1122h-299v637h-563v-637h-302v1122h-178q-20 0 -27.5 9t-7.5 28v96q0 35 25 35h188v191h302v-191h563v191h299v-191h129zM1098 887v235h-563v-235h563z" />
    <glyph glyph-name="hbar" unicode="&#x127;" horiz-adv-x="1277" 
d="M788 1065q156 0 263.5 -93t107.5 -239v-733h-299v690q0 66 -50.5 105t-125.5 39q-80 0 -138.5 -41t-58.5 -111v-682h-299v1188h-143v168h143v166h297v-166h248v-168h-248v-268q100 145 303 145z" />
    <glyph glyph-name="Itilde" unicode="&#x128;" horiz-adv-x="630" 
d="M651 1731q-74 -54 -178 -54q-59 0 -151.5 30t-143.5 30q-38 0 -66 -11t-65 -36q-11 -7 -17.5 -9t-12 3t-9.5 18l-28 84q-5 10 -3 22.5t17 24.5q37 36 77.5 55t98.5 19q60 0 159 -32t142 -32q68 0 137 49q32 22 41 -14l25 -100q6 -27 -23 -47zM168 1481h299v-1481h-299
v1481z" />
    <glyph glyph-name="itilde" unicode="&#x129;" horiz-adv-x="561" 
d="M618 1309q-74 -54 -178 -54q-59 0 -151.5 30t-143.5 30q-38 0 -66 -11t-65 -36q-11 -7 -17.5 -9t-12 3t-9.5 18l-28 84q-5 10 -3 22.5t17 24.5q37 36 77.5 55t98.5 19q60 0 159 -32t142 -32q68 0 137 49q32 22 41 -14l25 -100q6 -27 -23 -47zM432 1059v-1059h-299v1059
h299z" />
    <glyph glyph-name="Imacron" unicode="&#x12a;" horiz-adv-x="630" 
d="M682 1890v-190h-721v190h721zM168 1481h299v-1481h-299v1481z" />
    <glyph glyph-name="imacron" unicode="&#x12b;" horiz-adv-x="561" 
d="M647 1468v-190h-721v190h721zM432 1059v-1059h-299v1059h299z" />
    <glyph glyph-name="Ibreve" unicode="&#x12c;" horiz-adv-x="630" 
d="M682 1903q-35 -120 -131.5 -190.5t-228.5 -70.5q-130 0 -227 68.5t-132 192.5h178q28 -48 75 -80.5t106 -32.5q55 0 103.5 32.5t76.5 80.5h180zM168 1481h299v-1481h-299v1481z" />
    <glyph glyph-name="ibreve" unicode="&#x12d;" horiz-adv-x="561" 
d="M647 1481q-35 -120 -131.5 -190t-228.5 -70q-130 0 -227 68t-132 192h178q28 -48 75 -80.5t106 -32.5q55 0 103.5 32.5t76.5 80.5h180zM432 1059v-1059h-299v1059h299z" />
    <glyph glyph-name="Iogonek" unicode="&#x12e;" horiz-adv-x="630" 
d="M467 -184q17 7 23 3t6 -22v-84q0 -19 -17 -28q-76 -39 -198 -39q-106 0 -165 43t-59 125q0 59 40 104t143 82h-72v1481h299v-1481h-4q-105 -39 -147 -73.5t-42 -76.5q0 -65 74 -65q59 0 119 31z" />
    <glyph glyph-name="iogonek" unicode="&#x12f;" horiz-adv-x="561" 
d="M440 1481v-291h-305v291h305zM426 -174q17 7 23 3t6 -22v-83q0 -20 -17 -29q-76 -39 -198 -39q-106 0 -165 43t-59 125q0 55 34 97.5t122 78.5h-39v1059h299v-1059h-37q-90 -36 -126 -68t-36 -71q0 -66 74 -66q59 0 119 31z" />
    <glyph glyph-name="Idotaccent" unicode="&#x130;" horiz-adv-x="630" 
d="M473 1903v-291h-305v291h305zM168 1481h299v-1481h-299v1481z" />
    <glyph glyph-name="dotlessi" unicode="&#x131;" horiz-adv-x="561" 
d="M432 1059v-1059h-299v1059h299z" />
    <glyph glyph-name="IJ" unicode="&#x132;" horiz-adv-x="1466" 
d="M168 1481h299v-1481h-299v1481zM1317 412q0 -113 -16.5 -189t-58.5 -133t-116.5 -83.5t-187.5 -26.5q-131 0 -256 32l6 275q3 -1 31 -8t40.5 -9.5t37 -6t45.5 -3.5q100 0 138 53t38 179v989h299v-1069z" />
    <glyph glyph-name="ij" unicode="&#x133;" horiz-adv-x="1136" 
d="M473 1522v-293h-305v293h305zM1036 1522v-293h-305v293h305zM469 1059v-1059h-299v1059h299zM1034 8q0 -176 -86 -262t-272 -86q-49 0 -83 7t-43 15l-9 7l-2 200l82 9q64 9 88 34t24 78v1049h301v-1051z" />
    <glyph glyph-name="Jcircumflex" unicode="&#x134;" horiz-adv-x="833" 
d="M602 1640l-135 154l-150 -154h-221l271 277h204l265 -277h-234zM686 412q0 -113 -16.5 -189t-58.5 -133t-116.5 -83.5t-187.5 -26.5q-131 0 -256 32l6 275q3 -1 31 -8t40.5 -9.5t37 -6t45.5 -3.5q100 0 138 53t38 179v989h299v-1069z" />
    <glyph glyph-name="jcircumflex" unicode="&#x135;" horiz-adv-x="595" 
d="M426 1219l-135 153l-150 -153h-223l272 276h205l264 -276h-233zM442 8q0 -176 -86.5 -262t-271.5 -86q-50 0 -83.5 7t-42.5 12.5t-9 9.5v200l80 9q64 9 89 34t25 78v1049h299v-1051z" />
    <glyph glyph-name="uni0136" unicode="&#x136;" horiz-adv-x="1472" 
d="M1417 0h-327l-394 690l-217 -266v-424h-311v1481h311v-678l539 678h344l-449 -572zM643 -485q-13 0 -19.5 11.5t-0.5 20.5l63 97q11 17 6 31t-22 14h-19q-20 0 -27.5 8t-7.5 27v124q0 33 29 33h158q26 0 26 -26v-166q0 -7 -8 -23l-92 -127q-9 -15 -20 -19.5t-33 -4.5h-33
z" />
    <glyph glyph-name="uni0137" unicode="&#x137;" horiz-adv-x="1193" 
d="M1153 0h-299l-285 457l-141 -150v-307h-299v1522h299v-918l406 455h305l-383 -422zM520 -485q-13 0 -19.5 11.5t-0.5 20.5l63 97q11 17 6 31t-22 14h-19q-20 0 -27 8t-7 27v124q0 33 28 33h158q27 0 27 -26v-166q0 -5 -9 -23l-92 -127q-9 -15 -20 -19.5t-33 -4.5h-33z
" />
    <glyph glyph-name="kgreenlandic" unicode="&#x138;" horiz-adv-x="1236" 
d="M1196 0h-342l-242 487l-184 -180v-307h-299v1059h299v-469l432 469h305l-352 -357z" />
    <glyph glyph-name="Lacute" unicode="&#x139;" horiz-adv-x="1171" 
d="M532 1925l68 -194l-543 -144l-43 127zM168 1481h301v-1229h643v-252h-944v1481z" />
    <glyph glyph-name="lacute" unicode="&#x13a;" horiz-adv-x="671" 
d="M516 2009l66 -194l-543 -144l-43 129zM471 -18q-90 0 -155 19t-100 47t-55 73.5t-25 83.5t-5 92v1225h295v-1188q0 -62 26.5 -97t92.5 -42l49 -2v-187q-70 -24 -123 -24z" />
    <glyph glyph-name="uni013B" unicode="&#x13b;" horiz-adv-x="1171" 
d="M168 1481h301v-1229h643v-252h-944v1481zM553 -485q-13 0 -20 11.5t-1 20.5l64 97q11 17 6 31t-22 14h-19q-20 0 -27.5 8t-7.5 27v124q0 33 29 33h158q26 0 26 -26v-166q0 -7 -8 -23l-92 -127q-9 -15 -20 -19.5t-33 -4.5h-33z" />
    <glyph glyph-name="uni013C" unicode="&#x13c;" horiz-adv-x="671" 
d="M471 -18q-90 0 -155 19t-100 47t-55 73.5t-25 83.5t-5 92v1225h295v-1188q0 -62 26.5 -97t92.5 -42l49 -2v-187q-70 -24 -123 -24zM188 -485q-13 0 -18.5 11.5t0.5 20.5l61 97q12 17 6.5 31t-22.5 14h-16q-21 0 -29 8t-8 27v124q0 33 28 33h158q27 0 27 -26v-166
q0 -5 -3 -13t-3 -10l-93 -127q-10 -15 -21.5 -19.5t-33.5 -4.5h-33z" />
    <glyph glyph-name="Lcaron" unicode="&#x13d;" horiz-adv-x="1171" 
d="M168 1481h301v-1229h643v-252h-944v1481zM786 1034q-10 0 -14.5 8.5t-1.5 16.5l61 149q6 17 3.5 25.5t-15.5 9.5l-20 4q-29 3 -29 27v182q0 25 23 25h159q23 0 23 -21v-213q0 -4 -6 -16l-72 -172q-6 -14 -16.5 -19.5t-34.5 -5.5h-60z" />
    <glyph glyph-name="lcaron" unicode="&#x13e;" horiz-adv-x="663" 
d="M545 1094q-10 0 -15 8t-2 16l62 150q6 17 3.5 25.5t-15.5 9.5l-21 4q-29 3 -29 26v183q0 24 23 24h160q22 0 22 -20v-213q0 -5 -6 -17l-72 -172q-6 -14 -16.5 -19t-34.5 -5h-59zM471 -18q-90 0 -155 19t-100 47t-55 73.5t-25 83.5t-5 92v1225h295v-1188q0 -62 26.5 -97
t92.5 -42l49 -2v-187q-70 -24 -123 -24z" />
    <glyph glyph-name="Ldot" unicode="&#x13f;" horiz-adv-x="1249" 
d="M168 1481h301v-1229h643v-252h-944v1481zM1163 969v-295h-305v295h305z" />
    <glyph glyph-name="ldot" unicode="&#x140;" horiz-adv-x="858" 
d="M471 -18q-90 0 -155 19t-100 47t-55 73.5t-25 83.5t-5 92v1225h295v-1188q0 -62 26.5 -97t92.5 -42l49 -2v-187q-70 -24 -123 -24zM881 723v-293h-306v293h306z" />
    <glyph glyph-name="Lslash" unicode="&#x141;" horiz-adv-x="1204" 
d="M502 252h643v-252h-944v631l-138 -39q-21 -6 -29.5 1t-8.5 28v178q0 33 30 39l146 39v604h301v-525l282 74q39 11 39 -26v-173q0 -27 -30 -36l-291 -80v-463z" />
    <glyph glyph-name="lslash" unicode="&#x142;" horiz-adv-x="708" 
d="M662 195l49 -2v-187q-67 -24 -123 -24q-90 0 -155 19t-100 47t-55 73.5t-25 83.5t-5 92v152l-191 -140v256l191 135v822h295v-615l106 76v-244l-106 -77v-328q0 -62 26.5 -97t92.5 -42z" />
    <glyph glyph-name="Nacute" unicode="&#x143;" horiz-adv-x="1603" 
d="M1038 1925l68 -194l-543 -144l-43 127zM1139 1481h301v-1481h-271l-702 1018v-1018h-299v1481h297l674 -981v981z" />
    <glyph glyph-name="nacute" unicode="&#x144;" horiz-adv-x="1220" 
d="M850 1503l68 -194l-543 -144l-43 127zM129 0v1059h295v-137q57 71 125 109t182 38q98 0 182 -43.5t136.5 -127.5t52.5 -191v-707h-299v670q0 76 -50 120t-126 44q-80 0 -139.5 -40t-59.5 -108v-686h-299z" />
    <glyph glyph-name="uni0145" unicode="&#x145;" horiz-adv-x="1603" 
d="M1139 1481h301v-1481h-271l-702 1018v-1018h-299v1481h297l674 -981v981zM709 -485q-13 0 -20 11.5t-1 20.5l64 97q11 17 5.5 31t-22.5 14h-18q-20 0 -27.5 8t-7.5 27v124q0 33 29 33h157q27 0 27 -26v-166q0 -7 -8 -23l-92 -127q-14 -24 -54 -24h-32z" />
    <glyph glyph-name="uni0146" unicode="&#x146;" horiz-adv-x="1220" 
d="M129 0v1059h295v-137q57 71 125 109t182 38q98 0 182 -43.5t136.5 -127.5t52.5 -191v-707h-299v670q0 76 -50 120t-126 44q-80 0 -139.5 -40t-59.5 -108v-686h-299zM539 -485q-13 0 -20 11.5t-1 20.5l64 97q11 17 5.5 31t-22.5 14h-18q-20 0 -27.5 8t-7.5 27v124
q0 33 29 33h157q27 0 27 -26v-166q0 -7 -8 -23l-92 -127q-14 -24 -54 -24h-32z" />
    <glyph glyph-name="Ncaron" unicode="&#x147;" horiz-adv-x="1603" 
d="M946 1905h234l-265 -279h-206l-271 279h224l149 -154zM1139 1481h301v-1481h-271l-702 1018v-1018h-299v1481h297l674 -981v981z" />
    <glyph glyph-name="ncaron" unicode="&#x148;" horiz-adv-x="1220" 
d="M756 1483h233l-264 -279h-207l-270 279h223l150 -154zM129 0v1059h295v-137q57 71 125 109t182 38q98 0 182 -43.5t136.5 -127.5t52.5 -191v-707h-299v670q0 76 -50 120t-126 44q-80 0 -139.5 -40t-59.5 -108v-686h-299z" />
    <glyph glyph-name="napostrophe" unicode="&#x149;" horiz-adv-x="1441" 
d="M109 909q-11 0 -16.5 8.5t-2.5 16.5l62 223q5 17 3 24.5t-14 10.5l-18 2q-17 2 -24 8t-7 21v233q0 25 23 25h161q21 0 21 -21v-266q0 -8 -4 -16l-74 -244q-8 -25 -47 -25h-63zM350 0v1059h295v-137q55 70 123.5 108.5t183.5 38.5q98 0 182 -43.5t136.5 -127.5t52.5 -191
v-707h-299v670q0 76 -50.5 120t-125.5 44q-80 0 -139.5 -40t-59.5 -108v-686h-299z" />
    <glyph glyph-name="Eng" unicode="&#x14a;" horiz-adv-x="1562" 
d="M1372 1481q27 0 27 -29v-1415q0 -200 -98.5 -293.5t-301.5 -93.5q-103 0 -229 26q-48 9 -45 66l16 170q3 40 37 35q94 -17 127 -17q76 0 117.5 39t42.5 127v45l-596 791q-18 24 -18 -2v-895q0 -19 -9 -27t-32 -8h-201q-21 0 -31 7.5t-10 27.5v1409q0 21 8 29t29 8h235
q22 0 32.5 -5t23.5 -24l596 -797q12 -17 21 -14.5t9 21.5v786q0 33 35 33h215z" />
    <glyph glyph-name="eng" unicode="&#x14b;" horiz-adv-x="1239" 
d="M752 -340q-50 0 -80.5 5.5t-37.5 10t-7 9.5v204l69 5q58 6 82.5 31.5t24.5 80.5v707q0 70 -38 109.5t-112 39.5q-117 0 -221 -129v-733h-303l4 1059h293v-164q91 93 177 138.5t183 45.5q145 0 231.5 -86t86.5 -229v-750q0 -165 -95 -259.5t-257 -94.5z" />
    <glyph glyph-name="Omacron" unicode="&#x14c;" horiz-adv-x="1581" 
d="M1151 1890v-190h-721v190h721zM793 -20q-317 0 -500.5 202t-183.5 553q0 354 186 560t498 206q310 0 493.5 -205.5t183.5 -558.5q0 -351 -182 -554t-495 -203zM793 225q352 0 352 508q0 268 -92 395t-260 127t-262.5 -127.5t-94.5 -394.5q0 -260 94 -384t263 -124z" />
    <glyph glyph-name="omacron" unicode="&#x14d;" 
d="M946 1468v-190h-721v190h721zM584 -20q-235 0 -373.5 150t-138.5 392q0 249 142 403t372 154q235 0 372.5 -154.5t137.5 -400.5q0 -242 -138.5 -393t-373.5 -151zM586 203q60 0 104 27.5t68 76t35.5 104.5t11.5 121q0 66 -11.5 122.5t-36 104t-68.5 74.5t-103 27
q-79 0 -130.5 -48.5t-71 -119t-19.5 -160.5q0 -65 11.5 -121t36 -104t69 -76t104.5 -28z" />
    <glyph glyph-name="Obreve" unicode="&#x14e;" horiz-adv-x="1581" 
d="M1153 1903q-35 -120 -131.5 -190.5t-228.5 -70.5q-130 0 -227 68.5t-132 192.5h178q28 -48 75 -80.5t106 -32.5q55 0 103.5 32.5t76.5 80.5h180zM793 -20q-317 0 -500.5 202t-183.5 553q0 354 186 560t498 206q310 0 493.5 -205.5t183.5 -558.5q0 -351 -182 -554
t-495 -203zM793 225q352 0 352 508q0 268 -92 395t-260 127t-262.5 -127.5t-94.5 -394.5q0 -260 94 -384t263 -124z" />
    <glyph glyph-name="obreve" unicode="&#x14f;" 
d="M946 1481q-35 -120 -131.5 -190t-228.5 -70q-130 0 -227 68t-132 192h179q28 -48 74.5 -80.5t105.5 -32.5q55 0 103.5 32.5t76.5 80.5h180zM584 -20q-235 0 -373.5 150t-138.5 392q0 249 142 403t372 154q235 0 372.5 -154.5t137.5 -400.5q0 -242 -138.5 -393
t-373.5 -151zM586 203q60 0 104 27.5t68 76t35.5 104.5t11.5 121q0 66 -11.5 122.5t-36 104t-68.5 74.5t-103 27q-79 0 -130.5 -48.5t-71 -119t-19.5 -160.5q0 -65 11.5 -121t36 -104t69 -76t104.5 -28z" />
    <glyph glyph-name="Ohungarumlaut" unicode="&#x150;" horiz-adv-x="1581" 
d="M735 1907l82 -99q32 -35 -6 -59l-274 -182q-20 -11 -29 -11.5t-23 13.5l-51 55q-10 10 -11 22.5t7 18.5l266 246q24 17 39 -4zM1124 1907l82 -99q32 -35 -6 -59l-274 -182q-20 -11 -30 -11.5t-22 13.5l-51 55q-10 10 -11 22.5t7 18.5l266 246q9 8 20.5 7t18.5 -11z
M793 -20q-317 0 -500.5 202t-183.5 553q0 354 186 560t498 206q310 0 493.5 -205.5t183.5 -558.5q0 -351 -182 -554t-495 -203zM793 225q352 0 352 508q0 268 -92 395t-260 127t-262.5 -127.5t-94.5 -394.5q0 -260 94 -384t263 -124z" />
    <glyph glyph-name="ohungarumlaut" unicode="&#x151;" 
d="M528 1485l82 -99q32 -35 -6 -59l-274 -182q-20 -11 -28.5 -11.5t-22.5 13.5l-52 55q-10 10 -11 22.5t7 18.5l266 246q24 17 39 -4zM918 1485l81 -99q32 -35 -6 -59l-274 -182q-20 -11 -29.5 -11.5t-21.5 13.5l-52 55q-10 10 -11 22.5t7 18.5l267 246q9 8 20.5 7t18.5 -11
zM584 -20q-235 0 -373.5 150t-138.5 392q0 249 142 403t372 154q235 0 372.5 -154.5t137.5 -400.5q0 -242 -138.5 -393t-373.5 -151zM586 203q60 0 104 27.5t68 76t35.5 104.5t11.5 121q0 66 -11.5 122.5t-36 104t-68.5 74.5t-103 27q-79 0 -130.5 -48.5t-71 -119
t-19.5 -160.5q0 -65 11.5 -121t36 -104t69 -76t104.5 -28z" />
    <glyph glyph-name="OE" unicode="&#x152;" horiz-adv-x="2314" 
d="M2191 250v-250h-962l-68 88q-126 -108 -352 -108q-328 0 -514 201.5t-186 553.5q0 357 191 561.5t525 204.5q216 0 336 -108l86 88h924l-2 -248h-713v-365h483v-245h-483v-373h735zM793 219q168 0 243.5 121.5t75.5 392.5q0 276 -77 403.5t-242 127.5q-168 0 -247 -127.5
t-79 -403.5q0 -269 78.5 -391.5t247.5 -122.5z" />
    <glyph glyph-name="oe" unicode="&#x153;" horiz-adv-x="1957" 
d="M606 -20q-237 0 -385.5 151t-148.5 391q0 248 151 402.5t385 154.5q226 0 363 -153q21 -22 43 0q64 73 153.5 113t194.5 40q232 0 374 -162t142 -444h-739q0 -129 76.5 -208t189.5 -79q147 0 272 148l187 -82q-98 -151 -212 -211.5t-284 -60.5q-225 0 -364 149
q-18 21 -35 -2q-144 -147 -363 -147zM1374 893q-100 0 -166 -68.5t-65 -185.5l444 -2q0 97 -58.5 176.5t-154.5 79.5zM608 180q113 0 171.5 89t58.5 259q0 174 -59.5 265.5t-170.5 91.5t-171 -91.5t-60 -265.5q0 -170 60 -259t171 -89z" />
    <glyph glyph-name="Racute" unicode="&#x154;" horiz-adv-x="1433" 
d="M926 1925l67 -194l-542 -144l-43 127zM1317 0h-309l-242 571h-299v-571h-299v1481h625q256 0 383 -119.5t127 -323.5q0 -84 -20.5 -152.5t-58.5 -118t-81.5 -84t-100.5 -62.5zM739 801q119 0 189.5 63.5t70.5 165.5q0 101 -66.5 162t-170.5 61h-295v-452h272z" />
    <glyph glyph-name="racute" unicode="&#x155;" horiz-adv-x="831" 
d="M688 1503l68 -194l-543 -144l-43 127zM129 0v1059h289v-260q47 122 144.5 201t225.5 79l3 -282q-94 7 -166.5 -10.5t-114 -52t-62 -77t-20.5 -90.5v-567h-299z" />
    <glyph glyph-name="uni0156" unicode="&#x156;" horiz-adv-x="1433" 
d="M1317 0h-309l-242 571h-299v-571h-299v1481h625q256 0 383 -119.5t127 -323.5q0 -84 -20.5 -152.5t-58.5 -118t-81.5 -84t-100.5 -62.5zM739 801q119 0 189.5 63.5t70.5 165.5q0 101 -66.5 162t-170.5 61h-295v-452h272zM639 -485q-13 0 -20 11.5t-1 20.5l64 97
q11 17 6 31t-22 14h-19q-20 0 -27.5 8t-7.5 27v124q0 33 29 33h158q26 0 26 -26v-166q0 -7 -8 -23l-92 -127q-9 -15 -20 -19.5t-33 -4.5h-33z" />
    <glyph glyph-name="uni0157" unicode="&#x157;" horiz-adv-x="831" 
d="M129 0v1059h289v-260q47 122 144.5 201t225.5 79l3 -282q-94 7 -166.5 -10.5t-114 -52t-62 -77t-20.5 -90.5v-567h-299zM217 -485q-13 0 -19.5 11.5t-0.5 20.5l63 97q11 17 6 31t-22 14h-19q-20 0 -27.5 8t-7.5 27v124q0 33 29 33h158q26 0 26 -26v-166q0 -7 -8 -23
l-92 -127q-9 -15 -20 -19.5t-33 -4.5h-33z" />
    <glyph glyph-name="Rcaron" unicode="&#x158;" horiz-adv-x="1433" 
d="M831 1905h234l-264 -279h-207l-270 279h223l149 -154zM1317 0h-309l-242 571h-299v-571h-299v1481h625q256 0 383 -119.5t127 -323.5q0 -84 -20.5 -152.5t-58.5 -118t-81.5 -84t-100.5 -62.5zM739 801q119 0 189.5 63.5t70.5 165.5q0 101 -66.5 162t-170.5 61h-295v-452
h272z" />
    <glyph glyph-name="rcaron" unicode="&#x159;" horiz-adv-x="831" 
d="M594 1483h233l-264 -279h-207l-270 279h223l150 -154zM129 0v1059h289v-260q47 122 144.5 201t225.5 79l3 -282q-94 7 -166.5 -10.5t-114 -52t-62 -77t-20.5 -90.5v-567h-299z" />
    <glyph glyph-name="Sacute" unicode="&#x15a;" horiz-adv-x="1454" 
d="M954 1925l68 -194l-543 -144l-43 127zM735 -20q-115 0 -221 27t-194.5 79t-147 137t-70.5 193l312 6q21 -98 107.5 -152.5t211.5 -54.5q134 0 219.5 47.5t85.5 138.5q0 78 -67.5 122.5t-188.5 68.5l-262 51q-175 33 -273.5 135t-99.5 269q-2 136 75 240t209.5 158
t297.5 54q129 0 239 -37t185 -99t121 -141.5t55 -166.5l-303 -4q-27 211 -293 211q-120 0 -193 -50.5t-73 -130.5q0 -68 45.5 -107t163.5 -65l256 -53q414 -79 414 -455q0 -181 -170.5 -301t-440.5 -120z" />
    <glyph glyph-name="sacute" unicode="&#x15b;" horiz-adv-x="1089" 
d="M772 1503l68 -194l-543 -144l-43 127zM557 -20q-85 0 -162.5 19t-144.5 58t-113 106.5t-59 155.5h252q42 -135 231 -135q90 0 140.5 30t50.5 81q0 43 -36.5 67t-107.5 41l-186 39q-308 65 -311 301q-1 150 123 243t325 93q197 0 316.5 -92t117.5 -235h-250q-12 65 -64 98
t-128 33q-75 0 -126.5 -27.5t-51.5 -89.5q0 -40 40 -64.5t130 -42.5l172 -38q85 -21 146 -59t90.5 -83.5t42 -86t12.5 -81.5q0 -105 -61 -181.5t-161.5 -113t-226.5 -36.5z" />
    <glyph glyph-name="Scircumflex" unicode="&#x15c;" horiz-adv-x="1454" 
d="M860 1640l-135 154l-150 -154h-221l271 277h204l265 -277h-234zM735 -20q-115 0 -221 27t-194.5 79t-147 137t-70.5 193l312 6q21 -98 107.5 -152.5t211.5 -54.5q134 0 219.5 47.5t85.5 138.5q0 78 -67.5 122.5t-188.5 68.5l-262 51q-175 33 -273.5 135t-99.5 269
q-2 136 75 240t209.5 158t297.5 54q129 0 239 -37t185 -99t121 -141.5t55 -166.5l-303 -4q-27 211 -293 211q-120 0 -193 -50.5t-73 -130.5q0 -68 45.5 -107t163.5 -65l256 -53q414 -79 414 -455q0 -181 -170.5 -301t-440.5 -120z" />
    <glyph glyph-name="scircumflex" unicode="&#x15d;" horiz-adv-x="1089" 
d="M680 1219l-135 153l-150 -153h-221l270 276h205l264 -276h-233zM557 -20q-85 0 -162.5 19t-144.5 58t-113 106.5t-59 155.5h252q42 -135 231 -135q90 0 140.5 30t50.5 81q0 43 -36.5 67t-107.5 41l-186 39q-308 65 -311 301q-1 150 123 243t325 93q197 0 316.5 -92
t117.5 -235h-250q-12 65 -64 98t-128 33q-75 0 -126.5 -27.5t-51.5 -89.5q0 -40 40 -64.5t130 -42.5l172 -38q85 -21 146 -59t90.5 -83.5t42 -86t12.5 -81.5q0 -105 -61 -181.5t-161.5 -113t-226.5 -36.5z" />
    <glyph glyph-name="Scedilla" unicode="&#x15e;" horiz-adv-x="1454" 
d="M1346 401q0 -172 -155.5 -290.5t-404.5 -128.5l-34 -93q106 -1 156 -48t50 -111q0 -76 -70.5 -121t-172.5 -45q-145 0 -236 55l41 102q81 -51 158 -51q48 0 75 17t27 47q0 41 -40.5 62t-133.5 22q-13 0 -17 3t1 15l63 148q-140 12 -256 61t-198 145t-97 226l312 6
q21 -98 107.5 -152.5t211.5 -54.5q134 0 219.5 47.5t85.5 138.5q0 78 -67.5 122.5t-188.5 68.5l-262 51q-175 33 -273.5 135t-99.5 269q-2 136 75 240t209.5 158t297.5 54q129 0 239 -37t185 -99t121 -141.5t55 -166.5l-303 -4q-27 211 -293 211q-120 0 -193 -50.5
t-73 -130.5q0 -68 45.5 -107t163.5 -65l256 -53q414 -79 414 -455z" />
    <glyph glyph-name="scedilla" unicode="&#x15f;" horiz-adv-x="1089" 
d="M1006 311q0 -145 -110 -230.5t-284 -98.5l-34 -93q106 -1 156 -48t50 -111q0 -76 -70.5 -121t-172.5 -45q-145 0 -236 55l41 102q81 -51 158 -51q48 0 75 17t27 47q0 41 -40.5 62t-133.5 22q-13 0 -17 3t1 15l63 148q-74 8 -139 31t-120 62.5t-92.5 101.5t-49.5 140h252
q42 -135 231 -135q90 0 140.5 30t50.5 81q0 43 -36.5 67t-107.5 41l-186 39q-308 65 -311 301q-1 150 123 243t325 93q197 0 316.5 -92t117.5 -235h-250q-12 65 -64 98t-128 33q-75 0 -126.5 -27.5t-51.5 -89.5q0 -40 40 -64.5t130 -42.5l172 -38q85 -21 146 -59t90.5 -83.5
t42 -86t12.5 -81.5z" />
    <glyph glyph-name="Scaron" unicode="&#x160;" horiz-adv-x="1454" 
d="M860 1905h234l-265 -279h-206l-271 279h223l150 -154zM735 -20q-115 0 -221 27t-194.5 79t-147 137t-70.5 193l312 6q21 -98 107.5 -152.5t211.5 -54.5q134 0 219.5 47.5t85.5 138.5q0 78 -67.5 122.5t-188.5 68.5l-262 51q-175 33 -273.5 135t-99.5 269q-2 136 75 240
t209.5 158t297.5 54q129 0 239 -37t185 -99t121 -141.5t55 -166.5l-303 -4q-27 211 -293 211q-120 0 -193 -50.5t-73 -130.5q0 -68 45.5 -107t163.5 -65l256 -53q414 -79 414 -455q0 -181 -170.5 -301t-440.5 -120z" />
    <glyph glyph-name="scaron" unicode="&#x161;" horiz-adv-x="1089" 
d="M680 1483h233l-264 -279h-207l-270 279h223l150 -154zM557 -20q-85 0 -162.5 19t-144.5 58t-113 106.5t-59 155.5h252q42 -135 231 -135q90 0 140.5 30t50.5 81q0 43 -36.5 67t-107.5 41l-186 39q-308 65 -311 301q-1 150 123 243t325 93q197 0 316.5 -92t117.5 -235
h-250q-12 65 -64 98t-128 33q-75 0 -126.5 -27.5t-51.5 -89.5q0 -40 40 -64.5t130 -42.5l172 -38q85 -21 146 -59t90.5 -83.5t42 -86t12.5 -81.5q0 -105 -61 -181.5t-161.5 -113t-226.5 -36.5z" />
    <glyph glyph-name="uni0162" unicode="&#x162;" horiz-adv-x="1251" 
d="M780 0h-65l-41 -111q106 -1 156.5 -48t50.5 -111q0 -75 -71 -120.5t-173 -45.5q-145 0 -236 55l41 102q81 -51 158 -51q48 0 75 17t27 47q0 41 -40.5 62t-133.5 22q-13 0 -17 3t1 15l72 164h-103v1214h-448v267h1186v-267h-439v-1214z" />
    <glyph glyph-name="uni0163" unicode="&#x163;" horiz-adv-x="864" 
d="M774 14q-53 -23 -172 -26l-37 -99q106 -1 156.5 -48t50.5 -111q0 -75 -71 -120.5t-173 -45.5q-144 0 -235 55l41 102q81 -51 158 -51q48 0 75 17t27 47q0 41 -40.5 62t-133.5 22q-14 0 -17.5 3t0.5 15l70 160q-130 21 -183.5 91.5t-53.5 186.5v578h-173v207h183l41 319
h245v-317h236v-209h-236l3 -561q0 -56 20 -76t61 -20h158v-181z" />
    <glyph glyph-name="Tcaron" unicode="&#x164;" horiz-adv-x="1251" 
d="M778 1905h234l-264 -279h-207l-271 279h224l149 -154zM33 1214v267h1186v-267h-439v-1214h-299v1214h-448z" />
    <glyph glyph-name="tcaron" unicode="&#x165;" horiz-adv-x="864" 
d="M670 1145q-10 0 -15 8t-2 16l62 150q11 32 -13 35l-20 4q-29 3 -29 26v183q0 24 23 24h160q22 0 22 -20v-213q0 -5 -6 -17l-72 -172q-6 -14 -16.5 -19t-34.5 -5h-59zM768 852h-236l3 -561q0 -56 20 -76t61 -20h158v-181q-63 -26 -186 -26q-102 0 -172.5 20t-109 59.5
t-54.5 89.5t-16 117v578h-173v207h183l41 319h245v-317h236v-209z" />
    <glyph glyph-name="Tbar" unicode="&#x166;" horiz-adv-x="1251" 
d="M1219 1214h-439v-385h279v-219h-279v-610h-299v610h-252v219h252v385h-448v267h1186v-267z" />
    <glyph glyph-name="tbar" unicode="&#x167;" horiz-adv-x="917" 
d="M672 195h155v-181q-59 -26 -184 -26q-103 0 -173.5 20t-108.5 60t-54 89t-16 117v218h-193v170h193v190h-172v207h180l41 319h248v-317h235v-209h-235v-190h164v-170h-162v-201q0 -56 20.5 -76t61.5 -20z" />
    <glyph glyph-name="Utilde" unicode="&#x168;" horiz-adv-x="1501" 
d="M1067 1731q-74 -54 -178 -54q-59 0 -151.5 30t-143.5 30q-38 0 -66 -11t-65 -36q-11 -7 -17.5 -9t-12 3t-9.5 18l-29 84q-5 11 -2.5 23t17.5 24q37 36 77.5 55t98.5 19q60 0 159 -32t142 -32q68 0 137 49q32 22 41 -14l25 -100q6 -27 -23 -47zM1354 565q0 -283 -141 -434
t-453 -151q-159 0 -274 40.5t-184.5 119t-101.5 185.5t-32 248v908h305v-930q0 -160 77 -239t210 -79q134 0 212.5 79t78.5 239v930h303v-916z" />
    <glyph glyph-name="utilde" unicode="&#x169;" horiz-adv-x="1220" 
d="M938 1309q-74 -54 -178 -54q-59 0 -151.5 30t-143.5 30q-38 0 -66 -11t-65 -36q-11 -7 -17.5 -9t-12 3t-9.5 18l-29 84q-5 11 -2.5 23t17.5 24q37 36 77.5 55t98.5 19q60 0 159 -32t142 -32q68 0 137 49q32 22 41 -14l25 -100q6 -27 -23 -47zM522 -20q-67 1 -134.5 23
t-126 62.5t-95.5 109.5t-37 153v733h299v-696q0 -81 53 -124.5t129 -43.5q82 0 135.5 47t53.5 127v690h303l-6 -1061h-226l-32 217q-13 -70 -47 -119.5t-80.5 -73.5t-92 -34t-96.5 -10z" />
    <glyph glyph-name="Umacron" unicode="&#x16a;" horiz-adv-x="1501" 
d="M1096 1890v-190h-721v190h721zM1354 565q0 -283 -141 -434t-453 -151q-159 0 -274 40.5t-184.5 119t-101.5 185.5t-32 248v908h305v-930q0 -160 77 -239t210 -79q134 0 212.5 79t78.5 239v930h303v-916z" />
    <glyph glyph-name="umacron" unicode="&#x16b;" horiz-adv-x="1220" 
d="M967 1468v-190h-721v190h721zM522 -20q-67 1 -134.5 23t-126 62.5t-95.5 109.5t-37 153v733h299v-696q0 -81 53 -124.5t129 -43.5q82 0 135.5 47t53.5 127v690h303l-6 -1061h-226l-32 217q-13 -70 -47 -119.5t-80.5 -73.5t-92 -34t-96.5 -10z" />
    <glyph glyph-name="Ubreve" unicode="&#x16c;" horiz-adv-x="1501" 
d="M1098 1903q-35 -120 -132 -190.5t-229 -70.5q-130 0 -226.5 68.5t-131.5 192.5h178q28 -48 74.5 -80.5t105.5 -32.5q55 0 104 32.5t77 80.5h180zM1354 565q0 -283 -141 -434t-453 -151q-159 0 -274 40.5t-184.5 119t-101.5 185.5t-32 248v908h305v-930q0 -160 77 -239
t210 -79q134 0 212.5 79t78.5 239v930h303v-916z" />
    <glyph glyph-name="ubreve" unicode="&#x16d;" horiz-adv-x="1220" 
d="M967 1481q-35 -120 -132 -190t-229 -70q-130 0 -226.5 68t-131.5 192h178q28 -48 74.5 -80.5t105.5 -32.5q55 0 103.5 32.5t76.5 80.5h181zM522 -20q-67 1 -134.5 23t-126 62.5t-95.5 109.5t-37 153v733h299v-696q0 -81 53 -124.5t129 -43.5q82 0 135.5 47t53.5 127v690
h303l-6 -1061h-226l-32 217q-13 -70 -47 -119.5t-80.5 -73.5t-92 -34t-96.5 -10z" />
    <glyph glyph-name="Uring" unicode="&#x16e;" horiz-adv-x="1501" 
d="M961 1808q0 -94 -65.5 -158.5t-158.5 -64.5q-94 0 -158.5 65.5t-64.5 161.5q0 89 65.5 152.5t157.5 63.5t158 -64.5t66 -155.5zM836 1806q0 43 -29 72t-72 29q-42 0 -73 -29.5t-31 -71.5q0 -41 31.5 -72.5t72.5 -31.5q42 0 71.5 31t29.5 73zM1354 565q0 -283 -141 -434
t-453 -151q-159 0 -274 40.5t-184.5 119t-101.5 185.5t-32 248v908h305v-930q0 -160 77 -239t210 -79q134 0 212.5 79t78.5 239v930h303v-916z" />
    <glyph glyph-name="uring" unicode="&#x16f;" horiz-adv-x="1220" 
d="M829 1386q0 -95 -65 -159t-158 -64q-94 0 -158.5 65.5t-64.5 162.5q0 89 65.5 152t157.5 63t157.5 -64.5t65.5 -155.5zM705 1384q0 43 -29 72t-72 29q-42 0 -73 -29.5t-31 -71.5q0 -41 31.5 -72.5t72.5 -31.5q42 0 71.5 31t29.5 73zM522 -20q-67 1 -134.5 23t-126 62.5
t-95.5 109.5t-37 153v733h299v-696q0 -81 53 -124.5t129 -43.5q82 0 135.5 47t53.5 127v690h303l-6 -1061h-226l-32 217q-13 -70 -47 -119.5t-80.5 -73.5t-92 -34t-96.5 -10z" />
    <glyph glyph-name="Uhungarumlaut" unicode="&#x170;" horiz-adv-x="1501" 
d="M680 1907l82 -99q32 -35 -6 -59l-275 -182q-20 -11 -28.5 -11.5t-22.5 13.5l-51 55q-10 10 -11 22.5t7 18.5l266 246q24 17 39 -4zM1069 1907l82 -99q32 -35 -6 -59l-275 -182q-20 -11 -29.5 -11.5t-21.5 13.5l-51 55q-10 10 -11 22.5t7 18.5l266 246q9 8 20.5 7
t18.5 -11zM1354 565q0 -283 -141 -434t-453 -151q-159 0 -274 40.5t-184.5 119t-101.5 185.5t-32 248v908h305v-930q0 -160 77 -239t210 -79q134 0 212.5 79t78.5 239v930h303v-916z" />
    <glyph glyph-name="uhungarumlaut" unicode="&#x171;" horiz-adv-x="1220" 
d="M549 1485l82 -99q32 -35 -6 -59l-275 -182q-20 -11 -28.5 -11.5t-22.5 13.5l-51 55q-10 10 -11 22.5t7 18.5l266 246q24 17 39 -4zM938 1485l82 -99q32 -35 -6 -59l-275 -182q-20 -11 -29.5 -11.5t-21.5 13.5l-51 55q-10 10 -11 22.5t7 18.5l266 246q9 8 20.5 7t18.5 -11
zM522 -20q-67 1 -134.5 23t-126 62.5t-95.5 109.5t-37 153v733h299v-696q0 -81 53 -124.5t129 -43.5q82 0 135.5 47t53.5 127v690h303l-6 -1061h-226l-32 217q-13 -70 -47 -119.5t-80.5 -73.5t-92 -34t-96.5 -10z" />
    <glyph glyph-name="Uogonek" unicode="&#x172;" horiz-adv-x="1501" 
d="M1051 1481h303v-916q0 -518 -461 -577q-72 -31 -101.5 -61t-29.5 -66q0 -66 74 -66q58 0 118 31q17 7 23 3t6 -22v-83q0 -21 -16 -29q-76 -39 -199 -39q-106 0 -164.5 43t-58.5 125q0 48 26.5 87.5t92.5 72.5q-261 24 -378.5 174t-117.5 415v908h305v-930q0 -160 77 -239
t210 -79q134 0 212.5 79t78.5 239v930z" />
    <glyph glyph-name="uogonek" unicode="&#x173;" horiz-adv-x="1220" 
d="M1090 -174q17 7 22.5 3t5.5 -22v-83q0 -21 -16 -29q-76 -39 -199 -39q-106 0 -164.5 43t-58.5 125q0 60 40.5 105.5t147.5 82.5l-30 205q-13 -70 -47 -119.5t-80.5 -73.5t-92 -34t-96.5 -10q-67 1 -134.5 23t-126 62.5t-95.5 109.5t-37 153v733h299v-696q0 -81 53 -124.5
t129 -43.5q82 0 135.5 47t53.5 127v690h303l-6 -1061h-37q-90 -36 -126 -68t-36 -71q0 -66 74 -66q59 0 119 31z" />
    <glyph glyph-name="Wcircumflex" unicode="&#x174;" horiz-adv-x="1990" 
d="M1133 1640l-136 154l-149 -154h-221l270 277h205l264 -277h-233zM1948 1481l-437 -1481h-239l-279 969l-278 -969h-236l-436 1481h293l276 -977l275 977h215l280 -977l275 977h291z" />
    <glyph glyph-name="wcircumflex" unicode="&#x175;" horiz-adv-x="1628" 
d="M956 1219l-135 153l-149 -153h-221l270 276h205l264 -276h-234zM1591 1059l-348 -1059h-237l-197 641l-199 -641h-229l-344 1059h264l203 -658h8l195 658h213l198 -658h6l197 658h270z" />
    <glyph glyph-name="Ycircumflex" unicode="&#x176;" horiz-adv-x="1357" 
d="M844 1640l-135 154l-150 -154h-221l270 277h205l264 -277h-233zM1341 1481l-514 -858v-623h-299v623l-514 858h324l342 -600l336 600h325z" />
    <glyph glyph-name="ycircumflex" unicode="&#x177;" horiz-adv-x="1157" 
d="M748 1219l-136 153l-149 -153h-221l270 276h205l264 -276h-233zM295 -338q-64 0 -113.5 9t-67.5 19l-18 9v190l107 -4q52 -3 92 4t60.5 16.5t37 29t20 27t9.5 24.5l18 59l-411 1014h295l254 -690l258 690h292l-430 -1065q-41 -99 -86 -165.5t-96 -102t-103 -50
t-118 -14.5z" />
    <glyph glyph-name="Ydieresis" unicode="&#x178;" horiz-adv-x="1357" 
d="M643 1903v-256h-264v256h264zM1042 1903v-256h-264v256h264zM1341 1481l-514 -858v-623h-299v623l-514 858h324l342 -600l336 600h325z" />
    <glyph glyph-name="Zacute" unicode="&#x179;" horiz-adv-x="1372" 
d="M956 1925l68 -194l-543 -144l-43 127zM100 0v145l752 1086h-700v250h1128v-140l-764 -1087h756v-254h-1172z" />
    <glyph glyph-name="zacute" unicode="&#x17a;" horiz-adv-x="1075" 
d="M784 1503l68 -194l-543 -144l-43 127zM72 0v154l546 716h-503v189h878v-152l-551 -714h557v-193h-927z" />
    <glyph glyph-name="Zdotaccent" unicode="&#x17b;" horiz-adv-x="1372" 
d="M883 1903v-291h-305v291h305zM100 0v145l752 1086h-700v250h1128v-140l-764 -1087h756v-254h-1172z" />
    <glyph glyph-name="zdotaccent" unicode="&#x17c;" horiz-adv-x="1075" 
d="M711 1481v-291h-305v291h305zM72 0v154l546 716h-503v189h878v-152l-551 -714h557v-193h-927z" />
    <glyph glyph-name="Zcaron" unicode="&#x17d;" horiz-adv-x="1372" 
d="M862 1905h234l-265 -279h-206l-271 279h224l149 -154zM100 0v145l752 1086h-700v250h1128v-140l-764 -1087h756v-254h-1172z" />
    <glyph glyph-name="zcaron" unicode="&#x17e;" horiz-adv-x="1075" 
d="M690 1483h234l-265 -279h-206l-271 279h224l149 -154zM72 0v154l546 716h-503v189h878v-152l-551 -714h557v-193h-927z" />
    <glyph glyph-name="uni018F" unicode="&#x18f;" horiz-adv-x="1576" 
d="M1106 854q0 43 -5 82.5t-16.5 85t-35 82.5t-56.5 67.5t-85 48t-117 17.5q-39 0 -74 -8t-61 -18.5t-52 -31.5t-42 -36.5t-36.5 -45t-30 -46l-28.5 -49.5t-27 -46q-9 -17 -43 -2l-213 103q-24 10 -6 47q193 397 610 397q135 0 247 -39.5t191 -108.5t133.5 -164t80.5 -205
t26 -232q0 -157 -50 -298.5t-138 -246t-216.5 -166t-277.5 -61.5q-172 0 -302 56.5t-211 161.5t-121.5 248t-40.5 322q0 30 6 41.5t32 11.5h928q31 0 31 33zM1104 602h-594q-21 0 -28 -5.5t-7 -23.5q0 -69 18 -130.5t53.5 -112t95.5 -80t138 -29.5q85 0 146 28t97 81.5
t55 119t26 152.5z" />
    <glyph glyph-name="florin" unicode="&#x192;" horiz-adv-x="1064" 
d="M936 1059l-39 -207h-221l-162 -920q-23 -129 -112 -201.5t-226 -72.5h-235l30 199l123 2q61 0 89.5 29.5t41.5 111.5l150 852h-170l35 207h172l26 151q23 129 112 200t224 71h244l-33 -199h-137q-44 0 -81 -35.5t-46 -87.5l-16 -100h231z" />
    <glyph glyph-name="uni01C4" unicode="&#x1c4;" horiz-adv-x="2850" 
d="M2341 1905h233l-262 -279h-209l-268 279h221l150 -154zM168 1481q315 0 442 -2q393 -9 580.5 -198.5t187.5 -532.5q0 -355 -195 -551.5t-583 -196.5h-432v1481zM1579 0v145l752 1086h-701v250h1129v-140l-764 -1087h755v-254h-1171zM469 1239v-997h137q99 0 179.5 27.5
t144.5 86t99.5 158.5t35.5 236q0 489 -455 489h-141z" />
    <glyph glyph-name="uni01C5" unicode="&#x1c5;" horiz-adv-x="2551" 
d="M2169 1483h233l-262 -279h-209l-270 279h223l150 -154zM168 1481q315 0 442 -2q393 -9 580.5 -198.5t187.5 -532.5q0 -355 -195 -551.5t-583 -196.5h-432v1481zM469 1239v-997h137q99 0 179.5 27.5t144.5 86t99.5 158.5t35.5 236q0 489 -455 489h-141zM1550 0v154
l547 716h-504v189h879v-152l-551 -714h557v-193h-928z" />
    <glyph glyph-name="uni01C6" unicode="&#x1c6;" horiz-adv-x="2295" 
d="M522 -20q-211 0 -328.5 145t-117.5 403q0 254 112.5 402.5t313.5 148.5q194 0 301 -137v580h299v-1522h-217l-33 211q-80 -231 -330 -231zM1911 1483h233l-262 -279h-209l-270 279h223l150 -154zM1292 0v154l547 716h-504v189h879v-152l-551 -714h557v-193h-928zM592 195
q91 0 151 69.5t60 177.5v224q-42 196 -209 196q-104 0 -165.5 -78t-61.5 -249q0 -175 61.5 -257.5t163.5 -82.5z" />
    <glyph glyph-name="uni01C7" unicode="&#x1c7;" horiz-adv-x="2080" 
d="M168 1481h301v-1229h643v-252h-944v1481zM1933 412q0 -113 -16.5 -189t-58.5 -133t-116.5 -83.5t-187.5 -26.5q-131 0 -256 32l7 275q4 -1 31 -8t39.5 -9.5t37 -6t45.5 -3.5q100 0 138 53t38 179v989h299v-1069z" />
    <glyph glyph-name="uni01C8" unicode="&#x1c8;" horiz-adv-x="1771" 
d="M1636 1522v-293h-305v293h305zM168 1481h301v-1229h643v-252h-944v1481zM1632 8q0 -176 -85 -262t-271 -86q-49 0 -83 7t-43 15l-9 7l-2 200l82 9q64 9 88 34t24 78v1049h299v-1051z" />
    <glyph glyph-name="uni01C9" unicode="&#x1c9;" horiz-adv-x="1249" 
d="M504 -18q-65 0 -117 10t-87 25.5t-60.5 41t-39.5 50.5t-22 59.5t-10 63t-2 65.5v1225h293v-1188q0 -62 27 -97t92 -42l51 -2v-187q-70 -24 -125 -24zM1149 1522v-293h-307v293h307zM1145 8q0 -176 -86 -262t-271 -86q-49 0 -83 7t-43 15l-9 7l-2 200l82 9q64 9 88.5 34
t24.5 78v1049h299v-1051z" />
    <glyph glyph-name="uni01CA" unicode="&#x1ca;" horiz-adv-x="2457" 
d="M1139 1481h301v-1481h-271l-702 1018v-1018h-299v1481h297l674 -981v981zM2290 412q0 -113 -16.5 -189t-58.5 -133t-116.5 -83.5t-187.5 -26.5q-131 0 -256 32l6 275q3 -1 31 -8t40.5 -9.5t37 -6t45.5 -3.5q100 0 138 53t38 179v989h299v-1069z" />
    <glyph glyph-name="uni01CB" unicode="&#x1cb;" horiz-adv-x="2203" 
d="M2068 1522v-293h-305v293h305zM1139 1481h301v-1481h-271l-702 1018v-1018h-299v1481h297l674 -981v981zM2064 8q0 -176 -85 -262t-271 -86q-49 0 -83 7t-43 15l-9 7l-2 200l82 9q64 9 88 34t24 78v1049h299v-1051z" />
    <glyph glyph-name="uni01CC" unicode="&#x1cc;" horiz-adv-x="1777" 
d="M1677 1522v-293h-307v293h307zM164 0v1059h295v-137q55 70 123.5 108.5t183.5 38.5q151 0 261 -101t110 -261v-707h-301v670q0 76 -49.5 120t-124.5 44q-80 0 -139.5 -40t-59.5 -108v-686h-299zM1673 8q0 -176 -85.5 -262t-270.5 -86q-49 0 -83 7t-43 15l-9 7l-2 200
l82 9q64 9 88 34t24 78v1049h299v-1051z" />
    <glyph glyph-name="uni01EA" unicode="&#x1ea;" horiz-adv-x="1581" 
d="M977 0q-93 -36 -130.5 -68t-37.5 -73q0 -66 74 -66q58 0 118 31q17 7 23 3t6 -22v-84q0 -20 -16 -28q-76 -39 -199 -39q-106 0 -164.5 43t-58.5 125q0 99 123 162q-283 25 -444.5 224t-161.5 527q0 354 186 560t498 206q310 0 493.5 -205.5t183.5 -558.5
q0 -294 -130.5 -487t-362.5 -250zM436 733q0 -260 94 -384t263 -124q352 0 352 508q0 268 -92 395t-260 127t-262.5 -127.5t-94.5 -394.5z" />
    <glyph glyph-name="uni01EB" unicode="&#x1eb;" 
d="M758 6q-101 -39 -140.5 -72t-39.5 -75q0 -66 73 -66q59 0 119 31q17 7 23 3t6 -22v-84q0 -19 -17 -28q-76 -39 -198 -39q-106 0 -165 43t-59 125q0 105 129 164q-195 31 -306 175t-111 361q0 249 142 403t372 154q235 0 372.5 -154.5t137.5 -400.5q0 -192 -89.5 -329.5
t-248.5 -188.5zM365 532q0 -65 11.5 -121t36 -104t69 -76t104.5 -28t104 27.5t68 76t35.5 104.5t11.5 121q0 66 -11.5 122.5t-36 104t-68.5 74.5t-103 27q-79 0 -130.5 -48.5t-71 -119t-19.5 -160.5z" />
    <glyph glyph-name="uni01F1" unicode="&#x1f1;" horiz-adv-x="2850" 
d="M168 1481q315 0 442 -2q393 -9 580.5 -198.5t187.5 -532.5q0 -355 -195 -551.5t-583 -196.5h-432v1481zM1579 0v145l752 1086h-701v250h1129v-140l-764 -1087h755v-254h-1171zM469 1239v-997h137q99 0 179.5 27.5t144.5 86t99.5 158.5t35.5 236q0 489 -455 489h-141z" />
    <glyph glyph-name="uni01F2" unicode="&#x1f2;" horiz-adv-x="2551" 
d="M168 1481q315 0 442 -2q393 -9 580.5 -198.5t187.5 -532.5q0 -355 -195 -551.5t-583 -196.5h-432v1481zM469 1239v-997h137q99 0 179.5 27.5t144.5 86t99.5 158.5t35.5 236q0 489 -455 489h-141zM1550 0v154l547 716h-504v189h879v-152l-551 -714h557v-193h-928z" />
    <glyph glyph-name="uni01F3" unicode="&#x1f3;" horiz-adv-x="2295" 
d="M522 -20q-211 0 -328.5 145t-117.5 403q0 254 112.5 402.5t313.5 148.5q194 0 301 -137v580h299v-1522h-217l-33 211q-80 -231 -330 -231zM1292 0v154l547 716h-504v189h879v-152l-551 -714h557v-193h-928zM592 195q91 0 151 69.5t60 177.5v224q-42 196 -209 196
q-104 0 -165.5 -78t-61.5 -249q0 -175 61.5 -257.5t163.5 -82.5z" />
    <glyph glyph-name="uni01F4" unicode="&#x1f4;" horiz-adv-x="1564" 
d="M1006 1925l67 -194l-543 -144l-43 127zM776 -20q-305 0 -486 205.5t-181 549.5q0 350 188.5 558t495.5 208q128 0 240 -41.5t190 -110.5t124 -159t50 -186l-316 -7q-23 111 -100.5 181.5t-194.5 70.5q-160 0 -256 -124.5t-96 -376.5q0 -140 29.5 -241.5t82 -157.5
t114.5 -81.5t137 -25.5q123 0 201.5 74t88.5 163l15 90h-307v207l620 -2v-774h-205v193q-33 -43 -68 -76.5t-87 -66.5t-123 -51.5t-156 -18.5z" />
    <glyph glyph-name="uni01F5" unicode="&#x1f5;" horiz-adv-x="1329" 
d="M881 1503l65 -194l-543 -144l-43 127zM647 -350q-279 0 -427 71t-148 189q0 41 18.5 75t48 55.5t56.5 35.5t53 24t28 11l-17 8.5t-23.5 12.5t-24 15.5t-24.5 21.5t-19.5 25.5t-15.5 32.5t-5 39q0 60 56 107t162 65q-106 49 -159.5 130t-53.5 175q0 154 141 243t358 89
q101 0 171.5 -21.5t138.5 -62.5q200 79 311 125l-2 -231l-183 -29q23 -67 23 -113q0 -68 -30.5 -130t-88.5 -111.5t-151 -79t-209 -29.5q-51 0 -105 4q-104 -5 -104 -43q0 -23 39.5 -31.5t144.5 -15.5q110 -5 219 -12q194 -13 290.5 -94t96.5 -209q0 -156 -146.5 -249
t-418.5 -93zM639 561q90 0 139 46.5t49 127.5t-50.5 132t-137.5 51q-86 0 -137 -51.5t-51 -131.5t50.5 -127t137.5 -47zM696 -182q125 0 178.5 29t53.5 90q0 103 -162 112l-242 17q-70 3 -114.5 -33.5t-44.5 -87.5q0 -68 81 -97.5t250 -29.5z" />
    <glyph glyph-name="Aringacute" unicode="&#x1fa;" horiz-adv-x="1540" 
d="M952 1485l516 -1481h-356l-119 346h-516l-119 -346h-299l521 1481h2q-31 53 -31 112q0 69 43.5 121.5t112.5 71.5l30 135h174l-59 -145q57 -24 91 -74t34 -113q0 -60 -31 -108h6zM762 1694q-41 0 -73 -30.5t-32 -72.5q0 -41 32.5 -72.5t72.5 -31.5q42 0 72 31t30 73
q0 43 -29.5 73t-72.5 30zM545 608h381l-191 549z" />
    <glyph glyph-name="aringacute" unicode="&#x1fb;" 
d="M344 1165l-43 127l78 31q-10 38 -10 68q0 89 65.5 152t157.5 63q62 0 114 -31.5t82 -83.5l31 12l68 -194l-96 -25q-28 -56 -81.5 -88.5t-117.5 -32.5q-68 0 -121 35zM485 1384q0 -10 2 -16l185 76q-26 41 -82 41q-42 0 -73.5 -29.5t-31.5 -71.5zM592 1079q448 0 448 -334
v-745h-249l-25 180q-52 -110 -131.5 -155t-196.5 -45q-157 0 -257.5 86t-100.5 237q0 176 132.5 266t410.5 93l131 2v63q0 75 -45.5 113.5t-130.5 38.5q-70 -2 -127.5 -36t-79.5 -100h-248q7 160 136 248t333 88zM754 354v156l-107 -2q-125 -2 -203.5 -43t-78.5 -131
q0 -73 49 -115.5t125 -42.5q82 0 148.5 54.5t66.5 123.5z" />
    <glyph glyph-name="AEacute" unicode="&#x1fc;" horiz-adv-x="2199" 
d="M1649 1925l67 -194l-542 -144l-44 127zM2077 250v-250h-1065v346h-477l-183 -346h-299l793 1481h1208v-248h-702v-365h479v-245h-479v-373h725zM1012 604v680l-365 -680h365z" />
    <glyph glyph-name="aeacute" unicode="&#x1fd;" horiz-adv-x="1892" 
d="M1163 1503l66 -194l-543 -144l-43 127zM1065 473q0 -125 76.5 -207t189.5 -82q82 0 143.5 36.5t131.5 113.5l186 -82q-94 -147 -212 -209.5t-288 -62.5q-246 0 -411 184q-11 11 -19 0q-87 -90 -190 -137t-250 -47q-162 0 -252 82t-90 219q0 160 138 255.5t407 110.5
l137 8v70q0 80 -44 123t-132 43q-149 0 -224 -148l-253 60q64 141 177 208.5t312 67.5q266 -3 365 -129q129 129 327 129q230 0 373 -162t143 -444h-741zM1300 893q-98 0 -163.5 -67.5t-65.5 -186.5l442 -2q0 95 -58.5 175.5t-154.5 80.5zM762 498l-111 -9
q-118 -10 -197 -58.5t-79 -129.5q0 -63 43.5 -99.5t120.5 -35.5q91 3 157 49.5t66 114.5v168z" />
    <glyph glyph-name="Oslashacute" unicode="&#x1fe;" horiz-adv-x="1568" 
d="M1006 1925l67 -194l-543 -144l-43 127zM1507 1397q24 -24 0 -45l-157 -164q108 -178 108 -451q0 -351 -183 -554t-497 -203q-276 0 -450 157l-125 -129q-33 -39 -70 -2l-65 66q-19 19 -21 31.5t12 27.5l146 152q-109 185 -109 452q0 355 184.5 560.5t497.5 205.5
q277 0 455 -164l135 142q30 27 51 6zM455 733q0 -107 24 -180l545 577q-77 134 -246 134q-166 0 -244.5 -127.5t-78.5 -403.5zM1100 733q0 102 -25 185l-543 -578q77 -119 248 -119q167 0 243.5 121t76.5 391z" />
    <glyph glyph-name="oslashacute" unicode="&#x1ff;" horiz-adv-x="1257" 
d="M918 1309l-543 -144l-43 127l518 211zM1188 967l-123 -115q84 -137 84 -328q0 -242 -138.5 -393t-373.5 -151q-217 0 -354 131l-131 -125l-99 104l142 135q-70 128 -70 297q0 249 142 403t372 154q201 0 336 -116l115 108zM418 532q0 -46 6 -92l367 348q-56 72 -152 72
q-79 0 -130.5 -48.5t-71 -119t-19.5 -160.5zM858 532q0 69 -10 113l-373 -352q57 -90 166 -90q59 0 102.5 27.5t67.5 76t35.5 104.5t11.5 121z" />
    <glyph glyph-name="uni0200" unicode="&#x200;" horiz-adv-x="1478" 
d="M412 1929l305 -280l-92 -103l-344 228zM801 1929l303 -280l-90 -103l-346 228zM53 0l531 1481h315l528 -1481h-297l-120 344h-535l-123 -344h-299zM543 604h395l-197 588z" />
    <glyph glyph-name="uni0201" unicode="&#x201;" 
d="M244 1507l305 -280l-92 -103l-344 228zM633 1507l303 -280l-90 -103l-346 228zM438 -20q-157 0 -257.5 86t-100.5 237q0 176 132.5 266t410.5 93l131 2v63q0 75 -45.5 113.5t-130.5 38.5q-70 -2 -127.5 -36t-79.5 -100h-248q7 160 136 248t333 88q448 0 448 -334v-745
h-249l-25 180q-52 -110 -131.5 -155t-196.5 -45zM539 176q82 0 148.5 54.5t66.5 123.5v156l-107 -2q-125 -2 -203.5 -43t-78.5 -131q0 -73 49 -115.5t125 -42.5z" />
    <glyph glyph-name="uni0202" unicode="&#x202;" horiz-adv-x="1478" 
d="M1151 1716h-180q-26 48 -75.5 81.5t-102.5 33.5q-60 0 -106.5 -33t-74.5 -82h-178q35 124 131.5 193t227.5 69q130 0 226.5 -71t131.5 -191zM53 0l531 1481h315l528 -1481h-297l-120 344h-535l-123 -344h-299zM543 604h395l-197 588z" />
    <glyph glyph-name="uni0203" unicode="&#x203;" 
d="M983 1294h-180q-26 48 -75.5 81.5t-102.5 33.5q-60 0 -106.5 -33t-74.5 -82h-178q35 124 131.5 193t227.5 69q130 0 226.5 -71t131.5 -191zM438 -20q-157 0 -257.5 86t-100.5 237q0 176 132.5 266t410.5 93l131 2v63q0 75 -45.5 113.5t-130.5 38.5q-70 -2 -127.5 -36
t-79.5 -100h-248q7 160 136 248t333 88q448 0 448 -334v-745h-249l-25 180q-52 -110 -131.5 -155t-196.5 -45zM539 176q82 0 148.5 54.5t66.5 123.5v156l-107 -2q-125 -2 -203.5 -43t-78.5 -131q0 -73 49 -115.5t125 -42.5z" />
    <glyph glyph-name="uni0204" unicode="&#x204;" horiz-adv-x="1318" 
d="M336 1929l305 -280l-92 -103l-344 228zM725 1929l303 -280l-90 -103l-346 228zM168 0v1481h1018l-2 -252h-715v-359h621v-247h-623v-367l729 -2v-254h-1028z" />
    <glyph glyph-name="uni0205" unicode="&#x205;" 
d="M242 1507l303 -280l-90 -103l-346 228zM629 1507l305 -280l-92 -103l-344 228zM373 461q-2 -123 57.5 -193.5t165.5 -70.5q164 0 215 139h268q-30 -165 -165.5 -260.5t-309.5 -95.5q-237 0 -382.5 146t-145.5 392q0 160 59.5 286t177 200.5t275.5 74.5q237 0 365 -146
t128 -390v-82h-708zM371 639h432q0 101 -56 166t-159 65q-98 0 -157.5 -69t-59.5 -162z" />
    <glyph glyph-name="uni0206" unicode="&#x206;" horiz-adv-x="1318" 
d="M1077 1716h-180q-26 48 -75.5 81.5t-102.5 33.5q-60 0 -106 -33t-74 -82h-179q35 124 131.5 193t227.5 69q130 0 226.5 -71t131.5 -191zM168 0v1481h1018l-2 -252h-715v-359h621v-247h-623v-367l729 -2v-254h-1028z" />
    <glyph glyph-name="uni0207" unicode="&#x207;" 
d="M981 1294h-180q-26 48 -75.5 81.5t-102.5 33.5q-60 0 -107.5 -33.5t-73.5 -81.5h-178q33 124 130.5 193t228.5 69q130 0 226.5 -71t131.5 -191zM373 461q-2 -123 57.5 -193.5t165.5 -70.5q164 0 215 139h268q-30 -165 -165.5 -260.5t-309.5 -95.5q-237 0 -382.5 146
t-145.5 392q0 160 59.5 286t177 200.5t275.5 74.5q237 0 365 -146t128 -390v-82h-708zM371 639h432q0 101 -56 166t-159 65q-98 0 -157.5 -69t-59.5 -162z" />
    <glyph glyph-name="uni0208" unicode="&#x208;" horiz-adv-x="630" 
d="M-29 1929l305 -280l-92 -103l-344 228zM360 1929l304 -280l-91 -103l-346 228zM168 1481h299v-1481h-299v1481z" />
    <glyph glyph-name="uni0209" unicode="&#x209;" horiz-adv-x="561" 
d="M-61 1507l305 -280l-92 -103l-345 228zM328 1507l303 -280l-90 -103l-346 228zM432 1059v-1059h-299v1059h299z" />
    <glyph glyph-name="uni020A" unicode="&#x20a;" horiz-adv-x="630" 
d="M711 1716h-181q-26 48 -75.5 81.5t-102.5 33.5q-60 0 -106 -33t-74 -82h-178q35 124 131 193t227 69q130 0 227 -71t132 -191zM168 1481h299v-1481h-299v1481z" />
    <glyph glyph-name="uni020B" unicode="&#x20b;" horiz-adv-x="561" 
d="M678 1294h-180q-26 48 -76 81.5t-103 33.5q-60 0 -106 -33t-74 -82h-178q35 124 131 193t227 69q130 0 227 -71t132 -191zM432 1059v-1059h-299v1059h299z" />
    <glyph glyph-name="uni020C" unicode="&#x20c;" horiz-adv-x="1581" 
d="M442 1929l306 -280l-93 -103l-344 228zM831 1929l304 -280l-91 -103l-346 228zM793 -20q-317 0 -500.5 202t-183.5 553q0 354 186 560t498 206q310 0 493.5 -205.5t183.5 -558.5q0 -351 -182 -554t-495 -203zM793 225q352 0 352 508q0 268 -92 395t-260 127
t-262.5 -127.5t-94.5 -394.5q0 -260 94 -384t263 -124z" />
    <glyph glyph-name="uni020D" unicode="&#x20d;" 
d="M238 1507l305 -280l-92 -103l-345 228zM627 1507l303 -280l-90 -103l-346 228zM584 -20q-235 0 -373.5 150t-138.5 392q0 249 142 403t372 154q235 0 372.5 -154.5t137.5 -400.5q0 -242 -138.5 -393t-373.5 -151zM586 203q60 0 104 27.5t68 76t35.5 104.5t11.5 121
q0 66 -11.5 122.5t-36 104t-68.5 74.5t-103 27q-79 0 -130.5 -48.5t-71 -119t-19.5 -160.5q0 -65 11.5 -121t36 -104t69 -76t104.5 -28z" />
    <glyph glyph-name="uni020E" unicode="&#x20e;" horiz-adv-x="1581" 
d="M1182 1716h-181q-26 48 -75.5 81.5t-102.5 33.5q-60 0 -106 -33t-74 -82h-178q35 124 131 193t227 69q130 0 227 -71t132 -191zM793 -20q-317 0 -500.5 202t-183.5 553q0 354 186 560t498 206q310 0 493.5 -205.5t183.5 -558.5q0 -351 -182 -554t-495 -203zM793 225
q352 0 352 508q0 268 -92 395t-260 127t-262.5 -127.5t-94.5 -394.5q0 -260 94 -384t263 -124z" />
    <glyph glyph-name="uni020F" unicode="&#x20f;" 
d="M977 1294h-180q-26 48 -76 81.5t-103 33.5q-60 0 -106 -33t-74 -82h-178q35 124 131 193t227 69q130 0 227 -71t132 -191zM584 -20q-235 0 -373.5 150t-138.5 392q0 249 142 403t372 154q235 0 372.5 -154.5t137.5 -400.5q0 -242 -138.5 -393t-373.5 -151zM586 203
q60 0 104 27.5t68 76t35.5 104.5t11.5 121q0 66 -11.5 122.5t-36 104t-68.5 74.5t-103 27q-79 0 -130.5 -48.5t-71 -119t-19.5 -160.5q0 -65 11.5 -121t36 -104t69 -76t104.5 -28z" />
    <glyph glyph-name="uni0210" unicode="&#x210;" horiz-adv-x="1433" 
d="M348 1929l305 -280l-92 -103l-344 228zM737 1929l303 -280l-90 -103l-346 228zM1317 0h-309l-242 571h-299v-571h-299v1481h625q256 0 383 -119.5t127 -323.5q0 -84 -20.5 -152.5t-58.5 -118t-81.5 -84t-100.5 -62.5zM739 801q119 0 189.5 63.5t70.5 165.5
q0 101 -66.5 162t-170.5 61h-295v-452h272z" />
    <glyph glyph-name="uni0211" unicode="&#x211;" horiz-adv-x="831" 
d="M111 1507l305 -280l-92 -103l-344 228zM500 1507l303 -280l-90 -103l-346 228zM129 0v1059h289v-260q47 122 144.5 201t225.5 79l3 -282q-94 7 -166.5 -10.5t-114 -52t-62 -77t-20.5 -90.5v-567h-299z" />
    <glyph glyph-name="uni0212" unicode="&#x212;" horiz-adv-x="1433" 
d="M1090 1716h-181q-26 48 -75.5 81.5t-102.5 33.5q-60 0 -106 -33t-74 -82h-178q35 124 131 193t227 69q130 0 227 -71t132 -191zM1317 0h-309l-242 571h-299v-571h-299v1481h625q256 0 383 -119.5t127 -323.5q0 -84 -20.5 -152.5t-58.5 -118t-81.5 -84t-100.5 -62.5z
M739 801q119 0 189.5 63.5t70.5 165.5q0 101 -66.5 162t-170.5 61h-295v-452h272z" />
    <glyph glyph-name="uni0213" unicode="&#x213;" horiz-adv-x="831" 
d="M852 1294h-180q-26 48 -75.5 81.5t-102.5 33.5q-60 0 -106.5 -33t-74.5 -82h-178q35 124 131.5 193t227.5 69q130 0 226.5 -71t131.5 -191zM129 0v1059h289v-260q47 122 144.5 201t225.5 79l3 -282q-94 7 -166.5 -10.5t-114 -52t-62 -77t-20.5 -90.5v-567h-299z" />
    <glyph glyph-name="uni0214" unicode="&#x214;" horiz-adv-x="1501" 
d="M387 1929l305 -280l-92 -103l-344 228zM776 1929l303 -280l-90 -103l-346 228zM1354 565q0 -283 -141 -434t-453 -151q-159 0 -274 40.5t-184.5 119t-101.5 185.5t-32 248v908h305v-930q0 -160 77 -239t210 -79q134 0 212.5 79t78.5 239v930h303v-916z" />
    <glyph glyph-name="uni0215" unicode="&#x215;" horiz-adv-x="1220" 
d="M258 1507l305 -280l-92 -103l-344 228zM647 1507l303 -280l-90 -103l-346 228zM522 -20q-67 1 -134.5 23t-126 62.5t-95.5 109.5t-37 153v733h299v-696q0 -81 53 -124.5t129 -43.5q82 0 135.5 47t53.5 127v690h303l-6 -1061h-226l-32 217q-13 -70 -47 -119.5t-80.5 -73.5
t-92 -34t-96.5 -10z" />
    <glyph glyph-name="uni0216" unicode="&#x216;" horiz-adv-x="1501" 
d="M1126 1716h-180q-26 48 -75.5 81.5t-102.5 33.5q-60 0 -106 -33t-74 -82h-178q35 124 131 193t227 69q130 0 226.5 -71t131.5 -191zM1354 565q0 -283 -141 -434t-453 -151q-159 0 -274 40.5t-184.5 119t-101.5 185.5t-32 248v908h305v-930q0 -160 77 -239t210 -79
q134 0 212.5 79t78.5 239v930h303v-916z" />
    <glyph glyph-name="uni0217" unicode="&#x217;" horiz-adv-x="1220" 
d="M997 1294h-180q-26 48 -75.5 81.5t-102.5 33.5q-60 0 -106 -33t-74 -82h-178q35 124 131 193t227 69q130 0 226.5 -71t131.5 -191zM522 -20q-67 1 -134.5 23t-126 62.5t-95.5 109.5t-37 153v733h299v-696q0 -81 53 -124.5t129 -43.5q82 0 135.5 47t53.5 127v690h303
l-6 -1061h-226l-32 217q-13 -70 -47 -119.5t-80.5 -73.5t-92 -34t-96.5 -10z" />
    <glyph glyph-name="uni0218" unicode="&#x218;" horiz-adv-x="1454" 
d="M735 -20q-115 0 -221 27t-194.5 79t-147 137t-70.5 193l312 6q21 -98 107.5 -152.5t211.5 -54.5q134 0 219.5 47.5t85.5 138.5q0 78 -67.5 122.5t-188.5 68.5l-262 51q-175 33 -273.5 135t-99.5 269q-2 136 75 240t209.5 158t297.5 54q129 0 239 -37t185 -99t121 -141.5
t55 -166.5l-303 -4q-27 211 -293 211q-120 0 -193 -50.5t-73 -130.5q0 -68 45.5 -107t163.5 -65l256 -53q414 -79 414 -455q0 -181 -170.5 -301t-440.5 -120zM645 -485q-13 0 -19.5 11.5t-0.5 20.5l63 97q11 17 6 31t-22 14h-19q-20 0 -27.5 8t-7.5 27v124q0 33 29 33h158
q26 0 26 -26v-166q0 -7 -8 -23l-92 -127q-9 -15 -20 -19.5t-33 -4.5h-33z" />
    <glyph glyph-name="uni0219" unicode="&#x219;" horiz-adv-x="1089" 
d="M557 -20q-85 0 -162.5 19t-144.5 58t-113 106.5t-59 155.5h252q42 -135 231 -135q90 0 140.5 30t50.5 81q0 43 -36.5 67t-107.5 41l-186 39q-308 65 -311 301q-1 150 123 243t325 93q197 0 316.5 -92t117.5 -235h-250q-12 65 -64 98t-128 33q-75 0 -126.5 -27.5
t-51.5 -89.5q0 -40 40 -64.5t130 -42.5l172 -38q85 -21 146 -59t90.5 -83.5t42 -86t12.5 -81.5q0 -105 -61 -181.5t-161.5 -113t-226.5 -36.5zM471 -485q-13 0 -19.5 11.5t-0.5 20.5l63 97q11 17 6 31t-22 14h-19q-20 0 -27.5 8t-7.5 27v124q0 33 29 33h158q26 0 26 -26
v-166q0 -7 -8 -23l-92 -127q-9 -15 -20 -19.5t-33 -4.5h-33z" />
    <glyph glyph-name="uni021A" unicode="&#x21a;" horiz-adv-x="1251" 
d="M33 1214v267h1186v-267h-439v-1214h-299v1214h-448zM567 -485q-13 0 -19.5 11.5t-0.5 20.5l63 97q11 17 6 31t-22 14h-19q-20 0 -27 8t-7 27v124q0 33 28 33h158q27 0 27 -26v-166q0 -5 -9 -23l-92 -127q-9 -15 -20 -19.5t-33 -4.5h-33z" />
    <glyph glyph-name="uni021B" unicode="&#x21b;" horiz-adv-x="864" 
d="M768 852h-236l3 -561q0 -56 20 -76t61 -20h158v-181q-63 -26 -186 -26q-102 0 -172.5 20t-109 59.5t-54.5 89.5t-16 117v578h-173v207h183l41 319h245v-317h236v-209zM459 -485q-13 0 -20 11.5t-1 20.5l64 97q11 17 5.5 31t-22.5 14h-18q-20 0 -27.5 8t-7.5 27v124
q0 33 29 33h157q27 0 27 -26v-166q0 -7 -8 -23l-92 -127q-9 -15 -20 -19.5t-33 -4.5h-33z" />
    <glyph glyph-name="uni0237" unicode="&#x237;" horiz-adv-x="595" 
d="M442 8q0 -176 -86.5 -262t-271.5 -86q-50 0 -83.5 7t-42.5 12.5t-9 9.5v200l80 9q64 9 89 34t25 78v1049h299v-1051z" />
    <glyph glyph-name="uni0259" unicode="&#x259;" horiz-adv-x="1163" 
d="M791 598q1 123 -58.5 193.5t-165.5 70.5q-164 0 -215 -139h-268q30 165 165.5 260.5t309.5 95.5q237 0 382.5 -146t145.5 -392q0 -160 -59.5 -286t-177 -200.5t-275.5 -74.5q-237 0 -365 146.5t-128 389.5v82h709zM793 420h-433q0 -100 56 -166t159 -66q98 0 158 69.5
t60 162.5z" />
    <glyph glyph-name="uni02BC" unicode="&#x2bc;" horiz-adv-x="395" 
d="M109 909q-11 0 -16.5 8.5t-2.5 16.5l62 223q5 17 3 24.5t-14 10.5l-18 2q-17 2 -24 8t-7 21v233q0 25 23 25h161q21 0 21 -21v-266q0 -8 -4 -16l-74 -244q-8 -25 -47 -25h-63z" />
    <glyph glyph-name="circumflex" unicode="&#x2c6;" horiz-adv-x="798" 
d="M526 1219l-135 153l-149 -153h-222l271 276h205l264 -276h-234z" />
    <glyph glyph-name="caron" unicode="&#x2c7;" horiz-adv-x="798" 
d="M526 1483h234l-264 -279h-207l-271 279h224l149 -154z" />
    <glyph glyph-name="breve" unicode="&#x2d8;" horiz-adv-x="802" 
d="M754 1481q-35 -120 -132 -190t-229 -70q-130 0 -226.5 68t-131.5 192h178q28 -48 74.5 -80.5t105.5 -32.5q55 0 103.5 32.5t76.5 80.5h181z" />
    <glyph glyph-name="dotaccent" unicode="&#x2d9;" horiz-adv-x="393" 
d="M342 1481v-291h-305v291h305z" />
    <glyph glyph-name="ring" unicode="&#x2da;" horiz-adv-x="532" 
d="M483 1370q0 -95 -65 -159t-158 -64q-94 0 -158.5 65.5t-64.5 161.5q0 89 65.5 152t157.5 63t157.5 -64t65.5 -155zM358 1368q0 43 -28.5 71.5t-71.5 28.5q-42 0 -73 -29t-31 -71q0 -41 31.5 -72.5t72.5 -31.5q42 0 71 31t29 73z" />
    <glyph glyph-name="ogonek" unicode="&#x2db;" horiz-adv-x="526" 
d="M37 -176q0 61 43 107t156 85l206 -6q-105 -39 -146.5 -73t-41.5 -76q0 -66 74 -66q58 0 118 31q17 7 23 3t6 -22v-83q0 -21 -16 -29q-76 -39 -199 -39q-106 0 -164.5 43t-58.5 125z" />
    <glyph glyph-name="tilde" unicode="&#x2dc;" horiz-adv-x="854" 
d="M750 1309q-74 -54 -179 -54q-59 0 -151.5 30t-143.5 30q-38 0 -66 -11t-65 -36q-11 -7 -17.5 -9t-12 3t-9.5 18l-28 84q-5 10 -3 22.5t17 24.5q37 36 77.5 55t98.5 19q60 0 159 -32t142 -32q69 0 138 49q32 22 41 -14l24 -100q6 -27 -22 -47z" />
    <glyph glyph-name="hungarumlaut" unicode="&#x2dd;" horiz-adv-x="909" 
d="M360 1485l82 -99q32 -35 -6 -59l-274 -182q-20 -11 -28.5 -11.5t-22.5 13.5l-52 55q-10 10 -11 22.5t7 18.5l267 246q23 17 38 -4zM750 1485l81 -99q32 -35 -6 -59l-274 -182q-20 -11 -29.5 -11.5t-21.5 13.5l-51 55q-10 10 -11.5 22.5t6.5 18.5l267 246q9 8 20.5 7
t18.5 -11z" />
    <glyph glyph-name="gravecomb" unicode="&#x300;" horiz-adv-x="0" 
d="M-561 1503l518 -211l-43 -127l-543 144z" />
    <glyph glyph-name="acutecomb" unicode="&#x301;" horiz-adv-x="0" 
d="M-106 1503l67 -194l-543 -144l-43 127z" />
    <glyph glyph-name="uni0302" unicode="&#x302;" horiz-adv-x="0" 
d="M-272 1219l-136 153l-149 -153h-221l270 276h205l264 -276h-233z" />
    <glyph glyph-name="tildecomb" unicode="&#x303;" horiz-adv-x="0" 
d="M-104 1309q-74 -54 -179 -54q-59 0 -151.5 30t-143.5 30q-38 0 -66 -11t-65 -36q-11 -7 -17.5 -9t-12 3t-9.5 18l-28 84q-5 10 -3 22.5t17 24.5q37 36 77.5 55t98.5 19q60 0 159 -32t142 -32q69 0 138 49q32 22 41 -14l24 -100q6 -27 -22 -47z" />
    <glyph glyph-name="uni0304" unicode="&#x304;" horiz-adv-x="0" 
d="M-51 1468v-190h-721v190h721z" />
    <glyph glyph-name="uni0306" unicode="&#x306;" horiz-adv-x="0" 
d="M-49 1481q-35 -120 -132 -190t-229 -70q-130 0 -226.5 68t-131.5 192h178q28 -48 74.5 -80.5t105.5 -32.5q55 0 104 32.5t77 80.5h180z" />
    <glyph glyph-name="uni0307" unicode="&#x307;" horiz-adv-x="0" 
d="M-51 1481v-291h-305v291h305z" />
    <glyph glyph-name="uni0308" unicode="&#x308;" horiz-adv-x="0" 
d="M-451 1481v-256h-264v256h264zM-51 1481v-256h-264v256h264z" />
    <glyph glyph-name="uni030A" unicode="&#x30a;" horiz-adv-x="0" 
d="M-49 1370q0 -95 -65 -159t-158 -64q-94 0 -159 65.5t-65 161.5q0 89 66 152t158 63t157.5 -64t65.5 -155zM-174 1368q0 43 -28.5 71.5t-71.5 28.5q-42 0 -73.5 -29t-31.5 -71q0 -41 32 -72.5t73 -31.5q42 0 71 31t29 73z" />
    <glyph glyph-name="uni030B" unicode="&#x30b;" horiz-adv-x="0" 
d="M-549 1485l82 -99q32 -35 -6 -59l-275 -182q-20 -11 -28.5 -11.5t-22.5 13.5l-51 55q-10 10 -11 22.5t7 18.5l266 246q24 17 39 -4zM-160 1485l82 -99q32 -35 -6 -59l-274 -182q-20 -11 -30 -11.5t-22 13.5l-51 55q-10 10 -11 22.5t7 18.5l266 246q9 8 20.5 7t18.5 -11z
" />
    <glyph glyph-name="uni030C" unicode="&#x30c;" horiz-adv-x="0" 
d="M-272 1483h233l-264 -279h-207l-270 279h223l149 -154z" />
    <glyph glyph-name="uni030F" unicode="&#x30f;" horiz-adv-x="0" 
d="M-745 1507l305 -280l-92 -103l-345 228zM-356 1507l303 -280l-90 -103l-346 228z" />
    <glyph glyph-name="uni0311" unicode="&#x311;" horiz-adv-x="0" 
d="M-2 1294h-180q-26 48 -75.5 81.5t-102.5 33.5q-60 0 -106.5 -33t-74.5 -82h-178q35 124 131.5 193t227.5 69q130 0 226.5 -71t131.5 -191z" />
    <glyph glyph-name="dotbelowcomb" unicode="&#x323;" horiz-adv-x="0" 
d="M-49 -121v-170q0 -21 -9.5 -30t-31.5 -9h-162q-19 0 -26 7.5t-7 25.5v174q0 31 23 31h188q25 0 25 -29z" />
    <glyph glyph-name="uni0326" unicode="&#x326;" horiz-adv-x="0" 
d="M-238 -485q-13 0 -19.5 11.5t-0.5 20.5l63 97q11 17 6 31t-22 14h-18q-20 0 -27.5 8t-7.5 27v124q0 33 28 33h158q27 0 27 -26v-166q0 -7 -8 -23l-93 -127q-9 -15 -20 -19.5t-33 -4.5h-33z" />
    <glyph glyph-name="uni0327" unicode="&#x327;" horiz-adv-x="0" 
d="M-51 -270q0 -75 -71 -120.5t-173 -45.5q-144 0 -235 55l41 102q81 -51 157 -51q48 0 75.5 17t27.5 47q0 41 -40.5 62t-133.5 22q-14 0 -17.5 3t0.5 15l76 174h131l-45 -121q106 -1 156.5 -48t50.5 -111z" />
    <glyph glyph-name="uni0328" unicode="&#x328;" horiz-adv-x="0" 
d="M-489 -176q0 61 42.5 107t155.5 85l207 -6q-105 -39 -146.5 -73t-41.5 -76q0 -66 73 -66q59 0 119 31q17 7 23 3t6 -22v-83q0 -20 -17 -29q-76 -39 -198 -39q-106 0 -164.5 43t-58.5 125z" />
    <glyph glyph-name="uni0394" unicode="&#x394;" horiz-adv-x="1404" 
d="M61 0v193l467 1288h338l463 -1288v-193h-1268zM383 244h614l-307 927z" />
    <glyph glyph-name="uni03A9" unicode="&#x3a9;" horiz-adv-x="1579" 
d="M786 1264q-155 0 -250.5 -125.5t-95.5 -352.5q0 -332 246 -532q39 -33 39 -74v-180h-586v252h275q-308 254 -308 577q0 101 29 198.5t86.5 183t138 150.5t190.5 102.5t236 37.5q129 0 240.5 -39.5t189.5 -106t133.5 -153.5t82 -181.5t26.5 -189.5q0 -306 -284 -555
q-9 -9 -6.5 -16.5t14.5 -7.5h243v-252h-585v221q51 37 95.5 84t90 116.5t72 166.5t26.5 207q0 219 -91 344t-247 125z" />
    <glyph glyph-name="uni03BC" unicode="&#x3bc;" horiz-adv-x="1218" 
d="M573 197q114 0 224 120v742h303l-6 -1059h-291v164q-144 -147 -271 -170q-65 -10 -104 0v-324h-299v1389h299v-727q0 -60 41 -97.5t104 -37.5z" />
    <glyph glyph-name="pi" unicode="&#x3c0;" horiz-adv-x="1386" 
d="M1323 852h-195v-852h-286v852h-324q0 -201 -35.5 -452.5t-85.5 -399.5h-278q46 178 79 413.5t33 417.5q0 21 -16 21h-166v207h1274v-207z" />
    <glyph glyph-name="uni1E0C" unicode="&#x1e0c;" horiz-adv-x="1533" 
d="M168 1481q315 0 442 -2q393 -9 580.5 -198.5t187.5 -532.5q0 -355 -195 -551.5t-583 -196.5h-432v1481zM469 1239v-997h137q99 0 179.5 27.5t144.5 86t99.5 158.5t35.5 236q0 489 -455 489h-141zM881 -121v-170q0 -21 -9.5 -30t-31.5 -9h-162q-19 0 -26 7.5t-7 25.5v174
q0 31 23 31h188q25 0 25 -29z" />
    <glyph glyph-name="uni1E0D" unicode="&#x1e0d;" horiz-adv-x="1220" 
d="M522 -20q-211 0 -328.5 145t-117.5 403q0 254 112.5 402.5t313.5 148.5q194 0 301 -137v580h299v-1522h-217l-33 211q-80 -231 -330 -231zM592 195q91 0 151 69.5t60 177.5v224q-42 196 -209 196q-104 0 -165.5 -78t-61.5 -249q0 -175 61.5 -257.5t163.5 -82.5zM721 -121
v-170q0 -21 -9.5 -30t-31.5 -9h-162q-19 0 -26 7.5t-7 25.5v174q0 31 23 31h188q25 0 25 -29z" />
    <glyph glyph-name="uni1E24" unicode="&#x1e24;" horiz-adv-x="1495" 
d="M1030 637h-563v-637h-299v1481h299v-594h563v594h301v-1481h-301v637zM860 -121v-170q0 -21 -9.5 -30t-31.5 -9h-162q-19 0 -25.5 7.5t-6.5 25.5v174q0 31 22 31h189q24 0 24 -29z" />
    <glyph glyph-name="uni1E25" unicode="&#x1e25;" horiz-adv-x="1218" 
d="M129 0v1522h297v-602q100 145 305 145q155 0 262 -93t107 -239v-733h-299v690q0 66 -50.5 105t-125.5 39q-80 0 -138.5 -41t-58.5 -111v-682h-299zM741 -121v-170q0 -21 -9.5 -30t-31.5 -9h-161q-19 0 -26 7.5t-7 25.5v174q0 31 22 31h189q24 0 24 -29z" />
    <glyph glyph-name="uni1E44" unicode="&#x1e44;" horiz-adv-x="1603" 
d="M965 1903v-291h-306v291h306zM1139 1481h301v-1481h-271l-702 1018v-1018h-299v1481h297l674 -981v981z" />
    <glyph glyph-name="uni1E45" unicode="&#x1e45;" horiz-adv-x="1220" 
d="M774 1481v-291h-305v291h305zM129 0v1059h295v-137q57 71 125 109t182 38q98 0 182 -43.5t136.5 -127.5t52.5 -191v-707h-299v670q0 76 -50 120t-126 44q-80 0 -139.5 -40t-59.5 -108v-686h-299z" />
    <glyph glyph-name="uni1E5A" unicode="&#x1e5a;" horiz-adv-x="1433" 
d="M1317 0h-309l-242 571h-299v-571h-299v1481h625q256 0 383 -119.5t127 -323.5q0 -84 -20.5 -152.5t-58.5 -118t-81.5 -84t-100.5 -62.5zM739 801q119 0 189.5 63.5t70.5 165.5q0 101 -66.5 162t-170.5 61h-295v-452h272zM836 -121v-170q0 -21 -9.5 -30t-31.5 -9h-162
q-19 0 -26 7.5t-7 25.5v174q0 31 23 31h188q25 0 25 -29z" />
    <glyph glyph-name="uni1E5B" unicode="&#x1e5b;" horiz-adv-x="831" 
d="M129 0v1059h289v-260q47 122 144.5 201t225.5 79l3 -282q-94 7 -166.5 -10.5t-114 -52t-62 -77t-20.5 -90.5v-567h-299zM414 -121v-170q0 -21 -9.5 -30t-31.5 -9h-162q-19 0 -26 7.5t-7 25.5v174q0 31 23 31h188q25 0 25 -29z" />
    <glyph glyph-name="uni1E62" unicode="&#x1e62;" horiz-adv-x="1454" 
d="M735 -20q-115 0 -221 27t-194.5 79t-147 137t-70.5 193l312 6q21 -98 107.5 -152.5t211.5 -54.5q134 0 219.5 47.5t85.5 138.5q0 78 -67.5 122.5t-188.5 68.5l-262 51q-175 33 -273.5 135t-99.5 269q-2 136 75 240t209.5 158t297.5 54q129 0 239 -37t185 -99t121 -141.5
t55 -166.5l-303 -4q-27 211 -293 211q-120 0 -193 -50.5t-73 -130.5q0 -68 45.5 -107t163.5 -65l256 -53q414 -79 414 -455q0 -181 -170.5 -301t-440.5 -120zM842 -121v-170q0 -21 -9.5 -30t-31.5 -9h-162q-19 0 -26 7.5t-7 25.5v174q0 31 23 31h188q25 0 25 -29z" />
    <glyph glyph-name="uni1E63" unicode="&#x1e63;" horiz-adv-x="1089" 
d="M557 -20q-85 0 -162.5 19t-144.5 58t-113 106.5t-59 155.5h252q42 -135 231 -135q90 0 140.5 30t50.5 81q0 43 -36.5 67t-107.5 41l-186 39q-308 65 -311 301q-1 150 123 243t325 93q197 0 316.5 -92t117.5 -235h-250q-12 65 -64 98t-128 33q-75 0 -126.5 -27.5
t-51.5 -89.5q0 -40 40 -64.5t130 -42.5l172 -38q85 -21 146 -59t90.5 -83.5t42 -86t12.5 -81.5q0 -105 -61 -181.5t-161.5 -113t-226.5 -36.5zM668 -121v-170q0 -21 -9.5 -30t-31.5 -9h-162q-19 0 -26 7.5t-7 25.5v174q0 31 23 31h188q25 0 25 -29z" />
    <glyph glyph-name="uni1E6C" unicode="&#x1e6c;" horiz-adv-x="1251" 
d="M33 1214v267h1186v-267h-439v-1214h-299v1214h-448zM762 -121v-170q0 -21 -9.5 -30t-31.5 -9h-162q-19 0 -26 7.5t-7 25.5v174q0 31 23 31h188q25 0 25 -29z" />
    <glyph glyph-name="uni1E6D" unicode="&#x1e6d;" horiz-adv-x="864" 
d="M768 852h-236l3 -561q0 -56 20 -76t61 -20h158v-181q-63 -26 -186 -26q-102 0 -172.5 20t-109 59.5t-54.5 89.5t-16 117v578h-173v207h183l41 319h245v-317h236v-209zM655 -121v-170q0 -21 -9.5 -30t-31.5 -9h-161q-19 0 -26 7.5t-7 25.5v174q0 31 22 31h189q24 0 24 -29
z" />
    <glyph glyph-name="Wgrave" unicode="&#x1e80;" horiz-adv-x="1990" 
d="M760 1925l518 -211l-43 -127l-543 144zM1948 1481l-437 -1481h-239l-279 969l-278 -969h-236l-436 1481h293l276 -977l275 977h215l280 -977l275 977h291z" />
    <glyph glyph-name="wgrave" unicode="&#x1e81;" horiz-adv-x="1628" 
d="M584 1503l518 -211l-43 -127l-543 144zM1591 1059l-348 -1059h-237l-197 641l-199 -641h-229l-344 1059h264l203 -658h8l195 658h213l198 -658h6l197 658h270z" />
    <glyph glyph-name="Wacute" unicode="&#x1e82;" horiz-adv-x="1990" 
d="M1227 1925l67 -194l-542 -144l-43 127zM1948 1481l-437 -1481h-239l-279 969l-278 -969h-236l-436 1481h293l276 -977l275 977h215l280 -977l275 977h291z" />
    <glyph glyph-name="wacute" unicode="&#x1e83;" horiz-adv-x="1628" 
d="M1049 1503l67 -194l-543 -144l-43 127zM1591 1059l-348 -1059h-237l-197 641l-199 -641h-229l-344 1059h264l203 -658h8l195 658h213l198 -658h6l197 658h270z" />
    <glyph glyph-name="Wdieresis" unicode="&#x1e84;" horiz-adv-x="1990" 
d="M930 1903v-256h-264v256h264zM1329 1903v-256h-264v256h264zM1948 1481l-437 -1481h-239l-279 969l-278 -969h-236l-436 1481h293l276 -977l275 977h215l280 -977l275 977h291z" />
    <glyph glyph-name="wdieresis" unicode="&#x1e85;" horiz-adv-x="1628" 
d="M754 1481v-256h-265v256h265zM1153 1481v-256h-264v256h264zM1591 1059l-348 -1059h-237l-197 641l-199 -641h-229l-344 1059h264l203 -658h8l195 658h213l198 -658h6l197 658h270z" />
    <glyph glyph-name="uni1E92" unicode="&#x1e92;" horiz-adv-x="1372" 
d="M100 0v145l752 1086h-700v250h1128v-140l-764 -1087h756v-254h-1172zM819 -121v-170q0 -21 -9.5 -30t-31.5 -9h-162q-19 0 -25.5 7.5t-6.5 25.5v174q0 31 22 31h189q24 0 24 -29z" />
    <glyph glyph-name="uni1E93" unicode="&#x1e93;" horiz-adv-x="1091" 
d="M74 0v154l547 716h-504v189h878v-152l-551 -714h557v-193h-927zM700 -121v-170q0 -22 -9 -30.5t-32 -8.5h-161q-19 0 -26 7.5t-7 25.5v174q0 31 22 31h191q22 0 22 -29z" />
    <glyph glyph-name="uni1EB8" unicode="&#x1eb8;" horiz-adv-x="1318" 
d="M168 0v1481h1018l-2 -252h-715v-359h621v-247h-623v-367l729 -2v-254h-1028zM815 -121v-170q0 -21 -9.5 -30t-31.5 -9h-162q-19 0 -25.5 7.5t-6.5 25.5v174q0 31 22 31h189q24 0 24 -29z" />
    <glyph glyph-name="uni1EB9" unicode="&#x1eb9;" 
d="M373 461q-2 -123 57.5 -193.5t165.5 -70.5q164 0 215 139h268q-30 -165 -165.5 -260.5t-309.5 -95.5q-237 0 -382.5 146t-145.5 392q0 160 59.5 286t177 200.5t275.5 74.5q237 0 365 -146t128 -390v-82h-708zM371 639h432q0 101 -56 166t-159 65q-98 0 -157.5 -69
t-59.5 -162zM707 -121v-170q0 -21 -9.5 -30t-31.5 -9h-162q-19 0 -26 7.5t-7 25.5v174q0 31 23 31h188q25 0 25 -29z" />
    <glyph glyph-name="uni1EBC" unicode="&#x1ebc;" horiz-adv-x="1318" 
d="M1016 1731q-74 -54 -178 -54q-59 0 -151.5 30t-143.5 30q-38 0 -66 -11t-65 -36q-11 -7 -17.5 -9t-12 3t-9.5 18l-29 84q-5 10 -3 22.5t17 24.5q78 74 177 74q60 0 159 -32t142 -32q68 0 137 49q32 22 41 -14l24 -100q6 -27 -22 -47zM168 0v1481h1018l-2 -252h-715v-359
h621v-247h-623v-367l729 -2v-254h-1028z" />
    <glyph glyph-name="uni1EBD" unicode="&#x1ebd;" 
d="M922 1309q-74 -54 -181 -54q-59 0 -150 30t-142 30q-39 0 -67 -11t-67 -36q-29 -22 -39 12l-26 84q-5 11 -3 23t15 24q39 36 79.5 55t96.5 19q60 0 160 -32t143 -32q69 0 138 49q32 22 41 -14l22 -100q9 -27 -20 -47zM373 461q-2 -123 57.5 -193.5t165.5 -70.5
q164 0 215 139h268q-30 -165 -165.5 -260.5t-309.5 -95.5q-237 0 -382.5 146t-145.5 392q0 160 59.5 286t177 200.5t275.5 74.5q237 0 365 -146t128 -390v-82h-708zM371 639h432q0 101 -56 166t-159 65q-98 0 -157.5 -69t-59.5 -162z" />
    <glyph glyph-name="uni1ECA" unicode="&#x1eca;" horiz-adv-x="630" 
d="M168 1481h299v-1481h-299v1481zM451 -121v-170q0 -21 -9.5 -30t-31.5 -9h-162q-19 0 -26 7.5t-7 25.5v174q0 31 23 31h188q25 0 25 -29z" />
    <glyph glyph-name="uni1ECB" unicode="&#x1ecb;" horiz-adv-x="591" 
d="M438 1522v-293h-305v293h305zM436 1059v-1059h-299v1059h299zM465 -121v-170q0 -21 -9.5 -30t-31.5 -9h-162q-19 0 -26 7.5t-7 25.5v174q0 31 23 31h188q25 0 25 -29z" />
    <glyph glyph-name="uni1ECC" unicode="&#x1ecc;" horiz-adv-x="1581" 
d="M793 -20q-317 0 -500.5 202t-183.5 553q0 354 186 560t498 206q310 0 493.5 -205.5t183.5 -558.5q0 -351 -182 -554t-495 -203zM793 225q352 0 352 508q0 268 -92 395t-260 127t-262.5 -127.5t-94.5 -394.5q0 -260 94 -384t263 -124zM911 -121v-170q0 -21 -9.5 -30
t-31.5 -9h-161q-19 0 -26 7.5t-7 25.5v174q0 31 22 31h189q24 0 24 -29z" />
    <glyph glyph-name="uni1ECD" unicode="&#x1ecd;" 
d="M584 -20q-235 0 -373.5 150t-138.5 392q0 249 142 403t372 154q235 0 372.5 -154.5t137.5 -400.5q0 -242 -138.5 -393t-373.5 -151zM586 203q60 0 104 27.5t68 76t35.5 104.5t11.5 121q0 66 -11.5 122.5t-36 104t-68.5 74.5t-103 27q-79 0 -130.5 -48.5t-71 -119
t-19.5 -160.5q0 -65 11.5 -121t36 -104t69 -76t104.5 -28zM698 -121v-170q0 -21 -9.5 -30t-31.5 -9h-161q-19 0 -26 7.5t-7 25.5v174q0 31 22 31h189q24 0 24 -29z" />
    <glyph glyph-name="uni1EE4" unicode="&#x1ee4;" horiz-adv-x="1474" 
d="M1356 565q0 -283 -141 -434t-453 -151q-159 0 -274 40.5t-184.5 119t-101.5 185.5t-32 248v908h305v-930q0 -160 77 -239t210 -79q134 0 212.5 79t78.5 239v930h303v-916zM903 -121v-170q0 -22 -8.5 -30.5t-30.5 -8.5h-164q-18 0 -24 7.5t-6 25.5v174q0 31 22 31h189
q22 0 22 -29z" />
    <glyph glyph-name="uni1EE5" unicode="&#x1ee5;" horiz-adv-x="1220" 
d="M522 -20q-67 1 -134.5 23t-126 62.5t-95.5 109.5t-37 153v733h299v-696q0 -81 53 -124.5t129 -43.5q82 0 135.5 47t53.5 127v690h303l-6 -1061h-226l-32 217q-13 -70 -47 -119.5t-80.5 -73.5t-92 -34t-96.5 -10zM733 -121v-170q0 -21 -9.5 -30t-31.5 -9h-162
q-19 0 -25.5 7.5t-6.5 25.5v174q0 31 22 31h189q24 0 24 -29z" />
    <glyph glyph-name="Ygrave" unicode="&#x1ef2;" horiz-adv-x="1357" 
d="M473 1925l518 -211l-43 -127l-542 144zM1341 1481l-514 -858v-623h-299v623l-514 858h324l342 -600l336 600h325z" />
    <glyph glyph-name="ygrave" unicode="&#x1ef3;" horiz-adv-x="1157" 
d="M375 1503l518 -211l-43 -127l-543 144zM295 -338q-64 0 -113.5 9t-67.5 19l-18 9v190l107 -4q52 -3 92 4t60.5 16.5t37 29t20 27t9.5 24.5l18 59l-411 1014h295l254 -690l258 690h292l-430 -1065q-41 -99 -86 -165.5t-96 -102t-103 -50t-118 -14.5z" />
    <glyph glyph-name="uni1EF8" unicode="&#x1ef8;" horiz-adv-x="1357" 
d="M1042 1731q-74 -54 -178 -54q-59 0 -151.5 30t-143.5 30q-38 0 -66 -11t-65 -36q-11 -7 -17.5 -9t-12 3t-9.5 18l-28 84q-5 10 -3 22.5t17 24.5q37 36 77.5 55t98.5 19q60 0 159 -32t142 -32q68 0 137 49q32 22 41 -14l25 -100q6 -27 -23 -47zM1341 1481l-514 -858v-623
h-299v623l-514 858h324l342 -600l336 600h325z" />
    <glyph glyph-name="uni1EF9" unicode="&#x1ef9;" horiz-adv-x="1157" 
d="M944 1309q-74 -54 -178 -54q-59 0 -151.5 30t-143.5 30q-38 0 -66 -11t-65 -36q-11 -7 -17.5 -9t-12 3t-9.5 18l-29 84q-5 11 -2.5 23t17.5 24q37 36 77.5 55t98.5 19q60 0 159 -32t142 -32q68 0 137 49q32 22 41 -14l25 -100q6 -27 -23 -47zM295 -338q-64 0 -113.5 9
t-67.5 19l-18 9v190l107 -4q52 -3 92 4t60.5 16.5t37 29t20 27t9.5 24.5l18 59l-411 1014h295l254 -690l258 690h292l-430 -1065q-41 -99 -86 -165.5t-96 -102t-103 -50t-118 -14.5z" />
    <glyph glyph-name="endash" unicode="&#x2013;" horiz-adv-x="1218" 
d="M1085 618v-217l-966 -2v219h966z" />
    <glyph glyph-name="emdash" unicode="&#x2014;" horiz-adv-x="1865" 
d="M1735 618v-217l-1616 -2v219h1616z" />
    <glyph glyph-name="quoteleft" unicode="&#x2018;" horiz-adv-x="542" 
d="M393 1542l-119 -278l105 -11v-286h-303v254l207 321h110z" />
    <glyph glyph-name="quoteright" unicode="&#x2019;" horiz-adv-x="520" 
d="M102 905l119 279l-104 10v287h303v-254l-207 -322h-111z" />
    <glyph glyph-name="quotesinglbase" unicode="&#x201a;" horiz-adv-x="534" 
d="M100 -285l119 279l-104 10v289h303v-254l-207 -324h-111z" />
    <glyph glyph-name="quotedblleft" unicode="&#x201c;" horiz-adv-x="983" 
d="M104 905v254l207 322h111l-119 -279l105 -10v-287h-304zM549 905v254l205 322h110l-119 -279l105 -10v-287h-301z" />
    <glyph glyph-name="quotedblright" unicode="&#x201d;" horiz-adv-x="1017" 
d="M102 905l119 279l-104 10v287h303v-254l-207 -322h-111zM545 905l121 279l-107 10v287h303v-254l-205 -322h-112z" />
    <glyph glyph-name="quotedblbase" unicode="&#x201e;" horiz-adv-x="1067" 
d="M141 -285l119 279l-104 10v289h303v-254l-207 -324h-111zM596 -285l117 279l-103 10v289h301v-254l-204 -324h-111z" />
    <glyph glyph-name="dagger" unicode="&#x2020;" horiz-adv-x="1069" 
d="M991 1010v-260l-375 43l56 -1123h-287l55 1123l-374 -43v260l364 -39l-47 510h291l-47 -510z" />
    <glyph glyph-name="daggerdbl" unicode="&#x2021;" horiz-adv-x="1069" 
d="M618 764v-432l373 43v-262l-366 41l49 -484h-291l49 484l-366 -41v262l372 -43v432l-372 -43v260l364 -39l-47 539h289l-45 -539l364 39v-260z" />
    <glyph glyph-name="bullet" unicode="&#x2022;" horiz-adv-x="729" 
d="M354 496q-107 0 -181.5 76t-74.5 182t74.5 181t181.5 75q106 0 181 -75t75 -181t-75 -182t-181 -76z" />
    <glyph glyph-name="ellipsis" unicode="&#x2026;" horiz-adv-x="1812" 
d="M473 326v-326h-328v326h328zM1114 326v-326h-328v326h328zM1753 326v-326h-328v326h328z" />
    <glyph glyph-name="perthousand" unicode="&#x2030;" horiz-adv-x="2775" 
d="M473 1503q158 0 265.5 -122.5t107.5 -301.5q0 -177 -106.5 -296t-266.5 -119t-267.5 119t-107.5 296q0 179 108.5 301.5t266.5 122.5zM1587 1497l-995 -1505l-174 2l997 1503h172zM471 815q154 0 154 264q0 130 -38.5 201.5t-115.5 71.5q-75 0 -114.5 -72.5t-39.5 -200.5
q0 -126 39 -195t115 -69zM1446 821q158 0 265.5 -123t107.5 -301q0 -177 -107 -297t-266 -120q-161 0 -269 120t-108 297q0 178 109 301t268 123zM2292 821q158 0 265 -123t107 -301q0 -177 -106.5 -297t-265.5 -120q-161 0 -268 119.5t-107 297.5t108 301t267 123z
M1444 133q76 0 113.5 69t37.5 193q0 129 -38.5 202t-112.5 73q-75 0 -114.5 -73.5t-39.5 -201.5q0 -123 39 -192.5t115 -69.5zM2290 133q76 0 113.5 69t37.5 193q0 129 -38 202t-113 73q-74 0 -113 -74t-39 -201q0 -123 38.5 -192.5t113.5 -69.5z" />
    <glyph glyph-name="guilsinglleft" unicode="&#x2039;" horiz-adv-x="632" 
d="M338 514l166 -383h-160l-242 383l242 399h160z" />
    <glyph glyph-name="guilsinglright" unicode="&#x203a;" horiz-adv-x="632" 
d="M281 514l-166 399h159l242 -399l-244 -383h-155z" />
    <glyph glyph-name="fraction" unicode="&#x2044;" horiz-adv-x="530" 
d="M838 1497l-996 -1505l-174 2l1000 1503h170z" />
    <glyph glyph-name="uni2070" unicode="&#x2070;" horiz-adv-x="866" 
d="M410 1729q170 0 273 -127t103 -355q0 -226 -102 -349.5t-274 -123.5q-173 0 -276 123.5t-103 349.5q0 227 104.5 354.5t274.5 127.5zM410 924q87 0 128.5 76t41.5 247q0 174 -43 254t-127 80q-85 0 -127.5 -79.5t-42.5 -254.5q0 -170 42.5 -246.5t127.5 -76.5z" />
    <glyph glyph-name="uni2074" unicode="&#x2074;" horiz-adv-x="866" 
d="M457 1710h188v-563h139v-162h-139v-207h-188v207h-420v158zM233 1147h224v301z" />
    <glyph glyph-name="uni2075" unicode="&#x2075;" horiz-adv-x="837" 
d="M150 1710h602l-11 -156h-444l-18 -223q49 18 69.5 25t57 14.5t73.5 7.5q145 0 236.5 -77t91.5 -218q0 -149 -101 -233t-272 -84q-124 0 -225.5 47.5t-157.5 128.5l139 98q54 -64 101.5 -94.5t120.5 -30.5q89 0 139.5 45t50.5 115q0 69 -46 110.5t-124 41.5
q-66 0 -166 -51q-13 -5 -15.5 -5t-14.5 7l-127 69z" />
    <glyph glyph-name="uni2076" unicode="&#x2076;" horiz-adv-x="841" 
d="M424 1737q133 0 224.5 -66.5t101.5 -177.5l-166 -12q-24 54 -60.5 80t-95.5 26q-99 0 -150.5 -87.5t-39.5 -231.5q32 45 89.5 69.5t123.5 24.5q144 0 228.5 -78t84.5 -201q0 -133 -99.5 -217t-254.5 -84q-179 0 -281 123t-102 334q0 232 106.5 365t290.5 133zM408 1223
q-62 0 -113 -35t-51 -78q7 -93 49 -139.5t110 -46.5q67 0 114.5 43t47.5 108q0 67 -45 107.5t-112 40.5z" />
    <glyph glyph-name="uni2077" unicode="&#x2077;" horiz-adv-x="763" 
d="M61 1710h697v-192q-117 -149 -217.5 -369t-106.5 -371h-203q11 143 98.5 360.5t250.5 415.5h-519v156z" />
    <glyph glyph-name="uni2078" unicode="&#x2078;" horiz-adv-x="837" 
d="M403 1731q148 0 242 -74t94 -187q0 -42 -16.5 -77.5t-43.5 -57.5t-45.5 -33.5t-37.5 -19.5q3 -2 11 -5q27 -12 43 -20t44 -28.5t44 -42t29 -57.5t13 -78q0 -130 -104.5 -203.5t-278.5 -73.5q-166 0 -265 63.5t-99 178.5q0 145 172 217q-148 74 -148 213q0 121 95 203
t251 82zM406 1589q-63 0 -105.5 -33t-42.5 -86q0 -78 90 -102l103 -31q35 -9 74.5 35.5t39.5 93.5q0 54 -43 88.5t-116 34.5zM410 915q76 0 120.5 32t44.5 85q0 42 -24 69t-80 44l-121 35q-40 13 -87.5 -28.5t-47.5 -102.5q0 -64 48.5 -99t146.5 -35z" />
    <glyph glyph-name="uni2079" unicode="&#x2079;" horiz-adv-x="841" 
d="M375 778q-131 0 -224.5 68t-103.5 176l174 10q35 -106 148 -106q106 0 164.5 80t48.5 245q-28 -51 -86 -79.5t-136 -28.5q-144 0 -233.5 80t-89.5 207q0 133 99.5 217t254.5 84q179 0 280 -122.5t101 -334.5q0 -247 -104 -371.5t-293 -124.5zM391 1292q62 0 114 35.5
t52 77.5q-7 92 -50 139t-112 47q-65 0 -109 -43t-44 -110q0 -64 42.5 -105t106.5 -41z" />
    <glyph glyph-name="colonmonetary" unicode="&#x20a1;" horiz-adv-x="1234" 
d="M629 403q79 0 127.5 54.5t60.5 124.5h244q-11 -139 -94.5 -240.5t-218.5 -134.5l-54 -205l-157 4l47 187q-65 3 -127 22l-56 -213l-157 4l71 281q-98 71 -152 186.5t-54 261.5q0 192 89 332.5t242 194.5l60 217l157 2l-49 -191h10q69 0 121 -14l56 203l157 2l-69 -267
q80 -56 127.5 -141.5t54.5 -187.5l-250 -2q-17 78 -64.5 129t-125.5 51q-110 0 -174 -86t-64 -238q0 -155 66 -245.5t176 -90.5z" />
    <glyph glyph-name="franc" unicode="&#x20a3;" horiz-adv-x="1288" 
d="M1202 1233h-717v-383h531v-244h-531v-198h306v-164h-306v-244h-340v244h-180v162h180v1075h1057v-248z" />
    <glyph glyph-name="lira" unicode="&#x20a4;" horiz-adv-x="1331" 
d="M1243 358q-45 -173 -166.5 -265.5t-296.5 -92.5h-739v248h70q69 0 114.5 43t55.5 129q4 18 4 65q0 15 -19 15h-213v162h209l-20 139h-189v162h164l-6 81q-10 93 9.5 169.5t61.5 129.5t103.5 89t133.5 52.5t153 16.5q98 0 190.5 -31t171.5 -99t117 -163l-260 -80
q-28 64 -68.5 100t-105.5 36q-74 0 -120 -46.5t-46 -127.5q0 -40 12 -105q3 -22 23 -22l276 2v-164h-272l18 -139l254 2v-162h-258q-10 -73 -42 -140t-85 -112h281q94 0 148 37.5t83 126.5z" />
    <glyph glyph-name="uni20A6" unicode="&#x20a6;" horiz-adv-x="1601" 
d="M1567 903h-58v-282h58v-148h-58v-473h-268l-326 473h-376v-473h-301v473h-218v148h218v282h-218v148h218v430h297l296 -430h379v430h299v-430h58v-148zM539 621h274l-195 282h-79v-282zM1210 621v282h-278l194 -282h84z" />
    <glyph glyph-name="uni20A9" unicode="&#x20a9;" horiz-adv-x="2312" 
d="M2277 1067h-307l-47 -158h354v-161h-401l-221 -748h-240l-213 748h-127l-217 -748h-235l-222 748h-372v161h325l-45 158h-280v162h231l-74 252h293l72 -252h407l72 252h217l72 -252h410l71 252h293l-74 -252h258v-162zM596 1067l45 -158h229l43 158h-317zM1640 909
l43 158h-317l45 -158h229zM1122 909h33l-16 60zM756 504l67 244h-137zM1526 504l67 244h-137z" />
    <glyph glyph-name="dong" unicode="&#x20ab;" horiz-adv-x="1097" 
d="M934 1366h125v-131h-125v-965h-246v109q-27 -28 -49 -46t-54.5 -38.5t-73.5 -30.5t-89 -10q-155 0 -250.5 115t-95.5 329q0 205 104.5 332t257.5 127q123 0 215 -86q31 -22 31 10v154h-231v131h231v115h250v-115zM680 557v356q-37 41 -74 60.5t-84 19.5q-88 0 -138 -71
t-50 -220q0 -150 49.5 -219t136.5 -69q67 0 113.5 43t46.5 100zM131 0v143h805v-143h-805z" />
    <glyph glyph-name="Euro" unicode="&#x20ac;" horiz-adv-x="1341" 
d="M842 231q71 0 141 38.5t113 92.5l159 -172q-81 -94 -200 -152t-254 -58q-224 0 -384.5 138.5t-219.5 375.5h-191v163h164q-4 62 -4 95q0 50 2 75h-162v162h187q56 240 217 376t391 136q137 0 257 -55t199 -150l-204 -155q-57 59 -108.5 91t-117.5 32q-228 0 -290 -275
h337v-162h-360q-2 -25 -2 -79q0 -16 1 -46.5t1 -44.5h360v-163h-333q37 -132 115 -197.5t186 -65.5z" />
    <glyph glyph-name="uni20B9" unicode="&#x20b9;" horiz-adv-x="1320" 
d="M1266 1333h-260q66 -66 84 -157h176v-150h-170q-16 -118 -90.5 -199.5t-180.5 -121.5q-15 -5 -8 -31l277 -674h-371l-229 649h-451v217h432q119 0 183 38.5t81 121.5h-694v148l692 2q-40 147 -245 147h-449v158h1223v-148z" />
    <glyph glyph-name="uni20BA" unicode="&#x20ba;" horiz-adv-x="1351" 
d="M1049 573l264 -55q-182 -518 -742 -518h-290v444l-160 -57l-58 158l218 80v153l-189 -67l-55 157l244 88v525h342v-400l247 90l58 -157l-305 -111v-155l274 100l57 -158l-331 -121v-319h71q115 3 206 84.5t149 238.5z" />
    <glyph glyph-name="uni2113" unicode="&#x2113;" 
d="M690 203q126 0 244 125l-309 -348q-65 0 -120 12.5t-93 30.5t-69.5 48.5t-50 56t-35 63.5t-24 60.5t-16.5 57.5q-3 12 -12 6l-90 -63l-72 164l168 125v452q0 250 118.5 379t317.5 129q90 0 157 -26.5t106.5 -74.5t58 -108.5t18.5 -134.5q0 -63 -15 -124t-35.5 -110
t-61 -104.5t-73 -93.5t-90 -91.5t-94 -85t-102.5 -85.5v-60q0 -101 45 -150.5t129 -49.5zM516 997v-295q124 117 198 233.5t74 240.5q0 145 -118 145q-75 0 -114.5 -72.5t-39.5 -251.5zM963 360q-3 0 16 19zM934 328l29 32q-15 -18 -29 -32z" />
    <glyph glyph-name="uni2116" unicode="&#x2116;" horiz-adv-x="2418" 
d="M2011 1501q151 0 243.5 -96.5t92.5 -249.5q0 -150 -92.5 -245t-243.5 -95t-243.5 95t-92.5 245q0 154 94.5 250t241.5 96zM1139 1481h301v-1481h-271l-702 1018v-1018h-299v1481h297l674 -981v981zM2011 1372q-137 0 -137 -213q0 -215 137 -215t137 215q0 213 -137 213z
" />
    <glyph glyph-name="uni2117" unicode="&#x2117;" horiz-adv-x="1703" 
d="M846 -20q-208 0 -383 101t-277 276.5t-102 383.5q0 154 60 294.5t162 242.5t243.5 162.5t296.5 60.5q154 0 294.5 -60.5t242.5 -162.5t162.5 -242.5t60.5 -294.5q0 -156 -60.5 -297.5t-162.5 -242.5t-242.5 -161t-294.5 -60zM846 147q254 0 416.5 163t162.5 431
q0 266 -163 431t-416 165q-256 0 -418 -164.5t-162 -431.5q0 -269 161.5 -431.5t418.5 -162.5zM1217 883q0 -124 -79 -191t-210 -67h-183v-281h-190v791h352q137 0 223.5 -63.5t86.5 -188.5zM1022 881q0 112 -125 112h-152v-231h158q54 0 86.5 31t32.5 88z" />
    <glyph glyph-name="uni2120" unicode="&#x2120;" horiz-adv-x="2086" 
d="M459 -12q-97 0 -181 28t-144.5 91.5t-70.5 152.5l195 4q13 -62 68 -96.5t133 -34.5q82 0 136 30.5t54 86.5q0 91 -160 119l-163 32q-109 21 -171 85t-63 167q-1 128 102.5 206.5t260.5 78.5q159 0 261 -82t115 -197l-190 -4q-16 133 -182 133q-76 0 -121 -31t-45 -81
q0 -43 28 -67.5t101 -41.5l162 -32q258 -48 258 -283q0 -114 -107 -189t-276 -75zM1014 0v926h272l211 -660l215 660h270v-926h-188v707l-223 -707h-146l-221 705v-705h-190z" />
    <glyph glyph-name="trademark" unicode="&#x2122;" horiz-adv-x="1957" 
d="M20 760v166h742v-166h-275v-760h-186v760h-281zM887 0v926h270l213 -660l213 660h270v-926h-188v707l-223 -707h-146l-221 705v-705h-188z" />
    <glyph glyph-name="uni2153" unicode="&#x2153;" horiz-adv-x="1996" 
d="M170 565v721l-168 -47v129l256 129h102v-932h-190zM1470 1497l-995 -1505l-174 2l999 1503h170zM1229 684q7 70 41.5 121t89 79t116.5 41t134 13q152 0 253 -69t101 -175q0 -142 -172 -202q84 -22 142.5 -82t58.5 -148q0 -85 -56.5 -150.5t-143.5 -97.5t-187 -32
q-83 0 -146.5 12t-115.5 40.5t-84 80t-43 125.5l176 12q48 -121 200 -121q86 0 138.5 37t52.5 94q0 59 -51.5 97t-124.5 38l-125 2v150l108 4q74 1 122 37.5t48 89.5q0 48 -46 80.5t-109 32.5q-168 0 -203 -121z" />
    <glyph glyph-name="uni2154" unicode="&#x2154;" horiz-adv-x="2166" 
d="M41 571v142l293 262q119 103 156.5 153t37.5 105q0 60 -41.5 93.5t-101.5 33.5t-108.5 -33t-71.5 -102l-174 10q16 129 108 205t252 76q153 0 244 -76.5t90 -204.5q0 -74 -37 -133t-135 -154l-229 -219h411v-158h-694zM1640 1497l-995 -1505l-174 2l999 1503h170z
M1397 684q7 70 41.5 121t89 79t116.5 41t134 13q152 0 253 -69t101 -175q0 -142 -172 -202q84 -22 142.5 -82t58.5 -148q0 -85 -56.5 -150.5t-143.5 -97.5t-187 -32q-83 0 -146.5 12t-116 40.5t-84.5 80t-43 125.5l177 12q48 -121 200 -121q86 0 138.5 37t52.5 94
q0 59 -51.5 97t-124.5 38l-125 2v150l108 4q74 1 122 37.5t48 89.5q0 48 -46 80.5t-109 32.5q-168 0 -203 -121z" />
    <glyph glyph-name="oneeighth" unicode="&#x215b;" horiz-adv-x="2000" 
d="M170 565v721l-168 -47v129l256 129h102v-932h-190zM1470 1497l-995 -1505l-174 2l999 1503h170zM1569 936q148 0 242 -73.5t94 -186.5q0 -42 -17 -77.5t-44 -58t-45.5 -34t-37.5 -19.5q4 -2 11 -5q27 -12 43 -20t44.5 -28.5t44.5 -42t29 -57.5t13 -78q0 -130 -104 -203
t-279 -73q-166 0 -265.5 63t-99.5 178q0 145 172 217q-147 74 -147 213q0 121 95 203t251 82zM1571 795q-63 0 -105.5 -33t-42.5 -86q0 -79 90 -103l103 -30q35 -9 75 35.5t40 93.5q0 54 -43.5 88.5t-116.5 34.5zM1575 121q76 0 121 32t45 85q0 41 -24 68t-81 44l-120 35
q-40 13 -88 -28.5t-48 -102.5q0 -133 195 -133z" />
    <glyph glyph-name="threeeighths" unicode="&#x215c;" horiz-adv-x="2201" 
d="M63 1262q7 70 41.5 121t89 79t116.5 41t134 13q152 0 253.5 -69t101.5 -175q0 -143 -172 -203q84 -22 142 -81.5t58 -147.5q0 -127 -116 -204t-271 -77q-83 0 -146.5 12t-115.5 40.5t-84 80t-43 125.5l176 12q47 -120 201 -120q86 0 138 37t52 94q0 59 -51.5 97
t-124.5 38l-125 2v149l109 4q74 1 122 37.5t48 89.5q0 48 -46.5 80.5t-109.5 32.5q-167 0 -202 -121zM1671 1497l-995 -1505l-174 2l999 1503h170zM1767 936q148 0 242 -73.5t94 -186.5q0 -42 -16.5 -77.5t-43.5 -58t-45.5 -34t-37.5 -19.5q3 -2 11 -5q27 -12 43 -20
t44 -28.5t44 -42t29 -57.5t13 -78q0 -130 -104 -203t-279 -73q-166 0 -265 63t-99 178q0 145 172 217q-148 74 -148 213q0 121 95 203t251 82zM1769 795q-63 0 -105 -33t-42 -86q0 -79 90 -103l103 -30q35 -9 74.5 35.5t39.5 93.5q0 54 -43.5 88.5t-116.5 34.5zM1774 121
q76 0 120.5 32t44.5 85q0 41 -23.5 68t-80.5 44l-121 35q-40 13 -87.5 -28.5t-47.5 -102.5q0 -133 195 -133z" />
    <glyph glyph-name="fiveeighths" unicode="&#x215d;" horiz-adv-x="2205" 
d="M150 1497h602l-11 -156h-444l-18 -223q49 18 69.5 25t57 14.5t73.5 7.5q145 0 236.5 -77t91.5 -218q0 -149 -101 -233t-272 -84q-124 0 -225.5 47.5t-157.5 128.5l139 98q54 -64 101.5 -94.5t120.5 -30.5q89 0 139.5 45t50.5 115q0 69 -46 110.5t-124 41.5
q-66 0 -166 -51q-13 -5 -15.5 -5t-14.5 7l-127 69zM1675 1497l-995 -1505l-174 2l999 1503h170zM1772 936q148 0 241.5 -73.5t93.5 -186.5q0 -42 -16.5 -77.5t-43.5 -58t-45.5 -34t-37.5 -19.5q3 -2 11 -5q27 -12 43 -20t44 -28.5t44 -42t29 -57.5t13 -78q0 -130 -104 -203
t-279 -73q-166 0 -265 63t-99 178q0 145 172 217q-148 74 -148 213q0 120 95.5 202.5t251.5 82.5zM1774 795q-63 0 -105.5 -33t-42.5 -86q0 -79 90 -103l103 -30q35 -9 74.5 35.5t39.5 93.5q0 54 -43 88.5t-116 34.5zM1778 121q76 0 121 32t45 85q0 41 -24 68t-81 44
l-121 35q-40 13 -87.5 -28.5t-47.5 -102.5q0 -133 195 -133z" />
    <glyph glyph-name="seveneighths" unicode="&#x215e;" horiz-adv-x="2131" 
d="M1602 1497l-996 -1505l-174 2l1000 1503h170zM61 1495h697v-192q-117 -149 -217.5 -369t-106.5 -371h-203q11 143 98.5 360.5t250.5 415.5h-519v156zM1700 936q148 0 242 -73.5t94 -186.5q0 -42 -17 -77.5t-44 -58t-45.5 -34t-37.5 -19.5q4 -2 11 -5q27 -12 43 -20
t44.5 -28.5t44.5 -42t29 -57.5t13 -78q0 -130 -104 -203t-279 -73q-166 0 -265.5 63t-99.5 178q0 145 172 217q-147 74 -147 213q0 121 95 203t251 82zM1702 795q-63 0 -105.5 -33t-42.5 -86q0 -78 91 -103l102 -30q35 -9 75 35.5t40 93.5q0 54 -43.5 88.5t-116.5 34.5z
M1706 121q76 0 121 32t45 85q0 41 -24 68t-81 44l-120 35q-40 13 -88 -28.5t-48 -102.5q0 -133 195 -133z" />
    <glyph glyph-name="partialdiff" unicode="&#x2202;" horiz-adv-x="1236" 
d="M211 1188l-84 176q55 51 168.5 94t247.5 43q135 0 245 -47.5t190.5 -141t124.5 -241t44 -338.5q0 -352 -143.5 -552.5t-417.5 -200.5q-231 0 -367.5 137t-136.5 348q0 209 130 343t351 134q94 0 152 -23t125 -71q32 -25 32 10q0 82 -22.5 155.5t-67.5 134t-121 96.5
t-174 36q-62 0 -118 -16t-85 -31.5t-73 -44.5zM575 195h3q109 0 182 97t88 257q3 31 0.5 45t-12.5 27q-33 49 -96.5 84.5t-133.5 35.5q-105 0 -172 -82t-67 -206q0 -117 59 -187.5t149 -70.5z" />
    <glyph glyph-name="emptyset" unicode="&#x2205;" horiz-adv-x="1224" 
d="M1122 1116l-127 -117q78 -118 78 -254q0 -126 -62.5 -232.5t-169.5 -168t-233 -61.5q-157 0 -280 96l-142 -131l-100 104l143 131q-82 119 -82 262q0 125 62 231t168 168t231 62q163 0 293 -102l125 115zM285 745q0 -93 47 -167l465 430q-83 61 -189 61q-133 0 -228 -96
t-95 -228zM934 745q0 87 -41 158l-463 -430q82 -53 178 -53q135 0 230.5 95t95.5 230z" />
    <glyph glyph-name="product" unicode="&#x220f;" horiz-adv-x="1431" 
d="M1380 1481v-246h-186v-1235h-307v1235h-355v-1235h-309v1235h-184v246h1341z" />
    <glyph glyph-name="summation" unicode="&#x2211;" horiz-adv-x="1179" 
d="M1106 0h-1045v182l426 553l-401 543v203h983v-240h-575l366 -473l-405 -514h651v-254z" />
    <glyph glyph-name="minus" unicode="&#x2212;" horiz-adv-x="1206" 
d="M1081 854v-217l-966 -2v219h966z" />
    <glyph glyph-name="uni2219" unicode="&#x2219;" horiz-adv-x="729" 
d="M354 592q-66 0 -111.5 47t-45.5 113q0 65 45.5 111t111.5 46q64 0 110 -46t46 -111q0 -66 -46 -113t-110 -47z" />
    <glyph glyph-name="radical" unicode="&#x221a;" horiz-adv-x="1413" 
d="M1405 1692l-533 -2022h-303l-311 848l-162 -61l-61 170l389 139l291 -817l438 1743h252z" />
    <glyph glyph-name="infinity" unicode="&#x221e;" horiz-adv-x="1622" 
d="M1513 561v-2q0 -172 -103.5 -272.5t-252.5 -100.5q-57 0 -104 14t-89 46.5t-69.5 60t-71.5 78.5q-11 15 -17.5 15.5t-19.5 -15.5q-4 -4 -30.5 -34t-53 -53t-66 -51.5t-91 -44.5t-107.5 -16q-143 0 -243.5 101t-100.5 262q0 163 104 263.5t265 100.5q47 0 88 -10.5
t69.5 -24t63 -42t53.5 -48t56 -59.5q18 -18 26 -18t23 18q38 42 62 65t67 55.5t93.5 48t109.5 15.5q149 0 244 -96t95 -256zM457 373h4q58 0 113.5 41t93.5 94q17 24 16.5 36t-18.5 40q-99 149 -211 149q-74 0 -121 -50t-47 -128q0 -80 49 -131t121 -51zM1159 733h-2
q-41 0 -83.5 -25t-66 -48.5t-61.5 -67.5q-31 -39 0 -74q105 -145 219 -145q71 0 112.5 55t41.5 125q0 73 -44.5 126.5t-115.5 53.5z" />
    <glyph glyph-name="integral" unicode="&#x222b;" horiz-adv-x="968" 
d="M309 1206q0 506 385 506q147 0 232 -55l-60 -246q-80 41 -151 41q-64 0 -97.5 -49t-33.5 -162q0 -191 27.5 -566.5t27.5 -508.5q0 -518 -383 -518q-139 0 -227 53l63 248q67 -41 146 -41q63 0 96 49t33 166q0 185 -29 566.5t-29 516.5z" />
    <glyph glyph-name="approxequal" unicode="&#x2248;" horiz-adv-x="1259" 
d="M1126 936q-50 -88 -130 -136t-171 -48q-54 0 -109 20t-92.5 43.5t-87.5 43.5t-96 20q-37 0 -70 -11t-65 -36.5t-50 -43.5t-52 -55l-84 150q89 93 160.5 138.5t162.5 45.5q56 0 111 -19.5t92 -43t85 -43t91 -19.5q131 0 217 143zM1126 506q-50 -88 -130 -136t-171 -48
q-55 0 -110 20t-92.5 43.5t-87.5 43.5t-95 20q-70 0 -123.5 -39t-111.5 -109l-86 152q88 92 160 137t163 45q56 0 111 -19.5t92 -43t85 -43t91 -19.5q130 0 217 145z" />
    <glyph glyph-name="notequal" unicode="&#x2260;" horiz-adv-x="1234" 
d="M1114 831h-387l-109 -251l496 2v-220h-592l-127 -292h-151l129 292h-226v218h322l113 251h-435v218h529l125 280h143l-123 -280h293v-218z" />
    <glyph glyph-name="lessequal" unicode="&#x2264;" horiz-adv-x="1204" 
d="M1051 670v-258l-942 368v248l944 367v-256l-617 -238zM1069 281v-218h-967v218h967z" />
    <glyph glyph-name="greaterequal" unicode="&#x2265;" horiz-adv-x="1204" 
d="M139 670l617 231l-619 238v256l946 -367v-248l-944 -368v258zM123 281h967v-218h-967v218z" />
    <glyph glyph-name="lozenge" unicode="&#x25ca;" horiz-adv-x="1142" 
d="M682 0h-199l-360 741l371 740h198l363 -736zM590 1264l-236 -516l236 -535l237 528z" />
    <glyph glyph-name="i.loclTRK" horiz-adv-x="561" 
d="M440 1481v-291h-305v291h305zM432 1059v-1059h-299v1059h299z" />
    <glyph glyph-name="p.001" horiz-adv-x="1292" 
d="M160 -330v1389h299v-133q32 34 58 56.5t66 47t90 37t109 12.5q182 0 296 -138t114 -402q0 -141 -32 -249t-90 -175t-135 -101t-171 -34q-82 0 -153 29t-152 106v-445h-299zM655 180q108 0 171 88.5t63 272.5q0 180 -61.5 258t-161.5 78q-96 0 -151.5 -64.5t-55.5 -185.5
v-226q45 -221 196 -221z" />
    <glyph glyph-name="q.001" horiz-adv-x="1228" 
d="M1110 -330h-299v445q-83 -77 -154.5 -106t-152.5 -29q-193 0 -310.5 141t-117.5 418q0 264 114.5 402t296.5 138q111 0 184 -41t140 -112v133h299v-1389zM612 180q154 0 199 221v226q0 120 -56.5 185t-152.5 65q-100 0 -161.5 -78t-61.5 -258q0 -184 63 -272.5t170 -88.5
z" />
    <glyph glyph-name="l.ss01" horiz-adv-x="643" 
d="M172 0v1522h299v-1522h-299z" />
    <glyph glyph-name="zero.osf" horiz-adv-x="1368" 
d="M684 1503q270 0 435 -202.5t165 -563.5q0 -359 -163.5 -557t-436.5 -198q-275 0 -438.5 197t-163.5 556q0 182 44.5 328t124.5 242t190.5 147t242.5 51zM684 223q137 0 203.5 120.5t66.5 391.5q0 277 -68 404t-202 127q-135 0 -202.5 -127t-67.5 -404q0 -269 67.5 -390.5
t202.5 -121.5z" />
    <glyph glyph-name="one.osf" horiz-adv-x="839" 
d="M326 0v1147l-265 -76v207l406 203h160v-1481h-301z" />
    <glyph glyph-name="two.osf" horiz-adv-x="1271" 
d="M82 0v223l465 418q191 167 251 245.5t60 166.5q0 94 -66 147t-161 53q-98 0 -175.5 -52t-113.5 -165l-276 19q27 204 173 325t400 121q243 0 387.5 -121t144.5 -325q0 -81 -29.5 -151t-84 -136t-160.5 -168l-365 -348h654v-252h-1104z" />
    <glyph glyph-name="three.osf" horiz-adv-x="1378" 
d="M86 1100q9 89 47.5 159t95.5 115.5t133.5 75.5t157.5 42.5t172 12.5q157 0 285 -49t202 -138t74 -200q0 -226 -274 -323q137 -35 229 -129.5t92 -235.5q0 -103 -52.5 -188.5t-139.5 -141t-196.5 -86t-225.5 -30.5q-105 0 -189 11.5t-160 40t-129.5 74.5t-90 118
t-49.5 167l278 19q27 -70 81.5 -114.5t112.5 -60.5t124 -16q137 0 220 58.5t83 146.5q0 94 -80.5 154.5t-198.5 62.5l-201 4v236l172 6q120 3 196.5 61t76.5 142q0 76 -74 127t-174 51q-58 0 -104.5 -7.5t-91.5 -27.5t-76.5 -59t-46.5 -97z" />
    <glyph glyph-name="four.osf" horiz-adv-x="1302" 
d="M731 1481h299v-895h221v-258h-221v-328h-301l2 328h-668v252zM375 586h356v479z" />
    <glyph glyph-name="five.osf" horiz-adv-x="1372" 
d="M233 1481h957l-14 -246h-705l-31 -356q78 29 111 40.5t91.5 23t117.5 11.5q151 0 267.5 -52.5t185.5 -160.5t69 -258q0 -235 -162 -369t-432 -134q-196 0 -358.5 76t-251.5 204l221 158q36 -41 59.5 -65t58.5 -53t67 -44.5t75 -26t92 -10.5q143 0 224 71t81 183
q0 109 -73.5 174.5t-200.5 65.5q-65 0 -122 -20t-140 -62q-20 -8 -24.5 -8t-24.5 10l-203 112z" />
    <glyph glyph-name="six.osf" horiz-adv-x="1333" 
d="M709 1507q210 0 356.5 -106.5t163.5 -280.5l-266 -20q-35 85 -93 127.5t-153 42.5q-159 0 -240 -139.5t-61 -368.5q50 72 141 110.5t197 38.5q227 0 362 -123.5t135 -318.5q0 -139 -73 -249t-201 -170t-289 -60q-284 0 -446 196t-162 531q0 369 169 579.5t460 210.5z
M686 688q-100 0 -181 -54.5t-81 -123.5q12 -146 79 -220.5t177 -74.5q106 0 181 69t75 173q0 105 -72.5 168t-177.5 63z" />
    <glyph glyph-name="seven.osf" horiz-adv-x="1214" 
d="M61 1481h1106v-305q-187 -235 -346 -585t-168 -591h-323q8 99 42 232t96 298t170.5 352.5t244.5 352.5h-822v246z" />
    <glyph glyph-name="eight.osf" horiz-adv-x="1320" 
d="M653 1501q235 0 386 -116.5t151 -294.5q0 -55 -19 -103.5t-45.5 -80.5t-61 -58.5t-58 -39t-43.5 -20.5q5 -3 30 -14.5t36.5 -17t37 -20t39.5 -25.5t37 -30t36.5 -37t29.5 -43.5t25 -52t15 -60t6 -70.5q0 -205 -166 -321.5t-444 -116.5q-264 0 -420.5 101.5t-156.5 283.5
q0 234 272 344q-1 0 -20.5 11t-37 23t-44.5 32t-48.5 46.5t-41.5 59t-31 75.5t-11 91q0 193 150 323.5t397 130.5zM659 1276q-101 0 -168 -52.5t-67 -136.5q0 -125 145 -163l160 -47q57 -15 119.5 55.5t62.5 148.5q0 84 -67.5 139.5t-184.5 55.5zM666 205q122 0 192 50.5
t70 137.5q0 64 -38 106.5t-128 69.5l-191 58q-63 20 -139 -47t-76 -164q0 -101 76.5 -156t233.5 -55z" />
    <glyph glyph-name="nine.osf" horiz-adv-x="1333" 
d="M618 -18q-208 0 -356.5 109t-165.5 280l275 18q64 -170 235 -170q170 0 263 127t75 391q-43 -82 -134.5 -128t-215.5 -46q-229 0 -371.5 127.5t-142.5 329.5q0 211 158.5 345t402.5 134q285 0 446.5 -195t161.5 -532q0 -394 -166 -592t-465 -198zM645 801q98 0 179 56
t81 122q-12 147 -78.5 222t-175.5 75q-105 0 -175 -68.5t-70 -173.5q0 -103 67.5 -168t171.5 -65z" />
    <glyph glyph-name="zero.tf" horiz-adv-x="1433" 
d="M735 1503q270 0 434 -202t164 -564q0 -360 -163 -557.5t-437 -197.5t-437 196.5t-163 556.5q0 182 44.5 328t124 242t190 147t243.5 51zM733 223q137 0 204 120.5t67 391.5q0 277 -68.5 404t-202.5 127t-202 -127.5t-68 -403.5q0 -269 67.5 -390.5t202.5 -121.5z" />
    <glyph glyph-name="one.tf" horiz-adv-x="1433" 
d="M909 281h359v-281h-1078v281h400v880l-391 -119v261l559 178h151v-1200z" />
    <glyph glyph-name="two.tf" horiz-adv-x="1433" 
d="M195 0v223l464 418q192 166 252 245t60 167q0 94 -66 147t-162 53q-98 0 -174.5 -52t-111.5 -165l-279 19q27 204 174 325t400 121q243 0 388 -121t144 -325q0 -118 -59 -212t-215 -243l-363 -348h653v-252h-1105z" />
    <glyph glyph-name="three.tf" horiz-adv-x="1433" 
d="M156 1098q8 89 46 159t95 115t133.5 74.5t157.5 42t172 12.5q157 0 285 -49t202 -138t74 -200q0 -227 -272 -321q64 -18 119.5 -49t101 -75.5t72 -107t26.5 -135.5q0 -103 -52.5 -188.5t-139.5 -141t-196.5 -86t-225.5 -30.5q-105 0 -189.5 11.5t-160 40.5t-129 75
t-90.5 117.5t-50 166.5l279 19q28 -70 82 -114.5t112 -60.5t125 -16q135 0 218 59.5t83 147.5q0 94 -79.5 154.5t-198.5 62.5l-201 2v236l174 8q119 3 195.5 60.5t76.5 142.5q0 76 -74.5 127t-174.5 51q-58 0 -104.5 -8t-91.5 -28t-77 -59t-47 -96z" />
    <glyph glyph-name="four.tf" horiz-adv-x="1433" 
d="M827 1481h299v-895h220v-258h-220v-328h-301v328h-667v252zM469 586h358v479z" />
    <glyph glyph-name="five.tf" horiz-adv-x="1433" 
d="M297 1481h956l-14 -246h-707l-28 -356q75 28 109.5 40t92.5 23.5t117 11.5q230 0 375 -123.5t145 -347.5q0 -235 -160.5 -369t-430.5 -134q-198 0 -361 76t-252 204l223 158q43 -50 74 -80t74.5 -60.5t93.5 -44.5t111 -14q141 0 222 71t81 183q0 109 -74 174.5t-199 65.5
q-65 0 -122 -20t-140 -62q-22 -8 -25.5 -8t-23.5 10l-203 112z" />
    <glyph glyph-name="six.tf" horiz-adv-x="1433" 
d="M782 1507q210 0 357 -106.5t164 -280.5l-267 -20q-37 86 -94 128t-151 42q-159 0 -241.5 -140t-62.5 -368q51 72 142 110.5t198 38.5q227 0 361.5 -123.5t134.5 -318.5q0 -211 -158.5 -345t-402.5 -134q-284 0 -446 196t-162 531q0 369 168.5 579.5t459.5 210.5zM760 688
q-100 0 -181 -54.5t-81 -123.5q12 -146 79 -220.5t175 -74.5q106 0 181 69t75 173q0 105 -71.5 168t-176.5 63z" />
    <glyph glyph-name="seven.tf" horiz-adv-x="1433" 
d="M119 1481h1159v-305q-187 -235 -346 -585t-168 -591h-346q6 77 27.5 172.5t65.5 222t104.5 255.5t152.5 276.5t203 281.5h-852v273z" />
    <glyph glyph-name="eight.tf" horiz-adv-x="1433" 
d="M737 1501q235 0 386 -116.5t151 -294.5q0 -55 -19.5 -103.5t-46 -80.5t-62 -58.5t-58.5 -39t-44 -20.5q4 -2 30.5 -14.5t37 -17.5t37.5 -20t40 -25.5t37 -30t37 -37t29.5 -43t25 -52t15 -60t6.5 -70.5q0 -205 -166.5 -321.5t-445.5 -116.5q-173 0 -302.5 44.5t-202 132
t-72.5 208.5q0 122 73.5 207.5t198.5 136.5q-1 0 -20.5 11t-37 23t-44.5 32t-48.5 46.5t-41.5 59t-31 75.5t-11 91q0 193 150.5 323.5t398.5 130.5zM743 1276q-101 0 -168 -52.5t-67 -136.5q0 -125 143 -163l160 -47q58 -15 121 55.5t63 148.5q0 84 -67.5 139.5t-184.5 55.5
zM748 205q122 0 192 50.5t70 137.5q0 65 -37 107t-127 69l-193 58q-63 20 -139 -47t-76 -164q0 -101 77 -156t233 -55z" />
    <glyph glyph-name="nine.tf" horiz-adv-x="1433" 
d="M688 -18q-207 0 -355 109t-167 280l276 18q61 -170 234 -170q170 0 263 127t77 391q-45 -82 -136.5 -128t-213.5 -46q-229 0 -372.5 127.5t-143.5 329.5q0 139 73 249t201 170t289 60q284 0 446 -195.5t162 -531.5q0 -393 -166.5 -591.5t-466.5 -198.5zM715 801
q98 0 180 56t82 122q-12 147 -79 222t-177 75q-105 0 -174.5 -68.5t-69.5 -173.5q0 -103 68 -168t170 -65z" />
    <glyph glyph-name="zero.subs" horiz-adv-x="866" 
d="M410 596q170 0 273 -126.5t103 -354.5q0 -226 -102 -349.5t-274 -123.5q-173 0 -276 123.5t-103 349.5q0 227 104.5 354t274.5 127zM410 -209q87 0 128.5 76.5t41.5 247.5q0 174 -43 254t-127 80q-85 0 -127.5 -79.5t-42.5 -254.5q0 -170 42.5 -247t127.5 -77z" />
    <glyph glyph-name="one.subs" horiz-adv-x="632" 
d="M170 -338v721l-168 -47v129l256 129h102v-932h-190z" />
    <glyph glyph-name="two.subs" horiz-adv-x="802" 
d="M41 -338v141l293 263q119 103 156.5 153t37.5 105q0 60 -41.5 93.5t-101.5 33.5t-108.5 -33t-71.5 -103l-174 11q15 129 107.5 204.5t252.5 75.5q153 0 244 -76t90 -204q0 -74 -37 -133t-135 -154l-229 -219h411v-158h-694z" />
    <glyph glyph-name="three.subs" horiz-adv-x="833" 
d="M63 346q7 70 41.5 121t89 79t116.5 41t134 13q152 0 253.5 -69t101.5 -175q0 -142 -172 -202q84 -22 142 -82t58 -148q0 -85 -56.5 -150.5t-143.5 -97.5t-187 -32q-83 0 -146.5 12t-115.5 40.5t-84 80t-43 125.5l176 12q48 -121 201 -121q86 0 138 37t52 94
q0 59 -51.5 97t-124.5 38l-125 2v150l109 4q74 1 122 37.5t48 89.5q0 48 -46.5 80.5t-109.5 32.5q-167 0 -202 -121z" />
    <glyph glyph-name="four.subs" horiz-adv-x="866" 
d="M457 594h188v-563h139v-162h-139v-207h-188v207h-420v158zM233 31h224v301z" />
    <glyph glyph-name="five.subs" horiz-adv-x="837" 
d="M150 588h602l-11 -156h-444l-18 -223q49 18 69.5 25t57 14.5t73.5 7.5q145 0 236.5 -77t91.5 -218q0 -149 -101 -233t-272 -84q-124 0 -225.5 47.5t-157.5 128.5l139 98q54 -64 101.5 -94.5t120.5 -30.5q89 0 139.5 45t50.5 115q0 69 -46 110t-124 41q-66 0 -166 -51
q-13 -5 -15.5 -5t-14.5 7l-127 70z" />
    <glyph glyph-name="six.subs" horiz-adv-x="841" 
d="M424 600q133 0 224.5 -66.5t101.5 -177.5l-166 -12q-25 54 -61 80.5t-95 26.5q-99 0 -150.5 -88t-39.5 -232q32 45 89.5 69.5t123.5 24.5q144 0 228.5 -78t84.5 -200q0 -133 -99.5 -217t-254.5 -84q-179 0 -281 123t-102 333q0 232 106.5 365t290.5 133zM408 86
q-62 0 -113 -35t-51 -78q7 -93 49 -139.5t110 -46.5q67 0 114.5 43.5t47.5 108.5q0 67 -45 107t-112 40z" />
    <glyph glyph-name="seven.subs" horiz-adv-x="763" 
d="M61 594h697v-193q-117 -149 -217.5 -368.5t-106.5 -370.5h-203q11 143 98.5 360.5t250.5 415.5h-519v156z" />
    <glyph glyph-name="eight.subs" horiz-adv-x="837" 
d="M403 600q148 0 242 -73.5t94 -186.5q0 -42 -16.5 -77.5t-43.5 -57.5t-45.5 -33.5t-37.5 -19.5q75 -34 106 -60q78 -64 78 -172q0 -130 -104 -203t-279 -73q-166 0 -265 63t-99 178q0 145 172 217q-148 74 -148 213q0 121 95 203t251 82zM406 459q-63 0 -105.5 -33
t-42.5 -86q0 -78 90 -102l103 -31q35 -9 74.5 35.5t39.5 93.5q0 54 -43 88.5t-116 34.5zM410 -215q76 0 120.5 32t44.5 85q0 41 -23.5 68t-80.5 44l-121 35q-40 13 -87.5 -28.5t-47.5 -102.5q0 -133 195 -133z" />
    <glyph glyph-name="nine.subs" horiz-adv-x="841" 
d="M375 -358q-131 0 -224.5 68t-103.5 175l174 11q35 -107 148 -107q106 0 164.5 80.5t48.5 245.5q-28 -51 -86 -80t-136 -29q-144 0 -233.5 80t-89.5 207q0 133 99.5 217t254.5 84q179 0 280 -122.5t101 -334.5q0 -247 -104 -371t-293 -124zM391 156q63 0 114.5 35t51.5 77
q-7 92 -50 139.5t-112 47.5q-65 0 -109 -43.5t-44 -110.5q0 -64 42.5 -104.5t106.5 -40.5z" />
    <glyph glyph-name="zero.dnom" horiz-adv-x="866" 
d="M410 934q170 0 273 -126.5t103 -354.5q0 -226 -102 -349.5t-274 -123.5q-173 0 -276 123.5t-103 349.5q0 227 104.5 354t274.5 127zM410 129q87 0 128.5 76.5t41.5 247.5q0 174 -43 253.5t-127 79.5q-85 0 -127.5 -79t-42.5 -254q0 -170 42.5 -247t127.5 -77z" />
    <glyph glyph-name="one.dnom" horiz-adv-x="632" 
d="M170 0v721l-168 -47v129l256 129h102v-932h-190z" />
    <glyph glyph-name="two.dnom" horiz-adv-x="802" 
d="M41 0v141l293 262q119 103 156.5 153.5t37.5 105.5q0 60 -41 93t-102 33q-60 0 -108.5 -33t-71.5 -102l-174 11q15 129 107.5 204.5t252.5 75.5q153 0 244 -76t90 -204q0 -74 -37 -133t-135 -154l-229 -219h411v-158h-694z" />
    <glyph glyph-name="three.dnom" horiz-adv-x="833" 
d="M63 684q7 70 41.5 121t89 79t116.5 41t134 13q152 0 253.5 -69t101.5 -175q0 -142 -172 -202q84 -22 142 -82t58 -148q0 -85 -56.5 -150.5t-143.5 -97.5t-187 -32q-83 0 -146.5 12t-115.5 40.5t-84 80t-43 125.5l176 12q48 -121 201 -121q86 0 138 37t52 94
q0 59 -51.5 97t-124.5 38l-125 2v150l109 4q74 1 122 37.5t48 89.5q0 48 -46.5 80.5t-109.5 32.5q-167 0 -202 -121z" />
    <glyph glyph-name="four.dnom" horiz-adv-x="866" 
d="M457 932h188v-563h139v-162h-139v-207h-188v207h-420v158zM233 369h224v301z" />
    <glyph glyph-name="five.dnom" horiz-adv-x="837" 
d="M150 926h602l-11 -156h-444l-18 -223q49 18 69.5 25t57 14.5t73.5 7.5q145 0 236.5 -77t91.5 -218q0 -149 -101 -233t-272 -84q-124 0 -225.5 47.5t-157.5 128.5l139 98q54 -64 101.5 -94.5t120.5 -30.5q89 0 139.5 45t50.5 115q0 69 -46 110t-124 41q-66 0 -166 -51
q-13 -5 -15.5 -5t-14.5 7l-127 70z" />
    <glyph glyph-name="six.dnom" horiz-adv-x="841" 
d="M424 938q133 0 224.5 -66.5t101.5 -177.5l-166 -12q-24 54 -60.5 80t-95.5 26q-99 0 -150.5 -87.5t-39.5 -231.5q32 45 89.5 69.5t123.5 24.5q144 0 228.5 -78t84.5 -200q0 -133 -99.5 -217t-254.5 -84q-179 0 -281 123t-102 333q0 232 106.5 365t290.5 133zM408 424
q-62 0 -113 -35t-51 -78q7 -93 49 -139.5t110 -46.5q67 0 114.5 43t47.5 108q0 67 -45 107.5t-112 40.5z" />
    <glyph glyph-name="seven.dnom" horiz-adv-x="763" 
d="M61 932h697v-193q-117 -149 -217.5 -368.5t-106.5 -370.5h-203q11 143 98.5 360.5t250.5 415.5h-519v156z" />
    <glyph glyph-name="eight.dnom" horiz-adv-x="837" 
d="M403 936q148 0 242 -73.5t94 -186.5q0 -42 -16.5 -77.5t-43.5 -58t-45.5 -34t-37.5 -19.5q3 -2 11 -5q27 -12 43 -20t44 -28.5t44 -42t29 -57.5t13 -78q0 -130 -104 -203t-279 -73q-166 0 -265 63t-99 178q0 145 172 217q-148 74 -148 213q0 121 95 203t251 82zM406 795
q-63 0 -105.5 -33t-42.5 -86q0 -79 90 -103l103 -30q35 -9 74.5 35.5t39.5 93.5q0 54 -43 88.5t-116 34.5zM410 121q76 0 120.5 32t44.5 85q0 41 -23.5 68t-80.5 44l-121 35q-40 13 -87.5 -28.5t-47.5 -102.5q0 -133 195 -133z" />
    <glyph glyph-name="nine.dnom" horiz-adv-x="841" 
d="M375 -20q-131 0 -224.5 68t-103.5 175l174 10q35 -106 148 -106q106 0 164.5 80.5t48.5 245.5q-28 -51 -86 -80t-136 -29q-144 0 -233.5 80t-89.5 207q0 133 99.5 217t254.5 84q179 0 280 -122.5t101 -334.5q0 -247 -104 -371t-293 -124zM391 494q63 0 114.5 35t51.5 77
q-7 92 -50 139.5t-112 47.5q-65 0 -109 -43.5t-44 -110.5q0 -64 42.5 -104.5t106.5 -40.5z" />
    <glyph glyph-name="zero.numr" horiz-adv-x="866" 
d="M410 1516q170 0 273 -127t103 -355q0 -226 -102 -349.5t-274 -123.5q-173 0 -276 123.5t-103 349.5q0 227 104.5 354.5t274.5 127.5zM410 711q87 0 128.5 76t41.5 247q0 174 -43 254t-127 80q-85 0 -127.5 -79.5t-42.5 -254.5q0 -170 42.5 -246.5t127.5 -76.5z" />
    <glyph glyph-name="one.numr" horiz-adv-x="632" 
d="M170 565v721l-168 -47v129l256 129h102v-932h-190z" />
    <glyph glyph-name="two.numr" horiz-adv-x="802" 
d="M41 571v142l293 262q119 103 156.5 153t37.5 105q0 60 -41.5 93.5t-101.5 33.5t-108.5 -33t-71.5 -102l-174 10q16 129 108 205t252 76q153 0 244 -76.5t90 -204.5q0 -74 -37 -133t-135 -154l-229 -219h411v-158h-694z" />
    <glyph glyph-name="three.numr" horiz-adv-x="833" 
d="M63 1262q7 70 41.5 121t89 79t116.5 41t134 13q152 0 253.5 -69t101.5 -175q0 -143 -172 -203q84 -22 142 -81.5t58 -147.5q0 -127 -116 -204t-271 -77q-83 0 -146.5 12t-115.5 40.5t-84 80t-43 125.5l176 12q47 -120 201 -120q86 0 138 37t52 94q0 59 -51.5 97
t-124.5 38l-125 2v149l109 4q74 1 122 37.5t48 89.5q0 48 -46.5 80.5t-109.5 32.5q-167 0 -202 -121z" />
    <glyph glyph-name="four.numr" horiz-adv-x="866" 
d="M457 1497h188v-563h139v-162h-139v-207h-188v207h-420v158zM233 934h224v301z" />
    <glyph glyph-name="five.numr" horiz-adv-x="837" 
d="M150 1497h602l-11 -156h-444l-18 -223q49 18 69.5 25t57 14.5t73.5 7.5q145 0 236.5 -77t91.5 -218q0 -149 -101 -233t-272 -84q-124 0 -225.5 47.5t-157.5 128.5l139 98q54 -64 101.5 -94.5t120.5 -30.5q89 0 139.5 45t50.5 115q0 69 -46 110.5t-124 41.5
q-66 0 -166 -51q-13 -5 -15.5 -5t-14.5 7l-127 69z" />
    <glyph glyph-name="six.numr" horiz-adv-x="841" 
d="M424 1522q133 0 224.5 -66.5t101.5 -177.5l-166 -12q-24 54 -60.5 80t-95.5 26q-99 0 -150.5 -87.5t-39.5 -231.5q32 45 89.5 69.5t123.5 24.5q144 0 228.5 -78t84.5 -201q0 -133 -99.5 -217t-254.5 -84q-179 0 -281 123t-102 334q0 232 106.5 365t290.5 133zM408 1008
q-62 0 -113 -35t-51 -78q7 -93 49 -139.5t110 -46.5q67 0 114.5 43t47.5 108q0 67 -45 107.5t-112 40.5z" />
    <glyph glyph-name="seven.numr" horiz-adv-x="763" 
d="M61 1495h697v-192q-117 -149 -217.5 -369t-106.5 -371h-203q11 143 98.5 360.5t250.5 415.5h-519v156z" />
    <glyph glyph-name="eight.numr" horiz-adv-x="837" 
d="M403 1516q148 0 242 -74t94 -187q0 -42 -16.5 -77.5t-43.5 -57.5t-45.5 -33.5t-37.5 -19.5q3 -2 11 -5q27 -12 43 -20t44 -28.5t44 -42t29 -57.5t13 -78q0 -130 -104.5 -203.5t-278.5 -73.5q-166 0 -265 63.5t-99 178.5q0 145 172 217q-148 74 -148 213q0 121 95 203
t251 82zM406 1374q-63 0 -105.5 -33t-42.5 -86q0 -78 90 -102l103 -31q35 -9 74.5 35.5t39.5 93.5q0 54 -43 88.5t-116 34.5zM410 700q76 0 120.5 32t44.5 85q0 41 -24 68.5t-80 44.5l-121 35q-40 13 -87.5 -28.5t-47.5 -102.5q0 -64 48.5 -99t146.5 -35z" />
    <glyph glyph-name="nine.numr" horiz-adv-x="841" 
d="M375 563q-131 0 -224.5 68t-103.5 176l174 10q35 -106 148 -106q106 0 164.5 80t48.5 245q-28 -51 -86 -79.5t-136 -28.5q-144 0 -233.5 79.5t-89.5 206.5q0 133 100 217.5t254 84.5q179 0 280 -122.5t101 -334.5q0 -247 -104 -371.5t-293 -124.5zM391 1077
q62 0 114 35.5t52 77.5q-7 92 -50 139t-112 47q-65 0 -109 -43t-44 -110q0 -64 42.5 -105t106.5 -41z" />
    <glyph glyph-name="period.tf" horiz-adv-x="618" 
d="M510 326v-326h-328v326h328z" />
    <glyph glyph-name="comma.tf" horiz-adv-x="618" 
d="M178 -287l119 279l-104 10v289h301v-254l-205 -324h-111z" />
    <glyph glyph-name="bullet.uc" horiz-adv-x="729" 
d="M354 496q-107 0 -181.5 76t-74.5 182t74.5 181t181.5 75q106 0 181 -75t75 -181t-75 -182t-181 -76z" />
    <glyph glyph-name="caroncomb.alt" horiz-adv-x="0" 
d="M-272 1034q-10 0 -15 8.5t-2 16.5l62 149q11 32 -13 35l-20 4q-29 3 -29 27v182q0 25 23 25h160q22 0 22 -21v-213q0 -4 -6 -16l-72 -172q-6 -14 -16.5 -19.5t-34.5 -5.5h-59z" />
    </font>
</defs>
</svg>
