<?xml version="1.0" standalone="no"?>
<!DOCTYPE svg PUBLIC "-//W3C//DTD SVG 1.1//EN" "http://www.w3.org/Graphics/SVG/1.1/DTD/svg11.dtd" >
<svg xmlns="http://www.w3.org/2000/svg" xmlns:xlink="http://www.w3.org/1999/xlink" version="1.1">
<metadata>
Created by FontForge 20201107 at Thu Jun 12 13:50:18 2025
 By 
copyright missing
</metadata>
<defs>
<font id="PublicSans-BoldItalic" horiz-adv-x="0" >
  <font-face 
    font-family="Public Sans"
    font-weight="700"
    font-style="italic"
    font-stretch="normal"
    units-per-em="2048"
    panose-1="0 0 8 0 0 0 0 0 0 0"
    ascent="1597"
    descent="-451"
    x-height="1057"
    cap-height="1481"
    bbox="-915 -500 2610.73 2316"
    underline-thickness="102"
    underline-position="-204"
    slope="-8"
    unicode-range="U+000D-FB02"
  />
<missing-glyph horiz-adv-x="1337" 
d="M330 1690h999l-278 -2020h-998zM977 -123l235 1714h-725zM401 1473l-233 -1702h723z" />
    <glyph glyph-name="fi" unicode="fi" horiz-adv-x="1359" 
d="M1372 1520l-43 -291h-303l41 291h305zM829 1057l-30 -207h-217l-117 -850h-299l117 850h-193l31 207h190l23 153q17 128 101.5 199.5t219.5 71.5h240l-27 -201h-133q-57 0 -83 -27t-34 -92l-14 -104h225zM1303 1057l-146 -1057h-297l146 1057h297z" />
    <glyph glyph-name="fl" unicode="fl" horiz-adv-x="1454" 
d="M1186 -14q-89 0 -150.5 19t-92.5 47t-44 72.5t-12.5 83.5t8.5 93l168 1219h293l-164 -1182q-9 -63 13 -98t85 -41l47 -4l-26 -185q-67 -24 -125 -24zM829 1057l-30 -207h-217l-117 -850h-299l117 850h-193l31 207h190l23 153q17 128 101.5 199.5t219.5 71.5h240l-27 -201
h-133q-57 0 -83 -27t-34 -92l-14 -104h225z" />
    <glyph glyph-name="colon_one_eight_F_colon.liga" unicode="&#x3a;&#x31;&#x38;F&#x3a;" horiz-adv-x="1783" 
d="M184 1556h1485q25 0 25 -24v-1505q0 -12 -7 -19.5t-18 -7.5h-1485q-22 0 -22 27v1505q0 24 22 24zM901 479q70 0 121 52t51 124q0 92 -74 144q54 48 54 116q0 64 -45 109t-107 45q-66 0 -109.5 -44.5t-43.5 -109.5q0 -64 55 -116q-76 -51 -76 -144q0 -72 51 -124t123 -52
zM643 498v555q0 10 -8 10h-135q-8 0 -8 -10v-52q0 -10 8 -10h71v-493q0 -9 9 -9h55q8 0 8 9zM1386 1001v52q0 10 -8 10h-211q-8 0 -8 -10v-555q0 -9 8 -9h52q12 0 12 9v252h123q8 0 8 8v53q0 8 -8 8h-123v172h147q8 0 8 10zM901 834q-36 0 -60 23t-24 58q0 37 24.5 61.5
t59.5 24.5q34 0 58 -25t24 -61q0 -35 -24 -58t-58 -23zM901 760q43 0 73 -30.5t30 -74.5t-30 -74t-73 -30t-72.5 30t-29.5 74t29.5 74.5t72.5 30.5z" />
    <glyph glyph-name="colon_f_l_a_g_two_colon.liga" unicode="&#x3a;flag&#x32;&#x3a;" horiz-adv-x="2564" 
d="M244 1556h2148v-1554h-2148v1554zM2265 1321v109h-1077v-109h1077zM432 1198h127v119h-127v-119zM907 1198h123v119h-123v-119zM674 1077h121v121h-121v-121zM1188 1081h1077v113h-1077v-113zM436 958h123v119h-123v-119zM1030 1077h-123v-119h123v119zM795 958h-121
v-120h121v120zM1188 842h1077v112h-1077v-112zM559 838h-123v-119h123v119zM1030 838h-123v-119h123v119zM1188 602h1077v113h-1077v-113zM2265 475h-1898v-113h1898v113zM369 129h1896v107h-1896v-107z" />
    <glyph glyph-name="colon_f_l_a_g_colon.liga" unicode="&#x3a;flag&#x3a;" horiz-adv-x="2564" 
d="M244 1556h2148v-1554h-2148v1554zM2273 1436h-1913v-838h1913v121h-1087v119h1087v120h-1087v119h1087v121h-1087v119h1087v119zM596 1317v-119h-117v119h117zM1067 1317v-119h-117v119h117zM831 1198v-121h-116v121h116zM596 1077v-119h-117v119h117zM1067 1077v-119
h-117v119h117zM831 958v-120h-116v120h116zM596 838v-119h-117v119h117zM1067 838v-119h-117v119h117zM2273 479h-1913v-121h1913v121zM360 119h1913v121h-1913v-121z" />
    <glyph glyph-name=".notdef" horiz-adv-x="1337" 
d="M330 1690h999l-278 -2020h-998zM977 -123l235 1714h-725zM401 1473l-233 -1702h723z" />
    <glyph glyph-name="uni0000" horiz-adv-x="6" 
 />
    <glyph glyph-name="nonmarkingreturn" horiz-adv-x="682" 
 />
    <glyph glyph-name="CR" unicode="&#xd;" horiz-adv-x="411" 
 />
    <glyph glyph-name="space" unicode=" " horiz-adv-x="485" 
 />
    <glyph glyph-name="exclam" unicode="!" horiz-adv-x="575" 
d="M584 1481l-226 -1024h-184l59 1024h351zM408 319l-46 -319h-325l43 319h328z" />
    <glyph glyph-name="quotedbl" unicode="&#x22;" horiz-adv-x="978" 
d="M586 1481l-154 -574h-151l4 574h301zM1034 1481l-155 -574h-150l4 574h301z" />
    <glyph glyph-name="numbersign" unicode="#" horiz-adv-x="1241" 
d="M1223 879h-242l-74 -263h213l-20 -155h-238l-133 -465l-154 22l125 443h-264l-133 -465l-156 22l127 443h-227l21 155h249l76 263h-223l20 155h248l127 447l158 -17l-123 -430h264l127 447l158 -17l-123 -430h217zM745 616l74 263h-264l-74 -263h264z" />
    <glyph glyph-name="dollar" unicode="$" horiz-adv-x="1325" 
d="M1210 408q-25 -178 -170 -298t-356 -120l-22 -148h-195l22 148q-167 10 -279.5 69t-201.5 170l170 156q143 -160 342 -186l58 419q-239 53 -332 168.5t-68 284.5q16 113 92 207.5t188 147.5t234 53l23 133h192l-20 -137q225 -44 364 -189l-149 -156q-70 72 -123.5 100.5
t-124.5 29.5l-53 -390l123 -34q149 -48 227.5 -162t58.5 -266zM616 895l50 371q-93 -5 -162.5 -60.5t-73.5 -134.5q-4 -55 24 -90.5t95 -65.5zM711 213q100 6 167 57.5t76 126.5q9 69 -34 114t-158 75z" />
    <glyph glyph-name="percent" unicode="%" horiz-adv-x="1902" 
d="M592 1503q159 0 250.5 -128t66.5 -312q-25 -172 -140.5 -286.5t-268.5 -114.5q-163 0 -256.5 125.5t-67.5 308.5q25 172 144.5 289.5t271.5 117.5zM1688 1497l-1192 -1505l-191 2l1192 1503h191zM494 815q81 0 131 73.5t69 205.5q31 256 -102 256q-78 0 -130 -77
t-71 -212q-32 -246 103 -246zM1454 819q105 0 184 -58t115 -159t19 -221q-25 -172 -141.5 -286.5t-268.5 -114.5q-163 0 -255 125t-67 309q25 173 143 289t271 116zM1358 133q79 0 128.5 74t69.5 205q18 124 -7 191t-93 67q-78 0 -130.5 -79t-70.5 -212q-18 -118 8 -182
t95 -64z" />
    <glyph glyph-name="ampersand" unicode="&#x26;" horiz-adv-x="1593" 
d="M879 1503q190 0 302 -88t91 -227q-13 -108 -112 -211t-273 -193l184 -268q108 188 141 324h308q-27 -63 -72.5 -138t-76 -118t-99 -133t-82.5 -109l242 -342h-345l-104 145q-231 -155 -494 -155q-231 0 -335 103.5t-80 277.5q21 146 122 249.5t306 206.5q-77 108 -95 143
q-41 78 -30 165q23 159 164 263.5t338 104.5zM866 1321q-76 -1 -128 -49.5t-60 -116.5q-7 -41 8 -76.5t57 -89.5l37 -53q115 61 169 118t63 120q9 71 -33.5 110.5t-112.5 36.5zM627 653q-96 -47 -157.5 -115t-61.5 -149q0 -79 55.5 -125.5t130.5 -46.5q62 0 137 27.5
t131 74.5z" />
    <glyph glyph-name="quotesingle" unicode="'" horiz-adv-x="528" 
d="M549 1481l-156 -574h-149l4 574h301z" />
    <glyph glyph-name="parenleft" unicode="(" horiz-adv-x="688" 
d="M297 -330q-116 239 -160.5 450t-7.5 466q31 235 135 463.5t260 431.5h238q-307 -459 -375 -930q-28 -231 -5.5 -435.5t97.5 -445.5h-182z" />
    <glyph glyph-name="parenright" unicode=")" horiz-adv-x="692" 
d="M-100 -330q301 455 370 930q29 231 6 436t-98 445h184q44 -91 75.5 -170t57 -170t37.5 -178.5t12 -188.5t-16 -207q-31 -238 -134.5 -467t-260.5 -430h-233z" />
    <glyph glyph-name="asterisk" unicode="*" horiz-adv-x="964" 
d="M680 668l-129 280l-209 -282l-154 122l242 246l-285 84l84 164l271 -127l22 326h193l-70 -316l297 127l33 -180l-307 -88l176 -252z" />
    <glyph glyph-name="plus" unicode="+" horiz-adv-x="1193" 
d="M1116 854l-33 -217h-366l-53 -375h-215l51 373h-369l29 219h370l52 375h217l-54 -375h371z" />
    <glyph glyph-name="comma" unicode="," horiz-adv-x="563" 
d="M-20 -287l157 279l-102 10l39 289h299l-33 -254l-248 -324h-112z" />
    <glyph glyph-name="hyphen" unicode="-" horiz-adv-x="806" 
d="M688 635l-31 -217h-551l29 217h553z" />
    <glyph glyph-name="period" unicode="." horiz-adv-x="552" 
d="M399 326l-43 -326h-325l45 326h323z" />
    <glyph glyph-name="slash" unicode="/" horiz-adv-x="780" 
d="M-57 -37l721 1518h217l-721 -1518h-217z" />
    <glyph glyph-name="zero" unicode="0" horiz-adv-x="1347" 
d="M809 1503q263 0 398.5 -210t86.5 -556q-47 -345 -237.5 -550t-456.5 -205q-267 0 -401.5 204t-87.5 549q47 346 241 557t457 211zM633 223q135 0 215.5 120t116.5 392q39 276 -9.5 403.5t-179.5 127.5q-132 0 -215.5 -127.5t-122.5 -403.5q-36 -270 13 -391t182 -121z
" />
    <glyph glyph-name="one" unicode="1" horiz-adv-x="837" 
d="M250 0l158 1147l-271 -78l29 209l430 203h160l-205 -1481h-301z" />
    <glyph glyph-name="two" unicode="2" horiz-adv-x="1253" 
d="M6 0l31 221l512 420q212 165 282 244t82 168q12 94 -44 147t-150 53q-101 0 -189.5 -45.5t-167.5 -165.5l-210 107q130 181 281.5 266.5t338.5 85.5q237 0 360.5 -121.5t92.5 -324.5q-17 -118 -87 -211.5t-243 -243.5l-406 -348h641l-34 -252h-1090z" />
    <glyph glyph-name="three" unicode="3" horiz-adv-x="1312" 
d="M229 1270q88 103 243.5 167t315.5 64q235 0 370.5 -108.5t113.5 -278.5q-33 -226 -316 -321q130 -39 207.5 -132.5t57.5 -234.5q-14 -103 -77 -188.5t-156 -141t-204 -86t-225 -30.5q-176 0 -318.5 75t-211.5 203l233 152q80 -105 155.5 -148t188.5 -43q124 0 202.5 55
t90.5 146q15 99 -56 158.5t-190 62.5l-202 4l32 234l170 8q120 3 202 61t93 146q11 73 -44.5 122.5t-151.5 49.5q-100 0 -183 -39.5t-178 -128.5z" />
    <glyph glyph-name="four" unicode="4" horiz-adv-x="1284" 
d="M852 1481h297l-127 -897h217l-31 -232h-217l-49 -352h-299l49 352h-655l33 228zM324 584h403l78 569z" />
    <glyph glyph-name="five" unicode="5" horiz-adv-x="1351" 
d="M362 1481h941l-48 -246h-694l-78 -356q77 28 112.5 40t94.5 23.5t117 11.5q149 0 255.5 -52.5t159.5 -160t33 -258.5q-33 -235 -210.5 -369t-444.5 -134q-195 0 -343.5 76t-217.5 204l242 158q30 -41 49 -65t49.5 -53t59 -44.5t69 -26t88.5 -10.5q139 0 229 71t105 183
q14 108 -49.5 174t-186.5 66q-63 0 -120 -19.5t-144 -62.5q-23 -8 -26.5 -8t-22.5 10l-186 110z" />
    <glyph glyph-name="six" unicode="6" horiz-adv-x="1318" 
d="M840 1499q93 0 173 -29t132 -74.5t84.5 -96.5t42.5 -101l-268 -84q-35 74 -78.5 111t-118.5 37q-151 0 -248.5 -121t-114.5 -326q141 55 208.5 72.5t142.5 17.5q226 0 344 -122.5t90 -315.5q-19 -139 -107.5 -250.5t-224.5 -173t-293 -61.5q-282 0 -414 195.5t-86 531.5
q51 369 248.5 579.5t487.5 210.5zM694 680q-60 0 -133 -20.5t-117 -47.5q-18 -12 -25 -25t-11 -44q-13 -88 6.5 -163.5t74.5 -124t138 -48.5q101 0 180 71t94 175q15 102 -44.5 164.5t-162.5 62.5z" />
    <glyph glyph-name="seven" unicode="7" horiz-adv-x="1196" 
d="M193 1481h1091l-43 -307q-216 -234 -420.5 -584t-245.5 -590h-321q17 78 51 176t95.5 229t138.5 263.5t189 283t239 283.5h-809z" />
    <glyph glyph-name="eight" unicode="8" horiz-adv-x="1302" 
d="M780 1501q231 0 363 -116.5t106 -294.5q-7 -55 -32.5 -104.5t-55.5 -81.5t-67 -58t-62 -38.5t-45 -19.5q7 -4 21 -11q39 -20 62 -33.5t61 -46t58 -66.5t31.5 -90.5t2.5 -122.5q-29 -205 -209 -321.5t-455 -116.5q-171 0 -292.5 44.5t-181 132t-42.5 208.5q34 234 317 344
q-2 1 -13.5 8t-22.5 14t-28.5 20.5t-31.5 28t-31.5 36t-27.5 44t-20.5 52.5t-11 62.5t2.5 72.5q27 193 193 323.5t411 130.5zM754 1276q-98 0 -171 -53t-83 -136q-15 -126 116 -163l150 -47q54 -17 126 54t81 150q12 83 -46 139t-173 56zM612 205q119 0 194 50.5t87 137.5
q8 65 -22 107t-115 69l-181 56q-58 20 -141 -47t-96 -164q-14 -100 53 -154.5t221 -54.5z" />
    <glyph glyph-name="nine" unicode="9" horiz-adv-x="1318" 
d="M535 -18q-94 0 -174.5 28.5t-133.5 74t-86 96.5t-43 102l267 86q35 -75 79.5 -112.5t122.5 -37.5q155 0 254 134t109 360q-63 -67 -155 -101t-195 -34q-224 0 -342 121.5t-93 314.5q31 211 208.5 348t416.5 137q281 0 414.5 -196t87.5 -531q-52 -369 -250 -579.5
t-487 -210.5zM678 801q96 0 183.5 56t96.5 122q7 147 -47.5 221t-160.5 74q-103 0 -183.5 -70.5t-93.5 -175.5q-15 -102 44 -164.5t161 -62.5z" />
    <glyph glyph-name="colon" unicode=":" horiz-adv-x="557" 
d="M502 1032l-47 -319h-324l43 319h328zM403 326l-43 -320h-325l43 320h325z" />
    <glyph glyph-name="semicolon" unicode=";" horiz-adv-x="579" 
d="M135 702l45 326h324l-43 -326h-326zM-29 -315l181 315h-111l45 322h326l-45 -297l-256 -340h-140z" />
    <glyph glyph-name="less" unicode="&#x3c;" horiz-adv-x="1187" 
d="M1024 463l-31 -246l-880 365l32 249l983 369l-36 -270l-637 -230z" />
    <glyph glyph-name="equal" unicode="=" horiz-adv-x="1193" 
d="M1143 1047l-31 -216l-954 -2l28 218h957zM1077 580l-30 -218h-955l31 218h954z" />
    <glyph glyph-name="greater" unicode="&#x3e;" horiz-adv-x="1187" 
d="M133 475l635 225l-573 242l34 248l881 -369l-35 -250l-981 -364z" />
    <glyph glyph-name="question" unicode="?" horiz-adv-x="1103" 
d="M115 1169q86 161 229.5 246.5t327.5 85.5q217 0 340 -105.5t102 -260.5q-9 -65 -38 -121t-69 -98t-86.5 -81t-93.5 -78t-87 -80t-69 -96t-38 -118h-240q10 77 38 145t64.5 118t78 95.5t82.5 85t75.5 77t58.5 81t29 88.5q10 65 -32.5 104t-120.5 39q-84 0 -164 -53.5
t-121 -140.5zM657 319l-47 -319h-323l43 319h327z" />
    <glyph glyph-name="at" unicode="@" horiz-adv-x="1685" 
d="M1270 -88q-92 -60 -222.5 -98.5t-275.5 -38.5q-179 0 -319.5 60.5t-224.5 164t-119 242.5t-13 297q21 158 97 300t192.5 248.5t276 169t337.5 62.5q110 0 209.5 -24t185 -76.5t144 -128.5t83.5 -187t7 -244q-31 -221 -154.5 -359t-289.5 -138q-145 0 -187 117
q-40 -70 -116.5 -108t-178.5 -38q-133 0 -207 102t-51 267q26 185 151 315.5t298 130.5q146 0 209 -123l33 70h174l-138 -453q-35 -110 33 -110q89 0 158 102.5t90 245.5q14 105 -3.5 187.5t-59 135.5t-104.5 88t-134 49.5t-154 14.5q-127 0 -237 -34t-191.5 -93.5
t-143.5 -141.5t-99 -177t-52 -201q-37 -272 103 -426t424 -154q66 0 120 9t101 29.5t79 39t79 51.5zM651 489q-10 -78 16.5 -127t88.5 -49q87 0 162 78t96 178q20 89 -11.5 144t-97.5 55q-89 0 -163 -81.5t-91 -197.5z" />
    <glyph glyph-name="A" unicode="A" horiz-adv-x="1456" 
d="M-23 0l728 1481h313l315 -1481h-297l-69 344h-523l-170 -344h-297zM547 604h385l-113 588z" />
    <glyph glyph-name="B" unicode="B" horiz-adv-x="1398" 
d="M96 0l205 1481h528q284 0 410.5 -99t99.5 -290q-16 -114 -84 -194.5t-213 -139.5q57 -15 100.5 -38.5t70 -52.5t43.5 -60t23 -67.5t6 -69t-5 -69.5q-29 -206 -181 -303.5t-450 -97.5h-553zM514 866h277q98 0 171.5 48t86.5 141q12 93 -50 143.5t-174 50.5h-258zM428 231
h262q127 0 203 53.5t90 145.5q12 95 -50 147t-173 52h-279z" />
    <glyph glyph-name="C" unicode="C" horiz-adv-x="1462" 
d="M901 1501q247 0 393 -136t138 -353l-302 -21q-5 121 -67.5 192.5t-183.5 71.5q-158 0 -267.5 -123.5t-146.5 -383.5q-34 -262 40 -392.5t234 -130.5q113 0 197.5 75.5t126.5 197.5l293 -27q-29 -108 -79.5 -194t-128.5 -154.5t-193 -105.5t-259 -37q-202 0 -339 97
t-192.5 271.5t-25.5 403.5q50 346 253.5 547.5t508.5 201.5z" />
    <glyph glyph-name="D" unicode="D" horiz-adv-x="1460" 
d="M301 1481q311 0 438 -2q194 -5 332 -57.5t215.5 -148.5t103.5 -227.5t3 -300.5q-49 -353 -267.5 -549t-601.5 -196h-428zM567 1239l-135 -997h133q96 0 178 27.5t152.5 85t119.5 157.5t68 236q66 491 -378 491h-138z" />
    <glyph glyph-name="E" unicode="E" horiz-adv-x="1304" 
d="M96 0l205 1481h1002l-37 -254h-701l-51 -359h610l-32 -247h-613l-49 -365l715 -2l-37 -254h-1012z" />
    <glyph glyph-name="F" unicode="F" horiz-adv-x="1232" 
d="M301 1481h993l-37 -252h-692l-49 -371h598l-33 -244h-600l-84 -614h-301z" />
    <glyph glyph-name="G" unicode="G" horiz-adv-x="1546" 
d="M688 -20q-298 0 -447.5 205.5t-103.5 549.5q49 349 263 557.5t515 208.5q125 0 227.5 -40t167 -106.5t100 -149.5t38.5 -173l-320 -47q-11 121 -75.5 192.5t-178.5 71.5q-155 0 -265.5 -126t-147.5 -378q-17 -115 -7.5 -200t33.5 -143t66 -93.5t89.5 -51t105.5 -15.5
q121 0 201 67.5t114 169.5l27 88h-302l31 209l611 -4l-107 -772h-203l25 193q-38 -43 -77 -76.5t-94.5 -66.5t-128.5 -51.5t-157 -18.5z" />
    <glyph glyph-name="H" unicode="H" horiz-adv-x="1482" 
d="M1030 635h-549l-88 -635h-297l205 1481h297l-82 -594h551l82 594h299l-207 -1481h-297z" />
    <glyph glyph-name="I" unicode="I" horiz-adv-x="634" 
d="M301 1481h297l-205 -1481h-297z" />
    <glyph glyph-name="J" unicode="J" horiz-adv-x="825" 
d="M662 412q-16 -112 -43.5 -188.5t-77 -133.5t-127.5 -83.5t-189 -26.5q-128 0 -248 32l48 273q7 -2 28 -7t35 -8.5t36.5 -6.5t43.5 -3q99 0 143 52.5t62 179.5l137 989h299z" />
    <glyph glyph-name="K" unicode="K" horiz-adv-x="1458" 
d="M1329 0h-325l-289 688l-252 -266l-57 -422h-310l205 1481h307l-92 -678l621 678h342l-518 -574z" />
    <glyph glyph-name="L" unicode="L" horiz-adv-x="1159" 
d="M301 1481h299l-168 -1229h631l-35 -252h-932z" />
    <glyph glyph-name="M" unicode="M" horiz-adv-x="1861" 
d="M96 0l205 1481h432l185 -1055l479 1055h430l-205 -1481h-301l156 1130l-502 -1130h-234l-190 1126l-154 -1126h-301z" />
    <glyph glyph-name="N" unicode="N" horiz-adv-x="1591" 
d="M1257 1481h297l-202 -1481h-271l-546 1018l-142 -1018h-297l205 1481h295l526 -981z" />
    <glyph glyph-name="O" unicode="O" horiz-adv-x="1558" 
d="M705 -20q-313 0 -465 201.5t-103 553.5q47 354 257.5 560t518.5 206t461.5 -205.5t104.5 -558.5q-49 -352 -257 -554.5t-517 -202.5zM739 225q165 0 272.5 123t141.5 385q37 268 -35.5 395t-236.5 127t-273.5 -128t-146.5 -394q-35 -261 39 -384.5t239 -123.5z" />
    <glyph glyph-name="P" unicode="P" horiz-adv-x="1325" 
d="M96 0l205 1481h537q247 0 384.5 -124t106.5 -351q-30 -217 -185 -335t-394 -118h-277l-76 -553h-301zM502 784h270q110 0 189 66t92 172q14 109 -49 169t-173 60h-266z" />
    <glyph glyph-name="Q" unicode="Q" horiz-adv-x="1544" 
d="M109 737q47 354 257 559t519 205q308 0 461 -205t104 -559q-56 -407 -328 -612q15 -62 75.5 -98.5t145.5 -38.5l-34 -240q-81 0 -139 8.5t-119 33.5t-112.5 75.5t-96.5 128.5q-98 -14 -168 -14q-311 0 -463.5 201t-101.5 556zM432 733q-36 -264 36.5 -386t242.5 -122
q169 0 273 122t140 388q73 520 -272 520q-347 0 -420 -522z" />
    <glyph glyph-name="R" unicode="R" horiz-adv-x="1415" 
d="M1229 0h-307l-158 569h-291l-80 -569h-297l205 1481h617q251 0 359.5 -119.5t80.5 -323.5q-12 -84 -41.5 -152.5t-73.5 -118t-91.5 -84t-107.5 -62.5zM772 801q114 0 191.5 63t91.5 166q13 101 -43.5 161t-157.5 60h-287l-63 -450h268z" />
    <glyph glyph-name="S" unicode="S" horiz-adv-x="1406" 
d="M639 -20q-206 0 -360.5 78t-212.5 214l229 146q44 -67 84 -104.5t107 -60t165 -22.5q129 0 212.5 39t94.5 125q9 57 -16.5 98.5t-110.5 69.5l-303 94q-159 49 -236.5 153.5t-58.5 244.5q27 194 198.5 320t424.5 126q174 0 307.5 -64.5t192.5 -183.5l-230 -147
q-25 37 -46.5 60.5t-56 48t-82 36t-110.5 11.5q-122 0 -192.5 -45.5t-81.5 -120.5q0 -16 -1 -32t7 -35t21.5 -36t42.5 -34.5t71 -30.5l297 -90q333 -105 291 -404q-29 -209 -203.5 -331.5t-443.5 -122.5z" />
    <glyph glyph-name="T" unicode="T" horiz-adv-x="1232" 
d="M129 1212l37 269h1167l-37 -269h-430l-166 -1212h-299l168 1212h-440z" />
    <glyph glyph-name="U" unicode="U" horiz-adv-x="1484" 
d="M1343 565q-20 -139 -66.5 -244t-125 -183t-197.5 -118t-276 -40q-158 0 -266.5 41t-164.5 118t-74.5 186.5t3.5 247.5l125 908h301l-125 -930q-24 -160 41 -239t195 -79q131 0 218 79t111 239l127 930h301z" />
    <glyph glyph-name="V" unicode="V" horiz-adv-x="1388" 
d="M1497 1481l-706 -1481h-338l-295 1481h284l230 -1133l540 1133h285z" />
    <glyph glyph-name="W" unicode="W" horiz-adv-x="1959" 
d="M2050 1481l-635 -1481h-237l-138 969l-407 -969h-232l-227 1481h291l137 -977l402 977h215l139 -977l401 977h291z" />
    <glyph glyph-name="X" unicode="X" horiz-adv-x="1421" 
d="M1307 0h-373l-252 532l-393 -532h-322l586 750l-367 731h371l221 -477l352 477h318l-545 -690z" />
    <glyph glyph-name="Y" unicode="Y" horiz-adv-x="1339" 
d="M1458 1481l-624 -858l-86 -623h-299l86 623l-388 858h320l252 -602l414 602h325z" />
    <glyph glyph-name="Z" unicode="Z" horiz-adv-x="1355" 
d="M25 0l22 145l887 1084h-688l35 252h1112l-19 -140l-901 -1087h741l-32 -254h-1157z" />
    <glyph glyph-name="bracketleft" unicode="[" horiz-adv-x="686" 
d="M37 -330l248 1811h465l-25 -170h-219l-203 -1471h219l-24 -170h-461z" />
    <glyph glyph-name="backslash" unicode="\" horiz-adv-x="763" 
d="M453 -37l-303 1518h196l303 -1518h-196z" />
    <glyph glyph-name="bracketright" unicode="]" horiz-adv-x="698" 
d="M-88 -330l22 170h222l204 1471h-221l25 170h461l-248 -1811h-465z" />
    <glyph glyph-name="asciicircum" unicode="^" horiz-adv-x="987" 
d="M666 250l-138 520l-280 -518h-215l426 762q25 45 64.5 59t74 -6.5t45.5 -67.5l213 -749h-190z" />
    <glyph glyph-name="underscore" unicode="_" horiz-adv-x="1124" 
d="M909 -66l-30 -217h-873l29 217h874z" />
    <glyph glyph-name="grave" unicode="`" horiz-adv-x="645" 
d="M223 1505l486 -219l-60 -123l-514 148z" />
    <glyph glyph-name="a" unicode="a" horiz-adv-x="1150" 
d="M352 -20q-154 0 -240 86t-65 237q23 174 164 261.5t418 94.5l129 7l8 59q11 77 -27.5 121.5t-117.5 44.5q-147 0 -242 -148l-234 29q64 142 199 223.5t315 81.5q230 0 322.5 -87t71.5 -247l-103 -743h-248v164q-59 -91 -149.5 -137.5t-200.5 -46.5zM479 176
q80 0 153 54.5t83 121.5l20 162l-104 -4q-60 -3 -106.5 -12.5t-89.5 -28.5t-70 -53.5t-33 -83.5q-10 -72 32 -114t115 -42z" />
    <glyph glyph-name="b" unicode="b" horiz-adv-x="1220" 
d="M625 -20q-107 0 -182 60t-103 140l-68 -180h-215l211 1520h297l-86 -617q55 77 145 125.5t191 48.5q131 0 215 -68.5t113 -189.5t6 -284q-36 -258 -174 -406.5t-350 -148.5zM578 180q101 0 172.5 85.5t97.5 273.5q45 335 -166 335q-172 0 -238 -215l-26 -213
q-18 -125 28 -195.5t132 -70.5z" />
    <glyph glyph-name="c" unicode="c" horiz-adv-x="1130" 
d="M668 1077q183 0 287.5 -103.5t109.5 -248.5l-262 -41q-30 100 -48 131q-39 64 -110 64q-105 0 -181.5 -97.5t-98.5 -253.5q-20 -158 31 -254t157 -96q39 0 72.5 15.5t60.5 47.5t43 57.5t39 68.5l242 -45q-47 -141 -181.5 -241.5t-314.5 -100.5q-222 0 -346.5 151
t-91.5 393q34 244 201 398.5t391 154.5z" />
    <glyph glyph-name="d" unicode="d" horiz-adv-x="1204" 
d="M436 -20q-207 0 -302 145t-60 403q36 254 166.5 401.5t326.5 147.5q201 0 273 -164l86 607h297l-211 -1520h-215l-13 174q-50 -77 -139 -135.5t-209 -58.5zM543 180q88 0 152 71.5t79 190.5l33 224q-6 112 -49 160t-119 48q-215 0 -262 -342q-50 -352 166 -352z" />
    <glyph glyph-name="e" unicode="e" horiz-adv-x="1175" 
d="M360 444q-17 -122 37 -196t162 -74q78 0 142 37.5t106 103.5l223 -59q-77 -134 -206 -205t-289 -71q-155 0 -267.5 65t-164.5 187.5t-29 283.5q16 118 67 221t128 178.5t180.5 118.5t220.5 43q156 0 260 -72t144.5 -195.5t17.5 -283.5l-13 -82h-719zM389 643h436
q16 114 -30 183t-152 69q-109 0 -175 -72.5t-79 -179.5z" />
    <glyph glyph-name="f" unicode="f" horiz-adv-x="794" 
d="M829 1057l-30 -207h-217l-117 -850h-299l117 850h-193l31 207h190l23 153q17 128 101.5 199.5t219.5 71.5h240l-27 -201h-133q-57 0 -83 -27t-34 -92l-14 -104h225z" />
    <glyph glyph-name="g" unicode="g" horiz-adv-x="1253" 
d="M481 -350q-275 0 -411.5 71t-120.5 189q10 65 64.5 110t148.5 78q10 4 13 8t0 8t-11 7q-102 59 -92 145q10 60 70.5 106.5t166.5 63.5q-97 50 -139 131.5t-29 173.5q14 103 91.5 179.5t193.5 114.5t256 38q99 0 165 -20t124 -58q7 -7 69 21q41 15 130.5 49.5t127.5 48.5
l-32 -229l-142 -19q-29 -4 -37 -14t-2 -31q6 -47 2 -78q-10 -68 -48.5 -130t-102.5 -111.5t-160 -79t-209 -29.5q-48 0 -102 4q-104 -5 -107 -43q-3 -24 33.5 -32t140.5 -15q109 -5 213 -12q189 -13 273.5 -94.5t66.5 -208.5q-21 -155 -179 -248.5t-425 -93.5zM600 559
q85 0 140.5 47.5t66.5 126.5q12 81 -30.5 133t-127.5 52t-142.5 -52t-68.5 -133q-11 -79 32.5 -126.5t129.5 -47.5zM553 -182q122 0 178 29t64 90q8 50 -28.5 79t-115.5 33l-231 17q-70 3 -119 -33t-55 -88q-10 -68 65 -97.5t242 -29.5z" />
    <glyph glyph-name="h" unicode="h" horiz-adv-x="1206" 
d="M57 0l211 1520h291l-92 -656q178 213 387 213q150 0 218 -82.5t48 -234.5l-104 -760h-299l100 717q9 68 -23 105.5t-102 37.5q-61 0 -114.5 -30t-120.5 -97l-103 -733h-297z" />
    <glyph glyph-name="i" unicode="i" horiz-adv-x="563" 
d="M578 1520l-43 -291h-304l41 291h306zM508 1057l-146 -1057h-296l145 1057h297z" />
    <glyph glyph-name="j" unicode="j" horiz-adv-x="589" 
d="M594 1520l-41 -291h-305l43 291h303zM381 8q-24 -176 -121.5 -262t-282.5 -86q-47 0 -79.5 7t-41.5 15l-8 7l29 200l80 9q64 9 91.5 34t35.5 78l143 1047h297z" />
    <glyph glyph-name="k" unicode="k" horiz-adv-x="1179" 
d="M1067 0h-295l-217 459l-158 -152l-43 -307h-297l211 1520h297l-119 -875l439 412h313l-436 -420z" />
    <glyph glyph-name="l" unicode="l" horiz-adv-x="659" 
d="M391 -14q-89 0 -150.5 19t-92.5 47t-44 72.5t-12.5 83.5t8.5 93l168 1219h293l-164 -1182q-9 -63 13.5 -98t85.5 -41l47 -4l-27 -185q-67 -24 -125 -24z" />
    <glyph glyph-name="m" unicode="m" horiz-adv-x="1841" 
d="M55 0l148 1057h291l-27 -191q158 213 381 213q117 0 179 -61.5t75 -165.5q109 129 204.5 177t192.5 48q135 0 205.5 -85.5t50.5 -235.5l-104 -756h-297l98 715q7 67 -29.5 106t-103.5 39q-61 0 -120 -35t-85 -82q-17 -46 -20 -61l-93 -682h-296l98 715q9 67 -28 106
t-105 39q-60 0 -117 -32.5t-98 -92.5l-101 -735h-299z" />
    <glyph glyph-name="n" unicode="n" horiz-adv-x="1208" 
d="M55 0l148 1057h293l-27 -191q91 106 184.5 158.5t200.5 52.5q144 0 215.5 -85t52.5 -228l-106 -764h-299l100 717q9 67 -29 105t-110 38q-64 0 -122.5 -32t-100.5 -91l-101 -737h-299z" />
    <glyph glyph-name="o" unicode="o" horiz-adv-x="1177" 
d="M510 -20q-232 0 -352 150.5t-86 391.5q34 248 199.5 401.5t394.5 153.5q234 0 354 -154.5t86 -398.5q-32 -240 -197 -392t-399 -152zM543 174q57 0 105 32t80 86t52 114.5t29 125.5q12 63 6.5 126.5t-22 114t-57 82.5t-97.5 32q-58 0 -106.5 -31.5t-80 -84t-52 -112.5
t-29.5 -127q-11 -62 -5.5 -125.5t22 -115t57 -84.5t98.5 -33z" />
    <glyph glyph-name="p" unicode="p" horiz-adv-x="1216" 
d="M10 -330l193 1387h297l-21 -146q56 68 143 117t197 49q181 0 273.5 -137.5t54.5 -400.5q-19 -141 -65.5 -249t-113 -175t-147 -101t-172.5 -34q-210 0 -276 161l-64 -471h-299zM569 180q105 0 178.5 88.5t100.5 272.5q43 333 -174 333q-93 0 -155 -63.5t-79 -183.5
l-30 -226q12 -221 159 -221z" />
    <glyph glyph-name="q" unicode="q" horiz-adv-x="1214" 
d="M977 -330h-299l59 443q-90 -75 -164.5 -104t-152.5 -29q-191 0 -286.5 140.5t-57.5 418.5q38 263 169 400.5t310 137.5q58 0 105.5 -12.5t83 -36.5t59 -47t49.5 -57l14 133h299zM555 180q153 0 221 221l33 226q17 120 -28 183.5t-138 63.5q-219 0 -264 -333
q-25 -184 23 -272.5t153 -88.5z" />
    <glyph glyph-name="r" unicode="r" horiz-adv-x="821" 
d="M55 0l148 1057h284l-34 -258q63 122 170 200t233 78l-39 -282q-92 8 -165.5 -8.5t-118.5 -51.5t-71 -77.5t-32 -90.5l-76 -567h-299z" />
    <glyph glyph-name="s" unicode="s" horiz-adv-x="1110" 
d="M483 -20q-175 0 -293 71t-157 182l198 97q34 -61 109 -103.5t174 -42.5q71 0 138 30t73 73q6 40 -30.5 65.5t-112.5 46.5l-164 39q-301 67 -268 293q19 155 154 250.5t341 95.5q161 0 262.5 -61.5t141.5 -161.5l-199 -92q-27 52 -89.5 83.5t-148.5 31.5q-76 0 -137 -30
t-67 -75q-4 -34 29 -55.5t126 -48.5l189 -52q82 -22 136.5 -57t78.5 -77t31 -81t1 -82q-23 -156 -166 -247.5t-350 -91.5z" />
    <glyph glyph-name="t" unicode="t" horiz-adv-x="874" 
d="M823 850h-237l-74 -559q-8 -56 8.5 -76t57.5 -20h159l-26 -181q-63 -26 -191 -26q-101 0 -168 20.5t-99 58t-43 90.5t1 117l78 576h-183l31 207h191l88 340h246l-48 -338h238z" />
    <glyph glyph-name="u" unicode="u" horiz-adv-x="1206" 
d="M393 -20q-141 2 -228.5 89.5t-66.5 231.5l105 758h297l-101 -721q-9 -71 26.5 -112.5t113.5 -41.5q68 0 120 33.5t99 99.5l102 742h299l-149 -1059h-224l-12 174q-86 -96 -187 -145t-194 -49z" />
    <glyph glyph-name="v" unicode="v" horiz-adv-x="1120" 
d="M1165 1057l-569 -1057h-217l-277 1057h297l164 -672l344 672h258z" />
    <glyph glyph-name="w" unicode="w" horiz-adv-x="1615" 
d="M1655 1057l-492 -1057h-229l-109 641l-284 -641h-234l-198 1057h278l113 -656l282 656h213l107 -656l287 656h266z" />
    <glyph glyph-name="x" unicode="x" horiz-adv-x="1185" 
d="M1077 0h-311l-199 344l-297 -344h-309l475 551l-297 506h314l172 -297l256 297h309l-436 -506z" />
    <glyph glyph-name="y" unicode="y" horiz-adv-x="1142" 
d="M174 -338q-64 0 -112 9t-64 19l-16 9l26 190l105 -4q50 -3 90.5 4t62 16.5t40.5 29t23 27t13 24.5l25 59l-265 1012h295l154 -688l346 688h291l-567 -1063q-55 -99 -109 -165.5t-110 -102t-109.5 -50t-118.5 -14.5z" />
    <glyph glyph-name="z" unicode="z" horiz-adv-x="1060" 
d="M-4 0l20 154l637 714h-495l26 189h867l-21 -150l-639 -714h547l-27 -193h-915z" />
    <glyph glyph-name="braceleft" unicode="{" horiz-adv-x="778" 
d="M457 -330q-82 0 -151 28.5t-108.5 88t-27.5 137.5l55 418q13 75 -36.5 120.5t-168.5 45.5l23 151q228 0 254 195l55 393q10 76 62.5 131t124 79t151.5 24h152l-25 -170h-80q-80 0 -111 -31t-36 -84l-58 -405q-9 -51 -33 -90t-57 -62t-67 -35.5t-72 -17.5q-23 0 -27 -8
q-1 -2 3 -3q40 -2 74.5 -14.5t65 -37.5t45 -70t7.5 -105l-70 -508h215l-26 -170h-133z" />
    <glyph glyph-name="bar" unicode="|" horiz-adv-x="555" 
d="M266 -330h-215l279 2020h217z" />
    <glyph glyph-name="braceright" unicode="}" horiz-adv-x="786" 
d="M-84 -330l23 170h81q78 0 110.5 32t37.5 83l57 405q12 67 51 113.5t82.5 65.5t94.5 26q24 0 29 9q2 3 -3 4q-88 5 -146 58t-46 167l69 508h-215l25 170h135q128 0 215.5 -68.5t73.5 -183.5l-60 -418q-13 -77 36 -122.5t169 -45.5l-22 -151q-226 0 -252 -195l-55 -393
q-11 -76 -63.5 -130.5t-123.5 -79t-151 -24.5h-152z" />
    <glyph glyph-name="asciitilde" unicode="~" horiz-adv-x="1251" 
d="M1151 752q-60 -80 -141.5 -122t-167.5 -42q-56 0 -109.5 19.5t-87.5 43t-79 43t-87 19.5q-72 0 -132 -41.5t-120 -112.5l-82 178q105 84 179 124t159 40q57 0 110 -19.5t86.5 -43t76.5 -43t84 -19.5q129 0 231 154z" />
    <glyph glyph-name="uni00A0" unicode="&#xa0;" horiz-adv-x="411" 
 />
    <glyph glyph-name="exclamdown" unicode="&#xa1;" horiz-adv-x="575" 
d="M475 737h-323l45 320h323zM340 -330h-350l211 930h184z" />
    <glyph glyph-name="cent" unicode="&#xa2;" horiz-adv-x="1161" 
d="M610 406q40 0 73 15t60.5 47.5t43 57t38.5 68.5l244 -45q-35 -102 -118.5 -186.5t-198.5 -124.5l-35 -238h-195l29 207q-213 8 -331.5 159t-86.5 386q32 237 192 390.5t377 162.5l25 176h197l-29 -205q106 -41 165 -129.5t64 -194.5l-264 -41q-30 100 -48 131
q-39 64 -110 64q-105 0 -181.5 -97.5t-98.5 -252.5q-20 -158 31 -254t157 -96z" />
    <glyph glyph-name="sterling" unicode="&#xa3;" horiz-adv-x="1316" 
d="M-33 0l33 248h63q76 0 131 50.5t74 135.5q19 66 19 260h-211l24 166h176l3 193q0 91 28 166.5t76 127t113 87t137 51.5t151 16q98 0 185 -30.5t156.5 -101t93.5 -171.5l-246 -72q-43 138 -152 138q-77 0 -137 -56t-66 -143q-4 -36 5 -203l297 -2l-35 -166h-262
q0 -152 -21 -223q-30 -134 -133 -221h233q90 0 149 39t97 123l256 -58q-65 -173 -195 -263.5t-304 -90.5h-738z" />
    <glyph glyph-name="currency" unicode="&#xa4;" horiz-adv-x="1177" 
d="M565 301q-136 0 -219 74q-20 3 -39 -21l-127 -112l-119 137l158 137q-66 115 -43 244q15 110 86 223q19 13 12 25l-110 125l133 116l106 -127q142 66 256 66q132 0 224 -76q21 3 30 21l119 104l119 -137l-145 -127q63 -107 43 -244q-16 -119 -93 -231q-4 1 -7.5 -3.5
t-0.5 -7.5l101 -118l-129 -115l-97 115q-133 -68 -258 -68zM567 498q106 0 192 79t101 183q11 95 -46.5 163t-154.5 68q-107 0 -191.5 -78.5t-98.5 -183.5q-12 -95 44.5 -163t153.5 -68z" />
    <glyph glyph-name="yen" unicode="&#xa5;" horiz-adv-x="1335" 
d="M1477 1481l-572 -768h258l-24 -164h-299l-23 -158h299l-22 -162h-299l-33 -229h-338l33 229h-305l26 162h301l21 158h-301l22 164h254l-354 768h368l248 -592l412 592h328z" />
    <glyph glyph-name="brokenbar" unicode="&#xa6;" horiz-adv-x="555" 
d="M430 856h-215l115 834h217zM266 -330h-215l115 834h219z" />
    <glyph glyph-name="section" unicode="&#xa7;" horiz-adv-x="1030" 
d="M762 424q82 -51 116 -115t21 -151q-19 -144 -143.5 -231t-327.5 -87q-167 0 -282.5 72.5t-149.5 179.5l158 72q48 -65 111 -102t161 -37q82 0 138.5 33t64.5 83q5 42 -22.5 76t-112.5 68l-140 57q-156 64 -218.5 142t-45.5 198q24 177 213 260q-152 96 -127 258
q19 131 137 216t297 85q149 0 256 -69.5t142 -167.5l-158 -72q-53 59 -106.5 93t-122.5 34q-76 0 -127 -31.5t-54 -81.5q-2 -36 18.5 -60t73.5 -48l148 -62q164 -67 229.5 -148.5t48.5 -205.5q-24 -162 -196 -258zM559 526q48 -2 91.5 28.5t56.5 76.5q27 113 -91 162
l-114 47q-55 -2 -103 -37.5t-61 -87.5q-5 -26 -3.5 -48.5t25.5 -46t72 -42.5z" />
    <glyph glyph-name="dieresis" unicode="&#xa8;" horiz-adv-x="747" 
d="M434 1481l-37 -258h-264l37 258h264zM829 1481l-36 -258h-263l35 258h264z" />
    <glyph glyph-name="copyright" unicode="&#xa9;" horiz-adv-x="1677" 
d="M768 -20q-155 0 -287 61.5t-219.5 165t-128 247.5t-18.5 302q21 152 98 290t189 237.5t256.5 158.5t295.5 59q154 0 286 -62t219.5 -166t128.5 -247.5t20 -300.5q-21 -153 -98.5 -291.5t-190 -237.5t-257 -157.5t-294.5 -58.5zM768 147q255 0 440.5 167.5t223.5 441.5
q35 260 -98.5 420.5t-377.5 160.5q-257 0 -442 -169.5t-223 -442.5q-36 -265 95.5 -421.5t381.5 -156.5zM913 1169q71 0 130 -23.5t96.5 -63t61 -85t32.5 -94.5l-195 -24q-7 28 -14.5 48t-20.5 41.5t-33 32.5t-46 11q-84 0 -144 -74t-78 -209q-18 -128 18.5 -191t117.5 -63
q65 0 112 37.5t92 108.5l158 -43q-19 -41 -49.5 -81.5t-77 -83t-113 -68.5t-141.5 -26q-179 0 -279.5 123t-74.5 316q28 183 153 297t295 114z" />
    <glyph glyph-name="ordfeminine" unicode="&#xaa;" horiz-adv-x="811" 
d="M346 813q-106 0 -158.5 55.5t-40.5 149.5q27 187 367 211l84 8l8 39q14 100 -84 100q-79 0 -143 -88l-182 45q49 86 123.5 126t201.5 40q154 -1 215.5 -59t48.5 -164l-61 -453h-170l-2 58q-63 -37 -108.5 -52.5t-98.5 -15.5zM414 934q47 0 98.5 38t58.5 81l13 80l-49 -7
q-195 -16 -201 -122q-3 -32 17 -51t63 -19z" />
    <glyph glyph-name="guillemotleft" unicode="&#xab;" horiz-adv-x="1013" 
d="M330 498l108 -367h-145l-193 393l285 389h174zM715 498l108 -367h-147l-193 393l287 389h172z" />
    <glyph glyph-name="logicalnot" unicode="&#xac;" horiz-adv-x="1193" 
d="M1116 854l-26 -182l-50 -344h-239l41 309l-711 -2l29 219h956z" />
    <glyph glyph-name="uni00AD" unicode="&#xad;" horiz-adv-x="798" 
d="M727 635l-33 -217h-551l29 217h555z" />
    <glyph glyph-name="registered" unicode="&#xae;" horiz-adv-x="1118" 
d="M555 549q-196 0 -312.5 138.5t-88.5 336.5q17 129 94 239t193.5 174t244.5 64q127 0 226 -64t147 -174t31 -239q-28 -198 -184.5 -336.5t-350.5 -138.5zM573 668q153 0 259 96t131 260q20 161 -60.5 258.5t-232.5 97.5q-155 0 -260.5 -97t-128.5 -259q-23 -164 56 -260
t236 -96zM399 786l64 471h219q85 0 127.5 -33.5t34.5 -93.5q-13 -88 -113 -124l62 -220h-127l-41 205h-80l-31 -205h-115zM555 1073h96q27 0 47 13.5t23 37.5q3 23 -13 37.5t-49 14.5h-92z" />
    <glyph glyph-name="macron" unicode="&#xaf;" horiz-adv-x="800" 
d="M881 1468l-27 -192h-713l27 192h713z" />
    <glyph glyph-name="degree" unicode="&#xb0;" horiz-adv-x="962" 
d="M930 1352q-20 -145 -126 -236.5t-247 -91.5q-152 0 -237.5 101.5t-63.5 258.5q20 144 125 235t248 91q150 0 236.5 -101.5t64.5 -256.5zM754 1382q9 70 -25.5 113t-103.5 43q-77 0 -133.5 -54t-67.5 -134q-8 -72 27 -115t104 -43q77 0 132.5 54t66.5 136z" />
    <glyph glyph-name="plusminus" unicode="&#xb1;" horiz-adv-x="1196" 
d="M770 1028h369l-31 -217h-367l-53 -375h-217l53 375h-368l28 215h369l53 375h217zM53 74l29 215l954 2l-30 -217h-953z" />
    <glyph glyph-name="uni00B2" unicode="&#xb2;" horiz-adv-x="788" 
d="M74 786l18 140l324 264q133 104 177 153.5t50 104.5q9 60 -26 93.5t-95 33.5q-135 0 -223 -133l-133 67q159 222 389 222q150 0 228 -76.5t59 -204.5q-11 -73 -55.5 -132t-153.5 -155l-254 -219h401l-20 -158h-686z" />
    <glyph glyph-name="uni00B3" unicode="&#xb3;" horiz-adv-x="790" 
d="M236 1585q54 64 152 105t198 41q149 0 234 -68t71 -176q-20 -142 -199 -203q81 -24 130 -82.5t36 -146.5q-18 -127 -141.5 -204t-274.5 -77q-110 0 -200 47t-133 127l145 96q52 -66 99.5 -93t119.5 -27q77 0 125.5 35t56.5 92q10 62 -34.5 99.5t-118.5 39.5l-127 2
l20 147l107 4q75 3 126.5 39.5t59.5 92.5q6 45 -30 76.5t-95 31.5q-63 0 -114 -24.5t-113 -81.5z" />
    <glyph glyph-name="acute" unicode="&#xb4;" horiz-adv-x="641" 
d="M668 1507l45 -202l-547 -142l-29 135z" />
    <glyph glyph-name="uni00B5" unicode="&#xb5;" horiz-adv-x="1204" 
d="M10 -330l193 1387h299l-103 -733q-9 -58 24 -92.5t87 -34.5q22 0 42.5 3.5t41 12.5t34.5 15.5t35 22.5t29.5 23t32 27t29.5 25l104 731h301l-151 -1057h-293l26 170q-77 -82 -136 -123.5t-124 -54.5q-100 -15 -129 -6l-45 -316h-297z" />
    <glyph glyph-name="paragraph" unicode="&#xb6;" horiz-adv-x="1208" 
d="M1202 1311h-127l-205 -1481h-182l205 1481h-115l-209 -1481h-180l111 788q-177 9 -279.5 127.5t-75.5 311.5q13 88 53.5 164t105.5 134.5t159 92t205 33.5h557z" />
    <glyph glyph-name="periodcentered" unicode="&#xb7;" horiz-adv-x="538" 
d="M461 893l-39 -295h-303l41 295h301z" />
    <glyph glyph-name="cedilla" unicode="&#xb8;" horiz-adv-x="555" 
d="M391 -285q-10 -71 -81.5 -111t-168.5 -40q-153 0 -235 76l41 69q88 -39 149 -39q50 0 83.5 22t39.5 58q5 36 -28 51.5t-121 16.5q-19 0 -26.5 7t-2.5 19l96 166h135l-55 -121q100 -1 142 -53t32 -121z" />
    <glyph glyph-name="uni00B9" unicode="&#xb9;" horiz-adv-x="628" 
d="M201 778l98 721l-170 -47l18 129l271 129h100l-129 -932h-188z" />
    <glyph glyph-name="ordmasculine" unicode="&#xba;" horiz-adv-x="802" 
d="M522 1501q155 0 235.5 -102t57.5 -262q-19 -144 -118 -233t-244 -89q-153 0 -233.5 99t-59.5 255q22 149 122.5 240.5t239.5 91.5zM528 1372q-70 0 -114.5 -59t-59.5 -170q-15 -102 7 -150.5t85 -48.5q72 0 118 59.5t61 172.5q12 99 -11.5 147.5t-85.5 48.5z" />
    <glyph glyph-name="guillemotright" unicode="&#xbb;" horiz-adv-x="1013" 
d="M285 524l-109 389h148l188 -415l-283 -367h-170zM668 524l-109 389h148l190 -415l-283 -367h-172z" />
    <glyph glyph-name="onequarter" unicode="&#xbc;" horiz-adv-x="1986" 
d="M172 565l98 721l-170 -47l19 129l270 129h100l-129 -932h-188zM1581 1497l-1190 -1505l-192 2l1192 1503h190zM1636 932h187l-78 -563h135l-20 -148h-136l-30 -221h-189l31 221h-412l21 144zM1305 369h254l49 356z" />
    <glyph glyph-name="onehalf" unicode="&#xbd;" horiz-adv-x="1923" 
d="M172 565l98 721l-170 -47l19 129l270 129h100l-129 -932h-188zM1581 1497l-1190 -1505l-192 2l1192 1503h190zM1096 0l20 139l322 264q132 103 177 153.5t52 105.5q7 60 -28 93t-95 33q-135 0 -223 -133l-133 68q82 114 177 167.5t214 53.5q149 0 226.5 -76t58.5 -204
q-10 -73 -54.5 -132t-154.5 -155l-254 -219h403l-22 -158h-686z" />
    <glyph glyph-name="threequarters" unicode="&#xbe;" horiz-adv-x="2181" 
d="M205 1370q54 64 152 105t198 41q149 0 234 -68t71 -176q-20 -143 -198 -203q81 -24 129.5 -82.5t35.5 -146.5q-12 -85 -76 -150.5t-153 -98t-186 -32.5q-110 0 -200.5 47t-133.5 127l145 96q52 -66 99.5 -93t119.5 -27q77 0 126 35t57 92q10 62 -35 99.5t-119 39.5
l-127 2l21 147l106 4q75 3 126.5 39.5t59.5 92.5q6 45 -30 76.5t-95 31.5q-63 0 -114 -24.5t-113 -81.5zM1776 1497l-1190 -1505l-193 2l1192 1503h191zM1831 932h186l-78 -563h136l-21 -148h-135l-31 -221h-188l31 221h-412l20 144zM1499 369h254l49 356z" />
    <glyph glyph-name="questiondown" unicode="&#xbf;" horiz-adv-x="1110" 
d="M440 737l45 320h326l-45 -320h-326zM995 -18q-88 -161 -231.5 -246.5t-327.5 -85.5q-232 0 -346.5 104t-93.5 262q9 63 37.5 116t68 90.5t86 70.5t92 65t84.5 66t66.5 81t34.5 103h237q-8 -69 -34 -128.5t-61 -102.5t-76 -81.5t-81 -72t-74 -66.5t-58 -73.5t-29 -85.5
q-9 -61 35 -98t120 -37q85 0 165.5 51.5t121.5 134.5z" />
    <glyph glyph-name="Agrave" unicode="&#xc0;" horiz-adv-x="1456" 
d="M707 1929l485 -219l-59 -123l-515 148zM-23 0l728 1481h313l315 -1481h-297l-69 344h-523l-170 -344h-297zM547 604h385l-113 588z" />
    <glyph glyph-name="Aacute" unicode="&#xc1;" horiz-adv-x="1456" 
d="M1159 1931l45 -202l-547 -142l-28 135zM-23 0l728 1481h313l315 -1481h-297l-69 344h-523l-170 -344h-297zM547 604h385l-113 588z" />
    <glyph glyph-name="Acircumflex" unicode="&#xc2;" horiz-adv-x="1456" 
d="M1044 1642l-114 156l-170 -156h-232l301 277h201l225 -277h-211zM-23 0l728 1481h313l315 -1481h-297l-69 344h-523l-170 -344h-297zM547 604h385l-113 588z" />
    <glyph glyph-name="Atilde" unicode="&#xc3;" horiz-adv-x="1456" 
d="M1272 1726q-96 -51 -203 -51q-61 0 -148.5 29t-132.5 29q-27 0 -51 -7t-38 -15t-39.5 -24.5t-41.5 -25.5l-36 172q51 35 95 52.5t101 17.5q64 0 157.5 -31t131.5 -31q46 0 108.5 33t77.5 37zM-23 0l728 1481h313l315 -1481h-297l-69 344h-523l-170 -344h-297zM547 604
h385l-113 588z" />
    <glyph glyph-name="Adieresis" unicode="&#xc4;" horiz-adv-x="1456" 
d="M872 1905l-36 -258h-265l37 258h264zM1268 1905l-37 -258h-262l35 258h264zM-23 0l728 1481h313l315 -1481h-297l-69 344h-523l-170 -344h-297zM547 604h385l-113 588z" />
    <glyph glyph-name="Aring" unicode="&#xc5;" horiz-adv-x="1456" 
d="M1143 1790q-12 -89 -80 -147t-156 -58q-97 0 -154.5 70.5t-43.5 171.5q12 84 80 141t155 57q96 0 154 -68.5t45 -166.5zM1026 1821q6 39 -15.5 61.5t-60.5 22.5q-46 0 -86 -33.5t-47 -83.5q-3 -35 21 -60.5t59 -25.5q46 0 84.5 36t44.5 83zM-23 0l728 1481h313l315 -1481
h-297l-69 344h-523l-170 -344h-297zM547 604h385l-113 588z" />
    <glyph glyph-name="AE" unicode="&#xc6;" horiz-adv-x="2177" 
d="M2015 250l-33 -250h-1050l47 346h-459l-229 -346h-314l988 1481h1200l-35 -250h-692l-47 -363h471l-39 -247h-467l-49 -371h708zM1016 604l90 660l-440 -660h350z" />
    <glyph glyph-name="Ccedilla" unicode="&#xc7;" horiz-adv-x="1462" 
d="M879 1255q-158 0 -267.5 -123.5t-146.5 -383.5q-34 -262 40 -392.5t234 -130.5q113 0 197.5 75.5t126.5 197.5l293 -27q-27 -102 -74 -185t-118.5 -150.5t-176 -107t-235.5 -46.5l-41 -93q100 -1 142 -53t32 -121q-10 -71 -81.5 -111t-168.5 -40q-154 0 -236 76l43 69
q84 -39 148 -39q50 0 83.5 22t39.5 58q5 36 -28.5 51.5t-121.5 16.5q-18 0 -25.5 7t-2.5 19l81 140q-265 29 -392.5 237t-84.5 531q50 346 253.5 547.5t508.5 201.5q247 0 393 -136t138 -353l-302 -21q-5 121 -67.5 192.5t-183.5 71.5z" />
    <glyph glyph-name="Egrave" unicode="&#xc8;" horiz-adv-x="1304" 
d="M635 1929l485 -219l-59 -123l-514 148zM96 0l205 1481h1002l-37 -254h-701l-51 -359h610l-32 -247h-613l-49 -365l715 -2l-37 -254h-1012z" />
    <glyph glyph-name="Eacute" unicode="&#xc9;" horiz-adv-x="1304" 
d="M1087 1931l46 -202l-547 -142l-29 135zM96 0l205 1481h1002l-37 -254h-701l-51 -359h610l-32 -247h-613l-49 -365l715 -2l-37 -254h-1012z" />
    <glyph glyph-name="Ecircumflex" unicode="&#xca;" horiz-adv-x="1304" 
d="M973 1642l-115 156l-170 -156h-231l301 277h200l226 -277h-211zM96 0l205 1481h1002l-37 -254h-701l-51 -359h610l-32 -247h-613l-49 -365l715 -2l-37 -254h-1012z" />
    <glyph glyph-name="Edieresis" unicode="&#xcb;" horiz-adv-x="1304" 
d="M803 1905l-37 -258h-264l37 258h264zM1198 1905l-37 -258h-262l35 258h264zM96 0l205 1481h1002l-37 -254h-701l-51 -359h610l-32 -247h-613l-49 -365l715 -2l-37 -254h-1012z" />
    <glyph glyph-name="Igrave" unicode="&#xcc;" horiz-adv-x="632" 
d="M274 1929l486 -219l-60 -123l-514 148zM299 1481h295l-203 -1481h-299z" />
    <glyph glyph-name="Iacute" unicode="&#xcd;" horiz-adv-x="630" 
d="M731 1931l43 -202l-545 -142l-30 135zM301 1481h297l-205 -1481h-297z" />
    <glyph glyph-name="Icircumflex" unicode="&#xce;" horiz-adv-x="628" 
d="M616 1642l-112 156l-170 -156h-232l299 277h203l225 -277h-213zM303 1481h297l-203 -1481h-299z" />
    <glyph glyph-name="Idieresis" unicode="&#xcf;" horiz-adv-x="636" 
d="M446 1905l-36 -258h-265l37 258h264zM842 1905l-37 -258h-264l37 258h264zM303 1481h297l-205 -1481h-299z" />
    <glyph glyph-name="Eth" unicode="&#xd0;" horiz-adv-x="1468" 
d="M745 1479q195 -5 333 -57.5t215.5 -148.5t103.5 -227.5t4 -300.5q-49 -354 -268 -549.5t-603 -195.5h-428l86 621h-104l29 221h106l90 639q311 0 436 -2zM1092 748q63 491 -379 491h-138l-55 -397h336l-29 -221h-338l-51 -379h133q97 0 179.5 27.5t153.5 85t120 157.5
t68 236z" />
    <glyph glyph-name="Ntilde" unicode="&#xd1;" horiz-adv-x="1591" 
d="M1331 1726q-100 -51 -203 -51q-61 0 -148 29t-132 29q-35 0 -59 -8.5t-60.5 -32t-52.5 -31.5l-35 172q50 34 94.5 52t100.5 18q65 0 158 -31t132 -31q46 0 109 33t78 37zM1257 1481h297l-202 -1481h-271l-546 1018l-142 -1018h-297l205 1481h295l526 -981z" />
    <glyph glyph-name="Ograve" unicode="&#xd2;" horiz-adv-x="1558" 
d="M727 1929l485 -219l-59 -123l-514 148zM705 -20q-313 0 -465 201.5t-103 553.5q47 354 257.5 560t518.5 206t461.5 -205.5t104.5 -558.5q-49 -352 -257 -554.5t-517 -202.5zM739 225q165 0 272.5 123t141.5 385q37 268 -35.5 395t-236.5 127t-273.5 -128t-146.5 -394
q-35 -261 39 -384.5t239 -123.5z" />
    <glyph glyph-name="Oacute" unicode="&#xd3;" horiz-adv-x="1558" 
d="M1180 1931l43 -202l-545 -142l-31 135zM705 -20q-313 0 -465 201.5t-103 553.5q47 354 257.5 560t518.5 206t461.5 -205.5t104.5 -558.5q-49 -352 -257 -554.5t-517 -202.5zM739 225q165 0 272.5 123t141.5 385q37 268 -35.5 395t-236.5 127t-273.5 -128t-146.5 -394
q-35 -261 39 -384.5t239 -123.5z" />
    <glyph glyph-name="Ocircumflex" unicode="&#xd4;" horiz-adv-x="1558" 
d="M1063 1642l-113 156l-172 -156h-231l301 277h203l223 -277h-211zM705 -20q-313 0 -465 201.5t-103 553.5q47 354 257.5 560t518.5 206t461.5 -205.5t104.5 -558.5q-49 -352 -257 -554.5t-517 -202.5zM739 225q165 0 272.5 123t141.5 385q37 268 -35.5 395t-236.5 127
t-273.5 -128t-146.5 -394q-35 -261 39 -384.5t239 -123.5z" />
    <glyph glyph-name="Otilde" unicode="&#xd5;" horiz-adv-x="1558" 
d="M1294 1726q-100 -51 -204 -51q-61 0 -147.5 29t-131.5 29q-35 0 -59.5 -8.5t-60.5 -31.5t-52 -32l-35 172q50 34 94.5 52t100.5 18q65 0 158.5 -31t132.5 -31q46 0 108.5 33t77.5 37zM705 -20q-313 0 -465 201.5t-103 553.5q47 354 257.5 560t518.5 206t461.5 -205.5
t104.5 -558.5q-49 -352 -257 -554.5t-517 -202.5zM739 225q165 0 272.5 123t141.5 385q37 268 -35.5 395t-236.5 127t-273.5 -128t-146.5 -394q-35 -261 39 -384.5t239 -123.5z" />
    <glyph glyph-name="Odieresis" unicode="&#xd6;" horiz-adv-x="1558" 
d="M895 1905l-37 -258h-264l37 258h264zM1290 1905l-37 -258h-264l37 258h264zM705 -20q-313 0 -465 201.5t-103 553.5q47 354 257.5 560t518.5 206t461.5 -205.5t104.5 -558.5q-49 -352 -257 -554.5t-517 -202.5zM739 225q165 0 272.5 123t141.5 385q37 268 -35.5 395
t-236.5 127t-273.5 -128t-146.5 -394q-35 -261 39 -384.5t239 -123.5z" />
    <glyph glyph-name="multiply" unicode="&#xd7;" horiz-adv-x="1181" 
d="M1124 1051l-358 -318l268 -313l-164 -146l-266 314l-354 -314l-139 166l352 314l-268 317l161 143l269 -315l354 315z" />
    <glyph glyph-name="Oslash" unicode="&#xd8;" horiz-adv-x="1568" 
d="M115 -31l-125 148l196 172q-85 195 -47 463q49 348 254 548.5t510 200.5q137 0 246.5 -45.5t181.5 -126.5l182 178l125 -145l-206 -182q83 -195 45 -459q-47 -346 -251.5 -543.5t-510.5 -197.5q-271 0 -426 161zM489 547l619 590q-55 127 -215 127q-156 0 -252 -119
t-139 -367q-21 -132 -13 -231zM727 221q161 0 256.5 120t136.5 378q17 126 6 205l-616 -590q56 -113 217 -113z" />
    <glyph glyph-name="Ugrave" unicode="&#xd9;" horiz-adv-x="1484" 
d="M688 1929l488 -219l-60 -123l-516 148zM1343 565q-20 -139 -66.5 -244t-125 -183t-197.5 -118t-276 -40q-158 0 -266.5 41t-164.5 118t-74.5 186.5t3.5 247.5l125 908h301l-125 -930q-24 -160 41 -239t195 -79q131 0 218 79t111 239l127 930h301z" />
    <glyph glyph-name="Uacute" unicode="&#xda;" horiz-adv-x="1484" 
d="M1143 1931l45 -202l-545 -142l-31 135zM1343 565q-20 -139 -66.5 -244t-125 -183t-197.5 -118t-276 -40q-158 0 -266.5 41t-164.5 118t-74.5 186.5t3.5 247.5l125 908h301l-125 -930q-24 -160 41 -239t195 -79q131 0 218 79t111 239l127 930h301z" />
    <glyph glyph-name="Ucircumflex" unicode="&#xdb;" horiz-adv-x="1484" 
d="M1028 1642l-113 156l-172 -156h-231l301 277h203l223 -277h-211zM1343 565q-20 -139 -66.5 -244t-125 -183t-197.5 -118t-276 -40q-158 0 -266.5 41t-164.5 118t-74.5 186.5t3.5 247.5l125 908h301l-125 -930q-24 -160 41 -239t195 -79q131 0 218 79t111 239l127 930h301
z" />
    <glyph glyph-name="Udieresis" unicode="&#xdc;" horiz-adv-x="1484" 
d="M860 1905l-37 -258h-264l37 258h264zM1255 1905l-36 -258h-265l37 258h264zM1343 565q-20 -139 -66.5 -244t-125 -183t-197.5 -118t-276 -40q-158 0 -266.5 41t-164.5 118t-74.5 186.5t3.5 247.5l125 908h301l-125 -930q-24 -160 41 -239t195 -79q131 0 218 79t111 239
l127 930h301z" />
    <glyph glyph-name="Yacute" unicode="&#xdd;" horiz-adv-x="1339" 
d="M1112 1931l45 -202l-547 -142l-28 135zM1458 1481l-624 -858l-86 -623h-299l86 623l-388 858h320l252 -602l414 602h325z" />
    <glyph glyph-name="Thorn" unicode="&#xde;" horiz-adv-x="1437" 
d="M1403 737q-29 -207 -186.5 -318.5t-397.5 -111.5h-344l-41 -307h-338l205 1481h338l-39 -287h289q121 0 220.5 -28.5t171 -84t104.5 -144t18 -200.5zM1063 774q12 89 -45.5 132.5t-167.5 43.5h-283l-57 -397h283q108 0 181.5 59t88.5 162z" />
    <glyph glyph-name="germandbls" unicode="&#xdf;" horiz-adv-x="1325" 
d="M809 1481q203 0 301.5 -87t79.5 -235q-13 -98 -81 -160.5t-212 -124.5q-71 -27 -76 -67q-1 -14 7.5 -22t35.5 -23q69 -27 112 -47t100 -58.5t87 -80t47.5 -106t6.5 -142.5q-23 -169 -149 -258.5t-316 -89.5q-173 0 -267 90l90 143q6 -2 27 -10t32.5 -11.5t31.5 -9t39 -8
t40 -2.5q80 0 136.5 42.5t68.5 115.5q8 57 -26 87.5t-118 69.5q-13 6 -20 9q-213 81 -188 272q10 67 48 117.5t108 105.5l24 16t26 17.5t23 16t24 18.5t19.5 18.5t19 22t13.5 23t11.5 27t5.5 28.5q8 50 -25 79t-102 29q-99 0 -165 -62t-81 -165l-148 -1059h-290l112 805
h-123l29 205h121q15 97 53 179t103.5 149t169 105t235.5 38z" />
    <glyph glyph-name="agrave" unicode="&#xe0;" horiz-adv-x="1150" 
d="M492 1505l485 -219l-57 -123l-517 148zM352 -20q-154 0 -240 86t-65 237q23 174 164 261.5t418 94.5l129 7l8 59q11 77 -27.5 121.5t-117.5 44.5q-147 0 -242 -148l-234 29q64 142 199 223.5t315 81.5q230 0 322.5 -87t71.5 -247l-103 -743h-248v164
q-59 -91 -149.5 -137.5t-200.5 -46.5zM479 176q80 0 153 54.5t83 121.5l20 162l-104 -4q-60 -3 -106.5 -12.5t-89.5 -28.5t-70 -53.5t-33 -83.5q-10 -72 32 -114t115 -42z" />
    <glyph glyph-name="aacute" unicode="&#xe1;" horiz-adv-x="1150" 
d="M944 1507l45 -202l-547 -142l-28 135zM352 -20q-154 0 -240 86t-65 237q23 174 164 261.5t418 94.5l129 7l8 59q11 77 -27.5 121.5t-117.5 44.5q-147 0 -242 -148l-234 29q64 142 199 223.5t315 81.5q230 0 322.5 -87t71.5 -247l-103 -743h-248v164
q-59 -91 -149.5 -137.5t-200.5 -46.5zM479 176q80 0 153 54.5t83 121.5l20 162l-104 -4q-60 -3 -106.5 -12.5t-89.5 -28.5t-70 -53.5t-33 -83.5q-10 -72 32 -114t115 -42z" />
    <glyph glyph-name="acircumflex" unicode="&#xe2;" horiz-adv-x="1150" 
d="M827 1219l-112 155l-170 -155h-232l299 276h203l225 -276h-213zM352 -20q-154 0 -240 86t-65 237q23 174 164 261.5t418 94.5l129 7l8 59q11 77 -27.5 121.5t-117.5 44.5q-147 0 -242 -148l-234 29q64 142 199 223.5t315 81.5q230 0 322.5 -87t71.5 -247l-103 -743h-248
v164q-59 -91 -149.5 -137.5t-200.5 -46.5zM479 176q80 0 153 54.5t83 121.5l20 162l-104 -4q-60 -3 -106.5 -12.5t-89.5 -28.5t-70 -53.5t-33 -83.5q-10 -72 32 -114t115 -42z" />
    <glyph glyph-name="atilde" unicode="&#xe3;" horiz-adv-x="1150" 
d="M1059 1303q-98 -52 -203 -52q-61 0 -148.5 29t-132.5 29q-27 0 -50.5 -7t-38 -15t-39.5 -24.5t-41 -25.5l-37 172q51 35 95 52.5t101 17.5q64 0 157.5 -31t131.5 -31q46 0 108.5 33t77.5 37zM352 -20q-154 0 -240 86t-65 237q23 174 164 261.5t418 94.5l129 7l8 59
q11 77 -27.5 121.5t-117.5 44.5q-147 0 -242 -148l-234 29q64 142 199 223.5t315 81.5q230 0 322.5 -87t71.5 -247l-103 -743h-248v164q-59 -91 -149.5 -137.5t-200.5 -46.5zM479 176q80 0 153 54.5t83 121.5l20 162l-104 -4q-60 -3 -106.5 -12.5t-89.5 -28.5t-70 -53.5
t-33 -83.5q-10 -72 32 -114t115 -42z" />
    <glyph glyph-name="adieresis" unicode="&#xe4;" horiz-adv-x="1150" 
d="M659 1481l-36 -258h-265l37 258h264zM1055 1481l-37 -258h-262l35 258h264zM352 -20q-154 0 -240 86t-65 237q23 174 164 261.5t418 94.5l129 7l8 59q11 77 -27.5 121.5t-117.5 44.5q-147 0 -242 -148l-234 29q64 142 199 223.5t315 81.5q230 0 322.5 -87t71.5 -247
l-103 -743h-248v164q-59 -91 -149.5 -137.5t-200.5 -46.5zM479 176q80 0 153 54.5t83 121.5l20 162l-104 -4q-60 -3 -106.5 -12.5t-89.5 -28.5t-70 -53.5t-33 -83.5q-10 -72 32 -114t115 -42z" />
    <glyph glyph-name="aring" unicode="&#xe5;" horiz-adv-x="1150" 
d="M928 1366q-12 -89 -80 -147t-156 -58q-97 0 -154.5 70.5t-43.5 171.5q10 84 78.5 141.5t154.5 57.5q97 0 155.5 -69t45.5 -167zM811 1397q6 37 -16 60.5t-60 23.5q-46 0 -86 -33.5t-47 -83.5q-3 -35 20 -60.5t60 -25.5q46 0 83.5 36t45.5 83zM352 -20q-154 0 -240 86
t-65 237q23 174 164 261.5t418 94.5l129 7l8 59q11 77 -27.5 121.5t-117.5 44.5q-147 0 -242 -148l-234 29q64 142 199 223.5t315 81.5q230 0 322.5 -87t71.5 -247l-103 -743h-248v164q-59 -91 -149.5 -137.5t-200.5 -46.5zM479 176q80 0 153 54.5t83 121.5l20 162l-104 -4
q-60 -3 -106.5 -12.5t-89.5 -28.5t-70 -53.5t-33 -83.5q-10 -72 32 -114t115 -42z" />
    <glyph glyph-name="ae" unicode="&#xe6;" horiz-adv-x="1867" 
d="M1042 471q-13 -126 47.5 -206.5t161.5 -80.5q81 0 144 37t137 115l201 -94q-115 -143 -237.5 -202.5t-289.5 -59.5q-134 0 -230 55t-153 141q-6 1 -13.5 -7t-10.5 -19q-98 -82 -204 -126t-245 -44q-163 0 -243.5 87t-59.5 230q22 154 166.5 243.5t413.5 104.5l141 10
l10 72q16 84 -28.5 123t-120.5 39q-129 0 -226 -146l-270 68q81 136 201 201t317 65q270 -3 344 -129q140 129 338 129q232 0 356 -160.5t80 -443.5zM1333 891q-98 0 -172.5 -70.5t-91.5 -189.5h457q11 103 -45.5 181.5t-147.5 78.5zM745 498l-104 -9q-116 -10 -204 -63.5
t-99 -140.5q-8 -58 25.5 -89t105.5 -30q93 3 168.5 53.5t85.5 118.5z" />
    <glyph glyph-name="ccedilla" unicode="&#xe7;" horiz-adv-x="1130" 
d="M553 178q39 0 72.5 15.5t60.5 47.5t43 57.5t39 68.5l242 -45q-42 -126 -155.5 -221.5t-268.5 -116.5l-43 -95q100 -1 142 -53t32 -121q-10 -71 -81.5 -111t-168.5 -40q-154 0 -236 76l43 69q84 -39 148 -39q50 0 83.5 22t39.5 58q5 36 -28.5 51.5t-121.5 16.5
q-18 0 -25.5 7t-2.5 19l82 140q-195 24 -299 170.5t-74 369.5q34 244 201 398.5t391 154.5q183 0 287.5 -103.5t109.5 -248.5l-262 -41q-30 100 -48 131q-39 64 -110 64q-105 0 -181.5 -97.5t-98.5 -253.5q-20 -158 31 -254t157 -96z" />
    <glyph glyph-name="egrave" unicode="&#xe8;" horiz-adv-x="1175" 
d="M498 1505l485 -219l-57 -123l-516 148zM360 444q-17 -122 37 -196t162 -74q78 0 142 37.5t106 103.5l223 -59q-77 -134 -206 -205t-289 -71q-155 0 -267.5 65t-164.5 187.5t-29 283.5q16 118 67 221t128 178.5t180.5 118.5t220.5 43q156 0 260 -72t144.5 -195.5
t17.5 -283.5l-13 -82h-719zM389 643h436q16 114 -30 183t-152 69q-109 0 -175 -72.5t-79 -179.5z" />
    <glyph glyph-name="eacute" unicode="&#xe9;" horiz-adv-x="1175" 
d="M950 1507l43 -202l-544 -142l-31 135zM360 444q-17 -122 37 -196t162 -74q78 0 142 37.5t106 103.5l223 -59q-77 -134 -206 -205t-289 -71q-155 0 -267.5 65t-164.5 187.5t-29 283.5q16 118 67 221t128 178.5t180.5 118.5t220.5 43q156 0 260 -72t144.5 -195.5
t17.5 -283.5l-13 -82h-719zM389 643h436q16 114 -30 183t-152 69q-109 0 -175 -72.5t-79 -179.5z" />
    <glyph glyph-name="ecircumflex" unicode="&#xea;" horiz-adv-x="1175" 
d="M834 1219l-113 155l-170 -155h-232l299 276h203l226 -276h-213zM360 444q-17 -122 37 -196t162 -74q78 0 142 37.5t106 103.5l223 -59q-77 -134 -206 -205t-289 -71q-155 0 -267.5 65t-164.5 187.5t-29 283.5q16 118 67 221t128 178.5t180.5 118.5t220.5 43
q156 0 260 -72t144.5 -195.5t17.5 -283.5l-13 -82h-719zM389 643h436q16 114 -30 183t-152 69q-109 0 -175 -72.5t-79 -179.5z" />
    <glyph glyph-name="edieresis" unicode="&#xeb;" horiz-adv-x="1175" 
d="M666 1481l-37 -258h-264l36 258h265zM1061 1481l-37 -258h-264l37 258h264zM360 444q-17 -122 37 -196t162 -74q78 0 142 37.5t106 103.5l223 -59q-77 -134 -206 -205t-289 -71q-155 0 -267.5 65t-164.5 187.5t-29 283.5q16 118 67 221t128 178.5t180.5 118.5t220.5 43
q156 0 260 -72t144.5 -195.5t17.5 -283.5l-13 -82h-719zM389 643h436q16 114 -30 183t-152 69q-109 0 -175 -72.5t-79 -179.5z" />
    <glyph glyph-name="igrave" unicode="&#xec;" horiz-adv-x="548" 
d="M178 1505l486 -219l-60 -123l-514 148zM489 1057l-147 -1057h-299l147 1057h299z" />
    <glyph glyph-name="iacute" unicode="&#xed;" horiz-adv-x="544" 
d="M633 1507l45 -202l-545 -142l-31 135zM492 1057l-148 -1057h-297l146 1057h299z" />
    <glyph glyph-name="icircumflex" unicode="&#xee;" horiz-adv-x="544" 
d="M524 1219l-112 155l-170 -155h-232l299 276h203l225 -276h-213zM500 1057l-148 -1057h-297l146 1057h299z" />
    <glyph glyph-name="idieresis" unicode="&#xef;" horiz-adv-x="555" 
d="M352 1481l-37 -258h-264l37 258h264zM748 1481l-37 -258h-262l34 258h265zM496 1057l-148 -1057h-297l146 1057h299z" />
    <glyph glyph-name="eth" unicode="&#xf0;" horiz-adv-x="1196" 
d="M1124 528q-34 -250 -195.5 -399t-398.5 -149q-116 0 -210.5 41t-154 112.5t-85.5 171t-10 213.5q32 228 196 374t385 146q79 0 117 -24q-48 110 -160 205l-270 -154l-55 102l227 117q-27 16 -195 100l160 113q134 -32 258 -100l197 114l47 -110l-143 -70
q177 -138 250.5 -345.5t39.5 -457.5zM539 180q110 0 186 93t96 253q22 152 -22.5 235t-145.5 83q-110 0 -186 -94t-98 -256q-20 -151 24.5 -232.5t145.5 -81.5z" />
    <glyph glyph-name="ntilde" unicode="&#xf1;" horiz-adv-x="1208" 
d="M1094 1303q-98 -52 -203 -52q-61 0 -147.5 29t-133.5 29q-35 0 -59 -8.5t-59 -31.5t-52 -32l-34 172q99 70 194 70q65 0 158.5 -31t130.5 -31q48 0 110.5 33t77.5 37zM55 0l148 1057h293l-27 -191q91 106 184.5 158.5t200.5 52.5q144 0 215.5 -85t52.5 -228l-106 -764
h-299l100 717q9 67 -29 105t-110 38q-64 0 -122.5 -32t-100.5 -91l-101 -737h-299z" />
    <glyph glyph-name="ograve" unicode="&#xf2;" horiz-adv-x="1177" 
d="M496 1505l487 -219l-59 -123l-514 148zM510 -20q-232 0 -352 150.5t-86 391.5q34 248 199.5 401.5t394.5 153.5q234 0 354 -154.5t86 -398.5q-32 -240 -197 -392t-399 -152zM543 174q57 0 105 32t80 86t52 114.5t29 125.5q12 63 6.5 126.5t-22 114t-57 82.5t-97.5 32
q-58 0 -106.5 -31.5t-80 -84t-52 -112.5t-29.5 -127q-11 -62 -5.5 -125.5t22 -115t57 -84.5t98.5 -33z" />
    <glyph glyph-name="oacute" unicode="&#xf3;" horiz-adv-x="1177" 
d="M948 1507l45 -202l-544 -142l-31 135zM510 -20q-232 0 -352 150.5t-86 391.5q34 248 199.5 401.5t394.5 153.5q234 0 354 -154.5t86 -398.5q-32 -240 -197 -392t-399 -152zM543 174q57 0 105 32t80 86t52 114.5t29 125.5q12 63 6.5 126.5t-22 114t-57 82.5t-97.5 32
q-58 0 -106.5 -31.5t-80 -84t-52 -112.5t-29.5 -127q-11 -62 -5.5 -125.5t22 -115t57 -84.5t98.5 -33z" />
    <glyph glyph-name="ocircumflex" unicode="&#xf4;" horiz-adv-x="1177" 
d="M834 1219l-113 155l-172 -155h-232l301 276h203l223 -276h-210zM510 -20q-232 0 -352 150.5t-86 391.5q34 248 199.5 401.5t394.5 153.5q234 0 354 -154.5t86 -398.5q-32 -240 -197 -392t-399 -152zM543 174q57 0 105 32t80 86t52 114.5t29 125.5q12 63 6.5 126.5
t-22 114t-57 82.5t-97.5 32q-58 0 -106.5 -31.5t-80 -84t-52 -112.5t-29.5 -127q-11 -62 -5.5 -125.5t22 -115t57 -84.5t98.5 -33z" />
    <glyph glyph-name="otilde" unicode="&#xf5;" horiz-adv-x="1177" 
d="M1063 1303q-98 -52 -203 -52q-61 0 -147 29t-133 29q-35 0 -59 -8.5t-59 -31.5t-52 -32l-35 172q99 70 194 70q65 0 158.5 -31t130.5 -31q36 0 70.5 14t66.5 32.5t52 23.5zM510 -20q-232 0 -352 150.5t-86 391.5q34 248 199.5 401.5t394.5 153.5q234 0 354 -154.5
t86 -398.5q-32 -240 -197 -392t-399 -152zM543 174q57 0 105 32t80 86t52 114.5t29 125.5q12 63 6.5 126.5t-22 114t-57 82.5t-97.5 32q-58 0 -106.5 -31.5t-80 -84t-52 -112.5t-29.5 -127q-11 -62 -5.5 -125.5t22 -115t57 -84.5t98.5 -33z" />
    <glyph glyph-name="odieresis" unicode="&#xf6;" horiz-adv-x="1177" 
d="M666 1481l-37 -258h-264l36 258h265zM1061 1481l-37 -258h-264l37 258h264zM510 -20q-232 0 -352 150.5t-86 391.5q34 248 199.5 401.5t394.5 153.5q234 0 354 -154.5t86 -398.5q-32 -240 -197 -392t-399 -152zM543 174q57 0 105 32t80 86t52 114.5t29 125.5
q12 63 6.5 126.5t-22 114t-57 82.5t-97.5 32q-58 0 -106.5 -31.5t-80 -84t-52 -112.5t-29.5 -127q-11 -62 -5.5 -125.5t22 -115t57 -84.5t98.5 -33z" />
    <glyph glyph-name="divide" unicode="&#xf7;" horiz-adv-x="1196" 
d="M856 1296l-43 -299h-309l43 299h309zM1116 854l-33 -217l-952 -2l29 219h956zM743 492l-43 -299h-309l43 299h309z" />
    <glyph glyph-name="oslash" unicode="&#xf8;" horiz-adv-x="1236" 
d="M1229 954l-150 -127q55 -134 31 -303q-32 -240 -197 -392t-399 -152q-189 0 -309 104l-117 -98l-96 114l123 105q-63 132 -39 317q34 248 199.5 401.5t394.5 153.5q208 0 327 -125l136 115zM375 532q-8 -74 -6 -112l426 360q-46 107 -152 107q-58 0 -106.5 -31.5t-80 -84
t-52 -112.5t-29.5 -127zM813 532q6 38 6 74l-411 -350q49 -82 139 -82q57 0 105 32t80 86t52 114.5t29 125.5z" />
    <glyph glyph-name="ugrave" unicode="&#xf9;" horiz-adv-x="1206" 
d="M498 1505l485 -219l-59 -123l-514 148zM393 -20q-141 2 -228.5 89.5t-66.5 231.5l105 758h297l-101 -721q-9 -71 26.5 -112.5t113.5 -41.5q68 0 120 33.5t99 99.5l102 742h299l-149 -1059h-224l-12 174q-86 -96 -187 -145t-194 -49z" />
    <glyph glyph-name="uacute" unicode="&#xfa;" horiz-adv-x="1206" 
d="M952 1507l45 -202l-546 -142l-29 135zM393 -20q-141 2 -228.5 89.5t-66.5 231.5l105 758h297l-101 -721q-9 -71 26.5 -112.5t113.5 -41.5q68 0 120 33.5t99 99.5l102 742h299l-149 -1059h-224l-12 174q-86 -96 -187 -145t-194 -49z" />
    <glyph glyph-name="ucircumflex" unicode="&#xfb;" horiz-adv-x="1206" 
d="M838 1219l-115 155l-170 -155h-231l301 276h200l226 -276h-211zM393 -20q-141 2 -228.5 89.5t-66.5 231.5l105 758h297l-101 -721q-9 -71 26.5 -112.5t113.5 -41.5q68 0 120 33.5t99 99.5l102 742h299l-149 -1059h-224l-12 174q-86 -96 -187 -145t-194 -49z" />
    <glyph glyph-name="udieresis" unicode="&#xfc;" horiz-adv-x="1206" 
d="M666 1481l-37 -258h-264l36 258h265zM1061 1481l-37 -258h-262l35 258h264zM393 -20q-141 2 -228.5 89.5t-66.5 231.5l105 758h297l-101 -721q-9 -71 26.5 -112.5t113.5 -41.5q68 0 120 33.5t99 99.5l102 742h299l-149 -1059h-224l-12 174q-86 -96 -187 -145t-194 -49z
" />
    <glyph glyph-name="yacute" unicode="&#xfd;" horiz-adv-x="1142" 
d="M961 1507l45 -202l-547 -142l-31 135zM174 -338q-64 0 -112 9t-64 19l-16 9l26 190l105 -4q50 -3 90.5 4t62 16.5t40.5 29t23 27t13 24.5l25 59l-265 1012h295l154 -688l346 688h291l-567 -1063q-55 -99 -109 -165.5t-110 -102t-109.5 -50t-118.5 -14.5z" />
    <glyph glyph-name="thorn" unicode="&#xfe;" horiz-adv-x="1218" 
d="M12 -330l250 1811h299l-74 -535q71 60 145 95.5t177 35.5q184 0 280 -143.5t58 -413.5q-38 -271 -168 -405.5t-317 -134.5q-168 0 -291 147l-62 -457h-297zM551 168q127 0 195.5 99.5t105.5 293.5q23 178 -21 252t-145 74q-86 0 -155 -53.5t-78 -116.5l-66 -453
q27 -39 74.5 -67.5t89.5 -28.5z" />
    <glyph glyph-name="ydieresis" unicode="&#xff;" horiz-adv-x="1142" 
d="M676 1481l-39 -258h-262l35 258h266zM1069 1481l-37 -258h-262l35 258h264zM174 -338q-64 0 -112 9t-64 19l-16 9l26 190l105 -4q50 -3 90.5 4t62 16.5t40.5 29t23 27t13 24.5l25 59l-265 1012h295l154 -688l346 688h291l-567 -1063q-55 -99 -109 -165.5t-110 -102
t-109.5 -50t-118.5 -14.5z" />
    <glyph glyph-name="Amacron" unicode="&#x100;" horiz-adv-x="1456" 
d="M1294 1892l-26 -192h-713l27 192h712zM-23 0l728 1481h313l315 -1481h-297l-69 344h-523l-170 -344h-297zM547 604h385l-113 588z" />
    <glyph glyph-name="amacron" unicode="&#x101;" horiz-adv-x="1150" 
d="M1079 1468l-28 -192h-711l27 192h712zM352 -20q-154 0 -240 86t-65 237q23 174 164 261.5t418 94.5l129 7l8 59q11 77 -27.5 121.5t-117.5 44.5q-147 0 -242 -148l-234 29q64 142 199 223.5t315 81.5q230 0 322.5 -87t71.5 -247l-103 -743h-248v164
q-59 -91 -149.5 -137.5t-200.5 -46.5zM479 176q80 0 153 54.5t83 121.5l20 162l-104 -4q-60 -3 -106.5 -12.5t-89.5 -28.5t-70 -53.5t-33 -83.5q-10 -72 32 -114t115 -42z" />
    <glyph glyph-name="Abreve" unicode="&#x102;" horiz-adv-x="1456" 
d="M1292 1905q-54 -124 -159.5 -193.5t-235.5 -69.5q-294 0 -326 263h160q66 -115 172 -115q60 0 113.5 30.5t87.5 84.5h188zM-23 0l728 1481h313l315 -1481h-297l-69 344h-523l-170 -344h-297zM547 604h385l-113 588z" />
    <glyph glyph-name="abreve" unicode="&#x103;" horiz-adv-x="1150" 
d="M1075 1481q-52 -123 -157.5 -192.5t-237.5 -69.5q-294 0 -326 262h160q66 -115 174 -115q60 0 112.5 30.5t86.5 84.5h188zM352 -20q-154 0 -240 86t-65 237q23 174 164 261.5t418 94.5l129 7l8 59q11 77 -27.5 121.5t-117.5 44.5q-147 0 -242 -148l-234 29
q64 142 199 223.5t315 81.5q230 0 322.5 -87t71.5 -247l-103 -743h-248v164q-59 -91 -149.5 -137.5t-200.5 -46.5zM479 176q80 0 153 54.5t83 121.5l20 162l-104 -4q-60 -3 -106.5 -12.5t-89.5 -28.5t-70 -53.5t-33 -83.5q-10 -72 32 -114t115 -42z" />
    <glyph glyph-name="Aogonek" unicode="&#x104;" horiz-adv-x="1456" 
d="M1212 -215q25 0 50.5 6t37.5 11t40.5 19t31.5 15l-20 -151q-100 -31 -207 -31t-163 48.5t-44 135.5q7 51 42.5 89.5t123.5 72.5h-68l-69 344h-523l-170 -344h-297l728 1481h313l313 -1475l37 -2q-110 -38 -159 -76t-54 -86q-6 -57 57 -57zM547 604h385l-113 588z" />
    <glyph glyph-name="aogonek" unicode="&#x105;" horiz-adv-x="1165" 
d="M659 1077q230 0 322.5 -87t71.5 -247l-101 -735h9l-11 -4v-4h-12q-97 -36 -141 -73t-49 -81q-6 -57 57 -57q25 0 50.5 6t39 11t40 17.5t30.5 14.5l-21 -151q-116 -31 -205 -31q-108 0 -163.5 49t-43.5 137q7 50 43.5 89t126.5 73v160q-59 -91 -149.5 -137.5t-200.5 -46.5
q-154 0 -240 86t-65 237q23 174 164 261.5t418 94.5l129 7l8 59q11 77 -27.5 121.5t-117.5 44.5q-147 0 -242 -148l-234 29q64 142 199 223.5t315 81.5zM479 176q80 0 153 54.5t83 121.5l20 162l-104 -4q-60 -3 -106.5 -12.5t-89.5 -28.5t-70 -53.5t-33 -83.5
q-10 -72 32 -114t115 -42z" />
    <glyph glyph-name="Cacute" unicode="&#x106;" horiz-adv-x="1462" 
d="M1174 1931l45 -202l-545 -142l-31 135zM901 1501q247 0 393 -136t138 -353l-302 -21q-5 121 -67.5 192.5t-183.5 71.5q-158 0 -267.5 -123.5t-146.5 -383.5q-34 -262 40 -392.5t234 -130.5q113 0 197.5 75.5t126.5 197.5l293 -27q-29 -108 -79.5 -194t-128.5 -154.5
t-193 -105.5t-259 -37q-202 0 -339 97t-192.5 271.5t-25.5 403.5q50 346 253.5 547.5t508.5 201.5z" />
    <glyph glyph-name="cacute" unicode="&#x107;" horiz-adv-x="1130" 
d="M946 1507l45 -202l-545 -142l-30 135zM668 1077q183 0 287.5 -103.5t109.5 -248.5l-262 -41q-30 100 -48 131q-39 64 -110 64q-105 0 -181.5 -97.5t-98.5 -253.5q-20 -158 31 -254t157 -96q39 0 72.5 15.5t60.5 47.5t43 57.5t39 68.5l242 -45q-47 -141 -181.5 -241.5
t-314.5 -100.5q-222 0 -346.5 151t-91.5 393q34 244 201 398.5t391 154.5z" />
    <glyph glyph-name="Ccircumflex" unicode="&#x108;" horiz-adv-x="1462" 
d="M1059 1642l-113 156l-172 -156h-231l301 277h203l223 -277h-211zM901 1501q247 0 393 -136t138 -353l-302 -21q-5 121 -67.5 192.5t-183.5 71.5q-158 0 -267.5 -123.5t-146.5 -383.5q-34 -262 40 -392.5t234 -130.5q113 0 197.5 75.5t126.5 197.5l293 -27
q-29 -108 -79.5 -194t-128.5 -154.5t-193 -105.5t-259 -37q-202 0 -339 97t-192.5 271.5t-25.5 403.5q50 346 253.5 547.5t508.5 201.5z" />
    <glyph glyph-name="ccircumflex" unicode="&#x109;" horiz-adv-x="1130" 
d="M831 1219l-112 155l-172 -155h-232l301 276h203l223 -276h-211zM668 1077q183 0 287.5 -103.5t109.5 -248.5l-262 -41q-30 100 -48 131q-39 64 -110 64q-105 0 -181.5 -97.5t-98.5 -253.5q-20 -158 31 -254t157 -96q39 0 72.5 15.5t60.5 47.5t43 57.5t39 68.5l242 -45
q-47 -141 -181.5 -241.5t-314.5 -100.5q-222 0 -346.5 151t-91.5 393q34 244 201 398.5t391 154.5z" />
    <glyph glyph-name="Cdotaccent" unicode="&#x10a;" horiz-adv-x="1462" 
d="M1108 1905l-41 -293h-303l39 293h305zM901 1501q247 0 393 -136t138 -353l-302 -21q-5 121 -67.5 192.5t-183.5 71.5q-158 0 -267.5 -123.5t-146.5 -383.5q-34 -262 40 -392.5t234 -130.5q113 0 197.5 75.5t126.5 197.5l293 -27q-29 -108 -79.5 -194t-128.5 -154.5
t-193 -105.5t-259 -37q-202 0 -339 97t-192.5 271.5t-25.5 403.5q50 346 253.5 547.5t508.5 201.5z" />
    <glyph glyph-name="cdotaccent" unicode="&#x10b;" horiz-adv-x="1130" 
d="M881 1481l-41 -293h-305l40 293h306zM668 1077q183 0 287.5 -103.5t109.5 -248.5l-262 -41q-30 100 -48 131q-39 64 -110 64q-105 0 -181.5 -97.5t-98.5 -253.5q-20 -158 31 -254t157 -96q39 0 72.5 15.5t60.5 47.5t43 57.5t39 68.5l242 -45q-47 -141 -181.5 -241.5
t-314.5 -100.5q-222 0 -346.5 151t-91.5 393q34 244 201 398.5t391 154.5z" />
    <glyph glyph-name="Ccaron" unicode="&#x10c;" horiz-adv-x="1462" 
d="M1077 1907h250l-297 -279h-203l-233 279h199l129 -154zM901 1501q247 0 393 -136t138 -353l-302 -21q-5 121 -67.5 192.5t-183.5 71.5q-158 0 -267.5 -123.5t-146.5 -383.5q-34 -262 40 -392.5t234 -130.5q113 0 197.5 75.5t126.5 197.5l293 -27q-29 -108 -79.5 -194
t-128.5 -154.5t-193 -105.5t-259 -37q-202 0 -339 97t-192.5 271.5t-25.5 403.5q50 346 253.5 547.5t508.5 201.5z" />
    <glyph glyph-name="ccaron" unicode="&#x10d;" horiz-adv-x="1130" 
d="M850 1483h250l-297 -279h-203l-233 279h198l129 -154zM668 1077q183 0 287.5 -103.5t109.5 -248.5l-262 -41q-30 100 -48 131q-39 64 -110 64q-105 0 -181.5 -97.5t-98.5 -253.5q-20 -158 31 -254t157 -96q39 0 72.5 15.5t60.5 47.5t43 57.5t39 68.5l242 -45
q-47 -141 -181.5 -241.5t-314.5 -100.5q-222 0 -346.5 151t-91.5 393q34 244 201 398.5t391 154.5z" />
    <glyph glyph-name="Dcaron" unicode="&#x10e;" horiz-adv-x="1460" 
d="M1040 1907h250l-299 -279h-200l-234 279h199l129 -154zM301 1481q311 0 438 -2q194 -5 332 -57.5t215.5 -148.5t103.5 -227.5t3 -300.5q-49 -353 -267.5 -549t-601.5 -196h-428zM567 1239l-135 -997h133q96 0 178 27.5t152.5 85t119.5 157.5t68 236q66 491 -378 491h-138
z" />
    <glyph glyph-name="dcaron" unicode="&#x10f;" horiz-adv-x="1284" 
d="M1178 1190h114l-35 -250l-108 -199h-35l-102 -741h-215l-13 174q-50 -77 -139 -135.5t-209 -58.5q-207 0 -302 145t-60 403q36 254 166.5 401.5t326.5 147.5q201 0 273 -164l86 607h297zM774 442l33 224q-6 112 -49 160t-119 48q-215 0 -262 -342q-50 -352 166 -352
q88 0 152 71.5t79 190.5z" />
    <glyph glyph-name="Dcroat" unicode="&#x110;" horiz-adv-x="1468" 
d="M745 1479q195 -5 333 -57.5t215.5 -148.5t103.5 -227.5t4 -300.5q-49 -354 -268 -549.5t-603 -195.5h-428l86 621h-104l29 221h106l90 639q311 0 436 -2zM1092 748q63 491 -379 491h-138l-55 -397h336l-29 -221h-338l-51 -379h133q97 0 179.5 27.5t153.5 85t120 157.5
t68 236z" />
    <glyph glyph-name="dcroat" unicode="&#x111;" horiz-adv-x="1335" 
d="M1376 1356l-24 -170h-176l-164 -1186h-215l-13 174q-50 -77 -139 -135.5t-209 -58.5q-207 0 -302 145t-60 403q36 254 166.5 401.5t326.5 147.5q201 0 273 -164l39 273h-207l22 170h209l23 164h297l-23 -164h176zM774 442l33 224q-6 112 -49 160t-119 48
q-215 0 -262 -342q-50 -352 166 -352q88 0 152 71.5t79 190.5z" />
    <glyph glyph-name="Emacron" unicode="&#x112;" horiz-adv-x="1304" 
d="M1223 1892l-27 -192h-713l27 192h713zM96 0l205 1481h1002l-37 -254h-701l-51 -359h610l-32 -247h-613l-49 -365l715 -2l-37 -254h-1012z" />
    <glyph glyph-name="emacron" unicode="&#x113;" horiz-adv-x="1175" 
d="M1085 1468l-28 -192h-713l27 192h714zM360 444q-17 -122 37 -196t162 -74q78 0 142 37.5t106 103.5l223 -59q-77 -134 -206 -205t-289 -71q-155 0 -267.5 65t-164.5 187.5t-29 283.5q16 118 67 221t128 178.5t180.5 118.5t220.5 43q156 0 260 -72t144.5 -195.5
t17.5 -283.5l-13 -82h-719zM389 643h436q16 114 -30 183t-152 69q-109 0 -175 -72.5t-79 -179.5z" />
    <glyph glyph-name="Ebreve" unicode="&#x114;" horiz-adv-x="1304" 
d="M1221 1905q-54 -124 -160 -193.5t-236 -69.5q-293 0 -325 263h159q66 -115 172 -115q60 0 113.5 30.5t87.5 84.5h189zM96 0l205 1481h1002l-37 -254h-701l-51 -359h610l-32 -247h-613l-49 -365l715 -2l-37 -254h-1012z" />
    <glyph glyph-name="ebreve" unicode="&#x115;" horiz-adv-x="1175" 
d="M1081 1481q-54 -123 -159.5 -192.5t-235.5 -69.5q-294 0 -326 262h160q66 -115 174 -115q60 0 112.5 30.5t86.5 84.5h188zM360 444q-17 -122 37 -196t162 -74q78 0 142 37.5t106 103.5l223 -59q-77 -134 -206 -205t-289 -71q-155 0 -267.5 65t-164.5 187.5t-29 283.5
q16 118 67 221t128 178.5t180.5 118.5t220.5 43q156 0 260 -72t144.5 -195.5t17.5 -283.5l-13 -82h-719zM389 643h436q16 114 -30 183t-152 69q-109 0 -175 -72.5t-79 -179.5z" />
    <glyph glyph-name="Edotaccent" unicode="&#x116;" horiz-adv-x="1304" 
d="M1022 1905l-41 -293h-303l41 293h303zM96 0l205 1481h1002l-37 -254h-701l-51 -359h610l-32 -247h-613l-49 -365l715 -2l-37 -254h-1012z" />
    <glyph glyph-name="edotaccent" unicode="&#x117;" horiz-adv-x="1175" 
d="M883 1481l-39 -293h-305l41 293h303zM360 444q-17 -122 37 -196t162 -74q78 0 142 37.5t106 103.5l223 -59q-77 -134 -206 -205t-289 -71q-155 0 -267.5 65t-164.5 187.5t-29 283.5q16 118 67 221t128 178.5t180.5 118.5t220.5 43q156 0 260 -72t144.5 -195.5
t17.5 -283.5l-13 -82h-719zM389 643h436q16 114 -30 183t-152 69q-109 0 -175 -72.5t-79 -179.5z" />
    <glyph glyph-name="Eogonek" unicode="&#x118;" horiz-adv-x="1304" 
d="M1266 1227h-701l-51 -359h610l-32 -247h-613l-49 -365l715 -2l-37 -248l33 -2q-110 -37 -159 -75t-54 -85q-3 -30 10.5 -43.5t46.5 -13.5q24 0 49.5 5.5t40 11.5t38.5 17.5t32 14.5l-21 -151q-116 -31 -206 -31q-107 0 -163 49t-44 137q7 49 43 87.5t123 72.5h-781
l205 1481h1002z" />
    <glyph glyph-name="eogonek" unicode="&#x119;" horiz-adv-x="1175" 
d="M670 1077q156 0 260 -72t144.5 -195.5t17.5 -283.5l-13 -82h-719q-17 -122 37 -196t162 -74q78 0 142 37.5t106 103.5l223 -59q-89 -153 -244 -223l21 -2q-110 -37 -159 -75t-54 -85q-3 -30 10.5 -43.5t46.5 -13.5q17 0 34.5 2.5t28.5 5t29 10t23 9.5t24.5 12t20.5 10
l-20 -152q-96 -30 -205 -30q-108 0 -163.5 48.5t-43.5 135.5q10 74 80 119q-203 25 -310 168t-75 364q16 118 67 221t128 178.5t180.5 118.5t220.5 43zM825 643q16 114 -30 183t-152 69q-109 0 -175 -72.5t-79 -179.5h436z" />
    <glyph glyph-name="Ecaron" unicode="&#x11a;" horiz-adv-x="1304" 
d="M991 1907h250l-299 -279h-201l-233 279h199l129 -154zM96 0l205 1481h1002l-37 -254h-701l-51 -359h610l-32 -247h-613l-49 -365l715 -2l-37 -254h-1012z" />
    <glyph glyph-name="ecaron" unicode="&#x11b;" horiz-adv-x="1175" 
d="M852 1483h252l-299 -279h-203l-233 279h200l127 -154zM360 444q-17 -122 37 -196t162 -74q78 0 142 37.5t106 103.5l223 -59q-77 -134 -206 -205t-289 -71q-155 0 -267.5 65t-164.5 187.5t-29 283.5q16 118 67 221t128 178.5t180.5 118.5t220.5 43q156 0 260 -72
t144.5 -195.5t17.5 -283.5l-13 -82h-719zM389 643h436q16 114 -30 183t-152 69q-109 0 -175 -72.5t-79 -179.5z" />
    <glyph glyph-name="Gcircumflex" unicode="&#x11c;" horiz-adv-x="1546" 
d="M1055 1642l-113 156l-170 -156h-231l299 277h202l226 -277h-213zM688 -20q-298 0 -447.5 205.5t-103.5 549.5q49 349 263 557.5t515 208.5q125 0 227.5 -40t167 -106.5t100 -149.5t38.5 -173l-320 -47q-11 121 -75.5 192.5t-178.5 71.5q-155 0 -265.5 -126t-147.5 -378
q-17 -115 -7.5 -200t33.5 -143t66 -93.5t89.5 -51t105.5 -15.5q121 0 201 67.5t114 169.5l27 88h-302l31 209l611 -4l-107 -772h-203l25 193q-38 -43 -77 -76.5t-94.5 -66.5t-128.5 -51.5t-157 -18.5z" />
    <glyph glyph-name="gcircumflex" unicode="&#x11d;" horiz-adv-x="1253" 
d="M864 1219l-112 155l-172 -155h-232l301 276h203l223 -276h-211zM481 -350q-275 0 -411.5 71t-120.5 189q10 65 64.5 110t148.5 78q10 4 13 8t0 8t-11 7q-102 59 -92 145q10 60 70.5 106.5t166.5 63.5q-97 50 -139 131.5t-29 173.5q14 103 91.5 179.5t193.5 114.5t256 38
q99 0 165 -20t124 -58q7 -7 69 21q41 15 130.5 49.5t127.5 48.5l-32 -229l-142 -19q-29 -4 -37 -14t-2 -31q6 -47 2 -78q-10 -68 -48.5 -130t-102.5 -111.5t-160 -79t-209 -29.5q-48 0 -102 4q-104 -5 -107 -43q-3 -24 33.5 -32t140.5 -15q109 -5 213 -12
q189 -13 273.5 -94.5t66.5 -208.5q-21 -155 -179 -248.5t-425 -93.5zM600 559q85 0 140.5 47.5t66.5 126.5q12 81 -30.5 133t-127.5 52t-142.5 -52t-68.5 -133q-11 -79 32.5 -126.5t129.5 -47.5zM553 -182q122 0 178 29t64 90q8 50 -28.5 79t-115.5 33l-231 17
q-70 3 -119 -33t-55 -88q-10 -68 65 -97.5t242 -29.5z" />
    <glyph glyph-name="Gbreve" unicode="&#x11e;" horiz-adv-x="1546" 
d="M1303 1905q-54 -124 -160 -193.5t-236 -69.5q-293 0 -325 263h159q66 -115 172 -115q61 0 114 30.5t87 84.5h189zM688 -20q-298 0 -447.5 205.5t-103.5 549.5q49 349 263 557.5t515 208.5q125 0 227.5 -40t167 -106.5t100 -149.5t38.5 -173l-320 -47q-11 121 -75.5 192.5
t-178.5 71.5q-155 0 -265.5 -126t-147.5 -378q-17 -115 -7.5 -200t33.5 -143t66 -93.5t89.5 -51t105.5 -15.5q121 0 201 67.5t114 169.5l27 88h-302l31 209l611 -4l-107 -772h-203l25 193q-38 -43 -77 -76.5t-94.5 -66.5t-128.5 -51.5t-157 -18.5z" />
    <glyph glyph-name="gbreve" unicode="&#x11f;" horiz-adv-x="1253" 
d="M1112 1481q-54 -123 -159.5 -192.5t-235.5 -69.5q-296 0 -328 262h160q70 -115 174 -115q60 0 113.5 30.5t85.5 84.5h190zM481 -350q-275 0 -411.5 71t-120.5 189q10 65 64.5 110t148.5 78q10 4 13 8t0 8t-11 7q-102 59 -92 145q10 60 70.5 106.5t166.5 63.5
q-97 50 -139 131.5t-29 173.5q14 103 91.5 179.5t193.5 114.5t256 38q99 0 165 -20t124 -58q7 -7 69 21q41 15 130.5 49.5t127.5 48.5l-32 -229l-142 -19q-29 -4 -37 -14t-2 -31q6 -47 2 -78q-10 -68 -48.5 -130t-102.5 -111.5t-160 -79t-209 -29.5q-48 0 -102 4
q-104 -5 -107 -43q-3 -24 33.5 -32t140.5 -15q109 -5 213 -12q189 -13 273.5 -94.5t66.5 -208.5q-21 -155 -179 -248.5t-425 -93.5zM600 559q85 0 140.5 47.5t66.5 126.5q12 81 -30.5 133t-127.5 52t-142.5 -52t-68.5 -133q-11 -79 32.5 -126.5t129.5 -47.5zM553 -182
q122 0 178 29t64 90q8 50 -28.5 79t-115.5 33l-231 17q-70 3 -119 -33t-55 -88q-10 -68 65 -97.5t242 -29.5z" />
    <glyph glyph-name="Gdotaccent" unicode="&#x120;" horiz-adv-x="1546" 
d="M1104 1905l-39 -293h-305l41 293h303zM688 -20q-298 0 -447.5 205.5t-103.5 549.5q49 349 263 557.5t515 208.5q125 0 227.5 -40t167 -106.5t100 -149.5t38.5 -173l-320 -47q-11 121 -75.5 192.5t-178.5 71.5q-155 0 -265.5 -126t-147.5 -378q-17 -115 -7.5 -200
t33.5 -143t66 -93.5t89.5 -51t105.5 -15.5q121 0 201 67.5t114 169.5l27 88h-302l31 209l611 -4l-107 -772h-203l25 193q-38 -43 -77 -76.5t-94.5 -66.5t-128.5 -51.5t-157 -18.5z" />
    <glyph glyph-name="gdotaccent" unicode="&#x121;" horiz-adv-x="1253" 
d="M913 1481l-41 -293h-305l41 293h305zM481 -350q-275 0 -411.5 71t-120.5 189q10 65 64.5 110t148.5 78q10 4 13 8t0 8t-11 7q-102 59 -92 145q10 60 70.5 106.5t166.5 63.5q-97 50 -139 131.5t-29 173.5q14 103 91.5 179.5t193.5 114.5t256 38q99 0 165 -20t124 -58
q7 -7 69 21q41 15 130.5 49.5t127.5 48.5l-32 -229l-142 -19q-29 -4 -37 -14t-2 -31q6 -47 2 -78q-10 -68 -48.5 -130t-102.5 -111.5t-160 -79t-209 -29.5q-48 0 -102 4q-104 -5 -107 -43q-3 -24 33.5 -32t140.5 -15q109 -5 213 -12q189 -13 273.5 -94.5t66.5 -208.5
q-21 -155 -179 -248.5t-425 -93.5zM600 559q85 0 140.5 47.5t66.5 126.5q12 81 -30.5 133t-127.5 52t-142.5 -52t-68.5 -133q-11 -79 32.5 -126.5t129.5 -47.5zM553 -182q122 0 178 29t64 90q8 50 -28.5 79t-115.5 33l-231 17q-70 3 -119 -33t-55 -88q-10 -68 65 -97.5
t242 -29.5z" />
    <glyph glyph-name="uni0122" unicode="&#x122;" horiz-adv-x="1546" 
d="M688 -20q-298 0 -447.5 205.5t-103.5 549.5q49 349 263 557.5t515 208.5q125 0 227.5 -40t167 -106.5t100 -149.5t38.5 -173l-320 -47q-11 121 -75.5 192.5t-178.5 71.5q-155 0 -265.5 -126t-147.5 -378q-17 -115 -7.5 -200t33.5 -143t66 -93.5t89.5 -51t105.5 -15.5
q121 0 201 67.5t114 169.5l27 88h-302l31 209l611 -4l-107 -772h-203l25 193q-38 -43 -77 -76.5t-94.5 -66.5t-128.5 -51.5t-157 -18.5zM510 -485l137 174h-106l28 192h209l-26 -203l-150 -163h-92z" />
    <glyph glyph-name="uni0123" unicode="&#x123;" horiz-adv-x="1253" 
d="M651 1217l29 202l149 164h91l-136 -174h105l-29 -192h-209zM481 -350q-275 0 -411.5 71t-120.5 189q10 65 64.5 110t148.5 78q10 4 13 8t0 8t-11 7q-102 59 -92 145q10 60 70.5 106.5t166.5 63.5q-97 50 -139 131.5t-29 173.5q14 103 91.5 179.5t193.5 114.5t256 38
q99 0 165 -20t124 -58q7 -7 69 21q41 15 130.5 49.5t127.5 48.5l-32 -229l-142 -19q-29 -4 -37 -14t-2 -31q6 -47 2 -78q-10 -68 -48.5 -130t-102.5 -111.5t-160 -79t-209 -29.5q-48 0 -102 4q-104 -5 -107 -43q-3 -24 33.5 -32t140.5 -15q109 -5 213 -12
q189 -13 273.5 -94.5t66.5 -208.5q-21 -155 -179 -248.5t-425 -93.5zM600 559q85 0 140.5 47.5t66.5 126.5q12 81 -30.5 133t-127.5 52t-142.5 -52t-68.5 -133q-11 -79 32.5 -126.5t129.5 -47.5zM553 -182q122 0 178 29t64 90q8 50 -28.5 79t-115.5 33l-231 17
q-70 3 -119 -33t-55 -88q-10 -68 65 -97.5t242 -29.5z" />
    <glyph glyph-name="Hcircumflex" unicode="&#x124;" horiz-adv-x="1482" 
d="M1032 1642l-114 156l-170 -156h-232l301 277h201l225 -277h-211zM1030 635h-549l-88 -635h-297l205 1481h297l-82 -594h551l82 594h299l-207 -1481h-297z" />
    <glyph glyph-name="hcircumflex" unicode="&#x125;" horiz-adv-x="1210" 
d="M57 0l211 1520h291l-92 -656q178 213 387 213q150 0 218 -82.5t48 -234.5l-104 -760h-299l100 717q9 68 -23 105.5t-102 37.5q-61 0 -114.5 -30t-120.5 -97l-103 -733h-297zM1069 1219l-113 155l-170 -155h-231l299 276h203l225 -276h-213z" />
    <glyph glyph-name="Hbar" unicode="&#x126;" horiz-adv-x="1562" 
d="M1636 1288l-24 -166h-240l-155 -1122h-299l86 635h-549l-86 -635h-299l155 1122h-121l21 166h123l26 193h297l-26 -193h551l26 193h299l-26 -193h241zM1042 887l31 235h-551l-30 -235h550z" />
    <glyph glyph-name="hbar" unicode="&#x127;" horiz-adv-x="1202" 
d="M850 1077q150 0 218 -82.5t48 -234.5l-104 -760h-299l98 717q9 68 -22.5 105.5t-102.5 37.5q-61 0 -114.5 -30t-120.5 -97l-101 -733h-297l164 1186h-80l23 170h80l22 164h293l-23 -164h308l-23 -170h-309l-45 -322q178 213 387 213z" />
    <glyph glyph-name="Itilde" unicode="&#x128;" horiz-adv-x="636" 
d="M848 1726q-96 -51 -203 -51q-61 0 -147 29t-133 29q-35 0 -59 -8.5t-59 -31.5t-52 -32l-35 172q99 70 194 70q65 0 158.5 -31t130.5 -31q48 0 110.5 33t77.5 37zM301 1481h297l-203 -1481h-299z" />
    <glyph glyph-name="itilde" unicode="&#x129;" horiz-adv-x="563" 
d="M756 1303q-98 -52 -203 -52q-61 0 -148.5 29t-132.5 29q-27 0 -51 -7t-38 -15t-39.5 -24.5t-41.5 -25.5l-36 172q51 35 95 52.5t101 17.5q64 0 157.5 -31t131.5 -31q46 0 108.5 33t77.5 37zM500 1057l-148 -1057h-297l146 1057h299z" />
    <glyph glyph-name="Imacron" unicode="&#x12a;" horiz-adv-x="628" 
d="M866 1892l-28 -192h-713l27 192h714zM299 1481h297l-205 -1481h-299z" />
    <glyph glyph-name="imacron" unicode="&#x12b;" horiz-adv-x="552" 
d="M772 1468l-29 -192h-712l26 192h715zM494 1057l-148 -1057h-297l146 1057h299z" />
    <glyph glyph-name="Ibreve" unicode="&#x12c;" horiz-adv-x="645" 
d="M874 1905q-54 -124 -159.5 -193.5t-235.5 -69.5q-293 0 -325 263h159q66 -115 174 -115q60 0 112.5 30.5t86.5 84.5h188zM313 1481h297l-202 -1481h-299z" />
    <glyph glyph-name="ibreve" unicode="&#x12d;" horiz-adv-x="561" 
d="M782 1481q-54 -123 -159.5 -192.5t-235.5 -69.5q-294 0 -326 262h160q66 -115 174 -115q60 0 112.5 30.5t86.5 84.5h188zM510 1057l-148 -1057h-299l148 1057h299z" />
    <glyph glyph-name="Iogonek" unicode="&#x12e;" horiz-adv-x="626" 
d="M174 -166q-6 -57 57 -57q24 0 49 6t38.5 11t39.5 17.5t31 14.5l-18 -152q-118 -30 -207 -30q-107 0 -163 49t-44 137q9 52 49 92.5t141 77.5h-61l205 1481h297l-205 -1481h-70l72 -4q-109 -39 -157.5 -77.5t-53.5 -84.5z" />
    <glyph glyph-name="iogonek" unicode="&#x12f;" horiz-adv-x="552" 
d="M260 1481h305l-41 -293h-305zM190 1057h299l-147 -1051h4q-2 0 -4 -2v-4h-12q-100 -38 -145 -74.5t-50 -81.5q-3 -28 11 -42.5t47 -14.5q25 0 49.5 6t38.5 11.5t38 17t31 14.5l-18 -151q-121 -31 -207 -31q-107 0 -163 49t-44 137q7 48 42.5 87t121.5 73h-37z" />
    <glyph glyph-name="Idotaccent" unicode="&#x130;" horiz-adv-x="634" 
d="M664 1905l-41 -293h-304l41 293h304zM301 1481h297l-205 -1481h-297z" />
    <glyph glyph-name="dotlessi" unicode="&#x131;" horiz-adv-x="559" 
d="M504 1057l-148 -1057h-297l146 1057h299z" />
    <glyph glyph-name="Jcircumflex" unicode="&#x134;" horiz-adv-x="808" 
d="M756 1642l-113 156l-172 -156h-231l301 277h202l224 -277h-211zM659 412q-15 -113 -42 -189t-76.5 -133t-127.5 -83.5t-190 -26.5q-126 0 -246 32l46 273q7 -2 28.5 -7.5t35.5 -8.5t36.5 -6t42.5 -3q99 0 144.5 53t60.5 179l137 989h299z" />
    <glyph glyph-name="jcircumflex" unicode="&#x135;" horiz-adv-x="571" 
d="M520 1219l-112 155l-170 -155h-232l299 276h203l225 -276h-213zM391 -2q-27 -176 -118.5 -257t-272.5 -81q-51 0 -86 9t-44 17l-9 9l28 196l88 11q62 8 87 40.5t34 86.5l140 1028h301z" />
    <glyph glyph-name="uni0136" unicode="&#x136;" horiz-adv-x="1458" 
d="M1329 0h-325l-289 688l-252 -266l-57 -422h-310l205 1481h307l-92 -678l621 678h342l-518 -574zM465 -485l137 174h-106l28 192h211l-28 -203l-150 -163h-92z" />
    <glyph glyph-name="uni0137" unicode="&#x137;" horiz-adv-x="1179" 
d="M1067 0h-295l-217 459l-158 -152l-43 -307h-297l211 1520h297l-119 -875l439 412h313l-436 -420zM356 -485l138 174h-107l29 192h211l-29 -203l-149 -163h-93z" />
    <glyph glyph-name="kgreenlandic" unicode="&#x138;" horiz-adv-x="1216" 
d="M1104 0h-328l-168 481l-215 -186l-41 -295h-297l148 1057h297l-62 -455l473 455h326l-412 -367z" />
    <glyph glyph-name="Lacute" unicode="&#x139;" horiz-adv-x="1153" 
d="M713 1931l45 -202l-545 -142l-31 135zM295 1481h299l-166 -1229h629l-35 -252h-932z" />
    <glyph glyph-name="lacute" unicode="&#x13a;" horiz-adv-x="655" 
d="M705 2015l45 -200l-545 -144l-31 135zM383 -14q-89 0 -150.5 19t-92.5 47t-44 72.5t-12.5 83.5t8.5 93l168 1219h293l-164 -1182q-9 -63 13 -98t85 -41l50 -4l-29 -185q-67 -24 -125 -24z" />
    <glyph glyph-name="uni013B" unicode="&#x13b;" horiz-adv-x="1159" 
d="M301 1481h299l-168 -1229h631l-35 -252h-932zM377 -485l139 174h-108l28 192h211l-26 -203l-152 -163h-92z" />
    <glyph glyph-name="uni013C" unicode="&#x13c;" horiz-adv-x="669" 
d="M389 -14q-89 0 -150.5 19t-92.5 47t-44 72.5t-12.5 83.5t8.5 93l170 1219h291l-162 -1182q-10 -63 12 -98t85 -41l49 -4l-27 -185q-70 -24 -127 -24zM18 -485l138 174h-107l29 192h211l-29 -203l-149 -163h-93z" />
    <glyph glyph-name="Lcaron" unicode="&#x13d;" horiz-adv-x="1159" 
d="M301 1481h299l-168 -1229h631l-35 -252h-932zM815 1032l117 209l-68 8l31 232h203l-35 -250l-109 -199h-139z" />
    <glyph glyph-name="lcaron" unicode="&#x13e;" horiz-adv-x="817" 
d="M592 1092l117 208l-68 9l33 231h203l-37 -250l-109 -198h-139zM391 -14q-89 0 -150.5 19t-92.5 47t-44 72.5t-12.5 83.5t8.5 93l168 1219h293l-164 -1182q-9 -63 13.5 -98t85.5 -41l47 -4l-27 -185q-67 -24 -125 -24z" />
    <glyph glyph-name="Ldot" unicode="&#x13f;" horiz-adv-x="1173" 
d="M301 1481h299l-168 -1229h631l-35 -252h-932zM1114 967l-41 -293h-303l41 293h303z" />
    <glyph glyph-name="ldot" unicode="&#x140;" horiz-adv-x="778" 
d="M391 -14q-89 0 -150.5 19t-92.5 47t-44 72.5t-12.5 83.5t8.5 93l168 1219h293l-164 -1182q-9 -63 13.5 -98t85.5 -41l47 -4l-27 -185q-67 -24 -125 -24zM827 723l-41 -295h-303l41 295h303z" />
    <glyph glyph-name="Lslash" unicode="&#x141;" horiz-adv-x="1138" 
d="M414 252h628l-34 -252h-932l84 612l-129 -34l35 256l131 32l84 615h299l-72 -533l377 96l-35 -245l-377 -103z" />
    <glyph glyph-name="lslash" unicode="&#x142;" horiz-adv-x="675" 
d="M516 629l-41 -291q-10 -64 12 -98.5t86 -40.5l48 -4l-27 -185q-70 -24 -125 -24q-90 0 -151.5 19t-93 47t-44.5 72.5t-12.5 83.5t8.5 93l17 113l-170 -113l38 272l168 109l117 838h293l-86 -627l152 98l-37 -262z" />
    <glyph glyph-name="Nacute" unicode="&#x143;" horiz-adv-x="1591" 
d="M1217 1931l43 -202l-545 -142l-31 135zM1257 1481h297l-202 -1481h-271l-546 1018l-142 -1018h-297l205 1481h295l526 -981z" />
    <glyph glyph-name="nacute" unicode="&#x144;" horiz-adv-x="1208" 
d="M979 1507l45 -202l-545 -142l-30 135zM55 0l148 1057h293l-27 -191q91 106 184.5 158.5t200.5 52.5q144 0 215.5 -85t52.5 -228l-106 -764h-299l100 717q9 67 -29 105t-110 38q-64 0 -122.5 -32t-100.5 -91l-101 -737h-299z" />
    <glyph glyph-name="uni0145" unicode="&#x145;" horiz-adv-x="1591" 
d="M1257 1481h297l-202 -1481h-271l-546 1018l-142 -1018h-297l205 1481h295l526 -981zM530 -485l138 174h-107l29 192h211l-29 -203l-149 -163h-93z" />
    <glyph glyph-name="uni0146" unicode="&#x146;" horiz-adv-x="1208" 
d="M55 0l148 1057h293l-27 -191q91 106 184.5 158.5t200.5 52.5q144 0 215.5 -85t52.5 -228l-106 -764h-299l100 717q9 67 -29 105t-110 38q-64 0 -122.5 -32t-100.5 -91l-101 -737h-299zM371 -485l137 174h-107l29 192h211l-29 -203l-149 -163h-92z" />
    <glyph glyph-name="Ncaron" unicode="&#x147;" horiz-adv-x="1591" 
d="M1118 1907h252l-299 -279h-203l-233 279h201l127 -154zM1257 1481h297l-202 -1481h-271l-546 1018l-142 -1018h-297l205 1481h295l526 -981z" />
    <glyph glyph-name="ncaron" unicode="&#x148;" horiz-adv-x="1208" 
d="M883 1483h250l-297 -279h-203l-234 279h199l129 -154zM55 0l148 1057h293l-27 -191q91 106 184.5 158.5t200.5 52.5q144 0 215.5 -85t52.5 -228l-106 -764h-299l100 717q9 67 -29 105t-110 38q-64 0 -122.5 -32t-100.5 -91l-101 -737h-299z" />
    <glyph glyph-name="Eng" unicode="&#x14a;" horiz-adv-x="1552" 
d="M1516 1481l-201 -1454q-27 -199 -133 -288t-303 -89q-143 0 -283 45l55 231q33 -9 98.5 -18.5t98.5 -9.5q78 0 114.5 37t51.5 126l8 48l-512 860l-131 -969h-285l209 1481h291l526 -877l121 877h275z" />
    <glyph glyph-name="eng" unicode="&#x14b;" horiz-adv-x="1226" 
d="M844 1077q147 0 222.5 -89t55.5 -234l-102 -750q-26 -169 -130 -256.5t-261 -87.5q-44 0 -75.5 8t-40.5 16l-9 7l28 196l93 17q48 9 71 39t29 84l92 673q11 80 -20 122t-90 42q-61 0 -116.5 -35.5t-129.5 -103.5l-103 -725h-303l154 1057h289l-21 -142q197 162 367 162z
" />
    <glyph glyph-name="Omacron" unicode="&#x14c;" horiz-adv-x="1558" 
d="M1315 1892l-29 -192h-713l27 192h715zM705 -20q-313 0 -465 201.5t-103 553.5q47 354 257.5 560t518.5 206t461.5 -205.5t104.5 -558.5q-49 -352 -257 -554.5t-517 -202.5zM739 225q165 0 272.5 123t141.5 385q37 268 -35.5 395t-236.5 127t-273.5 -128t-146.5 -394
q-35 -261 39 -384.5t239 -123.5z" />
    <glyph glyph-name="omacron" unicode="&#x14d;" horiz-adv-x="1177" 
d="M1085 1468l-28 -192h-713l27 192h714zM510 -20q-232 0 -352 150.5t-86 391.5q34 248 199.5 401.5t394.5 153.5q234 0 354 -154.5t86 -398.5q-32 -240 -197 -392t-399 -152zM543 174q57 0 105 32t80 86t52 114.5t29 125.5q12 63 6.5 126.5t-22 114t-57 82.5t-97.5 32
q-58 0 -106.5 -31.5t-80 -84t-52 -112.5t-29.5 -127q-11 -62 -5.5 -125.5t22 -115t57 -84.5t98.5 -33z" />
    <glyph glyph-name="Obreve" unicode="&#x14e;" horiz-adv-x="1558" 
d="M1311 1905q-54 -124 -160 -193.5t-236 -69.5q-293 0 -325 263h160q66 -115 172 -115q60 0 113 30.5t87 84.5h189zM705 -20q-313 0 -465 201.5t-103 553.5q47 354 257.5 560t518.5 206t461.5 -205.5t104.5 -558.5q-49 -352 -257 -554.5t-517 -202.5zM739 225
q165 0 272.5 123t141.5 385q37 268 -35.5 395t-236.5 127t-273.5 -128t-146.5 -394q-35 -261 39 -384.5t239 -123.5z" />
    <glyph glyph-name="obreve" unicode="&#x14f;" horiz-adv-x="1177" 
d="M1081 1481q-54 -123 -159.5 -192.5t-235.5 -69.5q-294 0 -326 262h160q66 -115 172 -115q60 0 113.5 30.5t87.5 84.5h188zM510 -20q-232 0 -352 150.5t-86 391.5q34 248 199.5 401.5t394.5 153.5q234 0 354 -154.5t86 -398.5q-32 -240 -197 -392t-399 -152zM543 174
q57 0 105 32t80 86t52 114.5t29 125.5q12 63 6.5 126.5t-22 114t-57 82.5t-97.5 32q-58 0 -106.5 -31.5t-80 -84t-52 -112.5t-29.5 -127q-11 -62 -5.5 -125.5t22 -115t57 -84.5t98.5 -33z" />
    <glyph glyph-name="Ohungarumlaut" unicode="&#x150;" horiz-adv-x="1558" 
d="M879 1933l116 -168l-360 -219l-88 113zM1262 1933l116 -168l-360 -219l-88 113zM705 -20q-313 0 -465 201.5t-103 553.5q47 354 257.5 560t518.5 206t461.5 -205.5t104.5 -558.5q-49 -352 -257 -554.5t-517 -202.5zM739 225q165 0 272.5 123t141.5 385q37 268 -35.5 395
t-236.5 127t-273.5 -128t-146.5 -394q-35 -261 39 -384.5t239 -123.5z" />
    <glyph glyph-name="ohungarumlaut" unicode="&#x151;" horiz-adv-x="1177" 
d="M649 1509l117 -168l-363 -219l-86 113zM1032 1509l117 -168l-361 -219l-88 113zM510 -20q-232 0 -352 150.5t-86 391.5q34 248 199.5 401.5t394.5 153.5q234 0 354 -154.5t86 -398.5q-32 -240 -197 -392t-399 -152zM543 174q57 0 105 32t80 86t52 114.5t29 125.5
q12 63 6.5 126.5t-22 114t-57 82.5t-97.5 32q-58 0 -106.5 -31.5t-80 -84t-52 -112.5t-29.5 -127q-11 -62 -5.5 -125.5t22 -115t57 -84.5t98.5 -33z" />
    <glyph glyph-name="OE" unicode="&#x152;" horiz-adv-x="2281" 
d="M2120 250l-33 -250h-944l-56 86q-135 -106 -354 -106q-327 0 -485.5 206t-108.5 566q50 350 260.5 549.5t536.5 199.5q215 0 319 -110l68 90h946l-37 -250h-702l-47 -363h475l-37 -247h-473l-51 -371h723zM727 219q168 0 263.5 127t133.5 402q37 270 -18 393t-209 123
q-169 0 -268.5 -132.5t-139.5 -414.5q-35 -264 21.5 -381t216.5 -117z" />
    <glyph glyph-name="oe" unicode="&#x153;" horiz-adv-x="1939" 
d="M532 -20q-157 0 -270 71t-162.5 198.5t-27.5 289.5q35 242 200 390t390 148q114 0 200.5 -43.5t134.5 -120.5q24 -10 50 23q74 67 166 104t188 37q114 0 204 -41.5t148.5 -118t81.5 -190.5t4 -254h-725q-15 -132 45 -209.5t162 -77.5q77 0 144 35.5t137 114.5l204 -94
q-121 -148 -240 -205t-286 -57q-112 0 -200 42.5t-140 118.5q-20 8 -37 -26q-163 -135 -371 -135zM1411 893q-100 0 -177.5 -72.5t-90.5 -189.5l430 6q10 96 -32.5 176t-129.5 80zM539 180q114 0 188.5 94.5t97.5 272.5q23 166 -19.5 251t-146.5 85q-114 0 -187.5 -95
t-98.5 -276q-47 -332 166 -332z" />
    <glyph glyph-name="Racute" unicode="&#x154;" horiz-adv-x="1415" 
d="M1104 1931l45 -202l-545 -142l-31 135zM1229 0h-307l-158 569h-291l-80 -569h-297l205 1481h617q251 0 359.5 -119.5t80.5 -323.5q-12 -84 -41.5 -152.5t-73.5 -118t-91.5 -84t-107.5 -62.5zM772 801q114 0 191.5 63t91.5 166q13 101 -43.5 161t-157.5 60h-287l-63 -450
h268z" />
    <glyph glyph-name="racute" unicode="&#x155;" horiz-adv-x="821" 
d="M823 1507l43 -202l-544 -142l-31 135zM57 0l146 1057h286l-36 -258q63 122 170.5 200t232.5 78l-37 -282q-92 8 -165.5 -8.5t-119 -51.5t-71.5 -77.5t-33 -90.5l-76 -567h-297z" />
    <glyph glyph-name="uni0156" unicode="&#x156;" horiz-adv-x="1415" 
d="M1229 0h-307l-158 569h-291l-80 -569h-297l205 1481h617q251 0 359.5 -119.5t80.5 -323.5q-12 -84 -41.5 -152.5t-73.5 -118t-91.5 -84t-107.5 -62.5zM772 801q114 0 191.5 63t91.5 166q13 101 -43.5 161t-157.5 60h-287l-63 -450h268zM463 -485l137 174h-108l30 192h209
l-26 -203l-152 -163h-90z" />
    <glyph glyph-name="uni0157" unicode="&#x157;" horiz-adv-x="817" 
d="M53 0l146 1057h286l-36 -258q63 122 170.5 200t234.5 78l-39 -282q-92 8 -165.5 -8.5t-119 -51.5t-71.5 -77.5t-33 -90.5l-76 -567h-297zM53 -485l137 174h-106l29 192h211l-29 -203l-150 -163h-92z" />
    <glyph glyph-name="Rcaron" unicode="&#x158;" horiz-adv-x="1415" 
d="M1008 1907h249l-296 -279h-203l-234 279h199l129 -154zM1229 0h-307l-158 569h-291l-80 -569h-297l205 1481h617q251 0 359.5 -119.5t80.5 -323.5q-12 -84 -41.5 -152.5t-73.5 -118t-91.5 -84t-107.5 -62.5zM772 801q114 0 191.5 63t91.5 166q13 101 -43.5 161t-157.5 60
h-287l-63 -450h268z" />
    <glyph glyph-name="rcaron" unicode="&#x159;" horiz-adv-x="821" 
d="M702 1483h252l-299 -279h-202l-234 279h199l129 -154zM35 0l145 1057h287l-37 -258q63 122 171 200t235 78l-39 -282q-92 8 -165.5 -8.5t-119 -51.5t-71.5 -77.5t-33 -90.5l-76 -567h-297z" />
    <glyph glyph-name="Sacute" unicode="&#x15a;" horiz-adv-x="1406" 
d="M1128 1931l46 -202l-547 -142l-29 135zM639 -20q-206 0 -360.5 78t-212.5 214l229 146q44 -67 84 -104.5t107 -60t165 -22.5q129 0 212.5 39t94.5 125q9 57 -16.5 98.5t-110.5 69.5l-303 94q-159 49 -236.5 153.5t-58.5 244.5q27 194 198.5 320t424.5 126
q174 0 307.5 -64.5t192.5 -183.5l-230 -147q-25 37 -46.5 60.5t-56 48t-82 36t-110.5 11.5q-122 0 -192.5 -45.5t-81.5 -120.5q0 -16 -1 -32t7 -35t21.5 -36t42.5 -34.5t71 -30.5l297 -90q333 -105 291 -404q-29 -209 -203.5 -331.5t-443.5 -122.5z" />
    <glyph glyph-name="sacute" unicode="&#x15b;" horiz-adv-x="1110" 
d="M924 1507l45 -202l-545 -142l-31 135zM483 -20q-175 0 -293 71t-157 182l198 97q34 -61 109 -103.5t174 -42.5q71 0 138 30t73 73q6 40 -30.5 65.5t-112.5 46.5l-164 39q-301 67 -268 293q19 155 154 250.5t341 95.5q161 0 262.5 -61.5t141.5 -161.5l-199 -92
q-27 52 -89.5 83.5t-148.5 31.5q-76 0 -137 -30t-67 -75q-4 -34 29 -55.5t126 -48.5l189 -52q82 -22 136.5 -57t78.5 -77t31 -81t1 -82q-23 -156 -166 -247.5t-350 -91.5z" />
    <glyph glyph-name="Scircumflex" unicode="&#x15c;" horiz-adv-x="1406" 
d="M1012 1642l-113 156l-170 -156h-231l299 277h202l226 -277h-213zM639 -20q-206 0 -360.5 78t-212.5 214l229 146q44 -67 84 -104.5t107 -60t165 -22.5q129 0 212.5 39t94.5 125q9 57 -16.5 98.5t-110.5 69.5l-303 94q-159 49 -236.5 153.5t-58.5 244.5q27 194 198.5 320
t424.5 126q174 0 307.5 -64.5t192.5 -183.5l-230 -147q-25 37 -46.5 60.5t-56 48t-82 36t-110.5 11.5q-122 0 -192.5 -45.5t-81.5 -120.5q0 -16 -1 -32t7 -35t21.5 -36t42.5 -34.5t71 -30.5l297 -90q333 -105 291 -404q-29 -209 -203.5 -331.5t-443.5 -122.5z" />
    <glyph glyph-name="scircumflex" unicode="&#x15d;" horiz-adv-x="1110" 
d="M821 1219l-114 155l-170 -155h-232l301 276h201l225 -276h-211zM483 -20q-175 0 -293 71t-157 182l198 97q34 -61 109 -103.5t174 -42.5q71 0 138 30t73 73q6 40 -30.5 65.5t-112.5 46.5l-164 39q-301 67 -268 293q19 155 154 250.5t341 95.5q161 0 262.5 -61.5
t141.5 -161.5l-199 -92q-27 52 -89.5 83.5t-148.5 31.5q-76 0 -137 -30t-67 -75q-4 -34 29 -55.5t126 -48.5l189 -52q82 -22 136.5 -57t78.5 -77t31 -81t1 -82q-23 -156 -166 -247.5t-350 -91.5z" />
    <glyph glyph-name="Scedilla" unicode="&#x15e;" horiz-adv-x="1406" 
d="M995 838q333 -105 291 -404q-28 -195 -183 -316t-398 -136l-43 -93q101 -1 143 -53t33 -121q-10 -71 -81.5 -111t-168.5 -40q-154 0 -236 76l41 69q84 -39 148 -39q52 0 85 22t38 58t-28.5 51.5t-121.5 16.5q-18 0 -25.5 7t-1.5 19l80 138q-182 14 -314.5 90t-186.5 200
l229 146q44 -67 84 -104.5t107 -60t165 -22.5q129 0 212.5 39t94.5 125q9 57 -16.5 98.5t-110.5 69.5l-303 94q-159 49 -236.5 153.5t-58.5 244.5q27 194 198.5 320t424.5 126q174 0 307.5 -64.5t192.5 -183.5l-230 -147q-25 37 -46.5 60.5t-56 48t-82 36t-110.5 11.5
q-122 0 -192.5 -45.5t-81.5 -120.5q0 -16 -1 -32t7 -35t21.5 -36t42.5 -34.5t71 -30.5z" />
    <glyph glyph-name="scedilla" unicode="&#x15f;" horiz-adv-x="1110" 
d="M752 616q82 -22 136.5 -57t78.5 -77t31 -81t1 -82q-21 -147 -150 -237.5t-319 -99.5l-49 -107q100 -1 142 -53t32 -121q-10 -71 -81 -111.5t-168 -40.5q-154 0 -236 76l41 70q88 -39 149 -39q50 0 83.5 22t39.5 58q5 36 -28 51t-121 16q-18 0 -26 7.5t-3 19.5l90 156
q-140 17 -234 84t-128 163l198 97q34 -61 109 -103.5t174 -42.5q71 0 138 30t73 73q6 40 -30.5 65.5t-112.5 46.5l-164 39q-301 67 -268 293q19 155 154 250.5t341 95.5q161 0 262.5 -61.5t141.5 -161.5l-199 -92q-27 52 -89.5 83.5t-148.5 31.5q-76 0 -137 -30t-67 -75
q-4 -34 29 -55.5t126 -48.5z" />
    <glyph glyph-name="Scaron" unicode="&#x160;" horiz-adv-x="1406" 
d="M1030 1907h252l-299 -279h-203l-233 279h201l126 -154zM639 -20q-206 0 -360.5 78t-212.5 214l229 146q44 -67 84 -104.5t107 -60t165 -22.5q129 0 212.5 39t94.5 125q9 57 -16.5 98.5t-110.5 69.5l-303 94q-159 49 -236.5 153.5t-58.5 244.5q27 194 198.5 320t424.5 126
q174 0 307.5 -64.5t192.5 -183.5l-230 -147q-25 37 -46.5 60.5t-56 48t-82 36t-110.5 11.5q-122 0 -192.5 -45.5t-81.5 -120.5q0 -16 -1 -32t7 -35t21.5 -36t42.5 -34.5t71 -30.5l297 -90q333 -105 291 -404q-29 -209 -203.5 -331.5t-443.5 -122.5z" />
    <glyph glyph-name="scaron" unicode="&#x161;" horiz-adv-x="1110" 
d="M827 1483h250l-299 -279h-200l-234 279h199l129 -154zM483 -20q-175 0 -293 71t-157 182l198 97q34 -61 109 -103.5t174 -42.5q71 0 138 30t73 73q6 40 -30.5 65.5t-112.5 46.5l-164 39q-301 67 -268 293q19 155 154 250.5t341 95.5q161 0 262.5 -61.5t141.5 -161.5
l-199 -92q-27 52 -89.5 83.5t-148.5 31.5q-76 0 -137 -30t-67 -75q-4 -34 29 -55.5t126 -48.5l189 -52q82 -22 136.5 -57t78.5 -77t31 -81t1 -82q-23 -156 -166 -247.5t-350 -91.5z" />
    <glyph glyph-name="uni0162" unicode="&#x162;" horiz-adv-x="1232" 
d="M166 1481h1167l-37 -269h-430l-166 -1212h-61l-53 -111q101 -1 143 -53t33 -121q-10 -71 -82 -111t-170 -40q-152 0 -234 76l41 69q84 -39 148 -39q52 0 85 22t38 58t-28.5 51.5t-121.5 16.5q-17 0 -24.5 7t-1.5 19l90 156h-101l168 1212h-440z" />
    <glyph glyph-name="uni0163" unicode="&#x163;" horiz-adv-x="860" 
d="M586 850l-74 -559q-8 -56 8.5 -76t57.5 -20h159l-26 -181q-63 -26 -187 -26l-47 -99q101 -1 143 -53t33 -121q-10 -71 -82 -111t-170 -40q-151 0 -233 76l41 69q84 -39 147 -39q52 0 85 22t38 58t-28 51.5t-121 16.5q-18 0 -25.5 7t-1.5 19l90 154q-119 23 -158.5 92.5
t-23.5 183.5l78 576h-183l31 207h191l88 340h246l-48 -338h238l-29 -209h-237z" />
    <glyph glyph-name="Tcaron" unicode="&#x164;" horiz-adv-x="1232" 
d="M952 1907h252l-299 -279h-203l-233 279h201l127 -154zM129 1212l37 269h1167l-37 -269h-430l-166 -1212h-299l168 1212h-440z" />
    <glyph glyph-name="tcaron" unicode="&#x165;" horiz-adv-x="854" 
d="M713 1141l116 209l-67 8l31 231h202l-34 -250l-109 -198h-139zM823 850h-237l-74 -559q-8 -56 8.5 -76t57.5 -20h159l-26 -181q-63 -26 -191 -26q-101 0 -168 20.5t-99 58t-43 90.5t1 117l78 576h-183l31 207h191l88 340h246l-48 -338h238z" />
    <glyph glyph-name="Tbar" unicode="&#x166;" horiz-adv-x="1232" 
d="M1296 1212h-430l-53 -383h315l-30 -219h-314l-84 -610h-299l84 610h-202l28 219h205l53 383h-440l37 269h1167z" />
    <glyph glyph-name="tbar" unicode="&#x167;" horiz-adv-x="913" 
d="M862 850h-235l-27 -191h195l-23 -167h-194l-27 -201q-7 -56 9.5 -76t55.5 -20h160l-24 -181q-63 -26 -193 -26q-101 0 -168 20.5t-99 58t-43 90.5t1 117l31 218h-154l23 167h153l27 191h-183l29 207h191l90 340h245l-47 -338h236z" />
    <glyph glyph-name="Utilde" unicode="&#x168;" horiz-adv-x="1484" 
d="M1255 1726q-96 -51 -202 -51q-61 0 -148.5 29t-132.5 29q-27 0 -51 -7t-38 -15t-39.5 -24.5t-41.5 -25.5l-37 172q50 34 94.5 52t102.5 18q64 0 157.5 -31t131.5 -31q46 0 108.5 33t77.5 37zM1343 565q-20 -139 -66.5 -244t-125 -183t-197.5 -118t-276 -40
q-158 0 -266.5 41t-164.5 118t-74.5 186.5t3.5 247.5l125 908h301l-125 -930q-24 -160 41 -239t195 -79q131 0 218 79t111 239l127 930h301z" />
    <glyph glyph-name="utilde" unicode="&#x169;" horiz-adv-x="1206" 
d="M1065 1303q-98 -52 -203 -52q-61 0 -148 29t-132 29q-27 0 -51 -7t-38 -15t-39.5 -24.5t-41.5 -25.5l-37 172q51 35 95 52.5t101 17.5q64 0 157.5 -31t131.5 -31q46 0 109 33t78 37zM393 -20q-141 2 -228.5 89.5t-66.5 231.5l105 758h297l-101 -721q-9 -71 26.5 -112.5
t113.5 -41.5q68 0 120 33.5t99 99.5l102 742h299l-149 -1059h-224l-12 174q-86 -96 -187 -145t-194 -49z" />
    <glyph glyph-name="Umacron" unicode="&#x16a;" horiz-adv-x="1484" 
d="M1276 1892l-27 -192h-712l26 192h713zM1343 565q-20 -139 -66.5 -244t-125 -183t-197.5 -118t-276 -40q-158 0 -266.5 41t-164.5 118t-74.5 186.5t3.5 247.5l125 908h301l-125 -930q-24 -160 41 -239t195 -79q131 0 218 79t111 239l127 930h301z" />
    <glyph glyph-name="umacron" unicode="&#x16b;" horiz-adv-x="1206" 
d="M1087 1468l-26 -192h-713l27 192h712zM393 -20q-141 2 -228.5 89.5t-66.5 231.5l105 758h297l-101 -721q-9 -71 26.5 -112.5t113.5 -41.5q68 0 120 33.5t99 99.5l102 742h299l-149 -1059h-224l-12 174q-86 -96 -187 -145t-194 -49z" />
    <glyph glyph-name="Ubreve" unicode="&#x16c;" horiz-adv-x="1484" 
d="M1276 1905q-54 -124 -159.5 -193.5t-235.5 -69.5q-294 0 -326 263h160q66 -115 172 -115q60 0 113 30.5t87 84.5h189zM1343 565q-20 -139 -66.5 -244t-125 -183t-197.5 -118t-276 -40q-158 0 -266.5 41t-164.5 118t-74.5 186.5t3.5 247.5l125 908h301l-125 -930
q-24 -160 41 -239t195 -79q131 0 218 79t111 239l127 930h301z" />
    <glyph glyph-name="ubreve" unicode="&#x16d;" horiz-adv-x="1206" 
d="M1083 1481q-54 -123 -159.5 -192.5t-235.5 -69.5q-294 0 -326 262h160q66 -115 172 -115q60 0 113.5 30.5t87.5 84.5h188zM393 -20q-141 2 -228.5 89.5t-66.5 231.5l105 758h297l-101 -721q-9 -71 26.5 -112.5t113.5 -41.5q68 0 120 33.5t99 99.5l102 742h299l-149 -1059
h-224l-12 174q-86 -96 -187 -145t-194 -49z" />
    <glyph glyph-name="Uring" unicode="&#x16e;" horiz-adv-x="1484" 
d="M1124 1790q-12 -89 -79.5 -147t-155.5 -58q-97 0 -154.5 70.5t-44.5 171.5q12 84 80.5 141t155.5 57q95 0 153 -68.5t45 -166.5zM1008 1821q6 39 -15.5 61.5t-60.5 22.5q-46 0 -86 -33.5t-47 -83.5q-3 -35 21 -60.5t59 -25.5q46 0 84.5 36t44.5 83zM1343 565
q-20 -139 -66.5 -244t-125 -183t-197.5 -118t-276 -40q-158 0 -266.5 41t-164.5 118t-74.5 186.5t3.5 247.5l125 908h301l-125 -930q-24 -160 41 -239t195 -79q131 0 218 79t111 239l127 930h301z" />
    <glyph glyph-name="uring" unicode="&#x16f;" horiz-adv-x="1206" 
d="M936 1366q-12 -89 -80 -147t-156 -58q-97 0 -154.5 70.5t-43.5 171.5q12 84 80 141.5t155 57.5q96 0 154 -69t45 -167zM819 1397q6 39 -15.5 61.5t-60.5 22.5q-46 0 -86 -33.5t-47 -83.5q-3 -35 21 -60.5t59 -25.5q46 0 84.5 36t44.5 83zM393 -20q-141 2 -228.5 89.5
t-66.5 231.5l105 758h297l-101 -721q-9 -71 26.5 -112.5t113.5 -41.5q68 0 120 33.5t99 99.5l102 742h299l-149 -1059h-224l-12 174q-86 -96 -187 -145t-194 -49z" />
    <glyph glyph-name="Uhungarumlaut" unicode="&#x170;" horiz-adv-x="1484" 
d="M840 1933l116 -168l-360 -219l-88 113zM1225 1933l114 -168l-360 -219l-86 113zM1343 565q-20 -139 -66.5 -244t-125 -183t-197.5 -118t-276 -40q-158 0 -266.5 41t-164.5 118t-74.5 186.5t3.5 247.5l125 908h301l-125 -930q-24 -160 41 -239t195 -79q131 0 218 79
t111 239l127 930h301z" />
    <glyph glyph-name="uhungarumlaut" unicode="&#x171;" horiz-adv-x="1206" 
d="M649 1509l117 -168l-360 -219l-89 113zM1034 1509l115 -168l-361 -219l-86 113zM393 -20q-141 2 -228.5 89.5t-66.5 231.5l105 758h297l-101 -721q-9 -71 26.5 -112.5t113.5 -41.5q68 0 120 33.5t99 99.5l102 742h299l-149 -1059h-224l-12 174q-86 -96 -187 -145
t-194 -49z" />
    <glyph glyph-name="Uogonek" unicode="&#x172;" horiz-adv-x="1484" 
d="M1169 1481h301l-127 -916q-35 -245 -158 -391.5t-354 -183.5q-86 -33 -125 -67.5t-44 -78.5q-6 -57 57 -57q25 0 50.5 6t37.5 11t40.5 19t31.5 15l-21 -151q-100 -31 -207 -31t-163 48.5t-44 135.5q7 44 35 79t92 67q-247 25 -339.5 175t-55.5 412l125 908h301l-125 -930
q-24 -160 41 -239t195 -79q131 0 218 79t111 239z" />
    <glyph glyph-name="uogonek" unicode="&#x173;" horiz-adv-x="1208" 
d="M989 0q-99 -36 -145 -73.5t-51 -82.5q-3 -28 11.5 -42.5t47.5 -14.5q24 0 49 6t38.5 11t39.5 17.5t31 14.5l-21 -149q-100 -31 -205 -31q-108 0 -163 48.5t-43 135.5q7 55 50.5 97t155.5 79l-10 158q-86 -96 -187 -145t-194 -49q-141 2 -228.5 89.5t-66.5 231.5l105 758
h297l-101 -721q-9 -71 26.5 -112.5t113.5 -41.5q68 0 120 33.5t99 99.5l102 742h299l-149 -1059h-21z" />
    <glyph glyph-name="Wcircumflex" unicode="&#x174;" horiz-adv-x="1959" 
d="M1278 1642l-115 156l-170 -156h-231l301 277h201l225 -277h-211zM2050 1481l-635 -1481h-237l-138 969l-407 -969h-232l-227 1481h291l137 -977l402 977h215l139 -977l401 977h291z" />
    <glyph glyph-name="wcircumflex" unicode="&#x175;" horiz-adv-x="1615" 
d="M1044 1219l-114 155l-170 -155h-232l301 276h201l225 -276h-211zM1655 1057l-492 -1057h-229l-109 641l-284 -641h-234l-198 1057h278l113 -656l282 656h213l107 -656l287 656h266z" />
    <glyph glyph-name="Ycircumflex" unicode="&#x176;" horiz-adv-x="1339" 
d="M997 1642l-114 156l-170 -156h-232l301 277h201l225 -277h-211zM1458 1481l-624 -858l-86 -623h-299l86 623l-388 858h320l252 -602l414 602h325z" />
    <glyph glyph-name="ycircumflex" unicode="&#x177;" horiz-adv-x="1142" 
d="M844 1219l-113 155l-170 -155h-231l299 276h202l226 -276h-213zM174 -338q-64 0 -112 9t-64 19l-16 9l26 190l105 -4q50 -3 90.5 4t62 16.5t40.5 29t23 27t13 24.5l25 59l-265 1012h295l154 -688l346 688h291l-567 -1063q-55 -99 -109 -165.5t-110 -102t-109.5 -50
t-118.5 -14.5z" />
    <glyph glyph-name="Ydieresis" unicode="&#x178;" horiz-adv-x="1339" 
d="M829 1905l-36 -258h-265l37 258h264zM1223 1905l-35 -258h-264l37 258h262zM1458 1481l-624 -858l-86 -623h-299l86 623l-388 858h320l252 -602l414 602h325z" />
    <glyph glyph-name="Zacute" unicode="&#x179;" horiz-adv-x="1355" 
d="M1128 1931l46 -202l-547 -142l-29 135zM25 0l22 145l887 1084h-688l35 252h1112l-19 -140l-901 -1087h741l-32 -254h-1157z" />
    <glyph glyph-name="zacute" unicode="&#x17a;" horiz-adv-x="1060" 
d="M899 1507l45 -202l-547 -142l-28 135zM-4 0l20 154l637 714h-495l26 189h867l-21 -150l-639 -714h547l-27 -193h-915z" />
    <glyph glyph-name="Zdotaccent" unicode="&#x17b;" horiz-adv-x="1355" 
d="M1063 1905l-41 -293h-303l41 293h303zM25 0l22 145l887 1084h-688l35 252h1112l-19 -140l-901 -1087h741l-32 -254h-1157z" />
    <glyph glyph-name="zdotaccent" unicode="&#x17c;" horiz-adv-x="1060" 
d="M831 1481l-40 -293h-304l41 293h303zM-4 0l20 154l637 714h-495l26 189h867l-21 -150l-639 -714h547l-27 -193h-915z" />
    <glyph glyph-name="Zcaron" unicode="&#x17d;" horiz-adv-x="1355" 
d="M1032 1907h250l-299 -279h-201l-233 279h199l129 -154zM25 0l22 145l887 1084h-688l35 252h1112l-19 -140l-901 -1087h741l-32 -254h-1157z" />
    <glyph glyph-name="zcaron" unicode="&#x17e;" horiz-adv-x="1060" 
d="M803 1483h250l-299 -279h-201l-234 279h199l129 -154zM-4 0l20 154l637 714h-495l26 189h867l-21 -150l-639 -714h547l-27 -193h-915z" />
    <glyph glyph-name="uni018F" unicode="&#x18f;" horiz-adv-x="1556" 
d="M1126 819q6 47 7.5 90.5t-3 92.5t-21 89t-43 73.5t-72 52t-105.5 18.5q-39 0 -75.5 -8.5t-63 -18.5t-56.5 -33.5t-46.5 -37.5t-43 -48.5t-36 -47.5t-36 -53.5t-32.5 -49.5l-273 139q256 424 672 424q112 0 206 -28.5t160.5 -79.5t116 -121.5t73 -156t31.5 -182.5t-9 -200
q-29 -207 -135.5 -378t-273 -273t-359.5 -102q-136 0 -241.5 39t-173.5 111.5t-108.5 176t-47 232.5t11.5 280h976zM1096 610l-613 -10q-11 -72 -1 -140.5t34 -121.5t76 -85t125 -32q85 0 150.5 29t109.5 84t72 122t47 154z" />
    <glyph glyph-name="florin" unicode="&#x192;" horiz-adv-x="1050" 
d="M995 1057l-65 -207h-217l-289 -928q-40 -127 -134 -195.5t-229 -68.5h-243l59 199l115 2q60 0 94 32.5t59 114.5l263 844h-170l67 207h168l49 160q39 128 134.5 196t228.5 68h252l-64 -201h-129q-43 0 -86.5 -38.5t-58.5 -90.5l-31 -94h227z" />
    <glyph glyph-name="Ohorn" unicode="&#x1a0;" horiz-adv-x="1468" 
d="M1262 1405q135 -93 192 -265t25 -403q-49 -352 -257 -554.5t-517 -202.5q-313 0 -465 201.5t-103 553.5q47 354 257.5 560t518.5 206q82 0 148 -14q56 3 101 34.5t73 86.5h188q-53 -135 -161 -203zM1153 733q37 268 -35.5 395t-236.5 127t-273.5 -128t-146.5 -394
q-35 -261 39 -384.5t239 -123.5t272.5 123t141.5 385z" />
    <glyph glyph-name="ohorn" unicode="&#x1a1;" horiz-adv-x="1161" 
d="M979 967q80 -74 113.5 -189.5t13.5 -253.5q-32 -240 -197 -392t-399 -152q-232 0 -352 150.5t-86 391.5q34 248 199.5 401.5t394.5 153.5q78 0 153 -20q86 21 131 112h191q-53 -134 -162 -202zM809 532q12 63 6.5 126.5t-22 114t-57 82.5t-97.5 32q-58 0 -106.5 -31.5
t-80 -84t-52 -112.5t-29.5 -127q-11 -62 -5.5 -125.5t22 -115t57 -84.5t98.5 -33q57 0 105 32t80 86t52 114.5t29 125.5z" />
    <glyph glyph-name="Uhorn" unicode="&#x1af;" horiz-adv-x="1439" 
d="M1802 1612q-45 -119 -137.5 -187.5t-212.5 -76.5l-109 -783q-20 -139 -66.5 -244t-125 -183t-197.5 -118t-276 -40q-158 0 -266.5 41t-164.5 118t-74.5 186.5t3.5 247.5l125 908h301l-125 -930q-24 -160 41 -239t195 -79q131 0 218 79t111 239l127 930h256v10
q61 0 110.5 31.5t78.5 89.5h188z" />
    <glyph glyph-name="uhorn" unicode="&#x1b0;" horiz-adv-x="1212" 
d="M1395 1176q-75 -190 -254 -248l-131 -928h-224l-12 174q-86 -96 -187 -145t-194 -49q-141 2 -228.5 89.5t-66.5 231.5l105 758h297l-101 -721q-9 -71 26.5 -112.5t113.5 -41.5q68 0 120 33.5t99 99.5l102 742h199q96 18 145 117h191z" />
    <glyph glyph-name="uni01EA" unicode="&#x1ea;" horiz-adv-x="1558" 
d="M913 1501q308 0 461.5 -205.5t104.5 -558.5q-41 -291 -192 -481.5t-382 -251.5q-110 -37 -159 -75t-54 -85q-3 -29 11.5 -43t46.5 -14q17 0 34 2.5t28.5 5.5t28.5 9.5t23.5 9.5t24 12t20.5 10l-20 -151q-100 -31 -205 -31q-108 0 -163.5 48.5t-43.5 135.5q5 45 33.5 80.5
t97.5 67.5q-265 31 -390 228.5t-81 520.5q47 354 257.5 560t518.5 206zM1153 733q37 268 -35.5 395t-236.5 127t-273.5 -128t-146.5 -394q-35 -261 39 -384.5t239 -123.5t272.5 123t141.5 385z" />
    <glyph glyph-name="uni01EB" unicode="&#x1eb;" horiz-adv-x="1177" 
d="M666 1077q234 0 354 -154.5t86 -398.5q-26 -191 -138 -329t-280 -189l19 -2q-108 -38 -157 -75.5t-54 -84.5q-3 -30 10.5 -43.5t46.5 -13.5q24 0 49 6t38.5 11t39.5 17.5t31 14.5l-19 -151q-121 -31 -207 -31q-107 0 -162.5 49t-43.5 137q7 44 37 80.5t98 67.5
q-187 31 -280 175.5t-62 358.5q34 248 199.5 401.5t394.5 153.5zM809 532q12 63 6.5 126.5t-22 114t-57 82.5t-97.5 32q-58 0 -106.5 -31.5t-80 -84t-52 -112.5t-29.5 -127q-11 -62 -5.5 -125.5t22 -115t57 -84.5t98.5 -33q57 0 105 32t80 86t52 114.5t29 125.5z" />
    <glyph glyph-name="Aringacute" unicode="&#x1fa;" horiz-adv-x="1497" 
d="M1061 1477l293 -1477h-346l-64 346h-491l-162 -346h-307l708 1481h19q-32 59 -23 131q9 66 57.5 114.5t116.5 63.5l49 133h187l-92 -151q53 -26 79 -79t17 -118q-6 -57 -41 -98zM788 1573q-4 -35 19 -60.5t59 -25.5q46 0 84.5 36t44.5 83q4 40 -16.5 63t-58.5 23
q-47 0 -86.5 -34.5t-45.5 -84.5zM553 604h356l-102 545z" />
    <glyph glyph-name="aringacute" unicode="&#x1fb;" horiz-adv-x="1150" 
d="M442 1163l-28 135l80 31q-6 37 0 74q10 84 78.5 141.5t154.5 57.5q61 0 109 -29.5t73 -79.5l35 14l45 -202l-90 -23q-31 -56 -87 -88.5t-120 -32.5q-70 0 -119 37zM735 1481q-43 0 -82 -31t-49 -76l197 76q-22 31 -66 31zM659 1077q230 0 322.5 -87t71.5 -247l-103 -743
h-248v164q-59 -91 -149.5 -137.5t-200.5 -46.5q-154 0 -240 86t-65 237q23 174 164 261.5t418 94.5l129 7l8 59q11 77 -27.5 121.5t-117.5 44.5q-147 0 -242 -148l-234 29q64 142 199 223.5t315 81.5zM715 352l20 162l-104 -4q-60 -3 -106.5 -12.5t-89.5 -28.5t-70 -53.5
t-33 -83.5q-10 -72 32 -114t115 -42q80 0 153 54.5t83 121.5z" />
    <glyph glyph-name="AEacute" unicode="&#x1fc;" horiz-adv-x="2177" 
d="M1817 1931l45 -202l-547 -142l-29 135zM2015 250l-33 -250h-1050l47 346h-459l-229 -346h-314l988 1481h1200l-35 -250h-692l-47 -363h471l-39 -247h-467l-49 -371h708zM1016 604l90 660l-440 -660h350z" />
    <glyph glyph-name="aeacute" unicode="&#x1fd;" horiz-adv-x="1867" 
d="M1282 1507l43 -202l-545 -142l-30 135zM1042 471q-13 -126 47.5 -206.5t161.5 -80.5q81 0 144 37t137 115l201 -94q-115 -143 -237.5 -202.5t-289.5 -59.5q-134 0 -230 55t-153 141q-6 1 -13.5 -7t-10.5 -19q-98 -82 -204 -126t-245 -44q-163 0 -243.5 87t-59.5 230
q22 154 166.5 243.5t413.5 104.5l141 10l10 72q16 84 -28.5 123t-120.5 39q-129 0 -226 -146l-270 68q81 136 201 201t317 65q270 -3 344 -129q140 129 338 129q232 0 356 -160.5t80 -443.5zM1333 891q-98 0 -172.5 -70.5t-91.5 -189.5h457q11 103 -45.5 181.5t-147.5 78.5z
M745 498l-104 -9q-116 -10 -204 -63.5t-99 -140.5q-8 -58 25.5 -89t105.5 -30q93 3 168.5 53.5t85.5 118.5z" />
    <glyph glyph-name="Oslashacute" unicode="&#x1fe;" horiz-adv-x="1568" 
d="M1192 1931l45 -202l-545 -142l-30 135zM115 -31l-125 148l196 172q-85 195 -47 463q49 348 254 548.5t510 200.5q137 0 246.5 -45.5t181.5 -126.5l182 178l125 -145l-206 -182q83 -195 45 -459q-47 -346 -251.5 -543.5t-510.5 -197.5q-271 0 -426 161zM489 547l619 590
q-55 127 -215 127q-156 0 -252 -119t-139 -367q-21 -132 -13 -231zM727 221q161 0 256.5 120t136.5 378q17 126 6 205l-616 -590q56 -113 217 -113z" />
    <glyph glyph-name="oslashacute" unicode="&#x1ff;" horiz-adv-x="1236" 
d="M993 1305l-544 -142l-31 135l532 209zM1229 954l-150 -127q55 -134 31 -303q-32 -240 -197 -392t-399 -152q-189 0 -309 104l-117 -98l-96 114l123 105q-63 132 -39 317q34 248 199.5 401.5t394.5 153.5q208 0 327 -125l136 115zM375 532q-8 -74 -6 -112l426 360
q-46 107 -152 107q-58 0 -106.5 -31.5t-80 -84t-52 -112.5t-29.5 -127zM813 532q6 38 6 74l-411 -350q49 -82 139 -82q57 0 105 32t80 86t52 114.5t29 125.5z" />
    <glyph glyph-name="uni0200" unicode="&#x200;" horiz-adv-x="1456" 
d="M592 1933l270 -297l-92 -86l-324 236zM975 1933l270 -297l-92 -86l-324 236zM-23 0l728 1481h313l315 -1481h-297l-69 344h-523l-170 -344h-297zM547 604h385l-113 588z" />
    <glyph glyph-name="uni0201" unicode="&#x201;" horiz-adv-x="1150" 
d="M377 1509l270 -297l-90 -86l-326 236zM760 1509l272 -297l-92 -86l-326 236zM352 -20q-154 0 -240 86t-65 237q23 174 164 261.5t418 94.5l129 7l8 59q11 77 -27.5 121.5t-117.5 44.5q-147 0 -242 -148l-234 29q64 142 199 223.5t315 81.5q230 0 322.5 -87t71.5 -247
l-103 -743h-248v164q-59 -91 -149.5 -137.5t-200.5 -46.5zM479 176q80 0 153 54.5t83 121.5l20 162l-104 -4q-60 -3 -106.5 -12.5t-89.5 -28.5t-70 -53.5t-33 -83.5q-10 -72 32 -114t115 -42z" />
    <glyph glyph-name="uni0202" unicode="&#x202;" horiz-adv-x="1456" 
d="M559 1642q54 125 155 194t230 69q137 0 227.5 -66t108.5 -197h-162q-62 115 -172 115q-60 0 -113 -30t-85 -85h-189zM-23 0l728 1481h313l315 -1481h-297l-69 344h-523l-170 -344h-297zM547 604h385l-113 588z" />
    <glyph glyph-name="uni0203" unicode="&#x203;" horiz-adv-x="1163" 
d="M360 1219q54 124 156.5 193t231.5 69q137 0 227 -65.5t108 -196.5h-161q-65 114 -172 114q-61 0 -114.5 -29.5t-86.5 -84.5h-189zM352 -20q-154 0 -240 86t-65 237q23 174 164 261.5t418 94.5l129 7l8 59q11 77 -27.5 121.5t-117.5 44.5q-147 0 -242 -148l-234 29
q64 142 199 223.5t315 81.5q230 0 322.5 -87t71.5 -247l-103 -743h-248v164q-59 -91 -149.5 -137.5t-200.5 -46.5zM479 176q80 0 153 54.5t83 121.5l20 162l-104 -4q-60 -3 -106.5 -12.5t-89.5 -28.5t-70 -53.5t-33 -83.5q-10 -72 32 -114t115 -42z" />
    <glyph glyph-name="uni0204" unicode="&#x204;" horiz-adv-x="1304" 
d="M520 1933l271 -297l-93 -86l-323 236zM903 1933l271 -297l-93 -86l-323 236zM96 0l205 1481h1002l-37 -254h-701l-51 -359h610l-32 -247h-613l-49 -365l715 -2l-37 -254h-1012z" />
    <glyph glyph-name="uni0205" unicode="&#x205;" horiz-adv-x="1175" 
d="M383 1509l270 -297l-90 -86l-325 236zM766 1509l272 -297l-94 -86l-323 236zM360 444q-17 -122 37 -196t162 -74q78 0 142 37.5t106 103.5l223 -59q-77 -134 -206 -205t-289 -71q-155 0 -267.5 65t-164.5 187.5t-29 283.5q16 118 67 221t128 178.5t180.5 118.5t220.5 43
q156 0 260 -72t144.5 -195.5t17.5 -283.5l-13 -82h-719zM389 643h436q16 114 -30 183t-152 69q-109 0 -175 -72.5t-79 -179.5z" />
    <glyph glyph-name="uni0206" unicode="&#x206;" horiz-adv-x="1304" 
d="M487 1642q54 125 155 194t230 69q137 0 227.5 -66t108.5 -197h-161q-27 51 -71 83t-102 32q-60 0 -113 -30t-85 -85h-189zM96 0l205 1481h1002l-37 -254h-701l-51 -359h610l-32 -247h-613l-49 -365l715 -2l-37 -254h-1012z" />
    <glyph glyph-name="uni0207" unicode="&#x207;" horiz-adv-x="1175" 
d="M367 1219q54 125 155.5 193.5t231.5 68.5q136 0 227 -65.5t109 -196.5h-162q-65 114 -172 114q-61 0 -114.5 -29.5t-86.5 -84.5h-188zM360 444q-17 -122 37 -196t162 -74q78 0 142 37.5t106 103.5l223 -59q-77 -134 -206 -205t-289 -71q-155 0 -267.5 65t-164.5 187.5
t-29 283.5q16 118 67 221t128 178.5t180.5 118.5t220.5 43q156 0 260 -72t144.5 -195.5t17.5 -283.5l-13 -82h-719zM389 643h436q16 114 -30 183t-152 69q-109 0 -175 -72.5t-79 -179.5z" />
    <glyph glyph-name="uni0208" unicode="&#x208;" horiz-adv-x="643" 
d="M168 1933l270 -297l-90 -86l-325 236zM551 1933l270 -297l-92 -86l-323 236zM307 1481h297l-205 -1481h-297z" />
    <glyph glyph-name="uni0209" unicode="&#x209;" horiz-adv-x="555" 
d="M70 1509l270 -297l-92 -86l-326 236zM453 1509l270 -297l-92 -86l-326 236zM494 1057l-148 -1057h-297l146 1057h299z" />
    <glyph glyph-name="uni020A" unicode="&#x20a;" horiz-adv-x="647" 
d="M139 1642q54 125 155 194t230 69q137 0 227.5 -66t108.5 -197h-162q-62 115 -172 115q-59 0 -112 -30t-86 -85h-189zM311 1481h297l-205 -1481h-297z" />
    <glyph glyph-name="uni020B" unicode="&#x20b;" horiz-adv-x="561" 
d="M55 1219q54 125 155 193.5t230 68.5q137 0 227.5 -65.5t108.5 -196.5h-162q-62 114 -172 114q-60 0 -112.5 -29.5t-85.5 -84.5h-189zM496 1057l-148 -1057h-297l148 1057h297z" />
    <glyph glyph-name="uni020C" unicode="&#x20c;" horiz-adv-x="1558" 
d="M612 1933l271 -297l-92 -86l-324 236zM995 1933l271 -297l-92 -86l-324 236zM705 -20q-313 0 -465 201.5t-103 553.5q47 354 257.5 560t518.5 206t461.5 -205.5t104.5 -558.5q-49 -352 -257 -554.5t-517 -202.5zM739 225q165 0 272.5 123t141.5 385q37 268 -35.5 395
t-236.5 127t-273.5 -128t-146.5 -394q-35 -261 39 -384.5t239 -123.5z" />
    <glyph glyph-name="uni020D" unicode="&#x20d;" horiz-adv-x="1177" 
d="M383 1509l270 -297l-92 -86l-323 236zM766 1509l270 -297l-92 -86l-323 236zM510 -20q-232 0 -352 150.5t-86 391.5q34 248 199.5 401.5t394.5 153.5q234 0 354 -154.5t86 -398.5q-32 -240 -197 -392t-399 -152zM543 174q57 0 105 32t80 86t52 114.5t29 125.5
q12 63 6.5 126.5t-22 114t-57 82.5t-97.5 32q-58 0 -106.5 -31.5t-80 -84t-52 -112.5t-29.5 -127q-11 -62 -5.5 -125.5t22 -115t57 -84.5t98.5 -33z" />
    <glyph glyph-name="uni020E" unicode="&#x20e;" horiz-adv-x="1558" 
d="M596 1642q54 125 155 194t230 69q137 0 228 -66t108 -197h-162q-27 51 -70.5 83t-99.5 32q-61 0 -114.5 -30t-86.5 -85h-188zM705 -20q-313 0 -465 201.5t-103 553.5q47 354 257.5 560t518.5 206t461.5 -205.5t104.5 -558.5q-49 -352 -257 -554.5t-517 -202.5zM739 225
q165 0 272.5 123t141.5 385q37 268 -35.5 395t-236.5 127t-273.5 -128t-146.5 -394q-35 -261 39 -384.5t239 -123.5z" />
    <glyph glyph-name="uni020F" unicode="&#x20f;" horiz-adv-x="1177" 
d="M367 1219q54 125 155 193.5t230 68.5q137 0 227 -65.5t108 -196.5h-161q-62 114 -172 114q-60 0 -113.5 -30t-85.5 -84h-188zM510 -20q-232 0 -352 150.5t-86 391.5q34 248 199.5 401.5t394.5 153.5q234 0 354 -154.5t86 -398.5q-32 -240 -197 -392t-399 -152zM543 174
q57 0 105 32t80 86t52 114.5t29 125.5q12 63 6.5 126.5t-22 114t-57 82.5t-97.5 32q-58 0 -106.5 -31.5t-80 -84t-52 -112.5t-29.5 -127q-11 -62 -5.5 -125.5t22 -115t57 -84.5t98.5 -33z" />
    <glyph glyph-name="uni0210" unicode="&#x210;" horiz-adv-x="1415" 
d="M539 1933l270 -297l-92 -86l-324 236zM922 1933l270 -297l-92 -86l-324 236zM1229 0h-307l-158 569h-291l-80 -569h-297l205 1481h617q251 0 359.5 -119.5t80.5 -323.5q-12 -84 -41.5 -152.5t-73.5 -118t-91.5 -84t-107.5 -62.5zM772 801q114 0 191.5 63t91.5 166
q13 101 -43.5 161t-157.5 60h-287l-63 -450h268z" />
    <glyph glyph-name="uni0211" unicode="&#x211;" horiz-adv-x="825" 
d="M242 1509l270 -297l-90 -86l-326 236zM625 1509l272 -297l-92 -86l-326 236zM43 0l145 1057h287l-35 -258q62 121 169.5 199.5t234.5 78.5l-39 -282q-92 8 -165.5 -8.5t-119 -51.5t-71.5 -77.5t-33 -90.5l-76 -567h-297z" />
    <glyph glyph-name="uni0212" unicode="&#x212;" horiz-adv-x="1415" 
d="M522 1642q54 125 155 194t230 69q137 0 227.5 -66t108.5 -197h-162q-62 115 -172 115q-59 0 -112 -30t-86 -85h-189zM1229 0h-307l-158 569h-291l-80 -569h-297l205 1481h617q251 0 359.5 -119.5t80.5 -323.5q-12 -84 -41.5 -152.5t-73.5 -118t-91.5 -84t-107.5 -62.5z
M772 801q114 0 191.5 63t91.5 166q13 101 -43.5 161t-157.5 60h-287l-63 -450h268z" />
    <glyph glyph-name="uni0213" unicode="&#x213;" horiz-adv-x="866" 
d="M250 1219q54 124 156 193t231 69q137 0 227.5 -65.5t108.5 -196.5h-162q-65 114 -172 114q-61 0 -114 -29.5t-85 -84.5h-190zM68 0l145 1057h287l-35 -258q63 122 170 200t233 78l-39 -282q-92 8 -165.5 -8.5t-118.5 -51.5t-71 -77.5t-32 -90.5l-75 -567h-299z" />
    <glyph glyph-name="uni0214" unicode="&#x214;" horiz-adv-x="1484" 
d="M578 1933l270 -297l-92 -86l-324 236zM961 1933l270 -297l-92 -86l-324 236zM1343 565q-20 -139 -66.5 -244t-125 -183t-197.5 -118t-276 -40q-158 0 -266.5 41t-164.5 118t-74.5 186.5t3.5 247.5l125 908h301l-125 -930q-24 -160 41 -239t195 -79q131 0 218 79t111 239
l127 930h301z" />
    <glyph glyph-name="uni0215" unicode="&#x215;" horiz-adv-x="1206" 
d="M385 1509l270 -297l-90 -86l-325 236zM768 1509l272 -297l-94 -86l-323 236zM395 -20q-142 2 -229.5 89.5t-67.5 231.5l105 758h299l-101 -721q-9 -71 26.5 -112.5t111.5 -41.5q70 0 121.5 33.5t99.5 99.5l102 742h299l-151 -1059h-224l-10 174q-85 -95 -187.5 -144.5
t-193.5 -49.5z" />
    <glyph glyph-name="uni0216" unicode="&#x216;" horiz-adv-x="1484" 
d="M557 1642q54 124 156 193.5t231 69.5q137 0 227.5 -66t108.5 -197h-162q-66 115 -172 115q-61 0 -113.5 -30t-84.5 -85h-191zM1343 565q-20 -139 -66.5 -244t-125 -183t-197.5 -118t-276 -40q-158 0 -266.5 41t-164.5 118t-74.5 186.5t3.5 247.5l125 908h301l-125 -930
q-24 -160 41 -239t195 -79q131 0 218 79t111 239l127 930h301z" />
    <glyph glyph-name="uni0217" unicode="&#x217;" horiz-adv-x="1206" 
d="M350 1219q54 125 155 193.5t230 68.5q137 0 227.5 -65.5t108.5 -196.5h-162q-62 114 -172 114q-60 0 -113 -30t-85 -84h-189zM393 -20q-141 2 -228.5 89.5t-66.5 231.5l105 758h297l-101 -721q-9 -71 26.5 -112.5t113.5 -41.5q68 0 120 33.5t99 99.5l102 742h299
l-149 -1059h-224l-12 174q-86 -96 -187 -145t-194 -49z" />
    <glyph glyph-name="uni0218" unicode="&#x218;" horiz-adv-x="1406" 
d="M639 -20q-206 0 -360.5 78t-212.5 214l229 146q44 -67 84 -104.5t107 -60t165 -22.5q129 0 212.5 39t94.5 125q9 57 -16.5 98.5t-110.5 69.5l-303 94q-159 49 -236.5 153.5t-58.5 244.5q27 194 198.5 320t424.5 126q174 0 307.5 -64.5t192.5 -183.5l-230 -147
q-25 37 -46.5 60.5t-56 48t-82 36t-110.5 11.5q-122 0 -192.5 -45.5t-81.5 -120.5q0 -16 -1 -32t7 -35t21.5 -36t42.5 -34.5t71 -30.5l297 -90q333 -105 291 -404q-29 -209 -203.5 -331.5t-443.5 -122.5zM463 -485l139 174h-108l28 192h211l-26 -203l-152 -163h-92z" />
    <glyph glyph-name="uni0219" unicode="&#x219;" horiz-adv-x="1110" 
d="M483 -20q-175 0 -293 71t-157 182l198 97q34 -61 109 -103.5t174 -42.5q71 0 138 30t73 73q6 40 -30.5 65.5t-112.5 46.5l-164 39q-301 67 -268 293q19 155 154 250.5t341 95.5q161 0 262.5 -61.5t141.5 -161.5l-199 -92q-27 52 -89.5 83.5t-148.5 31.5q-76 0 -137 -30
t-67 -75q-4 -34 29 -55.5t126 -48.5l189 -52q82 -22 136.5 -57t78.5 -77t31 -81t1 -82q-23 -156 -166 -247.5t-350 -91.5zM283 -500l137 174h-107l29 193h209l-27 -203l-149 -164h-92z" />
    <glyph glyph-name="uni021A" unicode="&#x21a;" horiz-adv-x="1232" 
d="M129 1212l37 269h1167l-37 -269h-430l-166 -1212h-299l168 1212h-440zM387 -485l137 174h-106l28 192h211l-28 -203l-150 -163h-92z" />
    <glyph glyph-name="uni021B" unicode="&#x21b;" horiz-adv-x="874" 
d="M823 850h-237l-74 -559q-8 -56 8.5 -76t57.5 -20h159l-26 -181q-63 -26 -191 -26q-101 0 -168 20.5t-99 58t-43 90.5t1 117l78 576h-183l31 207h191l88 340h246l-48 -338h238zM279 -485l137 174h-107l29 192h209l-27 -203l-149 -163h-92z" />
    <glyph glyph-name="uni0237" unicode="&#x237;" horiz-adv-x="585" 
d="M358 -2q-25 -175 -117.5 -256.5t-273.5 -81.5q-51 0 -86 9t-44 17l-9 9l29 196l88 11q63 8 88.5 41t32.5 86l141 1028h299z" />
    <glyph glyph-name="uni0259" unicode="&#x259;" horiz-adv-x="1177" 
d="M815 614q19 122 -35 196.5t-164 74.5q-76 0 -140 -38t-105 -104l-226 60q77 133 207 204.5t289 71.5q236 0 366 -146.5t97 -389.5q-34 -243 -198.5 -402t-397.5 -159q-156 0 -260.5 71.5t-145.5 195.5t-18 283l14 82h717zM788 418h-438q-14 -114 31.5 -184t150.5 -70
q109 0 175 72.5t81 181.5z" />
    <glyph glyph-name="uni02BC" unicode="&#x2bc;" horiz-adv-x="391" 
d="M139 909l117 273l-74 18l39 281h207l-37 -271l-135 -301h-117z" />
    <glyph glyph-name="circumflex" unicode="&#x2c6;" horiz-adv-x="782" 
d="M631 1219l-115 155l-170 -155h-231l301 276h200l226 -276h-211z" />
    <glyph glyph-name="caron" unicode="&#x2c7;" horiz-adv-x="788" 
d="M635 1483h250l-299 -279h-201l-233 279h198l129 -154z" />
    <glyph glyph-name="breve" unicode="&#x2d8;" horiz-adv-x="802" 
d="M889 1481q-54 -123 -159.5 -192.5t-235.5 -69.5q-294 0 -326 262h160q66 -115 172 -115q60 0 113 30.5t87 84.5h189z" />
    <glyph glyph-name="dotaccent" unicode="&#x2d9;" horiz-adv-x="389" 
d="M473 1481l-41 -293h-303l41 293h303z" />
    <glyph glyph-name="ring" unicode="&#x2da;" horiz-adv-x="524" 
d="M590 1352q-12 -89 -80 -147t-156 -58q-97 0 -154.5 70.5t-43.5 171.5q12 84 80 141t155 57q96 0 154 -68.5t45 -166.5zM473 1382q6 39 -15.5 61.5t-60.5 22.5q-46 0 -86 -33.5t-47 -82.5q-3 -35 21 -60.5t59 -25.5q47 0 85 35.5t44 82.5z" />
    <glyph glyph-name="ogonek" unicode="&#x2db;" horiz-adv-x="518" 
d="M-61 -160q8 57 53 99t160 79l217 -12q-110 -38 -159 -76t-54 -86q-6 -57 57 -57q25 0 50.5 6t37.5 11t40.5 19t31.5 15l-21 -151q-100 -31 -207 -31t-162.5 48.5t-43.5 135.5z" />
    <glyph glyph-name="tilde" unicode="&#x2dc;" horiz-adv-x="856" 
d="M887 1303q-98 -52 -203 -52q-61 0 -148.5 29t-132.5 29q-27 0 -51 -7t-38 -15t-39.5 -24.5t-41.5 -25.5l-36 172q51 35 95 52.5t101 17.5q64 0 157.5 -31t131.5 -31q46 0 108.5 33t77.5 37z" />
    <glyph glyph-name="hungarumlaut" unicode="&#x2dd;" horiz-adv-x="925" 
d="M477 1509l117 -168l-361 -219l-88 113zM862 1509l115 -168l-361 -219l-86 113z" />
    <glyph glyph-name="gravecomb" unicode="&#x300;" 
d="M-422 1505l485 -219l-59 -123l-514 148z" />
    <glyph glyph-name="acutecomb" unicode="&#x301;" 
d="M29 1507l45 -202l-549 -142l-29 135z" />
    <glyph glyph-name="uni0302" unicode="&#x302;" 
d="M-152 1219l-114 155l-170 -155h-232l301 276h201l225 -276h-211z" />
    <glyph glyph-name="tildecomb" unicode="&#x303;" 
d="M31 1303q-98 -52 -203 -52q-61 0 -148.5 29t-132.5 29q-27 0 -51 -7t-38 -15t-39.5 -24.5t-41.5 -25.5l-36 172q51 35 95 52.5t101 17.5q64 0 157.5 -31t131.5 -31q46 0 108.5 33t77.5 37z" />
    <glyph glyph-name="uni0304" unicode="&#x304;" 
d="M80 1468l-27 -192h-712l26 192h713z" />
    <glyph glyph-name="uni0306" unicode="&#x306;" 
d="M86 1481q-54 -123 -159.5 -192.5t-235.5 -69.5q-294 0 -326 262h160q66 -115 172 -115q60 0 113.5 30.5t87.5 84.5h188z" />
    <glyph glyph-name="uni0307" unicode="&#x307;" 
d="M84 1481l-41 -293h-303l41 293h303z" />
    <glyph glyph-name="uni0308" unicode="&#x308;" 
d="M-313 1481l-37 -258h-264l36 258h265zM82 1481l-37 -258h-262l35 258h264z" />
    <glyph glyph-name="hookabovecomb" unicode="&#x309;" 
d="M-649 1524l45 -119q75 43 123 43q30 0 48.5 -11t14.5 -36q-6 -31 -35 -59t-96 -72l62 -103q53 42 74 60t55.5 52.5t50 65t20.5 64.5q10 77 -39 123.5t-135 46.5q-68 0 -188 -55z" />
    <glyph glyph-name="uni030A" unicode="&#x30a;" 
d="M66 1352q-12 -89 -80 -147t-156 -58q-97 0 -154.5 70.5t-44.5 171.5q12 84 80.5 141t155.5 57q96 0 154 -68.5t45 -166.5zM-51 1382q6 39 -15.5 61.5t-60.5 22.5q-46 0 -86 -33.5t-47 -82.5q-3 -35 21 -60.5t59 -25.5q47 0 85 35.5t44 82.5z" />
    <glyph glyph-name="uni030B" unicode="&#x30b;" 
d="M-449 1509l117 -168l-360 -219l-88 113zM-63 1509l114 -168l-360 -219l-86 113z" />
    <glyph glyph-name="uni030C" unicode="&#x30c;" 
d="M-154 1483h250l-299 -279h-200l-234 279h199l129 -154z" />
    <glyph glyph-name="uni030F" unicode="&#x30f;" 
d="M-610 1509l270 -297l-92 -86l-324 236zM-227 1509l270 -297l-92 -86l-324 236z" />
    <glyph glyph-name="uni0311" unicode="&#x311;" 
d="M-627 1219q54 125 155 193.5t230 68.5q137 0 227.5 -65.5t108.5 -196.5h-162q-62 114 -172 114q-60 0 -113 -30t-85 -84h-189z" />
    <glyph glyph-name="uni031B" unicode="&#x31b;" 
d="M-207 1178q-51 -127 -153 -198t-232 -71l8 148q60 0 109 31.5t78 89.5h190z" />
    <glyph glyph-name="dotbelowcomb" unicode="&#x323;" 
d="M-139 -92l-31 -238h-236l35 238h232z" />
    <glyph glyph-name="uni0326" unicode="&#x326;" 
d="M-412 -485l138 174h-109l31 192h209l-27 -203l-149 -163h-93z" />
    <glyph glyph-name="uni0327" unicode="&#x327;" 
d="M-164 -285q-10 -71 -81.5 -111t-168.5 -40q-153 0 -235 76l41 69q88 -39 149 -39q50 0 83.5 22t39.5 58q5 36 -28 51.5t-121 16.5q-19 0 -26.5 7t-2.5 19l96 166h135l-55 -121q100 -1 142 -53t32 -121z" />
    <glyph glyph-name="uni0328" unicode="&#x328;" 
d="M-580 -160q8 57 53 99t160 79l217 -12q-110 -37 -158.5 -75.5t-53.5 -86.5q-6 -57 57 -57q25 0 50.5 6t37.5 11t40.5 19t31.5 15l-21 -151q-100 -31 -207 -31t-163 48.5t-44 135.5z" />
    <glyph glyph-name="pi" unicode="&#x3c0;" horiz-adv-x="1366" 
d="M1350 850h-191l-117 -850h-286l116 850h-313q-28 -198 -94 -449t-131 -401h-295q72 174 139 414.5t94 433.5q1 2 0 2q-1 1 -3 0h-9h-166l29 207h1255z" />
    <glyph glyph-name="uni1E0C" unicode="&#x1e0c;" horiz-adv-x="1515" 
d="M301 1481q311 0 438 -2q194 -5 332 -57.5t215.5 -148.5t103.5 -227.5t3 -300.5q-49 -353 -267.5 -549t-601.5 -196h-428zM567 1239l-135 -997h133q96 0 178 27.5t152.5 85t119.5 157.5t68 236q66 491 -378 491h-138zM686 -92l-33 -238h-235l37 238h231z" />
    <glyph glyph-name="uni1E0D" unicode="&#x1e0d;" horiz-adv-x="1204" 
d="M436 -20q-207 0 -302 145t-60 403q36 254 166.5 401.5t326.5 147.5q201 0 273 -164l86 607h297l-211 -1520h-215l-13 174q-50 -77 -139 -135.5t-209 -58.5zM543 180q88 0 152 71.5t79 190.5l33 224q-6 112 -49 160t-119 48q-215 0 -262 -342q-50 -352 166 -352zM631 -92
l-33 -238h-236l37 238h232z" />
    <glyph glyph-name="uni1E24" unicode="&#x1e24;" horiz-adv-x="1482" 
d="M1030 635h-549l-88 -635h-297l205 1481h297l-82 -594h551l82 594h299l-207 -1481h-297zM764 -92l-31 -238h-235l34 238h232z" />
    <glyph glyph-name="uni1E25" unicode="&#x1e25;" horiz-adv-x="1206" 
d="M57 0l211 1520h291l-92 -656q178 213 387 213q150 0 218 -82.5t48 -234.5l-104 -760h-299l100 717q9 68 -23 105.5t-102 37.5q-61 0 -114.5 -30t-120.5 -97l-103 -733h-297zM662 -92l-31 -238h-238l37 238h232z" />
    <glyph glyph-name="uni1E44" unicode="&#x1e44;" horiz-adv-x="1591" 
d="M1149 1905l-39 -293h-305l41 293h303zM1257 1481h297l-202 -1481h-271l-546 1018l-142 -1018h-297l205 1481h295l526 -981z" />
    <glyph glyph-name="uni1E45" unicode="&#x1e45;" horiz-adv-x="1208" 
d="M913 1481l-41 -293h-303l39 293h305zM55 0l148 1057h293l-27 -191q91 106 184.5 158.5t200.5 52.5q144 0 215.5 -85t52.5 -228l-106 -764h-299l100 717q9 67 -29 105t-110 38q-64 0 -122.5 -32t-100.5 -91l-101 -737h-299z" />
    <glyph glyph-name="uni1E5A" unicode="&#x1e5a;" horiz-adv-x="1415" 
d="M1229 0h-307l-158 569h-291l-80 -569h-297l205 1481h617q251 0 359.5 -119.5t80.5 -323.5q-12 -84 -41.5 -152.5t-73.5 -118t-91.5 -84t-107.5 -62.5zM772 801q114 0 191.5 63t91.5 166q13 101 -43.5 161t-157.5 60h-287l-63 -450h268zM743 -92l-30 -238h-238l37 238h231
z" />
    <glyph glyph-name="uni1E5B" unicode="&#x1e5b;" horiz-adv-x="817" 
d="M53 0l146 1057h286l-34 -258q62 122 169 200t234 78l-39 -282q-92 8 -165.5 -8.5t-118.5 -51.5t-71 -77.5t-32 -90.5l-78 -567h-297zM336 -92l-31 -238h-237l36 238h232z" />
    <glyph glyph-name="uni1E62" unicode="&#x1e62;" horiz-adv-x="1406" 
d="M639 -20q-206 0 -360.5 78t-212.5 214l229 146q44 -67 84 -104.5t107 -60t165 -22.5q129 0 212.5 39t94.5 125q9 57 -16.5 98.5t-110.5 69.5l-303 94q-159 49 -236.5 153.5t-58.5 244.5q27 194 198.5 320t424.5 126q174 0 307.5 -64.5t192.5 -183.5l-230 -147
q-25 37 -46.5 60.5t-56 48t-82 36t-110.5 11.5q-122 0 -192.5 -45.5t-81.5 -120.5q0 -16 -1 -32t7 -35t21.5 -36t42.5 -34.5t71 -30.5l297 -90q333 -105 291 -404q-29 -209 -203.5 -331.5t-443.5 -122.5zM745 -92l-32 -238h-236l37 238h231z" />
    <glyph glyph-name="uni1E63" unicode="&#x1e63;" horiz-adv-x="1110" 
d="M483 -20q-175 0 -293 71t-157 182l198 97q34 -61 109 -103.5t174 -42.5q71 0 138 30t73 73q6 40 -30.5 65.5t-112.5 46.5l-164 39q-301 67 -268 293q19 155 154 250.5t341 95.5q161 0 262.5 -61.5t141.5 -161.5l-199 -92q-27 52 -89.5 83.5t-148.5 31.5q-76 0 -137 -30
t-67 -75q-4 -34 29 -55.5t126 -48.5l189 -52q82 -22 136.5 -57t78.5 -77t31 -81t1 -82q-23 -156 -166 -247.5t-350 -91.5zM563 -106l-31 -238h-235l35 238h231z" />
    <glyph glyph-name="uni1E6C" unicode="&#x1e6c;" horiz-adv-x="1232" 
d="M129 1212l37 269h1167l-37 -269h-430l-166 -1212h-299l168 1212h-440zM670 -92l-33 -238h-236l37 238h232z" />
    <glyph glyph-name="uni1E6D" unicode="&#x1e6d;" horiz-adv-x="874" 
d="M823 850h-237l-74 -559q-8 -56 8.5 -76t57.5 -20h159l-26 -181q-63 -26 -191 -26q-101 0 -168 20.5t-99 58t-43 90.5t1 117l78 576h-183l31 207h191l88 340h246l-48 -338h238zM561 -92l-31 -238h-235l35 238h231z" />
    <glyph glyph-name="Wgrave" unicode="&#x1e80;" horiz-adv-x="1959" 
d="M940 1929l485 -219l-57 -123l-516 148zM2050 1481l-635 -1481h-237l-138 969l-407 -969h-232l-227 1481h291l137 -977l402 977h215l139 -977l401 977h291z" />
    <glyph glyph-name="wgrave" unicode="&#x1e81;" horiz-adv-x="1615" 
d="M707 1505l485 -219l-59 -123l-515 148zM1655 1057l-492 -1057h-229l-109 641l-284 -641h-234l-198 1057h278l113 -656l282 656h213l107 -656l287 656h266z" />
    <glyph glyph-name="Wacute" unicode="&#x1e82;" horiz-adv-x="1959" 
d="M1393 1931l45 -202l-547 -142l-29 135zM2050 1481l-635 -1481h-237l-138 969l-407 -969h-232l-227 1481h291l137 -977l402 977h215l139 -977l401 977h291z" />
    <glyph glyph-name="wacute" unicode="&#x1e83;" horiz-adv-x="1615" 
d="M1161 1507l45 -202l-547 -142l-28 135zM1655 1057l-492 -1057h-229l-109 641l-284 -641h-234l-198 1057h278l113 -656l282 656h213l107 -656l287 656h266z" />
    <glyph glyph-name="Wdieresis" unicode="&#x1e84;" horiz-adv-x="1959" 
d="M1108 1905l-37 -258h-264l37 258h264zM1503 1905l-37 -258h-262l35 258h264zM2050 1481l-635 -1481h-237l-138 969l-407 -969h-232l-227 1481h291l137 -977l402 977h215l139 -977l401 977h291z" />
    <glyph glyph-name="wdieresis" unicode="&#x1e85;" horiz-adv-x="1615" 
d="M874 1481l-36 -258h-265l37 258h264zM1270 1481l-37 -258h-262l35 258h264zM1655 1057l-492 -1057h-229l-109 641l-284 -641h-234l-198 1057h278l113 -656l282 656h213l107 -656l287 656h266z" />
    <glyph glyph-name="uni1E92" unicode="&#x1e92;" horiz-adv-x="1355" 
d="M25 0l22 145l887 1084h-688l35 252h1112l-19 -140l-901 -1087h741l-32 -254h-1157zM721 -92l-31 -238h-235l34 238h232z" />
    <glyph glyph-name="uni1E93" unicode="&#x1e93;" horiz-adv-x="1077" 
d="M-4 0l20 154l637 714h-495l26 189h867l-21 -150l-639 -714h547l-27 -193h-915zM565 -92l-33 -238h-235l37 238h231z" />
    <glyph glyph-name="uni1EA0" unicode="&#x1ea0;" horiz-adv-x="1404" 
d="M-23 0l728 1481h313l315 -1481h-297l-69 344h-523l-170 -344h-297zM547 604h385l-113 588zM786 -92l-30 -238h-238l37 238h231z" />
    <glyph glyph-name="uni1EA1" unicode="&#x1ea1;" horiz-adv-x="1107" 
d="M348 -20q-155 0 -241.5 86t-65.5 237q23 174 165 261.5t419 94.5l129 7l8 59q9 78 -29 122t-119 44q-147 0 -239 -148l-236 29q66 142 200.5 223.5t313.5 81.5q232 0 324.5 -87t69.5 -247l-101 -743h-250v164q-59 -91 -149 -137.5t-199 -46.5zM475 176q78 0 151 54.5
t83 121.5l22 162l-106 -4q-60 -3 -106 -12.5t-89 -28.5t-69.5 -53.5t-32.5 -83.5q-12 -71 31 -113.5t116 -42.5zM551 -92l-33 -238h-235l36 238h232z" />
    <glyph glyph-name="uni1EA2" unicode="&#x1ea2;" horiz-adv-x="1456" 
d="M727 1948l45 -119q75 43 123 43q30 0 48.5 -11t14.5 -36q-6 -31 -35 -59t-96 -72l62 -103q45 36 59.5 48t48.5 42.5t47 49t27.5 46.5t18.5 56q10 77 -39.5 123.5t-135.5 46.5q-68 0 -188 -55zM-23 0l728 1481h313l315 -1481h-297l-69 344h-523l-170 -344h-297zM547 604
h385l-113 588z" />
    <glyph glyph-name="uni1EA3" unicode="&#x1ea3;" horiz-adv-x="1165" 
d="M504 1524l45 -119q75 43 125 43q29 0 47 -11t14 -36q-4 -30 -33 -58t-96 -73l60 -103q53 42 74 60t55.5 52.5t50 65t20.5 64.5q10 77 -39 123.5t-135 46.5q-68 0 -188 -55zM352 -20q-154 0 -240 86t-65 237q23 174 164 261.5t418 94.5l129 7l8 59q11 77 -27.5 121.5
t-117.5 44.5q-147 0 -242 -148l-234 29q64 142 199 223.5t315 81.5q230 0 322.5 -87t71.5 -247l-103 -743h-248v164q-59 -91 -149.5 -137.5t-200.5 -46.5zM479 176q80 0 153 54.5t83 121.5l20 162l-104 -4q-60 -3 -106.5 -12.5t-89.5 -28.5t-70 -53.5t-33 -83.5
q-10 -72 32 -114t115 -42z" />
    <glyph glyph-name="uni1EA4" unicode="&#x1ea4;" horiz-adv-x="1456" 
d="M1194 2286l45 -203l-545 -144l-30 136zM1042 1642l-112 156l-172 -156h-232l301 277h203l223 -277h-211zM-23 0l728 1481h313l315 -1481h-297l-69 344h-523l-170 -344h-297zM547 604h385l-113 588z" />
    <glyph glyph-name="uni1EA5" unicode="&#x1ea5;" horiz-adv-x="1165" 
d="M981 1862l45 -203l-547 -143l-30 135zM827 1219l-112 155l-170 -155h-232l299 276h203l225 -276h-213zM352 -20q-154 0 -240 86t-65 237q23 174 164 261.5t418 94.5l129 7l8 59q11 77 -27.5 121.5t-117.5 44.5q-147 0 -242 -148l-234 29q64 142 199 223.5t315 81.5
q230 0 322.5 -87t71.5 -247l-103 -743h-248v164q-59 -91 -149.5 -137.5t-200.5 -46.5zM479 176q80 0 153 54.5t83 121.5l20 162l-104 -4q-60 -3 -106.5 -12.5t-89.5 -28.5t-70 -53.5t-33 -83.5q-10 -72 32 -114t115 -42z" />
    <glyph glyph-name="uni1EA6" unicode="&#x1ea6;" horiz-adv-x="1456" 
d="M743 2284l488 -222l-60 -120l-516 145zM1044 1642l-114 156l-170 -156h-232l301 277h201l225 -277h-211zM-23 0l728 1481h313l315 -1481h-297l-69 344h-523l-170 -344h-297zM547 604h385l-113 588z" />
    <glyph glyph-name="uni1EA7" unicode="&#x1ea7;" horiz-adv-x="1165" 
d="M528 1860l486 -222l-58 -120l-516 145zM827 1219l-112 155l-170 -155h-232l299 276h203l225 -276h-213zM352 -20q-154 0 -240 86t-65 237q23 174 164 261.5t418 94.5l129 7l8 59q11 77 -27.5 121.5t-117.5 44.5q-147 0 -242 -148l-234 29q64 142 199 223.5t315 81.5
q230 0 322.5 -87t71.5 -247l-103 -743h-248v164q-59 -91 -149.5 -137.5t-200.5 -46.5zM479 176q80 0 153 54.5t83 121.5l20 162l-104 -4q-60 -3 -106.5 -12.5t-89.5 -28.5t-70 -53.5t-33 -83.5q-10 -72 32 -114t115 -42z" />
    <glyph glyph-name="uni1EA8" unicode="&#x1ea8;" horiz-adv-x="1456" 
d="M1104 2124l45 -121q73 45 125 45q29 0 47 -11.5t14 -37.5q-4 -30 -32 -56.5t-97 -74.5l60 -101q48 38 73 59t57 53.5t48.5 63t21.5 64.5q10 77 -39 124.5t-135 47.5q-28 0 -61 -8.5t-57.5 -18t-69.5 -28.5zM1042 1642l-112 156l-170 -156h-232l299 277h203l225 -277h-213
zM-23 0l728 1481h313l315 -1481h-297l-69 344h-523l-170 -344h-297zM547 604h385l-113 588z" />
    <glyph glyph-name="uni1EA9" unicode="&#x1ea9;" horiz-adv-x="1165" 
d="M891 1700l45 -121q73 45 125 45q29 0 47 -11.5t14 -37.5q-4 -30 -32 -56.5t-97 -74.5l60 -101q48 38 73 59t57 53.5t48.5 63t21.5 64.5q10 77 -39 124.5t-135 47.5q-28 0 -61 -8.5t-57.5 -18t-69.5 -28.5zM827 1219l-112 155l-170 -155h-232l299 276h203l225 -276h-213z
M352 -20q-154 0 -240 86t-65 237q23 174 164 261.5t418 94.5l129 7l8 59q11 77 -27.5 121.5t-117.5 44.5q-147 0 -242 -148l-234 29q64 142 199 223.5t315 81.5q230 0 322.5 -87t71.5 -247l-103 -743h-248v164q-59 -91 -149.5 -137.5t-200.5 -46.5zM479 176q80 0 153 54.5
t83 121.5l20 162l-104 -4q-60 -3 -106.5 -12.5t-89.5 -28.5t-70 -53.5t-33 -83.5q-10 -72 32 -114t115 -42z" />
    <glyph glyph-name="uni1EAA" unicode="&#x1eaa;" horiz-adv-x="1456" 
d="M1311 2079q-96 -51 -203 -51q-61 0 -148.5 28.5t-132.5 28.5q-27 0 -51 -7t-38 -15t-39.5 -24.5t-41.5 -25.5l-36 174q35 23 58.5 35.5t61 23.5t76.5 11q64 0 157.5 -32t131.5 -32q46 0 108.5 33t77.5 37zM1042 1642l-112 156l-170 -156h-232l299 277h203l225 -277h-213z
M-23 0l728 1481h313l315 -1481h-297l-69 344h-523l-170 -344h-297zM547 604h385l-113 588z" />
    <glyph glyph-name="uni1EAB" unicode="&#x1eab;" horiz-adv-x="1165" 
d="M1096 1655q-96 -51 -203 -51q-61 0 -148.5 28.5t-132.5 28.5q-27 0 -51 -7t-38 -15t-39.5 -24.5t-41.5 -25.5l-36 174q35 23 58.5 35.5t61 23.5t76.5 11q64 0 157.5 -32t131.5 -32q46 0 108.5 33t77.5 37zM827 1219l-112 155l-170 -155h-232l299 276h203l225 -276h-213z
M352 -20q-154 0 -240 86t-65 237q23 174 164 261.5t418 94.5l129 7l8 59q11 77 -27.5 121.5t-117.5 44.5q-147 0 -242 -148l-234 29q64 142 199 223.5t315 81.5q230 0 322.5 -87t71.5 -247l-103 -743h-248v164q-59 -91 -149.5 -137.5t-200.5 -46.5zM479 176q80 0 153 54.5
t83 121.5l20 162l-104 -4q-60 -3 -106.5 -12.5t-89.5 -28.5t-70 -53.5t-33 -83.5q-10 -72 32 -114t115 -42z" />
    <glyph glyph-name="uni1EAC" unicode="&#x1eac;" horiz-adv-x="1404" 
d="M1042 1642l-112 156l-170 -156h-232l299 277h203l225 -277h-213zM-23 0l728 1481h313l315 -1481h-297l-69 344h-523l-170 -344h-297zM547 604h385l-113 588zM786 -92l-30 -238h-238l37 238h231z" />
    <glyph glyph-name="uni1EAD" unicode="&#x1ead;" horiz-adv-x="1107" 
d="M827 1219l-112 155l-170 -155h-232l299 276h203l225 -276h-213zM352 -20q-154 0 -240 86t-65 237q23 174 164 261.5t418 94.5l129 7l8 59q11 77 -27.5 121.5t-117.5 44.5q-147 0 -242 -148l-234 29q64 142 199 223.5t315 81.5q230 0 322.5 -87t71.5 -247l-103 -743h-248
v164q-59 -91 -149.5 -137.5t-200.5 -46.5zM479 176q80 0 153 54.5t83 121.5l20 162l-104 -4q-60 -3 -106.5 -12.5t-89.5 -28.5t-70 -53.5t-33 -83.5q-10 -72 32 -114t115 -42zM551 -92l-33 -238h-235l36 238h232z" />
    <glyph glyph-name="uni1EAE" unicode="&#x1eae;" horiz-adv-x="1456" 
d="M1198 2316l45 -202l-547 -142l-30 135zM1290 1905q-54 -124 -159.5 -193.5t-235.5 -69.5q-294 0 -326 263h160q66 -115 172 -115q60 0 113.5 30.5t87.5 84.5h188zM-23 0l728 1481h313l315 -1481h-297l-69 344h-523l-170 -344h-297zM547 604h385l-113 588z" />
    <glyph glyph-name="uni1EAF" unicode="&#x1eaf;" horiz-adv-x="1165" 
d="M985 1892l43 -202l-545 -142l-30 135zM1075 1481q-52 -123 -157.5 -192.5t-237.5 -69.5q-294 0 -326 262h160q66 -115 174 -115q60 0 112.5 30.5t86.5 84.5h188zM352 -20q-154 0 -240 86t-65 237q23 174 164 261.5t418 94.5l129 7l8 59q11 77 -27.5 121.5t-117.5 44.5
q-147 0 -242 -148l-234 29q64 142 199 223.5t315 81.5q230 0 322.5 -87t71.5 -247l-103 -743h-248v164q-59 -91 -149.5 -137.5t-200.5 -46.5zM479 176q80 0 153 54.5t83 121.5l20 162l-104 -4q-60 -3 -106.5 -12.5t-89.5 -28.5t-70 -53.5t-33 -83.5q-10 -72 32 -114t115 -42
z" />
    <glyph glyph-name="uni1EB0" unicode="&#x1eb0;" horiz-adv-x="1456" 
d="M745 2314l488 -219l-59 -123l-515 148zM1290 1905q-54 -124 -159.5 -193.5t-235.5 -69.5q-294 0 -326 263h160q66 -115 174 -115q60 0 112.5 30.5t86.5 84.5h188zM-23 0l728 1481h313l315 -1481h-297l-69 344h-523l-170 -344h-297zM547 604h385l-113 588z" />
    <glyph glyph-name="uni1EB1" unicode="&#x1eb1;" horiz-adv-x="1165" 
d="M532 1890l486 -219l-57 -123l-517 148zM1075 1481q-52 -123 -157.5 -192.5t-237.5 -69.5q-294 0 -326 262h160q66 -115 174 -115q60 0 112.5 30.5t86.5 84.5h188zM352 -20q-154 0 -240 86t-65 237q23 174 164 261.5t418 94.5l129 7l8 59q11 77 -27.5 121.5t-117.5 44.5
q-147 0 -242 -148l-234 29q64 142 199 223.5t315 81.5q230 0 322.5 -87t71.5 -247l-103 -743h-248v164q-59 -91 -149.5 -137.5t-200.5 -46.5zM479 176q80 0 153 54.5t83 121.5l20 162l-104 -4q-60 -3 -106.5 -12.5t-89.5 -28.5t-70 -53.5t-33 -83.5q-10 -72 32 -114t115 -42
z" />
    <glyph glyph-name="uni1EB2" unicode="&#x1eb2;" horiz-adv-x="1456" 
d="M737 2234l45 -120q73 45 125 45q29 0 47.5 -11.5t14.5 -36.5q-4 -32 -32.5 -59t-96.5 -72l59 -102q45 36 59.5 48t48.5 42.5t47 49t27.5 46.5t18.5 56q10 76 -38 123t-134 47q-69 0 -191 -56zM1290 1905q-54 -124 -159.5 -193.5t-235.5 -69.5q-294 0 -326 263h160
q66 -115 172 -115q60 0 113.5 30.5t87.5 84.5h188zM-23 0l728 1481h313l315 -1481h-297l-69 344h-523l-170 -344h-297zM547 604h385l-113 588z" />
    <glyph glyph-name="uni1EB3" unicode="&#x1eb3;" horiz-adv-x="1165" 
d="M545 1909l45 -121q73 45 123 45q29 0 48 -11t15 -36q-6 -31 -35 -59t-96 -72l62 -103q104 85 135 119q56 61 65 123q10 76 -39 123t-135 47q-68 0 -188 -55zM1075 1481q-52 -123 -157.5 -192.5t-237.5 -69.5q-294 0 -326 262h160q66 -115 174 -115q60 0 112.5 30.5
t86.5 84.5h188zM352 -20q-154 0 -240 86t-65 237q23 174 164 261.5t418 94.5l129 7l8 59q11 77 -27.5 121.5t-117.5 44.5q-147 0 -242 -148l-234 29q64 142 199 223.5t315 81.5q230 0 322.5 -87t71.5 -247l-103 -743h-248v164q-59 -91 -149.5 -137.5t-200.5 -46.5zM479 176
q80 0 153 54.5t83 121.5l20 162l-104 -4q-60 -3 -106.5 -12.5t-89.5 -28.5t-70 -53.5t-33 -83.5q-10 -72 32 -114t115 -42z" />
    <glyph glyph-name="uni1EB4" unicode="&#x1eb4;" horiz-adv-x="1456" 
d="M1313 2111q-96 -51 -203 -51q-61 0 -148.5 29t-132.5 29q-27 0 -51 -7t-38 -15t-39.5 -24.5t-41.5 -25.5l-36 172q51 35 95 52.5t101 17.5q64 0 157.5 -31t131.5 -31q46 0 107.5 32t78.5 36zM1290 1905q-54 -124 -159.5 -193.5t-235.5 -69.5q-294 0 -326 263h160
q66 -115 172 -115q60 0 113.5 30.5t87.5 84.5h188zM-23 0l728 1481h313l315 -1481h-297l-69 344h-523l-170 -344h-297zM547 604h385l-113 588z" />
    <glyph glyph-name="uni1EB5" unicode="&#x1eb5;" horiz-adv-x="1165" 
d="M1100 1688q-102 -52 -205 -52q-61 0 -147.5 29t-131.5 29q-35 0 -59 -8.5t-60.5 -32t-52.5 -31.5l-34 172q51 35 94.5 52.5t99.5 17.5q65 0 158.5 -31t132.5 -31q47 0 109 32t77 36zM1075 1481q-52 -123 -157.5 -192.5t-237.5 -69.5q-294 0 -326 262h160
q66 -115 174 -115q60 0 112.5 30.5t86.5 84.5h188zM352 -20q-154 0 -240 86t-65 237q23 174 164 261.5t418 94.5l129 7l8 59q11 77 -27.5 121.5t-117.5 44.5q-147 0 -242 -148l-234 29q64 142 199 223.5t315 81.5q230 0 322.5 -87t71.5 -247l-103 -743h-248v164
q-59 -91 -149.5 -137.5t-200.5 -46.5zM479 176q80 0 153 54.5t83 121.5l20 162l-104 -4q-60 -3 -106.5 -12.5t-89.5 -28.5t-70 -53.5t-33 -83.5q-10 -72 32 -114t115 -42z" />
    <glyph glyph-name="uni1EB6" unicode="&#x1eb6;" horiz-adv-x="1404" 
d="M1290 1905q-54 -124 -159 -193.5t-236 -69.5q-294 0 -326 263h160q66 -115 174 -115q60 0 112.5 30.5t86.5 84.5h188zM-23 0l728 1481h313l315 -1481h-297l-69 344h-523l-170 -344h-297zM547 604h385l-113 588zM786 -92l-30 -238h-238l37 238h231z" />
    <glyph glyph-name="uni1EB7" unicode="&#x1eb7;" horiz-adv-x="1107" 
d="M1075 1481q-52 -123 -157.5 -192.5t-237.5 -69.5q-294 0 -326 262h160q66 -115 174 -115q60 0 112.5 30.5t86.5 84.5h188zM352 -20q-154 0 -240 86t-65 237q23 174 164 261.5t418 94.5l129 7l8 59q11 77 -27.5 121.5t-117.5 44.5q-147 0 -242 -148l-234 29
q64 142 199 223.5t315 81.5q230 0 322.5 -87t71.5 -247l-103 -743h-248v164q-59 -91 -149.5 -137.5t-200.5 -46.5zM479 176q80 0 153 54.5t83 121.5l20 162l-104 -4q-60 -3 -106.5 -12.5t-89.5 -28.5t-70 -53.5t-33 -83.5q-10 -72 32 -114t115 -42zM551 -92l-33 -238h-235
l36 238h232z" />
    <glyph glyph-name="uni1EB8" unicode="&#x1eb8;" horiz-adv-x="1304" 
d="M96 0l205 1481h1002l-37 -254h-701l-51 -359h610l-32 -247h-613l-49 -365l715 -2l-37 -254h-1012zM719 -92l-31 -238h-235l34 238h232z" />
    <glyph glyph-name="uni1EB9" unicode="&#x1eb9;" horiz-adv-x="1175" 
d="M360 444q-17 -122 37 -196t162 -74q78 0 142 37.5t106 103.5l223 -59q-77 -134 -206 -205t-289 -71q-155 0 -267.5 65t-164.5 187.5t-29 283.5q16 118 67 221t128 178.5t180.5 118.5t220.5 43q156 0 260 -72t144.5 -195.5t17.5 -283.5l-13 -82h-719zM389 643h436
q16 114 -30 183t-152 69q-109 0 -175 -72.5t-79 -179.5zM627 -92l-31 -238h-236l35 238h232z" />
    <glyph glyph-name="uni1EBA" unicode="&#x1eba;" horiz-adv-x="1304" 
d="M657 1948l45 -119q75 43 123 43q31 0 49.5 -11t14.5 -36q-6 -31 -35 -59t-96 -72l61 -103q45 36 59.5 48t48.5 42.5t47 49t27.5 46.5t18.5 56q10 77 -39 123.5t-135 46.5q-69 0 -189 -55zM96 0l205 1481h1002l-37 -254h-701l-51 -359h610l-32 -247h-613l-49 -365l715 -2
l-37 -254h-1012z" />
    <glyph glyph-name="uni1EBB" unicode="&#x1ebb;" horiz-adv-x="1169" 
d="M510 1524l45 -119q75 43 123 43q30 0 48.5 -11t14.5 -36q-6 -31 -35 -59t-96 -72l62 -103q53 42 74 60t55.5 52.5t50 65t20.5 64.5q10 77 -39 123.5t-135 46.5q-68 0 -188 -55zM360 444q-17 -122 37 -196t162 -74q78 0 142 37.5t106 103.5l223 -59q-77 -134 -206 -205
t-289 -71q-155 0 -267.5 65t-164.5 187.5t-29 283.5q16 118 67 221t128 178.5t180.5 118.5t220.5 43q156 0 260 -72t144.5 -195.5t17.5 -283.5l-13 -82h-719zM389 643h436q16 114 -30 183t-152 69q-109 0 -175 -72.5t-79 -179.5z" />
    <glyph glyph-name="uni1EBC" unicode="&#x1ebc;" horiz-adv-x="1304" 
d="M1202 1726q-96 -51 -203 -51q-61 0 -148 29t-132 29q-27 0 -51 -7t-38 -15t-39.5 -24.5t-41.5 -25.5l-37 172q50 34 94.5 52t102.5 18q64 0 157 -31t131 -31q46 0 109 33t78 37zM96 0l205 1481h1002l-37 -254h-701l-51 -359h610l-32 -247h-613l-49 -365l715 -2l-37 -254
h-1012z" />
    <glyph glyph-name="uni1EBD" unicode="&#x1ebd;" horiz-adv-x="1175" 
d="M1065 1303q-102 -52 -203 -52q-61 0 -148 29t-132 29q-35 0 -59 -8.5t-60.5 -32t-52.5 -31.5l-35 172q51 35 94.5 52.5t99.5 17.5q65 0 158.5 -31t132.5 -31q46 0 109 33t78 37zM360 444q-17 -122 37 -196t162 -74q78 0 142 37.5t106 103.5l223 -59q-77 -134 -206 -205
t-289 -71q-155 0 -267.5 65t-164.5 187.5t-29 283.5q16 118 67 221t128 178.5t180.5 118.5t220.5 43q156 0 260 -72t144.5 -195.5t17.5 -283.5l-13 -82h-719zM389 643h436q16 114 -30 183t-152 69q-109 0 -175 -72.5t-79 -179.5z" />
    <glyph glyph-name="uni1EBE" unicode="&#x1ebe;" horiz-adv-x="1304" 
d="M1124 2286l45 -203l-544 -144l-31 136zM973 1642l-113 156l-172 -156h-231l301 277h203l223 -277h-211zM96 0l205 1481h1002l-37 -254h-701l-51 -359h610l-32 -247h-613l-49 -365l715 -2l-37 -254h-1012z" />
    <glyph glyph-name="uni1EBF" unicode="&#x1ebf;" horiz-adv-x="1169" 
d="M987 1862l43 -203l-545 -143l-30 135zM834 1219l-113 155l-170 -155h-232l299 276h203l226 -276h-213zM360 444q-17 -122 37 -196t162 -74q78 0 142 37.5t106 103.5l223 -59q-77 -134 -206 -205t-289 -71q-155 0 -267.5 65t-164.5 187.5t-29 283.5q16 118 67 221
t128 178.5t180.5 118.5t220.5 43q156 0 260 -72t144.5 -195.5t17.5 -283.5l-13 -82h-719zM389 643h436q16 114 -30 183t-152 69q-109 0 -175 -72.5t-79 -179.5z" />
    <glyph glyph-name="uni1EC0" unicode="&#x1ec0;" horiz-adv-x="1304" 
d="M672 2284l487 -222l-59 -120l-516 145zM973 1642l-115 156l-170 -156h-231l301 277h200l226 -277h-211zM96 0l205 1481h1002l-37 -254h-701l-51 -359h610l-32 -247h-613l-49 -365l715 -2l-37 -254h-1012z" />
    <glyph glyph-name="uni1EC1" unicode="&#x1ec1;" horiz-adv-x="1169" 
d="M535 1860l485 -222l-57 -120l-517 145zM834 1219l-113 155l-170 -155h-232l299 276h203l226 -276h-213zM360 444q-17 -122 37 -196t162 -74q78 0 142 37.5t106 103.5l223 -59q-77 -134 -206 -205t-289 -71q-155 0 -267.5 65t-164.5 187.5t-29 283.5q16 118 67 221
t128 178.5t180.5 118.5t220.5 43q156 0 260 -72t144.5 -195.5t17.5 -283.5l-13 -82h-719zM389 643h436q16 114 -30 183t-152 69q-109 0 -175 -72.5t-79 -179.5z" />
    <glyph glyph-name="uni1EC2" unicode="&#x1ec2;" horiz-adv-x="1304" 
d="M1032 2124l45 -121q73 45 125 45q29 0 47.5 -12t14.5 -37q-4 -30 -32 -56.5t-97 -74.5l59 -101q49 38 73.5 59t57 53.5t49 63t21.5 64.5q10 77 -39 124.5t-135 47.5q-40 0 -81.5 -13t-107.5 -42zM971 1642l-113 156l-170 -156h-231l299 277h202l226 -277h-213zM96 0
l205 1481h1002l-37 -254h-701l-51 -359h610l-32 -247h-613l-49 -365l715 -2l-37 -254h-1012z" />
    <glyph glyph-name="uni1EC3" unicode="&#x1ec3;" horiz-adv-x="1169" 
d="M897 1700l45 -121q73 45 123 45q30 0 48.5 -11.5t14.5 -37.5q-6 -30 -34 -57t-97 -74l62 -101q49 38 73.5 59t57 53.5t49 63t21.5 64.5q10 77 -39.5 124.5t-135.5 47.5q-28 0 -61 -8.5t-57.5 -18t-69.5 -28.5zM834 1219l-113 155l-170 -155h-232l299 276h203l226 -276
h-213zM360 444q-17 -122 37 -196t162 -74q78 0 142 37.5t106 103.5l223 -59q-77 -134 -206 -205t-289 -71q-155 0 -267.5 65t-164.5 187.5t-29 283.5q16 118 67 221t128 178.5t180.5 118.5t220.5 43q156 0 260 -72t144.5 -195.5t17.5 -283.5l-13 -82h-719zM389 643h436
q16 114 -30 183t-152 69q-109 0 -175 -72.5t-79 -179.5z" />
    <glyph glyph-name="uni1EC4" unicode="&#x1ec4;" horiz-adv-x="1304" 
d="M1239 2079q-96 -51 -203 -51q-61 0 -148 28.5t-132 28.5q-27 0 -51 -7t-38 -15t-39.5 -24.5t-41.5 -25.5l-37 174q35 23 58.5 35.5t61 23.5t76.5 11q64 0 157.5 -32t131.5 -32q46 0 109 33t78 37zM971 1642l-113 156l-170 -156h-231l299 277h202l226 -277h-213zM96 0
l205 1481h1002l-37 -254h-701l-51 -359h610l-32 -247h-613l-49 -365l715 -2l-37 -254h-1012z" />
    <glyph glyph-name="uni1EC5" unicode="&#x1ec5;" horiz-adv-x="1169" 
d="M1102 1655q-100 -51 -205 -51q-61 0 -147.5 28.5t-131.5 28.5q-35 0 -59 -8.5t-60.5 -32t-52.5 -31.5l-34 174q35 23 58.5 35.5t60 23.5t75.5 11q65 0 158.5 -32t132.5 -32q46 0 108.5 33t77.5 37zM834 1219l-113 155l-170 -155h-232l299 276h203l226 -276h-213zM360 444
q-17 -122 37 -196t162 -74q78 0 142 37.5t106 103.5l223 -59q-77 -134 -206 -205t-289 -71q-155 0 -267.5 65t-164.5 187.5t-29 283.5q16 118 67 221t128 178.5t180.5 118.5t220.5 43q156 0 260 -72t144.5 -195.5t17.5 -283.5l-13 -82h-719zM389 643h436q16 114 -30 183
t-152 69q-109 0 -175 -72.5t-79 -179.5z" />
    <glyph glyph-name="uni1EC6" unicode="&#x1ec6;" horiz-adv-x="1304" 
d="M973 1642l-115 156l-170 -156h-231l301 277h200l226 -277h-211zM96 0l205 1481h1002l-37 -254h-701l-51 -359h610l-32 -247h-613l-49 -365l715 -2l-37 -254h-1012zM719 -92l-31 -238h-235l34 238h232z" />
    <glyph glyph-name="uni1EC7" unicode="&#x1ec7;" horiz-adv-x="1169" 
d="M834 1219l-113 155l-170 -155h-232l299 276h203l226 -276h-213zM360 444q-17 -122 37 -196t162 -74q78 0 142 37.5t106 103.5l223 -59q-77 -134 -206 -205t-289 -71q-155 0 -267.5 65t-164.5 187.5t-29 283.5q16 118 67 221t128 178.5t180.5 118.5t220.5 43
q156 0 260 -72t144.5 -195.5t17.5 -283.5l-13 -82h-719zM389 643h436q16 114 -30 183t-152 69q-109 0 -175 -72.5t-79 -179.5zM627 -92l-31 -238h-236l35 238h232z" />
    <glyph glyph-name="uni1EC8" unicode="&#x1ec8;" horiz-adv-x="634" 
d="M299 1948l45 -119q75 43 123 43q30 0 48.5 -11t14.5 -36q-6 -31 -35 -59t-96 -72l62 -103q45 36 59.5 48t48.5 42.5t47 49t27.5 46.5t18.5 56q10 77 -39.5 123.5t-135.5 46.5q-68 0 -188 -55zM301 1481h297l-205 -1481h-297z" />
    <glyph glyph-name="uni1EC9" unicode="&#x1ec9;" horiz-adv-x="575" 
d="M205 1524l45 -119q75 43 125 43q68 0 63 -47q-6 -31 -35 -59t-96 -72l62 -103q103 84 134 118q56 62 64 124q12 77 -37 123.5t-135 46.5q-67 0 -190 -55zM504 1057l-148 -1057h-297l146 1057h299z" />
    <glyph glyph-name="uni1ECA" unicode="&#x1eca;" horiz-adv-x="634" 
d="M301 1481h297l-205 -1481h-297zM360 -92l-30 -238h-236l35 238h231z" />
    <glyph glyph-name="uni1ECB" unicode="&#x1ecb;" horiz-adv-x="571" 
d="M578 1520l-43 -291h-304l41 291h306zM508 1057l-146 -1057h-296l145 1057h297zM322 -92l-33 -238h-236l37 238h232z" />
    <glyph glyph-name="uni1ECC" unicode="&#x1ecc;" horiz-adv-x="1558" 
d="M705 -20q-313 0 -465 201.5t-103 553.5q47 354 257.5 560t518.5 206t461.5 -205.5t104.5 -558.5q-49 -352 -257 -554.5t-517 -202.5zM739 225q165 0 272.5 123t141.5 385q37 268 -35.5 395t-236.5 127t-273.5 -128t-146.5 -394q-35 -261 39 -384.5t239 -123.5zM803 -92
l-33 -238h-235l36 238h232z" />
    <glyph glyph-name="uni1ECD" unicode="&#x1ecd;" horiz-adv-x="1177" 
d="M510 -20q-232 0 -352 150.5t-86 391.5q34 248 199.5 401.5t394.5 153.5q234 0 354 -154.5t86 -398.5q-32 -240 -197 -392t-399 -152zM543 174q57 0 105 32t80 86t52 114.5t29 125.5q12 63 6.5 126.5t-22 114t-57 82.5t-97.5 32q-58 0 -106.5 -31.5t-80 -84t-52 -112.5
t-29.5 -127q-11 -62 -5.5 -125.5t22 -115t57 -84.5t98.5 -33zM623 -92l-33 -238h-236l37 238h232z" />
    <glyph glyph-name="uni1ECE" unicode="&#x1ece;" horiz-adv-x="1501" 
d="M729 1948l47 -119q72 43 123 43q69 0 64 -47q-6 -31 -35.5 -59t-96.5 -72l62 -103q103 84 133 116q58 63 66 126q12 77 -37 123.5t-135 46.5q-68 0 -191 -55zM705 -20q-313 0 -465 201.5t-103 553.5q47 354 257.5 560t518.5 206t461.5 -205.5t104.5 -558.5
q-49 -352 -257 -554.5t-517 -202.5zM739 225q165 0 272.5 123t141.5 385q37 268 -35.5 395t-236.5 127t-273.5 -128t-146.5 -394q-35 -261 39 -384.5t239 -123.5z" />
    <glyph glyph-name="uni1ECF" unicode="&#x1ecf;" horiz-adv-x="1177" 
d="M508 1524l45 -119q75 43 125 43q68 0 63 -47q-6 -31 -35 -59t-96 -72l62 -103q103 84 134 118q56 62 64 124q12 77 -37 123.5t-135 46.5q-67 0 -190 -55zM510 -20q-232 0 -352 150.5t-86 391.5q34 248 199.5 401.5t394.5 153.5q234 0 354 -154.5t86 -398.5
q-32 -240 -197 -392t-399 -152zM543 174q57 0 105 32t80 86t52 114.5t29 125.5q12 63 6.5 126.5t-22 114t-57 82.5t-97.5 32q-58 0 -106.5 -31.5t-80 -84t-52 -112.5t-29.5 -127q-11 -62 -5.5 -125.5t22 -115t57 -84.5t98.5 -33z" />
    <glyph glyph-name="uni1ED0" unicode="&#x1ed0;" horiz-adv-x="1501" 
d="M1206 2286l45 -203l-544 -144l-31 136zM1055 1642l-113 156l-172 -156h-231l301 277h202l224 -277h-211zM705 -20q-313 0 -465 201.5t-103 553.5q47 354 257.5 560t518.5 206t461.5 -205.5t104.5 -558.5q-49 -352 -257 -554.5t-517 -202.5zM739 225q165 0 272.5 123
t141.5 385q37 268 -35.5 395t-236.5 127t-273.5 -128t-146.5 -394q-35 -261 39 -384.5t239 -123.5z" />
    <glyph glyph-name="uni1ED1" unicode="&#x1ed1;" horiz-adv-x="1177" 
d="M985 1862l45 -203l-545 -143l-30 135zM834 1219l-113 155l-172 -155h-232l301 276h203l223 -276h-210zM510 -20q-232 0 -352 150.5t-86 391.5q34 248 199.5 401.5t394.5 153.5q234 0 354 -154.5t86 -398.5q-32 -240 -197 -392t-399 -152zM543 174q57 0 105 32t80 86
t52 114.5t29 125.5q12 63 6.5 126.5t-22 114t-57 82.5t-97.5 32q-58 0 -106.5 -31.5t-80 -84t-52 -112.5t-29.5 -127q-11 -62 -5.5 -125.5t22 -115t57 -84.5t98.5 -33z" />
    <glyph glyph-name="uni1ED2" unicode="&#x1ed2;" horiz-adv-x="1501" 
d="M754 2284l487 -222l-59 -120l-514 145zM1055 1642l-113 156l-172 -156h-231l301 277h202l224 -277h-211zM705 -20q-313 0 -465 201.5t-103 553.5q47 354 257.5 560t518.5 206t461.5 -205.5t104.5 -558.5q-49 -352 -257 -554.5t-517 -202.5zM739 225q165 0 272.5 123
t141.5 385q37 268 -35.5 395t-236.5 127t-273.5 -128t-146.5 -394q-35 -261 39 -384.5t239 -123.5z" />
    <glyph glyph-name="uni1ED3" unicode="&#x1ed3;" horiz-adv-x="1177" 
d="M532 1860l488 -222l-59 -120l-515 145zM834 1219l-113 155l-172 -155h-232l301 276h203l223 -276h-210zM510 -20q-232 0 -352 150.5t-86 391.5q34 248 199.5 401.5t394.5 153.5q234 0 354 -154.5t86 -398.5q-32 -240 -197 -392t-399 -152zM543 174q57 0 105 32t80 86
t52 114.5t29 125.5q12 63 6.5 126.5t-22 114t-57 82.5t-97.5 32q-58 0 -106.5 -31.5t-80 -84t-52 -112.5t-29.5 -127q-11 -62 -5.5 -125.5t22 -115t57 -84.5t98.5 -33z" />
    <glyph glyph-name="uni1ED4" unicode="&#x1ed4;" horiz-adv-x="1501" 
d="M1116 2124l45 -121q70 45 123 45q29 0 48 -11.5t16 -37.5q-6 -30 -34 -57t-97 -74l61 -101q43 34 59 47t48.5 43t46 49t28 46.5t17.5 54.5q12 77 -37 124.5t-135 47.5q-40 0 -81.5 -13t-107.5 -42zM1055 1642l-113 156l-172 -156h-231l301 277h202l224 -277h-211z
M705 -20q-313 0 -465 201.5t-103 553.5q47 354 257.5 560t518.5 206t461.5 -205.5t104.5 -558.5q-49 -352 -257 -554.5t-517 -202.5zM739 225q165 0 272.5 123t141.5 385q37 268 -35.5 395t-236.5 127t-273.5 -128t-146.5 -394q-35 -261 39 -384.5t239 -123.5z" />
    <glyph glyph-name="uni1ED5" unicode="&#x1ed5;" horiz-adv-x="1177" 
d="M895 1700l45 -121q73 45 125 45q28 0 47 -11.5t16 -37.5q-6 -30 -34 -57t-97 -74l62 -101q42 33 59 47t48.5 43t45.5 48.5t28 47t17 54.5q12 77 -37 124.5t-135 47.5q-28 0 -61.5 -8.5t-57 -17.5t-71.5 -29zM834 1219l-113 155l-172 -155h-232l301 276h203l223 -276h-210
zM510 -20q-232 0 -352 150.5t-86 391.5q34 248 199.5 401.5t394.5 153.5q234 0 354 -154.5t86 -398.5q-32 -240 -197 -392t-399 -152zM543 174q57 0 105 32t80 86t52 114.5t29 125.5q12 63 6.5 126.5t-22 114t-57 82.5t-97.5 32q-58 0 -106.5 -31.5t-80 -84t-52 -112.5
t-29.5 -127q-11 -62 -5.5 -125.5t22 -115t57 -84.5t98.5 -33z" />
    <glyph glyph-name="uni1ED6" unicode="&#x1ed6;" horiz-adv-x="1501" 
d="M1321 2079q-96 -51 -203 -51q-61 0 -147 28.5t-133 28.5q-35 0 -59 -8.5t-59 -31.5t-52 -32l-35 174q50 34 94 52t100 18q65 0 158.5 -32t130.5 -32q36 0 70.5 14t66.5 32.5t52 23.5zM1055 1642l-113 156l-172 -156h-231l301 277h202l224 -277h-211zM705 -20
q-313 0 -465 201.5t-103 553.5q47 354 257.5 560t518.5 206t461.5 -205.5t104.5 -558.5q-49 -352 -257 -554.5t-517 -202.5zM739 225q165 0 272.5 123t141.5 385q37 268 -35.5 395t-236.5 127t-273.5 -128t-146.5 -394q-35 -261 39 -384.5t239 -123.5z" />
    <glyph glyph-name="uni1ED7" unicode="&#x1ed7;" horiz-adv-x="1177" 
d="M1100 1655q-96 -51 -203 -51q-61 0 -147.5 28.5t-133.5 28.5q-35 0 -59 -8.5t-59 -31.5t-52 -32l-36 174q53 34 97 52t99 18q64 0 157.5 -32t131.5 -32q47 0 109 33t79 37zM834 1219l-113 155l-172 -155h-232l301 276h203l223 -276h-210zM510 -20q-232 0 -352 150.5
t-86 391.5q34 248 199.5 401.5t394.5 153.5q234 0 354 -154.5t86 -398.5q-32 -240 -197 -392t-399 -152zM543 174q57 0 105 32t80 86t52 114.5t29 125.5q12 63 6.5 126.5t-22 114t-57 82.5t-97.5 32q-58 0 -106.5 -31.5t-80 -84t-52 -112.5t-29.5 -127q-11 -62 -5.5 -125.5
t22 -115t57 -84.5t98.5 -33z" />
    <glyph glyph-name="uni1ED8" unicode="&#x1ed8;" horiz-adv-x="1501" 
d="M1055 1642l-113 156l-172 -156h-231l301 277h202l224 -277h-211zM705 -20q-313 0 -465 201.5t-103 553.5q47 354 257.5 560t518.5 206t461.5 -205.5t104.5 -558.5q-49 -352 -257 -554.5t-517 -202.5zM739 225q165 0 272.5 123t141.5 385q37 268 -35.5 395t-236.5 127
t-273.5 -128t-146.5 -394q-35 -261 39 -384.5t239 -123.5zM795 -92l-33 -238h-236l37 238h232z" />
    <glyph glyph-name="uni1ED9" unicode="&#x1ed9;" horiz-adv-x="1177" 
d="M834 1219l-113 155l-172 -155h-232l301 276h203l223 -276h-210zM510 -20q-232 0 -352 150.5t-86 391.5q34 248 199.5 401.5t394.5 153.5q234 0 354 -154.5t86 -398.5q-32 -240 -197 -392t-399 -152zM543 174q57 0 105 32t80 86t52 114.5t29 125.5q12 63 6.5 126.5
t-22 114t-57 82.5t-97.5 32q-58 0 -106.5 -31.5t-80 -84t-52 -112.5t-29.5 -127q-11 -62 -5.5 -125.5t22 -115t57 -84.5t98.5 -33zM623 -92l-33 -238h-236l37 238h232z" />
    <glyph glyph-name="uni1EDA" unicode="&#x1eda;" horiz-adv-x="1468" 
d="M1225 1729l-545 -142l-31 135l531 209zM1262 1405q135 -93 192 -265t25 -403q-49 -352 -257 -554.5t-517 -202.5q-313 0 -465 201.5t-103 553.5q47 354 257.5 560t518.5 206q82 0 148 -14q56 3 101 34.5t73 86.5h188q-53 -135 -161 -203zM1153 733q37 268 -35.5 395
t-236.5 127t-273.5 -128t-146.5 -394q-35 -261 39 -384.5t239 -123.5t272.5 123t141.5 385z" />
    <glyph glyph-name="uni1EDB" unicode="&#x1edb;" horiz-adv-x="1161" 
d="M989 1305l-545 -142l-30 135l532 209zM979 967q80 -74 113.5 -189.5t13.5 -253.5q-32 -240 -197 -392t-399 -152q-232 0 -352 150.5t-86 391.5q34 248 199.5 401.5t394.5 153.5q78 0 153 -20q86 21 131 112h191q-53 -134 -162 -202zM809 532q12 63 6.5 126.5t-22 114
t-57 82.5t-97.5 32q-58 0 -106.5 -31.5t-80 -84t-52 -112.5t-29.5 -127q-11 -62 -5.5 -125.5t22 -115t57 -84.5t98.5 -33q57 0 105 32t80 86t52 114.5t29 125.5z" />
    <glyph glyph-name="uni1EDC" unicode="&#x1edc;" horiz-adv-x="1468" 
d="M1214 1710l-59 -123l-514 148l86 194zM1262 1405q135 -93 192 -265t25 -403q-49 -352 -257 -554.5t-517 -202.5q-313 0 -465 201.5t-103 553.5q47 354 257.5 560t518.5 206q82 0 148 -14q56 3 101 34.5t73 86.5h188q-53 -135 -161 -203zM1153 733q37 268 -35.5 395
t-236.5 127t-273.5 -128t-146.5 -394q-35 -261 39 -384.5t239 -123.5t272.5 123t141.5 385z" />
    <glyph glyph-name="uni1EDD" unicode="&#x1edd;" horiz-adv-x="1161" 
d="M979 1286l-57 -123l-516 148l88 194zM979 967q80 -74 113.5 -189.5t13.5 -253.5q-32 -240 -197 -392t-399 -152q-232 0 -352 150.5t-86 391.5q34 248 199.5 401.5t394.5 153.5q78 0 153 -20q86 21 131 112h191q-53 -134 -162 -202zM809 532q12 63 6.5 126.5t-22 114
t-57 82.5t-97.5 32q-58 0 -106.5 -31.5t-80 -84t-52 -112.5t-29.5 -127q-11 -62 -5.5 -125.5t22 -115t57 -84.5t98.5 -33q57 0 105 32t80 86t52 114.5t29 125.5z" />
    <glyph glyph-name="uni1EDE" unicode="&#x1ede;" horiz-adv-x="1468" 
d="M909 1872q-50 0 -125 -43l-45 119q120 55 191 55q86 0 135 -46.5t37 -123.5q-5 -33 -20 -62.5t-44.5 -60t-52 -50.5t-66.5 -56q-11 -9 -16 -13l-61 103q67 44 96 72t35 59q5 47 -64 47zM1262 1405q135 -93 192 -265t25 -403q-49 -352 -257 -554.5t-517 -202.5
q-313 0 -465 201.5t-103 553.5q47 354 257.5 560t518.5 206q82 0 148 -14q56 3 101 34.5t73 86.5h188q-53 -135 -161 -203zM1153 733q37 268 -35.5 395t-236.5 127t-273.5 -128t-146.5 -394q-35 -261 39 -384.5t239 -123.5t272.5 123t141.5 385z" />
    <glyph glyph-name="uni1EDF" unicode="&#x1edf;" horiz-adv-x="1161" 
d="M674 1448q-48 0 -123 -43l-45 119q120 55 188 55q86 0 135 -46.5t39 -123.5q-4 -26 -17.5 -53t-24 -43t-43.5 -47t-42.5 -39.5t-54.5 -44.5l-18 -15l-62 103q67 44 96 72t35 59q4 25 -15 36t-48 11zM979 967q80 -74 113.5 -189.5t13.5 -253.5q-32 -240 -197 -392
t-399 -152q-232 0 -352 150.5t-86 391.5q34 248 199.5 401.5t394.5 153.5q78 0 153 -20q86 21 131 112h191q-53 -134 -162 -202zM809 532q12 63 6.5 126.5t-22 114t-57 82.5t-97.5 32q-58 0 -106.5 -31.5t-80 -84t-52 -112.5t-29.5 -127q-11 -62 -5.5 -125.5t22 -115
t57 -84.5t98.5 -33q57 0 105 32t80 86t52 114.5t29 125.5z" />
    <glyph glyph-name="uni1EE0" unicode="&#x1ee0;" horiz-adv-x="1468" 
d="M811 1733q-27 0 -51 -7t-38 -15t-39.5 -24.5t-41.5 -25.5l-37 172q102 70 197 70q64 0 157.5 -31t131.5 -31q47 0 109 33t79 37l16 -185q-96 -51 -202 -51q-61 0 -147.5 29t-133.5 29zM1262 1405q135 -93 192 -265t25 -403q-49 -352 -257 -554.5t-517 -202.5
q-313 0 -465 201.5t-103 553.5q47 354 257.5 560t518.5 206q82 0 148 -14q56 3 101 34.5t73 86.5h188q-53 -135 -161 -203zM1153 733q37 268 -35.5 395t-236.5 127t-273.5 -128t-146.5 -394q-35 -261 39 -384.5t239 -123.5t272.5 123t141.5 385z" />
    <glyph glyph-name="uni1EE1" unicode="&#x1ee1;" horiz-adv-x="1161" 
d="M578 1309q-35 0 -59 -8.5t-60.5 -32t-52.5 -31.5l-35 172q51 35 94.5 52.5t99.5 17.5q65 0 158.5 -31t132.5 -31q46 0 108.5 33t77.5 37l19 -184q-102 -52 -205 -52q-61 0 -147 29t-131 29zM979 967q80 -74 113.5 -189.5t13.5 -253.5q-32 -240 -197 -392t-399 -152
q-232 0 -352 150.5t-86 391.5q34 248 199.5 401.5t394.5 153.5q78 0 153 -20q86 21 131 112h191q-53 -134 -162 -202zM809 532q12 63 6.5 126.5t-22 114t-57 82.5t-97.5 32q-58 0 -106.5 -31.5t-80 -84t-52 -112.5t-29.5 -127q-11 -62 -5.5 -125.5t22 -115t57 -84.5
t98.5 -33q57 0 105 32t80 86t52 114.5t29 125.5z" />
    <glyph glyph-name="uni1EE2" unicode="&#x1ee2;" horiz-adv-x="1468" 
d="M1262 1405q135 -93 192 -265t25 -403q-49 -352 -257 -554.5t-517 -202.5q-313 0 -465 201.5t-103 553.5q47 354 257.5 560t518.5 206q82 0 148 -14q56 3 101 34.5t73 86.5h188q-53 -135 -161 -203zM1153 733q37 268 -35.5 395t-236.5 127t-273.5 -128t-146.5 -394
q-35 -261 39 -384.5t239 -123.5t272.5 123t141.5 385zM528 -330l37 238h232l-33 -238h-236z" />
    <glyph glyph-name="uni1EE3" unicode="&#x1ee3;" horiz-adv-x="1161" 
d="M979 967q80 -74 113.5 -189.5t13.5 -253.5q-32 -240 -197 -392t-399 -152q-232 0 -352 150.5t-86 391.5q34 248 199.5 401.5t394.5 153.5q78 0 153 -20q86 21 131 112h191q-53 -134 -162 -202zM809 532q12 63 6.5 126.5t-22 114t-57 82.5t-97.5 32q-58 0 -106.5 -31.5
t-80 -84t-52 -112.5t-29.5 -127q-11 -62 -5.5 -125.5t22 -115t57 -84.5t98.5 -33q57 0 105 32t80 86t52 114.5t29 125.5zM356 -330l37 238h232l-33 -238h-236z" />
    <glyph glyph-name="uni1EE4" unicode="&#x1ee4;" horiz-adv-x="1458" 
d="M1343 565q-20 -139 -66.5 -244t-125 -183t-197.5 -118t-276 -40q-158 0 -266.5 41t-164.5 118t-74.5 186.5t3.5 247.5l125 908h301l-125 -930q-24 -160 41 -239t195 -79q131 0 218 79t111 239l127 930h301zM735 -92l-30 -238h-238l37 238h231z" />
    <glyph glyph-name="uni1EE5" unicode="&#x1ee5;" horiz-adv-x="1206" 
d="M393 -20q-141 2 -228.5 89.5t-66.5 231.5l105 758h297l-101 -721q-9 -71 26.5 -112.5t113.5 -41.5q68 0 120 33.5t99 99.5l102 742h299l-149 -1059h-224l-12 174q-86 -96 -187 -145t-194 -49zM639 -92l-31 -238h-235l35 238h231z" />
    <glyph glyph-name="uni1EE6" unicode="&#x1ee6;" horiz-adv-x="1488" 
d="M700 1948l45 -119q75 43 125 43q29 0 47.5 -11t14.5 -36q-4 -30 -33 -58t-96 -73l59 -103q45 36 59.5 48t48.5 42.5t47 49t27.5 46.5t18.5 56q10 77 -38.5 123.5t-135.5 46.5q-69 0 -189 -55zM1343 565q-20 -139 -66.5 -244t-125 -183t-197.5 -118t-276 -40
q-158 0 -266.5 41t-164.5 118t-74.5 186.5t3.5 247.5l125 908h301l-125 -930q-24 -160 41 -239t195 -79q131 0 218 79t111 239l127 930h301z" />
    <glyph glyph-name="uni1EE7" unicode="&#x1ee7;" horiz-adv-x="1206" 
d="M520 1524l45 -119q75 43 123 43q31 0 49.5 -11t14.5 -36q-6 -31 -35 -59t-96 -72l61 -103q45 36 59.5 48t48.5 42.5t47 49t27.5 46.5t18.5 56q10 77 -39 123.5t-135 46.5q-69 0 -189 -55zM393 -20q-141 2 -228.5 89.5t-66.5 231.5l105 758h297l-101 -721
q-9 -71 26.5 -112.5t113.5 -41.5q68 0 120 33.5t99 99.5l102 742h299l-149 -1059h-224l-12 174q-86 -96 -187 -145t-194 -49z" />
    <glyph glyph-name="uni1EE8" unicode="&#x1ee8;" horiz-adv-x="1439" 
d="M1194 1729l-545 -142l-31 135l531 209zM1802 1612q-45 -119 -137.5 -187.5t-212.5 -76.5l-109 -783q-20 -139 -66.5 -244t-125 -183t-197.5 -118t-276 -40q-158 0 -266.5 41t-164.5 118t-74.5 186.5t3.5 247.5l125 908h301l-125 -930q-24 -160 41 -239t195 -79
q131 0 218 79t111 239l127 930h256v10q61 0 110.5 31.5t78.5 89.5h188z" />
    <glyph glyph-name="uni1EE9" unicode="&#x1ee9;" horiz-adv-x="1212" 
d="M981 1305l-545 -142l-30 135l532 209zM1395 1176q-75 -190 -254 -248l-131 -928h-224l-12 174q-86 -96 -187 -145t-194 -49q-141 2 -228.5 89.5t-66.5 231.5l105 758h297l-101 -721q-9 -71 26.5 -112.5t113.5 -41.5q68 0 120 33.5t99 99.5l102 742h199q96 18 145 117h191
z" />
    <glyph glyph-name="uni1EEA" unicode="&#x1eea;" horiz-adv-x="1439" 
d="M1184 1710l-60 -123l-514 148l86 194zM1802 1612q-45 -119 -137.5 -187.5t-212.5 -76.5l-109 -783q-20 -139 -66.5 -244t-125 -183t-197.5 -118t-276 -40q-158 0 -266.5 41t-164.5 118t-74.5 186.5t3.5 247.5l125 908h301l-125 -930q-24 -160 41 -239t195 -79
q131 0 218 79t111 239l127 930h256v10q61 0 110.5 31.5t78.5 89.5h188z" />
    <glyph glyph-name="uni1EEB" unicode="&#x1eeb;" horiz-adv-x="1212" 
d="M969 1286l-58 -123l-516 148l88 194zM1395 1176q-75 -190 -254 -248l-131 -928h-224l-12 174q-86 -96 -187 -145t-194 -49q-141 2 -228.5 89.5t-66.5 231.5l105 758h297l-101 -721q-9 -71 26.5 -112.5t113.5 -41.5q68 0 120 33.5t99 99.5l102 742h199q96 18 145 117h191z
" />
    <glyph glyph-name="uni1EEC" unicode="&#x1eec;" horiz-adv-x="1439" 
d="M879 1872q-50 0 -125 -43l-45 119q123 55 190 55q86 0 135 -46.5t37 -123.5q-5 -42 -34 -84t-59 -69t-86 -73q-13 -11 -20 -16l-61 103q67 44 96 72t35 59q5 47 -63 47zM1802 1612q-45 -119 -137.5 -187.5t-212.5 -76.5l-109 -783q-20 -139 -66.5 -244t-125 -183
t-197.5 -118t-276 -40q-158 0 -266.5 41t-164.5 118t-74.5 186.5t3.5 247.5l125 908h301l-125 -930q-24 -160 41 -239t195 -79q131 0 218 79t111 239l127 930h256v10q61 0 110.5 31.5t78.5 89.5h188z" />
    <glyph glyph-name="uni1EED" unicode="&#x1eed;" horiz-adv-x="1212" 
d="M674 1448q-48 0 -123 -43l-45 119q120 55 188 55q86 0 135 -46.5t39 -123.5q-4 -26 -17.5 -53t-24 -43t-43.5 -47t-42.5 -39.5t-54.5 -44.5l-18 -15l-62 103q67 44 96 72t35 59q4 25 -15 36t-48 11zM1395 1176q-75 -190 -254 -248l-131 -928h-224l-12 174
q-86 -96 -187 -145t-194 -49q-141 2 -228.5 89.5t-66.5 231.5l105 758h297l-101 -721q-9 -71 26.5 -112.5t113.5 -41.5q68 0 120 33.5t99 99.5l102 742h199q96 18 145 117h191z" />
    <glyph glyph-name="uni1EEE" unicode="&#x1eee;" horiz-adv-x="1439" 
d="M780 1733q-35 0 -59 -8.5t-59 -31.5t-52 -32l-35 172q99 70 195 70q65 0 158.5 -31t130.5 -31q48 0 110.5 33t77.5 37l17 -185q-96 -51 -203 -51q-61 0 -147.5 29t-133.5 29zM1802 1612q-45 -119 -137.5 -187.5t-212.5 -76.5l-109 -783q-20 -139 -66.5 -244t-125 -183
t-197.5 -118t-276 -40q-158 0 -266.5 41t-164.5 118t-74.5 186.5t3.5 247.5l125 908h301l-125 -930q-24 -160 41 -239t195 -79q131 0 218 79t111 239l127 930h256v10q61 0 110.5 31.5t78.5 89.5h188z" />
    <glyph glyph-name="uni1EEF" unicode="&#x1eef;" horiz-adv-x="1212" 
d="M567 1309q-27 0 -51 -7t-38 -15t-39.5 -24.5t-41.5 -25.5l-37 172q50 34 94.5 52t102.5 18q64 0 157.5 -31t131.5 -31q46 0 108.5 33t77.5 37l19 -184q-98 -52 -203 -52q-61 0 -148.5 29t-132.5 29zM1395 1176q-75 -190 -254 -248l-131 -928h-224l-12 174
q-86 -96 -187 -145t-194 -49q-141 2 -228.5 89.5t-66.5 231.5l105 758h297l-101 -721q-9 -71 26.5 -112.5t113.5 -41.5q68 0 120 33.5t99 99.5l102 742h199q96 18 145 117h191z" />
    <glyph glyph-name="uni1EF0" unicode="&#x1ef0;" horiz-adv-x="1439" 
d="M1802 1612q-45 -119 -137.5 -187.5t-212.5 -76.5l-109 -783q-20 -139 -66.5 -244t-125 -183t-197.5 -118t-276 -40q-158 0 -266.5 41t-164.5 118t-74.5 186.5t3.5 247.5l125 908h301l-125 -930q-24 -160 41 -239t195 -79q131 0 218 79t111 239l127 930h256v10
q61 0 110.5 31.5t78.5 89.5h188zM500 -330l37 238h231l-31 -238h-237z" />
    <glyph glyph-name="uni1EF1" unicode="&#x1ef1;" horiz-adv-x="1212" 
d="M1395 1176q-75 -190 -254 -248l-131 -928h-224l-12 174q-86 -96 -187 -145t-194 -49q-141 2 -228.5 89.5t-66.5 231.5l105 758h297l-101 -721q-9 -71 26.5 -112.5t113.5 -41.5q68 0 120 33.5t99 99.5l102 742h199q96 18 145 117h191zM348 -330l37 238h231l-32 -238h-236z
" />
    <glyph glyph-name="Ygrave" unicode="&#x1ef2;" horiz-adv-x="1339" 
d="M659 1929l488 -219l-60 -123l-514 148zM1458 1481l-624 -858l-86 -623h-299l86 623l-388 858h320l252 -602l414 602h325z" />
    <glyph glyph-name="ygrave" unicode="&#x1ef3;" horiz-adv-x="1142" 
d="M506 1505l487 -219l-59 -123l-514 148zM174 -338q-64 0 -112 9t-64 19l-16 9l26 190l105 -4q50 -3 90.5 4t62 16.5t40.5 29t23 27t13 24.5l25 59l-265 1012h295l154 -688l346 688h291l-567 -1063q-55 -99 -109 -165.5t-110 -102t-109.5 -50t-118.5 -14.5z" />
    <glyph glyph-name="uni1EF4" unicode="&#x1ef4;" horiz-adv-x="1308" 
d="M1458 1481l-624 -858l-86 -623h-299l86 623l-388 858h320l252 -602l414 602h325zM651 -92l-33 -238h-235l37 238h231z" />
    <glyph glyph-name="uni1EF5" unicode="&#x1ef5;" horiz-adv-x="1073" 
d="M168 -338q-64 0 -112 9t-64 19l-17 9l29 190l105 -4q50 -3 90.5 4t62 16.5t40.5 29t23 27t13 24.5l24 59l-266 1012h295l154 -688l346 688h291l-568 -1063q-71 -131 -145.5 -206t-143.5 -100.5t-157 -25.5zM920 -92l-31 -238h-236l35 238h232z" />
    <glyph glyph-name="uni1EF6" unicode="&#x1ef6;" horiz-adv-x="1320" 
d="M672 1948l45 -119q75 43 125 43q68 0 63 -47q-6 -31 -35 -59t-96 -72l62 -103q46 38 59 48.5t47 42t46.5 49.5t27 46t18.5 56q12 77 -37 123.5t-135 46.5q-70 0 -190 -55zM1458 1481l-624 -858l-86 -623h-299l86 623l-388 858h320l252 -602l414 602h325z" />
    <glyph glyph-name="uni1EF7" unicode="&#x1ef7;" horiz-adv-x="1146" 
d="M528 1524l45 -119q75 43 125 43q29 0 47.5 -11t14.5 -36q-4 -30 -33 -58t-96 -73l59 -103q45 36 59.5 48t48.5 42.5t47 49t27.5 46.5t18.5 56q10 77 -39 123.5t-135 46.5q-69 0 -189 -55zM174 -338q-64 0 -112 9t-64 19l-16 9l26 190l105 -4q50 -3 90.5 4t62 16.5
t40.5 29t23 27t13 24.5l25 59l-265 1012h295l154 -688l346 688h291l-567 -1063q-55 -99 -109 -165.5t-110 -102t-109.5 -50t-118.5 -14.5z" />
    <glyph glyph-name="uni1EF8" unicode="&#x1ef8;" horiz-adv-x="1339" 
d="M1227 1726q-96 -51 -203 -51q-61 0 -147.5 29t-133.5 29q-27 0 -51 -7t-38 -15t-39.5 -24.5t-41.5 -25.5l-36 172q51 35 95 52.5t101 17.5q64 0 157.5 -31t131.5 -31q47 0 109 33t79 37zM1458 1481l-624 -858l-86 -623h-299l86 623l-388 858h320l252 -602l414 602h325z
" />
    <glyph glyph-name="uni1EF9" unicode="&#x1ef9;" horiz-adv-x="1142" 
d="M1073 1303q-98 -52 -203 -52q-61 0 -148 29t-132 29q-27 0 -51 -7t-38 -15t-39.5 -24.5t-41.5 -25.5l-37 172q50 34 94.5 52t102.5 18q64 0 157 -31t131 -31q48 0 110 33t77 37zM174 -338q-64 0 -112 9t-64 19l-16 9l26 190l105 -4q50 -3 90.5 4t62 16.5t40.5 29t23 27
t13 24.5l25 59l-265 1012h295l154 -688l346 688h291l-567 -1063q-55 -99 -109 -165.5t-110 -102t-109.5 -50t-118.5 -14.5z" />
    <glyph glyph-name="endash" unicode="&#x2013;" horiz-adv-x="1202" 
d="M1081 618l-26 -217l-955 -2l31 219h950z" />
    <glyph glyph-name="emdash" unicode="&#x2014;" horiz-adv-x="1839" 
d="M1720 618l-28 -217l-1592 -2l31 219h1589z" />
    <glyph glyph-name="quoteleft" unicode="&#x2018;" horiz-adv-x="538" 
d="M535 1544l-158 -278l102 -11l-41 -288h-299l35 254l250 323h111z" />
    <glyph glyph-name="quoteright" unicode="&#x2019;" horiz-adv-x="516" 
d="M154 903l157 281l-100 8l39 289h299l-35 -254l-250 -324h-110z" />
    <glyph glyph-name="quotesinglbase" unicode="&#x201a;" horiz-adv-x="524" 
d="M-16 -285l161 275l-108 12l39 291h301l-35 -242l-258 -336h-100z" />
    <glyph glyph-name="quotedblleft" unicode="&#x201c;" horiz-adv-x="972" 
d="M158 903l37 256l247 322h111l-156 -279l103 -10l-41 -289h-301zM596 903l35 256l250 322h108l-155 -279l104 -10l-43 -289h-299z" />
    <glyph glyph-name="quotedblright" unicode="&#x201d;" horiz-adv-x="1007" 
d="M154 903l157 281l-100 8l39 289h299l-35 -254l-250 -324h-110zM592 903l158 281l-103 8l39 289h301l-37 -254l-248 -324h-110z" />
    <glyph glyph-name="quotedblbase" unicode="&#x201e;" horiz-adv-x="1136" 
d="M25 -285l198 275l-106 12l80 291h301l-70 -242l-305 -336h-98zM477 -285l199 275l-107 12l82 291h299l-67 -242l-305 -336h-101z" />
    <glyph glyph-name="dagger" unicode="&#x2020;" horiz-adv-x="1054" 
d="M1042 1012l-34 -260l-363 43l-98 -1125h-287l211 1121l-375 -46l37 265l356 -43l23 514h287l-117 -508z" />
    <glyph glyph-name="daggerdbl" unicode="&#x2021;" horiz-adv-x="1056" 
d="M645 766l-61 -434l372 45l-36 -262l-355 39l-18 -484h-289l113 480l-363 -39l37 260l361 -43l61 434l-375 -45l37 262l356 -39l27 541h287l-121 -537l362 39l-36 -260z" />
    <glyph glyph-name="bullet" unicode="&#x2022;" horiz-adv-x="720" 
d="M358 496q-109 0 -176.5 80t-50.5 192q13 101 94 170.5t181 69.5q109 0 176.5 -80.5t50.5 -190.5q-13 -101 -94 -171t-181 -70z" />
    <glyph glyph-name="ellipsis" unicode="&#x2026;" horiz-adv-x="1808" 
d="M438 326l-43 -326h-327l45 326h325zM1079 326l-45 -326h-325l45 326h325zM1718 326l-43 -326h-327l45 326h325z" />
    <glyph glyph-name="perthousand" unicode="&#x2030;" horiz-adv-x="2736" 
d="M592 1503q159 0 250.5 -128t66.5 -312q-25 -172 -140.5 -286.5t-268.5 -114.5q-163 0 -256.5 125.5t-67.5 308.5q25 172 144.5 289.5t271.5 117.5zM1720 1497l-1190 -1505l-192 2l1192 1503h190zM494 815q81 0 131 73.5t69 205.5q31 256 -102 256q-78 0 -130 -77
t-71 -212q-32 -246 103 -246zM1454 819q105 0 184 -58t115 -159t19 -221q-25 -172 -141.5 -286.5t-268.5 -114.5q-163 0 -255 125t-67 309q25 173 143 289t271 116zM2286 819q161 0 253 -127.5t66 -310.5q-25 -172 -141.5 -286.5t-268.5 -114.5q-162 0 -255 125.5t-68 308.5
q25 172 144 288.5t270 116.5zM1358 133q79 0 128.5 74t69.5 205q18 124 -7 191t-93 67q-78 0 -130.5 -79t-70.5 -212q-18 -118 8 -182t95 -64zM2191 133q78 0 129 74.5t70 204.5q18 124 -7.5 191t-94.5 67q-75 0 -128.5 -79t-72.5 -212q-32 -246 104 -246z" />
    <glyph glyph-name="guilsinglleft" unicode="&#x2039;" horiz-adv-x="630" 
d="M330 498l108 -367h-145l-193 393l285 389h174z" />
    <glyph glyph-name="guilsinglright" unicode="&#x203a;" horiz-adv-x="632" 
d="M285 524l-107 389h146l188 -415l-283 -367h-170z" />
    <glyph glyph-name="fraction" unicode="&#x2044;" horiz-adv-x="530" 
d="M973 1497l-1190 -1505l-191 2l1190 1503h191z" />
    <glyph glyph-name="uni2070" unicode="&#x2070;" horiz-adv-x="851" 
d="M569 1729q164 0 248.5 -132t54.5 -350q-29 -216 -149 -344.5t-287 -128.5q-168 0 -253 128t-54 345q31 218 152 350t288 132zM457 924q85 0 135.5 75.5t73.5 247.5q26 175 -4.5 254.5t-114.5 79.5q-81 0 -134 -80.5t-79 -253.5q-23 -170 8 -246.5t115 -76.5z" />
    <glyph glyph-name="uni2074" unicode="&#x2074;" horiz-adv-x="854" 
d="M612 1710h187l-78 -563h137l-20 -148h-138l-30 -221h-189l33 221h-414l21 144zM281 1147h254l49 356z" />
    <glyph glyph-name="uni2075" unicode="&#x2075;" horiz-adv-x="823" 
d="M309 1710h592l-31 -156h-436l-49 -223q49 18 71.5 25.5t59.5 14.5t74 7q143 0 221.5 -76.5t58.5 -218.5q-20 -149 -131.5 -233t-279.5 -84q-123 0 -216.5 47.5t-136.5 128.5l152 98q45 -64 87 -94.5t112 -30.5q87 0 143.5 45t65.5 115q9 68 -31 110t-117 42
q-62 0 -166 -53q-14 -4 -17.5 -4t-12.5 8l-119 67z" />
    <glyph glyph-name="uni2076" unicode="&#x2076;" horiz-adv-x="831" 
d="M586 1731q113 0 185.5 -59.5t86.5 -129.5l-170 -53q-21 46 -48 69t-75 23q-96 0 -157 -75.5t-70 -205.5q89 36 130.5 47t88.5 11q143 0 217.5 -77.5t56.5 -199.5q-19 -131 -131 -217t-262 -86q-179 0 -261.5 122.5t-53.5 334.5q32 231 156.5 363.5t306.5 132.5zM494 1217
q-38 0 -83.5 -13t-72.5 -30q-12 -8 -17 -16t-6 -28q-13 -86 23.5 -148t112.5 -62q65 0 115 43.5t59 109.5q9 65 -28 104.5t-103 39.5z" />
    <glyph glyph-name="uni2077" unicode="&#x2077;" horiz-adv-x="751" 
d="M225 1710h686l-26 -194q-136 -146 -264.5 -366t-153.5 -372h-205q15 63 47 146t84.5 187t135.5 221.5t182 221.5h-508z" />
    <glyph glyph-name="uni2078" unicode="&#x2078;" horiz-adv-x="825" 
d="M563 1731q146 0 229 -74t66 -187q-5 -42 -26 -77.5t-50.5 -58t-49.5 -34t-38 -18.5q60 -34 69 -40q95 -69 79 -193q-19 -129 -132 -202t-286 -73q-163 0 -252 63.5t-74 178.5q21 145 201 217q-134 76 -117 213q18 121 122.5 203t258.5 82zM547 1589q-63 0 -109 -33
t-53 -86q-9 -80 74 -104l96 -29q34 -11 78.5 33.5t50.5 95.5q8 53 -29 88t-108 35zM457 915q74 0 122 32t56 85q5 42 -14.5 69.5t-73.5 43.5l-113 35q-36 13 -88 -29.5t-61 -103.5q-9 -62 33.5 -97t138.5 -35z" />
    <glyph glyph-name="uni2079" unicode="&#x2079;" horiz-adv-x="835" 
d="M406 778q-115 0 -189 59.5t-86 129.5l166 53q23 -47 51 -70.5t78 -23.5q97 0 159 84.5t68 226.5q-77 -86 -221 -86q-141 0 -214 76.5t-58 199.5q20 132 131 218t262 86q178 0 261 -122.5t54 -334.5q-32 -232 -156.5 -364t-305.5 -132zM496 1292q61 0 115.5 35t60.5 78
q4 92 -30 138t-101 46q-65 0 -115 -43.5t-59 -109.5q-9 -65 28 -104.5t101 -39.5z" />
    <glyph glyph-name="colonmonetary" unicode="&#x20a1;" horiz-adv-x="1245" 
d="M702 1090q-105 0 -181.5 -97.5t-98.5 -253.5q-20 -158 31 -254t157 -96q40 0 73 15.5t60.5 48t42.5 57t39 68.5l244 -46q-30 -91 -101 -169.5t-169 -122.5l-99 -238l-163 4l73 187q-18 -3 -39 -3q-35 0 -82 7l-79 -195l-164 4l94 240q-118 64 -174 192t-33 297
q29 214 164.5 361.5t325.5 181.5l82 199l165 4l-75 -197q64 -9 110 -29l90 222l164 4l-123 -320q82 -93 88 -225l-264 -41q-30 100 -48 131q-39 64 -110 64z" />
    <glyph glyph-name="franc" unicode="&#x20a3;" horiz-adv-x="1269" 
d="M1282 1231h-702l-54 -381h521l-35 -244h-518l-27 -198h297l-23 -164h-297l-32 -244h-340l32 244h-180l27 162h176l149 1075h1043z" />
    <glyph glyph-name="lira" unicode="&#x20a4;" horiz-adv-x="1316" 
d="M1204 354q-65 -173 -195 -263.5t-304 -90.5h-738l33 248h63q68 0 121.5 47t75.5 139q5 9 16 68q0 1 -2 0q-4 -2 -10 -2h-215l21 162h211l-2 137h-189l21 162h168v92q4 115 47 203t114 140.5t158 78.5t186 26q72 0 141 -19.5t129 -56t104 -95.5t61 -132l-246 -72
q-22 64 -56.5 101t-95.5 37q-76 0 -132 -52.5t-68 -138.5q-1 -11 -5 -104q2 -8 17 -8l278 2l-24 -162l-266 -2v-137l249 2l-24 -162h-238q-49 -154 -145 -252h239q90 0 149 39t97 123z" />
    <glyph glyph-name="uni20A6" unicode="&#x20a6;" horiz-adv-x="1579" 
d="M1597 901h-141l-39 -280h142l-21 -148h-141l-66 -473h-268l-254 473l-369 -2l-65 -471h-299l65 471h-127l21 150h127l39 280h-127l20 150h127l60 430h294l232 -430h373l57 430h299l-59 -430h143zM461 621h268l-149 280h-80zM1120 621l39 280h-272l151 -280h82z" />
    <glyph glyph-name="uni20A9" unicode="&#x20a9;" horiz-adv-x="2299" 
d="M2339 1067h-393l-68 -158h438l-22 -161h-486l-321 -748h-238l-106 745h-123l-313 -745h-234l-115 745h-282l24 164h234l-25 156h-188l22 164h142l-39 252h291l34 -252h400l104 252h215l37 -252h399l105 252h293l-109 -252h344zM1595 909l66 158h-311l22 -158h223z
M594 1065l22 -156h224l65 156h-311zM1087 909h33l-8 60zM1430 504l100 244h-135zM674 504l100 241h-135z" />
    <glyph glyph-name="dong" unicode="&#x20ab;" horiz-adv-x="1083" 
d="M1159 1366l-18 -131h-121l-135 -965h-248l14 88q-60 -49 -119.5 -76.5t-142.5 -27.5q-157 0 -238.5 121t-48.5 340q27 198 143.5 320t262.5 122q149 0 233 -117l27 195h-223l16 131h225l17 115h252l-17 -115h121zM674 567l51 351q-55 75 -133 75q-95 0 -154.5 -86.5
t-83.5 -222.5q-39 -270 131 -270q70 0 125.5 47t63.5 106zM57 0l23 143h790l-20 -143h-793z" />
    <glyph glyph-name="Euro" unicode="&#x20ac;" horiz-adv-x="1327" 
d="M774 231q72 0 145.5 40.5t120.5 95.5l156 -193q-96 -88 -219 -141t-252 -53q-221 0 -361.5 138.5t-170.5 375.5h-193l27 161h159q3 64 11 113q3 25 10 59h-158l21 162h180q85 241 259.5 376.5t399.5 135.5q141 0 252 -59t178 -160l-198 -137q-35 38 -59 59t-65.5 40.5
t-86.5 19.5q-225 0 -330 -275h326l-21 -162h-352q-12 -63 -16 -96q-6 -43 -9 -76h353l-23 -161h-330q13 -133 77 -198t169 -65z" />
    <glyph glyph-name="uni20B9" unicode="&#x20b9;" horiz-adv-x="1304" 
d="M1362 1333h-266q57 -66 69 -157h174l-18 -150h-166q-29 -119 -110.5 -202t-192.5 -126q-13 -1 -20 -10.5t-7 -19.5l181 -668h-359l-137 649h-447l31 217h420q220 0 283 160l-682 -2l22 150l682 2q-6 75 -60.5 110t-158.5 35h-444l22 160h1204z" />
    <glyph glyph-name="uni20BA" unicode="&#x20ba;" horiz-adv-x="1341" 
d="M1028 573l275 -61q-253 -512 -805 -512h-295l61 440l-160 -55l-38 166l223 78l20 143l-188 -65l-39 165l254 89l72 520h340l-56 -396l248 86l41 -163l-313 -111l-21 -143l277 96l41 -166l-344 -119l-43 -315h63q112 3 213.5 86t173.5 237z" />
    <glyph glyph-name="uni2113" unicode="&#x2113;" horiz-adv-x="1150" 
d="M496 442l-7 -49q-23 -190 136 -190q115 0 231 104l-307 -327q-66 0 -119.5 12.5t-89 32t-63.5 50t-43 58.5t-26 66t-15 64t-7 61q-2 1 -3.5 -2t-3 -7t-3.5 -6l-98 -61l-49 178l180 123l61 452q36 250 165.5 375t322.5 125q92 0 157.5 -28.5t97.5 -77.5t45 -114.5
t-1 -139.5q-7 -49 -22.5 -97t-33.5 -87.5t-50.5 -85t-57 -77.5t-70.5 -76.5t-73 -69.5t-83.5 -71t-82.5 -66.5t-88 -68.5zM571 987l-34 -260q297 229 327 463q19 131 -84 131q-77 0 -130 -77t-79 -257zM920 373q-27 -34 -64 -66l70 74z" />
    <glyph glyph-name="uni2116" unicode="&#x2116;" horiz-adv-x="2371" 
d="M2091 1501q155 0 236 -102t59 -262q-20 -144 -119.5 -233t-245.5 -89q-152 0 -232 99.5t-58 254.5q20 148 121 240t239 92zM1257 1481h297l-202 -1481h-271l-546 1018l-142 -1018h-297l205 1481h295l526 -981zM2097 1372q-70 0 -114.5 -59t-59.5 -170
q-14 -102 8.5 -150.5t83.5 -48.5q72 0 117.5 59.5t60.5 172.5q27 196 -96 196z" />
    <glyph glyph-name="uni2117" unicode="&#x2117;" horiz-adv-x="1677" 
d="M768 -20q-155 0 -287 61.5t-219.5 165t-128 247.5t-18.5 302q21 152 98 290t189 237.5t256.5 158.5t295.5 59q154 0 286 -62t219.5 -166t128.5 -247.5t20 -300.5q-21 -153 -98.5 -291.5t-190 -237.5t-257 -157.5t-294.5 -58.5zM768 147q255 0 440.5 167.5t223.5 441.5
q35 260 -98.5 420.5t-377.5 160.5q-257 0 -442 -169.5t-223 -442.5q-36 -265 95.5 -421.5t381.5 -156.5zM520 344l111 789h340q135 0 212.5 -68t61.5 -199q-18 -119 -101 -180t-212 -61h-182l-39 -281h-191zM768 762h162q48 0 83 38.5t42 82.5q8 58 -24 84t-79 26h-153z" />
    <glyph glyph-name="uni2120" unicode="&#x2120;" horiz-adv-x="1972" 
d="M371 -12q-128 0 -225 49t-132 133l144 92q40 -63 86 -90t135 -27q179 0 192 103q5 35 -10.5 60.5t-68.5 43.5l-189 58q-100 32 -148 97t-36 152q18 121 125 200t264 79q108 0 191.5 -40.5t119.5 -115.5l-141 -90q-34 47 -73 71.5t-113 24.5q-76 0 -120 -28t-50 -74
q-3 -22 0 -37t24 -35.5t64 -33.5l186 -56q205 -64 180 -252q-19 -132 -127.5 -208t-277.5 -76zM842 0l129 926h270l115 -660l299 660h268l-127 -926h-188l98 707l-313 -707h-148l-119 702l-96 -702h-188z" />
    <glyph glyph-name="trademark" unicode="&#x2122;" horiz-adv-x="1923" 
d="M53 758l23 168h731l-25 -168h-268l-104 -758h-187l105 758h-275zM791 0l129 926h270l115 -660l299 660h268l-127 -926h-189l99 707l-314 -707h-147l-119 702l-96 -702h-188z" />
    <glyph glyph-name="uni2126" unicode="&#x2126;" horiz-adv-x="1511" 
d="M874 1264q-156 0 -271 -130.5t-148 -363.5q-43 -321 159 -528q45 -27 37 -70l-22 -172h-582l37 252h295q-25 19 -48.5 41t-53 55t-52.5 69.5t-46.5 84.5t-34.5 99.5t-16.5 114t7.5 128.5q17 125 77.5 242t154.5 210t228.5 149t287.5 56q129 0 234.5 -40.5t174 -108.5
t112 -156.5t57 -185.5t-0.5 -195q-11 -78 -41 -154.5t-64 -131t-83.5 -111.5t-80.5 -87t-73 -67q-20 -7 -19 -10q1 -2 9 -2h246l-37 -252h-578l35 242q53 34 102.5 80t102.5 114.5t92.5 165.5t56.5 209q30 213 -38 333t-216 120z" />
    <glyph glyph-name="estimated" unicode="&#x212e;" horiz-adv-x="1675" 
d="M1434 303q-138 -147 -310.5 -235t-355.5 -88q-155 0 -287 61.5t-219.5 165t-128 247.5t-18.5 302q21 152 98 290t189 237.5t256.5 158.5t295.5 59q152 0 284 -60t220.5 -160.5t130.5 -239t21 -289.5q-1 -10 -4 -11.5t-17 -1.5h-1095l-80 -581q140 -90 342 -90
q154 0 295.5 64.5t238.5 170.5h144zM965 1411q-197 0 -365 -104q-29 -7 -33 -35l-61 -441h715l69 504q-149 76 -325 76z" />
    <glyph glyph-name="uni2153" unicode="&#x2153;" horiz-adv-x="1921" 
d="M172 565l98 721l-170 -47l19 129l270 129h100l-129 -932h-188zM1581 1497l-1190 -1505l-192 2l1192 1503h190zM1255 793q55 64 153.5 104.5t199.5 40.5q147 0 232 -68.5t71 -175.5q-20 -141 -199 -202q81 -24 130 -83t36 -147q-18 -127 -141 -203.5t-275 -76.5
q-110 0 -200 47t-134 127l148 96q51 -66 99 -93.5t118 -27.5q77 0 126.5 35.5t57.5 91.5q9 63 -35.5 100t-119.5 39l-127 2l20 148l107 4q75 3 127 39.5t59 91.5q6 45 -29 77t-94 32q-63 0 -115 -25t-112 -82z" />
    <glyph glyph-name="uni2154" unicode="&#x2154;" horiz-adv-x="2084" 
d="M43 571l18 140l324 264q133 104 177 153.5t50 104.5q9 61 -25.5 94t-94.5 33q-136 0 -224 -133l-133 67q159 222 389 222q150 0 228 -76.5t59 -204.5q-11 -73 -55.5 -132t-153.5 -155l-254 -219h402l-21 -158h-686zM1745 1497l-1190 -1505l-193 2l1192 1503h191z
M1419 793q55 64 153.5 104.5t199.5 40.5q147 0 232 -68.5t71 -175.5q-20 -141 -197 -202q80 -24 128.5 -83t35.5 -147q-18 -127 -141 -203.5t-275 -76.5q-110 0 -200 47t-134 127l148 96q51 -66 99 -93.5t118 -27.5q77 0 126.5 35.5t57.5 91.5q9 63 -35.5 100t-119.5 39
l-127 2l20 148l107 4q75 3 127 39.5t59 91.5q6 45 -29 77t-94 32q-63 0 -115 -25t-112 -82z" />
    <glyph glyph-name="oneeighth" unicode="&#x215b;" horiz-adv-x="1957" 
d="M172 565l98 721l-170 -47l19 129l270 129h100l-129 -932h-188zM1581 1497l-1190 -1505l-192 2l1192 1503h190zM1583 936q146 0 229 -73.5t66 -186.5q-4 -34 -20 -65t-34.5 -50.5t-42.5 -36.5t-39 -24.5t-28 -12.5q60 -34 69 -40q95 -69 79 -193q-19 -129 -131.5 -201.5
t-286.5 -72.5q-163 0 -252 63t-72 178q19 144 199 217q-134 76 -115 213q18 121 121.5 203t257.5 82zM1567 795q-62 0 -107.5 -33t-52.5 -86q-9 -81 74 -105l94 -28q34 -10 78.5 34t52.5 95q6 53 -31 88t-108 35zM1477 121q76 0 123 32t55 85q5 42 -14 68.5t-72 43.5
l-115 35q-36 13 -88 -29.5t-61 -103.5q-9 -62 33.5 -96.5t138.5 -34.5z" />
    <glyph glyph-name="threeeighths" unicode="&#x215c;" horiz-adv-x="2152" 
d="M205 1370q54 64 152 105t198 41q149 0 234 -68t71 -176q-20 -143 -198 -203q81 -24 129.5 -82.5t35.5 -146.5q-12 -85 -76 -150.5t-153 -98t-186 -32.5q-110 0 -200.5 47t-133.5 127l145 96q52 -66 99.5 -93t119.5 -27q77 0 126 35t57 92q10 62 -35 99.5t-119 39.5
l-127 2l21 147l106 4q75 3 126.5 39.5t59.5 92.5q6 45 -30 76.5t-95 31.5q-63 0 -114 -24.5t-113 -81.5zM1776 1497l-1190 -1505l-193 2l1192 1503h191zM1778 936q146 0 229 -73.5t66 -186.5q-4 -34 -20 -65t-34.5 -50.5t-42.5 -36.5t-39 -24.5t-28 -12.5q5 -3 16 -9
q24 -12 38 -20.5t37.5 -29.5t35.5 -42t19 -56t1 -76q-19 -129 -131.5 -201.5t-286.5 -72.5q-163 0 -251.5 63t-71.5 178q19 145 198 217q-133 76 -114 213q18 121 121.5 203t257.5 82zM1761 795q-62 0 -107 -33t-52 -86q-10 -81 73 -105l94 -28q34 -11 79.5 33.5t52.5 95.5
q6 53 -31.5 88t-108.5 35zM1673 121q74 0 121 32t55 85q5 42 -14 68.5t-72 43.5l-114 35q-36 13 -88.5 -29.5t-61.5 -103.5q-9 -62 34 -96.5t140 -34.5z" />
    <glyph glyph-name="fiveeighths" unicode="&#x215d;" horiz-adv-x="2154" 
d="M279 1497h591l-28 -156h-436l-52 -223q49 18 71.5 25.5t59.5 14.5t74 7q143 0 222 -76.5t61 -218.5q-21 -149 -132.5 -233t-279.5 -84q-123 0 -217 47.5t-137 128.5l151 98q45 -64 87.5 -94.5t113.5 -30.5q87 0 143.5 45t65.5 115q8 68 -32 110t-116 42q-40 0 -76 -12.5
t-91 -40.5q-14 -4 -17 -4t-14 8l-117 67zM1778 1497l-1190 -1505l-193 2l1192 1503h191zM1780 936q146 0 229 -73.5t66 -186.5q-4 -34 -20 -65t-34.5 -50.5t-42.5 -36.5t-39 -24.5t-28 -12.5q5 -3 16 -9q24 -12 38 -20.5t37.5 -29.5t35.5 -42t19 -56t1 -76
q-19 -129 -131.5 -201.5t-286.5 -72.5q-163 0 -251.5 63t-71.5 178q19 144 199 217q-134 76 -115 213q18 121 121.5 203t257.5 82zM1763 795q-62 0 -107 -33t-52 -86q-10 -81 73 -105l95 -28q34 -10 78.5 34t52.5 95q6 53 -31.5 88t-108.5 35zM1675 121q74 0 121 32t55 85
q5 42 -14 68.5t-72 43.5l-114 35q-36 13 -88.5 -29.5t-61.5 -103.5q-9 -62 34 -96.5t140 -34.5z" />
    <glyph glyph-name="seveneighths" unicode="&#x215e;" horiz-adv-x="2082" 
d="M1706 1497l-1190 -1505l-192 2l1192 1503h190zM195 1495h686l-27 -195q-136 -146 -264.5 -365.5t-153.5 -371.5h-205q15 63 47 146t84.5 187t135.5 221.5t182 221.5h-508zM1708 936q146 0 229 -73.5t66 -186.5q-4 -34 -20 -65t-34.5 -50.5t-42.5 -36.5t-39 -24.5
t-28 -12.5q5 -3 16 -9q31 -16 49 -28.5t44.5 -39.5t36 -66.5t2.5 -89.5q-19 -129 -131.5 -201.5t-286.5 -72.5q-163 0 -252 63t-72 178q19 144 199 217q-134 76 -115 213q18 121 121.5 203t257.5 82zM1692 795q-62 0 -107.5 -33t-52.5 -86q-9 -81 74 -105l94 -28
q34 -10 78.5 34t52.5 95q6 53 -31 88t-108 35zM1604 121q74 0 121 32t55 85q5 42 -14 68.5t-72 43.5l-115 35q-36 13 -88 -29.5t-61 -103.5q-9 -62 34 -96.5t140 -34.5z" />
    <glyph glyph-name="partialdiff" unicode="&#x2202;" horiz-adv-x="1216" 
d="M309 1176l-69 206q67 45 178.5 82t236.5 37q135 0 238.5 -48.5t172.5 -145.5t92 -244.5t-3 -345.5q-48 -346 -213 -541.5t-430 -195.5q-155 0 -262 66.5t-151.5 180t-24.5 256.5q28 201 170 329t354 128q97 0 152 -26.5t108 -77.5q38 -20 47 38q6 62 3 120t-25.5 110
t-57.5 90.5t-94 61t-135 22.5q-92 0 -159 -28t-128 -74zM512 195h2q109 0 197 103t125 269q13 39 4 70q-28 43 -82.5 73.5t-118.5 30.5q-108 0 -189 -87.5t-98 -219.5q-17 -111 28 -175t132 -64z" />
    <glyph glyph-name="emptyset" unicode="&#x2205;" horiz-adv-x="1208" 
d="M1186 1104l-142 -117q59 -120 41 -258q-26 -185 -174.5 -315.5t-332.5 -130.5q-158 0 -265 96l-157 -131l-95 114l160 134q-61 119 -43 264q17 122 90 224t183 161t231 59q161 0 272 -100l140 115zM309 729q-9 -78 17 -147l524 434q-66 51 -162 51q-137 0 -248 -99.5
t-131 -238.5zM952 760q11 70 -12 139l-522 -434q67 -45 155 -45q136 0 247.5 100t131.5 240z" />
    <glyph glyph-name="uni2206" unicode="&#x2206;" horiz-adv-x="1343" 
d="M-27 0l35 217l625 1264h334l280 -1297l-24 -184h-1250zM330 244h602l-174 925z" />
    <glyph glyph-name="product" unicode="&#x220f;" horiz-adv-x="1411" 
d="M1493 1481l-35 -248h-180l-170 -1233h-309l172 1233h-346l-168 -1233h-310l170 1233h-180l35 248h1321z" />
    <glyph glyph-name="summation" unicode="&#x2211;" horiz-adv-x="1165" 
d="M1018 0h-1032l30 197l496 548l-324 543l27 193h971l-33 -240h-578l308 -485l-461 -502h631z" />
    <glyph glyph-name="minus" unicode="&#x2212;" horiz-adv-x="1193" 
d="M1116 854l-33 -217l-952 -2l29 219h956z" />
    <glyph glyph-name="radical" unicode="&#x221a;" horiz-adv-x="1392" 
d="M1550 1690l-805 -2020h-301l-186 842l-164 -57l-45 176l395 137l177 -815l669 1737h260z" />
    <glyph glyph-name="infinity" unicode="&#x221e;" horiz-adv-x="1601" 
d="M1497 553l-2 -4q-24 -170 -134.5 -266.5t-254.5 -96.5q-58 0 -104 15.5t-83 49t-60.5 64.5t-57.5 84q-10 6 -18.5 0t-22.5 -28q-4 -3 -47 -40.5t-80.5 -65t-103 -53.5t-130.5 -26q-146 0 -235 106.5t-66 272.5q23 157 134 252.5t266 95.5q48 0 88 -11t67.5 -26t56.5 -44
t46.5 -52t44.5 -63q8 -7 14.5 -8.5t13.5 4t11 10.5t14 18q94 82 143 113q98 59 203 59q149 0 234 -100t63 -260zM422 373h4q59 0 121 45t104 102q23 21 26 32.5t-7 45.5q-79 135 -181 135q-76 0 -133 -55t-69 -139q-10 -74 27.5 -120t107.5 -46zM1178 733h-2
q-58 0 -113 -43.5t-115 -114.5q-37 -25 -22 -71q82 -131 190 -131q74 0 127 60t64 136q9 68 -25.5 116t-103.5 48z" />
    <glyph glyph-name="integral" unicode="&#x222b;" horiz-adv-x="946" 
d="M397 1221q34 246 142 367.5t295 121.5q154 0 227 -80l-80 -200q-75 20 -139 20q-140 0 -172 -225q-25 -185 -50 -560t-45 -515q-66 -500 -436 -500q-148 0 -225 74l82 204q75 -20 137 -20q136 0 170 229q25 182 50.5 564t43.5 520z" />
    <glyph glyph-name="approxequal" unicode="&#x2248;" horiz-adv-x="1253" 
d="M1174 918q-58 -81 -141 -123.5t-169 -42.5q-55 0 -107 20t-86.5 43.5t-80 43.5t-88.5 20q-70 0 -129 -41.5t-121 -112.5l-82 174q101 85 175.5 125.5t160.5 40.5q57 0 110 -19.5t86 -43t76 -43t84 -19.5q133 0 234 152zM1116 489q-60 -81 -142.5 -124t-168.5 -43
q-57 0 -110.5 20t-87.5 43.5t-78.5 43.5t-86.5 20q-71 0 -130 -42t-122 -114l-81 176q104 86 178 126t159 40q57 0 110 -19.5t86 -43t76 -43t83 -19.5q71 0 131 42t102 107z" />
    <glyph glyph-name="notequal" unicode="&#x2260;" horiz-adv-x="1220" 
d="M1143 831h-289l-143 -251h395l-29 -218h-489l-168 -292h-162l168 292h-303l31 218h397l145 251l-508 -2l29 218h602l162 280h158l-160 -280h192z" />
    <glyph glyph-name="lessequal" unicode="&#x2264;" horiz-adv-x="1191" 
d="M1057 662l-35 -244l-879 364l35 250l981 367l-37 -269l-637 -229zM1022 281l-33 -218h-952l29 218h956z" />
    <glyph glyph-name="greaterequal" unicode="&#x2265;" horiz-adv-x="1191" 
d="M160 676l637 225l-572 242l33 248l881 -371l-35 -248l-981 -364zM88 281h954l-30 -218h-953z" />
    <glyph glyph-name="lozenge" unicode="&#x25ca;" horiz-adv-x="1130" 
d="M608 0h-196l-258 754l458 727h197l262 -754zM690 1262l-313 -531l153 -516l314 533z" />
    <glyph glyph-name="i.loclTRK" horiz-adv-x="565" 
d="M580 1481l-39 -293h-305l40 293h304zM506 1057l-148 -1057h-299l148 1057h299z" />
    <glyph glyph-name="g.001" horiz-adv-x="1232" 
d="M1016 168q-69 -516 -567 -516q-142 0 -258 46.5t-189 139.5l127 125q48 -58 126.5 -86.5t158.5 -28.5q123 -2 202.5 61t96.5 181l14 100q-48 -89 -135 -129.5t-184 -40.5q-163 0 -259 109t-96 313q0 173 58 316t172 231t264 88q87 0 166 -42t110 -134l25 156h295z
M758 397l45 359q-11 59 -60 93t-106 34q-56 0 -101.5 -21.5t-76 -59t-53 -83t-35 -98.5t-18 -99.5t-5.5 -91.5q0 -115 47 -169t129 -54q85 0 155 59.5t79 130.5z" />
    <glyph glyph-name="l.ss01" horiz-adv-x="645" 
d="M100 0l211 1520h297l-211 -1520h-297z" />
    <glyph glyph-name="one.osf" horiz-adv-x="837" 
d="M250 0l158 1147l-271 -78l29 209l430 203h160l-205 -1481h-301z" />
    <glyph glyph-name="two.osf" horiz-adv-x="1253" 
d="M6 0l31 221l512 420q212 165 282 244t82 168q12 94 -44 147t-150 53q-101 0 -189.5 -45.5t-167.5 -165.5l-210 107q130 181 281.5 266.5t338.5 85.5q237 0 360.5 -121.5t92.5 -324.5q-17 -118 -87 -211.5t-243 -243.5l-406 -348h641l-34 -252h-1090z" />
    <glyph glyph-name="three.osf" horiz-adv-x="1312" 
d="M229 1272q87 104 243.5 168.5t318.5 64.5q235 0 369.5 -108.5t111.5 -278.5q-33 -226 -314 -323q129 -38 206 -131.5t57 -235.5q-14 -102 -77 -187.5t-155.5 -140.5t-203.5 -85.5t-226 -30.5q-174 0 -316.5 74.5t-213.5 201.5l233 154q79 -105 155.5 -148t190.5 -43
q123 0 201 55t90 144q15 100 -56.5 159.5t-189.5 61.5l-200 4l32 236l168 6q120 5 202.5 62t94.5 145q9 73 -46.5 123.5t-149.5 50.5q-101 0 -183 -39t-180 -129z" />
    <glyph glyph-name="four.osf" horiz-adv-x="1284" 
d="M852 1481h297l-127 -897h217l-31 -232h-217l-49 -352h-299l49 352h-655l33 228zM324 584h403l78 569z" />
    <glyph glyph-name="five.osf" horiz-adv-x="1351" 
d="M362 1481h941l-48 -246h-694l-78 -356q77 28 112.5 40t94.5 23.5t117 11.5q149 0 255.5 -52.5t159.5 -160t33 -258.5q-33 -235 -210.5 -369t-444.5 -134q-195 0 -343.5 76t-217.5 204l242 158q30 -41 49 -65t49.5 -53t59 -44.5t69 -26t88.5 -10.5q139 0 229 71t105 183
q14 108 -49.5 174t-186.5 66q-63 0 -120 -19.5t-144 -62.5q-23 -8 -26.5 -8t-22.5 10l-186 110z" />
    <glyph glyph-name="six.osf" horiz-adv-x="1318" 
d="M840 1499q93 0 173 -29t132 -74.5t84.5 -96.5t42.5 -101l-268 -84q-35 74 -78.5 111t-118.5 37q-151 0 -248.5 -121t-114.5 -326q141 55 208.5 72.5t142.5 17.5q226 0 344 -122.5t90 -315.5q-19 -139 -107.5 -250.5t-224.5 -173t-293 -61.5q-282 0 -414 195.5t-86 531.5
q51 369 248.5 579.5t487.5 210.5zM694 680q-60 0 -133 -20.5t-117 -47.5q-18 -12 -25 -25t-11 -44q-13 -88 6.5 -163.5t74.5 -124t138 -48.5q101 0 180 71t94 175q15 102 -44.5 164.5t-162.5 62.5z" />
    <glyph glyph-name="seven.osf" horiz-adv-x="1196" 
d="M193 1481h1091l-43 -307q-216 -234 -420.5 -584t-245.5 -590h-321q17 78 51 176t95.5 229t138.5 263.5t189 283t239 283.5h-809z" />
    <glyph glyph-name="eight.osf" horiz-adv-x="1302" 
d="M780 1501q231 0 363 -116.5t106 -294.5q-7 -55 -32.5 -104.5t-55.5 -81.5t-67 -58t-62 -38.5t-45 -19.5q7 -4 21 -11q39 -20 62 -33.5t61 -46t58 -66.5t31.5 -90.5t2.5 -122.5q-29 -205 -209 -321.5t-455 -116.5q-171 0 -292.5 44.5t-181 132t-42.5 208.5q34 234 317 344
q-2 1 -13.5 8t-22.5 14t-28.5 20.5t-31.5 28t-31.5 36t-27.5 44t-20.5 52.5t-11 62.5t2.5 72.5q27 193 193 323.5t411 130.5zM754 1276q-98 0 -171 -53t-83 -136q-15 -126 116 -163l150 -47q54 -17 126 54t81 150q12 83 -46 139t-173 56zM612 205q119 0 194 50.5t87 137.5
q8 65 -22 107t-115 69l-181 56q-58 20 -141 -47t-96 -164q-14 -100 53 -154.5t221 -54.5z" />
    <glyph glyph-name="nine.osf" horiz-adv-x="1318" 
d="M535 -18q-94 0 -174.5 28.5t-133.5 74t-86 96.5t-43 102l267 86q35 -75 79.5 -112.5t122.5 -37.5q155 0 254 134t109 360q-63 -67 -155 -101t-195 -34q-224 0 -342 121.5t-93 314.5q31 211 208.5 348t416.5 137q281 0 414.5 -196t87.5 -531q-52 -369 -250 -579.5
t-487 -210.5zM678 801q96 0 183.5 56t96.5 122q7 147 -47.5 221t-160.5 74q-103 0 -183.5 -70.5t-93.5 -175.5q-15 -102 44 -164.5t161 -62.5z" />
    <glyph glyph-name="zero.tf" horiz-adv-x="1415" 
d="M858 1503q129 0 231 -54.5t165 -154.5t88 -241.5t-1 -315.5q-47 -345 -237.5 -550t-456.5 -205q-267 0 -401.5 204t-87.5 549q49 347 242.5 557.5t457.5 210.5zM680 223q135 0 215.5 120t116.5 392q29 187 14 305t-65 172t-138 54q-132 0 -215.5 -127.5t-122.5 -403.5
q-36 -269 13.5 -390.5t181.5 -121.5z" />
    <glyph glyph-name="one.tf" horiz-adv-x="1591" 
d="M1001 281h353v-281h-1063v281h395v878l-387 -117v261l555 178h147v-1200z" />
    <glyph glyph-name="two.tf" horiz-adv-x="1417" 
d="M117 0l30 221l512 420q212 166 282.5 244.5t82.5 167.5q12 95 -44 147.5t-151 52.5q-47 0 -89 -9t-88 -31t-92 -65t-87 -106l-211 107q130 181 282 266.5t339 85.5q238 0 360.5 -121.5t93.5 -324.5q-18 -118 -88.5 -212t-242.5 -243l-406 -348h641l-35 -252h-1089z" />
    <glyph glyph-name="three.tf" horiz-adv-x="1368" 
d="M295 1270q88 103 243.5 167t315.5 64q235 0 370 -108.5t113 -278.5q-33 -226 -315 -321q130 -39 207 -132.5t57 -234.5q-14 -103 -77 -188.5t-155.5 -141t-203.5 -86t-225 -30.5q-176 0 -319 75t-212 203l234 152q80 -105 155.5 -148t188.5 -43q124 0 202.5 55t90.5 146
q15 99 -56 158.5t-190 62.5l-203 4l33 234l170 8q120 3 202 61t93 146q11 73 -45 122.5t-152 49.5q-99 0 -181.5 -39.5t-178.5 -128.5z" />
    <glyph glyph-name="four.tf" horiz-adv-x="1415" 
d="M944 1481h297l-125 -897h217l-33 -232h-217l-49 -352h-299l51 352h-657l33 228zM416 584h403l78 569z" />
    <glyph glyph-name="five.tf" horiz-adv-x="1413" 
d="M422 1481h942l-49 -246h-692l-80 -356q78 29 112.5 40.5t93.5 23t117 11.5q149 0 256 -52.5t160 -160.5t33 -258q-33 -235 -210 -369t-443 -134q-195 0 -345 76t-219 204l242 158q38 -52 62.5 -80.5t63 -60t85 -45t106.5 -13.5q138 0 227.5 71t104.5 183
q14 108 -48.5 174t-184.5 66q-44 0 -91.5 -12t-81 -26.5t-94.5 -43.5q-23 -8 -26.5 -8t-22.5 10l-186 110z" />
    <glyph glyph-name="six.tf" horiz-adv-x="1419" 
d="M909 1499q93 0 173 -29t132.5 -74.5t85 -96.5t41.5 -101l-268 -84q-35 74 -78 111t-116 37q-153 0 -250.5 -121t-112.5 -326q139 55 207 72.5t143 17.5q224 0 342.5 -122.5t91.5 -315.5q-19 -139 -107.5 -250.5t-224.5 -173t-294 -61.5q-282 0 -414 195.5t-86 531.5
q51 369 248 579.5t487 210.5zM764 680q-59 0 -132.5 -20.5t-117.5 -47.5q-18 -13 -25 -25.5t-10 -43.5q-21 -136 37 -236t180 -100q102 0 182 71t93 175q15 102 -44.5 164.5t-162.5 62.5z" />
    <glyph glyph-name="seven.tf" horiz-adv-x="1456" 
d="M250 1481h1143v-307q-184 -232 -340.5 -582t-165.5 -592h-344q8 99 41 227.5t94 288.5t166.5 343t240.5 349h-835v273z" />
    <glyph glyph-name="eight.tf" horiz-adv-x="1415" 
d="M860 1501q232 0 364 -116.5t107 -294.5q-7 -55 -32.5 -104.5t-56 -81t-68 -58t-61.5 -39t-44 -19.5q7 -4 22 -12q39 -20 61.5 -33.5t60 -46t57 -66.5t31 -90t2.5 -122q-27 -204 -207.5 -321t-454.5 -117q-259 0 -400.5 101.5t-117.5 283.5q34 234 317 344q-2 1 -13.5 8
t-22.5 14t-28.5 20.5t-31.5 28t-31.5 36t-27.5 44t-20.5 52.5t-11 62.5t2.5 72.5q29 193 194.5 323.5t409.5 130.5zM834 1276q-98 0 -170 -52.5t-84 -136.5q-15 -126 116 -163l152 -47q54 -17 125 53.5t82 150.5q11 83 -48 139t-173 56zM692 205q119 0 195 50.5t88 137.5
q8 65 -22.5 107t-114.5 69l-183 56q-58 20 -140.5 -47t-96.5 -164q-14 -100 53.5 -154.5t220.5 -54.5z" />
    <glyph glyph-name="nine.tf" horiz-adv-x="1419" 
d="M602 -18q-94 0 -174.5 28.5t-133 74t-85.5 96.5t-43 102l266 86q35 -75 79.5 -112.5t123.5 -37.5q155 0 253 134t109 360q-63 -67 -155 -101t-195 -34q-224 0 -341.5 121.5t-92.5 314.5q31 211 208.5 348t416.5 137q281 0 414 -196t87 -531q-51 -368 -249.5 -579
t-487.5 -211zM745 801q96 0 184 56t97 122q7 146 -47.5 220.5t-161.5 74.5q-102 0 -182.5 -70.5t-93.5 -175.5q-15 -102 43.5 -164.5t160.5 -62.5z" />
    <glyph glyph-name="zero.subs" horiz-adv-x="854" 
d="M412 596q164 0 248.5 -131.5t54.5 -349.5q-29 -216 -149 -344.5t-287 -128.5q-169 0 -254 128t-54 345q31 218 152.5 349.5t288.5 131.5zM299 -209q85 0 135.5 76t73.5 248q26 175 -4.5 254.5t-114.5 79.5q-81 0 -134 -80.5t-79 -253.5q-23 -170 8 -247t115 -77z" />
    <glyph glyph-name="one.subs" horiz-adv-x="628" 
d="M45 -338l98 721l-170 -47l19 129l270 129h100l-129 -932h-188z" />
    <glyph glyph-name="two.subs" horiz-adv-x="790" 
d="M-84 -338l18 139l324 265q133 104 177 153.5t50 104.5q9 61 -25.5 94t-94.5 33q-135 0 -224 -134l-133 68q158 221 389 221q150 0 228 -76t59 -204q-11 -73 -55.5 -132t-153.5 -155l-254 -219h402l-21 -158h-686z" />
    <glyph glyph-name="three.subs" horiz-adv-x="788" 
d="M76 455q54 64 152 104.5t198 40.5q149 0 234 -68t71 -176q-20 -141 -199 -202q81 -24 130 -83t36 -147q-18 -127 -141 -203.5t-274 -76.5q-110 0 -200.5 47t-133.5 127l145 96q53 -67 100.5 -94t118.5 -27q77 0 126 35t57 92q10 62 -35 99.5t-119 39.5l-127 2l21 148
l106 4q75 3 127 39.5t59 91.5q6 45 -30 77t-95 32q-63 0 -114 -25t-113 -82z" />
    <glyph glyph-name="four.subs" horiz-adv-x="854" 
d="M455 594h186l-78 -563h137l-20 -148h-137l-31 -221h-188l32 221h-413l20 144zM123 31h254l49 356z" />
    <glyph glyph-name="five.subs" horiz-adv-x="823" 
d="M152 588h591l-30 -156h-437l-49 -223q49 18 71.5 25.5t59.5 14.5t74 7q143 0 222 -76.5t59 -218.5q-20 -149 -132 -233t-280 -84q-123 0 -216 47.5t-136 128.5l151 98q45 -64 87 -94.5t112 -30.5q87 0 143.5 45t65.5 115q9 68 -31 109.5t-117 41.5q-61 0 -165 -53
q-13 -5 -17.5 -4t-13.5 8l-119 68z" />
    <glyph glyph-name="six.subs" horiz-adv-x="831" 
d="M426 594q113 0 185.5 -59t86.5 -129l-170 -54q-21 46 -48 69t-74 23q-97 0 -158 -75.5t-70 -204.5q88 35 130 46t89 11q143 0 217.5 -77t57.5 -199q-19 -131 -131 -217t-262 -86q-179 0 -262 122t-54 334q32 231 156.5 363.5t306.5 132.5zM334 80q-38 0 -83.5 -13
t-72.5 -30q-12 -8 -16.5 -15.5t-5.5 -27.5q-13 -86 23 -148.5t112 -62.5q65 0 115 44t59 110q9 65 -28 104t-103 39z" />
    <glyph glyph-name="seven.subs" horiz-adv-x="751" 
d="M68 594h686l-27 -195q-136 -147 -264.5 -366.5t-153.5 -370.5h-203q14 63 46 146t84.5 187t135.5 221.5t183 221.5h-510z" />
    <glyph glyph-name="eight.subs" horiz-adv-x="825" 
d="M403 600q146 0 229 -73.5t66 -186.5q-4 -34 -19.5 -64.5t-34.5 -50.5t-42.5 -36.5t-38.5 -24t-28 -12.5q59 -34 73 -44q89 -69 74 -190q-19 -129 -132 -201.5t-286 -72.5q-163 0 -251.5 63t-73.5 178q21 145 200 217q-133 76 -116 213q18 121 122 203t258 82zM387 459
q-63 0 -109 -33t-53 -86q-9 -80 74 -104l96 -29q34 -11 78.5 33.5t50.5 95.5q8 53 -29 88t-108 35zM297 -215q74 0 122 32t56 85q5 42 -14 69t-74 43l-113 35q-36 13 -88 -29.5t-61 -103.5q-9 -62 33.5 -96.5t138.5 -34.5z" />
    <glyph glyph-name="nine.subs" horiz-adv-x="835" 
d="M246 -358q-115 0 -189 59t-86 129l166 53q23 -47 51 -70.5t78 -23.5q97 0 159.5 84.5t68.5 226.5q-77 -86 -222 -86q-141 0 -214 77t-58 200q20 132 131 217.5t262 85.5q178 0 261.5 -122.5t54.5 -334.5q-32 -231 -157 -363t-306 -132zM336 156q61 0 115.5 34.5
t60.5 77.5q4 92 -30 138.5t-101 46.5q-65 0 -115 -44t-59 -110q-9 -65 28 -104t101 -39z" />
    <glyph glyph-name="zero.dnom" horiz-adv-x="854" 
d="M459 934q164 0 248.5 -131.5t54.5 -349.5q-29 -216 -149 -344.5t-287 -128.5q-169 0 -254 128t-54 345q31 218 152.5 349.5t288.5 131.5zM346 129q85 0 135.5 76t73.5 248q26 174 -4.5 253.5t-114.5 79.5q-81 0 -134 -80t-79 -253q-23 -170 8 -247t115 -77z" />
    <glyph glyph-name="one.dnom" horiz-adv-x="628" 
d="M92 0l98 721l-170 -47l19 129l270 129h101l-129 -932h-189z" />
    </font>
</defs>
</svg>
