<?xml version="1.0" standalone="no"?>
<!DOCTYPE svg PUBLIC "-//W3C//DTD SVG 1.1//EN" "http://www.w3.org/Graphics/SVG/1.1/DTD/svg11.dtd" >
<svg xmlns="http://www.w3.org/2000/svg" xmlns:xlink="http://www.w3.org/1999/xlink" version="1.1">
<metadata>
Created by FontForge 20201107 at Thu Jun 12 13:50:18 2025
 By 
copyright missing
</metadata>
<defs>
<font id="PublicSans-ExtraBold" horiz-adv-x="1173" >
  <font-face 
    font-family="Public Sans ExtraBold"
    font-weight="800"
    font-stretch="normal"
    units-per-em="2048"
    panose-1="0 0 9 0 0 0 0 0 0 0"
    ascent="1597"
    descent="-451"
    x-height="1059"
    cap-height="1481"
    bbox="-928 -487 2820 2028"
    underline-thickness="102"
    underline-position="-204"
    unicode-range="U+000D-FB02"
  />
<missing-glyph horiz-adv-x="1323" 
d="M1133 1692q36 0 36 -43v-1921q0 -31 -16 -44.5t-51 -13.5h-893q-31 0 -43 11.5t-12 37.5v1926q0 47 39 47h940zM1065 1556q0 15 -9 25t-22 10h-702l733 -1708v1673zM258 -188q0 -21 10 -31t35 -10h688l-733 1695v-1654z" />
    <glyph glyph-name="fi" unicode="fi" horiz-adv-x="1384" 
d="M1276 1522v-314h-352v314h352zM776 1059v-240h-209v-819h-348v819h-184v240h184v147q0 129 80.5 202t222.5 73h262l2 -230h-131q-54 0 -74 -24t-20 -86v-82h215zM1274 1059v-1059h-350v1059h350z" />
    <glyph glyph-name="fl" unicode="fl" horiz-adv-x="1484" 
d="M1292 -20q-73 0 -131 10.5t-96.5 27t-66 43.5t-42 52.5t-22.5 62.5t-10 65t-2 68v1213h342v-1170q0 -54 25 -86.5t93 -40.5l48 -4v-213q-75 -28 -138 -28zM776 1059v-240h-209v-819h-348v819h-184v240h184v147q0 129 80.5 202t222.5 73h262l2 -230h-131q-54 0 -74 -24
t-20 -86v-82h215z" />
    <glyph glyph-name="f_f.liga" unicode="ff" horiz-adv-x="1818" 
d="M1679 1059v-240h-209v-819h-350v819h-184v240h184v147q0 129 81 202t222 73h265l2 -230h-131q-54 0 -75.5 -24.5t-21.5 -85.5v-82h217zM813 1059v-240h-211v-819h-348v819h-186v240h186v110q0 128 80 201.5t221 73.5h264l2 -230h-131q-54 0 -75 -24t-21 -86v-45h219z" />
    <glyph glyph-name="colon_one_eight_F_colon.liga" unicode="&#x3a;&#x31;&#x38;F&#x3a;" horiz-adv-x="1605" 
d="M47 1559h1512q22 0 22 -25v-1507q0 -12 -6.5 -19.5t-15.5 -7.5h-1512q-22 0 -22 27v1507q0 25 22 25zM776 479q72 0 124 52t52 124q0 91 -75 144q53 50 53 119q0 63 -45.5 108t-108.5 45q-67 0 -111 -44.5t-44 -108.5t55 -119q-76 -51 -76 -144q0 -72 51.5 -124
t124.5 -52zM514 498v557q0 10 -8 10h-139q-7 0 -7 -10v-54q0 -8 7 -8h75v-495q0 -9 7 -9h57q8 0 8 9zM1270 1001v54q0 10 -8 10h-215q-9 0 -9 -10v-557q0 -9 9 -9h53q12 0 12 9v254h125q6 0 6 8v51q0 10 -6 10h-125v172h150q8 0 8 8zM776 836q-36 0 -61 23t-25 59
q0 35 25 59t61 24q35 0 59.5 -24t24.5 -59q0 -36 -24 -59t-60 -23zM776 760q44 0 74.5 -30.5t30.5 -74.5q0 -43 -30.5 -73.5t-74.5 -30.5q-43 0 -73.5 30.5t-30.5 73.5q0 44 30.5 74.5t73.5 30.5z" />
    <glyph glyph-name="colon_f_l_a_g_two_colon.liga" unicode="&#x3a;flag&#x32;&#x3a;" horiz-adv-x="2392" 
d="M104 1559h2184v-1557h-2184v1557zM2161 1321v109h-1096v-109h1096zM297 1198h129v121h-129v-121zM780 1198h125v121h-125v-121zM541 1079h125v119h-125v-119zM1065 1081h1096v113h-1096v-113zM301 958h125v121h-125v-121zM905 1079h-125v-121h125v121zM666 958h-125v-118
h125v118zM1065 842h1096v112h-1096v-112zM426 840h-125v-121h125v121zM905 840h-125v-121h125v121zM1065 602h1096v113h-1096v-113zM2161 475h-1932v-113h1932v113zM231 129h1930v107h-1930v-107z" />
    <glyph glyph-name="colon_f_l_a_g_colon.liga" unicode="&#x3a;flag&#x3a;" horiz-adv-x="2392" 
d="M104 1559h2184v-1557h-2184v1557zM2169 1438h-1946v-838h1946v119h-1106v121h1106v118h-1106v121h1106v119h-1106v121h1106v119zM463 1319v-121h-119v121h119zM942 1319v-121h-119v121h119zM702 1198v-119h-118v119h118zM463 1079v-121h-119v121h119zM942 1079v-121h-119
v121h119zM702 958v-118h-118v118h118zM463 840v-121h-119v121h119zM942 840v-121h-119v121h119zM2169 479h-1946v-119h1946v119zM223 121h1946v119h-1946v-119z" />
    <glyph glyph-name=".notdef" horiz-adv-x="1323" 
d="M1133 1692q36 0 36 -43v-1921q0 -31 -16 -44.5t-51 -13.5h-893q-31 0 -43 11.5t-12 37.5v1926q0 47 39 47h940zM1065 1556q0 15 -9 25t-22 10h-702l733 -1708v1673zM258 -188q0 -21 10 -31t35 -10h688l-733 1695v-1654z" />
    <glyph glyph-name="uni0000" horiz-adv-x="55" 
 />
    <glyph glyph-name="nonmarkingreturn" horiz-adv-x="682" 
 />
    <glyph glyph-name="CR" unicode="&#xd;" horiz-adv-x="493" 
 />
    <glyph glyph-name="space" unicode=" " horiz-adv-x="446" 
 />
    <glyph glyph-name="exclam" unicode="!" horiz-adv-x="604" 
d="M494 1481l-93 -987h-215l-98 987h406zM477 356v-356h-375v356h375z" />
    <glyph glyph-name="quotedbl" unicode="&#x22;" horiz-adv-x="1040" 
d="M492 1481l-89 -617h-167l-84 617h340zM977 1481l-86 -617h-168l-86 617h340z" />
    <glyph glyph-name="numbersign" unicode="#" horiz-adv-x="1269" 
d="M1206 870h-248l-36 -245h219v-174h-244l-68 -457l-176 22l64 435h-260l-68 -457l-174 22l64 435h-232v174h256l37 245h-227v174h254l63 441l174 -19l-61 -422h262l65 441l174 -19l-61 -422h223v-174zM743 625l37 245h-262l-37 -245h262z" />
    <glyph glyph-name="dollar" unicode="$" horiz-adv-x="1415" 
d="M1323 412q0 -169 -117.5 -281t-322.5 -141v-176h-297v174q-221 27 -348.5 137.5t-145.5 308.5l363 2q20 -89 94 -137.5t188 -48.5q99 0 158 46t59 114q0 71 -45.5 104t-152.5 55l-238 45q-177 32 -278.5 139t-104.5 283q-1 179 124.5 298.5t328.5 152.5v201h297v-203
q195 -35 307 -156.5t106 -284.5l-352 -4q-12 93 -56 140t-149 47q-113 0 -172 -43t-59 -107q0 -58 38.5 -90.5t145.5 -58.5l236 -54q393 -87 393 -462z" />
    <glyph glyph-name="percent" unicode="%" horiz-adv-x="1957" 
d="M477 1503q104 0 192 -58t138.5 -155.5t50.5 -210.5q0 -171 -110 -292t-271 -121q-164 0 -275.5 121t-111.5 292q0 173 113 298.5t274 125.5zM1612 1497l-996 -1505l-196 4l999 1501h193zM475 840q68 0 98.5 60t30.5 179q0 252 -129 252q-131 0 -131 -252q0 -119 31 -179
t100 -60zM1468 819q105 0 193.5 -58.5t139 -156t50.5 -209.5q0 -171 -110.5 -293t-272.5 -122q-164 0 -275.5 122t-111.5 293q0 172 113 298t274 126zM1466 156q68 0 98.5 59.5t30.5 177.5q0 252 -129 252t-129 -252q0 -237 129 -237z" />
    <glyph glyph-name="ampersand" unicode="&#x26;" horiz-adv-x="1679" 
d="M770 1503q204 0 339.5 -91t135.5 -234q0 -193 -317 -392l188 -223q70 185 88 297h359q-27 -75 -76.5 -160.5t-113.5 -184.5t-93 -150l311 -365h-399l-119 135q-212 -145 -481 -145q-247 0 -369.5 103.5t-122.5 277.5q0 148 90.5 250.5t292.5 209.5q-6 7 -28.5 32.5
t-28.5 32t-24.5 28.5t-24 30.5t-19.5 28t-18.5 31t-13 30t-11.5 33.5t-5.5 34t-2.5 38q0 153 129.5 253.5t333.5 100.5zM786 1298q-61 -3 -98 -37.5t-37 -86.5q0 -73 90 -170l43 -48q88 56 123 104t35 101q0 67 -44.5 103t-111.5 34zM651 635q-80 -45 -126 -106.5
t-33 -135.5q11 -66 67.5 -103.5t120.5 -37.5q52 0 117.5 22.5t109.5 63.5z" />
    <glyph glyph-name="quotesingle" unicode="'" horiz-adv-x="542" 
d="M442 1481l-88 -617h-166l-86 617h340z" />
    <glyph glyph-name="parenleft" unicode="(" horiz-adv-x="712" 
d="M649 1481q-233 -437 -233 -914q0 -225 57 -440t172 -457h-246q-145 243 -216.5 448.5t-71.5 450.5q0 249 76.5 481t213.5 431h248z" />
    <glyph glyph-name="parenright" unicode=")" horiz-adv-x="716" 
d="M12 1481h248q137 -200 214 -432t77 -480q0 -128 -20 -246t-61 -229.5t-89 -208t-119 -215.5h-246q115 243 172.5 457.5t57.5 439.5q0 475 -234 914z" />
    <glyph glyph-name="asterisk" unicode="*" horiz-adv-x="1044" 
d="M690 616l-174 289l-174 -295l-182 129l221 258l-315 86l71 199l297 -131l-24 330h221l-33 -332l303 133l64 -199l-306 -86l215 -254z" />
    <glyph glyph-name="plus" unicode="+" horiz-adv-x="1234" 
d="M1114 870v-249h-377v-377h-250v377h-378v249h378v379h250v-379h377z" />
    <glyph glyph-name="comma" unicode="," horiz-adv-x="600" 
d="M100 -299l121 289l-112 12v317h331v-280l-219 -338h-121z" />
    <glyph glyph-name="hyphen" unicode="-" horiz-adv-x="825" 
d="M692 651v-250h-575v250h575z" />
    <glyph glyph-name="period" unicode="." horiz-adv-x="595" 
d="M473 362v-362h-375v362h375z" />
    <glyph glyph-name="slash" unicode="/" horiz-adv-x="808" 
d="M18 -18l521 1499h237l-520 -1499h-238z" />
    <glyph glyph-name="zero" unicode="0" horiz-adv-x="1388" 
d="M696 1503q280 0 448.5 -203t168.5 -563q0 -358 -167 -555.5t-450 -197.5q-286 0 -454 197.5t-168 555.5q0 359 170 562.5t452 203.5zM694 258q124 0 180 110t56 367q0 263 -57 379.5t-179 116.5t-178.5 -117t-56.5 -379q0 -255 56 -366t179 -111z" />
    <glyph glyph-name="one" unicode="1" horiz-adv-x="860" 
d="M309 0v1098l-256 -66v234l430 215h176v-1481h-350z" />
    <glyph glyph-name="two" unicode="2" horiz-adv-x="1304" 
d="M76 0v252l461 395q137 118 199.5 180.5t87 109t24.5 101.5q0 82 -56.5 130.5t-144.5 48.5q-93 0 -164 -53t-100 -167l-326 11q13 223 166 358t432 135q257 0 408 -125.5t151 -333.5q0 -114 -56 -202.5t-204 -227.5l-344 -323h619v-289h-1153z" />
    <glyph glyph-name="three" unicode="3" horiz-adv-x="1406" 
d="M68 1051q4 101 42 179.5t98.5 128.5t143.5 83t171 46t188 13q162 0 295 -48.5t210.5 -138.5t77.5 -204q0 -222 -268 -317q59 -15 113 -44.5t100.5 -73t74 -106t27.5 -135.5q0 -107 -56.5 -195.5t-148.5 -143.5t-202.5 -85t-224.5 -30q-116 0 -208 12.5t-174 44.5
t-137.5 83.5t-90.5 132t-42 187.5l328 9q15 -54 47.5 -93.5t74.5 -60.5t84.5 -30t88.5 -9q121 0 196.5 51t75.5 125q0 79 -68 133.5t-173 55.5l-201 2v272l174 8q107 4 172.5 54.5t65.5 123.5q0 66 -68.5 110t-155.5 44q-44 0 -79.5 -3.5t-75 -15.5t-68 -32.5t-51 -57
t-31.5 -86.5z" />
    <glyph glyph-name="four" unicode="4" horiz-adv-x="1312" 
d="M709 1481h348v-879h217v-297h-217v-305h-350v305h-658v287zM412 602h297v399z" />
    <glyph glyph-name="five" unicode="5" horiz-adv-x="1388" 
d="M229 1481h983l-14 -283h-698l-27 -301q8 2 33.5 10.5t33 10.5t29.5 9t30 9t27.5 7t29.5 6.5t27.5 4.5t31 4t30 2t33.5 1q238 0 384.5 -126.5t146.5 -351.5q0 -236 -162 -369.5t-440 -133.5q-212 0 -382.5 82t-258.5 217l260 178q43 -52 71.5 -81t70.5 -61t90.5 -46.5
t107.5 -14.5q124 0 194 61.5t70 155.5q0 93 -65 152t-181 59q-56 0 -105.5 -16t-125.5 -52q-23 -8 -28.5 -8t-27.5 10l-235 129z" />
    <glyph glyph-name="six" unicode="6" horiz-adv-x="1361" 
d="M717 1503q147 0 268 -50t196.5 -148.5t80.5 -227.5l-312 -10q-31 85 -84.5 125.5t-140.5 40.5q-140 0 -213 -121t-51 -303q55 54 139 81.5t180 27.5q228 0 367 -123.5t139 -317.5q0 -140 -75.5 -251.5t-209 -173.5t-299.5 -62q-295 0 -462.5 195.5t-167.5 527.5
q0 370 173.5 580t471.5 210zM692 664q-82 0 -154.5 -48t-72.5 -98q6 -134 65.5 -203t157.5 -69q95 0 163.5 61t68.5 154q0 97 -66.5 150t-161.5 53z" />
    <glyph glyph-name="seven" unicode="7" horiz-adv-x="1226" 
d="M53 1481h1137v-357q-114 -136 -223.5 -326t-187.5 -410.5t-79 -387.5h-376q4 94 34 221.5t89.5 288t168 343.5t248.5 345h-811v283z" />
    <glyph glyph-name="eight" unicode="8" horiz-adv-x="1335" 
d="M662 1501q242 0 398.5 -118t156.5 -296q0 -52 -19 -98.5t-45 -76t-60.5 -55t-58 -37t-45.5 -19.5q100 -49 138 -76q155 -108 155 -297q0 -211 -172 -329.5t-461 -118.5q-268 0 -430 100.5t-162 281.5q0 227 271 336q-1 1 -23 14t-45.5 28.5t-54 45.5t-53.5 63.5
t-39.5 83.5t-16.5 105q0 94 39 178t110 147.5t179 100.5t238 37zM668 1245q-86 0 -143.5 -44.5t-57.5 -115.5q0 -101 119 -139l143 -45q37 -11 76.5 14.5t64.5 71t25 90.5q0 71 -60.5 119.5t-166.5 48.5zM674 238q106 0 165.5 42t59.5 115q0 54 -32 92t-115 64l-166 53
q-61 21 -128 -35.5t-67 -142.5q0 -188 283 -188z" />
    <glyph glyph-name="nine" unicode="9" horiz-adv-x="1361" 
d="M641 -16q-146 0 -269.5 52.5t-200 150.5t-83.5 223l326 8q21 -76 74 -120t137 -44q74 0 132.5 24t102.5 74t63.5 136.5t10.5 203.5q-99 -141 -332 -141t-381.5 128t-148.5 331q0 214 165 350.5t420 136.5q294 0 461.5 -195t167.5 -528q0 -398 -170 -594t-475 -196z
M666 823q82 0 155.5 48.5t73.5 95.5q-6 137 -65.5 206.5t-159.5 69.5q-92 0 -154.5 -61.5t-62.5 -155.5q0 -91 62 -147t151 -56z" />
    <glyph glyph-name="colon" unicode=":" horiz-adv-x="595" 
d="M473 1040v-356h-375v356h375zM473 362v-356h-375v356h375z" />
    <glyph glyph-name="semicolon" unicode=";" horiz-adv-x="604" 
d="M98 672v364h375v-364h-375zM88 -328l143 328h-131v358h375v-317l-246 -369h-141z" />
    <glyph glyph-name="less" unicode="&#x3c;" horiz-adv-x="1230" 
d="M1077 475v-295l-979 379v283l981 379v-291l-606 -232z" />
    <glyph glyph-name="equal" unicode="=" horiz-adv-x="1234" 
d="M1114 1065v-252h-1005v252h1005zM1114 590v-250l-1005 -2v252h1005z" />
    <glyph glyph-name="greater" unicode="&#x3e;" horiz-adv-x="1230" 
d="M135 475l606 223l-606 232v291l981 -379v-283l-981 -379v295z" />
    <glyph glyph-name="question" unicode="?" horiz-adv-x="1124" 
d="M14 1147q66 172 203.5 263t333.5 91q221 0 361.5 -101t140.5 -245q0 -66 -21.5 -123t-56 -98.5t-76 -79.5t-82.5 -74.5t-75.5 -75.5t-56 -91.5t-21.5 -112.5h-277q0 104 33.5 190.5t81 143.5t95 105.5t81 98t33.5 99.5q0 59 -46.5 95t-115.5 36q-76 0 -142.5 -50.5
t-99.5 -138.5zM713 356v-356h-375v356h375z" />
    <glyph glyph-name="at" unicode="@" horiz-adv-x="1722" 
d="M1380 -70q-80 -67 -212 -111t-291 -44q-181 0 -330.5 58.5t-248 160.5t-152.5 237.5t-54 290.5q0 161 58 306t163 254t262 173t343 64q113 0 217 -23t197.5 -73.5t162.5 -124t109.5 -182t40.5 -240.5q0 -228 -110.5 -371t-287.5 -143q-140 0 -196 90q-9 12 -13.5 11.5
t-13.5 -11.5q-46 -55 -114 -87t-148 -32q-136 0 -223 97.5t-86 256.5q0 122 48.5 226.5t143 169.5t215.5 65q77 0 124 -24t89 -70q4 -5 10 -3t7 11l8 35h192l-71 -434q-21 -113 53 -113q69 0 121.5 82t52.5 232q0 104 -29 186.5t-78 135t-118 87.5t-143.5 49.5t-159.5 14.5
q-128 0 -232.5 -32t-176 -88t-120 -133.5t-70.5 -167t-22 -190.5q0 -278 163.5 -429.5t448.5 -151.5q127 0 204 28.5t167 89.5zM688 512q0 -75 34.5 -125.5t100.5 -50.5q79 0 135.5 67.5t61.5 155.5q3 80 -36 134.5t-105 54.5q-77 0 -134 -69.5t-57 -166.5z" />
    <glyph glyph-name="A" unicode="A" horiz-adv-x="1488" 
d="M37 0l528 1481h361l528 -1481h-346l-111 315h-499l-111 -315h-350zM573 616h345l-170 531z" />
    <glyph glyph-name="B" unicode="B" horiz-adv-x="1429" 
d="M154 0v1481h565q584 0 584 -389q0 -111 -56.5 -190t-191.5 -142q73 -21 126 -53.5t82.5 -67.5t46.5 -79t22 -80t5 -79q0 -208 -139 -304.5t-450 -96.5h-594zM504 885h266q85 0 141 43t56 119q0 80 -59 125t-154 45h-250v-332zM504 266h254q107 0 166 49t59 127t-59 124
t-154 46h-266v-346z" />
    <glyph glyph-name="C" unicode="C" horiz-adv-x="1505" 
d="M788 1501q256 0 429 -145.5t196 -374.5l-364 -2q-19 112 -88 176t-183 64q-295 0 -295 -467q0 -251 78 -370.5t219 -119.5q106 0 177 74t92 190l364 -4q-12 -93 -37 -169.5t-73 -147.5t-115 -119t-168 -77t-229 -29q-207 0 -364.5 99t-242 275t-84.5 402q0 343 185.5 544
t502.5 201z" />
    <glyph glyph-name="D" unicode="D" horiz-adv-x="1499" 
d="M154 1481q424 0 489 -2q390 -12 578 -204.5t188 -529.5q0 -169 -47.5 -304.5t-141 -234.5t-241.5 -152.5t-342 -53.5h-483v1481zM506 1204v-925h139q63 0 119.5 15.5t108.5 51t89.5 89t59.5 134t22 181.5q0 227 -105 340.5t-292 113.5h-141z" />
    <glyph glyph-name="E" unicode="E" horiz-adv-x="1333" 
d="M154 0v1481h1056l-2 -291h-702v-303h600v-285h-602v-309h713v-293h-1063z" />
    <glyph glyph-name="F" unicode="F" horiz-adv-x="1267" 
d="M154 1481h1048l-2 -287h-694v-320h590v-282h-590v-592h-352v1481z" />
    <glyph glyph-name="G" unicode="G" horiz-adv-x="1587" 
d="M784 -20q-205 0 -360.5 94.5t-239.5 265.5t-84 395q0 346 195.5 556t509.5 210q136 0 254 -44t197.5 -116.5t125.5 -166t48 -193.5l-365 -2q-21 103 -90.5 167t-177.5 64q-141 0 -228.5 -112t-87.5 -350q0 -109 19.5 -192t50.5 -133.5t75 -82t88.5 -43.5t96.5 -12
q100 0 169.5 57.5t82.5 128.5l16 74h-282v237l649 -4v-778h-234v178q-28 -32 -51 -55t-62.5 -52t-81.5 -47t-102.5 -31t-130.5 -13z" />
    <glyph glyph-name="H" unicode="H" horiz-adv-x="1511" 
d="M1010 614h-506v-614h-350v1481h350v-578h506v578h350v-1481h-350v614z" />
    <glyph glyph-name="I" unicode="I" horiz-adv-x="657" 
d="M154 1481h350v-1481h-350v1481z" />
    <glyph glyph-name="J" unicode="J" horiz-adv-x="851" 
d="M723 440q0 -121 -17.5 -201.5t-62.5 -141.5t-126 -89t-204 -28q-143 0 -262 26l4 316q5 -1 37.5 -7t56.5 -9t48 -3q101 0 138.5 52t37.5 175v951h350v-1041z" />
    <glyph glyph-name="K" unicode="K" horiz-adv-x="1507" 
d="M1456 0h-377l-360 657l-203 -251v-406h-362v1481h362v-639l485 639h396l-428 -568z" />
    <glyph glyph-name="L" unicode="L" horiz-adv-x="1177" 
d="M154 1481h352v-1190h616v-291h-968v1481z" />
    <glyph glyph-name="M" unicode="M" horiz-adv-x="1912" 
d="M154 0v1481h514l288 -979l293 979h510v-1481h-350v1102l-322 -1102h-260l-321 1100v-1100h-352z" />
    <glyph glyph-name="N" unicode="N" horiz-adv-x="1632" 
d="M1130 1481h349v-1481h-314l-661 950v-950h-350v1481h350l626 -903v903z" />
    <glyph glyph-name="O" unicode="O" horiz-adv-x="1599" 
d="M801 -20q-323 0 -512 203.5t-189 553.5t191.5 557t509.5 207t508 -207t190 -557q0 -349 -188.5 -553t-509.5 -204zM803 262q149 0 233 112.5t84 356.5q0 252 -84.5 370t-234.5 118q-149 0 -234.5 -118.5t-85.5 -369.5q0 -244 85.5 -356.5t236.5 -112.5z" />
    <glyph glyph-name="P" unicode="P" horiz-adv-x="1357" 
d="M154 0v1481h567q164 0 292.5 -56.5t204.5 -170t76 -267.5q0 -218 -142.5 -343.5t-385.5 -125.5h-260v-518h-352zM502 782h254q91 0 153 66t62 158t-64.5 152.5t-154.5 60.5h-250v-437z" />
    <glyph glyph-name="Q" unicode="Q" horiz-adv-x="1587" 
d="M72 737q0 351 190.5 557.5t509.5 206.5q318 0 508 -207t190 -557q0 -381 -227 -594q17 -52 80.5 -86.5t142.5 -36.5v-274q-90 0 -151.5 8t-129 32.5t-127 75t-120.5 130.5q-84 -12 -166 -12q-323 0 -511.5 203.5t-188.5 553.5zM453 733q0 -248 81 -359.5t238 -111.5
q156 0 237 111.5t81 359.5q0 486 -318 486q-319 0 -319 -486z" />
    <glyph glyph-name="R" unicode="R" horiz-adv-x="1452" 
d="M1343 0h-358l-227 541h-254v-541h-350v1481h649q266 0 394 -125t128 -336q0 -109 -35 -194t-86.5 -136t-126.5 -94zM754 805q97 0 158 61t61 150q0 88 -60.5 145.5t-148.5 57.5h-260v-414h250z" />
    <glyph glyph-name="S" unicode="S" horiz-adv-x="1468" 
d="M743 -20q-118 0 -227 27.5t-201.5 81t-152.5 142.5t-70 203l363 2q20 -89 95.5 -137.5t190.5 -48.5q119 0 197 39.5t78 120.5q0 36 -19.5 63.5t-57 45.5t-78 29.5t-97.5 22.5l-246 45q-177 32 -278.5 138.5t-104.5 281.5q-1 141 80 247.5t217 161t305 54.5
q130 0 244 -37.5t193 -100.5t128 -145t58 -172l-352 -4q-22 187 -265 187q-114 0 -173.5 -43t-59.5 -107q0 -60 39.5 -94t144.5 -55l244 -45q83 -15 150 -41.5t111.5 -57t77.5 -70t51 -76t29 -80.5t14 -76.5t3 -69.5q0 -185 -178.5 -308.5t-452.5 -123.5z" />
    <glyph glyph-name="T" unicode="T" horiz-adv-x="1280" 
d="M33 1171v310h1214v-310h-430v-1171h-350v1171h-434z" />
    <glyph glyph-name="U" unicode="U" horiz-adv-x="1515" 
d="M1386 588q0 -142 -33 -250.5t-104 -190.5t-191.5 -124.5t-287.5 -42.5t-287.5 43t-191.5 125t-104 192t-33 254v887h354v-908q0 -152 72 -226.5t190 -74.5t190 74.5t72 226.5v908h354v-893z" />
    <glyph glyph-name="V" unicode="V" horiz-adv-x="1445" 
d="M1421 1481l-506 -1481h-387l-503 1481h329l369 -1073l367 1073h331z" />
    <glyph glyph-name="W" unicode="W" horiz-adv-x="2002" 
d="M1966 1481l-440 -1481h-269l-256 887l-258 -887h-264l-442 1481h340l252 -887l248 887h247l254 -887l248 887h340z" />
    <glyph glyph-name="X" unicode="X" horiz-adv-x="1484" 
d="M1446 0h-436l-301 498l-297 -498h-375l489 750l-475 731h434l260 -441l261 441h368l-448 -682z" />
    <glyph glyph-name="Y" unicode="Y" horiz-adv-x="1415" 
d="M1401 1481l-520 -860v-621h-351v621l-518 860h377l318 -563l313 563h381z" />
    <glyph glyph-name="Z" unicode="Z" horiz-adv-x="1409" 
d="M96 0v164l725 1028h-667v289h1167v-156l-737 -1032h727v-293h-1215z" />
    <glyph glyph-name="bracketleft" unicode="[" horiz-adv-x="718" 
d="M137 1481h508v-191h-227v-1429h227v-191h-508v1811z" />
    <glyph glyph-name="backslash" unicode="\" horiz-adv-x="808" 
d="M532 -18l-518 1499h236l520 -1499h-238z" />
    <glyph glyph-name="bracketright" unicode="]" horiz-adv-x="724" 
d="M532 1481v-1811h-509v191h227v1429h-227v191h509z" />
    <glyph glyph-name="asciicircum" unicode="^" horiz-adv-x="1005" 
d="M692 246l-200 487l-201 -487h-228l326 760q19 45 60.5 63t83 1.5t61.5 -62.5l324 -762h-226z" />
    <glyph glyph-name="underscore" unicode="_" horiz-adv-x="1167" 
d="M1038 -53v-248h-923v248h923z" />
    <glyph glyph-name="grave" unicode="`" horiz-adv-x="677" 
d="M104 1503l527 -213l-49 -143l-555 139z" />
    <glyph glyph-name="a" unicode="a" horiz-adv-x="1171" 
d="M430 -20q-158 0 -260 87t-102 242q0 361 553 361l106 2v53q0 63 -37 95t-108 30q-62 -2 -114 -29t-73 -84h-286q9 168 143.5 255t345.5 87q247 0 355 -86.5t108 -244.5v-748h-289l-31 174q-49 -108 -123 -151t-188 -43zM549 205q70 0 123 45.5t55 105.5v144h-86
q-59 0 -111 -13t-92.5 -49.5t-40.5 -91.5q0 -65 44 -103t108 -38z" />
    <glyph glyph-name="b" unicode="b" horiz-adv-x="1245" 
d="M729 -20q-109 0 -200.5 47t-129.5 123l-34 -150h-248v1522h348v-619q47 82 128.5 129t174.5 47q198 0 307 -146t109 -396q0 -257 -119.5 -407t-335.5 -150zM637 227q192 0 192 312q0 159 -48.5 224.5t-135.5 65.5q-76 0 -123.5 -60.5t-56.5 -182.5v-74q0 -140 47 -212.5
t125 -72.5z" />
    <glyph glyph-name="c" unicode="c" horiz-adv-x="1107" 
d="M586 1079q136 0 239 -59t156.5 -155t58.5 -216h-284q-13 69 -53.5 119.5t-112.5 50.5q-94 0 -148.5 -76t-54.5 -215q0 -141 57.5 -223t151.5 -82q37 0 68 17t49.5 44t29.5 53.5t15 51.5h278q-6 -174 -129 -291.5t-321 -117.5q-226 0 -374.5 151.5t-148.5 392.5
q0 245 147.5 400t375.5 155z" />
    <glyph glyph-name="d" unicode="d" horiz-adv-x="1234" 
d="M514 -20q-214 0 -332.5 147.5t-118.5 404.5q0 253 111 400t307 147q203 0 299 -139v582h348v-1522h-249l-39 215q-82 -235 -326 -235zM598 227q80 0 131 63.5t51 176.5v156q-21 206 -184 206q-195 0 -195 -292q0 -162 53.5 -236t143.5 -74z" />
    <glyph glyph-name="e" unicode="e" horiz-adv-x="1165" 
d="M408 449q-1 -106 49.5 -164t138.5 -58q143 0 190 121h312q-18 -112 -93 -197t-180 -128t-221 -43q-243 0 -392 146.5t-149 389.5q0 157 61.5 283.5t183 203t282.5 76.5q243 0 374.5 -149t131.5 -393v-88h-688zM406 649h366q0 82 -47.5 136.5t-134.5 54.5q-80 0 -132 -57
t-52 -134z" />
    <glyph glyph-name="f" unicode="f" horiz-adv-x="804" 
d="M776 1059v-240h-209v-819h-348v819h-184v240h184v147q0 129 80.5 202t222.5 73h262l2 -230h-131q-54 0 -74 -24t-20 -86v-82h215z" />
    <glyph glyph-name="g" unicode="g" horiz-adv-x="1284" 
d="M621 -350q-289 0 -443.5 70t-154.5 182q0 33 14.5 62t35 47t48 33.5t48.5 23t41 13.5t21 7q-65 31 -93 59q-46 46 -46 109t58.5 111.5t171.5 66.5q-107 49 -163.5 133.5t-56.5 175.5q0 103 71 179.5t187.5 114.5t260.5 38q103 0 172 -20t139 -60q18 7 143.5 56.5
t186.5 74.5l-2 -256l-183 -28q19 -59 19 -97q0 -69 -32.5 -132t-93 -113.5t-157 -80.5t-215.5 -30q-61 0 -123 4q-65 -5 -65 -31q0 -19 31 -25.5t115 -12.5q20 -1 30 -2q75 -4 215 -13q202 -13 303.5 -97t101.5 -212q0 -159 -151.5 -254.5t-433.5 -95.5zM608 578
q73 0 115.5 42t42.5 113t-43 118.5t-115 47.5q-70 0 -113.5 -47.5t-43.5 -118.5q0 -69 42.5 -112t114.5 -43zM676 -162q112 0 155 22.5t43 69.5q0 42 -37.5 67.5t-107.5 29.5l-217 14q-72 4 -111 -26t-39 -72q0 -58 75 -81.5t239 -23.5z" />
    <glyph glyph-name="h" unicode="h" horiz-adv-x="1232" 
d="M117 0v1522h348v-598q45 63 111 101t180 38q154 0 262 -96t108 -246v-721h-350v676q0 54 -44.5 87.5t-106.5 33.5t-111 -35.5t-49 -91.5v-670h-348z" />
    <glyph glyph-name="i" unicode="i" horiz-adv-x="581" 
d="M471 1522v-314h-352v314h352zM469 1059v-1059h-350v1059h350z" />
    <glyph glyph-name="j" unicode="j" horiz-adv-x="622" 
d="M502 1522v-314h-355v314h355zM500 33q0 -188 -95 -280.5t-294 -92.5q-48 0 -82 8t-44 16l-10 9l-2 231l72 10q60 10 82.5 33.5t22.5 67.5v1024h350v-1026z" />
    <glyph glyph-name="k" unicode="k" horiz-adv-x="1210" 
d="M1182 0h-342l-265 424l-110 -121v-303h-348v1522h348v-879l360 416h349l-386 -430z" />
    <glyph glyph-name="l" unicode="l" horiz-adv-x="679" 
d="M487 -20q-73 0 -131 10.5t-96.5 27t-66 43.5t-42 52.5t-22.5 62.5t-10 65t-2 68v1213h342v-1170q0 -54 25.5 -86.5t93.5 -40.5l47 -4v-213q-75 -28 -138 -28z" />
    <glyph glyph-name="m" unicode="m" horiz-adv-x="1880" 
d="M117 0v1059h342v-131q122 151 340 151q93 0 174 -36.5t127 -114.5q55 69 143.5 110t179.5 41q63 0 124 -22t112.5 -63t83 -108.5t31.5 -150.5v-735h-351v696q0 65 -42.5 99t-104.5 34q-86 0 -122 -44t-36 -134v-651h-348v709q0 55 -44.5 87.5t-104.5 32.5t-108 -33.5
t-48 -90.5v-705h-348z" />
    <glyph glyph-name="n" unicode="n" horiz-adv-x="1232" 
d="M117 0v1059h344v-131q29 33 51 53t57 41.5t82 32t107 10.5q146 0 258 -101t112 -253v-711h-350v666q0 59 -44 95t-105 36q-64 0 -114 -33.5t-50 -89.5v-674h-348z" />
    <glyph glyph-name="o" unicode="o" 
d="M586 -20q-239 0 -382 150.5t-143 391.5q0 248 146.5 402.5t380.5 154.5q240 0 382 -155.5t142 -401.5q0 -240 -143 -391t-383 -151zM588 236q52 0 89.5 26.5t57 71.5t28.5 94.5t9 106.5t-9 106t-28.5 92.5t-57 68.5t-89.5 25q-53 0 -91 -25t-58 -68.5t-29 -92.5t-9 -106
t9 -106.5t29 -94.5t58 -71.5t91 -26.5z" />
    <glyph glyph-name="p" unicode="p" horiz-adv-x="1245" 
d="M117 -330v1389h350v-129q53 73 131 111t168 38q87 0 161.5 -33t132.5 -98t91 -171t33 -242q0 -115 -25 -208.5t-68 -157t-101.5 -107t-124 -63t-138.5 -19.5q-85 0 -149 38t-113 138v-486h-348zM655 227q88 0 145.5 79t57.5 229q0 139 -58 216.5t-143 77.5
q-76 0 -134 -62t-58 -136v-217q12 -80 66.5 -133.5t123.5 -53.5z" />
    <glyph glyph-name="q" unicode="q" horiz-adv-x="1239" 
d="M1133 -330h-351v428q-128 -118 -288 -118q-90 0 -166 32t-136.5 97t-94.5 174t-34 252q0 136 33.5 242t91.5 170.5t132.5 98t160.5 33.5q167 0 301 -114v94h351v-1389zM612 209q70 0 114.5 74t55.5 206v80q0 135 -45.5 207t-126.5 72q-86 0 -139 -77t-53 -230
q0 -154 54 -243t140 -89z" />
    <glyph glyph-name="r" unicode="r" horiz-adv-x="845" 
d="M117 0v1059h336v-277q43 130 136.5 213.5t225.5 83.5l2 -329q-81 8 -143.5 -0.5t-101 -28.5t-63.5 -50.5t-34.5 -62.5t-9.5 -69v-539h-348z" />
    <glyph glyph-name="s" unicode="s" horiz-adv-x="1097" 
d="M561 -20q-86 0 -164 19t-147.5 58.5t-117.5 109t-64 161.5h290q37 -113 209 -113q81 0 123.5 23.5t42.5 62.5q0 37 -34 57t-101 33l-172 33q-323 61 -326 311q-2 152 124.5 248t340.5 96q209 0 333.5 -93.5t119.5 -246.5h-287q-11 59 -58.5 87t-115.5 28q-154 0 -154 -90
q0 -35 38 -56t126 -36l154 -33q74 -17 130.5 -48t89 -64.5t53 -73t27.5 -71.5t7 -63q0 -160 -132 -249.5t-335 -89.5z" />
    <glyph glyph-name="t" unicode="t" horiz-adv-x="884" 
d="M799 819h-234l2 -520q0 -43 19 -59.5t55 -16.5h160v-207q-62 -30 -197 -30q-112 0 -189.5 22t-119.5 63.5t-60 92.5t-18 119v536h-172v240h184l52 325h284v-323h234v-242z" />
    <glyph glyph-name="u" unicode="u" horiz-adv-x="1232" 
d="M508 -20q-53 0 -107 13.5t-105 42t-91 67.5t-64 95.5t-24 120.5v740h348v-692q0 -64 42.5 -101t110.5 -37q69 0 112.5 38.5t43.5 101.5v690h354l-8 -1059h-260l-39 217q-45 -237 -313 -237z" />
    <glyph glyph-name="v" unicode="v" horiz-adv-x="1079" 
d="M1063 1059l-406 -1059h-235l-406 1059h314l209 -608h4l202 608h318z" />
    <glyph glyph-name="w" unicode="w" horiz-adv-x="1626" 
d="M1606 1059l-361 -1059h-262l-176 578l-182 -578h-252l-353 1059h308l182 -586h4l176 586h246l174 -586h4l180 586h312z" />
    <glyph glyph-name="x" unicode="x" horiz-adv-x="1222" 
d="M1202 0h-362l-228 313l-229 -313h-360l405 553l-371 506h363l194 -264l193 264h362l-374 -506z" />
    <glyph glyph-name="y" unicode="y" horiz-adv-x="1179" 
d="M309 -338q-69 0 -123 10t-73 20l-19 11v221l103 -6q53 -3 93.5 3t62 16t36.5 25.5t19.5 26t8.5 21.5q1 3 1 4l12 39l-414 1006h344l228 -633l233 633h340l-420 -1030q-37 -89 -77 -154.5t-79.5 -106t-85.5 -64.5t-90.5 -33t-99.5 -9z" />
    <glyph glyph-name="z" unicode="z" horiz-adv-x="1099" 
d="M63 0v172l521 670h-475v217h915v-166l-526 -674h530v-219h-965z" />
    <glyph glyph-name="braceleft" unicode="{" horiz-adv-x="835" 
d="M258 1225q0 82 52.5 142.5t127 87t156.5 26.5h170v-191h-98q-43 0 -70.5 -8t-39 -25t-14.5 -32.5t-3 -40.5v-393q-3 -94 -69 -142t-153 -57q-8 -1 -11 -3.5t-0.5 -5t11.5 -3.5q217 -18 222 -215v-396q0 -59 28 -83.5t101 -24.5h96v-191h-164q-86 0 -161.5 26.5t-128 87
t-52.5 144.5v406q0 77 -57 122.5t-174 45.5v168q123 0 177 42.5t54 133.5v379z" />
    <glyph glyph-name="bar" unicode="|" horiz-adv-x="557" 
d="M406 -330h-250l-2 2022h252v-2022z" />
    <glyph glyph-name="braceright" unicode="}" horiz-adv-x="841" 
d="M532 1225v-379q0 -91 54.5 -133.5t177.5 -42.5v-168q-118 0 -175 -46t-57 -122v-406q0 -63 -30.5 -114t-80 -81.5t-109 -46.5t-122.5 -16h-163v191h96q72 0 99.5 25t27.5 83v396q7 197 221 215q9 1 11.5 3.5t-0.5 5t-11 3.5q-39 4 -74.5 16t-69 34.5t-54.5 60.5t-23 88
v393q0 25 -3 40.5t-14.5 32.5t-39 25t-70.5 8h-96v191h170q60 0 118.5 -16t107.5 -46.5t79 -80.5t30 -113z" />
    <glyph glyph-name="asciitilde" unicode="~" horiz-adv-x="1296" 
d="M1163 776q-55 -101 -139.5 -154t-177.5 -53q-56 0 -112 21.5t-94.5 46.5t-88 46.5t-94.5 21.5q-37 0 -70.5 -12.5t-65.5 -39t-52.5 -48t-53.5 -60.5l-100 170q64 68 109.5 107t108 67.5t128.5 28.5q57 0 113 -21t93 -46t84 -46t89 -21q129 0 223 158z" />
    <glyph glyph-name="uni00A0" unicode="&#xa0;" horiz-adv-x="491" 
 />
    <glyph glyph-name="exclamdown" unicode="&#xa1;" horiz-adv-x="604" 
d="M481 702h-372v357h372v-357zM500 -330h-408l98 893h216z" />
    <glyph glyph-name="cent" unicode="&#xa2;" horiz-adv-x="1163" 
d="M631 451q49 0 86.5 30.5t53.5 65t22 69.5h278q-5 -145 -94.5 -254.5t-239.5 -142.5v-219h-223v217q-187 34 -301.5 179t-114.5 356q0 214 114.5 361t301.5 183v185h223v-187q153 -34 241.5 -148t96.5 -269h-287q-13 70 -52 120t-111 50q-95 0 -150 -76t-55 -215
q0 -140 58.5 -222.5t152.5 -82.5z" />
    <glyph glyph-name="sterling" unicode="&#xa3;" horiz-adv-x="1359" 
d="M45 0v287h66q170 0 170 180q0 48 -19 221h-211v186h170l-14 193q-11 103 24.5 187.5t104.5 137t159.5 81t192.5 28.5q176 0 308 -82t196 -235l-301 -88q-34 73 -66 103t-84 30q-60 0 -96.5 -39.5t-36.5 -108.5q0 -53 29 -204h285v-187h-260q8 -122 -13 -209
q-13 -65 -39 -104t-80 -88h240q93 0 138.5 35t78.5 127l293 -60q-103 -391 -483 -391h-752z" />
    <glyph glyph-name="currency" unicode="&#xa4;" horiz-adv-x="1226" 
d="M608 276q-128 0 -239 66q-19 10 -33 -4l-127 -127l-141 145l141 140q-72 119 -72 247q0 130 62 234q10 17 -4 33l-127 127l141 145l143 -145q121 77 248 77q133 0 246 -69q13 -6 24 2l115 119l139 -146l-127 -125q76 -118 76 -250q0 -141 -69 -241q-6 -9 0 -15l120 -118
l-139 -144l-125 127q-124 -78 -252 -78zM604 500q104 0 175 72.5t71 172.5q0 99 -71 172.5t-175 73.5q-103 0 -174.5 -74t-71.5 -172q0 -100 71.5 -172.5t174.5 -72.5z" />
    <glyph glyph-name="yen" unicode="&#xa5;" horiz-adv-x="1398" 
d="M1415 1481l-469 -758h258v-184h-301v-148h301v-180h-301v-211h-397v211h-301v180h301v148h-301v182h237l-462 760h452l311 -555l308 555h364z" />
    <glyph glyph-name="brokenbar" unicode="&#xa6;" horiz-adv-x="557" 
d="M406 850h-250l-2 842h252v-842zM406 -330h-250l-2 842h252v-842z" />
    <glyph glyph-name="section" unicode="&#xa7;" horiz-adv-x="1075" 
d="M535 -164q-178 0 -307.5 69t-176.5 169l211 104q48 -63 108.5 -100t155.5 -37q77 0 121.5 24t44.5 72q0 37 -31.5 66t-111.5 59l-150 55q-175 66 -251 142.5t-76 197.5q0 92 44.5 161t125.5 110q-82 52 -118 111t-36 132q0 143 115.5 236.5t310.5 93.5q157 0 278.5 -67.5
t168.5 -163.5l-211 -103q-55 59 -107 93t-119 34q-60 0 -94.5 -24t-34.5 -64q0 -53 97 -90l153 -57q182 -69 260 -147t78 -201q0 -171 -160 -269q93 -52 133.5 -112.5t40.5 -145.5q0 -158 -120 -253t-342 -95zM592 547q54 -6 85 29t25 88q-6 38 -40 68.5t-107 58.5l-84 30
q-60 -4 -91.5 -36t-31.5 -76q0 -40 30 -65t122 -60z" />
    <glyph glyph-name="dieresis" unicode="&#xa8;" horiz-adv-x="839" 
d="M342 1481v-271h-301v271h301zM782 1481v-271h-303v271h303z" />
    <glyph glyph-name="copyright" unicode="&#xa9;" horiz-adv-x="1714" 
d="M848 -20q-155 0 -295.5 60t-242.5 161.5t-162 242.5t-60 297q0 154 60 294.5t162 242.5t242.5 162.5t295.5 60.5t296 -60.5t243 -162.5t162.5 -242.5t60.5 -294.5q0 -156 -60.5 -297.5t-162.5 -242.5t-243 -161t-296 -60zM848 164q249 0 404 157.5t155 419.5
q0 260 -155.5 420t-403.5 160q-252 0 -405.5 -159.5t-153.5 -420.5q0 -263 153 -420t406 -157zM854 1167q76 0 141 -25t109 -67t73 -90.5t42 -99.5l-238 -19q-31 127 -121 127q-69 0 -108 -61.5t-39 -186.5q0 -249 164 -249q63 0 100.5 34t73.5 103l168 -37
q-8 -31 -24.5 -64.5t-47 -72t-70 -68.5t-98 -49.5t-125.5 -19.5q-182 0 -299 117t-117 302q0 189 117.5 307.5t298.5 118.5z" />
    <glyph glyph-name="ordfeminine" unicode="&#xaa;" horiz-adv-x="829" 
d="M287 815q-104 0 -161.5 51.5t-57.5 137.5q0 101 96.5 164.5t259.5 66.5l63 2v43q0 84 -90 84q-87 0 -121 -82l-192 39q42 93 113 136.5t206 43.5q160 -1 227.5 -54t67.5 -155v-264q0 -108 9 -147l12 -54h-217l-15 64q-59 -41 -101 -58.5t-99 -17.5zM373 948q54 0 88 31
q26 23 26 49v94h-53q-68 -3 -108.5 -31t-40.5 -73q0 -31 23.5 -50.5t64.5 -19.5z" />
    <glyph glyph-name="guillemotleft" unicode="&#xab;" horiz-adv-x="1060" 
d="M375 514l147 -387h-180l-231 387l229 404h184zM778 514l148 -387h-183l-231 387l231 404h183z" />
    <glyph glyph-name="logicalnot" unicode="&#xac;" horiz-adv-x="1234" 
d="M109 870h1005v-567h-283v318h-722v249z" />
    <glyph glyph-name="uni00AD" unicode="&#xad;" horiz-adv-x="821" 
d="M741 651v-250h-577v250h577z" />
    <glyph glyph-name="registered" unicode="&#xae;" horiz-adv-x="1144" 
d="M565 549q-199 0 -338 138.5t-139 336.5t139 337.5t338 139.5q97 0 184.5 -37.5t151.5 -101.5t101.5 -152.5t37.5 -185.5t-37.5 -185t-101.5 -151.5t-151.5 -101t-184.5 -37.5zM565 680q151 0 241.5 93.5t90.5 250.5t-90.5 251.5t-241.5 94.5q-155 0 -245.5 -94
t-90.5 -252q0 -157 90.5 -250.5t245.5 -93.5zM369 786v471h225q89 0 137.5 -33.5t48.5 -95.5q0 -86 -94 -127l94 -215h-143l-68 201h-71v-201h-129zM498 1075h92q25 0 40 12.5t15 34.5q0 47 -61 47h-86v-94z" />
    <glyph glyph-name="macron" unicode="&#xaf;" horiz-adv-x="866" 
d="M809 1475v-218h-768v218h768z" />
    <glyph glyph-name="degree" unicode="&#xb0;" horiz-adv-x="983" 
d="M836 1358q0 -154 -100.5 -253t-252.5 -99q-154 0 -254 98.5t-100 253.5q0 154 100 254t254 100q151 0 252 -100.5t101 -253.5zM633 1356q0 71 -42 115.5t-112 44.5t-112.5 -44.5t-40.5 -115.5q2 -72 43 -117t112 -45q68 0 110 45.5t42 116.5z" />
    <glyph glyph-name="plusminus" unicode="&#xb1;" horiz-adv-x="1234" 
d="M737 1053h377v-250h-377v-377h-250v377h-378v250h378v379h250v-379zM109 51v250h1005v-250h-1005z" />
    <glyph glyph-name="uni00B2" unicode="&#xb2;" horiz-adv-x="811" 
d="M39 786v158l291 250q125 107 160.5 151.5t35.5 94.5q0 51 -36 81.5t-91 30.5q-59 0 -103.5 -33.5t-62.5 -105.5l-206 6q9 141 105 226.5t271 85.5q162 0 257.5 -79t95.5 -210q0 -72 -35 -128t-129 -143l-217 -202h389v-183h-725z" />
    <glyph glyph-name="uni00B3" unicode="&#xb3;" horiz-adv-x="841" 
d="M53 1448q4 78 39 135t93.5 88.5t126 45.5t147.5 14q156 0 261 -69.5t105 -176.5q0 -142 -168 -199q82 -24 140.5 -81t58.5 -146q0 -88 -61.5 -155t-150.5 -98.5t-187 -31.5q-92 0 -160.5 13.5t-125 45t-88 89t-36.5 141.5l207 6q19 -66 71 -94.5t115 -28.5q76 0 123 33
t47 80q0 50 -42.5 83.5t-108.5 33.5l-125 4v170l108 6q66 1 108 33t42 77q0 41 -43 70t-96 29q-36 0 -64 -4.5t-56.5 -17t-47.5 -38t-25 -63.5z" />
    <glyph glyph-name="acute" unicode="&#xb4;" horiz-adv-x="677" 
d="M561 1503l74 -217l-555 -139l-47 143z" />
    <glyph glyph-name="paragraph" unicode="&#xb6;" horiz-adv-x="1259" 
d="M1153 1288h-131v-1458h-209v1458h-125v-1458h-211v782q-85 9 -158.5 39.5t-132 82.5t-92 131.5t-33.5 178.5q0 190 128 313.5t354 123.5h610v-193z" />
    <glyph glyph-name="periodcentered" unicode="&#xb7;" horiz-adv-x="589" 
d="M453 909v-325h-340v325h340z" />
    <glyph glyph-name="cedilla" unicode="&#xb8;" horiz-adv-x="600" 
d="M545 -272q0 -76 -75.5 -123t-180.5 -47q-160 0 -254 57l45 111q87 -52 166 -52q44 0 71 16t27 42q0 41 -41 61.5t-137 20.5q-15 0 -19 3.5t0 18.5l76 174h148l-45 -119q112 -1 165.5 -50t53.5 -113z" />
    <glyph glyph-name="uni00B9" unicode="&#xb9;" horiz-adv-x="641" 
d="M162 778v690l-162 -41v148l270 135h113v-932h-221z" />
    <glyph glyph-name="ordmasculine" unicode="&#xba;" horiz-adv-x="808" 
d="M403 1501q153 0 249 -97t96 -249q0 -149 -96.5 -244.5t-248.5 -95.5q-153 0 -247.5 95t-94.5 245q0 154 97 250t245 96zM403 1358q-116 0 -116 -199q0 -198 116 -198q119 0 119 198q0 199 -119 199z" />
    <glyph glyph-name="guillemotright" unicode="&#xbb;" horiz-adv-x="1060" 
d="M268 514l-149 404h182l229 -404l-229 -387h-182zM670 514l-150 404h185l229 -404l-232 -387h-182z" />
    <glyph glyph-name="onequarter" unicode="&#xbc;" horiz-adv-x="2052" 
d="M162 565v690l-162 -41v148l270 135h113v-932h-221zM1491 1497l-995 -1505l-197 4l997 1501h195zM1624 932h217v-553h137v-186h-137v-193h-219v193h-414v180zM1438 379h186v252z" />
    <glyph glyph-name="onehalf" unicode="&#xbd;" horiz-adv-x="1988" 
d="M162 565v690l-162 -41v148l270 135h113v-932h-221zM1491 1497l-995 -1505l-197 4l997 1501h195zM1217 0v158l290 250q126 108 161.5 151.5t35.5 93.5q0 51 -36 82t-91 31q-59 0 -103.5 -33.5t-62.5 -105.5l-207 6q9 141 105.5 226t271.5 85q162 0 257 -79t95 -210
q0 -72 -35 -127t-129 -143l-217 -203h390v-182h-725z" />
    <glyph glyph-name="threequarters" unicode="&#xbe;" horiz-adv-x="2252" 
d="M53 1233q4 78 39 135t93.5 88.5t126 45.5t147.5 14q156 0 261 -69.5t105 -176.5q0 -142 -168 -199q82 -24 140.5 -81t58.5 -146q0 -88 -61.5 -155t-150.5 -98.5t-187 -31.5q-92 0 -160.5 13.5t-125 45t-88 89t-36.5 141.5l207 6q19 -66 71 -94.5t115 -28.5q76 0 123 33
t47 80q0 50 -42.5 83.5t-108.5 33.5l-125 4v170l108 6q66 1 108 33t42 77q0 41 -43 70t-96 29q-36 0 -64 -4.5t-56.5 -17t-47.5 -38t-25 -63.5zM1692 1497l-996 -1505l-196 4l997 1501h195zM1825 932h217v-553h137v-186h-137v-193h-219v193h-414v180zM1638 379h187v252z" />
    <glyph glyph-name="questiondown" unicode="&#xbf;" horiz-adv-x="1140" 
d="M412 702v357h372v-357h-372zM1110 6q-66 -173 -204 -264.5t-335 -91.5q-122 0 -219 28t-158 76t-92.5 110t-31.5 134q0 67 21.5 122t56 92.5t76 71t82.5 63.5t75.5 61.5t56 74t21.5 92.5h276q0 -66 -17.5 -123t-46 -98t-63 -77t-68.5 -67t-62.5 -60t-46 -63t-17.5 -71
q0 -55 46.5 -90t114.5 -35q76 0 142 49.5t98 131.5z" />
    <glyph glyph-name="Agrave" unicode="&#xc0;" horiz-adv-x="1488" 
d="M539 1925l526 -213l-49 -143l-555 139zM37 0l528 1481h361l528 -1481h-346l-111 315h-499l-111 -315h-350zM573 616h345l-170 531z" />
    <glyph glyph-name="Aacute" unicode="&#xc1;" horiz-adv-x="1488" 
d="M999 1925l74 -217l-555 -139l-47 143zM37 0l528 1481h361l528 -1481h-346l-111 315h-499l-111 -315h-350zM573 616h345l-170 531z" />
    <glyph glyph-name="Acircumflex" unicode="&#xc2;" horiz-adv-x="1488" 
d="M899 1626l-131 160l-147 -160h-246l276 293h238l270 -293h-260zM37 0l528 1481h361l528 -1481h-346l-111 315h-499l-111 -315h-350zM573 616h345l-170 531z" />
    <glyph glyph-name="Atilde" unicode="&#xc3;" horiz-adv-x="1488" 
d="M1120 1714q-74 -55 -190 -55q-59 0 -156.5 29.5t-150.5 29.5q-42 0 -72 -11t-66 -38q-33 -23 -43 14l-30 97q-6 12 -4.5 25t18.5 30q43 37 84 56.5t102 19.5q64 0 169 -32t149 -32q74 0 145 51q13 10 27 7t18 -21l25 -117q9 -29 -25 -53zM37 0l528 1481h361l528 -1481
h-346l-111 315h-499l-111 -315h-350zM573 616h345l-170 531z" />
    <glyph glyph-name="Adieresis" unicode="&#xc4;" horiz-adv-x="1488" 
d="M700 1903v-271h-301v271h301zM1141 1903v-271h-303v271h303zM37 0l528 1481h361l528 -1481h-346l-111 315h-499l-111 -315h-350zM573 616h345l-170 531z" />
    <glyph glyph-name="Aring" unicode="&#xc5;" horiz-adv-x="1488" 
d="M997 1802q0 -95 -66 -161t-161 -66t-161 67t-66 164q0 92 66.5 157t160.5 65q95 0 161 -66t66 -160zM866 1800q0 42 -28 70t-70 28t-71 -28t-29 -70q0 -39 29.5 -69.5t70.5 -30.5q40 0 69 30.5t29 69.5zM37 0l528 1481h361l528 -1481h-346l-111 315h-499l-111 -315h-350z
M573 616h345l-170 531z" />
    <glyph glyph-name="AE" unicode="&#xc6;" horiz-adv-x="2246" 
d="M2130 289v-289h-1118v315h-463l-162 -315h-350l780 1481h1292l-2 -287h-698v-307h457v-283h-457v-315h721zM1012 616v641l-336 -641h336z" />
    <glyph glyph-name="Ccedilla" unicode="&#xc7;" horiz-adv-x="1505" 
d="M780 262q106 0 177 74t92 190l364 -4q-12 -87 -34.5 -160t-65 -141t-102 -117t-148 -81.5t-199.5 -40.5l-35 -91q112 -1 166 -50t54 -113q0 -76 -75.5 -123t-180.5 -47q-160 0 -254 57l45 111q87 -52 166 -52q44 0 71 16t27 42q0 41 -41 61.5t-137 20.5q-15 0 -19 3.5
t0 18.5l64 148q-186 17 -326 120t-214.5 271.5t-74.5 380.5q0 343 185.5 544t502.5 201q256 0 429 -145.5t196 -374.5l-364 -2q-19 112 -88 176t-183 64q-295 0 -295 -467q0 -251 78 -370.5t219 -119.5z" />
    <glyph glyph-name="Egrave" unicode="&#xc8;" horiz-adv-x="1333" 
d="M455 1925l526 -213l-49 -143l-555 139zM154 0v1481h1056l-2 -291h-702v-303h600v-285h-602v-309h713v-293h-1063z" />
    <glyph glyph-name="Eacute" unicode="&#xc9;" horiz-adv-x="1333" 
d="M915 1925l74 -217l-555 -139l-47 143zM154 0v1481h1056l-2 -291h-702v-303h600v-285h-602v-309h713v-293h-1063z" />
    <glyph glyph-name="Ecircumflex" unicode="&#xca;" horiz-adv-x="1333" 
d="M817 1626l-131 160l-147 -160h-246l276 293h238l270 -293h-260zM154 0v1481h1056l-2 -291h-702v-303h600v-285h-602v-309h713v-293h-1063z" />
    <glyph glyph-name="Edieresis" unicode="&#xcb;" horiz-adv-x="1333" 
d="M618 1903v-271h-301v271h301zM1059 1903v-271h-303v271h303zM154 0v1481h1056l-2 -291h-702v-303h600v-285h-602v-309h713v-293h-1063z" />
    <glyph glyph-name="Igrave" unicode="&#xcc;" horiz-adv-x="657" 
d="M98 1925l527 -213l-50 -143l-555 139zM154 1481h350v-1481h-350v1481z" />
    <glyph glyph-name="Iacute" unicode="&#xcd;" horiz-adv-x="657" 
d="M561 1925l74 -217l-555 -139l-47 143zM154 1481h350v-1481h-350v1481z" />
    <glyph glyph-name="Icircumflex" unicode="&#xce;" horiz-adv-x="657" 
d="M461 1626l-131 160l-148 -160h-245l276 293h238l270 -293h-260zM154 1481h350v-1481h-350v1481z" />
    <glyph glyph-name="Idieresis" unicode="&#xcf;" horiz-adv-x="657" 
d="M262 1903v-271h-301v271h301zM702 1903v-271h-303v271h303zM154 1481h350v-1481h-350v1481z" />
    <glyph glyph-name="Eth" unicode="&#xd0;" horiz-adv-x="1572" 
d="M715 1479q390 -12 579 -204.5t189 -529.5q0 -169 -47.5 -304.5t-141 -234.5t-242.5 -152.5t-343 -53.5h-482v604h-108q-28 0 -38.5 10t-10.5 35v164q0 41 34 41h123v627q425 0 488 -2zM719 279q63 0 119.5 15.5t108.5 51t89.5 89t59.5 134t22 181.5q0 227 -105 340.5
t-292 113.5h-143v-350h243q15 0 24 -10t9 -25v-164q0 -29 -13.5 -40t-45.5 -11h-217v-325h141z" />
    <glyph glyph-name="Ntilde" unicode="&#xd1;" horiz-adv-x="1632" 
d="M1169 1714q-74 -55 -190 -55q-59 0 -156 29.5t-151 29.5q-42 0 -71.5 -11t-65.5 -38q-33 -23 -43 14l-31 97q-6 12 -4.5 25t18.5 30q42 37 84 56.5t103 19.5q64 0 168.5 -32t148.5 -32q74 0 145 51q13 10 27 7t18 -21l25 -117q9 -29 -25 -53zM1130 1481h349v-1481h-314
l-661 950v-950h-350v1481h350l626 -903v903z" />
    <glyph glyph-name="Ograve" unicode="&#xd2;" horiz-adv-x="1599" 
d="M567 1925l527 -213l-50 -143l-555 139zM801 -20q-323 0 -512 203.5t-189 553.5t191.5 557t509.5 207t508 -207t190 -557q0 -349 -188.5 -553t-509.5 -204zM803 262q149 0 233 112.5t84 356.5q0 252 -84.5 370t-234.5 118q-149 0 -234.5 -118.5t-85.5 -369.5
q0 -244 85.5 -356.5t236.5 -112.5z" />
    <glyph glyph-name="Oacute" unicode="&#xd3;" horiz-adv-x="1599" 
d="M1030 1925l74 -217l-555 -139l-47 143zM801 -20q-323 0 -512 203.5t-189 553.5t191.5 557t509.5 207t508 -207t190 -557q0 -349 -188.5 -553t-509.5 -204zM803 262q149 0 233 112.5t84 356.5q0 252 -84.5 370t-234.5 118q-149 0 -234.5 -118.5t-85.5 -369.5
q0 -244 85.5 -356.5t236.5 -112.5z" />
    <glyph glyph-name="Ocircumflex" unicode="&#xd4;" horiz-adv-x="1599" 
d="M930 1626l-131 160l-148 -160h-245l276 293h238l270 -293h-260zM801 -20q-323 0 -512 203.5t-189 553.5t191.5 557t509.5 207t508 -207t190 -557q0 -349 -188.5 -553t-509.5 -204zM803 262q149 0 233 112.5t84 356.5q0 252 -84.5 370t-234.5 118q-149 0 -234.5 -118.5
t-85.5 -369.5q0 -244 85.5 -356.5t236.5 -112.5z" />
    <glyph glyph-name="Otilde" unicode="&#xd5;" horiz-adv-x="1599" 
d="M1151 1714q-74 -55 -190 -55q-60 0 -157.5 29.5t-150.5 29.5q-42 0 -71.5 -11t-65.5 -38q-33 -23 -43 14l-31 97q-6 12 -4 25t19 30q43 37 84 56.5t102 19.5q64 0 169 -32t149 -32q74 0 145 51q13 10 27 7t18 -21l25 -117q9 -29 -25 -53zM801 -20q-323 0 -512 203.5
t-189 553.5t191.5 557t509.5 207t508 -207t190 -557q0 -349 -188.5 -553t-509.5 -204zM803 262q149 0 233 112.5t84 356.5q0 252 -84.5 370t-234.5 118q-149 0 -234.5 -118.5t-85.5 -369.5q0 -244 85.5 -356.5t236.5 -112.5z" />
    <glyph glyph-name="Odieresis" unicode="&#xd6;" horiz-adv-x="1599" 
d="M731 1903v-271h-301v271h301zM1171 1903v-271h-303v271h303zM801 -20q-323 0 -512 203.5t-189 553.5t191.5 557t509.5 207t508 -207t190 -557q0 -349 -188.5 -553t-509.5 -204zM803 262q149 0 233 112.5t84 356.5q0 252 -84.5 370t-234.5 118q-149 0 -234.5 -118.5
t-85.5 -369.5q0 -244 85.5 -356.5t236.5 -112.5z" />
    <glyph glyph-name="multiply" unicode="&#xd7;" horiz-adv-x="1226" 
d="M1100 1059l-316 -314l312 -311l-178 -178l-312 311l-313 -311l-174 178l311 311l-313 314l174 178l315 -315l316 315z" />
    <glyph glyph-name="Oslash" unicode="&#xd8;" horiz-adv-x="1601" 
d="M1540 1382q11 -11 11 -24t-13 -23l-154 -157q107 -182 107 -441q0 -348 -188 -552.5t-508 -204.5q-274 0 -455 151l-121 -121q-21 -21 -37.5 -21t-40.5 21l-71 74q-37 34 -9 66l142 141q-109 180 -109 446q0 351 190.5 557.5t510.5 206.5q272 0 456 -160l135 134
q14 14 29.5 16t26.5 -8zM510 731q0 -68 12 -127l490 500q-68 125 -217 125q-150 0 -217.5 -118t-67.5 -380zM1073 731q0 73 -12 131l-486 -497q69 -109 220 -109q149 0 213.5 110t64.5 365z" />
    <glyph glyph-name="Ugrave" unicode="&#xd9;" horiz-adv-x="1515" 
d="M508 1925l526 -213l-49 -143l-555 139zM1386 588q0 -142 -33 -250.5t-104 -190.5t-191.5 -124.5t-287.5 -42.5t-287.5 43t-191.5 125t-104 192t-33 254v887h354v-908q0 -152 72 -226.5t190 -74.5t190 74.5t72 226.5v908h354v-893z" />
    <glyph glyph-name="Uacute" unicode="&#xda;" horiz-adv-x="1515" 
d="M969 1925l73 -217l-555 -139l-47 143zM1386 588q0 -142 -33 -250.5t-104 -190.5t-191.5 -124.5t-287.5 -42.5t-287.5 43t-191.5 125t-104 192t-33 254v887h354v-908q0 -152 72 -226.5t190 -74.5t190 74.5t72 226.5v908h354v-893z" />
    <glyph glyph-name="Ucircumflex" unicode="&#xdb;" horiz-adv-x="1515" 
d="M868 1626l-131 160l-147 -160h-246l277 293h237l270 -293h-260zM1386 588q0 -142 -33 -250.5t-104 -190.5t-191.5 -124.5t-287.5 -42.5t-287.5 43t-191.5 125t-104 192t-33 254v887h354v-908q0 -152 72 -226.5t190 -74.5t190 74.5t72 226.5v908h354v-893z" />
    <glyph glyph-name="Udieresis" unicode="&#xdc;" horiz-adv-x="1515" 
d="M672 1903v-271h-301v271h301zM1112 1903v-271h-303v271h303zM1386 588q0 -142 -33 -250.5t-104 -190.5t-191.5 -124.5t-287.5 -42.5t-287.5 43t-191.5 125t-104 192t-33 254v887h354v-908q0 -152 72 -226.5t190 -74.5t190 74.5t72 226.5v908h354v-893z" />
    <glyph glyph-name="Yacute" unicode="&#xdd;" horiz-adv-x="1415" 
d="M977 1925l74 -217l-555 -139l-47 143zM1401 1481l-520 -860v-621h-351v621l-518 860h377l318 -563l313 563h381z" />
    <glyph glyph-name="Thorn" unicode="&#xde;" horiz-adv-x="1492" 
d="M1430 750q0 -213 -149.5 -334t-395.5 -121h-332v-295h-399v1481h399v-275h285q124 0 230.5 -28.5t187.5 -84t127.5 -143.5t46.5 -200zM1024 754q0 81 -58.5 125.5t-150.5 44.5h-262v-346h272q91 0 145 48.5t54 127.5z" />
    <glyph glyph-name="germandbls" unicode="&#xdf;" horiz-adv-x="1376" 
d="M715 1481q212 0 327 -82t115 -232q0 -104 -64 -173t-210 -130q-35 -17 -35 -35q0 -12 8.5 -19t28.5 -13q167 -74 232 -117q156 -102 182 -256q6 -34 6 -72q0 -180 -120 -276t-327 -96q-165 0 -270 67l98 211q81 -59 162 -59q65 0 106 29.5t41 86.5q0 52 -39 81t-137 69
q-221 95 -221 278q0 129 119 228q7 7 35 32t37.5 35t26 30.5t22.5 39.5t6 41q0 48 -38 79.5t-106 31.5q-86 0 -134 -52t-48 -139v-1069h-342v762h-119v239h117q3 77 21 144t58.5 130t100.5 107.5t152.5 71.5t208.5 27z" />
    <glyph glyph-name="agrave" unicode="&#xe0;" horiz-adv-x="1171" 
d="M365 1503l526 -213l-49 -143l-555 139zM430 -20q-158 0 -260 87t-102 242q0 361 553 361l106 2v53q0 63 -37 95t-108 30q-62 -2 -114 -29t-73 -84h-286q9 168 143.5 255t345.5 87q247 0 355 -86.5t108 -244.5v-748h-289l-31 174q-49 -108 -123 -151t-188 -43zM549 205
q70 0 123 45.5t55 105.5v144h-86q-59 0 -111 -13t-92.5 -49.5t-40.5 -91.5q0 -65 44 -103t108 -38z" />
    <glyph glyph-name="aacute" unicode="&#xe1;" horiz-adv-x="1171" 
d="M827 1503l74 -217l-555 -139l-47 143zM430 -20q-158 0 -260 87t-102 242q0 361 553 361l106 2v53q0 63 -37 95t-108 30q-62 -2 -114 -29t-73 -84h-286q9 168 143.5 255t345.5 87q247 0 355 -86.5t108 -244.5v-748h-289l-31 174q-49 -108 -123 -151t-188 -43zM549 205
q70 0 123 45.5t55 105.5v144h-86q-59 0 -111 -13t-92.5 -49.5t-40.5 -91.5q0 -65 44 -103t108 -38z" />
    <glyph glyph-name="acircumflex" unicode="&#xe2;" horiz-adv-x="1171" 
d="M727 1204l-131 160l-147 -160h-246l276 293h238l270 -293h-260zM430 -20q-158 0 -260 87t-102 242q0 361 553 361l106 2v53q0 63 -37 95t-108 30q-62 -2 -114 -29t-73 -84h-286q9 168 143.5 255t345.5 87q247 0 355 -86.5t108 -244.5v-748h-289l-31 174
q-49 -108 -123 -151t-188 -43zM549 205q70 0 123 45.5t55 105.5v144h-86q-59 0 -111 -13t-92.5 -49.5t-40.5 -91.5q0 -65 44 -103t108 -38z" />
    <glyph glyph-name="atilde" unicode="&#xe3;" horiz-adv-x="1171" 
d="M948 1292q-74 -55 -190 -55q-60 0 -157 29.5t-150 29.5q-42 0 -72 -11t-66 -38q-33 -23 -43 15l-30 96q-6 12 -4.5 25t18.5 30q43 37 84 56.5t102 19.5q64 0 169 -32t149 -32q72 0 145 52q13 10 27 6.5t18 -21.5l25 -116q9 -30 -25 -54zM430 -20q-158 0 -260 87t-102 242
q0 361 553 361l106 2v53q0 63 -37 95t-108 30q-62 -2 -114 -29t-73 -84h-286q9 168 143.5 255t345.5 87q247 0 355 -86.5t108 -244.5v-748h-289l-31 174q-49 -108 -123 -151t-188 -43zM549 205q70 0 123 45.5t55 105.5v144h-86q-59 0 -111 -13t-92.5 -49.5t-40.5 -91.5
q0 -65 44 -103t108 -38z" />
    <glyph glyph-name="adieresis" unicode="&#xe4;" horiz-adv-x="1171" 
d="M528 1481v-271h-301v271h301zM969 1481v-271h-303v271h303zM430 -20q-158 0 -260 87t-102 242q0 361 553 361l106 2v53q0 63 -37 95t-108 30q-62 -2 -114 -29t-73 -84h-286q9 168 143.5 255t345.5 87q247 0 355 -86.5t108 -244.5v-748h-289l-31 174q-49 -108 -123 -151
t-188 -43zM549 205q70 0 123 45.5t55 105.5v144h-86q-59 0 -111 -13t-92.5 -49.5t-40.5 -91.5q0 -65 44 -103t108 -38z" />
    <glyph glyph-name="aring" unicode="&#xe5;" horiz-adv-x="1171" 
d="M825 1380q0 -95 -66 -161t-161 -66t-161 67t-66 164q0 92 66.5 157t160.5 65q95 0 161 -66t66 -160zM694 1378q0 42 -28 70.5t-70 28.5t-71 -28.5t-29 -70.5q0 -39 29.5 -69.5t70.5 -30.5q40 0 69 30.5t29 69.5zM430 -20q-158 0 -260 87t-102 242q0 361 553 361l106 2v53
q0 63 -37 95t-108 30q-62 -2 -114 -29t-73 -84h-286q9 168 143.5 255t345.5 87q247 0 355 -86.5t108 -244.5v-748h-289l-31 174q-49 -108 -123 -151t-188 -43zM549 205q70 0 123 45.5t55 105.5v144h-86q-59 0 -111 -13t-92.5 -49.5t-40.5 -91.5q0 -65 44 -103t108 -38z" />
    <glyph glyph-name="ae" unicode="&#xe6;" horiz-adv-x="1873" 
d="M1094 465q0 -114 67 -182t168 -68q70 0 128 32t126 105l213 -90q-100 -157 -218 -219.5t-294 -62.5q-128 0 -234 47.5t-182 126.5q-9 9 -18 0q-90 -88 -192.5 -131t-245.5 -43q-164 0 -254 82.5t-90 220.5q0 163 142.5 260t418.5 110l108 9v63q0 67 -36.5 103t-108.5 36
q-138 0 -197 -133l-301 64q43 97 102 156.5t159 93.5t245 34q261 -3 371 -104q128 104 307 104q235 0 381.5 -164t146.5 -450h-712zM1292 868q-83 0 -138 -56.5t-54 -158.5l366 -2q0 48 -18 95.5t-59 84.5t-97 37zM737 483l-88 -6q-59 -4 -111.5 -23t-90 -58t-37.5 -91
q0 -54 36.5 -85t104.5 -30q76 2 131 40t55 96v157z" />
    <glyph glyph-name="ccedilla" unicode="&#xe7;" horiz-adv-x="1114" 
d="M596 223q37 0 68 17t49.5 44t29.5 53.5t15 51.5h278q-6 -157 -108 -269.5t-271 -135.5l-34 -93q112 -1 165.5 -50t53.5 -113q0 -76 -75.5 -123t-180.5 -47q-160 0 -254 57l45 111q87 -52 166 -52q44 0 71 16t27 42q0 41 -41.5 61.5t-136.5 20.5q-15 0 -19 3.5t0 18.5
l66 148q-198 27 -322.5 174.5t-124.5 365.5q0 245 147.5 400t375.5 155q136 0 239 -59t156.5 -155t58.5 -216h-284q-13 69 -53.5 119.5t-112.5 50.5q-94 0 -148.5 -76t-54.5 -215q0 -141 57.5 -223t151.5 -82z" />
    <glyph glyph-name="egrave" unicode="&#xe8;" 
d="M358 1503l527 -213l-49 -143l-555 139zM408 449q-1 -106 49.5 -164t138.5 -58q143 0 190 121h312q-18 -112 -93 -197t-180 -128t-221 -43q-243 0 -392 146.5t-149 389.5q0 157 61.5 283.5t183 203t282.5 76.5q243 0 374.5 -149t131.5 -393v-88h-688zM406 649h366
q0 82 -47.5 136.5t-134.5 54.5q-80 0 -132 -57t-52 -134z" />
    <glyph glyph-name="eacute" unicode="&#xe9;" 
d="M819 1503l76 -217l-555 -139l-49 143zM408 449q-1 -106 49.5 -164t138.5 -58q143 0 190 121h312q-18 -112 -93 -197t-180 -128t-221 -43q-243 0 -392 146.5t-149 389.5q0 157 61.5 283.5t183 203t282.5 76.5q243 0 374.5 -149t131.5 -393v-88h-688zM406 649h366
q0 82 -47.5 136.5t-134.5 54.5q-80 0 -132 -57t-52 -134z" />
    <glyph glyph-name="ecircumflex" unicode="&#xea;" 
d="M721 1204l-131 160l-148 -160h-247l276 293h240l268 -293h-258zM408 449q-1 -106 49.5 -164t138.5 -58q143 0 190 121h312q-18 -112 -93 -197t-180 -128t-221 -43q-243 0 -392 146.5t-149 389.5q0 157 61.5 283.5t183 203t282.5 76.5q243 0 374.5 -149t131.5 -393v-88
h-688zM406 649h366q0 82 -47.5 136.5t-134.5 54.5q-80 0 -132 -57t-52 -134z" />
    <glyph glyph-name="edieresis" unicode="&#xeb;" 
d="M522 1481v-271h-303v271h303zM961 1481v-271h-302v271h302zM408 449q-1 -106 49.5 -164t138.5 -58q143 0 190 121h312q-18 -112 -93 -197t-180 -128t-221 -43q-243 0 -392 146.5t-149 389.5q0 157 61.5 283.5t183 203t282.5 76.5q243 0 374.5 -149t131.5 -393v-88h-688z
M406 649h366q0 82 -47.5 136.5t-134.5 54.5q-80 0 -132 -57t-52 -134z" />
    <glyph glyph-name="igrave" unicode="&#xec;" horiz-adv-x="577" 
d="M66 1503l526 -213l-49 -143l-555 139zM467 1059v-1059h-348v1059h348z" />
    <glyph glyph-name="iacute" unicode="&#xed;" horiz-adv-x="577" 
d="M528 1503l74 -217l-555 -139l-47 143zM467 1059v-1059h-348v1059h348z" />
    <glyph glyph-name="icircumflex" unicode="&#xee;" horiz-adv-x="577" 
d="M428 1204l-131 160l-147 -160h-246l276 293h238l270 -293h-260zM467 1059v-1059h-348v1059h348z" />
    <glyph glyph-name="idieresis" unicode="&#xef;" horiz-adv-x="577" 
d="M229 1481v-271h-301v271h301zM670 1481v-271h-303v271h303zM467 1059v-1059h-348v1059h348z" />
    <glyph glyph-name="eth" unicode="&#xf0;" horiz-adv-x="1214" 
d="M1153 555q0 -263 -149.5 -419t-397.5 -156q-240 0 -392.5 148.5t-152.5 375.5q0 154 71.5 276.5t195.5 190t276 67.5q46 0 58 -12q-59 95 -164 170l-240 -135l-63 102l190 103q-84 45 -201 86l185 151q154 -40 266 -96l182 102l57 -104l-122 -70q193 -135 297 -338
t104 -442zM608 207q95 0 144 78.5t49 226.5q0 150 -49 227.5t-144 77.5q-94 0 -143 -78t-49 -227t49 -227t143 -78z" />
    <glyph glyph-name="ntilde" unicode="&#xf1;" horiz-adv-x="1232" 
d="M975 1292q-31 -23 -82.5 -39t-108.5 -16q-60 0 -157 29.5t-150 29.5q-42 0 -71.5 -11t-65.5 -38q-33 -23 -43 15l-31 96q-6 12 -4 25t19 30q43 37 84 56.5t102 19.5q64 0 168.5 -32t148.5 -32q73 0 146 52q13 10 27 6.5t18 -21.5l24 -116q9 -30 -24 -54zM117 0v1059h344
v-131q29 33 51 53t57 41.5t82 32t107 10.5q146 0 258 -101t112 -253v-711h-350v666q0 59 -44 95t-105 36q-64 0 -114 -33.5t-50 -89.5v-674h-348z" />
    <glyph glyph-name="ograve" unicode="&#xf2;" 
d="M356 1503l527 -213l-49 -143l-555 139zM586 -20q-239 0 -382 150.5t-143 391.5q0 248 146.5 402.5t380.5 154.5q240 0 382 -155.5t142 -401.5q0 -240 -143 -391t-383 -151zM588 236q52 0 89.5 26.5t57 71.5t28.5 94.5t9 106.5t-9 106t-28.5 92.5t-57 68.5t-89.5 25
q-53 0 -91 -25t-58 -68.5t-29 -92.5t-9 -106t9 -106.5t29 -94.5t58 -71.5t91 -26.5z" />
    <glyph glyph-name="oacute" unicode="&#xf3;" 
d="M817 1503l74 -217l-555 -139l-47 143zM586 -20q-239 0 -382 150.5t-143 391.5q0 248 146.5 402.5t380.5 154.5q240 0 382 -155.5t142 -401.5q0 -240 -143 -391t-383 -151zM588 236q52 0 89.5 26.5t57 71.5t28.5 94.5t9 106.5t-9 106t-28.5 92.5t-57 68.5t-89.5 25
q-53 0 -91 -25t-58 -68.5t-29 -92.5t-9 -106t9 -106.5t29 -94.5t58 -71.5t91 -26.5z" />
    <glyph glyph-name="ocircumflex" unicode="&#xf4;" 
d="M717 1204l-131 160l-148 -160h-245l276 293h238l270 -293h-260zM586 -20q-239 0 -382 150.5t-143 391.5q0 248 146.5 402.5t380.5 154.5q240 0 382 -155.5t142 -401.5q0 -240 -143 -391t-383 -151zM588 236q52 0 89.5 26.5t57 71.5t28.5 94.5t9 106.5t-9 106t-28.5 92.5
t-57 68.5t-89.5 25q-53 0 -91 -25t-58 -68.5t-29 -92.5t-9 -106t9 -106.5t29 -94.5t58 -71.5t91 -26.5z" />
    <glyph glyph-name="otilde" unicode="&#xf5;" 
d="M938 1292q-74 -55 -190 -55q-60 0 -157 29.5t-151 29.5q-42 0 -71.5 -11t-65.5 -38q-33 -23 -43 15l-31 96q-6 12 -4 25t19 30q43 37 84 56.5t102 19.5q64 0 169 -32t149 -32q72 0 145 52q13 10 27 6.5t18 -21.5l25 -116q9 -30 -25 -54zM586 -20q-239 0 -382 150.5
t-143 391.5q0 248 146.5 402.5t380.5 154.5q240 0 382 -155.5t142 -401.5q0 -240 -143 -391t-383 -151zM588 236q52 0 89.5 26.5t57 71.5t28.5 94.5t9 106.5t-9 106t-28.5 92.5t-57 68.5t-89.5 25q-53 0 -91 -25t-58 -68.5t-29 -92.5t-9 -106t9 -106.5t29 -94.5t58 -71.5
t91 -26.5z" />
    <glyph glyph-name="odieresis" unicode="&#xf6;" 
d="M520 1481v-271h-301v271h301zM961 1481v-271h-304v271h304zM586 -20q-239 0 -382 150.5t-143 391.5q0 248 146.5 402.5t380.5 154.5q240 0 382 -155.5t142 -401.5q0 -240 -143 -391t-383 -151zM588 236q52 0 89.5 26.5t57 71.5t28.5 94.5t9 106.5t-9 106t-28.5 92.5
t-57 68.5t-89.5 25q-53 0 -91 -25t-58 -68.5t-29 -92.5t-9 -106t9 -106.5t29 -94.5t58 -71.5t91 -26.5z" />
    <glyph glyph-name="divide" unicode="&#xf7;" horiz-adv-x="1236" 
d="M786 1335v-334h-346v334h346zM1114 870v-249h-1005v249h1005zM786 489v-333h-346v333h346z" />
    <glyph glyph-name="oslash" unicode="&#xf8;" horiz-adv-x="1280" 
d="M1204 956l-112 -106q86 -141 86 -328q0 -240 -143.5 -391t-383.5 -151q-216 0 -356 124l-129 -120l-109 114l140 131q-70 128 -70 293q0 249 146 403t380 154q199 0 332 -108l111 102zM467 535q0 -34 2 -50l307 287q-46 55 -123 55q-53 0 -91 -25t-57.5 -69t-28.5 -92.5
t-9 -105.5zM838 535q0 23 -4 73l-318 -297q48 -75 137 -75q52 0 89.5 26.5t57.5 71.5t29 95t9 106z" />
    <glyph glyph-name="ugrave" unicode="&#xf9;" horiz-adv-x="1232" 
d="M385 1503l526 -213l-49 -143l-555 139zM508 -20q-53 0 -107 13.5t-105 42t-91 67.5t-64 95.5t-24 120.5v740h348v-692q0 -64 42.5 -101t110.5 -37q69 0 112.5 38.5t43.5 101.5v690h354l-8 -1059h-260l-39 217q-45 -237 -313 -237z" />
    <glyph glyph-name="uacute" unicode="&#xfa;" horiz-adv-x="1232" 
d="M846 1503l74 -217l-555 -139l-48 143zM508 -20q-53 0 -107 13.5t-105 42t-91 67.5t-64 95.5t-24 120.5v740h348v-692q0 -64 42.5 -101t110.5 -37q69 0 112.5 38.5t43.5 101.5v690h354l-8 -1059h-260l-39 217q-45 -237 -313 -237z" />
    <glyph glyph-name="ucircumflex" unicode="&#xfb;" horiz-adv-x="1232" 
d="M745 1204l-131 160l-147 -160h-246l277 293h237l271 -293h-261zM508 -20q-53 0 -107 13.5t-105 42t-91 67.5t-64 95.5t-24 120.5v740h348v-692q0 -64 42.5 -101t110.5 -37q69 0 112.5 38.5t43.5 101.5v690h354l-8 -1059h-260l-39 217q-45 -237 -313 -237z" />
    <glyph glyph-name="udieresis" unicode="&#xfc;" horiz-adv-x="1232" 
d="M547 1481v-271h-301v271h301zM987 1481v-271h-303v271h303zM508 -20q-53 0 -107 13.5t-105 42t-91 67.5t-64 95.5t-24 120.5v740h348v-692q0 -64 42.5 -101t110.5 -37q69 0 112.5 38.5t43.5 101.5v690h354l-8 -1059h-260l-39 217q-45 -237 -313 -237z" />
    <glyph glyph-name="yacute" unicode="&#xfd;" horiz-adv-x="1179" 
d="M860 1503l74 -217l-555 -139l-47 143zM309 -338q-69 0 -123 10t-73 20l-19 11v221l103 -6q53 -3 93.5 3t62 16t36.5 25.5t19.5 26t8.5 21.5q1 3 1 4l12 39l-414 1006h344l228 -633l233 633h340l-420 -1030q-37 -89 -77 -154.5t-79.5 -106t-85.5 -64.5t-90.5 -33t-99.5 -9
z" />
    <glyph glyph-name="thorn" unicode="&#xfe;" horiz-adv-x="1245" 
d="M467 1481v-551q67 72 138 110.5t177 38.5q178 0 290 -138t112 -406q0 -143 -32 -251.5t-90 -174t-132 -97.5t-164 -32q-155 0 -262 102q-23 21 -31 19t-8 -29v-402h-348v1811h350zM465 287q72 -92 168 -92t146 80.5t50 269.5q0 174 -49.5 246.5t-144.5 72.5
q-71 0 -120.5 -42t-49.5 -97v-438z" />
    <glyph glyph-name="ydieresis" unicode="&#xff;" horiz-adv-x="1179" 
d="M561 1481v-271h-301v271h301zM1001 1481v-271h-303v271h303zM309 -338q-69 0 -123 10t-73 20l-19 11v221l103 -6q53 -3 93.5 3t62 16t36.5 25.5t19.5 26t8.5 21.5q1 3 1 4l12 39l-414 1006h344l228 -633l233 633h340l-420 -1030q-37 -89 -77 -154.5t-79.5 -106
t-85.5 -64.5t-90.5 -33t-99.5 -9z" />
    <glyph glyph-name="Amacron" unicode="&#x100;" horiz-adv-x="1488" 
d="M1155 1896v-217h-768v217h768zM37 0l528 1481h361l528 -1481h-346l-111 315h-499l-111 -315h-350zM573 616h345l-170 531z" />
    <glyph glyph-name="amacron" unicode="&#x101;" horiz-adv-x="1171" 
d="M981 1475v-218h-768v218h768zM430 -20q-158 0 -260 87t-102 242q0 361 553 361l106 2v53q0 63 -37 95t-108 30q-62 -2 -114 -29t-73 -84h-286q9 168 143.5 255t345.5 87q247 0 355 -86.5t108 -244.5v-748h-289l-31 174q-49 -108 -123 -151t-188 -43zM549 205
q70 0 123 45.5t55 105.5v144h-86q-59 0 -111 -13t-92.5 -49.5t-40.5 -91.5q0 -65 44 -103t108 -38z" />
    <glyph glyph-name="Abreve" unicode="&#x102;" horiz-adv-x="1488" 
d="M1153 1903q-39 -133 -142 -206t-239 -73t-240 72t-141 207h197q28 -50 77.5 -83.5t106.5 -33.5q52 0 104 33.5t78 83.5h199zM37 0l528 1481h361l528 -1481h-346l-111 315h-499l-111 -315h-350zM573 616h345l-170 531z" />
    <glyph glyph-name="abreve" unicode="&#x103;" horiz-adv-x="1171" 
d="M979 1481q-39 -133 -142 -206t-239 -73t-240 72t-141 207h197q28 -50 77.5 -83.5t106.5 -33.5q52 0 104 33.5t78 83.5h199zM430 -20q-158 0 -260 87t-102 242q0 361 553 361l106 2v53q0 63 -37 95t-108 30q-62 -2 -114 -29t-73 -84h-286q9 168 143.5 255t345.5 87
q247 0 355 -86.5t108 -244.5v-748h-289l-31 174q-49 -108 -123 -151t-188 -43zM549 205q70 0 123 45.5t55 105.5v144h-86q-59 0 -111 -13t-92.5 -49.5t-40.5 -91.5q0 -65 44 -103t108 -38z" />
    <glyph glyph-name="Aogonek" unicode="&#x104;" horiz-adv-x="1488" 
d="M1485 -162q35 18 35 -18v-94q0 -21 -21 -33q-29 -16 -86 -28.5t-121 -12.5q-109 0 -170 43.5t-61 128.5q0 55 33.5 97t124.5 79h-111l-111 315h-499l-111 -315h-350l528 1481h361l524 -1473h43q-106 -37 -147 -68.5t-41 -70.5q0 -62 65 -62q51 0 115 31zM573 616h345
l-170 531z" />
    <glyph glyph-name="aogonek" unicode="&#x105;" horiz-adv-x="1171" 
d="M1042 -160q35 18 35 -18v-94q0 -22 -20 -33q-29 -16 -86 -28.5t-121 -12.5q-110 0 -171 43.5t-61 128.5q0 54 33 96.5t121 77.5l-31 174q-49 -108 -123 -151t-188 -43q-158 0 -260 87t-102 242q0 361 553 361l106 2v53q0 63 -37 95t-108 30q-62 -2 -114 -29t-73 -84h-286
q9 168 143.5 255t345.5 87q247 0 355 -86.5t108 -244.5v-748h-39q-90 -34 -125 -63.5t-35 -65.5q0 -61 66 -61q52 0 114 30zM727 356v144h-86q-59 0 -111 -13t-92.5 -49.5t-40.5 -91.5q0 -65 44 -103t108 -38q70 0 123 45.5t55 105.5z" />
    <glyph glyph-name="Cacute" unicode="&#x106;" horiz-adv-x="1505" 
d="M1020 1925l74 -217l-555 -139l-47 143zM788 1501q256 0 429 -145.5t196 -374.5l-364 -2q-19 112 -88 176t-183 64q-295 0 -295 -467q0 -251 78 -370.5t219 -119.5q106 0 177 74t92 190l364 -4q-12 -93 -37 -169.5t-73 -147.5t-115 -119t-168 -77t-229 -29
q-207 0 -364.5 99t-242 275t-84.5 402q0 343 185.5 544t502.5 201z" />
    <glyph glyph-name="cacute" unicode="&#x107;" horiz-adv-x="1114" 
d="M815 1503l76 -217l-555 -139l-49 143zM586 1079q136 0 239 -59t156.5 -155t58.5 -216h-284q-13 69 -53.5 119.5t-112.5 50.5q-94 0 -148.5 -76t-54.5 -215q0 -141 57.5 -223t151.5 -82q37 0 68 17t49.5 44t29.5 53.5t15 51.5h278q-6 -174 -129 -291.5t-321 -117.5
q-226 0 -374.5 151.5t-148.5 392.5q0 245 147.5 400t375.5 155z" />
    <glyph glyph-name="Ccircumflex" unicode="&#x108;" horiz-adv-x="1505" 
d="M922 1626l-131 160l-148 -160h-246l277 293h237l271 -293h-260zM788 1501q256 0 429 -145.5t196 -374.5l-364 -2q-19 112 -88 176t-183 64q-295 0 -295 -467q0 -251 78 -370.5t219 -119.5q106 0 177 74t92 190l364 -4q-12 -93 -37 -169.5t-73 -147.5t-115 -119t-168 -77
t-229 -29q-207 0 -364.5 99t-242 275t-84.5 402q0 343 185.5 544t502.5 201z" />
    <glyph glyph-name="ccircumflex" unicode="&#x109;" horiz-adv-x="1114" 
d="M715 1204l-131 160l-148 -160h-246l277 293h238l270 -293h-260zM586 1079q136 0 239 -59t156.5 -155t58.5 -216h-284q-13 69 -53.5 119.5t-112.5 50.5q-94 0 -148.5 -76t-54.5 -215q0 -141 57.5 -223t151.5 -82q37 0 68 17t49.5 44t29.5 53.5t15 51.5h278
q-6 -174 -129 -291.5t-321 -117.5q-226 0 -374.5 151.5t-148.5 392.5q0 245 147.5 400t375.5 155z" />
    <glyph glyph-name="Cdotaccent" unicode="&#x10a;" horiz-adv-x="1505" 
d="M969 1903v-312h-353v312h353zM788 1501q256 0 429 -145.5t196 -374.5l-364 -2q-19 112 -88 176t-183 64q-295 0 -295 -467q0 -251 78 -370.5t219 -119.5q106 0 177 74t92 190l364 -4q-12 -93 -37 -169.5t-73 -147.5t-115 -119t-168 -77t-229 -29q-207 0 -364.5 99
t-242 275t-84.5 402q0 343 185.5 544t502.5 201z" />
    <glyph glyph-name="cdotaccent" unicode="&#x10b;" horiz-adv-x="1114" 
d="M764 1481v-312h-352v312h352zM586 1079q136 0 239 -59t156.5 -155t58.5 -216h-284q-13 69 -53.5 119.5t-112.5 50.5q-94 0 -148.5 -76t-54.5 -215q0 -141 57.5 -223t151.5 -82q37 0 68 17t49.5 44t29.5 53.5t15 51.5h278q-6 -174 -129 -291.5t-321 -117.5
q-226 0 -374.5 151.5t-148.5 392.5q0 245 147.5 400t375.5 155z" />
    <glyph glyph-name="Ccaron" unicode="&#x10c;" horiz-adv-x="1505" 
d="M922 1905h260l-271 -297h-239l-275 297h246l148 -162zM788 1501q256 0 429 -145.5t196 -374.5l-364 -2q-19 112 -88 176t-183 64q-295 0 -295 -467q0 -251 78 -370.5t219 -119.5q106 0 177 74t92 190l364 -4q-12 -93 -37 -169.5t-73 -147.5t-115 -119t-168 -77t-229 -29
q-207 0 -364.5 99t-242 275t-84.5 402q0 343 185.5 544t502.5 201z" />
    <glyph glyph-name="ccaron" unicode="&#x10d;" horiz-adv-x="1114" 
d="M715 1483h260l-268 -297h-242l-275 297h246l148 -162zM586 1079q136 0 239 -59t156.5 -155t58.5 -216h-284q-13 69 -53.5 119.5t-112.5 50.5q-94 0 -148.5 -76t-54.5 -215q0 -141 57.5 -223t151.5 -82q37 0 68 17t49.5 44t29.5 53.5t15 51.5h278q-6 -174 -129 -291.5
t-321 -117.5q-226 0 -374.5 151.5t-148.5 392.5q0 245 147.5 400t375.5 155z" />
    <glyph glyph-name="Dcaron" unicode="&#x10e;" horiz-adv-x="1499" 
d="M879 1905h260l-271 -297h-239l-275 297h246l148 -162zM154 1481q424 0 489 -2q390 -12 578 -204.5t188 -529.5q0 -169 -47.5 -304.5t-141 -234.5t-241.5 -152.5t-342 -53.5h-483v1481zM506 1204v-925h139q63 0 119.5 15.5t108.5 51t89.5 89t59.5 134t22 181.5
q0 227 -105 340.5t-292 113.5h-141z" />
    <glyph glyph-name="dcaron" unicode="&#x10f;" horiz-adv-x="1234" 
d="M1192 1124q22 0 22 -22v-223q0 -5 -2 -12l-2 -7l-75 -176q-5 -10 -7 -12v-672h-249l-39 215q-82 -235 -326 -235q-214 0 -332.5 147.5t-118.5 404.5q0 253 111 400t307 147q203 0 299 -139v582h348v-398h64zM780 467v156q-21 206 -184 206q-195 0 -195 -292
q0 -162 53.5 -236t143.5 -74q80 0 131 63.5t51 176.5z" />
    <glyph glyph-name="Dcroat" unicode="&#x110;" horiz-adv-x="1572" 
d="M715 1479q390 -12 579 -204.5t189 -529.5q0 -169 -47.5 -304.5t-141 -234.5t-242.5 -152.5t-343 -53.5h-482v604h-108q-28 0 -38.5 10t-10.5 35v164q0 41 34 41h123v627q425 0 488 -2zM719 279q63 0 119.5 15.5t108.5 51t89.5 89t59.5 134t22 181.5q0 227 -105 340.5
t-292 113.5h-143v-350h243q15 0 24 -10t9 -25v-164q0 -29 -13.5 -40t-45.5 -11h-217v-325h141z" />
    <glyph glyph-name="dcroat" unicode="&#x111;" horiz-adv-x="1259" 
d="M1180 1364v-190h-52v-1174h-249l-39 215q-82 -235 -326 -235q-214 0 -332.5 147.5t-118.5 404.5q0 253 111 400t307 147q203 0 299 -139v234h-315v190h315v158h348v-158h52zM780 467v156q-21 206 -184 206q-195 0 -195 -292q0 -162 53.5 -236t143.5 -74q80 0 131 63.5
t51 176.5z" />
    <glyph glyph-name="Emacron" unicode="&#x112;" horiz-adv-x="1333" 
d="M1071 1896v-217h-768v217h768zM154 0v1481h1056l-2 -291h-702v-303h600v-285h-602v-309h713v-293h-1063z" />
    <glyph glyph-name="emacron" unicode="&#x113;" 
d="M975 1475v-218h-768v218h768zM408 449q-1 -106 49.5 -164t138.5 -58q143 0 190 121h312q-18 -112 -93 -197t-180 -128t-221 -43q-243 0 -392 146.5t-149 389.5q0 157 61.5 283.5t183 203t282.5 76.5q243 0 374.5 -149t131.5 -393v-88h-688zM406 649h366q0 82 -47.5 136.5
t-134.5 54.5q-80 0 -132 -57t-52 -134z" />
    <glyph glyph-name="Ebreve" unicode="&#x114;" horiz-adv-x="1333" 
d="M1069 1903q-39 -133 -142 -206t-239 -73t-240 72t-141 207h197q28 -50 77.5 -83.5t106.5 -33.5q52 0 104 33.5t78 83.5h199zM154 0v1481h1056l-2 -291h-702v-303h600v-285h-602v-309h713v-293h-1063z" />
    <glyph glyph-name="ebreve" unicode="&#x115;" 
d="M973 1481q-39 -133 -142 -206t-239 -73t-239.5 72t-141.5 207h197q28 -50 77.5 -83.5t106.5 -33.5q52 0 104 33.5t78 83.5h199zM408 449q-1 -106 49.5 -164t138.5 -58q143 0 190 121h312q-18 -112 -93 -197t-180 -128t-221 -43q-243 0 -392 146.5t-149 389.5
q0 157 61.5 283.5t183 203t282.5 76.5q243 0 374.5 -149t131.5 -393v-88h-688zM406 649h366q0 82 -47.5 136.5t-134.5 54.5q-80 0 -132 -57t-52 -134z" />
    <glyph glyph-name="Edotaccent" unicode="&#x116;" horiz-adv-x="1333" 
d="M864 1903v-312h-352v312h352zM154 0v1481h1056l-2 -291h-702v-303h600v-285h-602v-309h713v-293h-1063z" />
    <glyph glyph-name="edotaccent" unicode="&#x117;" 
d="M768 1481v-312h-352v312h352zM408 449q-1 -106 49.5 -164t138.5 -58q143 0 190 121h312q-18 -112 -93 -197t-180 -128t-221 -43q-243 0 -392 146.5t-149 389.5q0 157 61.5 283.5t183 203t282.5 76.5q243 0 374.5 -149t131.5 -393v-88h-688zM406 649h366q0 82 -47.5 136.5
t-134.5 54.5q-80 0 -132 -57t-52 -134z" />
    <glyph glyph-name="Eogonek" unicode="&#x118;" horiz-adv-x="1333" 
d="M1243 -160q35 18 35 -18v-94q0 -21 -21 -33q-29 -16 -86 -28.5t-120 -12.5q-110 0 -171 43.5t-61 128.5q0 54 33 96.5t121 77.5h-819v1481h1056l-2 -291h-702v-303h600v-285h-602v-309h713v-283h34q-106 -37 -147 -68.5t-41 -70.5q0 -61 65 -61q53 0 115 30z" />
    <glyph glyph-name="eogonek" unicode="&#x119;" 
d="M1098 348q-17 -102 -80.5 -181.5t-157.5 -127.5h21q-105 -37 -146 -69t-41 -70q0 -62 66 -62q50 0 114 31q20 8 26.5 3.5t6.5 -24.5v-94q0 -22 -18 -30q-29 -16 -86 -28.5t-121 -12.5q-110 0 -171.5 43t-61.5 127q0 81 71 131q-208 27 -332.5 169.5t-124.5 362.5
q0 157 61.5 283.5t183 203t282.5 76.5q243 0 374.5 -149t131.5 -393v-88h-688q-1 -106 49.5 -164t138.5 -58q143 0 190 121h312zM590 840q-80 0 -132 -57t-52 -134h366q0 82 -47.5 136.5t-134.5 54.5z" />
    <glyph glyph-name="Ecaron" unicode="&#x11a;" horiz-adv-x="1333" 
d="M817 1905h260l-270 -297h-240l-274 297h246l147 -162zM154 0v1481h1056l-2 -291h-702v-303h600v-285h-602v-309h713v-293h-1063z" />
    <glyph glyph-name="ecaron" unicode="&#x11b;" 
d="M721 1483h258l-268 -297h-240l-276 297h247l148 -162zM408 449q-1 -106 49.5 -164t138.5 -58q143 0 190 121h312q-18 -112 -93 -197t-180 -128t-221 -43q-243 0 -392 146.5t-149 389.5q0 157 61.5 283.5t183 203t282.5 76.5q243 0 374.5 -149t131.5 -393v-88h-688z
M406 649h366q0 82 -47.5 136.5t-134.5 54.5q-80 0 -132 -57t-52 -134z" />
    <glyph glyph-name="Gcircumflex" unicode="&#x11c;" horiz-adv-x="1587" 
d="M918 1626l-132 160l-147 -160h-246l277 293h237l271 -293h-260zM784 -20q-205 0 -360.5 94.5t-239.5 265.5t-84 395q0 346 195.5 556t509.5 210q136 0 254 -44t197.5 -116.5t125.5 -166t48 -193.5l-365 -2q-21 103 -90.5 167t-177.5 64q-141 0 -228.5 -112t-87.5 -350
q0 -109 19.5 -192t50.5 -133.5t75 -82t88.5 -43.5t96.5 -12q100 0 169.5 57.5t82.5 128.5l16 74h-282v237l649 -4v-778h-234v178q-28 -32 -51 -55t-62.5 -52t-81.5 -47t-102.5 -31t-130.5 -13z" />
    <glyph glyph-name="gcircumflex" unicode="&#x11d;" horiz-adv-x="1284" 
d="M752 1204l-131 160l-148 -160h-246l277 293h237l271 -293h-260zM621 -350q-289 0 -443.5 70t-154.5 182q0 33 14.5 62t35 47t48 33.5t48.5 23t41 13.5t21 7q-65 31 -93 59q-46 46 -46 109t58.5 111.5t171.5 66.5q-107 49 -163.5 133.5t-56.5 175.5q0 103 71 179.5
t187.5 114.5t260.5 38q103 0 172 -20t139 -60q18 7 143.5 56.5t186.5 74.5l-2 -256l-183 -28q19 -59 19 -97q0 -69 -32.5 -132t-93 -113.5t-157 -80.5t-215.5 -30q-61 0 -123 4q-65 -5 -65 -31q0 -19 31 -25.5t115 -12.5q20 -1 30 -2q75 -4 215 -13q202 -13 303.5 -97
t101.5 -212q0 -159 -151.5 -254.5t-433.5 -95.5zM608 578q73 0 115.5 42t42.5 113t-43 118.5t-115 47.5q-70 0 -113.5 -47.5t-43.5 -118.5q0 -69 42.5 -112t114.5 -43zM676 -162q112 0 155 22.5t43 69.5q0 42 -37.5 67.5t-107.5 29.5l-217 14q-72 4 -111 -26t-39 -72
q0 -58 75 -81.5t239 -23.5z" />
    <glyph glyph-name="Gbreve" unicode="&#x11e;" horiz-adv-x="1587" 
d="M1169 1903q-39 -133 -142 -206t-239 -73t-239.5 72t-140.5 207h196q28 -50 77.5 -83.5t106.5 -33.5q52 0 104.5 33.5t78.5 83.5h198zM784 -20q-205 0 -360.5 94.5t-239.5 265.5t-84 395q0 346 195.5 556t509.5 210q136 0 254 -44t197.5 -116.5t125.5 -166t48 -193.5
l-365 -2q-21 103 -90.5 167t-177.5 64q-141 0 -228.5 -112t-87.5 -350q0 -109 19.5 -192t50.5 -133.5t75 -82t88.5 -43.5t96.5 -12q100 0 169.5 57.5t82.5 128.5l16 74h-282v237l649 -4v-778h-234v178q-28 -32 -51 -55t-62.5 -52t-81.5 -47t-102.5 -31t-130.5 -13z" />
    <glyph glyph-name="gbreve" unicode="&#x11f;" horiz-adv-x="1284" 
d="M1004 1481q-39 -133 -142 -206t-239 -73t-240 72t-141 207h196q28 -50 78 -83.5t107 -33.5q52 0 104 33.5t78 83.5h199zM621 -350q-289 0 -443.5 70t-154.5 182q0 33 14.5 62t35 47t48 33.5t48.5 23t41 13.5t21 7q-65 31 -93 59q-46 46 -46 109t58.5 111.5t171.5 66.5
q-107 49 -163.5 133.5t-56.5 175.5q0 103 71 179.5t187.5 114.5t260.5 38q103 0 172 -20t139 -60q18 7 143.5 56.5t186.5 74.5l-2 -256l-183 -28q19 -59 19 -97q0 -69 -32.5 -132t-93 -113.5t-157 -80.5t-215.5 -30q-61 0 -123 4q-65 -5 -65 -31q0 -19 31 -25.5t115 -12.5
q20 -1 30 -2q75 -4 215 -13q202 -13 303.5 -97t101.5 -212q0 -159 -151.5 -254.5t-433.5 -95.5zM608 578q73 0 115.5 42t42.5 113t-43 118.5t-115 47.5q-70 0 -113.5 -47.5t-43.5 -118.5q0 -69 42.5 -112t114.5 -43zM676 -162q112 0 155 22.5t43 69.5q0 42 -37.5 67.5
t-107.5 29.5l-217 14q-72 4 -111 -26t-39 -72q0 -58 75 -81.5t239 -23.5z" />
    <glyph glyph-name="Gdotaccent" unicode="&#x120;" horiz-adv-x="1587" 
d="M965 1903v-312h-353v312h353zM784 -20q-205 0 -360.5 94.5t-239.5 265.5t-84 395q0 346 195.5 556t509.5 210q136 0 254 -44t197.5 -116.5t125.5 -166t48 -193.5l-365 -2q-21 103 -90.5 167t-177.5 64q-141 0 -228.5 -112t-87.5 -350q0 -109 19.5 -192t50.5 -133.5
t75 -82t88.5 -43.5t96.5 -12q100 0 169.5 57.5t82.5 128.5l16 74h-282v237l649 -4v-778h-234v178q-28 -32 -51 -55t-62.5 -52t-81.5 -47t-102.5 -31t-130.5 -13z" />
    <glyph glyph-name="gdotaccent" unicode="&#x121;" horiz-adv-x="1284" 
d="M801 1481v-312h-352v312h352zM621 -350q-289 0 -443.5 70t-154.5 182q0 33 14.5 62t35 47t48 33.5t48.5 23t41 13.5t21 7q-65 31 -93 59q-46 46 -46 109t58.5 111.5t171.5 66.5q-107 49 -163.5 133.5t-56.5 175.5q0 103 71 179.5t187.5 114.5t260.5 38q103 0 172 -20
t139 -60q18 7 143.5 56.5t186.5 74.5l-2 -256l-183 -28q19 -59 19 -97q0 -69 -32.5 -132t-93 -113.5t-157 -80.5t-215.5 -30q-61 0 -123 4q-65 -5 -65 -31q0 -19 31 -25.5t115 -12.5q20 -1 30 -2q75 -4 215 -13q202 -13 303.5 -97t101.5 -212q0 -159 -151.5 -254.5
t-433.5 -95.5zM608 578q73 0 115.5 42t42.5 113t-43 118.5t-115 47.5q-70 0 -113.5 -47.5t-43.5 -118.5q0 -69 42.5 -112t114.5 -43zM676 -162q112 0 155 22.5t43 69.5q0 42 -37.5 67.5t-107.5 29.5l-217 14q-72 4 -111 -26t-39 -72q0 -58 75 -81.5t239 -23.5z" />
    <glyph glyph-name="uni0122" unicode="&#x122;" horiz-adv-x="1587" 
d="M784 -20q-205 0 -360.5 94.5t-239.5 265.5t-84 395q0 346 195.5 556t509.5 210q136 0 254 -44t197.5 -116.5t125.5 -166t48 -193.5l-365 -2q-21 103 -90.5 167t-177.5 64q-141 0 -228.5 -112t-87.5 -350q0 -109 19.5 -192t50.5 -133.5t75 -82t88.5 -43.5t96.5 -12
q100 0 169.5 57.5t82.5 128.5l16 74h-282v237l649 -4v-778h-234v178q-28 -32 -51 -55t-62.5 -52t-81.5 -47t-102.5 -31t-130.5 -13zM705 -487q-14 0 -21 12t0 24l64 93q13 19 7.5 35t-24.5 16h-18q-23 0 -31 8.5t-8 30.5v125q0 34 31 34h172q30 0 30 -28v-170q0 -1 -8 -25
l-98 -131q-12 -15 -24.5 -19.5t-37.5 -4.5h-34z" />
    <glyph glyph-name="uni0123" unicode="&#x123;" horiz-adv-x="1284" 
d="M449 1206v213l126 166h123l-127 -180h113v-199h-235zM621 -350q-289 0 -443.5 70t-154.5 182q0 33 14.5 62t35 47t48 33.5t48.5 23t41 13.5t21 7q-65 31 -93 59q-46 46 -46 109t58.5 111.5t171.5 66.5q-107 49 -163.5 133.5t-56.5 175.5q0 103 71 179.5t187.5 114.5
t260.5 38q103 0 172 -20t139 -60q18 7 143.5 56.5t186.5 74.5l-2 -256l-183 -28q19 -59 19 -97q0 -69 -32.5 -132t-93 -113.5t-157 -80.5t-215.5 -30q-61 0 -123 4q-65 -5 -65 -31q0 -19 31 -25.5t115 -12.5q20 -1 30 -2q75 -4 215 -13q202 -13 303.5 -97t101.5 -212
q0 -159 -151.5 -254.5t-433.5 -95.5zM608 578q73 0 115.5 42t42.5 113t-43 118.5t-115 47.5q-70 0 -113.5 -47.5t-43.5 -118.5q0 -69 42.5 -112t114.5 -43zM676 -162q112 0 155 22.5t43 69.5q0 42 -37.5 67.5t-107.5 29.5l-217 14q-72 4 -111 -26t-39 -72q0 -58 75 -81.5
t239 -23.5z" />
    <glyph glyph-name="Hcircumflex" unicode="&#x124;" horiz-adv-x="1511" 
d="M883 1626l-131 160l-148 -160h-246l277 293h237l271 -293h-260zM1010 614h-506v-614h-350v1481h350v-578h506v578h350v-1481h-350v614z" />
    <glyph glyph-name="hcircumflex" unicode="&#x125;" horiz-adv-x="1232" 
d="M117 0v1522h348v-598q45 63 111 101t180 38q154 0 262 -96t108 -246v-721h-350v676q0 54 -44.5 87.5t-106.5 33.5t-111 -35.5t-49 -91.5v-670h-348zM997 1204l-131 160l-147 -160h-246l277 293h237l270 -293h-260z" />
    <glyph glyph-name="Hbar" unicode="&#x126;" horiz-adv-x="1622" 
d="M1554 1303q31 0 31 -35v-109q0 -23 -12.5 -33t-40.5 -10h-90v-1116h-350v614h-506v-614h-350v1116h-175q-23 0 -32 9.5t-9 31.5v109q0 37 29 37h187v178h350v-178h506v178h350v-178h112zM1092 903v213h-506v-213h506z" />
    <glyph glyph-name="hbar" unicode="&#x127;" horiz-adv-x="1304" 
d="M827 1063q155 0 263 -96t108 -246v-721h-350v676q0 54 -45 87.5t-107 33.5q-63 0 -111 -35.5t-48 -91.5v-670h-351v1174h-141v190h141v158h351v-158h223v-190h-223v-250q21 29 43 51t56 43.5t82.5 33t108.5 11.5z" />
    <glyph glyph-name="Itilde" unicode="&#x128;" horiz-adv-x="657" 
d="M682 1714q-74 -55 -190 -55q-59 0 -156.5 29.5t-151.5 29.5q-42 0 -71.5 -11t-65.5 -38q-33 -23 -43 14l-31 97q-6 12 -4 25t19 30q43 37 84 56.5t102 19.5q64 0 169 -32t149 -32q74 0 145 51q13 10 27 7t18 -21l25 -117q9 -29 -25 -53zM154 1481h350v-1481h-350v1481z
" />
    <glyph glyph-name="itilde" unicode="&#x129;" horiz-adv-x="577" 
d="M649 1292q-74 -55 -190 -55q-59 0 -156 29.5t-151 29.5q-42 0 -72 -11t-66 -38q-33 -23 -43 15l-30 96q-6 12 -4.5 25t18.5 30q43 37 84 56.5t102 19.5q64 0 169 -32t149 -32q72 0 145 52q13 10 27 6.5t18 -21.5l25 -116q9 -30 -25 -54zM467 1059v-1059h-348v1059h348z
" />
    <glyph glyph-name="Imacron" unicode="&#x12a;" horiz-adv-x="657" 
d="M715 1896v-217h-768v217h768zM154 1481h350v-1481h-350v1481z" />
    <glyph glyph-name="imacron" unicode="&#x12b;" horiz-adv-x="577" 
d="M682 1475v-218h-768v218h768zM467 1059v-1059h-348v1059h348z" />
    <glyph glyph-name="Ibreve" unicode="&#x12c;" horiz-adv-x="657" 
d="M713 1903q-39 -133 -142 -206t-239 -73t-240 72t-141 207h196q28 -50 78 -83.5t107 -33.5q52 0 104 33.5t78 83.5h199zM154 1481h350v-1481h-350v1481z" />
    <glyph glyph-name="ibreve" unicode="&#x12d;" horiz-adv-x="577" 
d="M680 1481q-39 -133 -142 -206t-239 -73t-240 72t-141 207h197q28 -50 77.5 -83.5t106.5 -33.5q52 0 104 33.5t78 83.5h199zM467 1059v-1059h-348v1059h348z" />
    <glyph glyph-name="Iogonek" unicode="&#x12e;" horiz-adv-x="657" 
d="M492 -172q20 9 27 4.5t7 -22.5v-95q0 -21 -20 -32q-29 -16 -86 -28.5t-121 -12.5q-109 0 -170 43.5t-61 128.5q0 59 39 103.5t145 82.5h-98v1481h350v-1481h-125l121 -2q-106 -37 -147.5 -69t-41.5 -70q0 -62 66 -62q51 0 115 31z" />
    <glyph glyph-name="iogonek" unicode="&#x12f;" horiz-adv-x="577" 
d="M477 1481v-312h-352v312h352zM449 -162q20 9 27 4.5t7 -22.5v-94q0 -22 -20 -33q-29 -16 -86 -28.5t-121 -12.5q-109 0 -170 43.5t-61 128.5q0 55 33.5 97t123.5 79h-63v1059h348v-1059h-33q-93 -34 -129.5 -64t-36.5 -67q0 -62 66 -62q51 0 115 31z" />
    <glyph glyph-name="Idotaccent" unicode="&#x130;" horiz-adv-x="657" 
d="M510 1903v-312h-352v312h352zM154 1481h350v-1481h-350v1481z" />
    <glyph glyph-name="dotlessi" unicode="&#x131;" horiz-adv-x="577" 
d="M467 1059v-1059h-348v1059h348z" />
    <glyph glyph-name="IJ" unicode="&#x132;" horiz-adv-x="1509" 
d="M154 1481h350v-1481h-350v1481zM1380 440q0 -96 -10.5 -165.5t-37.5 -127.5t-73.5 -93.5t-117.5 -54.5t-170 -19q-143 0 -262 26l4 316q6 -1 37.5 -7t55.5 -9t48 -3q101 0 138.5 52t37.5 175v951h350v-1041z" />
    <glyph glyph-name="ij" unicode="&#x133;" horiz-adv-x="1169" 
d="M512 1522v-314h-352v314h352zM1090 1522v-314h-355v314h355zM510 1059v-1059h-348v1059h348zM1087 33q0 -188 -95 -280.5t-294 -92.5q-47 0 -81 8t-44 16l-10 9l-2 231l72 10q59 10 81.5 33t22.5 68v1024h350v-1026z" />
    <glyph glyph-name="Jcircumflex" unicode="&#x134;" horiz-adv-x="851" 
d="M592 1626l-131 160l-148 -160h-245l276 293h238l270 -293h-260zM723 440q0 -121 -17.5 -201.5t-62.5 -141.5t-126 -89t-204 -28q-143 0 -262 26l4 316q5 -1 37.5 -7t56.5 -9t48 -3q101 0 138.5 52t37.5 175v951h350v-1041z" />
    <glyph glyph-name="jcircumflex" unicode="&#x135;" horiz-adv-x="628" 
d="M436 1204l-131 160l-147 -160h-246l276 293h238l270 -293h-260zM481 33q0 -188 -95 -280.5t-294 -92.5q-49 0 -82 8t-42 14.5t-9 10.5l-2 231l70 10q59 10 82.5 33.5t23.5 67.5v1024h348v-1026z" />
    <glyph glyph-name="uni0136" unicode="&#x136;" horiz-adv-x="1507" 
d="M1456 0h-377l-360 657l-203 -251v-406h-362v1481h362v-639l485 639h396l-428 -568zM645 -487q-14 0 -20.5 12t0.5 24l63 93q13 19 8 35t-24 16h-19q-23 0 -31 8.5t-8 30.5v125q0 34 31 34h172q31 0 31 -28v-170q0 -1 -8 -25l-99 -131q-12 -15 -24 -19.5t-37 -4.5h-35z
" />
    <glyph glyph-name="uni0137" unicode="&#x137;" horiz-adv-x="1210" 
d="M1182 0h-342l-265 424l-110 -121v-303h-348v1522h348v-879l360 416h349l-386 -430zM524 -487q-14 0 -20.5 12t0.5 24l63 93q13 19 8 35t-24 16h-19q-23 0 -30.5 8.5t-7.5 30.5v125q0 34 30 34h172q31 0 31 -28v-170q0 -1 -8 -25l-98 -131q-12 -15 -24.5 -19.5t-37.5 -4.5
h-35z" />
    <glyph glyph-name="kgreenlandic" unicode="&#x138;" horiz-adv-x="1263" 
d="M1235 0h-395l-211 459l-164 -156v-303h-348v1059h348v-434l393 434h346l-346 -348z" />
    <glyph glyph-name="Lacute" unicode="&#x139;" horiz-adv-x="1177" 
d="M543 1925l73 -217l-555 -139l-47 143zM154 1481h352v-1190h616v-291h-968v1481z" />
    <glyph glyph-name="lacute" unicode="&#x13a;" horiz-adv-x="690" 
d="M528 2011l76 -219l-557 -139l-47 143zM487 -20q-73 0 -131 10.5t-96.5 27t-66 43.5t-42 52.5t-22.5 62.5t-10 65t-2 68v1213h342v-1170q0 -54 25.5 -86.5t93.5 -40.5l47 -4v-213q-75 -28 -138 -28z" />
    <glyph glyph-name="uni013B" unicode="&#x13b;" horiz-adv-x="1177" 
d="M154 1481h352v-1190h616v-291h-968v1481zM547 -487q-14 0 -21 12t0 24l64 93q13 19 7.5 35t-24.5 16h-18q-23 0 -31 8.5t-8 30.5v125q0 34 31 34h172q31 0 31 -28v-170q0 -4 -1.5 -9t-4 -9.5t-3.5 -6.5l-98 -131q-12 -15 -24 -19.5t-37 -4.5h-35z" />
    <glyph glyph-name="uni013C" unicode="&#x13c;" horiz-adv-x="690" 
d="M487 -20q-73 0 -131 10.5t-96.5 27t-66 43.5t-42 52.5t-22.5 62.5t-10 65t-2 68v1213h342v-1170q0 -54 25.5 -86.5t93.5 -40.5l47 -4v-213q-75 -28 -138 -28zM190 -487q-15 0 -21.5 12t-0.5 24l65 93q13 19 7.5 35t-23.5 16h-18q-23 0 -32 8.5t-9 30.5v125q0 34 30 34
h174q29 0 29 -28v-170q0 -7 -6 -25l-100 -131q-10 -15 -22.5 -19.5t-37.5 -4.5h-35z" />
    <glyph glyph-name="Lcaron" unicode="&#x13d;" horiz-adv-x="1177" 
d="M154 1481h352v-1190h616v-291h-968v1481zM799 1012q-11 0 -16 9t-1 19l62 152q7 19 4 27.5t-19 11.5l-20 4q-19 2 -26 8t-7 21v188q0 29 25 29h178q22 0 22 -23v-223q0 -5 -2 -11l-2 -7l-75 -177q-8 -28 -56 -28h-67z" />
    <glyph glyph-name="lcaron" unicode="&#x13e;" horiz-adv-x="679" 
d="M575 1083q-10 0 -15.5 9t-0.5 20l62 152q7 19 4 27.5t-19 11.5l-20 4q-19 2 -26 7.5t-7 20.5v189q0 28 25 28h178q22 0 22 -22v-223q0 -5 -2 -12l-2 -7l-76 -176q-9 -29 -55 -29h-68zM487 -20q-73 0 -131 10.5t-96.5 27t-66 43.5t-42 52.5t-22.5 62.5t-10 65t-2 68v1213
h342v-1170q0 -54 25.5 -86.5t93.5 -40.5l47 -4v-213q-75 -28 -138 -28z" />
    <glyph glyph-name="Ldot" unicode="&#x13f;" horiz-adv-x="1271" 
d="M154 1481h352v-1190h616v-291h-968v1481zM1194 989v-323h-338v323h338z" />
    <glyph glyph-name="ldot" unicode="&#x140;" horiz-adv-x="917" 
d="M487 -20q-73 0 -131 10.5t-96.5 27t-66 43.5t-42 52.5t-22.5 62.5t-10 65t-2 68v1213h342v-1170q0 -54 25.5 -86.5t93.5 -40.5l47 -4v-213q-75 -28 -138 -28zM940 735v-325h-338v325h338z" />
    <glyph glyph-name="Lslash" unicode="&#x141;" horiz-adv-x="1216" 
d="M545 291h616v-291h-968v616l-134 -36q-25 -7 -35 0t-10 30v209q0 20 8 29t27 14l144 39v580h352v-486l272 72q45 12 45 -33v-198q0 -31 -37 -43l-280 -78v-424z" />
    <glyph glyph-name="lslash" unicode="&#x142;" horiz-adv-x="765" 
d="M717 225l47 -4v-213q-79 -28 -137 -28q-73 0 -131 10.5t-96.5 27t-66 43.5t-42.5 52.5t-23 62.5t-10 65t-2 68v119l-188 -129v295l188 125v803h342v-576l90 60v-279l-90 -61v-314q0 -54 25.5 -86.5t93.5 -40.5z" />
    <glyph glyph-name="Nacute" unicode="&#x143;" horiz-adv-x="1632" 
d="M1051 1925l73 -217l-555 -139l-47 143zM1130 1481h349v-1481h-314l-661 950v-950h-350v1481h350l626 -903v903z" />
    <glyph glyph-name="nacute" unicode="&#x144;" horiz-adv-x="1232" 
d="M854 1503l74 -217l-555 -139l-47 143zM117 0v1059h344v-131q29 33 51 53t57 41.5t82 32t107 10.5q146 0 258 -101t112 -253v-711h-350v666q0 59 -44 95t-105 36q-64 0 -114 -33.5t-50 -89.5v-674h-348z" />
    <glyph glyph-name="uni0145" unicode="&#x145;" horiz-adv-x="1632" 
d="M1130 1481h349v-1481h-314l-661 950v-950h-350v1481h350l626 -903v903zM723 -487q-14 0 -21 12t0 24l64 93q13 19 8 35t-24 16h-19q-23 0 -31 8.5t-8 30.5v125q0 34 31 34h172q31 0 31 -28v-170q0 -1 -8 -25l-99 -131q-12 -15 -24 -19.5t-37 -4.5h-35z" />
    <glyph glyph-name="uni0146" unicode="&#x146;" horiz-adv-x="1232" 
d="M117 0v1059h344v-131q29 33 51 53t57 41.5t82 32t107 10.5q146 0 258 -101t112 -253v-711h-350v666q0 59 -44 95t-105 36q-64 0 -114 -33.5t-50 -89.5v-674h-348zM537 -487q-14 0 -21 12t0 24l64 93q13 19 7.5 35t-24.5 16h-18q-23 0 -31 8.5t-8 30.5v125q0 34 31 34h172
q30 0 30 -28v-170q0 -1 -8 -25l-98 -131q-12 -15 -24.5 -19.5t-37.5 -4.5h-34z" />
    <glyph glyph-name="Ncaron" unicode="&#x147;" horiz-adv-x="1632" 
d="M950 1905h260l-270 -297h-240l-274 297h246l147 -162zM1130 1481h349v-1481h-314l-661 950v-950h-350v1481h350l626 -903v903z" />
    <glyph glyph-name="ncaron" unicode="&#x148;" horiz-adv-x="1232" 
d="M754 1483h260l-271 -297h-239l-275 297h246l148 -162zM117 0v1059h344v-131q29 33 51 53t57 41.5t82 32t107 10.5q146 0 258 -101t112 -253v-711h-350v666q0 59 -44 95t-105 36q-64 0 -114 -33.5t-50 -89.5v-674h-348z" />
    <glyph glyph-name="napostrophe" unicode="&#x149;" horiz-adv-x="1497" 
d="M115 899q-11 0 -16.5 9.5t-2.5 19.5l62 217q11 34 -13 39l-20 4q-19 0 -27 7t-8 24v233q0 29 27 29h180q22 0 22 -23v-270q0 -15 -4 -19l-75 -241q-9 -29 -54 -29h-71zM379 0v1059h344v-131q32 34 52.5 53t56 41.5t82 32.5t106.5 10q95 0 179.5 -44t138 -126.5
t53.5 -183.5v-711h-351v666q0 60 -43.5 95.5t-105.5 35.5q-63 0 -112.5 -34t-49.5 -89v-674h-350z" />
    <glyph glyph-name="Eng" unicode="&#x14a;" horiz-adv-x="1579" 
d="M1399 1481q28 0 28 -31v-1384q0 -219 -107 -317.5t-325 -98.5q-111 0 -245 24q-30 6 -42.5 23.5t-11.5 52.5l17 201q3 46 43 41q94 -17 123 -17q75 0 115.5 37.5t41.5 122.5v33l-536 684q-5 8 -9.5 10t-7 -1.5t-2.5 -10.5v-811q1 -20 -9.5 -29.5t-35.5 -9.5h-235
q-47 0 -47 37v1403q0 23 10 32t31 9h282q22 0 33.5 -5.5t28.5 -25.5l536 -694q9 -10 16 -13t11 2.5t4 18.5v680q0 37 41 37h252z" />
    <glyph glyph-name="eng" unicode="&#x14b;" horiz-adv-x="1251" 
d="M750 -340q-51 0 -82.5 6.5t-38 11t-6.5 7.5v241l59 6q52 6 75 28t23 69v678q0 57 -33.5 89.5t-95.5 32.5q-105 0 -182 -114v-715h-352l4 1059h342v-166q168 186 352 186q141 0 227 -87t86 -232v-725q0 -172 -103.5 -273.5t-274.5 -101.5z" />
    <glyph glyph-name="Omacron" unicode="&#x14c;" horiz-adv-x="1599" 
d="M1184 1896v-217h-768v217h768zM801 -20q-323 0 -512 203.5t-189 553.5t191.5 557t509.5 207t508 -207t190 -557q0 -349 -188.5 -553t-509.5 -204zM803 262q149 0 233 112.5t84 356.5q0 252 -84.5 370t-234.5 118q-149 0 -234.5 -118.5t-85.5 -369.5q0 -244 85.5 -356.5
t236.5 -112.5z" />
    <glyph glyph-name="omacron" unicode="&#x14d;" 
d="M973 1475v-218h-768v218h768zM586 -20q-239 0 -382 150.5t-143 391.5q0 248 146.5 402.5t380.5 154.5q240 0 382 -155.5t142 -401.5q0 -240 -143 -391t-383 -151zM588 236q52 0 89.5 26.5t57 71.5t28.5 94.5t9 106.5t-9 106t-28.5 92.5t-57 68.5t-89.5 25q-53 0 -91 -25
t-58 -68.5t-29 -92.5t-9 -106t9 -106.5t29 -94.5t58 -71.5t91 -26.5z" />
    <glyph glyph-name="Obreve" unicode="&#x14e;" horiz-adv-x="1599" 
d="M1182 1903q-39 -133 -142 -206t-239 -73t-240 72t-141 207h196q28 -50 78 -83.5t107 -33.5q52 0 104 33.5t78 83.5h199zM801 -20q-323 0 -512 203.5t-189 553.5t191.5 557t509.5 207t508 -207t190 -557q0 -349 -188.5 -553t-509.5 -204zM803 262q149 0 233 112.5
t84 356.5q0 252 -84.5 370t-234.5 118q-149 0 -234.5 -118.5t-85.5 -369.5q0 -244 85.5 -356.5t236.5 -112.5z" />
    <glyph glyph-name="obreve" unicode="&#x14f;" 
d="M971 1481q-39 -133 -142 -206t-239 -73t-240 72t-141 207h197q28 -50 77.5 -83.5t106.5 -33.5q52 0 104 33.5t78 83.5h199zM586 -20q-239 0 -382 150.5t-143 391.5q0 248 146.5 402.5t380.5 154.5q240 0 382 -155.5t142 -401.5q0 -240 -143 -391t-383 -151zM588 236
q52 0 89.5 26.5t57 71.5t28.5 94.5t9 106.5t-9 106t-28.5 92.5t-57 68.5t-89.5 25q-53 0 -91 -25t-58 -68.5t-29 -92.5t-9 -106t9 -106.5t29 -94.5t58 -71.5t91 -26.5z" />
    <glyph glyph-name="Ohungarumlaut" unicode="&#x150;" horiz-adv-x="1599" 
d="M715 1907l92 -109q34 -43 -8 -67l-279 -170q-22 -14 -33 -14.5t-24 14.5l-60 61q-24 31 -6 45l277 242q24 24 41 -2zM1128 1907l93 -109q31 -43 -9 -67l-280 -170q-21 -14 -32.5 -14.5t-25.5 14.5l-57 61q-12 14 -13 26.5t9 18.5l272 242q24 24 43 -2zM801 -20
q-323 0 -512 203.5t-189 553.5t191.5 557t509.5 207t508 -207t190 -557q0 -349 -188.5 -553t-509.5 -204zM803 262q149 0 233 112.5t84 356.5q0 252 -84.5 370t-234.5 118q-149 0 -234.5 -118.5t-85.5 -369.5q0 -244 85.5 -356.5t236.5 -112.5z" />
    <glyph glyph-name="ohungarumlaut" unicode="&#x151;" 
d="M504 1485l92 -109q34 -43 -8 -67l-279 -170q-22 -14 -33 -14.5t-24 14.5l-59 61q-24 31 -7 45l277 242q24 24 41 -2zM918 1485l92 -109q31 -43 -9 -67l-280 -170q-21 -14 -32 -14.5t-25 14.5l-58 61q-12 14 -13 26.5t9 18.5l272 242q24 24 44 -2zM586 -20
q-239 0 -382 150.5t-143 391.5q0 248 146.5 402.5t380.5 154.5q240 0 382 -155.5t142 -401.5q0 -240 -143 -391t-383 -151zM588 236q52 0 89.5 26.5t57 71.5t28.5 94.5t9 106.5t-9 106t-28.5 92.5t-57 68.5t-89.5 25q-53 0 -91 -25t-58 -68.5t-29 -92.5t-9 -106t9 -106.5
t29 -94.5t58 -71.5t91 -26.5z" />
    <glyph glyph-name="OE" unicode="&#x152;" horiz-adv-x="2322" 
d="M2206 289v-289h-983l-84 43q-117 -63 -318 -63q-337 0 -529 203t-192 554q0 353 198 558.5t544 205.5q190 0 297 -65l104 45h944l-2 -287h-706v-307h463v-283h-463v-315h727zM803 256q149 0 213.5 110t64.5 365q0 263 -66 380.5t-214 117.5t-216.5 -118.5t-68.5 -379.5
q0 -254 67 -364.5t220 -110.5z" />
    <glyph glyph-name="oe" unicode="&#x153;" horiz-adv-x="1931" 
d="M606 -20q-241 0 -393 151.5t-152 390.5q0 247 155.5 402t391.5 155q208 0 348 -127q24 -19 48 0q133 127 329 127q238 0 384.5 -164.5t146.5 -449.5h-715q0 -118 66.5 -184t170.5 -66q66 0 125 31.5t127 105.5l213 -90q-101 -159 -217.5 -220.5t-292.5 -61.5
q-209 0 -352 124q-15 15 -35 -2q-141 -122 -348 -122zM1348 868q-83 0 -138.5 -57t-54.5 -158l369 -2q0 48 -18 95.5t-59.5 84.5t-98.5 37zM608 207q193 0 193 323q0 328 -193 328q-192 0 -192 -328q0 -323 192 -323z" />
    <glyph glyph-name="Racute" unicode="&#x154;" horiz-adv-x="1452" 
d="M938 1925l74 -217l-555 -139l-47 143zM1343 0h-358l-227 541h-254v-541h-350v1481h649q266 0 394 -125t128 -336q0 -109 -35 -194t-86.5 -136t-126.5 -94zM754 805q97 0 158 61t61 150q0 88 -60.5 145.5t-148.5 57.5h-260v-414h250z" />
    <glyph glyph-name="racute" unicode="&#x155;" horiz-adv-x="845" 
d="M702 1503l74 -217l-555 -139l-47 143zM117 0v1059h336v-277q43 130 136.5 213.5t225.5 83.5l2 -329q-81 8 -143.5 -0.5t-101 -28.5t-63.5 -50.5t-34.5 -62.5t-9.5 -69v-539h-348z" />
    <glyph glyph-name="uni0156" unicode="&#x156;" horiz-adv-x="1452" 
d="M1343 0h-358l-227 541h-254v-541h-350v1481h649q266 0 394 -125t128 -336q0 -109 -35 -194t-86.5 -136t-126.5 -94zM754 805q97 0 158 61t61 150q0 88 -60.5 145.5t-148.5 57.5h-260v-414h250zM643 -487q-14 0 -20.5 12t0.5 24l63 93q13 19 8 35t-24 16h-19
q-23 0 -31 8.5t-8 30.5v125q0 34 31 34h172q31 0 31 -28v-170q0 -1 -8 -25l-99 -131q-12 -15 -24 -19.5t-37 -4.5h-35z" />
    <glyph glyph-name="uni0157" unicode="&#x157;" horiz-adv-x="845" 
d="M117 0v1059h336v-277q43 130 136.5 213.5t225.5 83.5l2 -329q-81 8 -143.5 -0.5t-101 -28.5t-63.5 -50.5t-34.5 -62.5t-9.5 -69v-539h-348zM225 -487q-14 0 -20.5 12t0.5 24l63 93q13 19 8 35t-24 16h-19q-23 0 -30.5 8.5t-7.5 30.5v125q0 34 30 34h172q31 0 31 -28v-170
q0 -1 -8 -25l-98 -131q-12 -15 -24.5 -19.5t-37.5 -4.5h-35z" />
    <glyph glyph-name="Rcaron" unicode="&#x158;" horiz-adv-x="1452" 
d="M838 1905h260l-271 -297h-239l-275 297h246l148 -162zM1343 0h-358l-227 541h-254v-541h-350v1481h649q266 0 394 -125t128 -336q0 -109 -35 -194t-86.5 -136t-126.5 -94zM754 805q97 0 158 61t61 150q0 88 -60.5 145.5t-148.5 57.5h-260v-414h250z" />
    <glyph glyph-name="rcaron" unicode="&#x159;" horiz-adv-x="845" 
d="M602 1483h260l-270 -297h-240l-274 297h246l147 -162zM117 0v1059h336v-277q43 130 136.5 213.5t225.5 83.5l2 -329q-81 8 -143.5 -0.5t-101 -28.5t-63.5 -50.5t-34.5 -62.5t-9.5 -69v-539h-348z" />
    <glyph glyph-name="Sacute" unicode="&#x15a;" horiz-adv-x="1468" 
d="M965 1925l73 -217l-555 -139l-47 143zM743 -20q-118 0 -227 27.5t-201.5 81t-152.5 142.5t-70 203l363 2q20 -89 95.5 -137.5t190.5 -48.5q119 0 197 39.5t78 120.5q0 36 -19.5 63.5t-57 45.5t-78 29.5t-97.5 22.5l-246 45q-177 32 -278.5 138.5t-104.5 281.5
q-1 141 80 247.5t217 161t305 54.5q130 0 244 -37.5t193 -100.5t128 -145t58 -172l-352 -4q-22 187 -265 187q-114 0 -173.5 -43t-59.5 -107q0 -60 39.5 -94t144.5 -55l244 -45q83 -15 150 -41.5t111.5 -57t77.5 -70t51 -76t29 -80.5t14 -76.5t3 -69.5q0 -185 -178.5 -308.5
t-452.5 -123.5z" />
    <glyph glyph-name="sacute" unicode="&#x15b;" horiz-adv-x="1097" 
d="M788 1503l74 -217l-555 -139l-47 143zM561 -20q-86 0 -164 19t-147.5 58.5t-117.5 109t-64 161.5h290q37 -113 209 -113q81 0 123.5 23.5t42.5 62.5q0 37 -34 57t-101 33l-172 33q-323 61 -326 311q-2 152 124.5 248t340.5 96q209 0 333.5 -93.5t119.5 -246.5h-287
q-11 59 -58.5 87t-115.5 28q-154 0 -154 -90q0 -35 38 -56t126 -36l154 -33q74 -17 130.5 -48t89 -64.5t53 -73t27.5 -71.5t7 -63q0 -160 -132 -249.5t-335 -89.5z" />
    <glyph glyph-name="Scircumflex" unicode="&#x15c;" horiz-adv-x="1468" 
d="M866 1626l-131 160l-147 -160h-246l276 293h238l270 -293h-260zM743 -20q-118 0 -227 27.5t-201.5 81t-152.5 142.5t-70 203l363 2q20 -89 95.5 -137.5t190.5 -48.5q119 0 197 39.5t78 120.5q0 36 -19.5 63.5t-57 45.5t-78 29.5t-97.5 22.5l-246 45q-177 32 -278.5 138.5
t-104.5 281.5q-1 141 80 247.5t217 161t305 54.5q130 0 244 -37.5t193 -100.5t128 -145t58 -172l-352 -4q-22 187 -265 187q-114 0 -173.5 -43t-59.5 -107q0 -60 39.5 -94t144.5 -55l244 -45q83 -15 150 -41.5t111.5 -57t77.5 -70t51 -76t29 -80.5t14 -76.5t3 -69.5
q0 -185 -178.5 -308.5t-452.5 -123.5z" />
    <glyph glyph-name="scircumflex" unicode="&#x15d;" horiz-adv-x="1097" 
d="M688 1204l-131 160l-147 -160h-246l276 293h238l270 -293h-260zM561 -20q-86 0 -164 19t-147.5 58.5t-117.5 109t-64 161.5h290q37 -113 209 -113q81 0 123.5 23.5t42.5 62.5q0 37 -34 57t-101 33l-172 33q-323 61 -326 311q-2 152 124.5 248t340.5 96q209 0 333.5 -93.5
t119.5 -246.5h-287q-11 59 -58.5 87t-115.5 28q-154 0 -154 -90q0 -35 38 -56t126 -36l154 -33q74 -17 130.5 -48t89 -64.5t53 -73t27.5 -71.5t7 -63q0 -160 -132 -249.5t-335 -89.5z" />
    <glyph glyph-name="Scedilla" unicode="&#x15e;" horiz-adv-x="1468" 
d="M1374 412q0 -174 -158.5 -294.5t-408.5 -135.5l-35 -91q112 -1 165.5 -50t53.5 -113q0 -76 -75.5 -123t-180.5 -47q-160 0 -254 57l45 111q87 -52 166 -52q44 0 71.5 16t27.5 42q0 41 -41 61.5t-138 20.5q-15 0 -19 3.5t1 18.5l63 148q-107 9 -201.5 40.5t-173.5 85
t-129.5 137t-60.5 187.5l363 2q20 -89 95.5 -137.5t190.5 -48.5q119 0 197 39.5t78 120.5q0 36 -19.5 63.5t-57 45.5t-78 29.5t-97.5 22.5l-246 45q-177 32 -278.5 138.5t-104.5 281.5q-1 141 80 247.5t217 161t305 54.5q130 0 244 -37.5t193 -100.5t128 -145t58 -172
l-352 -4q-22 187 -265 187q-114 0 -173.5 -43t-59.5 -107q0 -60 39.5 -94t144.5 -55l244 -45q83 -15 150 -41.5t111.5 -57t77.5 -70t51 -76t29 -80.5t14 -76.5t3 -69.5z" />
    <glyph glyph-name="scedilla" unicode="&#x15f;" horiz-adv-x="1097" 
d="M1028 319q0 -146 -110.5 -233.5t-286.5 -103.5l-35 -91q112 -1 165.5 -50t53.5 -113q0 -76 -75.5 -123t-180.5 -47q-160 0 -254 57l45 111q87 -52 166 -52q44 0 71 16t27 42q0 41 -41 61.5t-137 20.5q-15 0 -19 3.5t1 18.5l63 148q-75 8 -141 31t-123.5 63.5t-96.5 104
t-52 145.5h290q37 -113 209 -113q81 0 123.5 23.5t42.5 62.5q0 37 -34 57t-101 33l-172 33q-323 61 -326 311q-2 152 124.5 248t340.5 96q209 0 333.5 -93.5t119.5 -246.5h-287q-11 59 -58.5 87t-115.5 28q-154 0 -154 -90q0 -35 38 -56t126 -36l154 -33q74 -17 130.5 -48
t89 -64.5t53 -73t27.5 -71.5t7 -63z" />
    <glyph glyph-name="Scaron" unicode="&#x160;" horiz-adv-x="1468" 
d="M866 1905h260l-270 -297h-240l-274 297h246l147 -162zM743 -20q-118 0 -227 27.5t-201.5 81t-152.5 142.5t-70 203l363 2q20 -89 95.5 -137.5t190.5 -48.5q119 0 197 39.5t78 120.5q0 36 -19.5 63.5t-57 45.5t-78 29.5t-97.5 22.5l-246 45q-177 32 -278.5 138.5
t-104.5 281.5q-1 141 80 247.5t217 161t305 54.5q130 0 244 -37.5t193 -100.5t128 -145t58 -172l-352 -4q-22 187 -265 187q-114 0 -173.5 -43t-59.5 -107q0 -60 39.5 -94t144.5 -55l244 -45q83 -15 150 -41.5t111.5 -57t77.5 -70t51 -76t29 -80.5t14 -76.5t3 -69.5
q0 -185 -178.5 -308.5t-452.5 -123.5z" />
    <glyph glyph-name="scaron" unicode="&#x161;" horiz-adv-x="1097" 
d="M688 1483h260l-270 -297h-240l-274 297h246l147 -162zM561 -20q-86 0 -164 19t-147.5 58.5t-117.5 109t-64 161.5h290q37 -113 209 -113q81 0 123.5 23.5t42.5 62.5q0 37 -34 57t-101 33l-172 33q-323 61 -326 311q-2 152 124.5 248t340.5 96q209 0 333.5 -93.5
t119.5 -246.5h-287q-11 59 -58.5 87t-115.5 28q-154 0 -154 -90q0 -35 38 -56t126 -36l154 -33q74 -17 130.5 -48t89 -64.5t53 -73t27.5 -71.5t7 -63q0 -160 -132 -249.5t-335 -89.5z" />
    <glyph glyph-name="uni0162" unicode="&#x162;" horiz-adv-x="1280" 
d="M817 0h-80l-41 -109q112 -1 165.5 -50t53.5 -113q0 -76 -75.5 -123t-180.5 -47q-159 0 -253 57l45 111q87 -52 165 -52q44 0 71.5 16t27.5 42q0 41 -41 61.5t-137 20.5q-15 0 -19 3.5t0 18.5l72 164h-123v1171h-434v310h1214v-310h-430v-1171z" />
    <glyph glyph-name="uni0163" unicode="&#x163;" horiz-adv-x="884" 
d="M801 16q-62 -30 -193 -30l-35 -95q112 -1 166 -50t54 -113q0 -76 -75.5 -123t-180.5 -47q-160 0 -254 57l45 111q87 -52 166 -52q44 0 71 16t27 42q0 41 -41 61.5t-137 20.5q-15 0 -19 3.5t0 18.5l70 160q-136 25 -192 98.5t-56 188.5v536h-172v240h184l52 325h284v-323
h234v-242h-234l2 -520q0 -43 19 -59.5t55 -16.5h160v-207z" />
    <glyph glyph-name="Tcaron" unicode="&#x164;" horiz-adv-x="1280" 
d="M788 1905h261l-271 -297h-239l-275 297h246l147 -162zM33 1171v310h1214v-310h-430v-1171h-350v1171h-434z" />
    <glyph glyph-name="tcaron" unicode="&#x165;" horiz-adv-x="884" 
d="M676 1141q-11 0 -16 9t-1 19l62 152q7 19 4.5 27.5t-18.5 11.5l-21 4q-19 2 -26 8t-7 21v188q0 29 25 29h178q23 0 23 -23v-223q0 -5 -3 -12l-2 -6l-75 -177q-8 -28 -56 -28h-67zM799 819h-234l2 -520q0 -43 19 -59.5t55 -16.5h160v-207q-62 -30 -197 -30
q-112 0 -189.5 22t-119.5 63.5t-60 92.5t-18 119v536h-172v240h184l52 325h284v-323h234v-242z" />
    <glyph glyph-name="Tbar" unicode="&#x166;" horiz-adv-x="1280" 
d="M1247 1171h-430v-335h254v-250h-254v-586h-350v586h-248v250h248v335h-434v310h1214v-310z" />
    <glyph glyph-name="tbar" unicode="&#x167;" horiz-adv-x="968" 
d="M707 223h161v-207q-62 -30 -198 -30q-112 0 -189.5 22t-119 63.5t-59 92.5t-17.5 119v194h-187v191h187v151h-172v240h184l49 325h287v-323h233v-242h-233v-151h162v-191h-162v-178q0 -76 74 -76z" />
    <glyph glyph-name="Utilde" unicode="&#x168;" horiz-adv-x="1515" 
d="M1090 1714q-31 -23 -82.5 -39t-108.5 -16q-59 0 -156 29.5t-151 29.5q-42 0 -71.5 -11t-65.5 -38q-33 -23 -43 14l-31 97q-6 12 -4.5 25t18.5 30q42 37 84 56.5t103 19.5q64 0 168.5 -32t148.5 -32q74 0 145 51q13 10 27.5 7t18.5 -21l24 -117q9 -29 -24 -53zM1386 588
q0 -142 -33 -250.5t-104 -190.5t-191.5 -124.5t-287.5 -42.5t-287.5 43t-191.5 125t-104 192t-33 254v887h354v-908q0 -152 72 -226.5t190 -74.5t190 74.5t72 226.5v908h354v-893z" />
    <glyph glyph-name="utilde" unicode="&#x169;" horiz-adv-x="1232" 
d="M967 1292q-31 -23 -82.5 -39t-108.5 -16q-60 0 -157 29.5t-150 29.5q-42 0 -71.5 -11t-65.5 -38q-33 -23 -43 15l-31 96q-6 12 -4.5 25t18.5 30q42 37 84 56.5t103 19.5q64 0 168.5 -32t148.5 -32q73 0 146 52q13 10 27 6.5t18 -21.5l24 -116q9 -30 -24 -54zM508 -20
q-53 0 -107 13.5t-105 42t-91 67.5t-64 95.5t-24 120.5v740h348v-692q0 -64 42.5 -101t110.5 -37q69 0 112.5 38.5t43.5 101.5v690h354l-8 -1059h-260l-39 217q-45 -237 -313 -237z" />
    <glyph glyph-name="Umacron" unicode="&#x16a;" horiz-adv-x="1515" 
d="M1124 1896v-217h-768v217h768zM1386 588q0 -142 -33 -250.5t-104 -190.5t-191.5 -124.5t-287.5 -42.5t-287.5 43t-191.5 125t-104 192t-33 254v887h354v-908q0 -152 72 -226.5t190 -74.5t190 74.5t72 226.5v908h354v-893z" />
    <glyph glyph-name="umacron" unicode="&#x16b;" horiz-adv-x="1232" 
d="M1001 1475v-218h-768v218h768zM508 -20q-53 0 -107 13.5t-105 42t-91 67.5t-64 95.5t-24 120.5v740h348v-692q0 -64 42.5 -101t110.5 -37q69 0 112.5 38.5t43.5 101.5v690h354l-8 -1059h-260l-39 217q-45 -237 -313 -237z" />
    <glyph glyph-name="Ubreve" unicode="&#x16c;" horiz-adv-x="1515" 
d="M1122 1903q-39 -133 -142 -206t-239 -73t-240 72t-141 207h197q28 -50 77.5 -83.5t106.5 -33.5q52 0 104.5 33.5t78.5 83.5h198zM1386 588q0 -142 -33 -250.5t-104 -190.5t-191.5 -124.5t-287.5 -42.5t-287.5 43t-191.5 125t-104 192t-33 254v887h354v-908
q0 -152 72 -226.5t190 -74.5t190 74.5t72 226.5v908h354v-893z" />
    <glyph glyph-name="ubreve" unicode="&#x16d;" horiz-adv-x="1232" 
d="M999 1481q-39 -133 -142 -206t-239 -73t-239.5 72t-140.5 207h196q28 -50 77.5 -83.5t106.5 -33.5q52 0 104.5 33.5t78.5 83.5h198zM508 -20q-53 0 -107 13.5t-105 42t-91 67.5t-64 95.5t-24 120.5v740h348v-692q0 -64 42.5 -101t110.5 -37q69 0 112.5 38.5t43.5 101.5
v690h354l-8 -1059h-260l-39 217q-45 -237 -313 -237z" />
    <glyph glyph-name="Uring" unicode="&#x16e;" horiz-adv-x="1515" 
d="M967 1802q0 -95 -66.5 -161t-161.5 -66t-161 67t-66 164q0 92 66.5 157t160.5 65q95 0 161.5 -66t66.5 -160zM836 1800q0 42 -28.5 70t-70.5 28t-71 -28t-29 -70q0 -39 29.5 -69.5t70.5 -30.5q40 0 69.5 30.5t29.5 69.5zM1386 588q0 -142 -33 -250.5t-104 -190.5
t-191.5 -124.5t-287.5 -42.5t-287.5 43t-191.5 125t-104 192t-33 254v887h354v-908q0 -152 72 -226.5t190 -74.5t190 74.5t72 226.5v908h354v-893z" />
    <glyph glyph-name="uring" unicode="&#x16f;" horiz-adv-x="1232" 
d="M844 1380q0 -95 -66.5 -161t-161.5 -66t-161 67t-66 164q0 92 66.5 157t160.5 65q95 0 161.5 -66t66.5 -160zM713 1378q0 42 -28.5 70.5t-70.5 28.5t-71 -28.5t-29 -70.5q0 -39 29.5 -69.5t70.5 -30.5q40 0 69.5 30.5t29.5 69.5zM508 -20q-53 0 -107 13.5t-105 42
t-91 67.5t-64 95.5t-24 120.5v740h348v-692q0 -64 42.5 -101t110.5 -37q69 0 112.5 38.5t43.5 101.5v690h354l-8 -1059h-260l-39 217q-45 -237 -313 -237z" />
    <glyph glyph-name="Uhungarumlaut" unicode="&#x170;" horiz-adv-x="1515" 
d="M655 1907l93 -109q34 -42 -9 -67l-278 -170q-22 -14 -33.5 -14.5t-24.5 14.5l-59 61q-24 31 -6 45l276 242q24 24 41 -2zM1069 1907l92 -109q31 -43 -8 -67l-281 -170q-21 -14 -32 -14.5t-25 14.5l-57 61q-12 14 -13 26.5t9 18.5l272 242q24 24 43 -2zM1386 588
q0 -142 -33 -250.5t-104 -190.5t-191.5 -124.5t-287.5 -42.5t-287.5 43t-191.5 125t-104 192t-33 254v887h354v-908q0 -152 72 -226.5t190 -74.5t190 74.5t72 226.5v908h354v-893z" />
    <glyph glyph-name="uhungarumlaut" unicode="&#x171;" horiz-adv-x="1232" 
d="M532 1485l93 -109q34 -42 -9 -67l-278 -170q-22 -14 -33 -14.5t-24 14.5l-60 61q-24 31 -6 45l277 242q24 24 40 -2zM946 1485l92 -109q31 -43 -8 -67l-280 -170q-21 -14 -32.5 -14.5t-25.5 14.5l-57 61q-12 14 -13 26.5t9 18.5l272 242q24 24 43 -2zM508 -20
q-53 0 -107 13.5t-105 42t-91 67.5t-64 95.5t-24 120.5v740h348v-692q0 -64 42.5 -101t110.5 -37q69 0 112.5 38.5t43.5 101.5v690h354l-8 -1059h-260l-39 217q-45 -237 -313 -237z" />
    <glyph glyph-name="Uogonek" unicode="&#x172;" horiz-adv-x="1515" 
d="M1032 1481h354v-893q0 -260 -114.5 -414.5t-368.5 -185.5q-68 -30 -95.5 -56.5t-27.5 -58.5q0 -61 66 -61q53 0 115 30q20 9 27 4.5t7 -22.5v-94q0 -22 -20 -33q-29 -16 -86 -28.5t-121 -12.5q-109 0 -170 43.5t-61 128.5q0 48 25 86.5t91 71.5q-135 14 -232.5 63
t-155 129.5t-84.5 182.5t-27 233v887h354v-908q0 -152 72 -226.5t190 -74.5t190 74.5t72 226.5v908z" />
    <glyph glyph-name="uogonek" unicode="&#x173;" horiz-adv-x="1232" 
d="M1104 -160q35 18 35 -18v-94q0 -21 -21 -33q-29 -16 -86 -28.5t-121 -12.5q-109 0 -170 43.5t-61 128.5q0 57 37.5 101.5t140.5 82.5l-37 207q-45 -237 -313 -237q-53 0 -107 13.5t-105 42t-91 67.5t-64 95.5t-24 120.5v740h348v-692q0 -64 42.5 -101t110.5 -37
q69 0 112.5 38.5t43.5 101.5v690h354l-8 -1059h-37q-90 -34 -124.5 -63.5t-34.5 -65.5q0 -61 65 -61q53 0 115 30z" />
    <glyph glyph-name="Wcircumflex" unicode="&#x174;" horiz-adv-x="2002" 
d="M1133 1626l-132 160l-147 -160h-246l277 293h237l271 -293h-260zM1966 1481l-440 -1481h-269l-256 887l-258 -887h-264l-442 1481h340l252 -887l248 887h247l254 -887l248 887h340z" />
    <glyph glyph-name="wcircumflex" unicode="&#x175;" horiz-adv-x="1626" 
d="M950 1204l-131 160l-147 -160h-246l276 293h238l270 -293h-260zM1606 1059l-361 -1059h-262l-176 578l-182 -578h-252l-353 1059h308l182 -586h4l176 586h246l174 -586h4l180 586h312z" />
    <glyph glyph-name="Ycircumflex" unicode="&#x176;" horiz-adv-x="1415" 
d="M877 1626l-132 160l-147 -160h-246l277 293h237l271 -293h-260zM1401 1481l-520 -860v-621h-351v621l-518 860h377l318 -563l313 563h381z" />
    <glyph glyph-name="ycircumflex" unicode="&#x177;" horiz-adv-x="1179" 
d="M760 1204l-131 160l-148 -160h-245l276 293h238l270 -293h-260zM309 -338q-69 0 -123 10t-73 20l-19 11v221l103 -6q53 -3 93.5 3t62 16t36.5 25.5t19.5 26t8.5 21.5q1 3 1 4l12 39l-414 1006h344l228 -633l233 633h340l-420 -1030q-37 -89 -77 -154.5t-79.5 -106
t-85.5 -64.5t-90.5 -33t-99.5 -9z" />
    <glyph glyph-name="Ydieresis" unicode="&#x178;" horiz-adv-x="1415" 
d="M678 1903v-271h-301v271h301zM1118 1903v-271h-303v271h303zM1401 1481l-520 -860v-621h-351v621l-518 860h377l318 -563l313 563h381z" />
    <glyph glyph-name="Zacute" unicode="&#x179;" horiz-adv-x="1409" 
d="M985 1925l74 -217l-555 -139l-47 143zM96 0v164l725 1028h-667v289h1167v-156l-737 -1032h727v-293h-1215z" />
    <glyph glyph-name="zacute" unicode="&#x17a;" horiz-adv-x="1099" 
d="M795 1503l73 -217l-555 -139l-47 143zM63 0v172l521 670h-475v217h915v-166l-526 -674h530v-219h-965z" />
    <glyph glyph-name="Zdotaccent" unicode="&#x17b;" horiz-adv-x="1409" 
d="M932 1903v-312h-352v312h352zM96 0v164l725 1028h-667v289h1167v-156l-737 -1032h727v-293h-1215z" />
    <glyph glyph-name="zdotaccent" unicode="&#x17c;" horiz-adv-x="1099" 
d="M743 1481v-312h-352v312h352zM63 0v172l521 670h-475v217h915v-166l-526 -674h530v-219h-965z" />
    <glyph glyph-name="Zcaron" unicode="&#x17d;" horiz-adv-x="1409" 
d="M885 1905h260l-271 -297h-239l-275 297h246l148 -162zM96 0v164l725 1028h-667v289h1167v-156l-737 -1032h727v-293h-1215z" />
    <glyph glyph-name="zcaron" unicode="&#x17e;" horiz-adv-x="1099" 
d="M694 1483h260l-270 -297h-240l-274 297h246l147 -162zM63 0v172l521 670h-475v217h915v-166l-526 -674h530v-219h-965z" />
    <glyph glyph-name="uni018F" unicode="&#x18f;" horiz-adv-x="1595" 
d="M1073 874q0 46 -5.5 86t-23 85t-46.5 77t-80 53t-119 21q-35 0 -66.5 -7.5t-55.5 -17.5t-49 -31.5t-41 -37.5t-38.5 -48t-34.5 -51t-35 -57q-12 -19 -49 -2l-244 119q-29 12 -8 55q42 85 98.5 152t132 120t174 82t214.5 29q166 0 299.5 -57t220 -158t132.5 -236.5
t46 -293.5q0 -214 -92.5 -392t-254.5 -281t-357 -103q-342 0 -516.5 209.5t-174.5 586.5q0 23 2 33.5t11.5 17.5t29.5 7h897q33 0 33 40zM1071 584l-506 2q-22 0 -30.5 -6.5t-8.5 -26.5q0 -124 68.5 -210.5t193.5 -86.5q140 0 203.5 82.5t79.5 245.5z" />
    <glyph glyph-name="florin" unicode="&#x192;" horiz-adv-x="1122" 
d="M999 1059l-43 -240h-206l-156 -885q-23 -129 -117 -203.5t-235 -74.5h-262l34 231h123q58 0 83 27t38 106l141 799h-172l43 240h170l27 147q25 129 118 202t232 73h264l-39 -230h-129q-40 0 -74.5 -32.5t-41.5 -79.5l-15 -80h217z" />
    <glyph glyph-name="uni01C4" unicode="&#x1c4;" horiz-adv-x="2910" 
d="M2384 1905h258l-268 -297h-240l-276 297h247l148 -162zM154 1481q424 0 489 -2q390 -12 578 -204.5t188 -529.5q0 -169 -47.5 -304.5t-141 -234.5t-241.5 -152.5t-342 -53.5h-483v1481zM1595 0v164l725 1028h-667v289h1167v-156l-737 -1032h727v-293h-1215zM506 1204
v-925h139q63 0 119.5 15.5t108.5 51t89.5 89t59.5 134t22 181.5q0 227 -105 340.5t-292 113.5h-141z" />
    <glyph glyph-name="uni01C5" unicode="&#x1c5;" horiz-adv-x="2598" 
d="M2193 1483h261l-271 -297h-239l-275 297h246l147 -162zM154 1481q424 0 489 -2q390 -12 578 -204.5t188 -529.5q0 -169 -47.5 -304.5t-141 -234.5t-241.5 -152.5t-342 -53.5h-483v1481zM506 1204v-925h139q63 0 119.5 15.5t108.5 51t89.5 89t59.5 134t22 181.5
q0 227 -105 340.5t-292 113.5h-141zM1563 0v172l520 670h-475v217h915v-166l-526 -674h530v-219h-964z" />
    <glyph glyph-name="uni01C6" unicode="&#x1c6;" horiz-adv-x="2334" 
d="M514 -20q-214 0 -332.5 147.5t-118.5 404.5q0 253 111 400t307 147q203 0 299 -139v582h348v-1522h-249l-39 215q-82 -235 -326 -235zM1929 1483h260l-270 -297h-240l-274 297h246l147 -162zM1298 0v172l521 670h-476v217h916v-166l-526 -674h530v-219h-965zM598 227
q80 0 131 63.5t51 176.5v156q-21 206 -184 206q-195 0 -195 -292q0 -162 53.5 -236t143.5 -74z" />
    <glyph glyph-name="uni01C7" unicode="&#x1c7;" horiz-adv-x="2107" 
d="M154 1481h352v-1190h616v-291h-968v1481zM1978 440q0 -96 -10.5 -165.5t-37.5 -127.5t-73.5 -93.5t-117.5 -54.5t-170 -19q-143 0 -262 26l4 316q6 -1 37.5 -7t55.5 -9t48 -3q101 0 138.5 52t37.5 175v951h350v-1041z" />
    <glyph glyph-name="uni01C8" unicode="&#x1c8;" horiz-adv-x="1800" 
d="M1679 1522v-314h-354v314h354zM154 1481h352v-1190h616v-291h-968v1481zM1677 33q0 -188 -95 -280.5t-294 -92.5q-48 0 -82 8t-44 16l-9 9l-2 231l72 10q59 10 81.5 33t22.5 68v1024h350v-1026z" />
    <glyph glyph-name="uni01C9" unicode="&#x1c9;" horiz-adv-x="1288" 
d="M530 -20q-73 0 -131 10.5t-96.5 27t-66.5 43.5t-42.5 52.5t-23 62.5t-10.5 65t-2 68v1213h344v-1170q0 -54 25 -86.5t94 -40.5l45 -4v-213q-75 -28 -136 -28zM1206 1522v-314h-352v314h352zM1204 33q0 -188 -94.5 -280.5t-292.5 -92.5q-48 0 -82.5 8t-44.5 16l-10 9v231
l72 10q58 10 80 33.5t22 67.5v1024h350v-1026z" />
    <glyph glyph-name="uni01CA" unicode="&#x1ca;" horiz-adv-x="2508" 
d="M1130 1481h349v-1481h-314l-661 950v-950h-350v1481h350l626 -903v903zM2353 440q0 -121 -17 -201.5t-61.5 -141.5t-125 -89t-203.5 -28q-144 0 -263 26l5 316q6 -1 37.5 -7t55.5 -9t48 -3q101 0 138.5 52t37.5 175v951h348v-1041z" />
    <glyph glyph-name="uni01CB" unicode="&#x1cb;" horiz-adv-x="2254" 
d="M2134 1522v-314h-354v314h354zM1130 1481h349v-1481h-314l-661 950v-950h-350v1481h350l626 -903v903zM2132 33q0 -188 -95 -280.5t-294 -92.5q-48 0 -82 8t-43 16l-10 9l-2 231l71 10q60 10 82.5 33.5t22.5 67.5v1024h350v-1026z" />
    <glyph glyph-name="uni01CC" unicode="&#x1cc;" horiz-adv-x="1806" 
d="M1724 1522v-314h-352v314h352zM158 0v1059h344v-131q32 34 52.5 53t56 41.5t82 32.5t106.5 10q148 0 259 -101t111 -253v-711h-350v666q0 60 -43.5 95.5t-105.5 35.5q-64 0 -114 -33.5t-50 -89.5v-674h-348zM1722 33q0 -188 -94.5 -280.5t-292.5 -92.5q-48 0 -82.5 8
t-44.5 16l-10 9v231l72 10q58 10 80 33.5t22 67.5v1024h350v-1026z" />
    <glyph glyph-name="uni01EA" unicode="&#x1ea;" horiz-adv-x="1599" 
d="M999 2q-95 -34 -131.5 -64t-36.5 -67q0 -61 66 -61q53 0 115 30q35 18 35 -18v-94q0 -21 -21 -33q-29 -16 -86 -28.5t-121 -12.5q-109 0 -170 43.5t-61 128.5q0 100 119 158q-283 31 -445 230.5t-162 522.5q0 350 191.5 557t509.5 207t508 -207t190 -557
q0 -290 -132.5 -483t-367.5 -252zM481 731q0 -244 85.5 -356.5t236.5 -112.5q149 0 233 112.5t84 356.5q0 252 -84.5 370t-234.5 118q-149 0 -234.5 -118.5t-85.5 -369.5z" />
    <glyph glyph-name="uni01EB" unicode="&#x1eb;" 
d="M770 8q-102 -37 -141 -68t-39 -69q0 -61 65 -61q53 0 115 30q35 18 35 -18v-94q0 -21 -21 -33q-29 -16 -86 -28.5t-120 -12.5q-110 0 -171 43.5t-61 128.5q0 49 28 89.5t101 74.5q-192 34 -303 177.5t-111 354.5q0 248 146.5 402.5t380.5 154.5q240 0 382 -155.5
t142 -401.5q0 -188 -90.5 -325t-251.5 -189zM588 827q-53 0 -91 -25t-58 -68.5t-29 -92.5t-9 -106t9 -106.5t29 -94.5t58 -71.5t91 -26.5q52 0 89.5 26.5t57 71.5t28.5 94.5t9 106.5t-9 106t-28.5 92.5t-57 68.5t-89.5 25z" />
    <glyph glyph-name="uni01F1" unicode="&#x1f1;" horiz-adv-x="2910" 
d="M154 1481q424 0 489 -2q390 -12 578 -204.5t188 -529.5q0 -169 -47.5 -304.5t-141 -234.5t-241.5 -152.5t-342 -53.5h-483v1481zM1595 0v164l725 1028h-667v289h1167v-156l-737 -1032h727v-293h-1215zM506 1204v-925h139q63 0 119.5 15.5t108.5 51t89.5 89t59.5 134
t22 181.5q0 227 -105 340.5t-292 113.5h-141z" />
    <glyph glyph-name="uni01F2" unicode="&#x1f2;" horiz-adv-x="2598" 
d="M154 1481q424 0 489 -2q390 -12 578 -204.5t188 -529.5q0 -169 -47.5 -304.5t-141 -234.5t-241.5 -152.5t-342 -53.5h-483v1481zM506 1204v-925h139q63 0 119.5 15.5t108.5 51t89.5 89t59.5 134t22 181.5q0 227 -105 340.5t-292 113.5h-141zM1563 0v172l520 670h-475v217
h915v-166l-526 -674h530v-219h-964z" />
    <glyph glyph-name="uni01F3" unicode="&#x1f3;" horiz-adv-x="2334" 
d="M514 -20q-214 0 -332.5 147.5t-118.5 404.5q0 253 111 400t307 147q203 0 299 -139v582h348v-1522h-249l-39 215q-82 -235 -326 -235zM1298 0v172l521 670h-476v217h916v-166l-526 -674h530v-219h-965zM598 227q80 0 131 63.5t51 176.5v156q-21 206 -184 206
q-195 0 -195 -292q0 -162 53.5 -236t143.5 -74z" />
    <glyph glyph-name="uni01F4" unicode="&#x1f4;" horiz-adv-x="1587" 
d="M1018 1925l74 -217l-555 -139l-48 143zM784 -20q-205 0 -360.5 94.5t-239.5 265.5t-84 395q0 346 195.5 556t509.5 210q136 0 254 -44t197.5 -116.5t125.5 -166t48 -193.5l-365 -2q-21 103 -90.5 167t-177.5 64q-141 0 -228.5 -112t-87.5 -350q0 -109 19.5 -192
t50.5 -133.5t75 -82t88.5 -43.5t96.5 -12q100 0 169.5 57.5t82.5 128.5l16 74h-282v237l649 -4v-778h-234v178q-28 -32 -51 -55t-62.5 -52t-81.5 -47t-102.5 -31t-130.5 -13z" />
    <glyph glyph-name="uni01F5" unicode="&#x1f5;" horiz-adv-x="1349" 
d="M893 1503l76 -217l-557 -139l-47 143zM664 -350q-290 0 -445.5 70t-155.5 182q0 33 14.5 62t35.5 47t48 33.5t48.5 23t41 13.5t21.5 7l-14 7q-15 7 -21.5 10.5t-22 13.5t-24 18t-21 22t-19.5 27.5t-12 31.5t-5 38q0 63 58.5 111.5t170.5 66.5q-107 49 -163 133t-56 176
q0 103 71.5 179.5t188 114.5t261.5 38q101 0 171 -20.5t138 -59.5q12 5 141 55.5t189 75.5l-3 -256l-182 -28q19 -59 19 -97q0 -69 -32.5 -132t-93 -113.5t-157 -80.5t-215.5 -30q-59 0 -121 4q-67 -5 -67 -31q0 -19 31.5 -25.5t115.5 -12.5q20 -1 31 -2q73 -4 215 -13
q202 -13 302.5 -97t100.5 -212q0 -159 -151 -254.5t-432 -95.5zM651 578q72 0 115 42t43 113t-43.5 118.5t-114.5 47.5t-115 -48t-44 -118t43 -112.5t116 -42.5zM717 -162q112 0 155 22.5t43 69.5q0 42 -37 67.5t-108 29.5l-217 14q-71 4 -110.5 -26.5t-39.5 -71.5
q0 -58 75 -81.5t239 -23.5z" />
    <glyph glyph-name="Aringacute" unicode="&#x1fa;" horiz-adv-x="1599" 
d="M1010 1487l518 -1481h-416l-106 316h-492l-111 -316h-348l525 1481h26q-28 48 -28 108q0 68 40.5 120t104.5 71l33 139h190l-61 -147q57 -25 91 -74.5t34 -112.5q0 -54 -29 -104h29zM690 1589q0 -40 30.5 -71t70.5 -31q41 0 70.5 31t29.5 71q0 41 -29.5 70t-70.5 29
q-40 0 -70.5 -29t-30.5 -70zM588 621h338l-168 481z" />
    <glyph glyph-name="aringacute" unicode="&#x1fb;" horiz-adv-x="1171" 
d="M346 1147l-47 143l80 33q-8 24 -8 61q0 92 66.5 157t160.5 65q63 0 116 -31.5t83 -83.5l30 12l74 -217l-110 -29q-30 -48 -81 -76t-112 -28q-58 0 -111 29zM496 1378v-8l178 72q-32 35 -78 35q-42 0 -71 -28.5t-29 -70.5zM598 1079q247 0 355 -86.5t108 -244.5v-748h-289
l-31 174q-49 -108 -123 -151t-188 -43q-158 0 -260 87t-102 242q0 361 553 361l106 2v53q0 63 -37 95t-108 30q-62 -2 -114 -29t-73 -84h-286q9 168 143.5 255t345.5 87zM727 356v144h-86q-59 0 -111 -13t-92.5 -49.5t-40.5 -91.5q0 -65 44 -103t108 -38q70 0 123 45.5
t55 105.5z" />
    <glyph glyph-name="AEacute" unicode="&#x1fc;" horiz-adv-x="2246" 
d="M1659 1925l74 -217l-555 -139l-48 143zM2130 289v-289h-1118v315h-463l-162 -315h-350l780 1481h1292l-2 -287h-698v-307h457v-283h-457v-315h721zM1012 616v641l-336 -641h336z" />
    <glyph glyph-name="aeacute" unicode="&#x1fd;" horiz-adv-x="1880" 
d="M1161 1503l76 -217l-557 -139l-47 143zM1094 465q0 -114 67 -182t168 -68q70 0 128 32t126 105l213 -90q-100 -157 -218 -219.5t-294 -62.5q-128 0 -234 47.5t-182 126.5q-9 9 -18 0q-90 -88 -192.5 -131t-245.5 -43q-164 0 -254 82.5t-90 220.5q0 163 142.5 260
t418.5 110l108 9v63q0 67 -36.5 103t-108.5 36q-138 0 -197 -133l-301 64q43 97 102 156.5t159 93.5t245 34q261 -3 371 -104q128 104 307 104q235 0 381.5 -164t146.5 -450h-712zM1292 868q-83 0 -138 -56.5t-54 -158.5l366 -2q0 48 -18 95.5t-59 84.5t-97 37zM737 483
l-88 -6q-59 -4 -111.5 -23t-90 -58t-37.5 -91q0 -54 36.5 -85t104.5 -30q76 2 131 40t55 96v157z" />
    <glyph glyph-name="Oslashacute" unicode="&#x1fe;" horiz-adv-x="1601" 
d="M1022 1925l74 -217l-555 -139l-47 143zM1540 1382q11 -11 11 -24t-13 -23l-154 -157q107 -182 107 -441q0 -348 -188 -552.5t-508 -204.5q-274 0 -455 151l-121 -121q-21 -21 -37.5 -21t-40.5 21l-71 74q-37 34 -9 66l142 141q-109 180 -109 446q0 351 190.5 557.5
t510.5 206.5q272 0 456 -160l135 134q14 14 29.5 16t26.5 -8zM510 731q0 -68 12 -127l490 500q-68 125 -217 125q-150 0 -217.5 -118t-67.5 -380zM1073 731q0 73 -12 131l-486 -497q69 -109 220 -109q149 0 213.5 110t64.5 365z" />
    <glyph glyph-name="oslashacute" unicode="&#x1ff;" horiz-adv-x="1280" 
d="M934 1286l-555 -139l-47 143l528 213zM1204 956l-112 -106q86 -141 86 -328q0 -240 -143.5 -391t-383.5 -151q-216 0 -356 124l-129 -120l-109 114l140 131q-70 128 -70 293q0 249 146 403t380 154q199 0 332 -108l111 102zM467 535q0 -34 2 -50l307 287q-46 55 -123 55
q-53 0 -91 -25t-57.5 -69t-28.5 -92.5t-9 -105.5zM838 535q0 23 -4 73l-318 -297q48 -75 137 -75q52 0 89.5 26.5t57.5 71.5t29 95t9 106z" />
    <glyph glyph-name="uni0200" unicode="&#x200;" horiz-adv-x="1488" 
d="M418 1929l315 -278l-102 -113l-361 217zM829 1929l318 -278l-105 -113l-360 217zM37 0l528 1481h361l528 -1481h-346l-111 315h-499l-111 -315h-350zM573 616h345l-170 531z" />
    <glyph glyph-name="uni0201" unicode="&#x201;" horiz-adv-x="1171" 
d="M244 1507l315 -278l-102 -113l-361 217zM655 1507l318 -278l-105 -113l-360 217zM430 -20q-158 0 -260 87t-102 242q0 361 553 361l106 2v53q0 63 -37 95t-108 30q-62 -2 -114 -29t-73 -84h-286q9 168 143.5 255t345.5 87q247 0 355 -86.5t108 -244.5v-748h-289l-31 174
q-49 -108 -123 -151t-188 -43zM549 205q70 0 123 45.5t55 105.5v144h-86q-59 0 -111 -13t-92.5 -49.5t-40.5 -91.5q0 -65 44 -103t108 -38z" />
    <glyph glyph-name="uni0202" unicode="&#x202;" horiz-adv-x="1488" 
d="M1190 1696h-199q-26 51 -76.5 83.5t-103.5 32.5q-59 0 -108.5 -33t-77.5 -83h-197q38 136 141.5 207t241.5 71q135 0 237.5 -73t141.5 -205zM37 0l528 1481h361l528 -1481h-346l-111 315h-499l-111 -315h-350zM573 616h345l-170 531z" />
    <glyph glyph-name="uni0203" unicode="&#x203;" horiz-adv-x="1171" 
d="M1018 1274h-199q-26 51 -77 84t-103 33q-59 0 -108.5 -33.5t-77.5 -83.5h-197q38 136 141.5 207t241.5 71q135 0 237.5 -73t141.5 -205zM430 -20q-158 0 -260 87t-102 242q0 361 553 361l106 2v53q0 63 -37 95t-108 30q-62 -2 -114 -29t-73 -84h-286q9 168 143.5 255
t345.5 87q247 0 355 -86.5t108 -244.5v-748h-289l-31 174q-49 -108 -123 -151t-188 -43zM549 205q70 0 123 45.5t55 105.5v144h-86q-59 0 -111 -13t-92.5 -49.5t-40.5 -91.5q0 -65 44 -103t108 -38z" />
    <glyph glyph-name="uni0204" unicode="&#x204;" horiz-adv-x="1333" 
d="M334 1929l315 -278l-102 -113l-361 217zM745 1929l318 -278l-105 -113l-360 217zM154 0v1481h1056l-2 -291h-702v-303h600v-285h-602v-309h713v-293h-1063z" />
    <glyph glyph-name="uni0205" unicode="&#x205;" 
d="M238 1507l317 -278l-104 -113l-361 217zM651 1507l316 -278l-103 -113l-362 217zM408 449q-1 -106 49.5 -164t138.5 -58q143 0 190 121h312q-18 -112 -93 -197t-180 -128t-221 -43q-243 0 -392 146.5t-149 389.5q0 157 61.5 283.5t183 203t282.5 76.5q243 0 374.5 -149
t131.5 -393v-88h-688zM406 649h366q0 82 -47.5 136.5t-134.5 54.5q-80 0 -132 -57t-52 -134z" />
    <glyph glyph-name="uni0206" unicode="&#x206;" horiz-adv-x="1333" 
d="M1106 1696h-199q-26 51 -76.5 83.5t-103.5 32.5q-59 0 -108.5 -33t-77.5 -83h-197q38 136 141.5 207t241.5 71q135 0 237.5 -73t141.5 -205zM154 0v1481h1056l-2 -291h-702v-303h600v-285h-602v-309h713v-293h-1063z" />
    <glyph glyph-name="uni0207" unicode="&#x207;" 
d="M1012 1274h-199q-28 51 -79 84t-103 33q-57 0 -107 -33.5t-80 -83.5h-196q38 136 142 207t241 71q136 0 239 -73t142 -205zM408 449q-1 -106 49.5 -164t138.5 -58q143 0 190 121h312q-18 -112 -93 -197t-180 -128t-221 -43q-243 0 -392 146.5t-149 389.5
q0 157 61.5 283.5t183 203t282.5 76.5q243 0 374.5 -149t131.5 -393v-88h-688zM406 649h366q0 82 -47.5 136.5t-134.5 54.5q-80 0 -132 -57t-52 -134z" />
    <glyph glyph-name="uni0208" unicode="&#x208;" horiz-adv-x="657" 
d="M-20 1929l315 -278l-102 -113l-361 217zM391 1929l318 -278l-105 -113l-360 217zM154 1481h350v-1481h-350v1481z" />
    <glyph glyph-name="uni0209" unicode="&#x209;" horiz-adv-x="577" 
d="M-55 1507l315 -278l-102 -113l-361 217zM356 1507l318 -278l-105 -113l-360 217zM467 1059v-1059h-348v1059h348z" />
    <glyph glyph-name="uni020A" unicode="&#x20a;" horiz-adv-x="657" 
d="M752 1696h-199q-26 51 -76.5 83.5t-103.5 32.5q-59 0 -109 -33t-78 -83h-196q38 136 141.5 207t241.5 71q135 0 237.5 -73t141.5 -205zM154 1481h350v-1481h-350v1481z" />
    <glyph glyph-name="uni020B" unicode="&#x20b;" horiz-adv-x="577" 
d="M719 1274h-199q-26 51 -77 84t-103 33q-59 0 -108.5 -33.5t-77.5 -83.5h-197q38 136 141.5 207t241.5 71q135 0 237.5 -73t141.5 -205zM467 1059v-1059h-348v1059h348z" />
    <glyph glyph-name="uni020C" unicode="&#x20c;" horiz-adv-x="1599" 
d="M449 1929l315 -278l-102 -113l-361 217zM860 1929l318 -278l-105 -113l-360 217zM801 -20q-323 0 -512 203.5t-189 553.5t191.5 557t509.5 207t508 -207t190 -557q0 -349 -188.5 -553t-509.5 -204zM803 262q149 0 233 112.5t84 356.5q0 252 -84.5 370t-234.5 118
q-149 0 -234.5 -118.5t-85.5 -369.5q0 -244 85.5 -356.5t236.5 -112.5z" />
    <glyph glyph-name="uni020D" unicode="&#x20d;" 
d="M236 1507l315 -278l-102 -113l-361 217zM647 1507l318 -278l-105 -113l-360 217zM586 -20q-239 0 -382 150.5t-143 391.5q0 248 146.5 402.5t380.5 154.5q240 0 382 -155.5t142 -401.5q0 -240 -143 -391t-383 -151zM588 236q52 0 89.5 26.5t57 71.5t28.5 94.5t9 106.5
t-9 106t-28.5 92.5t-57 68.5t-89.5 25q-53 0 -91 -25t-58 -68.5t-29 -92.5t-9 -106t9 -106.5t29 -94.5t58 -71.5t91 -26.5z" />
    <glyph glyph-name="uni020E" unicode="&#x20e;" horiz-adv-x="1599" 
d="M1221 1696h-199q-26 51 -76.5 83.5t-103.5 32.5q-59 0 -109 -33t-78 -83h-196q38 136 141.5 207t241.5 71q135 0 237.5 -73t141.5 -205zM801 -20q-323 0 -512 203.5t-189 553.5t191.5 557t509.5 207t508 -207t190 -557q0 -349 -188.5 -553t-509.5 -204zM803 262
q149 0 233 112.5t84 356.5q0 252 -84.5 370t-234.5 118q-149 0 -234.5 -118.5t-85.5 -369.5q0 -244 85.5 -356.5t236.5 -112.5z" />
    <glyph glyph-name="uni020F" unicode="&#x20f;" 
d="M1008 1274h-199q-26 51 -77 84t-103 33q-59 0 -109 -33.5t-78 -83.5h-196q38 136 141.5 207t241.5 71q135 0 237.5 -73t141.5 -205zM586 -20q-239 0 -382 150.5t-143 391.5q0 248 146.5 402.5t380.5 154.5q240 0 382 -155.5t142 -401.5q0 -240 -143 -391t-383 -151z
M588 236q52 0 89.5 26.5t57 71.5t28.5 94.5t9 106.5t-9 106t-28.5 92.5t-57 68.5t-89.5 25q-53 0 -91 -25t-58 -68.5t-29 -92.5t-9 -106t9 -106.5t29 -94.5t58 -71.5t91 -26.5z" />
    <glyph glyph-name="uni0210" unicode="&#x210;" horiz-adv-x="1452" 
d="M356 1929l316 -278l-103 -113l-360 217zM768 1929l317 -278l-104 -113l-360 217zM1343 0h-358l-227 541h-254v-541h-350v1481h649q266 0 394 -125t128 -336q0 -109 -35 -194t-86.5 -136t-126.5 -94zM754 805q97 0 158 61t61 150q0 88 -60.5 145.5t-148.5 57.5h-260v-414
h250z" />
    <glyph glyph-name="uni0211" unicode="&#x211;" horiz-adv-x="845" 
d="M119 1507l315 -278l-102 -113l-361 217zM530 1507l318 -278l-105 -113l-360 217zM117 0v1059h336v-277q43 130 136.5 213.5t225.5 83.5l2 -329q-81 8 -143.5 -0.5t-101 -28.5t-63.5 -50.5t-34.5 -62.5t-9.5 -69v-539h-348z" />
    <glyph glyph-name="uni0212" unicode="&#x212;" horiz-adv-x="1452" 
d="M1128 1696h-198q-26 51 -76.5 83.5t-103.5 32.5q-59 0 -109 -33t-78 -83h-196q38 136 141.5 207t241.5 71q135 0 237 -73t141 -205zM1343 0h-358l-227 541h-254v-541h-350v1481h649q266 0 394 -125t128 -336q0 -109 -35 -194t-86.5 -136t-126.5 -94zM754 805q97 0 158 61
t61 150q0 88 -60.5 145.5t-148.5 57.5h-260v-414h250z" />
    <glyph glyph-name="uni0213" unicode="&#x213;" horiz-adv-x="845" 
d="M891 1274h-199q-26 51 -77 84t-103 33q-59 0 -108.5 -33.5t-77.5 -83.5h-197q38 136 141.5 207t241.5 71q135 0 237.5 -73t141.5 -205zM117 0v1059h336v-277q43 130 136.5 213.5t225.5 83.5l2 -329q-81 8 -143.5 -0.5t-101 -28.5t-63.5 -50.5t-34.5 -62.5t-9.5 -69v-539
h-348z" />
    <glyph glyph-name="uni0214" unicode="&#x214;" horiz-adv-x="1515" 
d="M387 1929l315 -278l-102 -113l-360 217zM799 1929l317 -278l-104 -113l-361 217zM1386 588q0 -142 -33 -250.5t-104 -190.5t-191.5 -124.5t-287.5 -42.5t-287.5 43t-191.5 125t-104 192t-33 254v887h354v-908q0 -152 72 -226.5t190 -74.5t190 74.5t72 226.5v908h354v-893
z" />
    <glyph glyph-name="uni0215" unicode="&#x215;" horiz-adv-x="1232" 
d="M264 1507l316 -278l-103 -113l-360 217zM676 1507l317 -278l-104 -113l-361 217zM508 -20q-53 0 -107 13.5t-105 42t-91 67.5t-64 95.5t-24 120.5v740h348v-692q0 -64 42.5 -101t110.5 -37q69 0 112.5 38.5t43.5 101.5v690h354l-8 -1059h-260l-39 217q-45 -237 -313 -237
z" />
    <glyph glyph-name="uni0216" unicode="&#x216;" horiz-adv-x="1515" 
d="M1159 1696h-198q-26 51 -77 83.5t-104 32.5q-59 0 -108.5 -33t-77.5 -83h-197q38 136 141.5 207t241.5 71q135 0 237.5 -73t141.5 -205zM1386 588q0 -142 -33 -250.5t-104 -190.5t-191.5 -124.5t-287.5 -42.5t-287.5 43t-191.5 125t-104 192t-33 254v887h354v-908
q0 -152 72 -226.5t190 -74.5t190 74.5t72 226.5v908h354v-893z" />
    <glyph glyph-name="uni0217" unicode="&#x217;" horiz-adv-x="1232" 
d="M1036 1274h-198q-26 51 -77 84t-104 33q-59 0 -108.5 -33.5t-77.5 -83.5h-197q38 136 141.5 207t241.5 71q135 0 237.5 -73t141.5 -205zM508 -20q-53 0 -107 13.5t-105 42t-91 67.5t-64 95.5t-24 120.5v740h348v-692q0 -64 42.5 -101t110.5 -37q69 0 112.5 38.5
t43.5 101.5v690h354l-8 -1059h-260l-39 217q-45 -237 -313 -237z" />
    <glyph glyph-name="uni0218" unicode="&#x218;" horiz-adv-x="1468" 
d="M743 -20q-118 0 -227 27.5t-201.5 81t-152.5 142.5t-70 203l363 2q20 -89 95.5 -137.5t190.5 -48.5q119 0 197 39.5t78 120.5q0 36 -19.5 63.5t-57 45.5t-78 29.5t-97.5 22.5l-246 45q-177 32 -278.5 138.5t-104.5 281.5q-1 141 80 247.5t217 161t305 54.5
q130 0 244 -37.5t193 -100.5t128 -145t58 -172l-352 -4q-22 187 -265 187q-114 0 -173.5 -43t-59.5 -107q0 -60 39.5 -94t144.5 -55l244 -45q83 -15 150 -41.5t111.5 -57t77.5 -70t51 -76t29 -80.5t14 -76.5t3 -69.5q0 -185 -178.5 -308.5t-452.5 -123.5zM649 -487
q-14 0 -20.5 12t0.5 24l63 93q13 19 8 35t-24 16h-19q-23 0 -31 8.5t-8 30.5v125q0 34 31 34h172q31 0 31 -28v-170q0 -1 -8 -25l-99 -131q-12 -15 -24 -19.5t-37 -4.5h-35z" />
    <glyph glyph-name="uni0219" unicode="&#x219;" horiz-adv-x="1097" 
d="M561 -20q-86 0 -164 19t-147.5 58.5t-117.5 109t-64 161.5h290q37 -113 209 -113q81 0 123.5 23.5t42.5 62.5q0 37 -34 57t-101 33l-172 33q-323 61 -326 311q-2 152 124.5 248t340.5 96q209 0 333.5 -93.5t119.5 -246.5h-287q-11 59 -58.5 87t-115.5 28q-154 0 -154 -90
q0 -35 38 -56t126 -36l154 -33q74 -17 130.5 -48t89 -64.5t53 -73t27.5 -71.5t7 -63q0 -160 -132 -249.5t-335 -89.5zM473 -487q-14 0 -20.5 12t0.5 24l63 93q13 19 8 35t-24 16h-19q-23 0 -31 8.5t-8 30.5v125q0 34 31 34h172q31 0 31 -28v-170q0 -1 -8 -25l-99 -131
q-12 -15 -24 -19.5t-37 -4.5h-35z" />
    <glyph glyph-name="uni021A" unicode="&#x21a;" horiz-adv-x="1280" 
d="M33 1171v310h1214v-310h-430v-1171h-350v1171h-434zM573 -487q-14 0 -20.5 12t0.5 24l63 93q13 19 8 35t-24 16h-18q-23 0 -31 8.5t-8 30.5v125q0 34 30 34h172q31 0 31 -28v-170q0 -1 -8 -25l-98 -131q-12 -15 -24.5 -19.5t-37.5 -4.5h-35z" />
    <glyph glyph-name="uni021B" unicode="&#x21b;" horiz-adv-x="884" 
d="M799 819h-234l2 -520q0 -43 19 -59.5t55 -16.5h160v-207q-62 -30 -197 -30q-112 0 -189.5 22t-119.5 63.5t-60 92.5t-18 119v536h-172v240h184l52 325h284v-323h234v-242zM451 -487q-14 0 -21 12t0 24l64 93q13 19 7.5 35t-24.5 16h-18q-23 0 -31 8.5t-8 30.5v125
q0 34 31 34h172q30 0 30 -28v-170q0 -1 -8 -25l-98 -131q-12 -15 -24.5 -19.5t-37.5 -4.5h-34z" />
    <glyph glyph-name="uni0237" unicode="&#x237;" horiz-adv-x="628" 
d="M481 33q0 -188 -95 -280.5t-294 -92.5q-49 0 -82 8t-42 14.5t-9 10.5l-2 231l70 10q59 10 82.5 33.5t23.5 67.5v1024h348v-1026z" />
    <glyph glyph-name="uni0259" unicode="&#x259;" horiz-adv-x="1167" 
d="M758 610q1 105 -50 163t-139 58q-143 0 -190 -120h-309q18 112 92.5 197t179 128t219.5 43q243 0 392 -146.5t149 -389.5q0 -157 -60.5 -283.5t-181.5 -203t-282 -76.5q-245 0 -376.5 149t-131.5 393v88h688zM760 410h-367q0 -82 48.5 -136.5t136.5 -54.5
q79 0 130.5 57.5t51.5 133.5z" />
    <glyph glyph-name="uni02BC" unicode="&#x2bc;" horiz-adv-x="423" 
d="M115 899q-11 0 -16.5 9.5t-2.5 19.5l62 217q11 34 -13 39l-20 4q-19 0 -27 7t-8 24v233q0 29 27 29h180q22 0 22 -23v-270q0 -15 -4 -19l-75 -241q-9 -29 -54 -29h-71z" />
    <glyph glyph-name="circumflex" unicode="&#x2c6;" horiz-adv-x="849" 
d="M547 1204l-131 160l-148 -160h-245l276 293h238l270 -293h-260z" />
    <glyph glyph-name="caron" unicode="&#x2c7;" horiz-adv-x="849" 
d="M547 1483h260l-270 -297h-240l-274 297h245l148 -162z" />
    <glyph glyph-name="breve" unicode="&#x2d8;" horiz-adv-x="856" 
d="M801 1481q-39 -133 -142 -206t-239 -73t-240 72t-141 207h197q28 -50 77.5 -83.5t106.5 -33.5q52 0 104 33.5t78 83.5h199z" />
    <glyph glyph-name="dotaccent" unicode="&#x2d9;" horiz-adv-x="448" 
d="M393 1481v-312h-352v312h352z" />
    <glyph glyph-name="ring" unicode="&#x2da;" horiz-adv-x="550" 
d="M496 1362q0 -95 -66.5 -161t-161.5 -66t-161 67t-66 164q0 92 66.5 156.5t160.5 64.5q95 0 161.5 -65.5t66.5 -159.5zM365 1360q0 42 -28.5 70t-70.5 28t-71 -28t-29 -70q0 -39 29.5 -69.5t70.5 -30.5q40 0 69.5 30.5t29.5 69.5z" />
    <glyph glyph-name="ogonek" unicode="&#x2db;" horiz-adv-x="555" 
d="M41 -174q0 59 40 104.5t150 83.5l242 -4q-106 -37 -147 -68.5t-41 -70.5q0 -61 65 -61q53 0 115 30q35 18 35 -18v-94q0 -21 -21 -33q-29 -16 -86 -28.5t-121 -12.5q-109 0 -170 43.5t-61 128.5z" />
    <glyph glyph-name="tilde" unicode="&#x2dc;" horiz-adv-x="919" 
d="M799 1292q-31 -23 -82.5 -39t-108.5 -16q-60 0 -157 29.5t-150 29.5q-42 0 -71.5 -11t-65.5 -38q-33 -23 -43 15l-31 96q-6 12 -4.5 25t18.5 30q42 37 84 56.5t103 19.5q64 0 168.5 -32t148.5 -32q73 0 146 52q13 10 27 6.5t18 -21.5l24 -116q9 -30 -24 -54z" />
    <glyph glyph-name="hungarumlaut" unicode="&#x2dd;" horiz-adv-x="952" 
d="M369 1485l92 -109q34 -43 -8 -67l-279 -170q-22 -14 -33 -14.5t-24 14.5l-60 61q-24 31 -6 45l277 242q24 24 41 -2zM782 1485l92 -109q31 -43 -8 -67l-280 -170q-21 -14 -32.5 -14.5t-25.5 14.5l-57 61q-12 14 -13 26.5t9 18.5l272 242q24 24 43 -2z" />
    <glyph glyph-name="gravecomb" unicode="&#x300;" horiz-adv-x="0" 
d="M-573 1503l526 -213l-49 -143l-555 139z" />
    <glyph glyph-name="acutecomb" unicode="&#x301;" horiz-adv-x="0" 
d="M-117 1503l74 -217l-555 -139l-47 143z" />
    <glyph glyph-name="uni0302" unicode="&#x302;" horiz-adv-x="0" 
d="M-303 1204l-131 160l-148 -160h-245l276 293h238l270 -293h-260z" />
    <glyph glyph-name="tildecomb" unicode="&#x303;" horiz-adv-x="0" 
d="M-121 1292q-74 -55 -190 -55q-59 0 -156 29.5t-151 29.5q-42 0 -72 -11t-66 -38q-33 -23 -43 15l-30 96q-6 12 -4.5 25t18.5 30q43 37 84 56.5t102 19.5q64 0 169 -32t149 -32q72 0 145 52q13 10 27 6.5t18 -21.5l25 -116q9 -30 -25 -54z" />
    <glyph glyph-name="uni0304" unicode="&#x304;" horiz-adv-x="0" 
d="M-57 1475v-218h-768v218h768z" />
    <glyph glyph-name="uni0306" unicode="&#x306;" horiz-adv-x="0" 
d="M-55 1481q-39 -133 -142 -206t-239 -73t-240 72t-141 207h196q28 -50 78 -83.5t107 -33.5q52 0 104 33.5t78 83.5h199z" />
    <glyph glyph-name="uni0307" unicode="&#x307;" horiz-adv-x="0" 
d="M-55 1481v-312h-353v312h353z" />
    <glyph glyph-name="uni0308" unicode="&#x308;" horiz-adv-x="0" 
d="M-498 1481v-271h-301v271h301zM-57 1481v-271h-303v271h303z" />
    <glyph glyph-name="uni030A" unicode="&#x30a;" horiz-adv-x="0" 
d="M-55 1362q0 -95 -66.5 -161t-161.5 -66t-161 67t-66 164q0 92 66.5 156.5t160.5 64.5q95 0 161.5 -65.5t66.5 -159.5zM-186 1360q0 42 -28.5 70t-70.5 28t-71 -28t-29 -70q0 -39 29.5 -69.5t70.5 -30.5q40 0 69.5 30.5t29.5 69.5z" />
    <glyph glyph-name="uni030B" unicode="&#x30b;" horiz-adv-x="0" 
d="M-584 1485l92 -109q34 -43 -8 -67l-278 -170q-22 -14 -33.5 -14.5t-24.5 14.5l-59 61q-24 31 -6 45l276 242q24 24 41 -2zM-170 1485l92 -109q31 -43 -8 -67l-281 -170q-21 -14 -32 -14.5t-25 14.5l-57 61q-12 14 -13 26.5t9 18.5l272 242q24 24 43 -2z" />
    <glyph glyph-name="uni030C" unicode="&#x30c;" horiz-adv-x="0" 
d="M-303 1483h260l-270 -297h-240l-274 297h245l148 -162z" />
    <glyph glyph-name="uni030F" unicode="&#x30f;" horiz-adv-x="0" 
d="M-780 1507l315 -278l-102 -113l-361 217zM-369 1507l318 -278l-105 -113l-360 217z" />
    <glyph glyph-name="uni0311" unicode="&#x311;" horiz-adv-x="0" 
d="M-4 1274h-199q-26 51 -77 84t-103 33q-59 0 -108.5 -33.5t-77.5 -83.5h-197q38 136 141.5 207t241.5 71q135 0 237.5 -73t141.5 -205z" />
    <glyph glyph-name="dotbelowcomb" unicode="&#x323;" horiz-adv-x="0" 
d="M-55 -117v-172q0 -22 -10 -31.5t-35 -9.5h-187q-20 0 -26 8t-6 29v174q0 35 22 35h217q25 0 25 -33z" />
    <glyph glyph-name="uni0326" unicode="&#x326;" horiz-adv-x="0" 
d="M-260 -487q-14 0 -21 12t0 24l64 93q13 19 8 35t-24 16h-19q-23 0 -31 8.5t-8 30.5v125q0 34 31 34h172q31 0 31 -28v-170q0 -4 -1.5 -9t-4 -9.5t-3.5 -6.5l-98 -131q-12 -15 -24 -19.5t-37 -4.5h-35z" />
    <glyph glyph-name="uni0327" unicode="&#x327;" horiz-adv-x="0" 
d="M-55 -272q0 -76 -75.5 -123t-180.5 -47q-160 0 -254 57l45 111q87 -52 166 -52q44 0 71 16t27 42q0 41 -41 61.5t-137 20.5q-15 0 -19 3.5t0 18.5l76 174h148l-45 -119q112 -1 165.5 -50t53.5 -113z" />
    <glyph glyph-name="uni0328" unicode="&#x328;" horiz-adv-x="0" 
d="M-514 -174q0 59 40 104.5t150 83.5l242 -4q-106 -37 -147 -68.5t-41 -70.5q0 -61 65 -61q53 0 115 30q35 18 35 -18v-94q0 -21 -21 -33q-29 -16 -86 -28.5t-121 -12.5q-109 0 -170 43.5t-61 128.5z" />
    <glyph glyph-name="uni0394" unicode="&#x394;" horiz-adv-x="1433" 
d="M57 0v215l455 1266h393l455 -1268v-213h-1303zM430 281h541l-269 845z" />
    <glyph glyph-name="uni03A9" unicode="&#x3a9;" horiz-adv-x="1587" 
d="M791 1229q-134 0 -221 -112.5t-87 -334.5q0 -319 209 -495q43 -43 43 -78v-209h-614v289h258q-51 42 -94.5 90t-88.5 115.5t-71.5 155t-26.5 181.5q0 126 47.5 245t133 214t219.5 153t293 58q132 0 245 -40t192 -107t135.5 -153.5t83 -180t26.5 -186.5q0 -86 -24 -168
t-64.5 -147.5t-82 -114.5t-88.5 -89q-8 -9 -5.5 -17.5t12.5 -8.5h229v-289h-612v250q47 35 87 81t78 111.5t60 155.5t22 193q0 214 -80.5 326t-213.5 112z" />
    <glyph glyph-name="uni03BC" unicode="&#x3bc;" horiz-adv-x="1232" 
d="M588 227q93 0 186 103v729h352l-6 -1059h-340v164q-118 -132 -245 -168q-54 -11 -70 -21v-305h-348v1389h348v-713q0 -54 34.5 -86.5t88.5 -32.5z" />
    <glyph glyph-name="pi" unicode="&#x3c0;" horiz-adv-x="1400" 
d="M1337 819h-176v-819h-334l-2 819h-270q0 -178 -36 -425.5t-85 -393.5h-328q46 178 79.5 409t33.5 390q0 20 -18 20h-154v240h1290v-240z" />
    <glyph glyph-name="uni1E0C" unicode="&#x1e0c;" horiz-adv-x="1568" 
d="M154 1481q424 0 489 -2q390 -12 578 -204.5t188 -529.5q0 -169 -47.5 -304.5t-141 -234.5t-241.5 -152.5t-342 -53.5h-483v1481zM506 1204v-925h139q63 0 119.5 15.5t108.5 51t89.5 89t59.5 134t22 181.5q0 227 -105 340.5t-292 113.5h-141zM911 -117v-172
q0 -22 -10 -31.5t-35 -9.5h-186q-20 0 -26.5 8.5t-6.5 28.5v174q0 35 23 35h217q24 0 24 -33z" />
    <glyph glyph-name="uni1E0D" unicode="&#x1e0d;" horiz-adv-x="1234" 
d="M514 -20q-214 0 -332.5 147.5t-118.5 404.5q0 253 111 400t307 147q203 0 299 -139v582h348v-1522h-249l-39 215q-82 -235 -326 -235zM598 227q80 0 131 63.5t51 176.5v156q-21 206 -184 206q-195 0 -195 -292q0 -162 53.5 -236t143.5 -74zM739 -117v-172
q0 -22 -10 -31.5t-35 -9.5h-186q-20 0 -26.5 8.5t-6.5 28.5v174q0 35 23 35h217q24 0 24 -33z" />
    <glyph glyph-name="uni1E24" unicode="&#x1e24;" horiz-adv-x="1511" 
d="M1010 614h-506v-614h-350v1481h350v-578h506v578h350v-1481h-350v614zM883 -117v-172q0 -22 -10 -31.5t-35 -9.5h-187q-20 0 -26.5 8.5t-6.5 28.5v174q0 35 23 35h217q25 0 25 -33z" />
    <glyph glyph-name="uni1E25" unicode="&#x1e25;" horiz-adv-x="1232" 
d="M117 0v1522h348v-598q45 63 111 101t180 38q154 0 262 -96t108 -246v-721h-350v676q0 54 -44.5 87.5t-106.5 33.5t-111 -35.5t-49 -91.5v-670h-348zM758 -117v-172q0 -22 -10 -31.5t-35 -9.5h-187q-20 0 -26 8t-6 29v174q0 35 22 35h217q25 0 25 -33z" />
    <glyph glyph-name="uni1E44" unicode="&#x1e44;" horiz-adv-x="1632" 
d="M997 1903v-312h-352v312h352zM1130 1481h349v-1481h-314l-661 950v-950h-350v1481h350l626 -903v903z" />
    <glyph glyph-name="uni1E45" unicode="&#x1e45;" horiz-adv-x="1232" 
d="M803 1481v-312h-352v312h352zM117 0v1059h344v-131q29 33 51 53t57 41.5t82 32t107 10.5q146 0 258 -101t112 -253v-711h-350v666q0 59 -44 95t-105 36q-64 0 -114 -33.5t-50 -89.5v-674h-348z" />
    <glyph glyph-name="uni1E5A" unicode="&#x1e5a;" horiz-adv-x="1452" 
d="M1343 0h-358l-227 541h-254v-541h-350v1481h649q266 0 394 -125t128 -336q0 -109 -35 -194t-86.5 -136t-126.5 -94zM754 805q97 0 158 61t61 150q0 88 -60.5 145.5t-148.5 57.5h-260v-414h250zM860 -117v-172q0 -22 -10 -31.5t-35 -9.5h-186q-20 0 -26.5 8.5t-6.5 28.5
v174q0 35 22 35h218q24 0 24 -33z" />
    <glyph glyph-name="uni1E5B" unicode="&#x1e5b;" horiz-adv-x="845" 
d="M117 0v1059h336v-277q43 130 136.5 213.5t225.5 83.5l2 -329q-81 8 -143.5 -0.5t-101 -28.5t-63.5 -50.5t-34.5 -62.5t-9.5 -69v-539h-348zM442 -117v-172q0 -22 -10 -31.5t-35 -9.5h-186q-20 0 -26.5 8.5t-6.5 28.5v174q0 35 23 35h217q24 0 24 -33z" />
    <glyph glyph-name="uni1E62" unicode="&#x1e62;" horiz-adv-x="1468" 
d="M743 -20q-118 0 -227 27.5t-201.5 81t-152.5 142.5t-70 203l363 2q20 -89 95.5 -137.5t190.5 -48.5q119 0 197 39.5t78 120.5q0 36 -19.5 63.5t-57 45.5t-78 29.5t-97.5 22.5l-246 45q-177 32 -278.5 138.5t-104.5 281.5q-1 141 80 247.5t217 161t305 54.5
q130 0 244 -37.5t193 -100.5t128 -145t58 -172l-352 -4q-22 187 -265 187q-114 0 -173.5 -43t-59.5 -107q0 -60 39.5 -94t144.5 -55l244 -45q83 -15 150 -41.5t111.5 -57t77.5 -70t51 -76t29 -80.5t14 -76.5t3 -69.5q0 -185 -178.5 -308.5t-452.5 -123.5zM866 -117v-172
q0 -22 -10 -31.5t-35 -9.5h-186q-20 0 -26.5 8.5t-6.5 28.5v174q0 35 23 35h217q24 0 24 -33z" />
    <glyph glyph-name="uni1E63" unicode="&#x1e63;" horiz-adv-x="1097" 
d="M561 -20q-86 0 -164 19t-147.5 58.5t-117.5 109t-64 161.5h290q37 -113 209 -113q81 0 123.5 23.5t42.5 62.5q0 37 -34 57t-101 33l-172 33q-323 61 -326 311q-2 152 124.5 248t340.5 96q209 0 333.5 -93.5t119.5 -246.5h-287q-11 59 -58.5 87t-115.5 28q-154 0 -154 -90
q0 -35 38 -56t126 -36l154 -33q74 -17 130.5 -48t89 -64.5t53 -73t27.5 -71.5t7 -63q0 -160 -132 -249.5t-335 -89.5zM692 -117v-172q0 -22 -10 -31.5t-35 -9.5h-186q-20 0 -26.5 8.5t-6.5 28.5v174q0 35 23 35h217q24 0 24 -33z" />
    <glyph glyph-name="uni1E6C" unicode="&#x1e6c;" horiz-adv-x="1280" 
d="M33 1171v310h1214v-310h-430v-1171h-350v1171h-434zM791 -117v-172q0 -22 -10.5 -31.5t-35.5 -9.5h-186q-20 0 -26.5 8.5t-6.5 28.5v174q0 35 23 35h217q25 0 25 -33z" />
    <glyph glyph-name="uni1E6D" unicode="&#x1e6d;" horiz-adv-x="884" 
d="M799 819h-234l2 -520q0 -43 19 -59.5t55 -16.5h160v-207q-62 -30 -197 -30q-112 0 -189.5 22t-119.5 63.5t-60 92.5t-18 119v536h-172v240h184l52 325h284v-323h234v-242zM668 -117v-172q0 -22 -10 -31.5t-35 -9.5h-187q-20 0 -26.5 8.5t-6.5 28.5v174q0 35 23 35h217
q25 0 25 -33z" />
    <glyph glyph-name="Wgrave" unicode="&#x1e80;" horiz-adv-x="2002" 
d="M770 1925l526 -213l-49 -143l-555 139zM1966 1481l-440 -1481h-269l-256 887l-258 -887h-264l-442 1481h340l252 -887l248 887h247l254 -887l248 887h340z" />
    <glyph glyph-name="wgrave" unicode="&#x1e81;" horiz-adv-x="1626" 
d="M590 1503l526 -213l-49 -143l-555 139zM1606 1059l-361 -1059h-262l-176 578l-182 -578h-252l-353 1059h308l182 -586h4l176 586h246l174 -586h4l180 586h312z" />
    <glyph glyph-name="Wacute" unicode="&#x1e82;" horiz-adv-x="2002" 
d="M1233 1925l74 -217l-555 -139l-47 143zM1966 1481l-440 -1481h-269l-256 887l-258 -887h-264l-442 1481h340l252 -887l248 887h247l254 -887l248 887h340z" />
    <glyph glyph-name="wacute" unicode="&#x1e83;" horiz-adv-x="1626" 
d="M1051 1503l73 -217l-555 -139l-47 143zM1606 1059l-361 -1059h-262l-176 578l-182 -578h-252l-353 1059h308l182 -586h4l176 586h246l174 -586h4l180 586h312z" />
    <glyph glyph-name="Wdieresis" unicode="&#x1e84;" horiz-adv-x="2002" 
d="M934 1903v-271h-301v271h301zM1374 1903v-271h-303v271h303zM1966 1481l-440 -1481h-269l-256 887l-258 -887h-264l-442 1481h340l252 -887l248 887h247l254 -887l248 887h340z" />
    <glyph glyph-name="wdieresis" unicode="&#x1e85;" horiz-adv-x="1626" 
d="M752 1481v-271h-301v271h301zM1192 1481v-271h-303v271h303zM1606 1059l-361 -1059h-262l-176 578l-182 -578h-252l-353 1059h308l182 -586h4l176 586h246l174 -586h4l180 586h312z" />
    <glyph glyph-name="uni1E92" unicode="&#x1e92;" horiz-adv-x="1409" 
d="M96 0v164l725 1028h-667v289h1167v-156l-737 -1032h727v-293h-1215zM850 -117v-172q0 -22 -10 -31.5t-35 -9.5h-187q-20 0 -26 8t-6 29v174q0 35 22 35h217q25 0 25 -33z" />
    <glyph glyph-name="uni1E93" unicode="&#x1e93;" horiz-adv-x="1138" 
d="M63 0v172l523 670h-477v217h915v-166l-524 -674h528v-219h-965zM739 -117v-172q0 -22 -10 -31.5t-33 -9.5h-186q-21 0 -28 8.5t-7 28.5v174q0 35 25 35h215q24 0 24 -33z" />
    <glyph glyph-name="uni1EB8" unicode="&#x1eb8;" horiz-adv-x="1333" 
d="M154 0v1481h1056l-2 -291h-702v-303h600v-285h-602v-309h713v-293h-1063zM825 -117v-172q0 -22 -10 -31.5t-35 -9.5h-186q-20 0 -26.5 8.5t-6.5 28.5v174q0 35 23 35h217q24 0 24 -33z" />
    <glyph glyph-name="uni1EB9" unicode="&#x1eb9;" 
d="M408 449q-1 -106 49.5 -164t138.5 -58q143 0 190 121h312q-18 -112 -93 -197t-180 -128t-221 -43q-243 0 -392 146.5t-149 389.5q0 157 61.5 283.5t183 203t282.5 76.5q243 0 374.5 -149t131.5 -393v-88h-688zM406 649h366q0 82 -47.5 136.5t-134.5 54.5q-80 0 -132 -57
t-52 -134zM725 -117v-172q0 -22 -10 -31.5t-35 -9.5h-184q-21 0 -28 8.5t-7 28.5v174q0 35 22 35h217q25 0 25 -33z" />
    <glyph glyph-name="uni1EBC" unicode="&#x1ebc;" horiz-adv-x="1333" 
d="M1036 1714q-74 -55 -190 -55q-60 0 -157 29.5t-150 29.5q-42 0 -72 -11t-66 -38q-33 -23 -43 14l-30 97q-6 12 -4.5 25t18.5 30q43 37 84 56.5t102 19.5q64 0 169 -32t149 -32q74 0 145 51q13 10 27 7t18 -21l25 -117q9 -29 -25 -53zM154 0v1481h1056l-2 -291h-702v-303
h600v-285h-602v-309h713v-293h-1063z" />
    <glyph glyph-name="uni1EBD" unicode="&#x1ebd;" 
d="M940 1292q-74 -55 -188 -55q-60 0 -158 29.5t-152 29.5q-40 0 -70.5 -11t-66.5 -38q-15 -11 -25.5 -8.5t-17.5 23.5l-29 96q-7 11 -5 24.5t20 30.5q40 36 82 56t102 20q64 0 169 -32t149 -32q72 0 145 52q13 10 27 6.5t18 -21.5l25 -116q9 -30 -25 -54zM408 449
q-1 -106 49.5 -164t138.5 -58q143 0 190 121h312q-18 -112 -93 -197t-180 -128t-221 -43q-243 0 -392 146.5t-149 389.5q0 157 61.5 283.5t183 203t282.5 76.5q243 0 374.5 -149t131.5 -393v-88h-688zM406 649h366q0 82 -47.5 136.5t-134.5 54.5q-80 0 -132 -57t-52 -134z
" />
    <glyph glyph-name="uni1ECA" unicode="&#x1eca;" horiz-adv-x="657" 
d="M154 1481h350v-1481h-350v1481zM481 -117v-172q0 -22 -10 -31.5t-35 -9.5h-186q-20 0 -26.5 8.5t-6.5 28.5v174q0 35 23 35h217q24 0 24 -33z" />
    <glyph glyph-name="uni1ECB" unicode="&#x1ecb;" horiz-adv-x="602" 
d="M471 1522v-314h-352v314h352zM469 1059v-1059h-350v1059h350zM492 -117v-172q0 -22 -10.5 -31.5t-35.5 -9.5h-186q-20 0 -26.5 8.5t-6.5 28.5v174q0 35 23 35h217q25 0 25 -33z" />
    <glyph glyph-name="uni1ECC" unicode="&#x1ecc;" horiz-adv-x="1599" 
d="M801 -20q-323 0 -512 203.5t-189 553.5t191.5 557t509.5 207t508 -207t190 -557q0 -349 -188.5 -553t-509.5 -204zM803 262q149 0 233 112.5t84 356.5q0 252 -84.5 370t-234.5 118q-149 0 -234.5 -118.5t-85.5 -369.5q0 -244 85.5 -356.5t236.5 -112.5zM936 -117v-172
q0 -22 -10 -31.5t-35 -9.5h-186q-20 0 -26.5 8.5t-6.5 28.5v174q0 35 22 35h217q25 0 25 -33z" />
    <glyph glyph-name="uni1ECD" unicode="&#x1ecd;" 
d="M586 -20q-239 0 -382 150.5t-143 391.5q0 248 146.5 402.5t380.5 154.5q240 0 382 -155.5t142 -401.5q0 -240 -143 -391t-383 -151zM588 236q52 0 89.5 26.5t57 71.5t28.5 94.5t9 106.5t-9 106t-28.5 92.5t-57 68.5t-89.5 25q-53 0 -91 -25t-58 -68.5t-29 -92.5t-9 -106
t9 -106.5t29 -94.5t58 -71.5t91 -26.5zM715 -117v-172q0 -22 -10 -31.5t-35 -9.5h-187q-20 0 -26 8t-6 29v174q0 35 22 35h217q25 0 25 -33z" />
    <glyph glyph-name="uni1EE4" unicode="&#x1ee4;" horiz-adv-x="1495" 
d="M1386 588q0 -113 -20 -204.5t-65.5 -168t-116 -127.5t-174.5 -79.5t-238 -28.5q-135 0 -239.5 28.5t-175 80t-116 128.5t-65.5 169.5t-20 207.5v887h354v-908q0 -153 71.5 -227t190.5 -74q117 0 189.5 74.5t72.5 226.5v908h352v-893zM942 -117v-172q0 -22 -10 -31.5
t-35 -9.5h-186q-21 0 -28 8.5t-7 28.5v174q0 35 24 35h218q24 0 24 -33z" />
    <glyph glyph-name="uni1EE5" unicode="&#x1ee5;" horiz-adv-x="1232" 
d="M508 -20q-53 0 -107 13.5t-105 42t-91 67.5t-64 95.5t-24 120.5v740h348v-692q0 -64 42.5 -101t110.5 -37q69 0 112.5 38.5t43.5 101.5v690h354l-8 -1059h-260l-39 217q-45 -237 -313 -237zM754 -117v-172q0 -22 -10 -31.5t-35 -9.5h-187q-20 0 -26.5 8.5t-6.5 28.5v174
q0 35 23 35h217q25 0 25 -33z" />
    <glyph glyph-name="Ygrave" unicode="&#x1ef2;" horiz-adv-x="1415" 
d="M514 1925l526 -213l-49 -143l-555 139zM1401 1481l-520 -860v-621h-351v621l-518 860h377l318 -563l313 563h381z" />
    <glyph glyph-name="ygrave" unicode="&#x1ef3;" horiz-adv-x="1179" 
d="M397 1503l527 -213l-50 -143l-555 139zM309 -338q-69 0 -123 10t-73 20l-19 11v221l103 -6q53 -3 93.5 3t62 16t36.5 25.5t19.5 26t8.5 21.5q1 3 1 4l12 39l-414 1006h344l228 -633l233 633h340l-420 -1030q-37 -89 -77 -154.5t-79.5 -106t-85.5 -64.5t-90.5 -33
t-99.5 -9z" />
    <glyph glyph-name="uni1EF8" unicode="&#x1ef8;" horiz-adv-x="1415" 
d="M1098 1714q-31 -23 -82.5 -39t-108.5 -16q-60 0 -156.5 29.5t-150.5 29.5q-42 0 -71.5 -11t-65.5 -38q-33 -23 -43 14l-31 97q-6 12 -4.5 25t18.5 30q42 37 84 56.5t103 19.5q64 0 168.5 -32t148.5 -32q75 0 146 51q13 10 27 7t18 -21l24 -117q9 -29 -24 -53zM1401 1481
l-520 -860v-621h-351v621l-518 860h377l318 -563l313 563h381z" />
    <glyph glyph-name="uni1EF9" unicode="&#x1ef9;" horiz-adv-x="1179" 
d="M981 1292q-74 -55 -190 -55q-59 0 -157 29.5t-151 29.5q-42 0 -71.5 -11t-65.5 -38q-33 -23 -43 15l-31 96q-6 12 -4 25t19 30q43 37 84 56.5t102 19.5q64 0 169 -32t149 -32q72 0 145 52q13 10 27 6.5t18 -21.5l25 -116q9 -30 -25 -54zM309 -338q-69 0 -123 10t-73 20
l-19 11v221l103 -6q53 -3 93.5 3t62 16t36.5 25.5t19.5 26t8.5 21.5q1 3 1 4l12 39l-414 1006h344l228 -633l233 633h340l-420 -1030q-37 -89 -77 -154.5t-79.5 -106t-85.5 -64.5t-90.5 -33t-99.5 -9z" />
    <glyph glyph-name="endash" unicode="&#x2013;" horiz-adv-x="1247" 
d="M1118 631v-248h-1003v248h1003z" />
    <glyph glyph-name="emdash" unicode="&#x2014;" horiz-adv-x="1898" 
d="M1767 631v-248h-1652v248h1652z" />
    <glyph glyph-name="quoteleft" unicode="&#x2018;" horiz-adv-x="561" 
d="M403 1542l-120 -291l112 -12v-315h-332v278l220 340h120z" />
    <glyph glyph-name="quoteright" unicode="&#x2019;" horiz-adv-x="550" 
d="M102 862l121 291l-110 12v316h331v-279l-221 -340h-121z" />
    <glyph glyph-name="quotesinglbase" unicode="&#x201a;" horiz-adv-x="557" 
d="M102 -297l119 291l-110 12v318h331v-283l-219 -338h-121z" />
    <glyph glyph-name="quotedblleft" unicode="&#x201c;" horiz-adv-x="1038" 
d="M98 862v281l221 338h121l-121 -289l111 -12v-318h-332zM575 862v281l222 338h121l-121 -289l112 -12v-318h-334z" />
    <glyph glyph-name="quotedblright" unicode="&#x201d;" horiz-adv-x="1081" 
d="M102 862l121 291l-110 12v316h331v-279l-221 -340h-121zM578 862l122 291l-112 12v316h334v-279l-222 -340h-122z" />
    <glyph glyph-name="quotedblbase" unicode="&#x201e;" horiz-adv-x="1140" 
d="M150 -297l120 291l-110 12v318h332v-283l-222 -338h-120zM639 -297l121 291l-111 12v318h332v-283l-221 -338h-121z" />
    <glyph glyph-name="dagger" unicode="&#x2020;" horiz-adv-x="1128" 
d="M1032 1028v-297l-377 49l66 -1110h-328l64 1110l-377 -49v297l364 -45l-55 498h334l-57 -498z" />
    <glyph glyph-name="daggerdbl" unicode="&#x2021;" horiz-adv-x="1128" 
d="M657 743v-405l375 49v-299l-368 47l59 -465h-334l57 465l-366 -47v299l373 -49v405l-373 -47v295l364 -43l-55 533h332l-55 -533l366 43v-295z" />
    <glyph glyph-name="bullet" unicode="&#x2022;" horiz-adv-x="757" 
d="M367 471q-117 0 -200 83t-83 200q0 116 83 199t200 83t199.5 -83t82.5 -199q0 -117 -82.5 -200t-199.5 -83z" />
    <glyph glyph-name="ellipsis" unicode="&#x2026;" horiz-adv-x="1921" 
d="M522 362v-362h-375v362h375zM1200 362v-362h-375v362h375zM1878 362v-362h-373v362h373z" />
    <glyph glyph-name="perthousand" unicode="&#x2030;" horiz-adv-x="2816" 
d="M477 1503q104 0 192 -58t138.5 -155.5t50.5 -210.5q0 -171 -110 -292t-271 -121q-164 0 -275.5 121t-111.5 292q0 173 113 298.5t274 125.5zM1612 1497l-996 -1505l-196 4l999 1501h193zM475 840q68 0 98.5 60t30.5 179q0 252 -129 252q-131 0 -131 -252q0 -119 31 -179
t100 -60zM1468 819q105 0 193.5 -58.5t139 -156t50.5 -209.5q0 -171 -110.5 -293t-272.5 -122q-164 0 -275.5 122t-111.5 293q0 172 113 298t274 126zM2329 819q158 0 269.5 -126t111.5 -298q0 -171 -110 -293t-271 -122q-165 0 -276 122t-111 293q0 173 112.5 298.5
t274.5 125.5zM1466 156q68 0 98.5 59.5t30.5 177.5q0 252 -129 252t-129 -252q0 -237 129 -237zM2327 156q68 0 97.5 59t29.5 178q0 252 -127 252q-132 0 -132 -252q0 -237 132 -237z" />
    <glyph glyph-name="guilsinglleft" unicode="&#x2039;" horiz-adv-x="659" 
d="M375 514l147 -387h-180l-231 387l229 404h184z" />
    <glyph glyph-name="guilsinglright" unicode="&#x203a;" horiz-adv-x="659" 
d="M268 514l-149 404h182l229 -404l-229 -387h-182z" />
    <glyph glyph-name="fraction" unicode="&#x2044;" horiz-adv-x="536" 
d="M850 1497l-995 -1505l-197 4l997 1501h195z" />
    <glyph glyph-name="uni2070" unicode="&#x2070;" horiz-adv-x="874" 
d="M420 1731q175 0 281 -128.5t106 -355.5q0 -224 -105 -348.5t-284 -124.5q-178 0 -283.5 124t-105.5 349q0 227 107 355.5t284 128.5zM418 946q77 0 112 69.5t35 231.5q0 165 -35.5 238.5t-111.5 73.5t-112 -73.5t-36 -238.5q0 -160 36 -230.5t112 -70.5z" />
    <glyph glyph-name="uni2074" unicode="&#x2074;" horiz-adv-x="874" 
d="M446 1710h218v-553h137v-186h-137v-193h-220v193h-413v180zM260 1157h186v252z" />
    <glyph glyph-name="uni2075" unicode="&#x2075;" horiz-adv-x="845" 
d="M147 1710h619l-8 -178h-441l-16 -189q51 16 70 21.5t54 11.5t69 6q150 0 241.5 -78.5t91.5 -220.5q0 -149 -101.5 -233t-276.5 -84q-134 0 -241.5 51.5t-162.5 136.5l164 111q37 -43 60.5 -66t64 -42t88.5 -19q79 0 123.5 38t44.5 99q0 57 -41.5 94t-114.5 37
q-58 0 -145 -41q-14 -6 -18.5 -6t-16.5 6l-150 82z" />
    <glyph glyph-name="uni2076" unicode="&#x2076;" horiz-adv-x="849" 
d="M430 1735q142 0 240 -73.5t104 -195.5l-199 -6q-19 53 -51.5 78t-87.5 25q-89 0 -134.5 -76t-31.5 -189q33 33 86.5 50.5t112.5 17.5q145 0 232 -78t87 -201q0 -133 -104 -219t-264 -86q-184 0 -289.5 123t-105.5 332q0 232 109 365t296 133zM416 1206q-53 0 -99.5 -30.5
t-46.5 -61.5q4 -85 42 -128.5t100 -43.5q60 0 102.5 38.5t42.5 96.5q0 61 -41.5 95t-99.5 34z" />
    <glyph glyph-name="uni2077" unicode="&#x2077;" horiz-adv-x="772" 
d="M59 1710h715v-225q-114 -137 -210.5 -344.5t-96.5 -362.5h-238q2 59 21 139.5t56.5 181.5t106.5 216t158 217h-512v178z" />
    <glyph glyph-name="uni2078" unicode="&#x2078;" horiz-adv-x="845" 
d="M410 1731q152 0 250 -75t98 -186q0 -40 -16.5 -74t-42 -55t-46 -33t-37.5 -18q75 -37 104 -60q79 -66 79 -173q0 -133 -107.5 -208t-288.5 -75q-169 0 -271.5 63.5t-102.5 178.5q0 144 170 209q-1 1 -18.5 11.5t-37.5 26.5t-41 40t-35 60t-14 77q0 123 97.5 207t259.5 84
zM414 1569q-55 0 -91 -27.5t-36 -71.5q0 -67 75 -88l91 -28q34 -10 69 28t35 82t-38.5 74.5t-104.5 30.5zM418 936q67 0 104 26.5t37 71.5q0 35 -20.5 59t-71.5 40l-105 34q-38 13 -80 -23t-42 -89q0 -119 178 -119z" />
    <glyph glyph-name="uni2079" unicode="&#x2079;" horiz-adv-x="849" 
d="M391 778q-140 0 -240 75t-106 194l205 6q28 -105 133 -105q97 0 150 66.5t42 208.5q-62 -88 -208 -88t-239 80t-93 208q0 135 103.5 221.5t262.5 86.5q186 0 292 -123t106 -332q0 -251 -107 -374.5t-301 -123.5zM408 1307q51 0 97 30t46 60q-3 87 -40.5 130.5
t-100.5 43.5q-58 0 -97 -39t-39 -98q0 -58 39 -92.5t95 -34.5z" />
    <glyph glyph-name="colonmonetary" unicode="&#x20a1;" horiz-adv-x="1247" 
d="M633 434q37 0 68 17t49.5 44t29.5 53.5t15 51.5h278q-5 -137 -85.5 -242.5t-215.5 -146.5l-55 -209l-176 4l47 184q-62 5 -133 25l-56 -213l-174 4l72 291q-93 74 -145 187t-52 251q0 186 88 323.5t238 196.5l59 222l174 4l-47 -191h11q70 0 125 -14l55 201l174 4
l-72 -279q77 -58 121.5 -147.5t50.5 -194.5h-286q-13 69 -52.5 119.5t-111.5 50.5q-95 0 -150 -76t-55 -215q0 -140 58.5 -222.5t152.5 -82.5z" />
    <glyph glyph-name="franc" unicode="&#x20a3;" horiz-adv-x="1304" 
d="M1225 1194h-699v-326h486v-280h-486v-174h293v-183h-293v-231h-395v229h-176v185h176v1067h1096z" />
    <glyph glyph-name="lira" unicode="&#x20a4;" horiz-adv-x="1359" 
d="M1280 391q-45 -189 -172.5 -290t-310.5 -101h-752v287h66q140 0 163 131q7 19 7 61q0 17 -19 17h-211v180h205l-16 119h-189v182h162l-6 90q-10 108 25 192.5t104.5 136.5t159 78.5t192.5 26.5q101 0 197 -32t181 -105.5t128 -179.5l-303 -88q-25 63 -59.5 98t-90.5 35
q-60 0 -96.5 -39.5t-36.5 -108.5q0 -18 8 -80q3 -24 25 -24h254v-182h-246l13 -119h233v-180h-242q-31 -133 -129 -207h246q88 0 138.5 37.5t78.5 124.5z" />
    <glyph glyph-name="uni20A6" unicode="&#x20a6;" horiz-adv-x="1640" 
d="M1604 905h-39v-289h39v-163h-39v-453h-316l-315 453l-346 -2v-451h-348v451h-217v165h217v289h-217v164h217v412h348l284 -412h342v412h351v-412h39v-164zM588 616h231l-201 289h-30v-289zM1214 616v289h-227l201 -289h26z" />
    <glyph glyph-name="uni20A9" unicode="&#x20a9;" horiz-adv-x="2385" 
d="M2347 1108h-317l-41 -137h358v-183h-414l-233 -788h-268l-228 788h-57l-229 -788h-265l-233 788h-395v181h340l-41 139h-299v180h245l-57 193h338l55 -193h393l54 193h245l56 -191h395l53 191h338l-57 -191h264v-182zM657 1108l39 -139h213l39 139h-291zM1659 971l39 137
h-293l39 -137h215zM803 594l55 194h-110zM1552 594l56 194h-111z" />
    <glyph glyph-name="dong" unicode="&#x20ab;" horiz-adv-x="1122" 
d="M956 1374h125v-145h-125v-957h-284v103q-56 -59 -115 -89t-147 -30q-152 0 -245 115t-93 329q0 204 103.5 331.5t252.5 127.5q123 0 209 -86q31 -21 31 12v144h-213v145h213v107h288v-107zM666 561v344q-33 36 -64.5 53t-73.5 17q-159 0 -159 -270q0 -271 157 -271
q60 0 100 36.5t40 90.5zM131 0v162h827v-162h-827z" />
    <glyph glyph-name="Euro" unicode="&#x20ac;" horiz-adv-x="1388" 
d="M860 270q71 0 142.5 43t111.5 99l186 -195q-84 -105 -212.5 -171t-274.5 -66q-219 0 -380.5 135t-225.5 366h-193v183h162q-4 62 -4 92q0 41 2 61h-160v182h187q59 235 222 368.5t392 133.5q151 0 279 -60.5t211 -166.5l-240 -176q-36 41 -61 65t-68 45t-90 21
q-188 0 -246 -230h309v-180h-334q-2 -23 -2 -67q0 -59 2 -88h334v-183h-299q34 -108 99 -159.5t151 -51.5z" />
    <glyph glyph-name="uni20B9" unicode="&#x20b9;" horiz-adv-x="1376" 
d="M1315 1317h-254q57 -63 74 -139h180v-164h-172q-18 -115 -89 -197.5t-175 -122.5q-18 -7 -7 -32l277 -662h-430l-221 631h-445v248h449q100 0 155 33t72 102h-676v164h672q-42 127 -221 127h-451v176h1262v-164z" />
    <glyph glyph-name="uni20BA" unicode="&#x20ba;" horiz-adv-x="1433" 
d="M1087 600l306 -63q-33 -91 -76 -166t-110 -145.5t-150 -119t-199 -77.5t-254 -29h-307v442l-164 -59l-63 174l227 82v135l-199 -72l-63 175l262 94v510h397v-365l234 84l65 -172l-299 -108v-136l267 97l63 -174l-330 -119v-299h60q105 5 191.5 84.5t141.5 226.5z" />
    <glyph glyph-name="uni2113" unicode="&#x2113;" horiz-adv-x="1226" 
d="M1030 410l-377 -430q-91 0 -163 20t-116.5 49.5t-78 74t-49.5 83t-29 86.5q-3 13 -10 6l-90 -61l-76 186l168 129v426q0 255 126.5 388.5t340.5 133.5q98 0 169.5 -27.5t112 -77.5t59.5 -111.5t19 -137.5q0 -49 -8.5 -96.5t-21.5 -87.5t-38 -83t-47 -76t-59 -73.5
t-64.5 -67.5t-74.5 -67.5t-76.5 -64.5t-81.5 -66v-64q0 -77 47 -121t123 -44q144 0 279 155q-3 0 16 19zM565 997v-260q117 110 181.5 214t64.5 212q0 64 -26 100.5t-80 36.5q-43 0 -72.5 -25t-48.5 -94.5t-19 -183.5z" />
    <glyph glyph-name="uni2116" unicode="&#x2116;" horiz-adv-x="2441" 
d="M2036 1501q153 0 248.5 -97t95.5 -249q0 -150 -96 -245t-248 -95q-153 0 -247.5 95t-94.5 245q0 154 97 250t245 96zM1130 1481h349v-1481h-314l-661 950v-950h-350v1481h350l626 -903v903zM2036 1358q-117 0 -117 -199q0 -198 117 -198q118 0 118 198q0 199 -118 199z
" />
    <glyph glyph-name="uni2117" unicode="&#x2117;" horiz-adv-x="1714" 
d="M848 -20q-155 0 -295.5 60t-242.5 161.5t-162 242.5t-60 297q0 154 60 294.5t162 242.5t242.5 162.5t295.5 60.5t296 -60.5t243 -162.5t162.5 -242.5t60.5 -294.5q0 -156 -60.5 -297.5t-162.5 -242.5t-243 -161t-296 -60zM848 164q249 0 404 157.5t155 419.5
q0 260 -155.5 420t-403.5 160q-252 0 -405.5 -159.5t-153.5 -420.5q0 -263 153 -420t406 -157zM1231 872q0 -125 -79.5 -192.5t-211.5 -67.5h-174v-266h-217v789h369q138 0 225.5 -66.5t87.5 -196.5zM1012 872q0 54 -30.5 80.5t-76.5 26.5h-139v-213h145q45 0 73 28t28 78z
" />
    <glyph glyph-name="uni2120" unicode="&#x2120;" horiz-adv-x="2113" 
d="M465 -12q-74 0 -142 17t-126 50t-96 88.5t-44 126.5l228 2q12 -55 59.5 -85.5t118.5 -30.5q75 0 123.5 24.5t48.5 75.5q0 43 -41.5 65.5t-116.5 34.5l-153 29q-110 19 -173.5 85.5t-66.5 176.5q-1 132 107.5 211.5t269.5 79.5t268.5 -84.5t120.5 -200.5l-221 -2
q-14 115 -164 115q-71 0 -109.5 -26.5t-38.5 -65.5q0 -38 25 -59.5t92 -34.5l152 -29q71 -13 123.5 -39.5t80.5 -56t44 -68.5t20 -68t4 -63q0 -115 -111 -191.5t-282 -76.5zM1016 0v926h319l183 -613l182 613h319v-926h-219v688l-203 -688h-161l-201 688v-688h-219z" />
    <glyph glyph-name="trademark" unicode="&#x2122;" horiz-adv-x="1996" 
d="M20 733v193h758v-193h-268v-733h-219v733h-271zM895 0v926h322l180 -613l182 613h319v-926h-219v688l-200 -688h-164l-201 688v-688h-219z" />
    <glyph glyph-name="uni2153" unicode="&#x2153;" horiz-adv-x="2019" 
d="M162 565v690l-162 -41v148l270 135h113v-932h-221zM1491 1497l-995 -1505l-197 4l997 1501h195zM1231 655q4 78 38.5 135t93 88.5t126 45.5t147.5 14q156 0 261.5 -69.5t105.5 -176.5q0 -141 -168 -198q82 -23 140.5 -81t58.5 -147q0 -88 -62 -155t-151 -98t-187 -31
q-92 0 -160.5 13t-124.5 44.5t-87.5 89t-36.5 141.5l207 6q10 -34 30 -59t46.5 -38t53.5 -19t56 -6q76 0 123 32.5t47 79.5q0 50 -43 83.5t-109 33.5l-125 4v170l109 6q66 1 107.5 33.5t41.5 77.5q0 41 -43 69.5t-96 28.5q-49 0 -84.5 -8t-67.5 -36.5t-40 -78.5z" />
    <glyph glyph-name="uni2154" unicode="&#x2154;" horiz-adv-x="2189" 
d="M39 571v158l291 250q125 107 160.5 151.5t35.5 94.5q0 51 -36 81.5t-91 30.5q-59 0 -103.5 -33.5t-62.5 -105.5l-206 6q9 141 105 226.5t271 85.5q162 0 257.5 -79t95.5 -210q0 -72 -35 -128t-129 -143l-217 -202h389v-183h-725zM1661 1497l-995 -1505l-197 4l997 1501
h195zM1401 655q4 78 38.5 135t93 88.5t126 45.5t147.5 14q156 0 261.5 -69.5t105.5 -176.5q0 -141 -168 -198q82 -23 140.5 -81t58.5 -147q0 -88 -62 -155t-151 -98t-187 -31q-92 0 -160.5 13t-124.5 44.5t-87.5 89t-36.5 141.5l207 6q10 -34 30 -59t46.5 -38t53.5 -19
t56 -6q76 0 123 32.5t47 79.5q0 50 -43 83.5t-109 33.5l-125 4v170l109 6q66 1 107.5 33.5t41.5 77.5q0 41 -43 69.5t-96 28.5q-49 0 -84.5 -8t-67.5 -36.5t-40 -78.5z" />
    <glyph glyph-name="oneeighth" unicode="&#x215b;" horiz-adv-x="2023" 
d="M162 565v690l-162 -41v148l270 135h113v-932h-221zM1491 1497l-995 -1505l-197 4l997 1501h195zM1587 936q152 0 250 -74.5t98 -185.5q0 -40 -16.5 -74t-41.5 -55t-45.5 -33t-37.5 -18q76 -37 106 -63q76 -65 76 -171q0 -133 -107 -207.5t-288 -74.5q-170 0 -272.5 63
t-102.5 178q0 144 170 209q-1 1 -18.5 11.5t-37 26.5t-41 40t-35 60t-13.5 77q0 123 97 207t259 84zM1591 774q-55 0 -91 -27t-36 -71q0 -66 76 -88l90 -29q34 -10 69.5 28.5t35.5 82.5q0 43 -39 73.5t-105 30.5zM1595 141q67 0 104.5 27t37.5 72q0 34 -20.5 58t-71.5 40
l-105 35q-38 13 -80.5 -23.5t-42.5 -89.5q0 -119 178 -119z" />
    <glyph glyph-name="threeeighths" unicode="&#x215c;" horiz-adv-x="2224" 
d="M53 1233q4 78 39 135t93.5 88.5t126 45.5t147.5 14q156 0 261 -69.5t105 -176.5q0 -142 -168 -199q82 -24 140.5 -81t58.5 -146q0 -88 -61.5 -155t-150.5 -98.5t-187 -31.5q-92 0 -160.5 13.5t-125 45t-88 89t-36.5 141.5l207 6q19 -66 71 -94.5t115 -28.5q76 0 123 33
t47 80q0 50 -42.5 83.5t-108.5 33.5l-125 4v170l108 6q66 1 108 33t42 77q0 41 -43 70t-96 29q-36 0 -64 -4.5t-56.5 -17t-47.5 -38t-25 -63.5zM1692 1497l-996 -1505l-196 4l997 1501h195zM1788 936q152 0 250 -74.5t98 -185.5q0 -40 -16.5 -74t-41.5 -55t-45.5 -33
t-37.5 -18q76 -37 106 -63q76 -65 76 -171q0 -133 -107 -207.5t-288 -74.5q-170 0 -272.5 63t-102.5 178q0 144 170 209q-1 1 -18.5 11.5t-37 26.5t-41 40t-35 60t-13.5 77q0 123 97 207t259 84zM1792 774q-55 0 -91 -27t-36 -71q0 -66 76 -88l90 -29q34 -10 69 28.5
t35 82.5q0 43 -38.5 73.5t-104.5 30.5zM1796 141q66 0 103.5 27t37.5 72q0 34 -20.5 58t-71.5 40l-104 35q-38 13 -80.5 -23.5t-42.5 -89.5q0 -119 178 -119z" />
    <glyph glyph-name="fiveeighths" unicode="&#x215d;" horiz-adv-x="2228" 
d="M147 1497h619l-8 -178h-441l-16 -189q51 16 70 21.5t54 11.5t69 6q150 0 241.5 -78.5t91.5 -220.5q0 -149 -101.5 -233t-276.5 -84q-134 0 -241.5 51.5t-162.5 136.5l164 111q37 -43 60.5 -66t64 -42t88.5 -19q79 0 123.5 38t44.5 99q0 57 -41.5 94t-114.5 37
q-58 0 -145 -41q-13 -6 -18 -6t-17 6l-150 82zM1696 1497l-996 -1505l-196 4l997 1501h195zM1792 936q152 0 250 -74.5t98 -185.5q0 -40 -16.5 -74t-41.5 -55t-45.5 -33t-37.5 -18q76 -37 106 -63q76 -65 76 -171q0 -133 -107 -207.5t-288 -74.5q-170 0 -272.5 63
t-102.5 178q0 144 170 209q-1 1 -18.5 11.5t-37 26.5t-41 40t-35 60t-13.5 77q0 123 97 207t259 84zM1796 774q-55 0 -91 -27t-36 -71q0 -66 76 -88l90 -29q34 -10 69 28.5t35 82.5q0 43 -38.5 73.5t-104.5 30.5zM1800 141q67 0 104.5 27t37.5 72q0 34 -20.5 58t-72.5 40
l-104 35q-38 13 -80.5 -23.5t-42.5 -89.5q0 -119 178 -119z" />
    <glyph glyph-name="seveneighths" unicode="&#x215e;" horiz-adv-x="2154" 
d="M1622 1497l-995 -1505l-197 4l997 1501h195zM59 1495h715v-225q-114 -137 -210.5 -344.5t-96.5 -362.5h-238q2 59 21 139.5t56.5 181.5t106.5 216t158 217h-512v178zM1718 936q152 0 250 -74.5t98 -185.5q0 -40 -16.5 -74t-41.5 -55t-45.5 -33t-37.5 -18q76 -37 106 -63
q76 -65 76 -171q0 -133 -107 -207.5t-288 -74.5q-170 0 -272.5 63t-102.5 178q0 144 170 209q-1 1 -18.5 11.5t-37 26.5t-41 40t-35 60t-13.5 77q0 123 97 207t259 84zM1722 774q-55 0 -91 -27t-36 -71q0 -66 76 -88l90 -29q34 -10 69.5 28.5t35.5 82.5q0 43 -39 73.5
t-105 30.5zM1726 141q67 0 104.5 27t37.5 72q0 34 -20.5 58t-71.5 40l-105 35q-38 13 -80.5 -23.5t-42.5 -89.5q0 -119 178 -119z" />
    <glyph glyph-name="partialdiff" unicode="&#x2202;" horiz-adv-x="1249" 
d="M207 1159l-94 203q59 51 172 95t254 44q139 0 252 -47.5t196.5 -140.5t129.5 -242t46 -342q0 -171 -35.5 -307.5t-105.5 -235.5t-180.5 -152.5t-253.5 -53.5q-238 0 -375 138t-137 353q0 138 56 247.5t165 174.5t254 65q92 0 149.5 -24t116.5 -70q23 -14 29 -9t6 24
q0 63 -21 125t-63 118.5t-117 91.5t-172 35q-61 0 -116.5 -15.5t-86 -32t-69.5 -42.5zM582 223h2q97 0 159.5 88t77.5 234q3 31 1 43.5t-13 27.5q-29 47 -82 81t-115 34q-93 0 -151 -78t-58 -198q0 -109 50.5 -170.5t128.5 -61.5z" />
    <glyph glyph-name="emptyset" unicode="&#x2205;" horiz-adv-x="1241" 
d="M1145 1122l-127 -118q76 -120 76 -259q0 -130 -64 -240.5t-174 -174.5t-240 -64q-156 0 -286 99l-144 -134l-110 117l143 133q-80 119 -80 264q0 129 64 239t174 174.5t239 64.5q164 0 295 -103l127 117zM293 745q0 -88 41 -159l463 428q-80 55 -181 55q-133 0 -228 -96
t-95 -228zM942 745q0 82 -39 152l-459 -426q76 -51 172 -51q135 0 230.5 95t95.5 230z" />
    <glyph glyph-name="product" unicode="&#x220f;" horiz-adv-x="1470" 
d="M1413 1481v-285h-176v-1196h-358v1196h-306v-1196h-358v1196h-174v285h1372z" />
    <glyph glyph-name="summation" unicode="&#x2211;" horiz-adv-x="1220" 
d="M1141 0h-1078v207l420 526l-397 516v232h1018v-277h-545l356 -432l-397 -479h623v-293z" />
    <glyph glyph-name="minus" unicode="&#x2212;" horiz-adv-x="1234" 
d="M1114 870v-249h-1005v249h1005z" />
    <glyph glyph-name="uni2219" unicode="&#x2219;" horiz-adv-x="757" 
d="M367 578q-71 0 -121.5 51t-50.5 121q0 72 50.5 122t121.5 50t121.5 -50t50.5 -122q0 -70 -50.5 -121t-121.5 -51z" />
    <glyph glyph-name="radical" unicode="&#x221a;" horiz-adv-x="1458" 
d="M1448 1692l-530 -2022h-353l-297 815l-164 -61l-69 190l422 152l278 -778l424 1704h289z" />
    <glyph glyph-name="infinity" unicode="&#x221e;" horiz-adv-x="1675" 
d="M1567 563v-4q0 -178 -107.5 -282.5t-263.5 -104.5q-59 0 -108 15t-92.5 48t-72.5 62.5t-73 81.5q-13 15 -18.5 15.5t-20.5 -15.5q-2 -2 -31 -35t-54.5 -56t-67.5 -53t-95.5 -46.5t-111.5 -16.5q-149 0 -254 105t-105 272q0 169 108 274t275 105q48 0 91 -11t72 -24.5
t66 -44t55.5 -49.5t59.5 -62q15 -20 24 -19.5t27 19.5q37 42 63 67t70 58t97 49.5t114 16.5q153 0 253 -100t100 -265zM471 381h4q55 0 108 39t91 90q17 24 16.5 35t-18.5 39q-47 70 -95.5 105.5t-107.5 35.5q-70 0 -115 -48t-45 -122q0 -76 47 -125t115 -49zM1196 725h-2
q-39 0 -79.5 -23.5t-64 -47t-59.5 -64.5q-27 -34 0 -72q100 -137 211 -137q68 0 108 52.5t40 119.5q0 70 -43 121t-111 51z" />
    <glyph glyph-name="integral" unicode="&#x222b;" horiz-adv-x="993" 
d="M305 1167q0 274 100 409.5t310 135.5q147 0 229 -53l-65 -283q-80 37 -142 37q-59 0 -86.5 -46t-27.5 -159q0 -183 21.5 -536.5t21.5 -464.5q0 -283 -100 -421t-308 -138q-141 0 -227 51l69 283q68 -35 138 -35q58 0 86 46t28 163q0 176 -23.5 537.5t-23.5 473.5z" />
    <glyph glyph-name="approxequal" unicode="&#x2248;" horiz-adv-x="1296" 
d="M1163 940q-56 -100 -140.5 -153.5t-176.5 -53.5q-55 0 -110.5 21t-94 46.5t-89 46.5t-95.5 21q-37 0 -70.5 -12t-65.5 -38.5t-53 -48.5t-53 -60l-100 170q97 103 173.5 152.5t172.5 49.5q57 0 113 -21t93 -45.5t84 -45.5t89 -21q130 0 223 160zM1163 500
q-55 -101 -139.5 -154t-177.5 -53q-56 0 -112 21t-94.5 45.5t-88 45.5t-94.5 21q-37 0 -70.5 -12.5t-65 -39t-52 -47.5t-52.5 -59l-102 170q49 51 83 81.5t78 61.5t89.5 45.5t95.5 14.5q57 0 113 -21t93 -45.5t84 -45.5t89 -21q131 0 223 158z" />
    <glyph glyph-name="notequal" unicode="&#x2260;" horiz-adv-x="1247" 
d="M1153 813h-408l-98 -223h506v-250l-614 -2l-127 -293h-170l129 293h-224v252h334l99 223h-433v252h543l125 283h162l-123 -283h299v-252z" />
    <glyph glyph-name="lessequal" unicode="&#x2264;" horiz-adv-x="1234" 
d="M1081 682v-295l-981 381v283l981 379v-293l-604 -230zM1102 289v-250l-1006 2v248h1006z" />
    <glyph glyph-name="greaterequal" unicode="&#x2265;" horiz-adv-x="1234" 
d="M137 682l606 225l-606 230v293l981 -379v-283l-981 -381v295zM117 289h1005v-248l-1005 -2v250z" />
    <glyph glyph-name="lozenge" unicode="&#x25ca;" horiz-adv-x="1202" 
d="M727 0h-221l-375 741l383 740h223l375 -736zM625 1233l-232 -488l232 -503l231 499z" />
    <glyph glyph-name="i.loclTRK" horiz-adv-x="577" 
d="M477 1481v-312h-352v312h352zM467 1059v-1059h-348v1059h348z" />
    <glyph glyph-name="p.001" horiz-adv-x="1316" 
d="M150 -330v1389h350v-129q66 72 138 110.5t177 38.5q180 0 291 -138t111 -406q0 -143 -32 -251.5t-89 -174t-131 -97.5t-164 -32q-81 0 -150 28.5t-151 108.5v-447h-350zM668 209q196 0 196 332q0 307 -188 307q-83 0 -129.5 -59.5t-46.5 -184.5v-160q20 -235 168 -235z
" />
    <glyph glyph-name="q.001" horiz-adv-x="1239" 
d="M1133 -330h-351v447q-81 -80 -151.5 -108.5t-149.5 -28.5q-91 0 -165.5 32t-132 97.5t-89 174t-31.5 251.5q0 268 111 406t291 138q104 0 176.5 -38.5t140.5 -110.5v129h351v-1389zM612 209q150 0 170 235v160q0 244 -178 244q-40 0 -71.5 -14t-58.5 -47t-41.5 -95
t-14.5 -151q0 -332 194 -332z" />
    <glyph glyph-name="l.ss01" horiz-adv-x="669" 
d="M160 0v1522h348v-1522h-348z" />
    <glyph glyph-name="zero.osf" horiz-adv-x="1388" 
d="M696 1503q280 0 448.5 -203t168.5 -563q0 -358 -167 -555.5t-450 -197.5q-286 0 -454 197.5t-168 555.5q0 359 170 562.5t452 203.5zM694 258q124 0 180 110t56 367q0 263 -57 379.5t-179 116.5t-178.5 -117t-56.5 -379q0 -255 56 -366t179 -111z" />
    <glyph glyph-name="one.osf" horiz-adv-x="860" 
d="M309 0v1098l-256 -66v234l430 215h176v-1481h-350z" />
    <glyph glyph-name="two.osf" horiz-adv-x="1304" 
d="M76 0v252l461 395q137 118 199.5 180.5t87 109t24.5 101.5q0 82 -56.5 130.5t-144.5 48.5q-93 0 -164 -53t-100 -167l-326 11q13 223 166 358t432 135q257 0 408 -125.5t151 -333.5q0 -114 -56 -202.5t-204 -227.5l-344 -323h619v-289h-1153z" />
    <glyph glyph-name="three.osf" horiz-adv-x="1406" 
d="M68 1053q4 101 42 179.5t98.5 128.5t143.5 83t171 46t188 13q162 0 295 -49t210.5 -139t77.5 -203q0 -222 -268 -317q60 -16 113.5 -45.5t100 -72.5t74 -105.5t27.5 -135.5q0 -107 -56.5 -195.5t-148.5 -143.5t-202.5 -85t-224.5 -30q-116 0 -208 12.5t-174 44.5
t-137.5 83.5t-90.5 131.5t-42 186l328 11q20 -72 71 -117.5t106 -61.5t118 -16q121 0 196.5 52t75.5 126q0 79 -68 133.5t-173 55.5l-201 2v272l174 8q107 4 172.5 54.5t65.5 123.5q0 66 -68.5 110t-155.5 44q-44 0 -79.5 -4t-75 -16t-68 -32.5t-51 -57t-31.5 -85.5z" />
    <glyph glyph-name="four.osf" horiz-adv-x="1312" 
d="M709 1481h348v-879h217v-297h-217v-305h-350v305h-658v287zM412 602h297v399z" />
    <glyph glyph-name="five.osf" horiz-adv-x="1388" 
d="M229 1481h983l-14 -283h-698l-27 -301q8 2 33.5 10.5t33 10.5t29.5 9t30 9t27.5 7t29.5 6.5t27.5 4.5t31 4t30 2t33.5 1q238 0 384.5 -126.5t146.5 -351.5q0 -236 -162 -369.5t-440 -133.5q-212 0 -382.5 82t-258.5 217l260 178q43 -52 71.5 -81t70.5 -61t90.5 -46.5
t107.5 -14.5q124 0 194 61.5t70 155.5q0 93 -65 152t-181 59q-56 0 -105.5 -16t-125.5 -52q-23 -8 -28.5 -8t-27.5 10l-235 129z" />
    <glyph glyph-name="six.osf" horiz-adv-x="1361" 
d="M717 1503q147 0 268 -50t196.5 -148.5t80.5 -227.5l-312 -10q-31 85 -84.5 125.5t-140.5 40.5q-140 0 -213 -121t-51 -303q55 54 139 81.5t180 27.5q228 0 367 -123.5t139 -317.5q0 -140 -75.5 -251.5t-209 -173.5t-299.5 -62q-295 0 -462.5 195.5t-167.5 527.5
q0 370 173.5 580t471.5 210zM692 664q-82 0 -154.5 -48t-72.5 -98q6 -134 65.5 -203t157.5 -69q95 0 163.5 61t68.5 154q0 97 -66.5 150t-161.5 53z" />
    <glyph glyph-name="seven.osf" horiz-adv-x="1226" 
d="M53 1481h1137v-357q-114 -136 -223.5 -326t-187.5 -410.5t-79 -387.5h-376q4 94 34 221.5t89.5 288t168 343.5t248.5 345h-811v283z" />
    <glyph glyph-name="eight.osf" horiz-adv-x="1335" 
d="M662 1501q242 0 398.5 -118t156.5 -296q0 -52 -19 -98.5t-45 -76t-60.5 -55t-58 -37t-45.5 -19.5q100 -49 138 -76q155 -108 155 -297q0 -211 -172 -329.5t-461 -118.5q-268 0 -430 100.5t-162 281.5q0 227 271 336q-1 1 -23 14t-45.5 28.5t-54 45.5t-53.5 63.5
t-39.5 83.5t-16.5 105q0 94 39 178t110 147.5t179 100.5t238 37zM668 1245q-86 0 -143.5 -44.5t-57.5 -115.5q0 -101 119 -139l143 -45q37 -11 76.5 14.5t64.5 71t25 90.5q0 71 -60.5 119.5t-166.5 48.5zM674 238q106 0 165.5 42t59.5 115q0 54 -32 92t-115 64l-166 53
q-61 21 -128 -35.5t-67 -142.5q0 -188 283 -188z" />
    <glyph glyph-name="nine.osf" horiz-adv-x="1361" 
d="M641 -16q-146 0 -269.5 52.5t-200 150.5t-83.5 223l326 8q21 -76 74 -120t137 -44q74 0 132.5 24t102.5 74t63.5 136.5t10.5 203.5q-99 -141 -332 -141t-381.5 128t-148.5 331q0 214 165 350.5t420 136.5q294 0 461.5 -195t167.5 -528q0 -398 -170 -594t-475 -196z
M666 823q82 0 155.5 48.5t73.5 95.5q-6 137 -65.5 206.5t-159.5 69.5q-92 0 -154.5 -61.5t-62.5 -155.5q0 -91 62 -147t151 -56z" />
    <glyph glyph-name="zero.tf" horiz-adv-x="1435" 
d="M735 1503q280 0 449.5 -203.5t169.5 -562.5q0 -358 -167.5 -555.5t-451.5 -197.5q-285 0 -452.5 197.5t-167.5 555.5q0 359 170 562.5t450 203.5zM735 258q123 0 179.5 110.5t56.5 366.5q0 263 -57.5 379.5t-178.5 116.5q-122 0 -178.5 -117t-56.5 -379q0 -255 56 -366
t179 -111z" />
    <glyph glyph-name="one.tf" horiz-adv-x="1435" 
d="M936 324h330v-324h-1084v324h383v784l-379 -98v299l584 172h166v-1157z" />
    <glyph glyph-name="two.tf" horiz-adv-x="1435" 
d="M172 0v252l459 395q199 171 256 241.5t57 149.5q0 81 -57 130t-144 49q-94 0 -165.5 -53t-100.5 -167l-325 11q14 223 167 358t433 135q255 0 406 -125.5t151 -333.5q0 -114 -56 -202.5t-204 -227.5l-344 -323h618v-289h-1151z" />
    <glyph glyph-name="three.tf" horiz-adv-x="1435" 
d="M123 1051q5 101 43 179.5t98.5 128.5t143.5 83t171.5 46t188.5 13q162 0 295 -48.5t211 -138.5t78 -204q0 -222 -271 -317q60 -15 114 -44.5t100.5 -73t74 -106t27.5 -135.5q0 -107 -56.5 -195.5t-148.5 -143.5t-202.5 -85t-225.5 -30q-116 0 -207.5 12.5t-173.5 44.5
t-137.5 83.5t-90.5 132t-42 187.5l329 9q20 -72 70.5 -117t105.5 -60.5t119 -15.5q122 0 197.5 51t75.5 125q0 78 -69 133t-173 56l-201 2v272l174 8q106 4 171 54.5t65 123.5q0 67 -67 110.5t-154 43.5q-45 0 -80.5 -3.5t-75.5 -15.5t-68.5 -32.5t-51 -57t-31.5 -86.5z" />
    <glyph glyph-name="four.tf" horiz-adv-x="1435" 
d="M799 1481h346v-879h217v-297h-217v-305h-350l2 305h-658v287zM502 602h297v399z" />
    <glyph glyph-name="five.tf" horiz-adv-x="1435" 
d="M283 1481h983l-15 -283h-698l-27 -301q8 2 33.5 10.5t33 10.5t29.5 9t30 9t27.5 7t29.5 6.5t27.5 4.5t31 4t30 2t33.5 1q238 0 384.5 -126.5t146.5 -351.5q0 -236 -162 -369.5t-440 -133.5q-211 0 -381.5 82t-257.5 217l258 178q43 -52 71.5 -81t70.5 -61t90.5 -46.5
t107.5 -14.5q124 0 195 61.5t71 155.5q0 93 -65 152t-183 59q-56 0 -105.5 -16t-125.5 -52q-22 -8 -27.5 -8t-27.5 10l-236 129z" />
    <glyph glyph-name="six.tf" horiz-adv-x="1435" 
d="M780 1503q147 0 268 -50t196.5 -148.5t80.5 -227.5l-313 -10q-30 84 -83.5 125t-140.5 41q-140 0 -213 -121t-51 -303q54 54 139 81.5t181 27.5q228 0 367 -123.5t139 -317.5q0 -213 -166 -350t-420 -137q-294 0 -461.5 196t-167.5 527q0 370 173.5 580t471.5 210z
M756 664q-82 0 -156 -48t-74 -98q7 -135 67 -203.5t159 -68.5q95 0 163 61t68 154q0 97 -67 150t-160 53z" />
    <glyph glyph-name="seven.tf" horiz-adv-x="1435" 
d="M115 1481h1171v-357q-85 -99 -170 -237t-157 -289.5t-117.5 -311t-46.5 -286.5h-402q3 73 21.5 164t59.5 212.5t100.5 246t152.5 268t207 274.5h-819v316z" />
    <glyph glyph-name="eight.tf" horiz-adv-x="1435" 
d="M737 1501q242 0 398.5 -118t156.5 -296q0 -52 -19 -98.5t-45 -76.5t-60 -55t-57.5 -36.5t-45.5 -19.5q100 -49 138 -76q155 -108 155 -297q0 -211 -171.5 -329.5t-459.5 -118.5q-270 0 -432 100.5t-162 281.5q0 228 270 336q-1 1 -23 14t-45 28.5t-53.5 45.5t-54 63.5
t-39.5 83.5t-16 105q0 94 39 178t110 147.5t179 100.5t237 37zM743 1245q-86 0 -143 -44.5t-57 -115.5q0 -101 121 -139l143 -45q55 -17 109.5 44.5t54.5 131.5q0 71 -61 119.5t-167 48.5zM752 238q105 0 164 42t59 115q0 54 -32.5 92t-115.5 64l-165 53q-61 21 -128 -35.5
t-67 -142.5q0 -188 285 -188z" />
    <glyph glyph-name="nine.tf" horiz-adv-x="1435" 
d="M696 -16q-224 0 -383 119t-168 307l324 8q21 -76 74 -120t137 -44q74 0 132.5 24t102.5 74t63.5 136.5t10.5 203.5q-96 -141 -332 -141q-232 0 -380 128t-148 331q0 214 164.5 350.5t419.5 136.5q294 0 461 -195t167 -528q0 -399 -169.5 -594.5t-475.5 -195.5zM721 823
q82 0 155.5 48.5t73.5 95.5q-6 137 -65.5 206.5t-159.5 69.5q-92 0 -154.5 -61.5t-62.5 -155.5q0 -91 62 -147t151 -56z" />
    <glyph glyph-name="zero.subs" horiz-adv-x="874" 
d="M420 598q175 0 281 -128.5t106 -354.5q0 -224 -105 -348.5t-284 -124.5q-178 0 -283.5 124t-105.5 349q0 227 106.5 355t284.5 128zM418 -186q77 0 112 69.5t35 231.5q0 165 -35.5 238t-111.5 73t-112 -73t-36 -238q0 -160 36 -230.5t112 -70.5z" />
    <glyph glyph-name="one.subs" horiz-adv-x="641" 
d="M162 -338v690l-162 -41v148l270 135h113v-932h-221z" />
    <glyph glyph-name="two.subs" horiz-adv-x="811" 
d="M39 -338v158l291 250q125 108 160.5 151.5t35.5 93.5q0 51 -36 82t-91 31q-59 0 -103.5 -33.5t-62.5 -105.5l-206 6q9 141 105 226t271 85q162 0 257.5 -79t95.5 -210q0 -72 -35 -127t-129 -143l-217 -203h389v-182h-725z" />
    <glyph glyph-name="three.subs" horiz-adv-x="841" 
d="M53 317q4 78 39 135t93.5 88.5t126 45.5t147.5 14q156 0 261 -69.5t105 -176.5q0 -141 -168 -198q82 -23 140.5 -81t58.5 -147q0 -88 -61.5 -155t-150.5 -98t-187 -31q-92 0 -160.5 13t-125 44.5t-88 89t-36.5 141.5l207 7q19 -66 71 -94.5t115 -28.5q76 0 123 32.5
t47 79.5q0 50 -42.5 83.5t-108.5 33.5l-125 4v170l108 6q66 1 108 33.5t42 77.5q0 41 -43 69.5t-96 28.5q-36 0 -64 -4.5t-56.5 -17t-47.5 -38t-25 -63.5z" />
    <glyph glyph-name="four.subs" horiz-adv-x="874" 
d="M446 594h218v-553h137v-186h-137v-193h-220v193h-413v180zM260 41h186v252z" />
    <glyph glyph-name="five.subs" horiz-adv-x="845" 
d="M147 588h619l-8 -178h-441l-16 -189q51 16 70 21.5t54 11.5t69 6q150 0 241.5 -78.5t91.5 -220.5q0 -149 -101.5 -233t-276.5 -84q-134 0 -241.5 51.5t-162.5 136.5l164 111q37 -43 60.5 -66t64 -42t88.5 -19q79 0 123.5 38t44.5 99q0 57 -41.5 94t-114.5 37
q-58 0 -145 -41q-13 -6 -18 -6t-17 6l-150 82z" />
    <glyph glyph-name="six.subs" horiz-adv-x="849" 
d="M430 598q142 0 240 -73t104 -195l-199 -6q-19 53 -51.5 77.5t-87.5 24.5q-89 0 -134.5 -75.5t-31.5 -188.5q67 67 199 67q145 0 232 -77.5t87 -200.5q0 -133 -104 -219t-264 -86q-185 0 -290 122.5t-105 331.5q0 232 109 365t296 133zM416 70q-53 0 -99.5 -30.5
t-46.5 -62.5q4 -85 42 -128.5t100 -43.5q59 0 102 39t43 97q0 61 -41.5 95t-99.5 34z" />
    <glyph glyph-name="seven.subs" horiz-adv-x="772" 
d="M59 594h715v-225q-114 -137 -210.5 -344.5t-96.5 -362.5h-238q2 59 21 139.5t56.5 181.5t106.5 216t158 217h-512v178z" />
    <glyph glyph-name="eight.subs" horiz-adv-x="845" 
d="M410 600q152 0 250 -74.5t98 -185.5q0 -40 -16.5 -74t-42 -55t-46 -33t-37.5 -18q76 -37 105 -62q78 -65 78 -172q0 -133 -107.5 -207.5t-288.5 -74.5q-170 0 -272 63t-102 178q0 144 170 209q-1 1 -18.5 11.5t-37.5 26.5t-41 40t-35 60t-14 77q0 123 97.5 207t259.5 84z
M414 438q-55 0 -91 -27t-36 -71q0 -67 75 -88l91 -29q34 -10 69 28.5t35 82.5q0 43 -38.5 73.5t-104.5 30.5zM418 -195q66 0 103.5 27t37.5 72q0 34 -20.5 58t-71.5 40l-105 35q-38 13 -80 -23t-42 -90q0 -119 178 -119z" />
    <glyph glyph-name="nine.subs" horiz-adv-x="849" 
d="M391 -358q-140 0 -240 74.5t-106 193.5l205 6q27 -104 133 -104q97 0 150 66t42 208q-62 -88 -208 -88t-239 80.5t-93 208.5q0 134 103.5 220.5t262.5 86.5q186 0 292 -123t106 -332q0 -251 -107 -374t-301 -123zM408 170q51 0 97 30t46 60q-3 87 -40.5 130.5
t-100.5 43.5q-58 0 -97 -39t-39 -98q0 -58 39 -92.5t95 -34.5z" />
    <glyph glyph-name="zero.dnom" horiz-adv-x="874" 
d="M420 936q175 0 281 -128.5t106 -354.5q0 -224 -105 -348.5t-284 -124.5q-178 0 -283.5 124t-105.5 349q0 227 106.5 355t284.5 128zM418 152q77 0 112 69.5t35 231.5q0 165 -35.5 238t-111.5 73t-112 -73t-36 -238q0 -160 36 -230.5t112 -70.5z" />
    <glyph glyph-name="one.dnom" horiz-adv-x="641" 
d="M162 0v690l-162 -41v148l270 135h113v-932h-221z" />
    <glyph glyph-name="two.dnom" horiz-adv-x="811" 
d="M39 0v158l291 250q125 108 160.5 151.5t35.5 93.5q0 51 -36 82t-91 31q-59 0 -103.5 -33.5t-62.5 -105.5l-206 6q9 141 105 226t271 85q162 0 257.5 -79t95.5 -210q0 -72 -35 -127t-129 -143l-217 -203h389v-182h-725z" />
    <glyph glyph-name="three.dnom" horiz-adv-x="841" 
d="M53 655q4 78 39 135t93.5 88.5t126 45.5t147.5 14q156 0 261 -69.5t105 -176.5q0 -141 -168 -198q82 -23 140.5 -81t58.5 -147q0 -88 -61.5 -155t-150.5 -98t-187 -31q-92 0 -160.5 13t-125 44.5t-88 89t-36.5 141.5l207 6q10 -34 30 -59t46.5 -38t53.5 -19t56 -6
q76 0 123 32.5t47 79.5q0 50 -42.5 83.5t-108.5 33.5l-125 4v170l108 6q66 1 108 33.5t42 77.5q0 41 -43 69.5t-96 28.5q-36 0 -64 -4.5t-56.5 -17t-47.5 -38t-25 -63.5z" />
    <glyph glyph-name="four.dnom" horiz-adv-x="874" 
d="M446 932h218v-553h137v-186h-137v-193h-220v193h-413v180zM260 379h186v252z" />
    <glyph glyph-name="five.dnom" horiz-adv-x="845" 
d="M147 926h619l-8 -178h-441l-16 -189q51 16 70 21.5t54 11.5t69 6q150 0 241.5 -78.5t91.5 -220.5q0 -149 -101.5 -233t-276.5 -84q-134 0 -241.5 51.5t-162.5 136.5l164 111q37 -43 60.5 -66t64 -42t88.5 -19q79 0 123.5 38t44.5 99q0 57 -41.5 94t-114.5 37
q-58 0 -145 -41q-13 -6 -18 -6t-17 6l-150 82z" />
    <glyph glyph-name="six.dnom" horiz-adv-x="849" 
d="M430 936q142 0 240 -73t104 -195l-199 -6q-19 53 -51.5 77.5t-87.5 24.5q-89 0 -134.5 -75.5t-31.5 -188.5q67 67 199 67q145 0 232 -77.5t87 -200.5q0 -133 -104 -219t-264 -86q-185 0 -290 122.5t-105 331.5q0 232 109 365t296 133zM416 408q-53 0 -99.5 -30.5
t-46.5 -62.5q4 -85 42 -128.5t100 -43.5q59 0 102 39t43 97q0 61 -41.5 95t-99.5 34z" />
    <glyph glyph-name="seven.dnom" horiz-adv-x="772" 
d="M59 932h715v-225q-114 -137 -210.5 -344.5t-96.5 -362.5h-238q2 59 21 139.5t56.5 181.5t106.5 216t158 217h-512v178z" />
    <glyph glyph-name="eight.dnom" horiz-adv-x="845" 
d="M410 936q152 0 250 -74.5t98 -185.5q0 -40 -16.5 -74t-42 -55t-46 -33t-37.5 -18q76 -37 105 -62q78 -65 78 -172q0 -133 -107.5 -207.5t-288.5 -74.5q-170 0 -272 63t-102 178q0 144 170 209q-1 1 -18.5 11.5t-37.5 26.5t-41 40t-35 60t-14 77q0 123 97.5 207t259.5 84z
M414 774q-55 0 -91 -27t-36 -71q0 -67 75 -88l91 -29q34 -10 69 28.5t35 82.5q0 43 -38.5 73.5t-104.5 30.5zM418 141q66 0 103.5 27t37.5 72q0 34 -20.5 58t-71.5 40l-105 35q-38 13 -80 -23t-42 -90q0 -119 178 -119z" />
    <glyph glyph-name="nine.dnom" horiz-adv-x="849" 
d="M391 -20q-140 0 -240 74.5t-106 193.5l205 6q27 -104 133 -104q97 0 150 66t42 208q-62 -88 -208 -88t-239 80.5t-93 208.5q0 134 103.5 220.5t262.5 86.5q186 0 292 -123t106 -332q0 -251 -107 -374t-301 -123zM408 508q51 0 97 30t46 60q-3 87 -40.5 130.5t-100.5 43.5
q-58 0 -97 -39t-39 -98q0 -58 39 -92.5t95 -34.5z" />
    <glyph glyph-name="zero.numr" horiz-adv-x="874" 
d="M420 1518q175 0 281 -128.5t106 -355.5q0 -224 -105 -348.5t-284 -124.5q-178 0 -283.5 124t-105.5 349q0 227 107 355.5t284 128.5zM418 733q77 0 112 69.5t35 231.5q0 165 -35.5 238.5t-111.5 73.5t-112 -73.5t-36 -238.5q0 -160 36 -230.5t112 -70.5z" />
    <glyph glyph-name="one.numr" horiz-adv-x="641" 
d="M162 565v690l-162 -41v148l270 135h113v-932h-221z" />
    <glyph glyph-name="two.numr" horiz-adv-x="811" 
d="M39 571v158l291 250q125 107 160.5 151.5t35.5 94.5q0 51 -36 81.5t-91 30.5q-59 0 -103.5 -33.5t-62.5 -105.5l-206 6q9 141 105 226.5t271 85.5q162 0 257.5 -79t95.5 -210q0 -72 -35 -128t-129 -143l-217 -202h389v-183h-725z" />
    <glyph glyph-name="three.numr" horiz-adv-x="841" 
d="M53 1233q4 78 39 135t93.5 88.5t126 45.5t147.5 14q156 0 261 -69.5t105 -176.5q0 -142 -168 -199q82 -24 140.5 -81t58.5 -146q0 -88 -61.5 -155t-150.5 -98.5t-187 -31.5q-92 0 -160.5 13.5t-125 45t-88 89t-36.5 141.5l207 6q19 -66 71 -94.5t115 -28.5q76 0 123 33
t47 80q0 50 -42.5 83.5t-108.5 33.5l-125 4v170l108 6q66 1 108 33t42 77q0 41 -43 70t-96 29q-36 0 -64 -4.5t-56.5 -17t-47.5 -38t-25 -63.5z" />
    <glyph glyph-name="four.numr" horiz-adv-x="874" 
d="M446 1497h218v-553h137v-186h-137v-193h-220v193h-413v180zM260 944h186v252z" />
    <glyph glyph-name="five.numr" horiz-adv-x="845" 
d="M147 1497h619l-8 -178h-441l-16 -189q51 16 70 21.5t54 11.5t69 6q150 0 241.5 -78.5t91.5 -220.5q0 -149 -101.5 -233t-276.5 -84q-134 0 -241.5 51.5t-162.5 136.5l164 111q37 -43 60.5 -66t64 -42t88.5 -19q79 0 123.5 38t44.5 99q0 57 -41.5 94t-114.5 37
q-58 0 -145 -41q-13 -6 -18 -6t-17 6l-150 82z" />
    <glyph glyph-name="six.numr" horiz-adv-x="849" 
d="M430 1520q142 0 240 -73.5t104 -195.5l-199 -6q-19 53 -51.5 78t-87.5 25q-89 0 -134.5 -76t-31.5 -189q33 33 86.5 50.5t112.5 17.5q145 0 232 -78t87 -201q0 -133 -104 -219t-264 -86q-184 0 -289.5 123t-105.5 332q0 232 109 365t296 133zM416 991q-53 0 -99.5 -30.5
t-46.5 -61.5q4 -85 42 -128.5t100 -43.5q60 0 102.5 38.5t42.5 96.5q0 61 -41.5 95t-99.5 34z" />
    <glyph glyph-name="seven.numr" horiz-adv-x="772" 
d="M59 1495h715v-225q-114 -137 -210.5 -344.5t-96.5 -362.5h-238q2 59 21 139.5t56.5 181.5t106.5 216t158 217h-512v178z" />
    <glyph glyph-name="eight.numr" horiz-adv-x="845" 
d="M410 1516q152 0 250 -75t98 -186q0 -40 -16.5 -74t-42 -55t-46 -33t-37.5 -18q75 -37 104 -60q79 -66 79 -173q0 -133 -107.5 -208t-288.5 -75q-169 0 -271.5 63.5t-102.5 178.5q0 144 170 209q-1 1 -18.5 11.5t-37.5 26.5t-41 40t-35 60t-14 77q0 123 97.5 207t259.5 84
zM414 1354q-55 0 -91 -27.5t-36 -71.5q0 -67 75 -88l91 -28q34 -10 69 28t35 82t-38.5 74.5t-104.5 30.5zM418 721q67 0 104 26.5t37 71.5q0 35 -20.5 59t-71.5 40l-105 34q-38 13 -80 -23t-42 -89q0 -119 178 -119z" />
    <glyph glyph-name="nine.numr" horiz-adv-x="849" 
d="M391 563q-140 0 -240 74.5t-106 193.5l205 7q28 -105 133 -105q97 0 150 66.5t42 208.5q-62 -88 -208 -88t-239 80t-93 208q0 135 103.5 221.5t262.5 86.5q186 0 292 -123t106 -332q0 -251 -107 -374.5t-301 -123.5zM408 1092q51 0 97 30t46 60q-3 87 -40.5 130.5
t-100.5 43.5q-58 0 -97 -39t-39 -98q0 -58 39 -92.5t95 -34.5z" />
    <glyph glyph-name="period.tf" horiz-adv-x="624" 
d="M539 362v-362h-373v362h373z" />
    <glyph glyph-name="comma.tf" horiz-adv-x="624" 
d="M168 -299l121 289l-111 12v317h332v-280l-221 -338h-121z" />
    <glyph glyph-name="bullet.uc" horiz-adv-x="757" 
d="M367 471q-117 0 -200 83t-83 200q0 116 83 199t200 83t199.5 -83t82.5 -199q0 -117 -82.5 -200t-199.5 -83z" />
    <glyph glyph-name="caroncomb.alt" horiz-adv-x="0" 
d="M-301 1012q-11 0 -16 9t0 19l61 152q7 19 4.5 27.5t-18.5 11.5l-21 4q-19 2 -26 8t-7 21v188q0 29 25 29h178q23 0 23 -23v-223q0 -5 -2 -11l-2 -7l-76 -177q-8 -28 -55 -28h-68z" />
    </font>
</defs>
</svg>
