<?xml version="1.0" standalone="no"?>
<!DOCTYPE svg PUBLIC "-//W3C//DTD SVG 1.1//EN" "http://www.w3.org/Graphics/SVG/1.1/DTD/svg11.dtd" >
<svg xmlns="http://www.w3.org/2000/svg" xmlns:xlink="http://www.w3.org/1999/xlink" version="1.1">
<metadata>
Created by FontForge 20201107 at Thu Jun 12 13:50:19 2025
 By 
copyright missing
</metadata>
<defs>
<font id="PublicSans-ExtraBoldItalic" horiz-adv-x="0" >
  <font-face 
    font-family="Public Sans ExtraBold"
    font-weight="800"
    font-style="italic"
    font-stretch="normal"
    units-per-em="2048"
    panose-1="0 0 9 0 0 0 0 0 0 0"
    ascent="1597"
    descent="-451"
    x-height="1057"
    cap-height="1481"
    bbox="-971 -504 2673.79 2337"
    underline-thickness="102"
    underline-position="-204"
    slope="-8"
    unicode-range="U+000D-FB02"
  />
<missing-glyph horiz-adv-x="1318" 
d="M317 1690h1008l-281 -2020h-1005zM969 -123l239 1714h-733zM391 1468l-237 -1697h729z" />
    <glyph glyph-name="fi" unicode="fi" horiz-adv-x="1380" 
d="M1409 1520l-47 -312h-350l45 312h352zM846 1057l-35 -238h-203l-114 -819h-349l113 819h-182l35 238h180l20 149q19 128 109.5 201.5t230.5 73.5h262l-30 -230h-129q-53 0 -77.5 -24.5t-31.5 -85.5l-14 -84h215zM1339 1057l-145 -1057h-348l147 1057h346z" />
    <glyph glyph-name="fl" unicode="fl" horiz-adv-x="1476" 
d="M1208 -18q-73 0 -129 10.5t-92 27t-60 43t-35 52.5t-14 62.5t-1 64.5t8 67l170 1211h342l-162 -1166q-4 -32 -0.5 -58t28 -44.5t70.5 -24.5l45 -4l-30 -213q-75 -28 -140 -28zM846 1057l-35 -238h-203l-114 -819h-349l113 819h-182l35 238h180l20 149q19 128 109.5 201.5
t230.5 73.5h262l-30 -230h-129q-53 0 -77.5 -24.5t-31.5 -85.5l-14 -84h215z" />
    <glyph glyph-name="colon_one_eight_F_colon.liga" unicode="&#x3a;&#x31;&#x38;F&#x3a;" horiz-adv-x="1806" 
d="M190 1556h1496q24 0 24 -24v-1505q0 -12 -6.5 -19.5t-17.5 -7.5h-1496q-24 0 -24 27v1505q0 24 24 24zM911 479q72 0 123 52t51 124q0 93 -73 144q51 48 51 116q0 64 -44.5 109t-107.5 45q-67 0 -110 -44.5t-43 -109.5q0 -66 53 -116q-74 -50 -74 -144q0 -73 50.5 -124.5
t123.5 -51.5zM651 498v555q0 10 -8 10h-137q-8 0 -8 -10v-52q0 -10 8 -10h74v-493q0 -9 6 -9h57q8 0 8 9zM1401 1001v52q0 10 -8 10h-213q-9 0 -9 -10v-555q0 -9 9 -9h53q12 0 12 9v252h121q8 0 8 8v53q0 8 -8 8h-121v172h148q8 0 8 10zM911 834q-36 0 -61 23t-25 58
q0 36 25 61t61 25q35 0 59.5 -24.5t24.5 -61.5q0 -35 -24 -58t-60 -23zM911 760q44 0 74.5 -30.5t30.5 -74.5t-30.5 -74t-74.5 -30q-43 0 -73.5 30t-30.5 74t30.5 74.5t73.5 30.5z" />
    <glyph glyph-name="colon_f_l_a_g_two_colon.liga" unicode="&#x3a;flag&#x32;&#x3a;" horiz-adv-x="2590" 
d="M248 1556h2165v-1554h-2165v1554zM2286 1321v109h-1086v-109h1086zM438 1198h129v119h-129v-119zM918 1198h124v119h-124v-119zM680 1077h125v121h-125v-121zM1200 1081h1086v113h-1086v-113zM442 958h125v119h-125v-119zM1042 1077h-124v-119h124v119zM805 958h-125
v-120h125v120zM1200 842h1086v112h-1086v-112zM567 838h-125v-119h125v119zM1042 838h-124v-119h124v119zM1200 602h1086v113h-1086v-113zM2286 475h-1915v-113h1915v113zM373 129h1913v107h-1913v-107z" />
    <glyph glyph-name="colon_f_l_a_g_colon.liga" unicode="&#x3a;flag&#x3a;" horiz-adv-x="2590" 
d="M248 1556h2165v-1554h-2165v1554zM2294 1436h-1927v-838h1927v121h-1096v119h1096v120h-1096v119h1096v121h-1096v119h1096v119zM604 1317v-119h-119v119h119zM1079 1317v-119h-118v119h118zM840 1198v-121h-117v121h117zM604 1077v-119h-119v119h119zM1079 1077v-119
h-118v119h118zM840 958v-120h-117v120h117zM604 838v-119h-119v119h119zM1079 838v-119h-118v119h118zM2294 479h-1927v-121h1927v121zM367 119h1927v121h-1927v-121z" />
    <glyph glyph-name=".notdef" horiz-adv-x="1318" 
d="M317 1690h1008l-281 -2020h-1005zM969 -123l239 1714h-733zM391 1468l-237 -1697h729z" />
    <glyph glyph-name="uni0000" horiz-adv-x="4" 
 />
    <glyph glyph-name="nonmarkingreturn" horiz-adv-x="682" 
 />
    <glyph glyph-name="CR" unicode="&#xd;" horiz-adv-x="405" 
 />
    <glyph glyph-name="space" unicode=" " horiz-adv-x="483" 
 />
    <glyph glyph-name="exclam" unicode="!" horiz-adv-x="602" 
d="M623 1481l-234 -987h-213l43 987h404zM446 356l-49 -356h-372l47 356h374z" />
    <glyph glyph-name="quotedbl" unicode="&#x22;" horiz-adv-x="1036" 
d="M618 1481l-167 -619h-170l2 619h335zM1104 1481l-168 -619h-170l2 619h336z" />
    <glyph glyph-name="numbersign" unicode="#" horiz-adv-x="1261" 
d="M1247 870h-246l-69 -245h215l-25 -174h-239l-131 -455l-174 24l122 431h-254l-131 -455l-176 24l123 431h-225l22 174h252l72 245h-221l24 172h246l125 439l178 -19l-121 -420h256l125 439l176 -19l-120 -420h219zM750 625l71 245h-256l-69 -245h254z" />
    <glyph glyph-name="dollar" unicode="$" horiz-adv-x="1378" 
d="M1260 426q-25 -183 -175.5 -307.5t-367.5 -124.5l-23 -146h-223l23 146q-164 10 -280 67.5t-210 163.5l191 183q157 -146 333 -181l54 373q-125 22 -213 66t-134 105.5t-61 132.5t-2 155q17 115 95 211.5t192.5 150.5t238.5 54l23 131h219l-20 -138q228 -51 366 -182
l-168 -180q-74 69 -122.5 94.5t-112.5 26.5l-45 -334l133 -35q148 -42 230 -159.5t59 -272.5zM625 918l43 313q-77 -2 -141.5 -50t-67.5 -120q-1 -47 23 -76.5t77 -50.5zM745 246q95 9 155.5 54t66.5 110q9 59 -30.5 96.5t-143.5 60.5z" />
    <glyph glyph-name="percent" unicode="%" horiz-adv-x="1943" 
d="M596 1503q107 0 189.5 -61.5t120.5 -163.5t22 -219q-24 -163 -144.5 -279t-275.5 -116q-110 0 -194.5 59.5t-123 159.5t-22.5 217q25 165 149 284t279 119zM1729 1497l-1201 -1505l-217 4l1200 1501h218zM502 840q72 0 116.5 67t59.5 191q16 118 -2.5 174.5t-79.5 56.5
q-69 0 -114.5 -71.5t-63.5 -200.5q-14 -111 4 -164t80 -53zM1485 817q108 0 190.5 -61t120 -162.5t21.5 -216.5q-24 -165 -145 -281t-277 -116q-110 0 -193.5 59.5t-121 159.5t-21.5 217q24 165 147.5 283t278.5 118zM1391 156q138 0 178 258q16 117 -2.5 174t-79.5 57
q-71 0 -117 -71.5t-61 -198.5q-16 -111 2.5 -165t79.5 -54z" />
    <glyph glyph-name="ampersand" unicode="&#x26;" horiz-adv-x="1671" 
d="M913 1503q132 0 233 -40.5t151 -114.5t36 -166q-27 -208 -372 -396l153 -221q92 176 127 295h358q-36 -74 -97.5 -160.5t-139 -185t-113.5 -149.5l260 -365h-399l-98 135q-233 -145 -502 -145q-244 0 -351 103.5t-83 277.5q22 149 126 251t318 207q-8 11 -27 36.5
t-25.5 35t-21.5 31t-20 32t-14.5 30t-12.5 33.5t-6.5 33t-3 37.5t3.5 39.5q23 159 168.5 262.5t351.5 103.5zM899 1298q-63 -3 -106.5 -41.5t-51.5 -95.5q-11 -63 62 -153l39 -54q93 56 137.5 105.5t52.5 103.5q7 65 -30.5 101t-102.5 34zM662 633q-86 -45 -141 -106
t-50 -134q1 -66 51.5 -103.5t112.5 -37.5q52 0 120.5 22t118.5 62z" />
    <glyph glyph-name="quotesingle" unicode="'" horiz-adv-x="538" 
d="M571 1481l-168 -619h-172l2 619h338z" />
    <glyph glyph-name="parenleft" unicode="(" horiz-adv-x="722" 
d="M293 -330q-119 242 -166 452t-10 466q64 462 397 893h279q-308 -450 -377 -934q-30 -230 -7 -432t99 -445h-215z" />
    <glyph glyph-name="parenright" unicode=")" horiz-adv-x="720" 
d="M-109 -330q305 451 377 934q29 227 6 432t-100 445h215q120 -238 166 -449.5t8 -468.5q-64 -465 -395 -893h-277z" />
    <glyph glyph-name="asterisk" unicode="*" horiz-adv-x="1042" 
d="M713 614l-133 291l-213 -293l-177 140l252 249l-301 89l99 188l282 -137l25 340h219l-78 -328l311 133l39 -207l-321 -90l184 -258z" />
    <glyph glyph-name="plus" unicode="+" horiz-adv-x="1228" 
d="M1157 870l-39 -249h-370l-54 -377h-250l54 377h-373l33 249h374l54 377h248l-54 -377h377z" />
    <glyph glyph-name="comma" unicode="," horiz-adv-x="600" 
d="M-18 -299l161 289l-110 12l43 317h332l-37 -280l-267 -338h-122z" />
    <glyph glyph-name="hyphen" unicode="-" horiz-adv-x="823" 
d="M709 649l-37 -248h-574l33 248h578z" />
    <glyph glyph-name="period" unicode="." horiz-adv-x="593" 
d="M446 362l-49 -362h-372l49 362h372z" />
    <glyph glyph-name="slash" unicode="/" horiz-adv-x="815" 
d="M-57 -18l725 1499h250l-730 -1499h-245z" />
    <glyph glyph-name="zero" unicode="0" horiz-adv-x="1378" 
d="M825 1503q180 0 307 -96.5t179.5 -271t21.5 -398.5q-47 -340 -244.5 -546.5t-474.5 -206.5q-278 0 -418.5 206.5t-93.5 546.5q31 224 132.5 398.5t255.5 271t335 96.5zM651 258q123 0 192.5 110t104.5 367q38 262 -2 379t-160 117t-192.5 -117t-110.5 -379
q-33 -256 7 -366.5t161 -110.5z" />
    <glyph glyph-name="one" unicode="1" horiz-adv-x="860" 
d="M236 0l151 1098l-262 -68l33 236l456 215h179l-207 -1481h-350z" />
    <glyph glyph-name="two" unicode="2" horiz-adv-x="1292" 
d="M-2 0l35 250l510 397q221 169 287.5 240.5t76.5 150.5q10 82 -37.5 130.5t-134.5 48.5q-47 0 -87 -8.5t-85.5 -30t-90 -65.5t-85.5 -109l-248 116q138 196 298 288.5t360 92.5q252 0 379.5 -125.5t97.5 -333.5q-17 -114 -84.5 -203t-231.5 -227l-387 -323h613l-39 -289
h-1147z" />
    <glyph glyph-name="three" unicode="3" horiz-adv-x="1339" 
d="M221 1262q89 106 252.5 172.5t333.5 66.5q244 0 385.5 -108.5t118.5 -282.5q-33 -222 -312 -317q56 -16 104.5 -45.5t89 -73t59 -106t8.5 -136.5q-15 -106 -82.5 -194t-165 -143t-211 -85t-226.5 -30q-184 0 -336.5 81.5t-218.5 212.5l271 175q83 -107 155.5 -150
t184.5 -43q107 0 175 47t79 123q13 84 -48.5 136.5t-166.5 55.5l-207 5l39 270l172 8q107 6 178.5 56t81.5 126q9 62 -40 106t-130 44q-96 0 -176 -38.5t-180 -129.5z" />
    <glyph glyph-name="four" unicode="4" horiz-adv-x="1302" 
d="M838 1481h344l-123 -879h215l-37 -268h-215l-47 -334h-350l49 334h-651l34 258zM352 602h361l71 506z" />
    <glyph glyph-name="five" unicode="5" horiz-adv-x="1376" 
d="M358 1481h977l-55 -283h-690l-70 -303q78 26 112.5 36t90 20t108.5 10q236 0 363.5 -126.5t97.5 -351.5q-34 -236 -213.5 -369.5t-455.5 -133.5q-211 0 -368.5 82t-223.5 217l282 178q28 -41 46 -65.5t47 -54t57 -45.5t68 -27t87 -11q124 0 202.5 61.5t90.5 155.5
q11 93 -44 152t-171 59q-53 0 -104 -16t-131 -54q-24 -8 -29.5 -7.5t-25.5 11.5l-218 127z" />
    <glyph glyph-name="six" unicode="6" horiz-adv-x="1351" 
d="M850 1497q102 0 189.5 -32.5t143.5 -83t89.5 -107t38.5 -109.5l-314 -92q-31 76 -71.5 114t-112.5 38q-138 0 -222.5 -106.5t-96.5 -287.5q132 51 194.5 65.5t136.5 14.5q227 0 350 -122.5t95 -315.5q-19 -139 -110.5 -251t-234 -175t-307.5 -63q-293 0 -430.5 195.5
t-91.5 527.5q51 368 254 579t500 211zM700 657q-51 0 -115 -18.5t-102 -40.5q-15 -11 -21 -24t-9 -42q-19 -127 32 -209.5t156 -82.5q90 0 161 62t83 155q13 93 -41 146.5t-144 53.5z" />
    <glyph glyph-name="seven" unicode="7" horiz-adv-x="1218" 
d="M186 1481h1129l-49 -359q-98 -99 -202 -236t-196 -288.5t-158.5 -311t-84.5 -286.5h-377q14 74 45 167.5t89.5 220.5t134.5 256t189.5 276t245.5 278h-805z" />
    <glyph glyph-name="eight" unicode="8" horiz-adv-x="1327" 
d="M793 1501q240 0 378.5 -118t112.5 -296q-7 -52 -31.5 -98.5t-54.5 -76.5t-66.5 -55t-61.5 -37t-46 -19q85 -48 108 -65q155 -112 128 -310q-20 -139 -113 -240.5t-241 -153.5t-337 -52q-175 0 -300.5 43.5t-188 130.5t-45.5 208q31 230 315 334l-27 18q-27 18 -53.5 43
t-55 63.5t-42 95.5t-4.5 122q18 126 98 230.5t218 168.5t309 64zM762 1243q-85 0 -147 -43.5t-72 -114.5q-13 -105 98 -139l137 -45q52 -18 115 43.5t72 130.5q9 71 -44 119.5t-159 48.5zM631 238q103 0 167.5 42t75.5 115q7 54 -19.5 92t-104.5 64l-158 53
q-58 21 -131 -35.5t-86 -144.5q-12 -90 49 -138t207 -48z" />
    <glyph glyph-name="nine" unicode="9" horiz-adv-x="1353" 
d="M557 -16q-102 0 -190.5 32t-144.5 82.5t-89.5 107t-38.5 109.5l309 93q35 -77 75.5 -114.5t113.5 -37.5q139 0 227.5 117.5t91.5 296.5q-124 -101 -329 -101q-227 0 -348 122t-95 317q19 140 110 252t232.5 174.5t306.5 62.5q292 0 432 -195.5t95 -527.5
q-52 -369 -257 -579.5t-501 -210.5zM705 823q81 0 160 48.5t85 95.5q12 137 -36.5 205.5t-147.5 68.5q-91 0 -161.5 -62t-82.5 -155q-14 -93 39.5 -147t143.5 -54z" />
    <glyph glyph-name="colon" unicode=":" horiz-adv-x="595" 
d="M545 1040l-51 -356h-371l47 356h375zM449 362l-50 -356h-370l47 356h373z" />
    <glyph glyph-name="semicolon" unicode=";" horiz-adv-x="612" 
d="M127 672l49 364h373l-51 -364h-371zM-33 -328l193 328h-125l49 358h375l-51 -329l-281 -357h-160z" />
    <glyph glyph-name="less" unicode="&#x3c;" horiz-adv-x="1226" 
d="M1063 467l-37 -281l-922 377l39 285l1028 379l-43 -307l-632 -222z" />
    <glyph glyph-name="equal" unicode="=" horiz-adv-x="1228" 
d="M1182 1063l-33 -250h-999l34 250h998zM1116 588l-35 -248l-997 -2l35 250h997z" />
    <glyph glyph-name="greater" unicode="&#x3e;" horiz-adv-x="1222" 
d="M129 481l629 217l-568 236l41 280l922 -380l-43 -283l-1024 -377z" />
    <glyph glyph-name="question" unicode="?" horiz-adv-x="1126" 
d="M100 1151q89 172 236 261t342 89q225 0 354.5 -107t108.5 -259q-9 -63 -37.5 -116.5t-68 -93t-85.5 -76t-92.5 -72.5t-86 -74.5t-68 -90.5t-37.5 -112h-275q10 76 36.5 143t62 116t75.5 92.5t79.5 80t72.5 71t56 73.5t28 79q7 53 -29.5 83t-99.5 30q-77 0 -150.5 -52
t-113.5 -139zM696 356l-53 -356h-371l50 356h374z" />
    <glyph glyph-name="at" unicode="@" horiz-adv-x="1708" 
d="M1288 -90q-89 -57 -223.5 -96t-286.5 -39q-181 0 -323 60.5t-227.5 164.5t-121 243.5t-14.5 297.5q22 158 98.5 299.5t194 248t279.5 168.5t344 62q113 0 214.5 -24t188.5 -76.5t146.5 -128.5t85.5 -187.5t8 -245.5q-32 -222 -156.5 -358.5t-294.5 -136.5q-74 0 -121 27
t-73 87q-30 -67 -109.5 -105t-183.5 -38q-139 0 -216 103.5t-53 269.5q12 87 51 167t97.5 141t138.5 97.5t168 36.5q140 0 209 -117l31 64h196l-139 -451q-27 -94 27 -94q85 0 148 98.5t83 233.5q14 102 -3 181.5t-56.5 130t-101.5 83.5t-132 46.5t-153 13.5
q-129 0 -238.5 -33.5t-189.5 -91.5t-141 -138t-96.5 -172t-51.5 -196q-36 -270 101.5 -415.5t414.5 -145.5q128 0 208.5 31t172.5 96zM678 492q-8 -69 15.5 -113.5t82.5 -44.5q83 0 153.5 74.5t88.5 169.5q14 74 -13 122t-87 48q-83 0 -153 -75t-87 -181z" />
    <glyph glyph-name="A" unicode="A" horiz-adv-x="1476" 
d="M-37 0l729 1481h361l315 -1481h-346l-64 315h-493l-156 -315h-346zM582 616h338l-95 529z" />
    <glyph glyph-name="B" unicode="B" horiz-adv-x="1421" 
d="M82 0l207 1481h559q294 0 422 -99t100 -290q-14 -112 -80.5 -191t-210.5 -141q71 -21 120 -54t73.5 -67.5t35 -79.5t10 -80t-6.5 -78q-28 -207 -180 -304t-461 -97h-588zM555 885h262q82 0 142.5 43t72.5 119q10 78 -41.5 122.5t-142.5 44.5h-248zM469 266h250
q105 0 169 49t77 127q9 79 -42 124.5t-143 45.5h-264z" />
    <glyph glyph-name="C" unicode="C" horiz-adv-x="1492" 
d="M918 1501q255 0 406.5 -140.5t143.5 -367.5l-350 -24q-3 115 -60 182.5t-167 67.5q-141 0 -242.5 -112.5t-136.5 -356.5q-34 -246 36 -367t212 -121q104 0 181 73.5t116 190.5l344 -26q-26 -93 -61.5 -167t-92 -142t-130 -113t-177 -71.5t-231.5 -26.5q-206 0 -347.5 99
t-200 274.5t-28.5 402.5q47 342 259 543.5t526 201.5z" />
    <glyph glyph-name="D" unicode="D" horiz-adv-x="1488" 
d="M289 1481q419 0 483 -2q195 -7 334.5 -61.5t217 -151t103.5 -227.5t3 -296q-22 -168 -87.5 -303t-172 -234t-262 -152.5t-349.5 -53.5h-477zM600 1202l-129 -923h137q78 0 149.5 25.5t136.5 78.5t111 146.5t64 218.5q31 228 -56.5 341t-273.5 113h-139z" />
    <glyph glyph-name="E" unicode="E" horiz-adv-x="1327" 
d="M82 0l207 1481h1046l-43 -293h-694l-43 -303h592l-37 -283h-596l-41 -309h703l-41 -293h-1053z" />
    <glyph glyph-name="F" unicode="F" horiz-adv-x="1261" 
d="M289 1481h1038l-43 -289h-686l-45 -318h584l-37 -282h-586l-82 -592h-350z" />
    <glyph glyph-name="G" unicode="G" horiz-adv-x="1576" 
d="M700 -20q-202 0 -342.5 94.5t-199.5 265.5t-29 395q33 230 145 404t283 268t377 94q135 0 241.5 -41.5t172 -111.5t101 -154.5t40.5 -177.5l-373 -55q-27 249 -229 249q-139 0 -241.5 -113.5t-137.5 -351.5q-12 -80 -9.5 -143t12 -111t30.5 -83.5t45 -59t55.5 -37.5
t62.5 -20t66 -6q102 0 171.5 50.5t105.5 135.5l24 72h-278l34 237l643 -2l-108 -778h-232l25 178q-39 -40 -75.5 -69t-92.5 -61.5t-129 -50t-158 -17.5z" />
    <glyph glyph-name="H" unicode="H" horiz-adv-x="1507" 
d="M1012 612h-498l-84 -612h-348l207 1481h346l-78 -578h500l78 578h350l-207 -1481h-350z" />
    <glyph glyph-name="I" unicode="I" horiz-adv-x="657" 
d="M289 1481h346l-205 -1481h-348z" />
    <glyph glyph-name="J" unicode="J" horiz-adv-x="847" 
d="M705 440q-14 -96 -34 -165.5t-55.5 -127.5t-86.5 -93.5t-124.5 -54.5t-171.5 -19q-141 0 -256 26l50 316q83 -19 135 -19q101 0 145 52t62 175l133 951h348z" />
    <glyph glyph-name="K" unicode="K" horiz-adv-x="1499" 
d="M1376 0h-379l-264 655l-233 -249l-58 -406h-360l207 1481h360l-90 -639l567 639h396l-504 -572z" />
    <glyph glyph-name="L" unicode="L" horiz-adv-x="1171" 
d="M289 1481h348l-164 -1190h610l-41 -291h-960z" />
    <glyph glyph-name="M" unicode="M" horiz-adv-x="1902" 
d="M82 0l207 1481h512l147 -979l424 979h508l-205 -1481h-350l154 1102l-469 -1102h-262l-164 1098l-152 -1098h-350z" />
    <glyph glyph-name="N" unicode="N" horiz-adv-x="1626" 
d="M1255 1481h349l-205 -1481h-316l-520 950l-133 -950h-348l207 1481h346l495 -903z" />
    <glyph glyph-name="O" unicode="O" horiz-adv-x="1587" 
d="M717 -20q-320 0 -478.5 203.5t-109.5 553.5q47 349 265.5 556.5t535.5 207.5q315 0 475 -207t111 -557q-49 -348 -265.5 -552.5t-533.5 -204.5zM758 262q148 0 246.5 112.5t132.5 356.5q34 251 -32.5 369.5t-213.5 118.5t-248.5 -119t-136.5 -369q-32 -244 36 -356.5
t216 -112.5z" />
    <glyph glyph-name="P" unicode="P" horiz-adv-x="1347" 
d="M82 0l207 1481h561q163 0 282.5 -55.5t179.5 -168t38 -266.5q-31 -216 -189 -338.5t-399 -122.5h-256l-74 -530h-350zM539 797h247q93 0 162.5 61.5t81.5 151.5q13 93 -41.5 151t-144.5 58h-246z" />
    <glyph glyph-name="Q" unicode="Q" horiz-adv-x="1576" 
d="M98 737q33 232 142.5 405.5t279.5 266t379 92.5q316 0 476.5 -207t111.5 -557q-52 -378 -309 -594q10 -52 69 -86.5t139 -36.5l-40 -274q-71 0 -121.5 4.5t-105.5 19t-97 41t-85.5 71.5t-82.5 110q-86 -12 -166 -12q-321 0 -480 203t-110 554zM477 733q-33 -249 32 -360
t220 -111q153 0 248.5 112t128.5 359q69 486 -246 486q-314 0 -383 -486z" />
    <glyph glyph-name="R" unicode="R" horiz-adv-x="1441" 
d="M1262 0h-355l-151 539h-250l-76 -539h-348l207 1481h643q263 0 372 -125t80 -336q-23 -160 -101 -259t-202 -165zM788 805q94 0 163 60t83 149q12 89 -40 147t-138 58h-256l-57 -414h245z" />
    <glyph glyph-name="S" unicode="S" horiz-adv-x="1441" 
d="M657 -20q-216 0 -380.5 81.5t-221.5 217.5l267 167q42 -65 81.5 -100t104.5 -55.5t162 -20.5q266 0 284 133q4 19 0.5 39.5t-12.5 38t-33.5 33.5t-62.5 27l-309 90q-166 48 -250.5 156t-63.5 253q27 196 207.5 328.5t443.5 132.5q186 0 327.5 -67t197.5 -191l-264 -166
q-28 38 -46 58t-51.5 45t-80 36t-109.5 11q-112 0 -174 -37.5t-72 -95.5q-4 -15 -0.5 -35.5t12 -39t38 -38t77.5 -33.5l309 -88q339 -102 297 -409q-31 -216 -213.5 -343.5t-464.5 -127.5z" />
    <glyph glyph-name="T" unicode="T" horiz-adv-x="1269" 
d="M123 1169l43 312h1206l-43 -312h-428l-162 -1169h-348l162 1169h-430z" />
    <glyph glyph-name="U" unicode="U" horiz-adv-x="1509" 
d="M1389 588q-21 -142 -69 -250.5t-130.5 -190.5t-208 -124.5t-291.5 -42.5q-134 0 -233.5 28t-162 80.5t-98 128t-41 170.5t8.5 207l125 887h352l-125 -910q-23 -150 38.5 -224.5t176.5 -74.5q116 0 197.5 74t105.5 225l125 910h352z" />
    <glyph glyph-name="V" unicode="V" horiz-adv-x="1435" 
d="M1544 1481l-706 -1481h-389l-291 1481h329l215 -1073l512 1073h330z" />
    <glyph glyph-name="W" unicode="W" horiz-adv-x="1986" 
d="M2083 1481l-643 -1481h-266l-132 887l-376 -887h-263l-233 1481h338l129 -887l367 887h245l127 -887l369 887h338z" />
    <glyph glyph-name="X" unicode="X" horiz-adv-x="1474" 
d="M1364 0h-438l-228 498l-362 -498h-373l586 748l-367 733h432l197 -441l317 441h369l-541 -682z" />
    <glyph glyph-name="Y" unicode="Y" horiz-adv-x="1404" 
d="M1524 1481l-635 -860l-86 -621h-348l86 621l-396 860h375l236 -563l389 563h379z" />
    <glyph glyph-name="Z" unicode="Z" horiz-adv-x="1400" 
d="M23 0l22 164l860 1026h-659l39 291h1161l-23 -158l-874 -1030h721l-41 -293h-1206z" />
    <glyph glyph-name="bracketleft" unicode="[" horiz-adv-x="716" 
d="M18 -330l252 1811h506l-26 -191h-228l-196 -1429h225l-29 -191h-504z" />
    <glyph glyph-name="backslash" unicode="\" horiz-adv-x="794" 
d="M457 -18l-312 1499h224l311 -1499h-223z" />
    <glyph glyph-name="bracketright" unicode="]" horiz-adv-x="724" 
d="M-94 -330l26 191h228l198 1429h-227l29 191h504l-252 -1811h-506z" />
    <glyph glyph-name="asciicircum" unicode="^" horiz-adv-x="1003" 
d="M662 246l-132 483l-264 -483h-243l436 768q26 44 68.5 58t80 -7t49.5 -68l220 -751h-215z" />
    <glyph glyph-name="underscore" unicode="_" horiz-adv-x="1159" 
d="M948 -51l-33 -250h-917l33 250h917z" />
    <glyph glyph-name="grave" unicode="`" horiz-adv-x="671" 
d="M231 1507l500 -225l-65 -137l-533 143z" />
    <glyph glyph-name="a" unicode="a" horiz-adv-x="1161" 
d="M348 -20q-156 0 -245 87t-68 242q48 355 600 361l104 4l9 51q8 67 -23.5 103t-101.5 36q-135 0 -215 -133l-275 25q62 150 203 235.5t332 85.5q126 0 213 -23.5t133 -68.5t61 -104t4 -136l-102 -745h-289l-4 164q-52 -91 -139.5 -137.5t-196.5 -46.5zM498 205
q68 0 126.5 45t69.5 104l21 150l-86 -2q-44 -2 -83 -9.5t-79 -24t-66 -48.5t-32 -76q-10 -65 28 -102t101 -37z" />
    <glyph glyph-name="b" unicode="b" horiz-adv-x="1236" 
d="M649 -20q-101 0 -175.5 59.5t-106.5 144.5l-76 -184h-248l211 1520h350l-88 -619q59 83 146.5 129.5t179.5 46.5q195 0 282.5 -145t53.5 -395q-36 -258 -176 -407.5t-353 -149.5zM588 209q188 0 237 330q23 169 -16 238t-125 69q-160 0 -207 -225l-20 -152
q-18 -128 18.5 -194t112.5 -66z" />
    <glyph glyph-name="c" unicode="c" horiz-adv-x="1140" 
d="M676 1077q101 0 182.5 -33t131 -87.5t75 -121.5t22.5 -139l-307 -41q-5 29 -6.5 39t-7.5 37t-11.5 38.5t-16 31t-22.5 28t-29.5 16t-39.5 7.5q-91 0 -159 -90.5t-87 -233.5q-20 -145 25 -234t137 -89q25 0 47.5 7.5t41.5 24.5t31.5 30t28 41t21 39t19.5 40l284 -43
q-38 -145 -180.5 -254.5t-335.5 -109.5q-228 0 -359 151.5t-98 392.5q22 161 110.5 288t220 196t282.5 69z" />
    <glyph glyph-name="d" unicode="d" horiz-adv-x="1224" 
d="M432 -20q-214 0 -310 146.5t-59 405.5q34 252 164.5 398.5t325.5 146.5q204 0 270 -172l86 615h346l-211 -1520h-247l-19 176q-54 -81 -141 -138.5t-205 -57.5zM555 209q79 0 134.5 67t70.5 191l22 156q7 121 -29.5 172t-111.5 51q-85 0 -143.5 -69t-81.5 -240
q-47 -328 139 -328z" />
    <glyph glyph-name="e" unicode="e" horiz-adv-x="1193" 
d="M397 430q-17 -107 31 -168t141 -61q70 0 132.5 35t99.5 94l260 -64q-81 -138 -216 -212t-302 -74q-244 0 -379.5 147t-102.5 387q22 156 105 283.5t217.5 203.5t294.5 76q162 0 271.5 -75t151.5 -200.5t19 -283.5l-14 -88h-709zM428 655h383q13 98 -28 156.5t-134 58.5
q-95 0 -151.5 -60t-69.5 -155z" />
    <glyph glyph-name="f" unicode="f" horiz-adv-x="798" 
d="M846 1057l-35 -238h-203l-114 -819h-349l113 819h-182l35 238h180l20 149q19 128 109.5 201.5t230.5 73.5h262l-30 -230h-129q-53 0 -77.5 -24.5t-31.5 -85.5l-14 -84h215z" />
    <glyph glyph-name="g" unicode="g" horiz-adv-x="1271" 
d="M492 -350q-286 0 -430 70t-130 182q18 115 218 176q28 9 2 22q-114 62 -101 156q8 63 73.5 111t180.5 65q-100 50 -145.5 135t-32.5 176q15 103 96.5 179t202 113.5t264.5 37.5q102 0 168.5 -19.5t126.5 -56.5q9 -6 80 25q108 42 268 102l-37 -254q-83 -11 -141 -16
q-28 -4 -37 -15t-4 -32q6 -19 2 -64q-10 -68 -50.5 -130.5t-107.5 -113t-167 -80.5t-218 -30q-56 0 -122 4q-65 -6 -68 -31q-1 -10 7.5 -16.5t27.5 -10.5t42.5 -6t60.5 -5q20 -1 30 -2q67 -3 213 -13q199 -13 287.5 -97t70.5 -212q-23 -158 -186.5 -254t-443.5 -96zM610 575
q71 0 119 43.5t57 114.5q11 70 -25.5 118t-105.5 48t-119 -47.5t-61 -118.5q-9 -70 27.5 -114t107.5 -44zM573 -162q111 0 157.5 22.5t51.5 69.5q6 42 -28.5 67.5t-104.5 29.5l-209 14q-71 4 -112.5 -26t-48.5 -72q-7 -58 62.5 -81.5t231.5 -23.5z" />
    <glyph glyph-name="h" unicode="h" horiz-adv-x="1226" 
d="M43 0l211 1520h344l-94 -664q85 115 185 168t198 53q149 0 217.5 -84t46.5 -239l-104 -754h-349l99 709q8 56 -21 88t-88 32q-53 0 -99.5 -27.5t-99.5 -86.5l-98 -715h-348z" />
    <glyph glyph-name="i" unicode="i" horiz-adv-x="581" 
d="M610 1520l-47 -312h-350l45 312h352zM541 1057l-146 -1057h-348l148 1057h346z" />
    <glyph glyph-name="j" unicode="j" horiz-adv-x="618" 
d="M635 1520l-45 -312h-352l45 312h352zM426 33q-27 -188 -134 -280.5t-306 -92.5q-47 0 -79.5 8t-40.5 16l-9 9l32 231l70 10q60 10 86 33.5t31 67.5l143 1022h348z" />
    <glyph glyph-name="k" unicode="k" horiz-adv-x="1202" 
d="M1100 0h-340l-203 424l-125 -121l-41 -303h-348l211 1520h350l-115 -830l392 367h358l-442 -428z" />
    <glyph glyph-name="l" unicode="l" horiz-adv-x="677" 
d="M410 -18q-73 0 -129 10.5t-92.5 27t-60 43t-35 52.5t-14.5 62.5t-1 64.5t8 67l170 1211h342l-162 -1166q-8 -53 12 -86t87 -41l45 -4l-31 -213q-75 -28 -139 -28z" />
    <glyph glyph-name="m" unicode="m" horiz-adv-x="1867" 
d="M43 0l145 1057h344l-28 -197q79 120 178.5 169.5t198.5 49.5q121 0 183 -63.5t73 -171.5q171 233 399 233q135 0 206 -86.5t50 -240.5l-102 -750h-351l101 707q6 54 -30 88t-93 34q-55 0 -107 -32t-67 -76l-15 -64l-90 -657h-346l99 707q7 54 -29.5 88t-95.5 34
q-54 0 -103.5 -30.5t-73.5 -81.5l-100 -717h-346z" />
    <glyph glyph-name="n" unicode="n" horiz-adv-x="1228" 
d="M43 0l145 1057h344l-26 -197q168 217 379 217q143 0 215.5 -86.5t52.5 -232.5l-104 -758h-351l99 709q7 54 -28.5 87t-94.5 33q-56 0 -108.5 -29.5t-76.5 -80.5l-100 -719h-346z" />
    <glyph glyph-name="o" unicode="o" horiz-adv-x="1196" 
d="M520 -20q-238 0 -365.5 151.5t-93.5 390.5q33 246 207 400.5t408 154.5q160 0 273 -71.5t161 -197.5t27 -286q-34 -238 -205.5 -390t-411.5 -152zM555 201q51 0 94 32t71 83.5t45.5 106.5t25.5 112q9 53 4.5 110.5t-17.5 105t-47.5 78.5t-85.5 31q-52 0 -94.5 -30
t-70 -80t-45 -104t-25.5 -111q-4 -43 -6 -88.5t7.5 -89.5t25 -78.5t46 -56t72.5 -21.5z" />
    <glyph glyph-name="p" unicode="p" horiz-adv-x="1234" 
d="M-4 -330l192 1387h349l-19 -144q56 69 144 116.5t192 47.5q86 0 152.5 -32.5t112.5 -99.5t60 -169t-5 -241q-38 -280 -170.5 -417.5t-317.5 -137.5q-222 0 -276 170l-66 -480h-348zM586 209q189 0 239 332q11 73 7 126t-15 87.5t-33 55t-46.5 28.5t-55.5 8
q-171 0 -209 -242l-20 -160q-11 -235 133 -235z" />
    <glyph glyph-name="q" unicode="q" horiz-adv-x="1230" 
d="M1006 -330h-351l62 445q-91 -79 -165 -107t-153 -28q-90 0 -158.5 31.5t-117 98.5t-63.5 172.5t3 252.5q19 136 64.5 241t109 170t140 98t162.5 33q103 0 167.5 -37.5t124.5 -109.5l15 127h350zM563 209q149 0 199 235l24 160q18 124 -20.5 183t-120.5 59q-85 0 -144 -67
t-83 -238q-48 -332 145 -332z" />
    <glyph glyph-name="r" unicode="r" horiz-adv-x="841" 
d="M43 0l145 1057h336l-39 -275q63 131 167.5 213t236.5 82l-45 -327q-79 8 -143 -0.5t-105 -28.5t-70.5 -51t-43.5 -63.5t-19 -69.5l-74 -537h-346z" />
    <glyph glyph-name="s" unicode="s" horiz-adv-x="1128" 
d="M494 -20q-184 0 -307 72.5t-160 185.5l227 108q32 -52 104.5 -91.5t167.5 -39.5q64 0 122.5 21t64.5 57q4 34 -33 55t-105 35l-157 35q-314 63 -281 303q21 159 162 257.5t358 98.5q170 0 273.5 -64.5t142.5 -166.5l-227 -103q-27 48 -86.5 76.5t-141.5 28.5
q-68 0 -123 -22t-59 -60q-4 -28 28 -44t128 -42l174 -43q294 -77 262 -307q-23 -163 -169.5 -256.5t-364.5 -93.5z" />
    <glyph glyph-name="t" unicode="t" horiz-adv-x="890" 
d="M846 819h-234l-69 -520q-7 -43 8 -59.5t49 -16.5h164l-29 -207q-62 -30 -203 -30q-111 0 -185 21.5t-110 63t-46.5 93t-0.5 119.5l74 536h-178l35 238h188l99 334h284l-47 -332h234z" />
    <glyph glyph-name="u" unicode="u" horiz-adv-x="1224" 
d="M387 -20q-140 0 -231 89.5t-72 237.5l104 750h351l-101 -713q-9 -60 23 -96.5t100 -36.5q123 0 178 123l103 723h350l-154 -1057h-258l-18 178q-74 -97 -179 -147.5t-196 -50.5z" />
    <glyph glyph-name="v" unicode="v" horiz-adv-x="1134" 
d="M1192 1057l-574 -1057h-247l-281 1057h348l146 -606l309 606h299z" />
    <glyph glyph-name="w" unicode="w" horiz-adv-x="1630" 
d="M1683 1057l-505 -1057h-258l-97 575l-262 -575h-262l-205 1057h322l104 -584l256 584h242l94 -584l260 584h311z" />
    <glyph glyph-name="x" unicode="x" horiz-adv-x="1214" 
d="M1120 0h-360l-182 313l-271 -313h-360l479 553l-297 504h360l156 -262l227 262h361l-440 -504z" />
    <glyph glyph-name="y" unicode="y" horiz-adv-x="1171" 
d="M186 -338q-68 0 -120.5 10t-70.5 20l-18 11l33 223l103 -8q54 -3 96 4t64.5 17t40 28.5t21 26t9.5 20.5l14 39l-268 1004h344l137 -631l318 631h340l-561 -1028q-61 -111 -120 -184.5t-119 -113t-116.5 -54.5t-126.5 -15z" />
    <glyph glyph-name="z" unicode="z" horiz-adv-x="1091" 
d="M-12 0l24 172l609 670h-471l30 215h910l-25 -166l-610 -672h522l-29 -219h-960z" />
    <glyph glyph-name="braceleft" unicode="{" horiz-adv-x="833" 
d="M487 -330q-85 0 -159 29.5t-119.5 93t-32.5 146.5l55 405q13 74 -36.5 116t-171.5 42l24 168q119 0 180.5 46.5t73.5 139.5l55 377q11 82 70 140.5t134.5 83t158.5 24.5h174l-27 -191h-88q-83 0 -114 -33t-35 -86l-58 -391q-27 -164 -231 -192q-27 0 -32 -9q-1 -2 3 -4
q40 -2 75.5 -13.5t68 -35t49 -68t10.5 -104.5l-70 -493h224l-29 -191h-152z" />
    <glyph glyph-name="bar" unicode="|" horiz-adv-x="559" 
d="M283 -330h-246l280 2020h250z" />
    <glyph glyph-name="braceright" unicode="}" horiz-adv-x="837" 
d="M-90 -330l27 191h90q43 0 72.5 10t44.5 29.5t21.5 37t10.5 42.5l53 391q32 165 234 192q29 3 33 10q1 1 -2 2q-41 2 -77 14t-68.5 36t-49 68t-10.5 104l69 493h-225l31 191h153q84 0 158 -29.5t120 -92.5t34 -147l-58 -403q-13 -76 36 -117t171 -41l-24 -170
q-119 0 -180.5 -46.5t-73.5 -139.5l-51 -377q-13 -82 -72 -140.5t-134 -83t-157 -24.5h-176z" />
    <glyph glyph-name="asciitilde" unicode="~" horiz-adv-x="1300" 
d="M1198 754q-67 -92 -155 -138.5t-175 -46.5q-58 0 -112 21.5t-89 46.5t-80 46.5t-87 21.5q-71 0 -130.5 -44t-129.5 -124l-97 200q119 95 197 138t166 43q59 0 113 -21t87 -46t75.5 -46t82.5 -21q69 0 132 47t110 121z" />
    <glyph glyph-name="uni00A0" unicode="&#xa0;" horiz-adv-x="405" 
 />
    <glyph glyph-name="exclamdown" unicode="&#xa1;" horiz-adv-x="602" 
d="M506 700h-373l51 357h373zM379 -330h-406l222 893h213z" />
    <glyph glyph-name="cent" unicode="&#xa2;" horiz-adv-x="1187" 
d="M711 1079q-90 0 -158 -90.5t-88 -232.5q-20 -144 25.5 -234t136.5 -90q30 0 57 13t45 29t36.5 45t27 47t22.5 48l285 -43q-27 -103 -112.5 -194t-207.5 -135l-35 -242h-221l29 207q-214 12 -336 163t-90 382q22 155 105 279t206.5 195t266.5 79l24 176h225l-30 -209
q113 -46 172.5 -142t54.5 -206l-305 -41q-18 99 -36 134q-32 62 -99 62z" />
    <glyph glyph-name="sterling" unicode="&#xa3;" horiz-adv-x="1355" 
d="M-31 0l41 287h60q75 0 128 41.5t68 107.5q21 64 21 252h-213l26 186h174l9 203q3 106 48 189t119 133.5t164.5 76t190.5 25.5q76 0 148 -19.5t135.5 -57.5t110.5 -102t67 -146l-287 -82q-16 62 -46 98.5t-85 36.5q-65 0 -116 -50.5t-54 -125.5q-2 -42 2 -176h289
l-41 -187l-248 -2q0 -157 -23 -215q-15 -50 -50 -100t-79 -84h197q85 0 140.5 38.5t90.5 121.5l299 -62q-67 -188 -205 -287.5t-323 -99.5h-758z" />
    <glyph glyph-name="currency" unicode="&#xa4;" horiz-adv-x="1220" 
d="M586 276q-142 0 -230 76q-24 0 -41 -22l-135 -117l-133 154l166 145q-68 113 -43 250q15 116 88 231q21 12 12 23l-116 133l149 129l113 -129q150 63 266 63q136 0 233 -77q20 3 33 22l121 105l131 -154l-149 -129q68 -108 45 -254q-17 -126 -97 -240q-4 3 -7 0t-1 -6
l105 -123l-146 -129l-98 115q-146 -66 -266 -66zM586 500q107 0 194 79t101 185q12 92 -45 158.5t-154 66.5q-109 0 -195 -79t-100 -185q-14 -92 43.5 -158.5t155.5 -66.5z" />
    <glyph glyph-name="yen" unicode="&#xa5;" horiz-adv-x="1388" 
d="M1540 1481l-575 -760h252l-29 -182h-297l-21 -148h299l-26 -180h-299l-29 -211h-397l31 211h-304l29 180h299l21 148h-301l26 182h248l-354 760h430l231 -553l383 553h383z" />
    <glyph glyph-name="brokenbar" unicode="&#xa6;" horiz-adv-x="561" 
d="M449 850h-246l114 840h248zM283 -330h-246l115 840h251z" />
    <glyph glyph-name="section" unicode="&#xa7;" horiz-adv-x="1058" 
d="M795 432q82 -51 115 -114.5t20 -153.5q-21 -150 -149 -239t-343 -89q-179 0 -298 73t-150 179l178 80q35 -39 62 -62t81 -44t121 -21q74 0 125 30.5t57 71.5q7 35 -17 64.5t-101 62.5l-131 52q-170 68 -236.5 148t-48.5 206q24 176 205 260q-138 95 -117 254
q21 136 143.5 223.5t309.5 87.5q157 0 267.5 -72.5t145.5 -173.5l-182 -81q-38 38 -62 58.5t-69 41t-92 20.5q-65 0 -109 -27.5t-45 -68.5q0 -30 17.5 -49.5t58.5 -38.5l145 -57q170 -68 239.5 -151t49.5 -210q-22 -163 -190 -260zM573 547q40 -2 75 20.5t48 61.5
q34 101 -75 145l-115 47q-46 -2 -86 -30.5t-53 -73.5q-5 -23 -6 -43t20 -41.5t65 -38.5z" />
    <glyph glyph-name="dieresis" unicode="&#xa8;" horiz-adv-x="837" 
d="M477 1481l-39 -271h-303l39 271h303zM915 1481l-41 -271h-301l39 271h303z" />
    <glyph glyph-name="copyright" unicode="&#xa9;" horiz-adv-x="1697" 
d="M778 -20q-156 0 -290 61.5t-222 166t-128.5 249t-18.5 303.5q28 202 150.5 372.5t306.5 269.5t387 99q155 0 288.5 -62t222 -167t129.5 -249t19 -302q-28 -203 -151 -374t-307 -269t-386 -98zM776 164q253 0 432 163.5t217 432.5q34 253 -93 406t-367 153
q-255 0 -434 -165.5t-216 -432.5q-37 -255 89 -406t372 -151zM922 1167q76 0 138.5 -25.5t101 -67.5t60.5 -90t27 -99l-223 -21q-4 27 -8 44t-14 39t-28 33t-44 11q-73 0 -126 -67.5t-71 -196.5q-17 -123 13.5 -178t103.5 -55q63 0 103.5 34.5t86.5 104.5l181 -41
q-15 -39 -44.5 -81.5t-76.5 -87t-118.5 -73t-152.5 -28.5q-185 0 -288.5 122.5t-77.5 315.5q18 121 83 214t162.5 143t211.5 50z" />
    <glyph glyph-name="ordfeminine" unicode="&#xaa;" horiz-adv-x="806" 
d="M338 815q-107 0 -160.5 56.5t-42.5 150.5q27 189 375 213l74 4l6 37q9 45 -9.5 66.5t-56.5 21.5t-73 -23t-60 -59l-207 47q33 59 73.5 95.5t105.5 56.5t157 20q163 -1 226.5 -58.5t52.5 -162.5l-62 -455h-198v47q-64 -32 -107 -44.5t-94 -12.5zM416 948q42 0 87 33t52 74
l12 71l-35 -4q-181 -17 -184 -116q-2 -26 15 -42t53 -16z" />
    <glyph glyph-name="guillemotleft" unicode="&#xab;" horiz-adv-x="1062" 
d="M367 496l94 -371h-170l-180 401l272 392h201zM768 496l92 -371h-168l-184 401l276 392h199z" />
    <glyph glyph-name="logicalnot" unicode="&#xac;" horiz-adv-x="1228" 
d="M1157 870l-20 -131l-62 -436h-278l43 318h-715l33 249h999z" />
    <glyph glyph-name="uni00AD" unicode="&#xad;" horiz-adv-x="819" 
d="M756 649l-37 -248h-572l33 248h576z" />
    <glyph glyph-name="registered" unicode="&#xae;" horiz-adv-x="1134" 
d="M563 549q-130 0 -230 63t-147.5 172.5t-29.5 239.5q28 197 185 337t353 140q128 0 228 -64t148.5 -174t31.5 -239q-14 -97 -64.5 -185t-122.5 -151.5t-164.5 -101t-187.5 -37.5zM582 680q148 0 250.5 93t125.5 251q22 155 -55.5 250.5t-226.5 95.5q-150 0 -252.5 -95
t-124.5 -251q-25 -158 52.5 -251t230.5 -93zM399 786l66 471h223q89 0 134 -34t36 -95q-11 -86 -110 -127l61 -215h-139l-41 199h-70l-29 -199h-131zM571 1073h88q25 0 43 13.5t21 35.5t-12 34.5t-43 12.5h-84z" />
    <glyph glyph-name="macron" unicode="&#xaf;" horiz-adv-x="864" 
d="M940 1475l-33 -220h-766l31 220h768z" />
    <glyph glyph-name="degree" unicode="&#xb0;" horiz-adv-x="978" 
d="M946 1337q-22 -147 -129.5 -240t-253.5 -93q-159 0 -248.5 105t-64.5 267q20 148 128 241t255 93q156 0 245.5 -106t67.5 -267zM750 1374q8 64 -23.5 103t-95.5 39q-74 0 -129 -52t-64 -129q-8 -65 24.5 -103t96.5 -38q73 0 126.5 51.5t64.5 128.5z" />
    <glyph glyph-name="plusminus" unicode="&#xb1;" horiz-adv-x="1228" 
d="M807 1051h375l-35 -248h-375l-53 -377h-250l53 377h-375l35 248h377l53 379h248zM45 51l33 250h999l-37 -250h-995z" />
    <glyph glyph-name="uni00B2" unicode="&#xb2;" horiz-adv-x="800" 
d="M72 786l22 158l320 250q140 107 181.5 151.5t47.5 94.5q7 52 -23 82t-85 30q-61 0 -114.5 -28.5t-103.5 -106.5l-155 74q87 123 186 181.5t225 58.5q159 0 239.5 -78.5t61.5 -210.5q-10 -72 -52.5 -127.5t-145.5 -143.5l-244 -202h385l-24 -183h-721z" />
    <glyph glyph-name="uni00B3" unicode="&#xb3;" horiz-adv-x="796" 
d="M233 1581q55 66 158 108t209 42q154 0 242.5 -68.5t75.5 -177.5q-20 -142 -197 -199q78 -23 127.5 -80.5t38.5 -146.5q-10 -67 -52.5 -122.5t-104 -90t-132.5 -53.5t-141 -19q-117 0 -213.5 51.5t-137.5 135.5l170 108q53 -69 98 -96t115 -27q68 0 111 30.5t51 78.5
q7 53 -31.5 86t-105.5 35l-129 2l25 170l108 6q67 3 111.5 34.5t52.5 79.5q5 39 -26 66t-83 27q-61 0 -111 -24t-112 -81z" />
    <glyph glyph-name="acute" unicode="&#xb4;" horiz-adv-x="667" 
d="M680 1509l51 -227l-559 -139l-33 153z" />
    <glyph glyph-name="uni00B5" unicode="&#xb5;" horiz-adv-x="1226" 
d="M-4 -330l192 1387h351l-103 -723q-6 -51 21 -79t69 -28q29 0 54.5 6.5t49.5 21t37.5 24.5t37.5 32t30 27l105 719h354l-156 -1057h-342l29 172q-64 -77 -117.5 -118t-115.5 -58q-88 -20 -105 -31l-43 -295h-348z" />
    <glyph glyph-name="paragraph" unicode="&#xb6;" horiz-adv-x="1251" 
d="M1251 1288h-129l-204 -1458h-207l202 1458h-122l-207 -1458h-207l110 791q-82 6 -151 37t-119.5 84.5t-72.5 136.5t-9 184q27 182 168 300t363 118h612z" />
    <glyph glyph-name="periodcentered" unicode="&#xb7;" horiz-adv-x="585" 
d="M502 907l-45 -323h-336l45 323h336z" />
    <glyph glyph-name="cedilla" unicode="&#xb8;" horiz-adv-x="595" 
d="M426 -291q-10 -69 -85.5 -110t-176.5 -41q-168 0 -254 80l43 75q106 -39 158 -39q49 0 82 22t38 56q5 33 -29 47.5t-124 14.5q-21 0 -29.5 7.5t-1.5 22.5l98 166h150l-55 -119q55 -1 95 -17.5t60 -43.5t27.5 -57.5t3.5 -63.5z" />
    <glyph glyph-name="uni00B9" unicode="&#xb9;" horiz-adv-x="638" 
d="M195 778l94 690l-164 -43l20 150l287 135h113l-131 -932h-219z" />
    <glyph glyph-name="ordmasculine" unicode="&#xba;" horiz-adv-x="798" 
d="M518 1501q160 0 243.5 -103t61.5 -265q-20 -141 -122 -229.5t-248 -88.5q-156 0 -239.5 100.5t-61.5 255.5q20 148 123 239t243 91zM526 1358q-125 0 -155 -219q-14 -94 3.5 -137.5t69.5 -43.5q64 0 105 56.5t55 163.5q13 94 -5.5 137t-72.5 43z" />
    <glyph glyph-name="guillemotright" unicode="&#xbb;" horiz-adv-x="1062" 
d="M274 526l-90 392h168l180 -422l-274 -371h-197zM674 526l-90 392h170l180 -422l-275 -371h-196z" />
    <glyph glyph-name="onequarter" unicode="&#xbc;" horiz-adv-x="2019" 
d="M166 565l94 690l-164 -43l21 150l286 135h113l-131 -932h-219zM1618 1497l-1202 -1505l-215 4l1200 1501h217zM1651 932h217l-78 -553h135l-22 -168h-136l-30 -211h-219l28 211h-409l24 162zM1346 379h227l45 317z" />
    <glyph glyph-name="onehalf" unicode="&#xbd;" horiz-adv-x="1953" 
d="M166 565l94 690l-164 -43l21 150l286 135h113l-131 -932h-219zM1618 1497l-1202 -1505l-215 4l1200 1501h217zM1114 0l23 158l321 250q140 109 181 152t47 93q7 52 -23 82.5t-86 30.5q-61 0 -114 -28.5t-103 -106.5l-156 74q86 123 186.5 181t225.5 58q160 0 240 -78.5
t61 -210.5q-10 -72 -52.5 -127t-146.5 -143l-243 -203h385l-25 -182h-721z" />
    <glyph glyph-name="threequarters" unicode="&#xbe;" horiz-adv-x="2215" 
d="M203 1366q56 66 158 108t208 42q154 0 242.5 -68.5t75.5 -177.5q-20 -142 -197 -199q78 -23 127.5 -80.5t38.5 -146.5q-10 -67 -52.5 -122.5t-104 -90t-132.5 -53.5t-141 -19q-117 0 -213 51t-137 135l170 109q53 -69 98 -96t115 -27q68 0 111 30.5t51 78.5q7 53 -32 86
t-106 35l-129 2l25 170l108 6q67 3 111.5 34.5t52.5 79.5q5 39 -25.5 66t-82.5 27q-61 0 -111.5 -24t-112.5 -81zM1812 1497l-1200 -1505l-217 4l1202 1501h215zM1845 932h217l-77 -553h135l-23 -168h-135l-29 -211h-221l31 211h-410l23 162zM1540 379h227l45 317z" />
    <glyph glyph-name="questiondown" unicode="&#xbf;" horiz-adv-x="1142" 
d="M430 700l51 357h373l-51 -357h-373zM1038 0q-91 -172 -237.5 -261t-341.5 -89q-244 0 -363 105t-98 261q8 62 36.5 114t67.5 87.5t85 67.5t91 61.5t83.5 60.5t65.5 74t34 94h272q-11 -90 -53.5 -164t-96 -123.5t-107 -93t-93.5 -93.5t-47 -105q-6 -45 32 -75t99 -30
q77 0 151 50t113 131z" />
    <glyph glyph-name="Agrave" unicode="&#xc0;" horiz-adv-x="1476" 
d="M723 1931l500 -225l-66 -137l-532 143zM-37 0l729 1481h361l315 -1481h-346l-64 315h-493l-156 -315h-346zM582 616h338l-95 529z" />
    <glyph glyph-name="Aacute" unicode="&#xc1;" horiz-adv-x="1476" 
d="M1176 1933l51 -227l-559 -139l-33 153zM-37 0l729 1481h361l315 -1481h-346l-64 315h-493l-156 -315h-346zM582 616h338l-95 529z" />
    <glyph glyph-name="Acircumflex" unicode="&#xc2;" horiz-adv-x="1476" 
d="M1057 1626l-109 164l-172 -164h-256l309 295h234l229 -295h-235zM-37 0l729 1481h361l315 -1481h-346l-64 315h-493l-156 -315h-346zM582 616h338l-95 529z" />
    <glyph glyph-name="Atilde" unicode="&#xc3;" horiz-adv-x="1476" 
d="M1311 1708q-112 -55 -217 -55q-63 0 -155.5 30.5t-139.5 30.5q-28 0 -53 -7t-39.5 -15.5t-43 -26.5t-47.5 -29l-38 199q38 24 63 37.5t64.5 25t80.5 11.5q69 0 168.5 -33t137.5 -33q49 0 116 35t86 39zM-37 0l729 1481h361l315 -1481h-346l-64 315h-493l-156 -315h-346z
M582 616h338l-95 529z" />
    <glyph glyph-name="Adieresis" unicode="&#xc4;" horiz-adv-x="1476" 
d="M889 1905l-39 -271h-303l39 271h303zM1327 1905l-41 -271h-301l39 271h303zM-37 0l729 1481h361l315 -1481h-346l-64 315h-493l-156 -315h-346zM582 616h338l-95 529z" />
    <glyph glyph-name="Aring" unicode="&#xc5;" horiz-adv-x="1476" 
d="M1165 1784q-13 -92 -81.5 -150.5t-159.5 -58.5q-100 0 -160 73t-45 177q10 86 79.5 144.5t159.5 58.5q99 0 160 -72t47 -172zM1040 1819q4 36 -16 56.5t-57 20.5q-45 0 -84.5 -33.5t-46.5 -80.5q-3 -35 18.5 -58.5t56.5 -23.5q45 0 83 36t46 83zM-37 0l729 1481h361
l315 -1481h-346l-64 315h-493l-156 -315h-346zM582 616h338l-95 529z" />
    <glyph glyph-name="AE" unicode="&#xc6;" horiz-adv-x="2240" 
d="M2089 289l-37 -289h-1112l45 315h-450l-207 -315h-365l983 1481h1290l-41 -289h-694l-41 -307h455l-43 -283h-451l-45 -313h713zM1028 616l84 619l-407 -619h323z" />
    <glyph glyph-name="Ccedilla" unicode="&#xc7;" horiz-adv-x="1492" 
d="M891 1219q-141 0 -242.5 -112.5t-136.5 -356.5q-34 -246 36 -367t212 -121q104 0 181 73.5t116 190.5l344 -26q-25 -88 -58 -159t-84.5 -136.5t-118 -111t-159.5 -75t-207 -36.5l-41 -91q106 -1 150.5 -55.5t34.5 -126.5q-10 -70 -85 -110.5t-176 -40.5q-170 0 -256 80
l45 75q102 -39 156 -39q50 0 83 22t38 56q6 33 -28 47.5t-126 14.5q-42 0 -30 30l84 140q-179 21 -300 124.5t-169.5 270.5t-20.5 377q47 342 259 543.5t526 201.5q255 0 406.5 -140.5t143.5 -367.5l-350 -24q-3 115 -60 182.5t-167 67.5z" />
    <glyph glyph-name="Egrave" unicode="&#xc8;" horiz-adv-x="1327" 
d="M641 1931l500 -225l-66 -137l-532 143zM82 0l207 1481h1046l-43 -293h-694l-43 -303h592l-37 -283h-596l-41 -309h703l-41 -293h-1053z" />
    <glyph glyph-name="Eacute" unicode="&#xc9;" horiz-adv-x="1327" 
d="M1094 1933l51 -227l-559 -139l-33 153zM82 0l207 1481h1046l-43 -293h-694l-43 -303h592l-37 -283h-596l-41 -309h703l-41 -293h-1053z" />
    <glyph glyph-name="Ecircumflex" unicode="&#xca;" horiz-adv-x="1327" 
d="M975 1626l-109 164l-172 -164h-256l310 295h233l229 -295h-235zM82 0l207 1481h1046l-43 -293h-694l-43 -303h592l-37 -283h-596l-41 -309h703l-41 -293h-1053z" />
    <glyph glyph-name="Edieresis" unicode="&#xcb;" horiz-adv-x="1327" 
d="M807 1905l-39 -271h-303l39 271h303zM1245 1905l-41 -271h-301l39 271h303zM82 0l207 1481h1046l-43 -293h-694l-43 -303h592l-37 -283h-596l-41 -309h703l-41 -293h-1053z" />
    <glyph glyph-name="Igrave" unicode="&#xcc;" horiz-adv-x="655" 
d="M287 1931l499 -225l-65 -137l-533 143zM285 1481h348l-205 -1481h-350z" />
    <glyph glyph-name="Iacute" unicode="&#xcd;" horiz-adv-x="655" 
d="M743 1933l52 -227l-559 -139l-35 153zM289 1481h346l-205 -1481h-348z" />
    <glyph glyph-name="Icircumflex" unicode="&#xce;" horiz-adv-x="651" 
d="M627 1626l-109 164l-172 -164h-258l311 295h234l229 -295h-235zM293 1481h346l-205 -1481h-348z" />
    <glyph glyph-name="Idieresis" unicode="&#xcf;" horiz-adv-x="661" 
d="M459 1905l-41 -271h-301l37 271h305zM895 1905l-41 -271h-301l39 271h303zM291 1481h346l-205 -1481h-348z" />
    <glyph glyph-name="Eth" unicode="&#xd0;" horiz-adv-x="1507" 
d="M791 1479q195 -7 334 -61.5t216.5 -151t103.5 -227.5t3 -296q-23 -168 -88.5 -303t-172 -234t-261.5 -152.5t-348 -53.5h-478l84 602h-102l33 252h104l88 627q421 0 484 -2zM1087 748q31 228 -57 341t-274 113h-140l-47 -348h324l-33 -252h-325l-46 -323h138
q78 0 149.5 25.5t136 78.5t110.5 146.5t64 218.5z" />
    <glyph glyph-name="Ntilde" unicode="&#xd1;" horiz-adv-x="1626" 
d="M1366 1708q-112 -55 -215 -55q-63 0 -155.5 30.5t-141.5 30.5q-28 0 -52.5 -7t-39 -15.5t-42.5 -27t-46 -28.5l-41 199q57 37 103.5 55.5t105.5 18.5q69 0 168.5 -33t136.5 -33q50 0 117 35t86 39zM1255 1481h349l-205 -1481h-316l-520 950l-133 -950h-348l207 1481h346
l495 -903z" />
    <glyph glyph-name="Ograve" unicode="&#xd2;" horiz-adv-x="1587" 
d="M745 1931l500 -225l-65 -137l-533 143zM717 -20q-320 0 -478.5 203.5t-109.5 553.5q47 349 265.5 556.5t535.5 207.5q315 0 475 -207t111 -557q-49 -348 -265.5 -552.5t-533.5 -204.5zM758 262q148 0 246.5 112.5t132.5 356.5q34 251 -32.5 369.5t-213.5 118.5
t-248.5 -119t-136.5 -369q-32 -244 36 -356.5t216 -112.5z" />
    <glyph glyph-name="Oacute" unicode="&#xd3;" horiz-adv-x="1587" 
d="M1196 1933l51 -227l-559 -139l-33 153zM717 -20q-320 0 -478.5 203.5t-109.5 553.5q47 349 265.5 556.5t535.5 207.5q315 0 475 -207t111 -557q-49 -348 -265.5 -552.5t-533.5 -204.5zM758 262q148 0 246.5 112.5t132.5 356.5q34 251 -32.5 369.5t-213.5 118.5
t-248.5 -119t-136.5 -369q-32 -244 36 -356.5t216 -112.5z" />
    <glyph glyph-name="Ocircumflex" unicode="&#xd4;" horiz-adv-x="1587" 
d="M1077 1626l-110 164l-170 -164h-258l311 295h233l230 -295h-236zM717 -20q-320 0 -478.5 203.5t-109.5 553.5q47 349 265.5 556.5t535.5 207.5q315 0 475 -207t111 -557q-49 -348 -265.5 -552.5t-533.5 -204.5zM758 262q148 0 246.5 112.5t132.5 356.5
q34 251 -32.5 369.5t-213.5 118.5t-248.5 -119t-136.5 -369q-32 -244 36 -356.5t216 -112.5z" />
    <glyph glyph-name="Otilde" unicode="&#xd5;" horiz-adv-x="1587" 
d="M1331 1708q-112 -55 -215 -55q-63 0 -156.5 30.5t-140.5 30.5q-28 0 -52.5 -7t-39 -15.5t-42.5 -27t-46 -28.5l-41 199q57 37 103.5 55.5t105.5 18.5q69 0 168.5 -33t136.5 -33q49 0 116.5 35t86.5 39zM717 -20q-320 0 -478.5 203.5t-109.5 553.5q47 349 265.5 556.5
t535.5 207.5q315 0 475 -207t111 -557q-49 -348 -265.5 -552.5t-533.5 -204.5zM758 262q148 0 246.5 112.5t132.5 356.5q34 251 -32.5 369.5t-213.5 118.5t-248.5 -119t-136.5 -369q-32 -244 36 -356.5t216 -112.5z" />
    <glyph glyph-name="Odieresis" unicode="&#xd6;" horiz-adv-x="1587" 
d="M911 1905l-41 -271h-301l39 271h303zM1348 1905l-39 -271h-301l36 271h304zM717 -20q-320 0 -478.5 203.5t-109.5 553.5q47 349 265.5 556.5t535.5 207.5q315 0 475 -207t111 -557q-49 -348 -265.5 -552.5t-533.5 -204.5zM758 262q148 0 246.5 112.5t132.5 356.5
q34 251 -32.5 369.5t-213.5 118.5t-248.5 -119t-136.5 -369q-32 -244 36 -356.5t216 -112.5z" />
    <glyph glyph-name="multiply" unicode="&#xd7;" horiz-adv-x="1224" 
d="M1169 1047l-358 -316l266 -311l-188 -164l-266 311l-355 -311l-162 188l355 314l-268 313l186 164l268 -313l354 313z" />
    <glyph glyph-name="Oslash" unicode="&#xd8;" horiz-adv-x="1617" 
d="M131 -31l-139 166l196 162q-85 194 -49 457q49 345 261.5 546t525.5 201q139 0 250.5 -44.5t187.5 -123.5l182 174l137 -164l-204 -176q83 -198 43 -450q-47 -341 -257.5 -539t-523.5 -198q-277 0 -434 157zM547 598l555 514q-42 117 -187 117q-138 0 -224.5 -107.5
t-125.5 -333.5q-18 -99 -18 -190zM752 256q144 0 230 110t124 347q15 83 12 155l-557 -512q27 -55 73.5 -77.5t117.5 -22.5z" />
    <glyph glyph-name="Ugrave" unicode="&#xd9;" horiz-adv-x="1509" 
d="M700 1931l498 -225l-65 -137l-531 143zM1389 588q-21 -142 -69 -250.5t-130.5 -190.5t-208 -124.5t-291.5 -42.5q-134 0 -233.5 28t-162 80.5t-98 128t-41 170.5t8.5 207l125 887h352l-125 -910q-23 -150 38.5 -224.5t176.5 -74.5q116 0 197.5 74t105.5 225l125 910h352z
" />
    <glyph glyph-name="Uacute" unicode="&#xda;" horiz-adv-x="1509" 
d="M1153 1933l51 -227l-559 -139l-35 153zM1389 588q-21 -142 -69 -250.5t-130.5 -190.5t-208 -124.5t-291.5 -42.5q-134 0 -233.5 28t-162 80.5t-98 128t-41 170.5t8.5 207l125 887h352l-125 -910q-23 -150 38.5 -224.5t176.5 -74.5q116 0 197.5 74t105.5 225l125 910h352z
" />
    <glyph glyph-name="Ucircumflex" unicode="&#xdb;" horiz-adv-x="1509" 
d="M1034 1626l-110 164l-170 -164h-258l309 295h235l230 -295h-236zM1389 588q-21 -142 -69 -250.5t-130.5 -190.5t-208 -124.5t-291.5 -42.5q-134 0 -233.5 28t-162 80.5t-98 128t-41 170.5t8.5 207l125 887h352l-125 -910q-23 -150 38.5 -224.5t176.5 -74.5
q116 0 197.5 74t105.5 225l125 910h352z" />
    <glyph glyph-name="Udieresis" unicode="&#xdc;" horiz-adv-x="1509" 
d="M868 1905l-41 -271h-301l39 271h303zM1305 1905l-39 -271h-303l38 271h304zM1389 588q-21 -142 -69 -250.5t-130.5 -190.5t-208 -124.5t-291.5 -42.5q-134 0 -233.5 28t-162 80.5t-98 128t-41 170.5t8.5 207l125 887h352l-125 -910q-23 -150 38.5 -224.5t176.5 -74.5
q116 0 197.5 74t105.5 225l125 910h352z" />
    <glyph glyph-name="Yacute" unicode="&#xdd;" horiz-adv-x="1404" 
d="M1155 1933l51 -227l-559 -139l-33 153zM1524 1481l-635 -860l-86 -621h-348l86 621l-396 860h375l236 -563l389 563h379z" />
    <glyph glyph-name="Thorn" unicode="&#xde;" horiz-adv-x="1482" 
d="M1448 729q-29 -207 -189 -320.5t-403 -113.5h-338l-41 -295h-395l207 1481h395l-39 -277h277q123 0 225 -30t175.5 -88t107.5 -149.5t18 -207.5zM1051 772q10 74 -38 112t-139 38h-268l-49 -344h266q89 0 152.5 54t75.5 140z" />
    <glyph glyph-name="germandbls" unicode="&#xdf;" horiz-adv-x="1368" 
d="M829 1481q215 0 322.5 -88.5t87.5 -243.5q-13 -99 -82 -163.5t-221 -129.5q-48 -13 -51 -47q-2 -8 20 -27q74 -30 120 -52t104.5 -62t89 -83t47 -108.5t4.5 -144.5q-23 -171 -151 -261.5t-326 -90.5q-175 0 -271 92l103 164q8 -2 41 -13.5t61 -17.5t59 -6q67 0 117 35.5
t60 99.5q5 43 -22 67t-100 61l-22 11q-220 87 -190 289q10 66 44.5 117.5t94.5 105.5q5 4 23.5 16.5t25 17.5t22.5 17t22.5 18.5t18.5 18t18 21t13 21.5t10.5 24.5t4.5 25.5q6 43 -22 67.5t-91 24.5q-91 0 -150 -56t-71 -144l-150 -1057h-342l109 762h-117l33 237h115
q12 77 38 144t73 130.5t111 108.5t158 72t209 27z" />
    <glyph glyph-name="agrave" unicode="&#xe0;" horiz-adv-x="1161" 
d="M506 1507l500 -225l-66 -137l-530 143zM348 -20q-156 0 -245 87t-68 242q48 355 600 361l104 4l9 51q8 67 -23.5 103t-101.5 36q-135 0 -215 -133l-275 25q62 150 203 235.5t332 85.5q126 0 213 -23.5t133 -68.5t61 -104t4 -136l-102 -745h-289l-4 164
q-52 -91 -139.5 -137.5t-196.5 -46.5zM498 205q68 0 126.5 45t69.5 104l21 150l-86 -2q-44 -2 -83 -9.5t-79 -24t-66 -48.5t-32 -76q-10 -65 28 -102t101 -37z" />
    <glyph glyph-name="aacute" unicode="&#xe1;" horiz-adv-x="1161" 
d="M956 1509l52 -227l-559 -139l-33 153zM348 -20q-156 0 -245 87t-68 242q48 355 600 361l104 4l9 51q8 67 -23.5 103t-101.5 36q-135 0 -215 -133l-275 25q62 150 203 235.5t332 85.5q126 0 213 -23.5t133 -68.5t61 -104t4 -136l-102 -745h-289l-4 164
q-52 -91 -139.5 -137.5t-196.5 -46.5zM498 205q68 0 126.5 45t69.5 104l21 150l-86 -2q-44 -2 -83 -9.5t-79 -24t-66 -48.5t-32 -76q-10 -65 28 -102t101 -37z" />
    <glyph glyph-name="acircumflex" unicode="&#xe2;" horiz-adv-x="1161" 
d="M838 1202l-109 164l-172 -164h-258l311 295h234l229 -295h-235zM348 -20q-156 0 -245 87t-68 242q48 355 600 361l104 4l9 51q8 67 -23.5 103t-101.5 36q-135 0 -215 -133l-275 25q62 150 203 235.5t332 85.5q126 0 213 -23.5t133 -68.5t61 -104t4 -136l-102 -745h-289
l-4 164q-52 -91 -139.5 -137.5t-196.5 -46.5zM498 205q68 0 126.5 45t69.5 104l21 150l-86 -2q-44 -2 -83 -9.5t-79 -24t-66 -48.5t-32 -76q-10 -65 28 -102t101 -37z" />
    <glyph glyph-name="atilde" unicode="&#xe3;" horiz-adv-x="1161" 
d="M1092 1284q-112 -55 -215 -55q-63 0 -155.5 30.5t-141.5 30.5q-28 0 -52.5 -7.5t-39 -15.5t-43 -26.5t-46.5 -28.5l-39 199q55 36 101 55t106 19q70 0 169.5 -33t135.5 -33q38 0 76 15.5t72 35t55 23.5zM348 -20q-156 0 -245 87t-68 242q48 355 600 361l104 4l9 51
q8 67 -23.5 103t-101.5 36q-135 0 -215 -133l-275 25q62 150 203 235.5t332 85.5q126 0 213 -23.5t133 -68.5t61 -104t4 -136l-102 -745h-289l-4 164q-52 -91 -139.5 -137.5t-196.5 -46.5zM498 205q68 0 126.5 45t69.5 104l21 150l-86 -2q-44 -2 -83 -9.5t-79 -24t-66 -48.5
t-32 -76q-10 -65 28 -102t101 -37z" />
    <glyph glyph-name="adieresis" unicode="&#xe4;" horiz-adv-x="1161" 
d="M672 1481l-39 -271h-303l39 271h303zM1110 1481l-41 -271h-301l39 271h303zM348 -20q-156 0 -245 87t-68 242q48 355 600 361l104 4l9 51q8 67 -23.5 103t-101.5 36q-135 0 -215 -133l-275 25q62 150 203 235.5t332 85.5q126 0 213 -23.5t133 -68.5t61 -104t4 -136
l-102 -745h-289l-4 164q-52 -91 -139.5 -137.5t-196.5 -46.5zM498 205q68 0 126.5 45t69.5 104l21 150l-86 -2q-44 -2 -83 -9.5t-79 -24t-66 -48.5t-32 -76q-10 -65 28 -102t101 -37z" />
    <glyph glyph-name="aring" unicode="&#xe5;" horiz-adv-x="1161" 
d="M946 1360q-13 -91 -81.5 -150t-159.5 -59q-100 0 -160 73t-45 177q10 87 79.5 145t159.5 58q99 0 160 -72t47 -172zM821 1395q4 36 -16 58t-57 22q-46 0 -86 -34.5t-46 -82.5q-3 -34 19 -58t57 -24q45 0 83 36t46 83zM348 -20q-156 0 -245 87t-68 242q48 355 600 361
l104 4l9 51q8 67 -23.5 103t-101.5 36q-135 0 -215 -133l-275 25q62 150 203 235.5t332 85.5q126 0 213 -23.5t133 -68.5t61 -104t4 -136l-102 -745h-289l-4 164q-52 -91 -139.5 -137.5t-196.5 -46.5zM498 205q68 0 126.5 45t69.5 104l21 150l-86 -2q-44 -2 -83 -9.5
t-79 -24t-66 -48.5t-32 -76q-10 -65 28 -102t101 -37z" />
    <glyph glyph-name="ae" unicode="&#xe6;" horiz-adv-x="1873" 
d="M1077 465q-12 -118 40.5 -184t144.5 -66q69 0 128.5 32.5t131.5 104.5l233 -104q-125 -152 -248.5 -210t-298.5 -58q-131 0 -231 51t-158 137q-6 0 -15.5 -11t-10.5 -20q-97 -80 -204.5 -118.5t-242.5 -38.5q-168 0 -249 88.5t-62 234.5q22 154 173 245.5t425 104.5
l117 6l12 68q8 40 -0.5 68t-29.5 42.5t-45 20.5t-52 6q-60 0 -111.5 -37t-87.5 -96l-317 70q55 95 120.5 153.5t169 90.5t250.5 32q268 -3 353 -104q141 104 317 104q117 0 211.5 -40.5t157.5 -118.5t86.5 -192t-0.5 -261h-707zM1333 866q-85 0 -149 -60.5t-76 -164.5h395
q6 87 -44 156t-126 69zM725 483l-80 -6q-59 -4 -116.5 -26.5t-102.5 -66t-53 -97.5q-6 -47 22 -72.5t90 -24.5q78 2 144 44.5t73 101.5z" />
    <glyph glyph-name="ccedilla" unicode="&#xe7;" horiz-adv-x="1140" 
d="M647 852q-91 0 -159 -90.5t-87 -233.5q-20 -145 25 -234t137 -89q25 0 47.5 7.5t41.5 24.5t31.5 30t28 41t21 39t19.5 40l284 -43q-34 -128 -152 -231t-282 -127l-43 -95q106 -1 150 -55.5t34 -126.5q-10 -70 -84.5 -110.5t-175.5 -40.5q-170 0 -256 80l45 75
q102 -39 156 -39q50 0 83 22t38 56q6 33 -28 47.5t-126 14.5q-42 0 -30 30l81 140q-197 25 -305 172.5t-78 367.5q22 161 110.5 288t220 196t282.5 69q101 0 182.5 -33t131 -87.5t75 -121.5t22.5 -139l-307 -41q-5 29 -6.5 39t-7.5 37t-11.5 38.5t-16 31t-22.5 28t-29.5 16
t-39.5 7.5z" />
    <glyph glyph-name="egrave" unicode="&#xe8;" horiz-adv-x="1193" 
d="M510 1507l498 -225l-64 -137l-532 143zM397 430q-17 -107 31 -168t141 -61q70 0 132.5 35t99.5 94l260 -64q-81 -138 -216 -212t-302 -74q-244 0 -379.5 147t-102.5 387q22 156 105 283.5t217.5 203.5t294.5 76q162 0 271.5 -75t151.5 -200.5t19 -283.5l-14 -88h-709z
M428 655h383q13 98 -28 156.5t-134 58.5q-95 0 -151.5 -60t-69.5 -155z" />
    <glyph glyph-name="eacute" unicode="&#xe9;" horiz-adv-x="1193" 
d="M961 1509l51 -227l-559 -139l-35 153zM397 430q-17 -107 31 -168t141 -61q70 0 132.5 35t99.5 94l260 -64q-81 -138 -216 -212t-302 -74q-244 0 -379.5 147t-102.5 387q22 156 105 283.5t217.5 203.5t294.5 76q162 0 271.5 -75t151.5 -200.5t19 -283.5l-14 -88h-709z
M428 655h383q13 98 -28 156.5t-134 58.5q-95 0 -151.5 -60t-69.5 -155z" />
    <glyph glyph-name="ecircumflex" unicode="&#xea;" horiz-adv-x="1193" 
d="M842 1202l-111 164l-172 -164h-256l309 295h236l227 -295h-233zM397 430q-17 -107 31 -168t141 -61q70 0 132.5 35t99.5 94l260 -64q-81 -138 -216 -212t-302 -74q-244 0 -379.5 147t-102.5 387q22 156 105 283.5t217.5 203.5t294.5 76q162 0 271.5 -75t151.5 -200.5
t19 -283.5l-14 -88h-709zM428 655h383q13 98 -28 156.5t-134 58.5q-95 0 -151.5 -60t-69.5 -155z" />
    <glyph glyph-name="edieresis" unicode="&#xeb;" horiz-adv-x="1193" 
d="M676 1481l-41 -271h-301l39 271h303zM1112 1481l-39 -271h-303l39 271h303zM397 430q-17 -107 31 -168t141 -61q70 0 132.5 35t99.5 94l260 -64q-81 -138 -216 -212t-302 -74q-244 0 -379.5 147t-102.5 387q22 156 105 283.5t217.5 203.5t294.5 76q162 0 271.5 -75
t151.5 -200.5t19 -283.5l-14 -88h-709zM428 655h383q13 98 -28 156.5t-134 58.5q-95 0 -151.5 -60t-69.5 -155z" />
    <glyph glyph-name="igrave" unicode="&#xec;" horiz-adv-x="571" 
d="M193 1507l499 -225l-65 -137l-531 143zM522 1057l-147 -1057h-348l147 1057h348z" />
    <glyph glyph-name="iacute" unicode="&#xed;" horiz-adv-x="567" 
d="M647 1509l51 -227l-559 -139l-35 153zM526 1057l-147 -1057h-348l147 1057h348z" />
    <glyph glyph-name="icircumflex" unicode="&#xee;" horiz-adv-x="565" 
d="M535 1202l-109 164l-172 -164h-258l311 295h234l229 -295h-235zM532 1057l-147 -1057h-348l147 1057h348z" />
    <glyph glyph-name="idieresis" unicode="&#xef;" horiz-adv-x="577" 
d="M365 1481l-39 -271h-303l38 271h304zM803 1481l-41 -271h-301l39 271h303zM528 1057l-147 -1057h-348l147 1057h348z" />
    <glyph glyph-name="eth" unicode="&#xf0;" horiz-adv-x="1206" 
d="M1147 535q-37 -255 -202.5 -405t-405.5 -150q-161 0 -278 71t-169 194.5t-31 276.5q31 226 201 371t397 145q15 0 39.5 1.5t32.5 0.5q-47 85 -137 160l-250 -143l-61 112l204 103q-80 45 -188 94l180 129q133 -24 264 -94l191 110l51 -118l-131 -64
q172 -134 249.5 -341.5t43.5 -452.5zM545 207q98 0 163 84t85 237q40 289 -136 289q-98 0 -162 -84.5t-87 -240.5q-35 -285 137 -285z" />
    <glyph glyph-name="ntilde" unicode="&#xf1;" horiz-adv-x="1228" 
d="M1126 1284q-112 -55 -217 -55q-63 0 -155.5 30.5t-141.5 30.5q-28 0 -52.5 -7t-39 -15.5t-42.5 -27t-46 -28.5l-39 199q55 36 101.5 55t107.5 19q69 0 168 -33t137 -33q49 0 116 35t85 39zM43 0l145 1057h344l-26 -197q168 217 379 217q143 0 215.5 -86.5t52.5 -232.5
l-104 -758h-351l99 709q7 54 -28.5 87t-94.5 33q-56 0 -108.5 -29.5t-76.5 -80.5l-100 -719h-346z" />
    <glyph glyph-name="ograve" unicode="&#xf2;" horiz-adv-x="1196" 
d="M508 1507l498 -225l-64 -137l-532 143zM520 -20q-238 0 -365.5 151.5t-93.5 390.5q33 246 207 400.5t408 154.5q160 0 273 -71.5t161 -197.5t27 -286q-34 -238 -205.5 -390t-411.5 -152zM555 201q51 0 94 32t71 83.5t45.5 106.5t25.5 112q9 53 4.5 110.5t-17.5 105
t-47.5 78.5t-85.5 31q-52 0 -94.5 -30t-70 -80t-45 -104t-25.5 -111q-4 -43 -6 -88.5t7.5 -89.5t25 -78.5t46 -56t72.5 -21.5z" />
    <glyph glyph-name="oacute" unicode="&#xf3;" horiz-adv-x="1196" 
d="M958 1509l52 -227l-559 -139l-35 153zM520 -20q-238 0 -365.5 151.5t-93.5 390.5q33 246 207 400.5t408 154.5q160 0 273 -71.5t161 -197.5t27 -286q-34 -238 -205.5 -390t-411.5 -152zM555 201q51 0 94 32t71 83.5t45.5 106.5t25.5 112q9 53 4.5 110.5t-17.5 105
t-47.5 78.5t-85.5 31q-52 0 -94.5 -30t-70 -80t-45 -104t-25.5 -111q-4 -43 -6 -88.5t7.5 -89.5t25 -78.5t46 -56t72.5 -21.5z" />
    <glyph glyph-name="ocircumflex" unicode="&#xf4;" horiz-adv-x="1196" 
d="M840 1202l-111 164l-170 -164h-258l309 295h236l229 -295h-235zM520 -20q-238 0 -365.5 151.5t-93.5 390.5q33 246 207 400.5t408 154.5q160 0 273 -71.5t161 -197.5t27 -286q-34 -238 -205.5 -390t-411.5 -152zM555 201q51 0 94 32t71 83.5t45.5 106.5t25.5 112
q9 53 4.5 110.5t-17.5 105t-47.5 78.5t-85.5 31q-52 0 -94.5 -30t-70 -80t-45 -104t-25.5 -111q-4 -43 -6 -88.5t7.5 -89.5t25 -78.5t46 -56t72.5 -21.5z" />
    <glyph glyph-name="otilde" unicode="&#xf5;" horiz-adv-x="1196" 
d="M1094 1284q-112 -55 -215 -55q-63 0 -156.5 30.5t-140.5 30.5q-28 0 -52.5 -7.5t-39 -15.5t-43 -26.5t-46.5 -28.5l-41 199q57 37 103.5 55.5t105.5 18.5q69 0 168 -33t137 -33q49 0 116.5 35t86.5 39zM520 -20q-238 0 -365.5 151.5t-93.5 390.5q33 246 207 400.5
t408 154.5q160 0 273 -71.5t161 -197.5t27 -286q-34 -238 -205.5 -390t-411.5 -152zM555 201q51 0 94 32t71 83.5t45.5 106.5t25.5 112q9 53 4.5 110.5t-17.5 105t-47.5 78.5t-85.5 31q-52 0 -94.5 -30t-70 -80t-45 -104t-25.5 -111q-4 -43 -6 -88.5t7.5 -89.5t25 -78.5
t46 -56t72.5 -21.5z" />
    <glyph glyph-name="odieresis" unicode="&#xf6;" horiz-adv-x="1196" 
d="M674 1481l-41 -271h-301l39 271h303zM1110 1481l-39 -271h-303l39 271h303zM520 -20q-238 0 -365.5 151.5t-93.5 390.5q33 246 207 400.5t408 154.5q160 0 273 -71.5t161 -197.5t27 -286q-34 -238 -205.5 -390t-411.5 -152zM555 201q51 0 94 32t71 83.5t45.5 106.5
t25.5 112q9 53 4.5 110.5t-17.5 105t-47.5 78.5t-85.5 31q-52 0 -94.5 -30t-70 -80t-45 -104t-25.5 -111q-4 -43 -6 -88.5t7.5 -89.5t25 -78.5t46 -56t72.5 -21.5z" />
    <glyph glyph-name="divide" unicode="&#xf7;" horiz-adv-x="1232" 
d="M895 1333l-47 -332h-342l45 332h344zM1157 870l-39 -249h-993l33 249h999zM778 487l-49 -331h-344l49 331h344z" />
    <glyph glyph-name="oslash" unicode="&#xf8;" horiz-adv-x="1269" 
d="M1253 944l-137 -115q59 -130 35 -307q-34 -238 -205 -390t-411 -152q-190 0 -314 100l-117 -96l-106 127l119 100q-65 131 -41 311q35 247 208.5 401t407.5 154q205 0 328 -114l127 106zM426 535q-6 -35 -6 -72l366 305q-38 92 -127 92q-42 0 -78 -20.5t-61 -53
t-45 -76.5t-31.5 -87t-17.5 -88zM805 535q4 24 4 38l-356 -299q37 -73 116 -73q51 0 94 32t71 83.5t46 107t25 111.5z" />
    <glyph glyph-name="ugrave" unicode="&#xf9;" horiz-adv-x="1224" 
d="M514 1507l500 -225l-66 -137l-532 143zM387 -20q-140 0 -231 89.5t-72 237.5l104 750h351l-101 -713q-9 -60 23 -96.5t100 -36.5q123 0 178 123l103 723h350l-154 -1057h-258l-18 178q-74 -97 -179 -147.5t-196 -50.5z" />
    <glyph glyph-name="uacute" unicode="&#xfa;" horiz-adv-x="1224" 
d="M965 1509l51 -227l-559 -139l-33 153zM387 -20q-140 0 -231 89.5t-72 237.5l104 750h351l-101 -713q-9 -60 23 -96.5t100 -36.5q123 0 178 123l103 723h350l-154 -1057h-258l-18 178q-74 -97 -179 -147.5t-196 -50.5z" />
    <glyph glyph-name="ucircumflex" unicode="&#xfb;" horiz-adv-x="1224" 
d="M846 1202l-109 164l-172 -164h-256l309 295h234l229 -295h-235zM387 -20q-140 0 -231 89.5t-72 237.5l104 750h351l-101 -713q-9 -60 23 -96.5t100 -36.5q123 0 178 123l103 723h350l-154 -1057h-258l-18 178q-74 -97 -179 -147.5t-196 -50.5z" />
    <glyph glyph-name="udieresis" unicode="&#xfc;" horiz-adv-x="1224" 
d="M680 1481l-39 -271h-303l39 271h303zM1118 1481l-41 -271h-301l39 271h303zM387 -20q-140 0 -231 89.5t-72 237.5l104 750h351l-101 -713q-9 -60 23 -96.5t100 -36.5q123 0 178 123l103 723h350l-154 -1057h-258l-18 178q-74 -97 -179 -147.5t-196 -50.5z" />
    <glyph glyph-name="yacute" unicode="&#xfd;" horiz-adv-x="1171" 
d="M981 1509l51 -227l-559 -139l-33 153zM186 -338q-68 0 -120.5 10t-70.5 20l-18 11l33 223l103 -8q54 -3 96 4t64.5 17t40 28.5t21 26t9.5 20.5l14 39l-268 1004h344l137 -631l318 631h340l-561 -1028q-61 -111 -120 -184.5t-119 -113t-116.5 -54.5t-126.5 -15z" />
    <glyph glyph-name="thorn" unicode="&#xfe;" horiz-adv-x="1234" 
d="M-4 -330l252 1811h350l-72 -525q72 58 146 89.5t170 31.5q182 0 276 -144.5t56 -416.5q-38 -274 -166 -405t-310 -131q-165 0 -290 151l-62 -461h-350zM563 195q50 0 88.5 18.5t64.5 47t48 79.5t35.5 100t29.5 123q18 116 3 182.5t-48 91.5t-92 25q-74 0 -134 -45.5
t-69 -101.5l-63 -439q17 -31 60 -56t77 -25z" />
    <glyph glyph-name="ydieresis" unicode="&#xff;" horiz-adv-x="1171" 
d="M694 1481l-39 -271h-303l39 271h303zM1133 1481l-41 -271h-301l38 271h304zM186 -338q-68 0 -120.5 10t-70.5 20l-18 11l33 223l103 -8q54 -3 96 4t64.5 17t40 28.5t21 26t9.5 20.5l14 39l-268 1004h344l137 -631l318 631h340l-561 -1028q-61 -111 -120 -184.5t-119 -113
t-116.5 -54.5t-126.5 -15z" />
    <glyph glyph-name="Amacron" unicode="&#x100;" horiz-adv-x="1476" 
d="M1339 1898l-32 -219h-766l30 219h768zM-37 0l729 1481h361l315 -1481h-346l-64 315h-493l-156 -315h-346zM582 616h338l-95 529z" />
    <glyph glyph-name="amacron" unicode="&#x101;" horiz-adv-x="1161" 
d="M1120 1475l-33 -220h-765l30 220h768zM348 -20q-156 0 -245 87t-68 242q48 355 600 361l104 4l9 51q8 67 -23.5 103t-101.5 36q-135 0 -215 -133l-275 25q62 150 203 235.5t332 85.5q126 0 213 -23.5t133 -68.5t61 -104t4 -136l-102 -745h-289l-4 164
q-52 -91 -139.5 -137.5t-196.5 -46.5zM498 205q68 0 126.5 45t69.5 104l21 150l-86 -2q-44 -2 -83 -9.5t-79 -24t-66 -48.5t-32 -76q-10 -65 28 -102t101 -37z" />
    <glyph glyph-name="Abreve" unicode="&#x102;" horiz-adv-x="1476" 
d="M1331 1905q-58 -136 -171.5 -208.5t-250.5 -72.5q-312 0 -350 281h176q31 -53 79 -86t104 -33q59 0 114.5 31t89.5 88h209zM-37 0l729 1481h361l315 -1481h-346l-64 315h-493l-156 -315h-346zM582 616h338l-95 529z" />
    <glyph glyph-name="abreve" unicode="&#x103;" horiz-adv-x="1161" 
d="M1114 1481q-60 -136 -173 -208.5t-249 -72.5q-314 0 -350 281h174q30 -53 78.5 -86t103.5 -33q59 0 115 31t90 88h211zM348 -20q-156 0 -245 87t-68 242q48 355 600 361l104 4l9 51q8 67 -23.5 103t-101.5 36q-135 0 -215 -133l-275 25q62 150 203 235.5t332 85.5
q126 0 213 -23.5t133 -68.5t61 -104t4 -136l-102 -745h-289l-4 164q-52 -91 -139.5 -137.5t-196.5 -46.5zM498 205q68 0 126.5 45t69.5 104l21 150l-86 -2q-44 -2 -83 -9.5t-79 -24t-66 -48.5t-32 -76q-10 -65 28 -102t101 -37z" />
    <glyph glyph-name="Aogonek" unicode="&#x104;" horiz-adv-x="1476" 
d="M1200 -150q-3 -51 51 -51q24 0 49 6t38.5 11.5t39.5 18t33 15.5l-22 -167q-121 -31 -215 -31q-112 0 -172 49.5t-48 140.5q7 48 42.5 86t125.5 72h-100l-64 315h-493l-156 -315h-346l729 1481h361l313 -1473l47 -2q-110 -37 -159 -74.5t-54 -81.5zM582 616h338l-95 529z
" />
    <glyph glyph-name="aogonek" unicode="&#x105;" horiz-adv-x="1177" 
d="M668 1077q126 0 213 -23.5t133 -68.5t61 -104t4 -136l-100 -737h10q-2 -1 -6 -2t-6 -2v-4h-12q-97 -34 -140.5 -69t-46.5 -76q-6 -54 49 -54q19 0 36.5 2.5t37.5 10.5t28.5 11.5t31.5 16t26 13.5l-20 -170q-127 -31 -217 -31q-112 0 -172 49.5t-48 140.5q7 48 40.5 85
t119.5 71h-2l-4 164q-52 -91 -139.5 -137.5t-196.5 -46.5q-156 0 -245 87t-68 242q48 355 600 361l104 4l9 51q8 67 -23.5 103t-101.5 36q-135 0 -215 -133l-275 25q62 150 203 235.5t332 85.5zM498 205q68 0 126.5 45t69.5 104l21 150l-86 -2q-44 -2 -83 -9.5t-79 -24
t-66 -48.5t-32 -76q-10 -65 28 -102t101 -37z" />
    <glyph glyph-name="Cacute" unicode="&#x106;" horiz-adv-x="1492" 
d="M1190 1933l51 -227l-561 -139l-33 153zM918 1501q255 0 406.5 -140.5t143.5 -367.5l-350 -24q-3 115 -60 182.5t-167 67.5q-141 0 -242.5 -112.5t-136.5 -356.5q-34 -246 36 -367t212 -121q104 0 181 73.5t116 190.5l344 -26q-26 -93 -61.5 -167t-92 -142t-130 -113
t-177 -71.5t-231.5 -26.5q-206 0 -347.5 99t-200 274.5t-28.5 402.5q47 342 259 543.5t526 201.5z" />
    <glyph glyph-name="cacute" unicode="&#x107;" horiz-adv-x="1140" 
d="M956 1509l50 -227l-560 -139l-32 153zM676 1077q101 0 182.5 -33t131 -87.5t75 -121.5t22.5 -139l-307 -41q-5 29 -6.5 39t-7.5 37t-11.5 38.5t-16 31t-22.5 28t-29.5 16t-39.5 7.5q-91 0 -159 -90.5t-87 -233.5q-20 -145 25 -234t137 -89q25 0 47.5 7.5t41.5 24.5
t31.5 30t28 41t21 39t19.5 40l284 -43q-38 -145 -180.5 -254.5t-335.5 -109.5q-228 0 -359 151.5t-98 392.5q22 161 110.5 288t220 196t282.5 69z" />
    <glyph glyph-name="Ccircumflex" unicode="&#x108;" horiz-adv-x="1492" 
d="M1069 1626l-108 164l-173 -164h-256l310 295h233l230 -295h-236zM918 1501q255 0 406.5 -140.5t143.5 -367.5l-350 -24q-3 115 -60 182.5t-167 67.5q-141 0 -242.5 -112.5t-136.5 -356.5q-34 -246 36 -367t212 -121q104 0 181 73.5t116 190.5l344 -26q-26 -93 -61.5 -167
t-92 -142t-130 -113t-177 -71.5t-231.5 -26.5q-206 0 -347.5 99t-200 274.5t-28.5 402.5q47 342 259 543.5t526 201.5z" />
    <glyph glyph-name="ccircumflex" unicode="&#x109;" horiz-adv-x="1140" 
d="M836 1202l-109 164l-172 -164h-256l309 295h234l229 -295h-235zM676 1077q101 0 182.5 -33t131 -87.5t75 -121.5t22.5 -139l-307 -41q-5 29 -6.5 39t-7.5 37t-11.5 38.5t-16 31t-22.5 28t-29.5 16t-39.5 7.5q-91 0 -159 -90.5t-87 -233.5q-20 -145 25 -234t137 -89
q25 0 47.5 7.5t41.5 24.5t31.5 30t28 41t21 39t19.5 40l284 -43q-38 -145 -180.5 -254.5t-335.5 -109.5q-228 0 -359 151.5t-98 392.5q22 161 110.5 288t220 196t282.5 69z" />
    <glyph glyph-name="Cdotaccent" unicode="&#x10a;" horiz-adv-x="1492" 
d="M1145 1905l-43 -314h-352l45 314h350zM918 1501q255 0 406.5 -140.5t143.5 -367.5l-350 -24q-3 115 -60 182.5t-167 67.5q-141 0 -242.5 -112.5t-136.5 -356.5q-34 -246 36 -367t212 -121q104 0 181 73.5t116 190.5l344 -26q-26 -93 -61.5 -167t-92 -142t-130 -113
t-177 -71.5t-231.5 -26.5q-206 0 -347.5 99t-200 274.5t-28.5 402.5q47 342 259 543.5t526 201.5z" />
    <glyph glyph-name="cdotaccent" unicode="&#x10b;" horiz-adv-x="1140" 
d="M911 1481l-43 -314h-352l45 314h350zM676 1077q101 0 182.5 -33t131 -87.5t75 -121.5t22.5 -139l-307 -41q-5 29 -6.5 39t-7.5 37t-11.5 38.5t-16 31t-22.5 28t-29.5 16t-39.5 7.5q-91 0 -159 -90.5t-87 -233.5q-20 -145 25 -234t137 -89q25 0 47.5 7.5t41.5 24.5
t31.5 30t28 41t21 39t19.5 40l284 -43q-38 -145 -180.5 -254.5t-335.5 -109.5q-228 0 -359 151.5t-98 392.5q22 161 110.5 288t220 196t282.5 69z" />
    <glyph glyph-name="Ccaron" unicode="&#x10c;" horiz-adv-x="1492" 
d="M1087 1907h281l-309 -297h-236l-239 297h223l125 -160zM918 1501q255 0 406.5 -140.5t143.5 -367.5l-350 -24q-3 115 -60 182.5t-167 67.5q-141 0 -242.5 -112.5t-136.5 -356.5q-34 -246 36 -367t212 -121q104 0 181 73.5t116 190.5l344 -26q-26 -93 -61.5 -167t-92 -142
t-130 -113t-177 -71.5t-231.5 -26.5q-206 0 -347.5 99t-200 274.5t-28.5 402.5q47 342 259 543.5t526 201.5z" />
    <glyph glyph-name="ccaron" unicode="&#x10d;" horiz-adv-x="1140" 
d="M854 1483h281l-310 -297h-235l-240 297h223l125 -160zM676 1077q101 0 182.5 -33t131 -87.5t75 -121.5t22.5 -139l-307 -41q-5 29 -6.5 39t-7.5 37t-11.5 38.5t-16 31t-22.5 28t-29.5 16t-39.5 7.5q-91 0 -159 -90.5t-87 -233.5q-20 -145 25 -234t137 -89q25 0 47.5 7.5
t41.5 24.5t31.5 30t28 41t21 39t19.5 40l284 -43q-38 -145 -180.5 -254.5t-335.5 -109.5q-228 0 -359 151.5t-98 392.5q22 161 110.5 288t220 196t282.5 69z" />
    <glyph glyph-name="Dcaron" unicode="&#x10e;" horiz-adv-x="1488" 
d="M1055 1907h280l-309 -297h-235l-240 297h223l125 -160zM289 1481q419 0 483 -2q195 -7 334.5 -61.5t217 -151t103.5 -227.5t3 -296q-22 -168 -87.5 -303t-172 -234t-262 -152.5t-349.5 -53.5h-477zM600 1202l-129 -923h137q78 0 149.5 25.5t136.5 78.5t111 146.5
t64 218.5q31 228 -56.5 341t-273.5 113h-139z" />
    <glyph glyph-name="dcaron" unicode="&#x10f;" horiz-adv-x="1300" 
d="M1286 1122l-37 -264l-114 -207l-91 -651h-247l-19 176q-54 -81 -141 -138.5t-205 -57.5q-214 0 -310 146.5t-59 405.5q34 252 164.5 398.5t325.5 146.5q204 0 270 -172l86 615h346l-55 -398h86zM782 623q7 121 -29.5 172t-111.5 51q-85 0 -143.5 -69t-81.5 -240
q-47 -328 139 -328q79 0 134.5 67t70.5 191z" />
    <glyph glyph-name="Dcroat" unicode="&#x110;" horiz-adv-x="1507" 
d="M791 1479q195 -7 334 -61.5t216.5 -151t103.5 -227.5t3 -296q-23 -168 -88.5 -303t-172 -234t-261.5 -152.5t-348 -53.5h-478l84 602h-102l33 252h104l88 627q421 0 484 -2zM1087 748q31 228 -57 341t-274 113h-140l-47 -348h324l-33 -252h-325l-46 -323h138
q78 0 149.5 25.5t136 78.5t110.5 146.5t64 218.5z" />
    <glyph glyph-name="dcroat" unicode="&#x111;" horiz-adv-x="1357" 
d="M1395 1362l-25 -191h-164l-162 -1171h-247l-19 176q-54 -81 -141 -138.5t-205 -57.5q-214 0 -310 146.5t-59 405.5q34 252 164.5 398.5t325.5 146.5q204 0 270 -172l37 266h-203l27 191h203l22 158h346l-22 -158h162zM782 623q7 121 -29.5 172t-111.5 51
q-85 0 -143.5 -69t-81.5 -240q-47 -328 139 -328q79 0 134.5 67t70.5 191z" />
    <glyph glyph-name="Emacron" unicode="&#x112;" horiz-adv-x="1327" 
d="M1260 1898l-33 -219h-766l31 219h768zM82 0l207 1481h1046l-43 -293h-694l-43 -303h592l-37 -283h-596l-41 -309h703l-41 -293h-1053z" />
    <glyph glyph-name="emacron" unicode="&#x113;" horiz-adv-x="1193" 
d="M1124 1475l-32 -220h-766l30 220h768zM397 430q-17 -107 31 -168t141 -61q70 0 132.5 35t99.5 94l260 -64q-81 -138 -216 -212t-302 -74q-244 0 -379.5 147t-102.5 387q22 156 105 283.5t217.5 203.5t294.5 76q162 0 271.5 -75t151.5 -200.5t19 -283.5l-14 -88h-709z
M428 655h383q13 98 -28 156.5t-134 58.5q-95 0 -151.5 -60t-69.5 -155z" />
    <glyph glyph-name="Ebreve" unicode="&#x114;" horiz-adv-x="1327" 
d="M1249 1905q-58 -136 -171.5 -208.5t-250.5 -72.5q-312 0 -350 281h176q31 -53 79 -86t104 -33q59 0 114.5 31t89.5 88h209zM82 0l207 1481h1046l-43 -293h-694l-43 -303h592l-37 -283h-596l-41 -309h703l-41 -293h-1053z" />
    <glyph glyph-name="ebreve" unicode="&#x115;" horiz-adv-x="1193" 
d="M1116 1481q-58 -136 -172 -208.5t-250 -72.5q-314 0 -350 281h174q32 -54 79.5 -86.5t102.5 -32.5q61 0 116.5 31t88.5 88h211zM397 430q-17 -107 31 -168t141 -61q70 0 132.5 35t99.5 94l260 -64q-81 -138 -216 -212t-302 -74q-244 0 -379.5 147t-102.5 387
q22 156 105 283.5t217.5 203.5t294.5 76q162 0 271.5 -75t151.5 -200.5t19 -283.5l-14 -88h-709zM428 655h383q13 98 -28 156.5t-134 58.5q-95 0 -151.5 -60t-69.5 -155z" />
    <glyph glyph-name="Edotaccent" unicode="&#x116;" horiz-adv-x="1327" 
d="M1051 1905l-43 -314h-353l43 314h353zM82 0l207 1481h1046l-43 -293h-694l-43 -303h592l-37 -283h-596l-41 -309h703l-41 -293h-1053z" />
    <glyph glyph-name="edotaccent" unicode="&#x117;" horiz-adv-x="1193" 
d="M918 1481l-46 -314h-352l45 314h353zM397 430q-17 -107 31 -168t141 -61q70 0 132.5 35t99.5 94l260 -64q-81 -138 -216 -212t-302 -74q-244 0 -379.5 147t-102.5 387q22 156 105 283.5t217.5 203.5t294.5 76q162 0 271.5 -75t151.5 -200.5t19 -283.5l-14 -88h-709z
M428 655h383q13 98 -28 156.5t-134 58.5q-95 0 -151.5 -60t-69.5 -155z" />
    <glyph glyph-name="Eogonek" unicode="&#x118;" horiz-adv-x="1325" 
d="M1292 1188h-694l-43 -303h592l-37 -283h-596l-41 -309h703l-39 -285l39 -2q-111 -36 -159.5 -72.5t-51.5 -80.5q-6 -54 49 -54q24 0 48.5 6t39.5 13t38.5 19t33.5 16l-23 -168q-104 -31 -215 -31q-112 0 -171.5 49.5t-47.5 140.5q7 47 42 84.5t120 71.5h-797l207 1481
h1046z" />
    <glyph glyph-name="eogonek" unicode="&#x119;" horiz-adv-x="1193" 
d="M678 1077q162 0 271.5 -75t151.5 -200.5t19 -283.5l-14 -88h-709q-17 -107 31 -168t141 -61q70 0 132.5 35t99.5 94l260 -64q-91 -156 -250 -229l25 -2q-110 -36 -159 -72.5t-54 -81.5q-3 -53 49 -53q24 0 48.5 6t39.5 12.5t39 18t35 16.5l-23 -168q-101 -30 -217 -30
q-111 0 -170.5 50t-46.5 140q11 69 74 113q-203 28 -311.5 170.5t-78.5 357.5q22 156 105 283.5t217.5 203.5t294.5 76zM811 655q13 98 -28 156.5t-134 58.5q-95 0 -151.5 -60t-69.5 -155h383z" />
    <glyph glyph-name="Ecaron" unicode="&#x11a;" horiz-adv-x="1327" 
d="M993 1907h281l-309 -297h-236l-240 297h224l125 -160zM82 0l207 1481h1046l-43 -293h-694l-43 -303h592l-37 -283h-596l-41 -309h703l-41 -293h-1053z" />
    <glyph glyph-name="ecaron" unicode="&#x11b;" horiz-adv-x="1193" 
d="M858 1483h281l-310 -297h-233l-240 297h222l127 -160zM397 430q-17 -107 31 -168t141 -61q70 0 132.5 35t99.5 94l260 -64q-81 -138 -216 -212t-302 -74q-244 0 -379.5 147t-102.5 387q22 156 105 283.5t217.5 203.5t294.5 76q162 0 271.5 -75t151.5 -200.5t19 -283.5
l-14 -88h-709zM428 655h383q13 98 -28 156.5t-134 58.5q-95 0 -151.5 -60t-69.5 -155z" />
    <glyph glyph-name="Gcircumflex" unicode="&#x11c;" horiz-adv-x="1576" 
d="M1067 1626l-111 164l-172 -164h-256l310 295h233l229 -295h-233zM700 -20q-202 0 -342.5 94.5t-199.5 265.5t-29 395q33 230 145 404t283 268t377 94q135 0 241.5 -41.5t172 -111.5t101 -154.5t40.5 -177.5l-373 -55q-27 249 -229 249q-139 0 -241.5 -113.5
t-137.5 -351.5q-12 -80 -9.5 -143t12 -111t30.5 -83.5t45 -59t55.5 -37.5t62.5 -20t66 -6q102 0 171.5 50.5t105.5 135.5l24 72h-278l34 237l643 -2l-108 -778h-232l25 178q-39 -40 -75.5 -69t-92.5 -61.5t-129 -50t-158 -17.5z" />
    <glyph glyph-name="gcircumflex" unicode="&#x11d;" horiz-adv-x="1271" 
d="M879 1202l-111 164l-170 -164h-258l309 295h236l229 -295h-235zM492 -350q-286 0 -430 70t-130 182q18 115 218 176q28 9 2 22q-114 62 -101 156q8 63 73.5 111t180.5 65q-100 50 -145.5 135t-32.5 176q15 103 96.5 179t202 113.5t264.5 37.5q102 0 168.5 -19.5
t126.5 -56.5q9 -6 80 25q108 42 268 102l-37 -254q-83 -11 -141 -16q-28 -4 -37 -15t-4 -32q6 -19 2 -64q-10 -68 -50.5 -130.5t-107.5 -113t-167 -80.5t-218 -30q-56 0 -122 4q-65 -6 -68 -31q-1 -10 7.5 -16.5t27.5 -10.5t42.5 -6t60.5 -5q20 -1 30 -2q67 -3 213 -13
q199 -13 287.5 -97t70.5 -212q-23 -158 -186.5 -254t-443.5 -96zM610 575q71 0 119 43.5t57 114.5q11 70 -25.5 118t-105.5 48t-119 -47.5t-61 -118.5q-9 -70 27.5 -114t107.5 -44zM573 -162q111 0 157.5 22.5t51.5 69.5q6 42 -28.5 67.5t-104.5 29.5l-209 14
q-71 4 -112.5 -26t-48.5 -72q-7 -58 62.5 -81.5t231.5 -23.5z" />
    <glyph glyph-name="Gbreve" unicode="&#x11e;" horiz-adv-x="1576" 
d="M1341 1905q-58 -136 -171.5 -208.5t-249.5 -72.5q-315 0 -351 281h174q32 -54 80 -86.5t103 -32.5q60 0 115.5 31t88.5 88h211zM700 -20q-202 0 -342.5 94.5t-199.5 265.5t-29 395q33 230 145 404t283 268t377 94q135 0 241.5 -41.5t172 -111.5t101 -154.5t40.5 -177.5
l-373 -55q-27 249 -229 249q-139 0 -241.5 -113.5t-137.5 -351.5q-12 -80 -9.5 -143t12 -111t30.5 -83.5t45 -59t55.5 -37.5t62.5 -20t66 -6q102 0 171.5 50.5t105.5 135.5l24 72h-278l34 237l643 -2l-108 -778h-232l25 178q-39 -40 -75.5 -69t-92.5 -61.5t-129 -50
t-158 -17.5z" />
    <glyph glyph-name="gbreve" unicode="&#x11f;" horiz-adv-x="1271" 
d="M1153 1481q-58 -136 -172 -208.5t-250 -72.5q-312 0 -350 281h176q31 -53 78 -86t102 -33q60 0 116.5 31t90.5 88h209zM492 -350q-286 0 -430 70t-130 182q18 115 218 176q28 9 2 22q-114 62 -101 156q8 63 73.5 111t180.5 65q-100 50 -145.5 135t-32.5 176
q15 103 96.5 179t202 113.5t264.5 37.5q102 0 168.5 -19.5t126.5 -56.5q9 -6 80 25q108 42 268 102l-37 -254q-83 -11 -141 -16q-28 -4 -37 -15t-4 -32q6 -19 2 -64q-10 -68 -50.5 -130.5t-107.5 -113t-167 -80.5t-218 -30q-56 0 -122 4q-65 -6 -68 -31q-1 -10 7.5 -16.5
t27.5 -10.5t42.5 -6t60.5 -5q20 -1 30 -2q67 -3 213 -13q199 -13 287.5 -97t70.5 -212q-23 -158 -186.5 -254t-443.5 -96zM610 575q71 0 119 43.5t57 114.5q11 70 -25.5 118t-105.5 48t-119 -47.5t-61 -118.5q-9 -70 27.5 -114t107.5 -44zM573 -162q111 0 157.5 22.5
t51.5 69.5q6 42 -28.5 67.5t-104.5 29.5l-209 14q-71 4 -112.5 -26t-48.5 -72q-7 -58 62.5 -81.5t231.5 -23.5z" />
    <glyph glyph-name="Gdotaccent" unicode="&#x120;" horiz-adv-x="1576" 
d="M1143 1905l-45 -314h-353l46 314h352zM700 -20q-202 0 -342.5 94.5t-199.5 265.5t-29 395q33 230 145 404t283 268t377 94q135 0 241.5 -41.5t172 -111.5t101 -154.5t40.5 -177.5l-373 -55q-27 249 -229 249q-139 0 -241.5 -113.5t-137.5 -351.5q-12 -80 -9.5 -143
t12 -111t30.5 -83.5t45 -59t55.5 -37.5t62.5 -20t66 -6q102 0 171.5 50.5t105.5 135.5l24 72h-278l34 237l643 -2l-108 -778h-232l25 178q-39 -40 -75.5 -69t-92.5 -61.5t-129 -50t-158 -17.5z" />
    <glyph glyph-name="gdotaccent" unicode="&#x121;" horiz-adv-x="1271" 
d="M954 1481l-43 -314h-352l43 314h352zM492 -350q-286 0 -430 70t-130 182q18 115 218 176q28 9 2 22q-114 62 -101 156q8 63 73.5 111t180.5 65q-100 50 -145.5 135t-32.5 176q15 103 96.5 179t202 113.5t264.5 37.5q102 0 168.5 -19.5t126.5 -56.5q9 -6 80 25
q108 42 268 102l-37 -254q-83 -11 -141 -16q-28 -4 -37 -15t-4 -32q6 -19 2 -64q-10 -68 -50.5 -130.5t-107.5 -113t-167 -80.5t-218 -30q-56 0 -122 4q-65 -6 -68 -31q-1 -10 7.5 -16.5t27.5 -10.5t42.5 -6t60.5 -5q20 -1 30 -2q67 -3 213 -13q199 -13 287.5 -97t70.5 -212
q-23 -158 -186.5 -254t-443.5 -96zM610 575q71 0 119 43.5t57 114.5q11 70 -25.5 118t-105.5 48t-119 -47.5t-61 -118.5q-9 -70 27.5 -114t107.5 -44zM573 -162q111 0 157.5 22.5t51.5 69.5q6 42 -28.5 67.5t-104.5 29.5l-209 14q-71 4 -112.5 -26t-48.5 -72
q-7 -58 62.5 -81.5t231.5 -23.5z" />
    <glyph glyph-name="uni0122" unicode="&#x122;" horiz-adv-x="1576" 
d="M700 -20q-202 0 -342.5 94.5t-199.5 265.5t-29 395q33 230 145 404t283 268t377 94q135 0 241.5 -41.5t172 -111.5t101 -154.5t40.5 -177.5l-373 -55q-27 249 -229 249q-139 0 -241.5 -113.5t-137.5 -351.5q-12 -80 -9.5 -143t12 -111t30.5 -83.5t45 -59t55.5 -37.5
t62.5 -20t66 -6q102 0 171.5 50.5t105.5 135.5l24 72h-278l34 237l643 -2l-108 -778h-232l25 178q-39 -40 -75.5 -69t-92.5 -61.5t-129 -50t-158 -17.5zM508 -487l151 180h-122l30 198h234l-29 -210l-164 -168h-100z" />
    <glyph glyph-name="uni0123" unicode="&#x123;" horiz-adv-x="1271" 
d="M647 1206l31 211l164 168h100l-149 -180h118l-30 -199h-234zM492 -350q-286 0 -430 70t-130 182q18 115 218 176q28 9 2 22q-114 62 -101 156q8 63 73.5 111t180.5 65q-100 50 -145.5 135t-32.5 176q15 103 96.5 179t202 113.5t264.5 37.5q102 0 168.5 -19.5t126.5 -56.5
q9 -6 80 25q108 42 268 102l-37 -254q-83 -11 -141 -16q-28 -4 -37 -15t-4 -32q6 -19 2 -64q-10 -68 -50.5 -130.5t-107.5 -113t-167 -80.5t-218 -30q-56 0 -122 4q-65 -6 -68 -31q-1 -10 7.5 -16.5t27.5 -10.5t42.5 -6t60.5 -5q20 -1 30 -2q67 -3 213 -13
q199 -13 287.5 -97t70.5 -212q-23 -158 -186.5 -254t-443.5 -96zM610 575q71 0 119 43.5t57 114.5q11 70 -25.5 118t-105.5 48t-119 -47.5t-61 -118.5q-9 -70 27.5 -114t107.5 -44zM573 -162q111 0 157.5 22.5t51.5 69.5q6 42 -28.5 67.5t-104.5 29.5l-209 14
q-71 4 -112.5 -26t-48.5 -72q-7 -58 62.5 -81.5t231.5 -23.5z" />
    <glyph glyph-name="Hcircumflex" unicode="&#x124;" horiz-adv-x="1507" 
d="M1040 1626l-108 164l-172 -164h-256l309 295h234l229 -295h-236zM1012 612h-498l-84 -612h-348l207 1481h346l-78 -578h500l78 578h350l-207 -1481h-350z" />
    <glyph glyph-name="hcircumflex" unicode="&#x125;" horiz-adv-x="1230" 
d="M43 0l211 1520h344l-94 -664q85 115 185 168t198 53q149 0 217.5 -84t46.5 -239l-104 -754h-349l99 709q8 56 -21 88t-88 32q-53 0 -99.5 -27.5t-99.5 -86.5l-98 -715h-348zM1114 1202l-110 164l-173 -164h-256l310 295h235l228 -295h-234z" />
    <glyph glyph-name="Hbar" unicode="&#x126;" horiz-adv-x="1611" 
d="M1683 1300l-28 -186h-234l-157 -1114h-349l84 612h-497l-84 -612h-348l155 1114h-119l23 186h123l24 181h347l-25 -181h500l24 181h351l-25 -181h235zM1042 903l29 211h-500l-28 -211h499z" />
    <glyph glyph-name="hbar" unicode="&#x127;" horiz-adv-x="1239" 
d="M899 1077q150 0 218 -83.5t48 -239.5l-104 -754h-350l100 709q8 56 -21 88t-88 32q-52 0 -98.5 -27.5t-99.5 -86.5l-101 -715h-346l162 1171h-84l27 191h84l22 158h342l-22 -158h284l-24 -191h-287l-45 -315q85 115 185.5 168t197.5 53z" />
    <glyph glyph-name="Itilde" unicode="&#x128;" horiz-adv-x="667" 
d="M885 1708q-112 -55 -217 -55q-63 0 -155.5 30.5t-141.5 30.5q-28 0 -52.5 -7.5t-39 -15.5t-43 -26.5t-46.5 -28.5l-38 199q55 36 101 55t107 19q69 0 168.5 -33t137.5 -33q49 0 115.5 35t84.5 39zM291 1481h348l-207 -1481h-348z" />
    <glyph glyph-name="itilde" unicode="&#x129;" horiz-adv-x="587" 
d="M793 1284q-117 -55 -218 -55q-63 0 -155 30.5t-141 30.5q-28 0 -52.5 -7.5t-39 -15.5t-43 -26.5t-46.5 -28.5l-39 199q55 36 101 55t106 19q70 0 169.5 -33t137.5 -33q49 0 116 35t85 39zM537 1057l-150 -1057h-348l147 1057h351z" />
    <glyph glyph-name="Imacron" unicode="&#x12a;" horiz-adv-x="657" 
d="M907 1898l-33 -219h-765l30 219h768zM287 1481h346l-205 -1481h-348z" />
    <glyph glyph-name="imacron" unicode="&#x12b;" horiz-adv-x="575" 
d="M813 1475l-33 -220h-766l31 220h768zM528 1057l-147 -1057h-348l147 1057h348z" />
    <glyph glyph-name="Ibreve" unicode="&#x12c;" horiz-adv-x="671" 
d="M915 1905q-60 -136 -172.5 -208.5t-248.5 -72.5q-315 0 -353 281h176q30 -53 79 -86t104 -33q59 0 115 31t90 88h210zM305 1481h346l-205 -1481h-350z" />
    <glyph glyph-name="ibreve" unicode="&#x12d;" horiz-adv-x="587" 
d="M823 1481q-60 -136 -173 -208.5t-249 -72.5q-314 0 -352 281h176q30 -53 79 -86t104 -33q59 0 114.5 31t89.5 88h211zM545 1057l-148 -1057h-348l148 1057h348z" />
    <glyph glyph-name="Iogonek" unicode="&#x12e;" horiz-adv-x="655" 
d="M428 -6q-112 -36 -161 -73t-52 -81q-6 -51 49 -51q24 0 48.5 6t39 11.5t40 17.5t34.5 16l-23 -168q-101 -30 -217 -30q-112 0 -171 49.5t-46 140.5q7 52 48 92.5t147 75.5h-90l207 1481h348l-205 -1481h-148z" />
    <glyph glyph-name="iogonek" unicode="&#x12f;" horiz-adv-x="575" 
d="M252 1481h352l-43 -314h-352zM178 1057h348l-147 -1051h6q-1 0 -3 -1t-3 -1v-4h-12q-100 -34 -145 -69t-50 -78q-3 -54 49 -54q20 0 38 2.5t38 10.5t28 11.5t32 16t26 13.5l-23 -170q-121 -31 -215 -31q-112 0 -171.5 49.5t-47.5 140.5q7 49 41.5 86.5t122.5 71.5h-59z
" />
    <glyph glyph-name="Idotaccent" unicode="&#x130;" horiz-adv-x="657" 
d="M700 1905l-43 -314h-352l43 314h352zM289 1481h346l-205 -1481h-348z" />
    <glyph glyph-name="dotlessi" unicode="&#x131;" horiz-adv-x="577" 
d="M541 1057l-150 -1057h-346l145 1057h351z" />
    <glyph glyph-name="Jcircumflex" unicode="&#x134;" horiz-adv-x="835" 
d="M754 1626l-111 164l-170 -164h-258l311 295h234l229 -295h-235zM705 440q-18 -121 -47 -201.5t-82.5 -141.5t-138 -89t-206.5 -28q-141 0 -256 26l50 316q83 -19 135 -19q101 0 145 52t62 175l133 951h348z" />
    <glyph glyph-name="jcircumflex" unicode="&#x135;" horiz-adv-x="612" 
d="M539 1202l-109 164l-172 -164h-258l311 295h234l229 -295h-235zM444 23q-26 -187 -128 -275t-296 -88q-52 0 -87 10t-45 20l-9 9l31 227l84 13q32 5 53.5 17t32.5 31t15 33.5t7 36.5l138 1000h352z" />
    <glyph glyph-name="uni0136" unicode="&#x136;" horiz-adv-x="1499" 
d="M1376 0h-379l-264 655l-233 -249l-58 -406h-360l207 1481h360l-90 -639l567 639h396l-504 -572zM467 -487l149 180h-120l30 198h234l-29 -210l-166 -168h-98z" />
    <glyph glyph-name="uni0137" unicode="&#x137;" horiz-adv-x="1202" 
d="M1100 0h-340l-203 424l-125 -121l-41 -303h-348l211 1520h350l-115 -830l392 367h358l-442 -428zM360 -487l152 180h-123l33 198h231l-28 -210l-164 -168h-101z" />
    <glyph glyph-name="kgreenlandic" unicode="&#x138;" horiz-adv-x="1249" 
d="M1147 0h-379l-145 453l-193 -162l-41 -291h-346l145 1057h349l-58 -418l432 418h377l-414 -361z" />
    <glyph glyph-name="Lacute" unicode="&#x139;" horiz-adv-x="1165" 
d="M723 1933l51 -227l-559 -139l-35 153zM285 1481h348l-164 -1190h610l-41 -291h-960z" />
    <glyph glyph-name="lacute" unicode="&#x13a;" horiz-adv-x="673" 
d="M721 2017l49 -227l-559 -137l-33 151zM399 -18q-73 0 -129 10.5t-92 27t-59.5 43.5t-34.5 52t-14 62.5t-1 64.5t7 67l170 1211h342l-162 -1166q-9 -54 11.5 -86.5t88.5 -40.5l43 -4l-30 -213q-75 -28 -140 -28z" />
    <glyph glyph-name="uni013B" unicode="&#x13b;" horiz-adv-x="1171" 
d="M289 1481h348l-164 -1190h610l-41 -291h-960zM369 -487l149 180h-121l31 198h234l-29 -210l-164 -168h-100z" />
    <glyph glyph-name="uni013C" unicode="&#x13c;" horiz-adv-x="688" 
d="M410 -18q-73 0 -129 10.5t-92.5 27t-60 43t-35 52.5t-14.5 62.5t-1 64.5t8 67l170 1211h342l-164 -1166q-8 -53 13 -86t88 -41l45 -4l-31 -213q-79 -28 -139 -28zM18 -487l150 180h-121l31 198h233l-28 -210l-164 -168h-101z" />
    <glyph glyph-name="Lcaron" unicode="&#x13d;" horiz-adv-x="1171" 
d="M289 1481h348l-164 -1190h610l-41 -291h-960zM827 1010l121 219l-76 8l35 244h226l-37 -264l-115 -207h-154z" />
    <glyph glyph-name="lcaron" unicode="&#x13e;" horiz-adv-x="882" 
d="M625 1081l120 219l-75 9l35 243h225l-39 -264l-113 -207h-153zM410 -18q-73 0 -129 10.5t-92.5 27t-60 43t-35 52.5t-14.5 62.5t-1 64.5t8 67l170 1211h342l-162 -1166q-8 -53 12 -86t87 -41l45 -4l-31 -213q-75 -28 -139 -28z" />
    <glyph glyph-name="Ldot" unicode="&#x13f;" horiz-adv-x="1187" 
d="M289 1481h348l-164 -1190h610l-41 -291h-960zM1145 989l-45 -325h-336l45 325h336z" />
    <glyph glyph-name="ldot" unicode="&#x140;" horiz-adv-x="841" 
d="M410 -18q-73 0 -129 10.5t-92.5 27t-60 43t-35 52.5t-14.5 62.5t-1 64.5t8 67l170 1211h342l-162 -1166q-8 -53 12 -86t87 -41l45 -4l-31 -213q-75 -28 -139 -28zM893 735l-45 -325h-336l45 325h336z" />
    <glyph glyph-name="Lslash" unicode="&#x141;" horiz-adv-x="1165" 
d="M467 291h610l-41 -291h-960l84 600l-142 -39l41 295l142 37l82 588h348l-68 -496l371 96l-41 -282l-371 -101z" />
    <glyph glyph-name="lslash" unicode="&#x142;" horiz-adv-x="733" 
d="M575 633l-38 -279q-8 -53 12.5 -86t87.5 -41l45 -4l-31 -213q-75 -28 -139 -28q-73 0 -129 10.5t-92.5 27t-60 43t-35 52.5t-14.5 62.5t-1 64.5t8 67l13 88l-168 -106l45 311l166 103l114 815h342l-82 -586l132 80l-41 -297z" />
    <glyph glyph-name="Nacute" unicode="&#x143;" horiz-adv-x="1626" 
d="M1231 1933l51 -227l-559 -139l-33 153zM1255 1481h349l-205 -1481h-316l-520 950l-133 -950h-348l207 1481h346l495 -903z" />
    <glyph glyph-name="nacute" unicode="&#x144;" horiz-adv-x="1228" 
d="M991 1509l51 -227l-561 -139l-32 153zM43 0l145 1057h344l-26 -197q168 217 379 217q143 0 215.5 -86.5t52.5 -232.5l-104 -758h-351l99 709q7 54 -28.5 87t-94.5 33q-56 0 -108.5 -29.5t-76.5 -80.5l-100 -719h-346z" />
    <glyph glyph-name="uni0145" unicode="&#x145;" horiz-adv-x="1626" 
d="M1255 1481h349l-205 -1481h-316l-520 950l-133 -950h-348l207 1481h346l495 -903zM543 -487l151 180h-123l33 198h232l-29 -210l-164 -168h-100z" />
    <glyph glyph-name="uni0146" unicode="&#x146;" horiz-adv-x="1228" 
d="M43 0l145 1057h344l-26 -197q168 217 379 217q143 0 215.5 -86.5t52.5 -232.5l-104 -758h-351l99 709q7 54 -28.5 87t-94.5 33q-56 0 -108.5 -29.5t-76.5 -80.5l-100 -719h-346zM371 -487l151 180h-123l33 198h232l-29 -210l-164 -168h-100z" />
    <glyph glyph-name="Ncaron" unicode="&#x147;" horiz-adv-x="1626" 
d="M1130 1907h279l-309 -297h-234l-239 297h221l127 -160zM1255 1481h349l-205 -1481h-316l-520 950l-133 -950h-348l207 1481h346l495 -903z" />
    <glyph glyph-name="ncaron" unicode="&#x148;" horiz-adv-x="1228" 
d="M889 1483h280l-309 -297h-235l-240 297h223l125 -160zM43 0l145 1057h344l-26 -197q168 217 379 217q143 0 215.5 -86.5t52.5 -232.5l-104 -758h-351l99 709q7 54 -28.5 87t-94.5 33q-56 0 -108.5 -29.5t-76.5 -80.5l-100 -719h-346z" />
    <glyph glyph-name="Eng" unicode="&#x14a;" horiz-adv-x="1574" 
d="M1552 1481l-198 -1426q-30 -217 -145 -311t-328 -94q-163 0 -312 47l64 266q38 -8 109.5 -18.5t101.5 -10.5q77 0 110.5 36t49.5 122l6 35l-478 766l-122 -893h-328l211 1481h338l495 -774l107 774h319z" />
    <glyph glyph-name="eng" unicode="&#x14b;" horiz-adv-x="1247" 
d="M874 1077q146 0 223.5 -91t57.5 -238l-100 -723q-27 -178 -142.5 -271.5t-281.5 -93.5q-44 0 -76 9t-41 17l-10 9l33 229l90 21q71 18 84 108l88 639q10 69 -18.5 104t-71.5 35q-30 0 -58 -9.5t-57.5 -31t-46.5 -37t-49 -46.5l-103 -707h-352l154 1057h340l-21 -139
q186 159 358 159z" />
    <glyph glyph-name="Omacron" unicode="&#x14c;" horiz-adv-x="1587" 
d="M1360 1898l-33 -219h-766l31 219h768zM717 -20q-320 0 -478.5 203.5t-109.5 553.5q47 349 265.5 556.5t535.5 207.5q315 0 475 -207t111 -557q-49 -348 -265.5 -552.5t-533.5 -204.5zM758 262q148 0 246.5 112.5t132.5 356.5q34 251 -32.5 369.5t-213.5 118.5
t-248.5 -119t-136.5 -369q-32 -244 36 -356.5t216 -112.5z" />
    <glyph glyph-name="omacron" unicode="&#x14d;" horiz-adv-x="1196" 
d="M1122 1475l-32 -220h-766l30 220h768zM520 -20q-238 0 -365.5 151.5t-93.5 390.5q33 246 207 400.5t408 154.5q160 0 273 -71.5t161 -197.5t27 -286q-34 -238 -205.5 -390t-411.5 -152zM555 201q51 0 94 32t71 83.5t45.5 106.5t25.5 112q9 53 4.5 110.5t-17.5 105
t-47.5 78.5t-85.5 31q-52 0 -94.5 -30t-70 -80t-45 -104t-25.5 -111q-4 -43 -6 -88.5t7.5 -89.5t25 -78.5t46 -56t72.5 -21.5z" />
    <glyph glyph-name="Obreve" unicode="&#x14e;" horiz-adv-x="1587" 
d="M1354 1905q-60 -136 -173 -208.5t-249 -72.5q-314 0 -352 281h176q31 -54 78.5 -86.5t103.5 -32.5q59 0 115 31t90 88h211zM717 -20q-320 0 -478.5 203.5t-109.5 553.5q47 349 265.5 556.5t535.5 207.5q315 0 475 -207t111 -557q-49 -348 -265.5 -552.5t-533.5 -204.5z
M758 262q148 0 246.5 112.5t132.5 356.5q34 251 -32.5 369.5t-213.5 118.5t-248.5 -119t-136.5 -369q-32 -244 36 -356.5t216 -112.5z" />
    <glyph glyph-name="obreve" unicode="&#x14f;" horiz-adv-x="1196" 
d="M1114 1481q-58 -136 -171.5 -208.5t-250.5 -72.5q-312 0 -350 281h176q31 -54 78.5 -86.5t103.5 -32.5q59 0 115 31t90 88h209zM520 -20q-238 0 -365.5 151.5t-93.5 390.5q33 246 207 400.5t408 154.5q160 0 273 -71.5t161 -197.5t27 -286q-34 -238 -205.5 -390
t-411.5 -152zM555 201q51 0 94 32t71 83.5t45.5 106.5t25.5 112q9 53 4.5 110.5t-17.5 105t-47.5 78.5t-85.5 31q-52 0 -94.5 -30t-70 -80t-45 -104t-25.5 -111q-4 -43 -6 -88.5t7.5 -89.5t25 -78.5t46 -56t72.5 -21.5z" />
    <glyph glyph-name="Ohungarumlaut" unicode="&#x150;" horiz-adv-x="1587" 
d="M866 1933l131 -186l-376 -209l-101 123zM1276 1933l131 -186l-377 -209l-98 123zM717 -20q-320 0 -478.5 203.5t-109.5 553.5q47 349 265.5 556.5t535.5 207.5q315 0 475 -207t111 -557q-49 -348 -265.5 -552.5t-533.5 -204.5zM758 262q148 0 246.5 112.5t132.5 356.5
q34 251 -32.5 369.5t-213.5 118.5t-248.5 -119t-136.5 -369q-32 -244 36 -356.5t216 -112.5z" />
    <glyph glyph-name="ohungarumlaut" unicode="&#x151;" horiz-adv-x="1196" 
d="M629 1509l131 -186l-377 -209l-100 123zM1038 1509l131 -186l-376 -209l-99 123zM520 -20q-238 0 -365.5 151.5t-93.5 390.5q33 246 207 400.5t408 154.5q160 0 273 -71.5t161 -197.5t27 -286q-34 -238 -205.5 -390t-411.5 -152zM555 201q51 0 94 32t71 83.5t45.5 106.5
t25.5 112q9 53 4.5 110.5t-17.5 105t-47.5 78.5t-85.5 31q-52 0 -94.5 -30t-70 -80t-45 -104t-25.5 -111q-4 -43 -6 -88.5t7.5 -89.5t25 -78.5t46 -56t72.5 -21.5z" />
    <glyph glyph-name="OE" unicode="&#x152;" horiz-adv-x="2306" 
d="M2154 289l-38 -289h-969l-78 41q-122 -61 -317 -61q-338 0 -503.5 209t-115.5 565q47 347 266 547t559 200q187 0 291 -67l74 47h979l-41 -289h-700l-41 -307h456l-43 -283h-452l-45 -313h718zM745 256q151 0 236.5 117t120.5 377q37 255 -9.5 367t-183.5 112
q-153 0 -241 -124t-125 -392q-35 -249 11 -353t191 -104z" />
    <glyph glyph-name="oe" unicode="&#x153;" horiz-adv-x="1929" 
d="M539 -20q-245 0 -377.5 157.5t-98.5 405.5q33 239 203.5 386.5t399.5 147.5q215 0 329 -137q22 -9 54 27q154 110 333 110q239 0 366.5 -165t88.5 -447h-704q-13 -120 39.5 -185t144.5 -65q66 0 127 32t133 105l235 -104q-130 -154 -251.5 -211t-294.5 -57
q-106 0 -191.5 36t-140.5 101q-22 5 -39 -29q-165 -108 -356 -108zM1397 868q-86 0 -153.5 -62t-80.5 -165l365 10q3 47 -7.5 94.5t-42.5 85t-81 37.5zM545 207q100 0 164 87t86 255q23 159 -9.5 233t-123.5 74q-201 0 -250 -346q-22 -156 10.5 -229.5t122.5 -73.5z" />
    <glyph glyph-name="Racute" unicode="&#x154;" horiz-adv-x="1441" 
d="M1120 1933l51 -227l-559 -139l-32 153zM1262 0h-355l-151 539h-250l-76 -539h-348l207 1481h643q263 0 372 -125t80 -336q-23 -160 -101 -259t-202 -165zM788 805q94 0 163 60t83 149q12 89 -40 147t-138 58h-256l-57 -414h245z" />
    <glyph glyph-name="racute" unicode="&#x155;" horiz-adv-x="841" 
d="M840 1509l51 -227l-559 -139l-33 153zM43 0l145 1057h336l-37 -275q61 130 165.5 212.5t236.5 82.5l-45 -327q-79 8 -143 -0.5t-105 -28.5t-70.5 -51t-43.5 -63.5t-19 -69.5l-72 -537h-348z" />
    <glyph glyph-name="uni0156" unicode="&#x156;" horiz-adv-x="1441" 
d="M1262 0h-355l-151 539h-250l-76 -539h-348l207 1481h643q263 0 372 -125t80 -336q-23 -160 -101 -259t-202 -165zM788 805q94 0 163 60t83 149q12 89 -40 147t-138 58h-256l-57 -414h245zM465 -487l149 180h-120l30 198h234l-29 -210l-164 -168h-100z" />
    <glyph glyph-name="uni0157" unicode="&#x157;" horiz-adv-x="839" 
d="M41 0l145 1057h336l-37 -275q61 130 165.5 212.5t236.5 82.5l-45 -327q-79 8 -143 -0.5t-105 -28.5t-70.5 -51t-43.5 -63.5t-19 -69.5l-72 -537h-348zM61 -487l152 180h-123l33 198h231l-28 -210l-164 -168h-101z" />
    <glyph glyph-name="Rcaron" unicode="&#x158;" horiz-adv-x="1441" 
d="M1018 1907h280l-309 -297h-233l-240 297h221l127 -160zM1262 0h-355l-151 539h-250l-76 -539h-348l207 1481h643q263 0 372 -125t80 -336q-23 -160 -101 -259t-202 -165zM788 805q94 0 163 60t83 149q12 89 -40 147t-138 58h-256l-57 -414h245z" />
    <glyph glyph-name="rcaron" unicode="&#x159;" horiz-adv-x="843" 
d="M711 1483h280l-309 -297h-233l-240 297h221l127 -160zM16 0l146 1057h336l-37 -275q61 131 165 213t236 82l-45 -327q-79 8 -143 -0.5t-105 -28.5t-70.5 -51t-43.5 -63.5t-19 -69.5l-71 -537h-349z" />
    <glyph glyph-name="Sacute" unicode="&#x15a;" horiz-adv-x="1441" 
d="M1151 1933l51 -227l-559 -139l-33 153zM657 -20q-216 0 -380.5 81.5t-221.5 217.5l267 167q42 -65 81.5 -100t104.5 -55.5t162 -20.5q266 0 284 133q4 19 0.5 39.5t-12.5 38t-33.5 33.5t-62.5 27l-309 90q-166 48 -250.5 156t-63.5 253q27 196 207.5 328.5t443.5 132.5
q186 0 327.5 -67t197.5 -191l-264 -166q-28 38 -46 58t-51.5 45t-80 36t-109.5 11q-112 0 -174 -37.5t-72 -95.5q-4 -15 -0.5 -35.5t12 -39t38 -38t77.5 -33.5l309 -88q339 -102 297 -409q-31 -216 -213.5 -343.5t-464.5 -127.5z" />
    <glyph glyph-name="sacute" unicode="&#x15b;" horiz-adv-x="1128" 
d="M926 1509l51 -227l-559 -139l-35 153zM494 -20q-184 0 -307 72.5t-160 185.5l227 108q32 -52 104.5 -91.5t167.5 -39.5q64 0 122.5 21t64.5 57q4 34 -33 55t-105 35l-157 35q-314 63 -281 303q21 159 162 257.5t358 98.5q170 0 273.5 -64.5t142.5 -166.5l-227 -103
q-27 48 -86.5 76.5t-141.5 28.5q-68 0 -123 -22t-59 -60q-4 -28 28 -44t128 -42l174 -43q294 -77 262 -307q-23 -163 -169.5 -256.5t-364.5 -93.5z" />
    <glyph glyph-name="Scircumflex" unicode="&#x15c;" horiz-adv-x="1441" 
d="M1032 1626l-108 164l-172 -164h-258l311 295h233l230 -295h-236zM657 -20q-216 0 -380.5 81.5t-221.5 217.5l267 167q42 -65 81.5 -100t104.5 -55.5t162 -20.5q266 0 284 133q4 19 0.5 39.5t-12.5 38t-33.5 33.5t-62.5 27l-309 90q-166 48 -250.5 156t-63.5 253
q27 196 207.5 328.5t443.5 132.5q186 0 327.5 -67t197.5 -191l-264 -166q-28 38 -46 58t-51.5 45t-80 36t-109.5 11q-112 0 -174 -37.5t-72 -95.5q-4 -15 -0.5 -35.5t12 -39t38 -38t77.5 -33.5l309 -88q339 -102 297 -409q-31 -216 -213.5 -343.5t-464.5 -127.5z" />
    <glyph glyph-name="scircumflex" unicode="&#x15d;" horiz-adv-x="1128" 
d="M819 1202l-108 164l-172 -164h-256l309 295h233l230 -295h-236zM494 -20q-184 0 -307 72.5t-160 185.5l227 108q32 -52 104.5 -91.5t167.5 -39.5q64 0 122.5 21t64.5 57q4 34 -33 55t-105 35l-157 35q-314 63 -281 303q21 159 162 257.5t358 98.5q170 0 273.5 -64.5
t142.5 -166.5l-227 -103q-27 48 -86.5 76.5t-141.5 28.5q-68 0 -123 -22t-59 -60q-4 -28 28 -44t128 -42l174 -43q294 -77 262 -307q-23 -163 -169.5 -256.5t-364.5 -93.5z" />
    <glyph glyph-name="Scedilla" unicode="&#x15e;" horiz-adv-x="1441" 
d="M1038 860q339 -102 297 -409q-29 -200 -188.5 -325t-409.5 -144l-41 -91q105 -1 150 -55.5t35 -126.5q-10 -69 -85 -110t-175 -41q-170 0 -256 80l45 75q102 -39 155 -39q49 0 82.5 22t38.5 56q5 33 -29 47.5t-125 14.5q-42 0 -30 30l82 138q-191 14 -334 93.5
t-195 203.5l267 167q42 -65 81.5 -100t104.5 -55.5t162 -20.5q266 0 284 133q4 19 0.5 39.5t-12.5 38t-33.5 33.5t-62.5 27l-309 90q-166 48 -250.5 156t-63.5 253q27 196 207.5 328.5t443.5 132.5q186 0 327.5 -67t197.5 -191l-264 -166q-28 38 -46 58t-51.5 45t-80 36
t-109.5 11q-112 0 -174 -37.5t-72 -95.5q-4 -15 -0.5 -35.5t12 -39t38 -38t77.5 -33.5z" />
    <glyph glyph-name="scedilla" unicode="&#x15f;" horiz-adv-x="1128" 
d="M766 637q294 -77 262 -307q-21 -150 -149 -242t-320 -106l-49 -107q55 -1 95 -17.5t60 -43.5t27.5 -57.5t3.5 -63.5q-10 -70 -85.5 -111t-176.5 -41q-168 0 -254 80l43 76q106 -39 158 -39q49 0 82.5 22t38.5 56q5 33 -29 47t-125 14q-21 0 -29.5 8t-1.5 23l93 156
q-151 17 -251 86t-132 168l227 108q32 -52 104.5 -91.5t167.5 -39.5q64 0 122.5 21t64.5 57q4 34 -33 55t-105 35l-157 35q-314 63 -281 303q21 159 162 257.5t358 98.5q170 0 273.5 -64.5t142.5 -166.5l-227 -103q-27 48 -86.5 76.5t-141.5 28.5q-68 0 -123 -22t-59 -60
q-4 -28 28 -44t128 -42z" />
    <glyph glyph-name="Scaron" unicode="&#x160;" horiz-adv-x="1441" 
d="M1051 1907h278l-307 -297h-236l-239 297h221l127 -160zM657 -20q-216 0 -380.5 81.5t-221.5 217.5l267 167q42 -65 81.5 -100t104.5 -55.5t162 -20.5q266 0 284 133q4 19 0.5 39.5t-12.5 38t-33.5 33.5t-62.5 27l-309 90q-166 48 -250.5 156t-63.5 253
q27 196 207.5 328.5t443.5 132.5q186 0 327.5 -67t197.5 -191l-264 -166q-28 38 -46 58t-51.5 45t-80 36t-109.5 11q-112 0 -174 -37.5t-72 -95.5q-4 -15 -0.5 -35.5t12 -39t38 -38t77.5 -33.5l309 -88q339 -102 297 -409q-31 -216 -213.5 -343.5t-464.5 -127.5z" />
    <glyph glyph-name="scaron" unicode="&#x161;" horiz-adv-x="1128" 
d="M823 1483h281l-309 -297h-234l-239 297h221l127 -160zM494 -20q-184 0 -307 72.5t-160 185.5l227 108q32 -52 104.5 -91.5t167.5 -39.5q64 0 122.5 21t64.5 57q4 34 -33 55t-105 35l-157 35q-314 63 -281 303q21 159 162 257.5t358 98.5q170 0 273.5 -64.5t142.5 -166.5
l-227 -103q-27 48 -86.5 76.5t-141.5 28.5q-68 0 -123 -22t-59 -60q-4 -28 28 -44t128 -42l174 -43q294 -77 262 -307q-23 -163 -169.5 -256.5t-364.5 -93.5z" />
    <glyph glyph-name="uni0162" unicode="&#x162;" horiz-adv-x="1269" 
d="M166 1481h1206l-43 -312h-428l-162 -1169h-75l-50 -109q105 -1 150 -55.5t35 -126.5q-10 -69 -85 -110t-175 -41q-170 0 -256 80l43 75q106 -39 157 -39q49 0 82.5 22t38.5 56q5 33 -28.5 47.5t-124.5 14.5q-21 0 -29 7.5t-2 22.5l92 156h-121l162 1169h-430z" />
    <glyph glyph-name="uni0163" unicode="&#x163;" horiz-adv-x="884" 
d="M612 819l-69 -520q-7 -43 8 -59.5t49 -16.5h164l-29 -207q-62 -30 -203 -30l-43 -95q105 -1 150 -55.5t35 -126.5q-10 -69 -85 -110t-175 -41q-170 0 -256 80l43 75q106 -39 157 -39q49 0 82.5 22t38.5 56q5 33 -28.5 47.5t-124.5 14.5q-21 0 -29 7.5t-2 22.5l92 154
q-127 26 -170 98.5t-27 186.5l74 536h-178l35 238h188l99 334h284l-47 -332h234l-33 -240h-234z" />
    <glyph glyph-name="Tcaron" unicode="&#x164;" horiz-adv-x="1269" 
d="M969 1907h278l-309 -297h-233l-240 297h221l127 -160zM123 1169l43 312h1206l-43 -312h-428l-162 -1169h-348l162 1169h-430z" />
    <glyph glyph-name="tcaron" unicode="&#x165;" horiz-adv-x="880" 
d="M721 1137l121 219l-76 8l35 244h225l-39 -265l-113 -206h-153zM846 819h-234l-69 -520q-7 -43 8 -59.5t49 -16.5h164l-29 -207q-62 -30 -203 -30q-111 0 -185 21.5t-110 63t-46.5 93t-0.5 119.5l74 536h-178l35 238h188l99 334h284l-47 -332h234z" />
    <glyph glyph-name="Tbar" unicode="&#x166;" horiz-adv-x="1269" 
d="M1329 1169h-428l-47 -333h303l-37 -250h-299l-82 -586h-348l82 586h-194l32 250h195l47 333h-430l43 312h1206z" />
    <glyph glyph-name="tbar" unicode="&#x167;" horiz-adv-x="964" 
d="M901 819h-235l-21 -151h207l-25 -191h-206l-23 -178q-7 -43 8 -59.5t49 -16.5h164l-28 -207q-66 -30 -203 -30q-111 0 -185 21.5t-110 63t-46.5 93t-0.5 119.5l26 194h-139l25 191h141l20 151h-178l35 238h189l96 334h284l-47 -332h236z" />
    <glyph glyph-name="Utilde" unicode="&#x168;" horiz-adv-x="1509" 
d="M1284 1708q-112 -55 -215 -55q-63 0 -155.5 30.5t-141.5 30.5q-28 0 -52.5 -7t-39 -15.5t-42.5 -27t-46 -28.5l-39 199q55 36 101 55t106 19q70 0 169.5 -33t137.5 -33q49 0 116 35t85 39zM1389 588q-21 -142 -69 -250.5t-130.5 -190.5t-208 -124.5t-291.5 -42.5
q-134 0 -233.5 28t-162 80.5t-98 128t-41 170.5t8.5 207l125 887h352l-125 -910q-23 -150 38.5 -224.5t176.5 -74.5q116 0 197.5 74t105.5 225l125 910h352z" />
    <glyph glyph-name="utilde" unicode="&#x169;" horiz-adv-x="1224" 
d="M1100 1284q-112 -55 -217 -55q-63 0 -155.5 30.5t-139.5 30.5q-28 0 -52.5 -7t-39.5 -15.5t-42.5 -26.5t-47.5 -29l-39 199q38 24 63 37.5t64.5 25t80.5 11.5q69 0 168.5 -33t137.5 -33q49 0 116 35t86 39zM387 -20q-140 0 -231 89.5t-72 237.5l104 750h351l-101 -713
q-9 -60 23 -96.5t100 -36.5q123 0 178 123l103 723h350l-154 -1057h-258l-18 178q-74 -97 -179 -147.5t-196 -50.5z" />
    <glyph glyph-name="Umacron" unicode="&#x16a;" horiz-adv-x="1509" 
d="M1313 1898l-33 -219h-766l31 219h768zM1389 588q-21 -142 -69 -250.5t-130.5 -190.5t-208 -124.5t-291.5 -42.5q-134 0 -233.5 28t-162 80.5t-98 128t-41 170.5t8.5 207l125 887h352l-125 -910q-23 -150 38.5 -224.5t176.5 -74.5q116 0 197.5 74t105.5 225l125 910h352z
" />
    <glyph glyph-name="umacron" unicode="&#x16b;" horiz-adv-x="1224" 
d="M1130 1475l-32 -220h-766l30 220h768zM387 -20q-140 0 -231 89.5t-72 237.5l104 750h351l-101 -713q-9 -60 23 -96.5t100 -36.5q123 0 178 123l103 723h350l-154 -1057h-258l-18 178q-74 -97 -179 -147.5t-196 -50.5z" />
    <glyph glyph-name="Ubreve" unicode="&#x16c;" horiz-adv-x="1509" 
d="M1309 1905q-58 -136 -171.5 -208.5t-250.5 -72.5q-312 0 -350 281h176q31 -54 78.5 -86.5t103.5 -32.5q59 0 115 31t90 88h209zM1389 588q-21 -142 -69 -250.5t-130.5 -190.5t-208 -124.5t-291.5 -42.5q-134 0 -233.5 28t-162 80.5t-98 128t-41 170.5t8.5 207l125 887
h352l-125 -910q-23 -150 38.5 -224.5t176.5 -74.5q116 0 197.5 74t105.5 225l125 910h352z" />
    <glyph glyph-name="ubreve" unicode="&#x16d;" horiz-adv-x="1224" 
d="M1122 1481q-58 -136 -171.5 -208.5t-250.5 -72.5q-312 0 -350 281h176q31 -53 79 -86t104 -33q59 0 114.5 31t89.5 88h209zM387 -20q-140 0 -231 89.5t-72 237.5l104 750h351l-101 -713q-9 -60 23 -96.5t100 -36.5q123 0 178 123l103 723h350l-154 -1057h-258l-18 178
q-74 -97 -179 -147.5t-196 -50.5z" />
    <glyph glyph-name="Uring" unicode="&#x16e;" horiz-adv-x="1509" 
d="M1139 1784q-13 -92 -82 -150.5t-160 -58.5q-100 0 -160 73t-45 177q10 86 80 144.5t160 58.5q99 0 160 -72t47 -172zM1014 1819q4 36 -16 56.5t-58 20.5q-45 0 -84.5 -33.5t-46.5 -80.5q-3 -35 19 -58.5t57 -23.5q45 0 83 36t46 83zM1389 588q-21 -142 -69 -250.5
t-130.5 -190.5t-208 -124.5t-291.5 -42.5q-134 0 -233.5 28t-162 80.5t-98 128t-41 170.5t8.5 207l125 887h352l-125 -910q-23 -150 38.5 -224.5t176.5 -74.5q116 0 197.5 74t105.5 225l125 910h352z" />
    <glyph glyph-name="uring" unicode="&#x16f;" horiz-adv-x="1224" 
d="M954 1360q-13 -92 -81.5 -150.5t-159.5 -58.5q-100 0 -160 73t-45 177q10 86 80 144.5t160 58.5q99 0 159.5 -72t46.5 -172zM829 1395q4 36 -16 57t-57 21q-45 0 -84.5 -34t-46.5 -81q-3 -35 18.5 -58.5t56.5 -23.5q45 0 83 36t46 83zM387 -20q-140 0 -231 89.5
t-72 237.5l104 750h351l-101 -713q-9 -60 23 -96.5t100 -36.5q123 0 178 123l103 723h350l-154 -1057h-258l-18 178q-74 -97 -179 -147.5t-196 -50.5z" />
    <glyph glyph-name="Uhungarumlaut" unicode="&#x170;" horiz-adv-x="1509" 
d="M819 1933l131 -186l-377 -209l-98 123zM1229 1933l131 -186l-375 -209l-100 123zM1389 588q-21 -142 -69 -250.5t-130.5 -190.5t-208 -124.5t-291.5 -42.5q-134 0 -233.5 28t-162 80.5t-98 128t-41 170.5t8.5 207l125 887h352l-125 -910q-23 -150 38.5 -224.5
t176.5 -74.5q116 0 197.5 74t105.5 225l125 910h352z" />
    <glyph glyph-name="uhungarumlaut" unicode="&#x171;" horiz-adv-x="1224" 
d="M635 1509l131 -186l-377 -209l-100 123zM1044 1509l132 -186l-377 -209l-99 123zM387 -20q-140 0 -231 89.5t-72 237.5l104 750h351l-101 -713q-9 -60 23 -96.5t100 -36.5q123 0 178 123l103 723h350l-154 -1057h-258l-18 178q-74 -97 -179 -147.5t-196 -50.5z" />
    <glyph glyph-name="Uogonek" unicode="&#x172;" horiz-adv-x="1509" 
d="M1159 1481h352l-122 -893q-18 -125 -57.5 -224t-104.5 -177.5t-162.5 -128.5t-224.5 -68q-147 -58 -156 -135q-3 -52 51 -52q24 0 48.5 6t39 12t39.5 18t33 16l-23 -168q-121 -31 -215 -31q-112 0 -171.5 49.5t-47.5 140.5q5 42 32.5 76t92.5 64q-128 16 -215.5 66
t-131.5 128t-57.5 183t5.5 231l125 887h352l-125 -910q-23 -150 38.5 -224.5t176.5 -74.5q116 0 197.5 74t105.5 225z" />
    <glyph glyph-name="uogonek" unicode="&#x173;" horiz-adv-x="1226" 
d="M1020 0q-102 -34 -147 -69.5t-48 -77.5q-6 -52 49 -52q24 0 48.5 6t39.5 12t39.5 18t34.5 16l-22 -168q-104 -31 -217 -31q-112 0 -171.5 49.5t-47.5 140.5q9 53 50 93.5t150 76.5l-16 164q-74 -97 -179 -147.5t-196 -50.5q-140 0 -231 89.5t-72 237.5l104 750h351
l-101 -713q-9 -60 23 -96.5t100 -36.5q123 0 178 123l103 723h350l-154 -1057h-18z" />
    <glyph glyph-name="Wcircumflex" unicode="&#x174;" horiz-adv-x="1986" 
d="M1286 1626l-108 164l-172 -164h-256l309 295h233l230 -295h-236zM2083 1481l-643 -1481h-266l-132 887l-376 -887h-263l-233 1481h338l129 -887l367 887h245l127 -887l369 887h338z" />
    <glyph glyph-name="wcircumflex" unicode="&#x175;" horiz-adv-x="1630" 
d="M1047 1202l-109 164l-172 -164h-256l309 295h234l229 -295h-235zM1683 1057l-505 -1057h-258l-97 575l-262 -575h-262l-205 1057h322l104 -584l256 584h242l94 -584l260 584h311z" />
    <glyph glyph-name="Ycircumflex" unicode="&#x176;" horiz-adv-x="1404" 
d="M1036 1626l-108 164l-172 -164h-256l309 295h233l230 -295h-236zM1524 1481l-635 -860l-86 -621h-348l86 621l-396 860h375l236 -563l389 563h379z" />
    <glyph glyph-name="ycircumflex" unicode="&#x177;" horiz-adv-x="1171" 
d="M862 1202l-108 164l-172 -164h-258l311 295h233l230 -295h-236zM186 -338q-68 0 -120.5 10t-70.5 20l-18 11l33 223l103 -8q54 -3 96 4t64.5 17t40 28.5t21 26t9.5 20.5l14 39l-268 1004h344l137 -631l318 631h340l-561 -1028q-61 -111 -120 -184.5t-119 -113
t-116.5 -54.5t-126.5 -15z" />
    <glyph glyph-name="Ydieresis" unicode="&#x178;" horiz-adv-x="1404" 
d="M870 1905l-41 -271h-301l39 271h303zM1307 1905l-39 -271h-303l39 271h303zM1524 1481l-635 -860l-86 -621h-348l86 621l-396 860h375l236 -563l389 563h379z" />
    <glyph glyph-name="Zacute" unicode="&#x179;" horiz-adv-x="1400" 
d="M1161 1933l51 -227l-559 -139l-32 153zM23 0l22 164l860 1026h-659l39 291h1161l-23 -158l-874 -1030h721l-41 -293h-1206z" />
    <glyph glyph-name="zacute" unicode="&#x17a;" horiz-adv-x="1091" 
d="M911 1509l52 -227l-560 -139l-32 153zM-12 0l24 172l609 670h-471l30 215h910l-25 -166l-610 -672h522l-29 -219h-960z" />
    <glyph glyph-name="Zdotaccent" unicode="&#x17b;" horiz-adv-x="1400" 
d="M1118 1905l-43 -314h-352l43 314h352zM23 0l22 164l860 1026h-659l39 291h1161l-23 -158l-874 -1030h721l-41 -293h-1206z" />
    <glyph glyph-name="zdotaccent" unicode="&#x17c;" horiz-adv-x="1091" 
d="M870 1481l-43 -314h-352l43 314h352zM-12 0l24 172l609 670h-471l30 215h910l-25 -166l-610 -672h522l-29 -219h-960z" />
    <glyph glyph-name="Zcaron" unicode="&#x17d;" horiz-adv-x="1400" 
d="M1061 1907h280l-309 -297h-235l-240 297h223l125 -160zM23 0l22 164l860 1026h-659l39 291h1161l-23 -158l-874 -1030h721l-41 -293h-1206z" />
    <glyph glyph-name="zcaron" unicode="&#x17e;" horiz-adv-x="1091" 
d="M811 1483h281l-310 -297h-235l-240 297h223l125 -160zM-12 0l24 172l609 670h-471l30 215h910l-25 -166l-610 -672h522l-29 -219h-960z" />
    <glyph glyph-name="uni018F" unicode="&#x18f;" horiz-adv-x="1585" 
d="M1106 834q42 360 -205 360q-51 0 -96 -15t-76.5 -35.5t-69 -61.5t-59.5 -70.5t-61 -85.5l-314 161q252 414 688 414q167 0 293.5 -59.5t200 -163.5t101 -243t5.5 -300q-22 -156 -94.5 -296t-178 -240.5t-240.5 -159.5t-277 -59q-229 0 -371.5 104.5t-192.5 294t-16 455.5
h963zM1069 594l-534 -10q-10 -90 5.5 -162t64 -119t126.5 -47q142 0 221 87.5t117 250.5z" />
    <glyph glyph-name="florin" unicode="&#x192;" horiz-adv-x="1118" 
d="M1069 1057l-74 -238h-204l-283 -895q-39 -128 -138.5 -198t-238.5 -70h-276l69 231h117q55 0 87.5 32t55.5 110l248 790h-170l76 238h172l47 155q41 129 141 199t240 70h274l-71 -230h-125q-38 0 -80 -37t-57 -84l-25 -73h215z" />
    <glyph glyph-name="Ohorn" unicode="&#x1a0;" horiz-adv-x="1490" 
d="M1300 1395q134 -95 191 -264.5t25 -393.5q-49 -348 -265.5 -552.5t-533.5 -204.5q-320 0 -478.5 203.5t-109.5 553.5q47 349 265.5 556.5t535.5 207.5q84 0 147 -14q59 5 107 35t76 86h210q-56 -139 -170 -213zM1137 731q34 251 -32.5 369.5t-213.5 118.5t-248.5 -119
t-136.5 -369q-32 -244 36 -356.5t216 -112.5t246.5 112.5t132.5 356.5z" />
    <glyph glyph-name="ohorn" unicode="&#x1a1;" horiz-adv-x="1173" 
d="M1008 961q80 -76 114 -189t15 -250q-34 -238 -205.5 -390t-411.5 -152q-238 0 -365.5 151.5t-93.5 390.5q33 246 207 400.5t408 154.5q88 0 155 -20q86 27 130 110h210q-53 -132 -163 -206zM791 535q9 53 4.5 110.5t-17.5 105t-47.5 78.5t-85.5 31q-52 0 -94.5 -30
t-70 -80t-45 -104t-25.5 -111q-4 -43 -6 -88.5t7.5 -89.5t25 -78.5t46 -56t72.5 -21.5q51 0 94 32t71 83.5t45.5 106.5t25.5 112z" />
    <glyph glyph-name="Uhorn" unicode="&#x1af;" horiz-adv-x="1468" 
d="M1870 1612q-51 -128 -152 -200t-227 -81l-102 -743q-21 -142 -69 -250.5t-130.5 -190.5t-208 -124.5t-291.5 -42.5q-134 0 -233.5 28t-162 80.5t-98 128t-41 170.5t8.5 207l125 887h352l-125 -910q-23 -150 38.5 -224.5t176.5 -74.5q116 0 197.5 74t105.5 225l125 910
h301v10q62 0 115 30.5t84 90.5h211z" />
    <glyph glyph-name="uhorn" unicode="&#x1b0;" horiz-adv-x="1236" 
d="M1436 1176q-79 -190 -265 -258l-133 -918h-258l-18 178q-74 -97 -179 -147.5t-196 -50.5q-140 0 -231 89.5t-72 237.5l104 750h351l-101 -713q-9 -60 23 -96.5t100 -36.5q123 0 178 123l103 723h215q52 6 96.5 36.5t71.5 82.5h211z" />
    <glyph glyph-name="uni01EA" unicode="&#x1ea;" horiz-adv-x="1587" 
d="M930 1501q315 0 475 -207t111 -557q-39 -285 -195 -477t-391 -254h6q-110 -36 -159 -72.5t-54 -80.5q-3 -54 49 -54q32 0 58 7.5t61.5 25.5t42.5 21l-23 -170q-121 -31 -217 -31q-111 0 -170.5 50t-46.5 142q5 43 33 77t98 65q-268 35 -395.5 234t-83.5 517
q47 349 265.5 556.5t535.5 207.5zM1137 731q34 251 -32.5 369.5t-213.5 118.5t-248.5 -119t-136.5 -369q-32 -244 36 -356.5t216 -112.5t246.5 112.5t132.5 356.5z" />
    <glyph glyph-name="uni01EB" unicode="&#x1eb;" horiz-adv-x="1196" 
d="M676 1077q160 0 273 -71.5t161 -197.5t27 -286q-26 -187 -141.5 -325t-286.5 -191h20q-112 -36 -161 -72.5t-52 -80.5q-6 -54 49 -54q31 0 57 7.5t62.5 26t42.5 20.5l-22 -168q-104 -31 -218 -31q-112 0 -171 49.5t-46 140.5q5 43 35.5 79t102.5 67q-188 35 -282 179
t-65 353q33 246 207 400.5t408 154.5zM791 535q9 53 4.5 110.5t-17.5 105t-47.5 78.5t-85.5 31q-52 0 -94.5 -30t-70 -80t-45 -104t-25.5 -111q-4 -43 -6 -88.5t7.5 -89.5t25 -78.5t46 -56t72.5 -21.5q51 0 94 32t71 83.5t45.5 106.5t25.5 112z" />
    <glyph glyph-name="Aringacute" unicode="&#x1fa;" horiz-adv-x="1560" 
d="M1122 1481l295 -1481h-405l-56 315h-469l-149 -315h-356l712 1481h45q-31 57 -22 133q9 65 56 112t114 62l49 135h205l-97 -154q53 -27 79.5 -79t17.5 -119q-5 -45 -35 -90h16zM823 1569q-4 -33 19 -57.5t57 -24.5q45 0 84 36.5t45 84.5q3 35 -18 56.5t-58 21.5
q-45 0 -84 -34t-45 -83zM602 616h313l-88 478z" />
    <glyph glyph-name="aringacute" unicode="&#x1fb;" horiz-adv-x="1161" 
d="M449 1143l-33 153l84 33q-6 35 0 72q10 87 79.5 145t159.5 58q60 0 109 -29t76 -78l32 12l52 -227l-103 -25q-34 -50 -86.5 -78t-113.5 -28q-59 0 -109 29zM748 1475q-40 0 -77.5 -28.5t-49.5 -70.5l186 74q-19 25 -59 25zM668 1077q126 0 213 -23.5t133 -68.5t61 -104
t4 -136l-102 -745h-289l-4 164q-52 -91 -139.5 -137.5t-196.5 -46.5q-156 0 -245 87t-68 242q48 355 600 361l104 4l9 51q8 67 -23.5 103t-101.5 36q-135 0 -215 -133l-275 25q62 150 203 235.5t332 85.5zM694 354l21 150l-86 -2q-44 -2 -83 -9.5t-79 -24t-66 -48.5t-32 -76
q-10 -65 28 -102t101 -37q68 0 126.5 45t69.5 104z" />
    <glyph glyph-name="AEacute" unicode="&#x1fc;" horiz-adv-x="2240" 
d="M1839 1933l51 -227l-559 -139l-33 153zM2089 289l-37 -289h-1112l45 315h-450l-207 -315h-365l983 1481h1290l-41 -289h-694l-41 -307h455l-43 -283h-451l-45 -313h713zM1028 616l84 619l-407 -619h323z" />
    <glyph glyph-name="aeacute" unicode="&#x1fd;" horiz-adv-x="1873" 
d="M1290 1509l51 -227l-559 -139l-32 153zM1077 465q-12 -118 40.5 -184t144.5 -66q69 0 128.5 32.5t131.5 104.5l233 -104q-125 -152 -248.5 -210t-298.5 -58q-131 0 -231 51t-158 137q-6 0 -15.5 -11t-10.5 -20q-97 -80 -204.5 -118.5t-242.5 -38.5q-168 0 -249 88.5
t-62 234.5q22 154 173 245.5t425 104.5l117 6l12 68q8 40 -0.5 68t-29.5 42.5t-45 20.5t-52 6q-60 0 -111.5 -37t-87.5 -96l-317 70q55 95 120.5 153.5t169 90.5t250.5 32q268 -3 353 -104q141 104 317 104q117 0 211.5 -40.5t157.5 -118.5t86.5 -192t-0.5 -261h-707z
M1333 866q-85 0 -149 -60.5t-76 -164.5h395q6 87 -44 156t-126 69zM725 483l-80 -6q-59 -4 -116.5 -26.5t-102.5 -66t-53 -97.5q-6 -47 22 -72.5t90 -24.5q78 2 144 44.5t73 101.5z" />
    <glyph glyph-name="Oslashacute" unicode="&#x1fe;" horiz-adv-x="1617" 
d="M1219 1933l51 -227l-559 -139l-35 153zM131 -31l-139 166l196 162q-85 194 -49 457q49 345 261.5 546t525.5 201q139 0 250.5 -44.5t187.5 -123.5l182 174l137 -164l-204 -176q83 -198 43 -450q-47 -341 -257.5 -539t-523.5 -198q-277 0 -434 157zM547 598l555 514
q-42 117 -187 117q-138 0 -224.5 -107.5t-125.5 -333.5q-18 -99 -18 -190zM752 256q144 0 230 110t124 347q15 83 12 155l-557 -512q27 -55 73.5 -77.5t117.5 -22.5z" />
    <glyph glyph-name="oslashacute" unicode="&#x1ff;" horiz-adv-x="1269" 
d="M1016 1282l-559 -139l-35 153l543 213zM1253 944l-137 -115q59 -130 35 -307q-34 -238 -205 -390t-411 -152q-190 0 -314 100l-117 -96l-106 127l119 100q-65 131 -41 311q35 247 208.5 401t407.5 154q205 0 328 -114l127 106zM426 535q-6 -35 -6 -72l366 305
q-38 92 -127 92q-42 0 -78 -20.5t-61 -53t-45 -76.5t-31.5 -87t-17.5 -88zM805 535q4 24 4 38l-356 -299q37 -73 116 -73q51 0 94 32t71 83.5t46 107t25 111.5z" />
    <glyph glyph-name="uni0200" unicode="&#x200;" horiz-adv-x="1476" 
d="M598 1933l287 -295l-105 -98l-346 229zM1008 1933l288 -295l-106 -98l-346 229zM-37 0l729 1481h361l315 -1481h-346l-64 315h-493l-156 -315h-346zM582 616h338l-95 529z" />
    <glyph glyph-name="uni0201" unicode="&#x201;" horiz-adv-x="1161" 
d="M383 1509l285 -295l-105 -98l-346 230zM793 1509l286 -295l-106 -98l-344 230zM348 -20q-156 0 -245 87t-68 242q48 355 600 361l104 4l9 51q8 67 -23.5 103t-101.5 36q-135 0 -215 -133l-275 25q62 150 203 235.5t332 85.5q126 0 213 -23.5t133 -68.5t61 -104t4 -136
l-102 -745h-289l-4 164q-52 -91 -139.5 -137.5t-196.5 -46.5zM498 205q68 0 126.5 45t69.5 104l21 150l-86 -2q-44 -2 -83 -9.5t-79 -24t-66 -48.5t-32 -76q-10 -65 28 -102t101 -37z" />
    <glyph glyph-name="uni0202" unicode="&#x202;" horiz-adv-x="1476" 
d="M557 1626q60 136 169.5 207.5t244.5 71.5q69 0 128 -15.5t108 -47.5t81.5 -87t42.5 -129h-176q-30 53 -77.5 84t-102.5 31q-61 0 -117 -29.5t-90 -85.5h-211zM-37 0l729 1481h361l315 -1481h-346l-64 315h-493l-156 -315h-346zM582 616h338l-95 529z" />
    <glyph glyph-name="uni0203" unicode="&#x203;" horiz-adv-x="1175" 
d="M362 1202q60 137 168.5 208t243.5 71q94 0 168 -26.5t127 -90.5t66 -162h-177q-28 52 -76 83.5t-104 31.5q-60 0 -116 -29.5t-91 -85.5h-209zM348 -20q-156 0 -245 87t-68 242q48 355 600 361l104 4l9 51q8 67 -23.5 103t-101.5 36q-135 0 -215 -133l-275 25
q62 150 203 235.5t332 85.5q126 0 213 -23.5t133 -68.5t61 -104t4 -136l-102 -745h-289l-4 164q-52 -91 -139.5 -137.5t-196.5 -46.5zM498 205q68 0 126.5 45t69.5 104l21 150l-86 -2q-44 -2 -83 -9.5t-79 -24t-66 -48.5t-32 -76q-10 -65 28 -102t101 -37z" />
    <glyph glyph-name="uni0204" unicode="&#x204;" horiz-adv-x="1327" 
d="M518 1933l287 -295l-105 -98l-346 229zM928 1933l289 -295l-107 -98l-346 229zM82 0l207 1481h1046l-43 -293h-694l-43 -303h592l-37 -283h-596l-41 -309h703l-41 -293h-1053z" />
    <glyph glyph-name="uni0205" unicode="&#x205;" horiz-adv-x="1193" 
d="M385 1509l287 -295l-105 -98l-348 230zM795 1509l286 -295l-104 -98l-346 230zM397 430q-17 -107 31 -168t141 -61q70 0 132.5 35t99.5 94l260 -64q-81 -138 -216 -212t-302 -74q-244 0 -379.5 147t-102.5 387q22 156 105 283.5t217.5 203.5t294.5 76q162 0 271.5 -75
t151.5 -200.5t19 -283.5l-14 -88h-709zM428 655h383q13 98 -28 156.5t-134 58.5q-95 0 -151.5 -60t-69.5 -155z" />
    <glyph glyph-name="uni0206" unicode="&#x206;" horiz-adv-x="1327" 
d="M475 1626q60 136 169.5 207.5t244.5 71.5q69 0 128 -15.5t108 -47.5t81.5 -87t42.5 -129h-176q-30 53 -77.5 84t-102.5 31q-61 0 -117 -29.5t-90 -85.5h-211zM82 0l207 1481h1046l-43 -293h-694l-43 -303h592l-37 -283h-596l-41 -309h703l-41 -293h-1053z" />
    <glyph glyph-name="uni0207" unicode="&#x207;" horiz-adv-x="1193" 
d="M365 1202q60 137 169 208t244 71q144 0 242 -67.5t119 -211.5h-178q-29 52 -76.5 83.5t-104.5 31.5q-60 0 -115.5 -29.5t-89.5 -85.5h-210zM397 430q-17 -107 31 -168t141 -61q70 0 132.5 35t99.5 94l260 -64q-81 -138 -216 -212t-302 -74q-244 0 -379.5 147t-102.5 387
q22 156 105 283.5t217.5 203.5t294.5 76q162 0 271.5 -75t151.5 -200.5t19 -283.5l-14 -88h-709zM428 655h383q13 98 -28 156.5t-134 58.5q-95 0 -151.5 -60t-69.5 -155z" />
    <glyph glyph-name="uni0208" unicode="&#x208;" horiz-adv-x="667" 
d="M174 1933l285 -295l-105 -98l-346 229zM584 1933l286 -295l-106 -98l-346 229zM295 1481h348l-205 -1481h-350z" />
    <glyph glyph-name="uni0209" unicode="&#x209;" horiz-adv-x="581" 
d="M78 1509l284 -295l-102 -98l-348 230zM487 1509l287 -295l-106 -98l-344 230zM532 1057l-149 -1057h-348l147 1057h350z" />
    <glyph glyph-name="uni020A" unicode="&#x20a;" horiz-adv-x="673" 
d="M137 1626q60 136 169.5 207.5t244.5 71.5q144 0 241.5 -67.5t118.5 -211.5h-178q-28 52 -76 83.5t-104 31.5q-60 0 -116 -29.5t-91 -85.5h-209zM301 1481h346l-205 -1481h-348z" />
    <glyph glyph-name="uni020B" unicode="&#x20b;" horiz-adv-x="587" 
d="M49 1202q60 136 169.5 207.5t244.5 71.5q144 0 241.5 -67.5t118.5 -211.5h-178q-28 52 -76 83.5t-104 31.5q-60 0 -115.5 -29.5t-89.5 -85.5h-211zM524 1057l-149 -1057h-346l145 1057h350z" />
    <glyph glyph-name="uni020C" unicode="&#x20c;" horiz-adv-x="1587" 
d="M621 1933l286 -295l-104 -98l-346 229zM1032 1933l287 -295l-107 -98l-346 229zM717 -20q-320 0 -478.5 203.5t-109.5 553.5q47 349 265.5 556.5t535.5 207.5q315 0 475 -207t111 -557q-49 -348 -265.5 -552.5t-533.5 -204.5zM758 262q148 0 246.5 112.5t132.5 356.5
q34 251 -32.5 369.5t-213.5 118.5t-248.5 -119t-136.5 -369q-32 -244 36 -356.5t216 -112.5z" />
    <glyph glyph-name="uni020D" unicode="&#x20d;" horiz-adv-x="1196" 
d="M383 1509l287 -295l-105 -98l-346 230zM793 1509l288 -295l-106 -98l-346 230zM520 -20q-238 0 -365.5 151.5t-93.5 390.5q33 246 207 400.5t408 154.5q160 0 273 -71.5t161 -197.5t27 -286q-34 -238 -205.5 -390t-411.5 -152zM555 201q51 0 94 32t71 83.5t45.5 106.5
t25.5 112q9 53 4.5 110.5t-17.5 105t-47.5 78.5t-85.5 31q-52 0 -94.5 -30t-70 -80t-45 -104t-25.5 -111q-4 -43 -6 -88.5t7.5 -89.5t25 -78.5t46 -56t72.5 -21.5z" />
    <glyph glyph-name="uni020E" unicode="&#x20e;" horiz-adv-x="1587" 
d="M600 1626q60 136 169.5 207.5t244.5 71.5q94 0 167.5 -26.5t126.5 -90.5t66 -162h-176q-30 53 -77.5 84t-102.5 31q-61 0 -117 -29.5t-90 -85.5h-211zM717 -20q-320 0 -478.5 203.5t-109.5 553.5q47 349 265.5 556.5t535.5 207.5q315 0 475 -207t111 -557
q-49 -348 -265.5 -552.5t-533.5 -204.5zM758 262q148 0 246.5 112.5t132.5 356.5q34 251 -32.5 369.5t-213.5 118.5t-248.5 -119t-136.5 -369q-32 -244 36 -356.5t216 -112.5z" />
    <glyph glyph-name="uni020F" unicode="&#x20f;" horiz-adv-x="1196" 
d="M362 1202q60 136 169.5 207.5t244.5 71.5q69 0 128 -15.5t108.5 -47.5t82 -87t42.5 -129h-176q-30 52 -77.5 83.5t-103.5 31.5q-61 0 -117 -29.5t-90 -85.5h-211zM520 -20q-238 0 -365.5 151.5t-93.5 390.5q33 246 207 400.5t408 154.5q160 0 273 -71.5t161 -197.5
t27 -286q-34 -238 -205.5 -390t-411.5 -152zM555 201q51 0 94 32t71 83.5t45.5 106.5t25.5 112q9 53 4.5 110.5t-17.5 105t-47.5 78.5t-85.5 31q-52 0 -94.5 -30t-70 -80t-45 -104t-25.5 -111q-4 -43 -6 -88.5t7.5 -89.5t25 -78.5t46 -56t72.5 -21.5z" />
    <glyph glyph-name="uni0210" unicode="&#x210;" horiz-adv-x="1441" 
d="M545 1933l286 -295l-104 -98l-346 229zM954 1933l289 -295l-106 -98l-346 229zM1262 0h-355l-151 539h-250l-76 -539h-348l207 1481h643q263 0 372 -125t80 -336q-23 -160 -101 -259t-202 -165zM788 805q94 0 163 60t83 149q12 89 -40 147t-138 58h-256l-57 -414h245z
" />
    <glyph glyph-name="uni0211" unicode="&#x211;" horiz-adv-x="849" 
d="M252 1509l285 -295l-105 -98l-346 230zM662 1509l286 -295l-106 -98l-344 230zM29 0l147 1057h336l-39 -275q61 130 165.5 212.5t235.5 82.5l-43 -327q-80 8 -144 -0.5t-105 -28.5t-70 -51t-43 -63t-20 -70l-72 -537h-348z" />
    <glyph glyph-name="uni0212" unicode="&#x212;" horiz-adv-x="1441" 
d="M524 1626q60 136 169.5 207.5t244.5 71.5q94 0 167.5 -26.5t126.5 -90.5t66 -162h-176q-30 53 -77.5 84t-102.5 31q-61 0 -117 -29.5t-90 -85.5h-211zM1262 0h-355l-151 539h-250l-76 -539h-348l207 1481h643q263 0 372 -125t80 -336q-23 -160 -101 -259t-202 -165z
M788 805q94 0 163 60t83 149q12 89 -40 147t-138 58h-256l-57 -414h245z" />
    <glyph glyph-name="uni0213" unicode="&#x213;" horiz-adv-x="890" 
d="M250 1202q60 136 169.5 207.5t244.5 71.5q69 0 128 -15.5t108 -47.5t81.5 -87t42.5 -129h-176q-30 53 -77.5 84t-102.5 31q-61 0 -117 -29.5t-90 -85.5h-211zM49 0l146 1057h335l-38 -275q63 131 167 213t236 82l-45 -327q-79 8 -143 -0.5t-105 -28.5t-70.5 -51
t-43.5 -63.5t-19 -69.5l-74 -537h-346z" />
    <glyph glyph-name="uni0214" unicode="&#x214;" horiz-adv-x="1509" 
d="M578 1933l286 -295l-104 -98l-346 229zM987 1933l289 -295l-107 -98l-346 229zM1389 588q-21 -142 -69 -250.5t-130.5 -190.5t-208 -124.5t-291.5 -42.5q-134 0 -233.5 28t-162 80.5t-98 128t-41 170.5t8.5 207l125 887h352l-125 -910q-23 -150 38.5 -224.5t176.5 -74.5
q116 0 197.5 74t105.5 225l125 910h352z" />
    <glyph glyph-name="uni0215" unicode="&#x215;" horiz-adv-x="1228" 
d="M393 1509l285 -295l-105 -98l-346 230zM803 1509l287 -295l-107 -98l-346 230zM391 -20q-91 0 -164 37.5t-113 113.5t-26 176l105 750h348l-101 -713q-8 -60 24 -96.5t101 -36.5q120 0 178 123l101 723h352l-154 -1057h-258l-20 178q-74 -97 -178 -147.5t-195 -50.5z" />
    <glyph glyph-name="uni0216" unicode="&#x216;" horiz-adv-x="1509" 
d="M555 1626q60 137 168.5 208t243.5 71q94 0 167.5 -26.5t126.5 -90.5t66 -162h-176q-28 52 -76 83.5t-104 31.5q-60 0 -116 -29.5t-91 -85.5h-209zM1389 588q-21 -142 -69 -250.5t-130.5 -190.5t-208 -124.5t-291.5 -42.5q-134 0 -233.5 28t-162 80.5t-98 128t-41 170.5
t8.5 207l125 887h352l-125 -910q-23 -150 38.5 -224.5t176.5 -74.5q116 0 197.5 74t105.5 225l125 910h352z" />
    <glyph glyph-name="uni0217" unicode="&#x217;" horiz-adv-x="1224" 
d="M348 1202q60 136 169.5 207.5t244.5 71.5q69 0 128 -15.5t108 -47.5t81.5 -87t42.5 -129h-176q-30 53 -77.5 84t-102.5 31q-61 0 -117 -29.5t-90 -85.5h-211zM387 -20q-140 0 -231 89.5t-72 237.5l104 750h351l-101 -713q-9 -60 23 -96.5t100 -36.5q123 0 178 123
l103 723h350l-154 -1057h-258l-18 178q-74 -97 -179 -147.5t-196 -50.5z" />
    <glyph glyph-name="uni0218" unicode="&#x218;" horiz-adv-x="1441" 
d="M657 -20q-216 0 -380.5 81.5t-221.5 217.5l267 167q42 -65 81.5 -100t104.5 -55.5t162 -20.5q266 0 284 133q4 19 0.5 39.5t-12.5 38t-33.5 33.5t-62.5 27l-309 90q-166 48 -250.5 156t-63.5 253q27 196 207.5 328.5t443.5 132.5q186 0 327.5 -67t197.5 -191l-264 -166
q-28 38 -46 58t-51.5 45t-80 36t-109.5 11q-112 0 -174 -37.5t-72 -95.5q-4 -15 -0.5 -35.5t12 -39t38 -38t77.5 -33.5l309 -88q339 -102 297 -409q-31 -216 -213.5 -343.5t-464.5 -127.5zM475 -487l150 180h-121l31 198h233l-29 -210l-164 -168h-100z" />
    <glyph glyph-name="uni0219" unicode="&#x219;" horiz-adv-x="1128" 
d="M494 -20q-184 0 -307 72.5t-160 185.5l227 108q32 -52 104.5 -91.5t167.5 -39.5q64 0 122.5 21t64.5 57q4 34 -33 55t-105 35l-157 35q-314 63 -281 303q21 159 162 257.5t358 98.5q170 0 273.5 -64.5t142.5 -166.5l-227 -103q-27 48 -86.5 76.5t-141.5 28.5
q-68 0 -123 -22t-59 -60q-4 -28 28 -44t128 -42l174 -43q294 -77 262 -307q-23 -163 -169.5 -256.5t-364.5 -93.5zM289 -504l151 180h-121l31 199h234l-29 -211l-166 -168h-100z" />
    <glyph glyph-name="uni021A" unicode="&#x21a;" horiz-adv-x="1269" 
d="M123 1169l43 312h1206l-43 -312h-428l-162 -1169h-348l162 1169h-430zM393 -487l150 180h-121l31 198h233l-29 -210l-163 -168h-101z" />
    <glyph glyph-name="uni021B" unicode="&#x21b;" horiz-adv-x="890" 
d="M846 819h-234l-69 -520q-7 -43 8 -59.5t49 -16.5h164l-29 -207q-62 -30 -203 -30q-111 0 -185 21.5t-110 63t-46.5 93t-0.5 119.5l74 536h-178l35 238h188l99 334h284l-47 -332h234zM266 -487l152 180h-121l31 198h233l-29 -210l-165 -168h-101z" />
    <glyph glyph-name="uni0237" unicode="&#x237;" horiz-adv-x="624" 
d="M406 23q-28 -187 -129 -275t-295 -88q-53 0 -89 10t-45 20l-10 9l33 227l82 13q32 5 53.5 17t32.5 31t15 33.5t7 36.5l140 1000h350z" />
    <glyph glyph-name="uni0259" unicode="&#x259;" horiz-adv-x="1193" 
d="M797 629q17 107 -31 168t-141 61q-70 0 -132.5 -35t-99.5 -94l-260 64q81 138 216 212t302 74q244 0 379.5 -147t102.5 -387q-22 -156 -105 -283.5t-217.5 -203.5t-294.5 -76q-162 0 -271.5 75t-151.5 200.5t-19 283.5l14 88h709zM766 403h-381q-14 -98 26 -156.5
t134 -58.5q95 0 151.5 60t69.5 155z" />
    <glyph glyph-name="uni02BC" unicode="&#x2bc;" horiz-adv-x="421" 
d="M143 899l119 275l-80 20l41 287h228l-37 -275l-140 -307h-131z" />
    <glyph glyph-name="circumflex" unicode="&#x2c6;" horiz-adv-x="839" 
d="M653 1202l-108 164l-172 -164h-256l309 295h233l230 -295h-236z" />
    <glyph glyph-name="caron" unicode="&#x2c7;" horiz-adv-x="847" 
d="M657 1483h281l-309 -297h-236l-239 297h223l125 -160z" />
    <glyph glyph-name="breve" unicode="&#x2d8;" horiz-adv-x="864" 
d="M942 1481q-58 -136 -171.5 -208.5t-250.5 -72.5q-312 0 -350 281h176q31 -54 78.5 -86.5t103.5 -32.5q59 0 115 31t90 88h209z" />
    <glyph glyph-name="dotaccent" unicode="&#x2d9;" horiz-adv-x="446" 
d="M524 1481l-43 -314h-352l43 314h352z" />
    <glyph glyph-name="ring" unicode="&#x2da;" horiz-adv-x="546" 
d="M606 1343q-13 -92 -81.5 -150t-159.5 -58q-100 0 -160 72.5t-45 176.5q10 86 79.5 144.5t159.5 58.5q99 0 160 -72t47 -172zM481 1378q4 36 -16 57t-57 21q-45 0 -85 -34t-47 -81q-3 -35 19 -58t57 -23q45 0 83 35.5t46 82.5z" />
    <glyph glyph-name="ogonek" unicode="&#x2db;" horiz-adv-x="550" 
d="M-57 -156q7 53 51 94t158 78l249 -8q-111 -37 -159.5 -74t-53.5 -81q-3 -52 52 -52q24 0 48.5 6t38.5 12t38.5 18t33.5 16l-22 -168q-121 -31 -215 -31q-112 0 -171.5 49.5t-47.5 140.5z" />
    <glyph glyph-name="tilde" unicode="&#x2dc;" horiz-adv-x="927" 
d="M942 1284q-112 -55 -217 -55q-63 0 -155.5 30.5t-139.5 30.5q-28 0 -52.5 -7t-39.5 -15.5t-42.5 -26.5t-47.5 -29l-39 199q57 37 103.5 55.5t105.5 18.5q69 0 168 -33t137 -33q49 0 116.5 35t86.5 39z" />
    <glyph glyph-name="hungarumlaut" unicode="&#x2dd;" horiz-adv-x="980" 
d="M489 1509l132 -186l-377 -209l-101 123zM899 1509l131 -186l-377 -209l-98 123z" />
    <glyph glyph-name="gravecomb" unicode="&#x300;" 
d="M-440 1507l499 -225l-65 -137l-533 143z" />
    <glyph glyph-name="acutecomb" unicode="&#x301;" 
d="M12 1509l51 -227l-559 -139l-32 153z" />
    <glyph glyph-name="uni0302" unicode="&#x302;" 
d="M-186 1202l-109 164l-172 -164h-256l309 295h234l231 -295h-237z" />
    <glyph glyph-name="tildecomb" unicode="&#x303;" 
d="M14 1284q-112 -55 -217 -55q-63 0 -155.5 30.5t-139.5 30.5q-28 0 -52.5 -7t-39.5 -15.5t-42.5 -26.5t-47.5 -29l-39 199q57 37 103.5 55.5t105.5 18.5q69 0 168 -33t137 -33q49 0 116.5 35t86.5 39z" />
    <glyph glyph-name="uni0304" unicode="&#x304;" 
d="M76 1475l-33 -220h-766l31 220h768z" />
    <glyph glyph-name="uni0306" unicode="&#x306;" 
d="M78 1481q-58 -136 -171.5 -208.5t-250.5 -72.5q-312 0 -350 281h176q31 -54 78.5 -86.5t103.5 -32.5q59 0 115 31t90 88h209z" />
    <glyph glyph-name="uni0307" unicode="&#x307;" 
d="M78 1481l-43 -314h-352l43 314h352z" />
    <glyph glyph-name="uni0308" unicode="&#x308;" 
d="M-360 1481l-39 -271h-303l38 271h304zM78 1481l-41 -271h-301l39 271h303z" />
    <glyph glyph-name="hookabovecomb" unicode="&#x309;" 
d="M-662 1540l52 -133q76 45 129 45q26 0 45 -11t16 -34q-6 -33 -35.5 -60.5t-99.5 -70.5l66 -113q52 40 78 61t61 55t52.5 66.5t23.5 69.5q12 82 -41 131t-146 49q-30 0 -66.5 -9t-57 -16.5t-77.5 -29.5z" />
    <glyph glyph-name="uni030A" unicode="&#x30a;" 
d="M59 1343q-13 -92 -81.5 -150t-159.5 -58q-100 0 -160 72.5t-45 176.5q10 86 80 144.5t160 58.5q99 0 159.5 -72t46.5 -172zM-66 1378q4 36 -16 57t-57 21q-45 0 -84.5 -34t-46.5 -81q-3 -35 18.5 -58t56.5 -23q45 0 83 35.5t46 82.5z" />
    <glyph glyph-name="uni030B" unicode="&#x30b;" 
d="M-492 1509l132 -186l-377 -209l-101 123zM-82 1509l131 -186l-377 -209l-98 123z" />
    <glyph glyph-name="uni030C" unicode="&#x30c;" 
d="M-190 1483h280l-309 -297h-236l-239 297h223l125 -160z" />
    <glyph glyph-name="uni030F" unicode="&#x30f;" 
d="M-653 1509l286 -295l-104 -98l-346 230zM-244 1509l289 -295l-106 -98l-347 230z" />
    <glyph glyph-name="uni0311" unicode="&#x311;" 
d="M-684 1202q60 136 169.5 207.5t244.5 71.5q69 0 128 -15.5t108 -47.5t81.5 -87t42.5 -129h-176q-30 53 -77.5 84t-102.5 31q-61 0 -117 -29.5t-90 -85.5h-211z" />
    <glyph glyph-name="uni031B" unicode="&#x31b;" 
d="M-178 1176q-55 -137 -167 -209t-249 -72l6 160q62 0 115 30.5t84 90.5h211z" />
    <glyph glyph-name="dotbelowcomb" unicode="&#x323;" 
d="M-141 -84l-35 -246h-266l39 246h262z" />
    <glyph glyph-name="uni0326" unicode="&#x326;" 
d="M-440 -487l151 180h-121l31 198h234l-29 -210l-166 -168h-100z" />
    <glyph glyph-name="uni0327" unicode="&#x327;" 
d="M-170 -291q-10 -69 -85.5 -110t-176.5 -41q-168 0 -254 80l43 75q106 -39 158 -39q49 0 82 22t38 56q5 33 -29 47.5t-124 14.5q-21 0 -29.5 7.5t-1.5 22.5l98 166h150l-55 -119q55 -1 95 -17.5t60 -43.5t27.5 -57.5t3.5 -63.5z" />
    <glyph glyph-name="uni0328" unicode="&#x328;" 
d="M-608 -156q7 53 51 94t158 78l249 -8q-110 -37 -158.5 -74t-53.5 -81q-3 -52 51 -52q24 0 48.5 6t38.5 12t38.5 18t33.5 16l-22 -168q-121 -31 -215 -31q-112 0 -171.5 49.5t-47.5 140.5z" />
    <glyph glyph-name="pi" unicode="&#x3c0;" horiz-adv-x="1392" 
d="M1370 819h-176l-113 -819h-336l115 819h-268q-24 -175 -89.5 -422t-129.5 -397h-346q72 173 139.5 410t91.5 409l1 1q-4 -1 -11 -1h-162l35 238h1282z" />
    <glyph glyph-name="uni1E0C" unicode="&#x1e0c;" horiz-adv-x="1558" 
d="M289 1481q419 0 483 -2q195 -7 334.5 -61.5t217 -151t103.5 -227.5t3 -296q-22 -168 -87.5 -303t-172 -234t-262 -152.5t-349.5 -53.5h-477zM600 1202l-129 -923h137q78 0 149.5 25.5t136.5 78.5t111 146.5t64 218.5q31 228 -56.5 341t-273.5 113h-139zM715 -84l-33 -246
h-268l39 246h262z" />
    <glyph glyph-name="uni1E0D" unicode="&#x1e0d;" horiz-adv-x="1224" 
d="M432 -20q-214 0 -310 146.5t-59 405.5q34 252 164.5 398.5t325.5 146.5q204 0 270 -172l86 615h346l-211 -1520h-247l-19 176q-54 -81 -141 -138.5t-205 -57.5zM555 209q79 0 134.5 67t70.5 191l22 156q7 121 -29.5 172t-111.5 51q-85 0 -143.5 -69t-81.5 -240
q-47 -328 139 -328zM653 -84l-32 -246h-267l37 246h262z" />
    <glyph glyph-name="uni1E24" unicode="&#x1e24;" horiz-adv-x="1507" 
d="M1012 612h-498l-84 -612h-348l207 1481h346l-78 -578h500l78 578h350l-207 -1481h-350zM791 -84l-35 -246h-267l39 246h263z" />
    <glyph glyph-name="uni1E25" unicode="&#x1e25;" horiz-adv-x="1226" 
d="M43 0l211 1520h344l-94 -664q85 115 185 168t198 53q149 0 217.5 -84t46.5 -239l-104 -754h-349l99 709q8 56 -21 88t-88 32q-53 0 -99.5 -27.5t-99.5 -86.5l-98 -715h-348zM686 -84l-33 -246h-266l37 246h262z" />
    <glyph glyph-name="uni1E44" unicode="&#x1e44;" horiz-adv-x="1626" 
d="M1188 1905l-43 -314h-352l43 314h352zM1255 1481h349l-205 -1481h-316l-520 950l-133 -950h-348l207 1481h346l495 -903z" />
    <glyph glyph-name="uni1E45" unicode="&#x1e45;" horiz-adv-x="1228" 
d="M946 1481l-43 -314h-352l45 314h350zM43 0l145 1057h344l-26 -197q168 217 379 217q143 0 215.5 -86.5t52.5 -232.5l-104 -758h-351l99 709q7 54 -28.5 87t-94.5 33q-56 0 -108.5 -29.5t-76.5 -80.5l-100 -719h-346z" />
    <glyph glyph-name="uni1E5A" unicode="&#x1e5a;" horiz-adv-x="1441" 
d="M1262 0h-355l-151 539h-250l-76 -539h-348l207 1481h643q263 0 372 -125t80 -336q-23 -160 -101 -259t-202 -165zM788 805q94 0 163 60t83 149q12 89 -40 147t-138 58h-256l-57 -414h245zM774 -84l-33 -246h-266l37 246h262z" />
    <glyph glyph-name="uni1E5B" unicode="&#x1e5b;" horiz-adv-x="839" 
d="M41 0l147 1057h336l-39 -275q61 130 166 212.5t236 82.5l-43 -327q-80 8 -144 -0.5t-105 -28.5t-70.5 -51t-43.5 -63t-20 -70l-72 -537h-348zM371 -84l-33 -246h-266l37 246h262z" />
    <glyph glyph-name="uni1E62" unicode="&#x1e62;" horiz-adv-x="1441" 
d="M657 -20q-216 0 -380.5 81.5t-221.5 217.5l267 167q42 -65 81.5 -100t104.5 -55.5t162 -20.5q266 0 284 133q4 19 0.5 39.5t-12.5 38t-33.5 33.5t-62.5 27l-309 90q-166 48 -250.5 156t-63.5 253q27 196 207.5 328.5t443.5 132.5q186 0 327.5 -67t197.5 -191l-264 -166
q-28 38 -46 58t-51.5 45t-80 36t-109.5 11q-112 0 -174 -37.5t-72 -95.5q-4 -15 -0.5 -35.5t12 -39t38 -38t77.5 -33.5l309 -88q339 -102 297 -409q-31 -216 -213.5 -343.5t-464.5 -127.5zM784 -84l-32 -246h-267l37 246h262z" />
    <glyph glyph-name="uni1E63" unicode="&#x1e63;" horiz-adv-x="1128" 
d="M494 -20q-184 0 -307 72.5t-160 185.5l227 108q32 -52 104.5 -91.5t167.5 -39.5q64 0 122.5 21t64.5 57q4 34 -33 55t-105 35l-157 35q-314 63 -281 303q21 159 162 257.5t358 98.5q170 0 273.5 -64.5t142.5 -166.5l-227 -103q-27 48 -86.5 76.5t-141.5 28.5
q-68 0 -123 -22t-59 -60q-4 -28 28 -44t128 -42l174 -43q294 -77 262 -307q-23 -163 -169.5 -256.5t-364.5 -93.5zM602 -100l-35 -246h-266l39 246h262z" />
    <glyph glyph-name="uni1E6C" unicode="&#x1e6c;" horiz-adv-x="1269" 
d="M123 1169l43 312h1206l-43 -312h-428l-162 -1169h-348l162 1169h-430zM702 -84l-32 -246h-267l37 246h262z" />
    <glyph glyph-name="uni1E6D" unicode="&#x1e6d;" horiz-adv-x="890" 
d="M846 819h-234l-69 -520q-7 -43 8 -59.5t49 -16.5h164l-29 -207q-62 -30 -203 -30q-111 0 -185 21.5t-110 63t-46.5 93t-0.5 119.5l74 536h-178l35 238h188l99 334h284l-47 -332h234zM580 -84l-35 -246h-266l38 246h263z" />
    <glyph glyph-name="Wgrave" unicode="&#x1e80;" horiz-adv-x="1986" 
d="M956 1931l498 -225l-65 -137l-531 143zM2083 1481l-643 -1481h-266l-132 887l-376 -887h-263l-233 1481h338l129 -887l367 887h245l127 -887l369 887h338z" />
    <glyph glyph-name="wgrave" unicode="&#x1e81;" horiz-adv-x="1630" 
d="M715 1507l499 -225l-65 -137l-533 143zM1683 1057l-505 -1057h-258l-97 575l-262 -575h-262l-205 1057h322l104 -584l256 584h242l94 -584l260 584h311z" />
    <glyph glyph-name="Wacute" unicode="&#x1e82;" horiz-adv-x="1986" 
d="M1405 1933l51 -227l-559 -139l-33 153zM2083 1481l-643 -1481h-266l-132 887l-376 -887h-263l-233 1481h338l129 -887l367 887h245l127 -887l369 887h338z" />
    <glyph glyph-name="wacute" unicode="&#x1e83;" horiz-adv-x="1630" 
d="M1165 1509l52 -227l-560 -139l-32 153zM1683 1057l-505 -1057h-258l-97 575l-262 -575h-262l-205 1057h322l104 -584l256 584h242l94 -584l260 584h311z" />
    <glyph glyph-name="Wdieresis" unicode="&#x1e84;" horiz-adv-x="1986" 
d="M1120 1905l-39 -271h-303l39 271h303zM1559 1905l-41 -271h-301l38 271h304zM2083 1481l-643 -1481h-266l-132 887l-376 -887h-263l-233 1481h338l129 -887l367 887h245l127 -887l369 887h338z" />
    <glyph glyph-name="wdieresis" unicode="&#x1e85;" horiz-adv-x="1630" 
d="M879 1481l-39 -271h-303l38 271h304zM1317 1481l-41 -271h-301l39 271h303zM1683 1057l-505 -1057h-258l-97 575l-262 -575h-262l-205 1057h322l104 -584l256 584h242l94 -584l260 584h311z" />
    <glyph glyph-name="uni1E92" unicode="&#x1e92;" horiz-adv-x="1400" 
d="M23 0l22 164l860 1026h-659l39 291h1161l-23 -158l-874 -1030h721l-41 -293h-1206zM758 -84l-35 -246h-266l39 246h262z" />
    <glyph glyph-name="uni1E93" unicode="&#x1e93;" horiz-adv-x="1130" 
d="M-12 0l24 172l609 670h-471l30 215h910l-25 -166l-610 -672h522l-29 -219h-960zM596 -84l-33 -246h-268l39 246h262z" />
    <glyph glyph-name="uni1EA0" unicode="&#x1ea0;" horiz-adv-x="1439" 
d="M-37 0l729 1481h361l315 -1481h-346l-64 315h-493l-156 -315h-346zM582 616h338l-95 529zM819 -84l-33 -246h-266l37 246h262z" />
    <glyph glyph-name="uni1EA1" unicode="&#x1ea1;" horiz-adv-x="1126" 
d="M344 -20q-155 0 -243.5 87t-67.5 242q48 355 598 361l106 4l6 51q9 67 -22.5 103t-99.5 36q-135 0 -215 -133l-275 25q62 150 202.5 235.5t332.5 85.5q245 0 339 -86t72 -246l-102 -745h-289l-4 164q-52 -91 -139.5 -137.5t-198.5 -46.5zM496 205q68 0 126.5 45t69.5 104
l19 150l-84 -2q-44 -2 -83 -9.5t-79 -24t-67 -48.5t-33 -76q-9 -65 29 -102t102 -37zM573 -84l-32 -246h-267l37 246h262z" />
    <glyph glyph-name="uni1EA2" unicode="&#x1ea2;" horiz-adv-x="1476" 
d="M733 1964l51 -133q76 45 129 45q26 0 45.5 -11t16.5 -34q-6 -33 -35.5 -60.5t-99.5 -70.5l65 -113q52 40 78 61t61 55t52.5 66.5t23.5 69.5q12 82 -40.5 131t-145.5 49q-30 0 -66.5 -9t-57 -16.5t-77.5 -29.5zM-37 0l729 1481h361l315 -1481h-346l-64 315h-493l-156 -315
h-346zM582 616h338l-95 529z" />
    <glyph glyph-name="uni1EA3" unicode="&#x1ea3;" horiz-adv-x="1179" 
d="M502 1540l51 -133q76 45 129 45q27 0 46.5 -11t16.5 -34q-6 -32 -36 -59.5t-101 -71.5l68 -113q42 32 62.5 48t53 45t48.5 50t30.5 50t18.5 59q12 82 -40.5 131t-143.5 49q-9 0 -19 -1t-18 -1.5t-19.5 -3.5t-18 -4.5t-20.5 -6t-19 -6t-21.5 -7.5t-20.5 -7.5t-23.5 -8.5
t-23.5 -9zM348 -20q-156 0 -245 87t-68 242q48 355 600 361l104 4l9 51q8 67 -23.5 103t-101.5 36q-135 0 -215 -133l-275 25q62 150 203 235.5t332 85.5q126 0 213 -23.5t133 -68.5t61 -104t4 -136l-102 -745h-289l-4 164q-52 -91 -139.5 -137.5t-196.5 -46.5zM498 205
q68 0 126.5 45t69.5 104l21 150l-86 -2q-44 -2 -83 -9.5t-79 -24t-66 -48.5t-32 -76q-10 -65 28 -102t101 -37z" />
    <glyph glyph-name="uni1EA4" unicode="&#x1ea4;" horiz-adv-x="1476" 
d="M1212 2304l52 -227l-562 -138l-32 154zM1057 1626l-111 164l-170 -164h-258l311 295h234l229 -295h-235zM-37 0l729 1481h361l315 -1481h-346l-64 315h-493l-156 -315h-346zM582 616h338l-95 529z" />
    <glyph glyph-name="uni1EA5" unicode="&#x1ea5;" horiz-adv-x="1179" 
d="M993 1880l51 -227l-559 -137l-34 153zM838 1202l-109 164l-172 -164h-258l311 295h234l229 -295h-235zM348 -20q-156 0 -245 87t-68 242q48 355 600 361l104 4l9 51q8 67 -23.5 103t-101.5 36q-135 0 -215 -133l-275 25q62 150 203 235.5t332 85.5q126 0 213 -23.5
t133 -68.5t61 -104t4 -136l-102 -745h-289l-4 164q-52 -91 -139.5 -137.5t-196.5 -46.5zM498 205q68 0 126.5 45t69.5 104l21 150l-86 -2q-44 -2 -83 -9.5t-79 -24t-66 -48.5t-32 -76q-10 -65 28 -102t101 -37z" />
    <glyph glyph-name="uni1EA6" unicode="&#x1ea6;" horiz-adv-x="1476" 
d="M762 2304l498 -225l-66 -137l-530 143zM1057 1626l-111 164l-170 -164h-258l309 295h236l229 -295h-235zM-37 0l729 1481h361l315 -1481h-346l-64 315h-493l-156 -315h-346zM582 616h338l-95 529z" />
    <glyph glyph-name="uni1EA7" unicode="&#x1ea7;" horiz-adv-x="1179" 
d="M543 1880l497 -225l-63 -137l-533 143zM838 1202l-109 164l-172 -164h-258l311 295h234l229 -295h-235zM348 -20q-156 0 -245 87t-68 242q48 355 600 361l104 4l9 51q8 67 -23.5 103t-101.5 36q-135 0 -215 -133l-275 25q62 150 203 235.5t332 85.5q126 0 213 -23.5
t133 -68.5t61 -104t4 -136l-102 -745h-289l-4 164q-52 -91 -139.5 -137.5t-196.5 -46.5zM498 205q68 0 126.5 45t69.5 104l21 150l-86 -2q-44 -2 -83 -9.5t-79 -24t-66 -48.5t-32 -76q-10 -65 28 -102t101 -37z" />
    <glyph glyph-name="uni1EA8" unicode="&#x1ea8;" horiz-adv-x="1476" 
d="M1128 2132l52 -131q78 43 129 43q28 0 47 -10.5t16 -34.5q-6 -32 -36 -59.5t-101 -71.5l68 -113q42 33 53 41.5t44.5 36.5t45 42t31 38.5t28 47.5t11.5 48q12 80 -41 129t-144 49q-43 0 -86.5 -13t-116.5 -42zM1059 1626l-111 164l-172 -164h-256l309 295h236l227 -295
h-233zM-37 0l729 1481h361l315 -1481h-346l-64 315h-493l-156 -315h-346zM582 616h338l-95 529z" />
    <glyph glyph-name="uni1EA9" unicode="&#x1ea9;" horiz-adv-x="1179" 
d="M909 1708l52 -131q78 43 129 43q28 0 47 -10.5t16 -34.5q-6 -32 -36 -59.5t-101 -71.5l67 -113q42 33 53 41.5t44.5 36.5t45 42t31 38.5t28 47.5t11.5 48q12 80 -40.5 129t-143.5 49q-43 0 -86.5 -13t-116.5 -42zM838 1202l-109 164l-172 -164h-258l311 295h234l229 -295
h-235zM348 -20q-156 0 -245 87t-68 242q48 355 600 361l104 4l9 51q8 67 -23.5 103t-101.5 36q-135 0 -215 -133l-275 25q62 150 203 235.5t332 85.5q126 0 213 -23.5t133 -68.5t61 -104t4 -136l-102 -745h-289l-4 164q-52 -91 -139.5 -137.5t-196.5 -46.5zM498 205
q68 0 126.5 45t69.5 104l21 150l-86 -2q-44 -2 -83 -9.5t-79 -24t-66 -48.5t-32 -76q-10 -65 28 -102t101 -37z" />
    <glyph glyph-name="uni1EAA" unicode="&#x1eaa;" horiz-adv-x="1476" 
d="M1348 2081q-106 -56 -218 -56q-63 0 -155 31t-141 31q-28 0 -52 -7t-39 -15.5t-42.5 -26.5t-47.5 -29l-39 197q105 73 209 73q69 0 168 -31.5t137 -31.5q50 0 118 35t85 39zM1057 1626l-109 164l-172 -164h-258l311 295h234l229 -295h-235zM-37 0l729 1481h361l315 -1481
h-346l-64 315h-493l-156 -315h-346zM582 616h338l-95 529z" />
    <glyph glyph-name="uni1EAB" unicode="&#x1eab;" horiz-adv-x="1179" 
d="M1128 1657q-104 -55 -217 -55q-63 0 -155.5 30.5t-141.5 30.5q-28 0 -52 -7t-38.5 -15.5t-42 -26.5t-47.5 -29l-39 197q105 73 209 73q69 0 168 -31.5t137 -31.5q50 0 118 35t85 39zM838 1202l-109 164l-172 -164h-258l311 295h234l229 -295h-235zM348 -20
q-156 0 -245 87t-68 242q48 355 600 361l104 4l9 51q8 67 -23.5 103t-101.5 36q-135 0 -215 -133l-275 25q62 150 203 235.5t332 85.5q126 0 213 -23.5t133 -68.5t61 -104t4 -136l-102 -745h-289l-4 164q-52 -91 -139.5 -137.5t-196.5 -46.5zM498 205q68 0 126.5 45
t69.5 104l21 150l-86 -2q-44 -2 -83 -9.5t-79 -24t-66 -48.5t-32 -76q-10 -65 28 -102t101 -37z" />
    <glyph glyph-name="uni1EAC" unicode="&#x1eac;" horiz-adv-x="1439" 
d="M1057 1626l-109 164l-172 -164h-258l311 295h234l229 -295h-235zM-37 0l729 1481h361l315 -1481h-346l-64 315h-493l-156 -315h-346zM582 616h338l-95 529zM819 -84l-33 -246h-266l37 246h262z" />
    <glyph glyph-name="uni1EAD" unicode="&#x1ead;" horiz-adv-x="1126" 
d="M838 1202l-109 164l-172 -164h-258l311 295h234l229 -295h-235zM348 -20q-156 0 -245 87t-68 242q48 355 600 361l104 4l9 51q8 67 -23.5 103t-101.5 36q-135 0 -215 -133l-275 25q62 150 203 235.5t332 85.5q126 0 213 -23.5t133 -68.5t61 -104t4 -136l-102 -745h-289
l-4 164q-52 -91 -139.5 -137.5t-196.5 -46.5zM498 205q68 0 126.5 45t69.5 104l21 150l-86 -2q-44 -2 -83 -9.5t-79 -24t-66 -48.5t-32 -76q-10 -65 28 -102t101 -37zM573 -84l-32 -246h-267l37 246h262z" />
    <glyph glyph-name="uni1EAE" unicode="&#x1eae;" horiz-adv-x="1476" 
d="M1219 2337l51 -228l-559 -137l-35 152zM1333 1905q-58 -136 -172 -208.5t-250 -72.5q-314 0 -350 281h174q30 -53 79 -86t104 -33q60 0 115 31t89 88h211zM-37 0l729 1481h361l315 -1481h-346l-64 315h-493l-156 -315h-346zM582 616h338l-95 529z" />
    <glyph glyph-name="uni1EAF" unicode="&#x1eaf;" horiz-adv-x="1179" 
d="M999 1913l52 -227l-559 -138l-35 152zM1114 1481q-60 -136 -173 -208.5t-249 -72.5q-314 0 -350 281h174q30 -53 78.5 -86t103.5 -33q59 0 115 31t90 88h211zM348 -20q-156 0 -245 87t-68 242q48 355 600 361l104 4l9 51q8 67 -23.5 103t-101.5 36q-135 0 -215 -133
l-275 25q62 150 203 235.5t332 85.5q126 0 213 -23.5t133 -68.5t61 -104t4 -136l-102 -745h-289l-4 164q-52 -91 -139.5 -137.5t-196.5 -46.5zM498 205q68 0 126.5 45t69.5 104l21 150l-86 -2q-44 -2 -83 -9.5t-79 -24t-66 -48.5t-32 -76q-10 -65 28 -102t101 -37z" />
    <glyph glyph-name="uni1EB0" unicode="&#x1eb0;" horiz-adv-x="1476" 
d="M768 2337l498 -228l-64 -135l-532 142zM1333 1905q-58 -136 -172 -208.5t-250 -72.5q-314 0 -350 281h174q32 -54 80 -86.5t103 -32.5q60 0 115.5 31t88.5 88h211zM-37 0l729 1481h361l315 -1481h-346l-64 315h-493l-156 -315h-346zM582 616h338l-95 529z" />
    <glyph glyph-name="uni1EB1" unicode="&#x1eb1;" horiz-adv-x="1179" 
d="M549 1913l498 -227l-64 -136l-532 142zM1114 1481q-60 -136 -173 -208.5t-249 -72.5q-314 0 -350 281h174q30 -53 78.5 -86t103.5 -33q59 0 115 31t90 88h211zM348 -20q-156 0 -245 87t-68 242q48 355 600 361l104 4l9 51q8 67 -23.5 103t-101.5 36q-135 0 -215 -133
l-275 25q62 150 203 235.5t332 85.5q126 0 213 -23.5t133 -68.5t61 -104t4 -136l-102 -745h-289l-4 164q-52 -91 -139.5 -137.5t-196.5 -46.5zM498 205q68 0 126.5 45t69.5 104l21 150l-86 -2q-44 -2 -83 -9.5t-79 -24t-66 -48.5t-32 -76q-10 -65 28 -102t101 -37z" />
    <glyph glyph-name="uni1EB2" unicode="&#x1eb2;" horiz-adv-x="1476" 
d="M739 2247l52 -131q73 43 129 43q27 0 46 -10.5t15 -34.5q-6 -33 -35.5 -61t-99.5 -71l65 -112q110 85 144 121q62 65 71 133q12 80 -41 129t-145 49q-68 0 -201 -55zM1333 1905q-60 -136 -173 -208.5t-249 -72.5q-314 0 -352 281h176q31 -53 79 -86t104 -33
q59 0 114.5 31t89.5 88h211zM-37 0l729 1481h361l315 -1481h-346l-64 315h-493l-156 -315h-346zM582 616h338l-95 529z" />
    <glyph glyph-name="uni1EB3" unicode="&#x1eb3;" horiz-adv-x="1179" 
d="M545 1944l51 -132q73 43 129 43q26 0 45 -10.5t16 -34.5q-6 -33 -35.5 -60.5t-99.5 -70.5l66 -112q111 86 147 124q58 63 68 130q10 81 -42.5 129.5t-144.5 48.5q-43 0 -86 -13t-114 -42zM1114 1481q-60 -136 -173 -208.5t-249 -72.5q-314 0 -350 281h174
q30 -53 78.5 -86t103.5 -33q59 0 115 31t90 88h211zM348 -20q-156 0 -245 87t-68 242q48 355 600 361l104 4l9 51q8 67 -23.5 103t-101.5 36q-135 0 -215 -133l-275 25q62 150 203 235.5t332 85.5q126 0 213 -23.5t133 -68.5t61 -104t4 -136l-102 -745h-289l-4 164
q-52 -91 -139.5 -137.5t-196.5 -46.5zM498 205q68 0 126.5 45t69.5 104l21 150l-86 -2q-44 -2 -83 -9.5t-79 -24t-66 -48.5t-32 -76q-10 -65 28 -102t101 -37z" />
    <glyph glyph-name="uni1EB4" unicode="&#x1eb4;" horiz-adv-x="1476" 
d="M1354 2114q-106 -56 -217 -56q-63 0 -155.5 31t-141.5 31q-28 0 -52 -7t-39 -15.5t-42.5 -26.5t-47.5 -29l-38 196q54 36 101 55t107 19q69 0 168.5 -31.5t137.5 -31.5q50 0 117.5 34.5t84.5 38.5zM1333 1905q-58 -136 -172 -208.5t-250 -72.5q-314 0 -350 281h174
q30 -53 79 -86t104 -33q60 0 115 31t89 88h211zM-37 0l729 1481h361l315 -1481h-346l-64 315h-493l-156 -315h-346zM582 616h338l-95 529z" />
    <glyph glyph-name="uni1EB5" unicode="&#x1eb5;" horiz-adv-x="1179" 
d="M1135 1690q-106 -56 -217 -56q-63 0 -155.5 31t-141.5 31q-28 0 -52.5 -7.5t-38.5 -15.5t-43.5 -27.5t-46.5 -29.5l-39 199q54 36 101 54.5t108 18.5q69 0 168 -31.5t137 -31.5t74.5 15t71 34t55.5 24zM1114 1481q-60 -136 -173 -208.5t-249 -72.5q-314 0 -350 281h174
q30 -53 78.5 -86t103.5 -33q59 0 115 31t90 88h211zM348 -20q-156 0 -245 87t-68 242q48 355 600 361l104 4l9 51q8 67 -23.5 103t-101.5 36q-135 0 -215 -133l-275 25q62 150 203 235.5t332 85.5q126 0 213 -23.5t133 -68.5t61 -104t4 -136l-102 -745h-289l-4 164
q-52 -91 -139.5 -137.5t-196.5 -46.5zM498 205q68 0 126.5 45t69.5 104l21 150l-86 -2q-44 -2 -83 -9.5t-79 -24t-66 -48.5t-32 -76q-10 -65 28 -102t101 -37z" />
    <glyph glyph-name="uni1EB6" unicode="&#x1eb6;" horiz-adv-x="1439" 
d="M1333 1905q-60 -136 -173 -208.5t-249 -72.5q-314 0 -350 281h174q30 -53 79 -86t104 -33q59 0 114.5 31t89.5 88h211zM-37 0l729 1481h361l315 -1481h-346l-64 315h-493l-156 -315h-346zM582 616h338l-95 529zM819 -84l-33 -246h-266l37 246h262z" />
    <glyph glyph-name="uni1EB7" unicode="&#x1eb7;" horiz-adv-x="1126" 
d="M1114 1481q-60 -136 -173 -208.5t-249 -72.5q-314 0 -350 281h174q30 -53 78.5 -86t103.5 -33q59 0 115 31t90 88h211zM348 -20q-156 0 -245 87t-68 242q48 355 600 361l104 4l9 51q8 67 -23.5 103t-101.5 36q-135 0 -215 -133l-275 25q62 150 203 235.5t332 85.5
q126 0 213 -23.5t133 -68.5t61 -104t4 -136l-102 -745h-289l-4 164q-52 -91 -139.5 -137.5t-196.5 -46.5zM498 205q68 0 126.5 45t69.5 104l21 150l-86 -2q-44 -2 -83 -9.5t-79 -24t-66 -48.5t-32 -76q-10 -65 28 -102t101 -37zM573 -84l-32 -246h-267l37 246h262z" />
    <glyph glyph-name="uni1EB8" unicode="&#x1eb8;" horiz-adv-x="1327" 
d="M82 0l207 1481h1046l-43 -293h-694l-43 -303h592l-37 -283h-596l-41 -309h703l-41 -293h-1053zM733 -84l-35 -246h-266l39 246h262z" />
    <glyph glyph-name="uni1EB9" unicode="&#x1eb9;" horiz-adv-x="1193" 
d="M397 430q-17 -107 31 -168t141 -61q70 0 132.5 35t99.5 94l260 -64q-81 -138 -216 -212t-302 -74q-244 0 -379.5 147t-102.5 387q22 156 105 283.5t217.5 203.5t294.5 76q162 0 271.5 -75t151.5 -200.5t19 -283.5l-14 -88h-709zM428 655h383q13 98 -28 156.5t-134 58.5
q-95 0 -151.5 -60t-69.5 -155zM655 -84l-32 -246h-267l37 246h262z" />
    <glyph glyph-name="uni1EBA" unicode="&#x1eba;" horiz-adv-x="1327" 
d="M651 1964l51 -133q76 45 129 45q26 0 45.5 -11t16.5 -34q-6 -33 -35.5 -60.5t-99.5 -70.5l65 -113q52 40 78 61t61 55t52.5 66.5t23.5 69.5q12 82 -40.5 131t-145.5 49q-30 0 -66.5 -9t-57 -16.5t-77.5 -29.5zM82 0l207 1481h1046l-43 -293h-694l-43 -303h592l-37 -283
h-596l-41 -309h703l-41 -293h-1053z" />
    <glyph glyph-name="uni1EBB" unicode="&#x1ebb;" horiz-adv-x="1179" 
d="M506 1540l51 -133q76 45 129 45q26 0 45.5 -11t16.5 -34q-6 -32 -35.5 -60t-100.5 -71l66 -113q52 40 78 61t61 55t52.5 66.5t23.5 69.5q12 82 -40.5 131t-145.5 49q-30 0 -66.5 -9t-57 -16.5t-77.5 -29.5zM397 430q-17 -107 31 -168t141 -61q70 0 132.5 35t99.5 94
l260 -64q-81 -138 -216 -212t-302 -74q-244 0 -379.5 147t-102.5 387q22 156 105 283.5t217.5 203.5t294.5 76q162 0 271.5 -75t151.5 -200.5t19 -283.5l-14 -88h-709zM428 655h383q13 98 -28 156.5t-134 58.5q-95 0 -151.5 -60t-69.5 -155z" />
    <glyph glyph-name="uni1EBC" unicode="&#x1ebc;" horiz-adv-x="1327" 
d="M1229 1708q-112 -55 -217 -55q-63 0 -155.5 30.5t-139.5 30.5q-28 0 -52.5 -7t-39.5 -15.5t-42.5 -26.5t-47.5 -29l-39 199q57 37 103.5 55.5t105.5 18.5q69 0 168 -33t137 -33q49 0 116 35t86 39zM82 0l207 1481h1046l-43 -293h-694l-43 -303h592l-37 -283h-596
l-41 -309h703l-41 -293h-1053z" />
    <glyph glyph-name="uni1EBD" unicode="&#x1ebd;" horiz-adv-x="1193" 
d="M1096 1284q-112 -55 -217 -55q-63 0 -155.5 30.5t-141.5 30.5q-28 0 -52.5 -7.5t-39 -15.5t-43 -26.5t-46.5 -28.5l-39 199q54 36 101.5 55t107.5 19q69 0 168.5 -33t137.5 -33q49 0 116 35t86 39zM397 430q-17 -107 31 -168t141 -61q70 0 132.5 35t99.5 94l260 -64
q-81 -138 -216 -212t-302 -74q-244 0 -379.5 147t-102.5 387q22 156 105 283.5t217.5 203.5t294.5 76q162 0 271.5 -75t151.5 -200.5t19 -283.5l-14 -88h-709zM428 655h383q13 98 -28 156.5t-134 58.5q-95 0 -151.5 -60t-69.5 -155z" />
    <glyph glyph-name="uni1EBE" unicode="&#x1ebe;" horiz-adv-x="1327" 
d="M1130 2304l52 -227l-561 -138l-33 154zM975 1626l-111 164l-170 -164h-258l312 295h233l229 -295h-235zM82 0l207 1481h1046l-43 -293h-694l-43 -303h592l-37 -283h-596l-41 -309h703l-41 -293h-1053z" />
    <glyph glyph-name="uni1EBF" unicode="&#x1ebf;" horiz-adv-x="1179" 
d="M995 1880l52 -227l-560 -137l-32 153zM842 1202l-111 164l-172 -164h-256l309 295h236l227 -295h-233zM397 430q-17 -107 31 -168t141 -61q70 0 132.5 35t99.5 94l260 -64q-81 -138 -216 -212t-302 -74q-244 0 -379.5 147t-102.5 387q22 156 105 283.5t217.5 203.5
t294.5 76q162 0 271.5 -75t151.5 -200.5t19 -283.5l-14 -88h-709zM428 655h383q13 98 -28 156.5t-134 58.5q-95 0 -151.5 -60t-69.5 -155z" />
    <glyph glyph-name="uni1EC0" unicode="&#x1ec0;" horiz-adv-x="1327" 
d="M682 2304l498 -225l-66 -137l-530 143zM977 1626l-111 164l-170 -164h-258l310 295h235l229 -295h-235zM82 0l207 1481h1046l-43 -293h-694l-43 -303h592l-37 -283h-596l-41 -309h703l-41 -293h-1053z" />
    <glyph glyph-name="uni1EC1" unicode="&#x1ec1;" horiz-adv-x="1179" 
d="M545 1880l499 -225l-65 -137l-530 143zM842 1202l-111 164l-172 -164h-256l309 295h236l227 -295h-233zM397 430q-17 -107 31 -168t141 -61q70 0 132.5 35t99.5 94l260 -64q-81 -138 -216 -212t-302 -74q-244 0 -379.5 147t-102.5 387q22 156 105 283.5t217.5 203.5
t294.5 76q162 0 271.5 -75t151.5 -200.5t19 -283.5l-14 -88h-709zM428 655h383q13 98 -28 156.5t-134 58.5q-95 0 -151.5 -60t-69.5 -155z" />
    <glyph glyph-name="uni1EC2" unicode="&#x1ec2;" horiz-adv-x="1327" 
d="M1047 2132l51 -131q78 43 129 43q28 0 47 -10.5t16 -34.5q-6 -32 -36 -59.5t-101 -71.5l68 -113q42 33 53 41.5t44.5 36.5t45 42t31 38.5t28 47.5t11.5 48q12 80 -41 129t-144 49q-43 0 -85.5 -12.5t-116.5 -42.5zM977 1626l-111 164l-172 -164h-256l310 295h235
l227 -295h-233zM82 0l207 1481h1046l-43 -293h-694l-43 -303h592l-37 -283h-596l-41 -309h703l-41 -293h-1053z" />
    <glyph glyph-name="uni1EC3" unicode="&#x1ec3;" horiz-adv-x="1179" 
d="M913 1708l52 -131q78 43 129 43q26 0 45 -10.5t16 -34.5q-6 -33 -35.5 -60.5t-99.5 -70.5l65 -113q111 86 147 124q58 63 68 130q12 80 -41 129t-145 49q-68 0 -201 -55zM842 1202l-111 164l-172 -164h-256l309 295h236l227 -295h-233zM397 430q-17 -107 31 -168t141 -61
q70 0 132.5 35t99.5 94l260 -64q-81 -138 -216 -212t-302 -74q-244 0 -379.5 147t-102.5 387q22 156 105 283.5t217.5 203.5t294.5 76q162 0 271.5 -75t151.5 -200.5t19 -283.5l-14 -88h-709zM428 655h383q13 98 -28 156.5t-134 58.5q-95 0 -151.5 -60t-69.5 -155z" />
    <glyph glyph-name="uni1EC4" unicode="&#x1ec4;" horiz-adv-x="1327" 
d="M1266 2081q-106 -56 -217 -56q-63 0 -155.5 31t-141.5 31q-28 0 -52 -7t-39 -15.5t-42.5 -26.5t-47.5 -29l-39 197q105 73 209 73q69 0 168.5 -31.5t137.5 -31.5q50 0 117.5 35t84.5 39zM975 1626l-109 164l-172 -164h-258l312 295h233l229 -295h-235zM82 0l207 1481
h1046l-43 -293h-694l-43 -303h592l-37 -283h-596l-41 -309h703l-41 -293h-1053z" />
    <glyph glyph-name="uni1EC5" unicode="&#x1ec5;" horiz-adv-x="1179" 
d="M1130 1657q-104 -55 -215 -55q-63 0 -156.5 30.5t-140.5 30.5q-28 0 -52.5 -7t-39 -15.5t-42.5 -27t-46 -28.5l-41 197q53 36 100.5 54.5t108.5 18.5q69 0 168.5 -31.5t136.5 -31.5q51 0 118.5 35t84.5 39zM842 1202l-111 164l-172 -164h-256l309 295h236l227 -295h-233z
M397 430q-17 -107 31 -168t141 -61q70 0 132.5 35t99.5 94l260 -64q-81 -138 -216 -212t-302 -74q-244 0 -379.5 147t-102.5 387q22 156 105 283.5t217.5 203.5t294.5 76q162 0 271.5 -75t151.5 -200.5t19 -283.5l-14 -88h-709zM428 655h383q13 98 -28 156.5t-134 58.5
q-95 0 -151.5 -60t-69.5 -155z" />
    <glyph glyph-name="uni1EC6" unicode="&#x1ec6;" horiz-adv-x="1327" 
d="M975 1626l-109 164l-172 -164h-256l310 295h233l229 -295h-235zM82 0l207 1481h1046l-43 -293h-694l-43 -303h592l-37 -283h-596l-41 -309h703l-41 -293h-1053zM733 -84l-35 -246h-266l39 246h262z" />
    <glyph glyph-name="uni1EC7" unicode="&#x1ec7;" horiz-adv-x="1179" 
d="M842 1202l-111 164l-172 -164h-256l309 295h236l227 -295h-233zM397 430q-17 -107 31 -168t141 -61q70 0 132.5 35t99.5 94l260 -64q-81 -138 -216 -212t-302 -74q-244 0 -379.5 147t-102.5 387q22 156 105 283.5t217.5 203.5t294.5 76q162 0 271.5 -75t151.5 -200.5
t19 -283.5l-14 -88h-709zM428 655h383q13 98 -28 156.5t-134 58.5q-95 0 -151.5 -60t-69.5 -155zM655 -84l-32 -246h-267l37 246h262z" />
    <glyph glyph-name="uni1EC8" unicode="&#x1ec8;" horiz-adv-x="657" 
d="M299 1964l51 -133q76 45 129 45q26 0 45.5 -11t16.5 -34q-6 -33 -35.5 -60.5t-99.5 -70.5l65 -113q52 40 78 61t61 55t52.5 66.5t23.5 69.5q12 82 -40.5 131t-145.5 49q-30 0 -66.5 -9t-57 -16.5t-77.5 -29.5zM289 1481h346l-205 -1481h-348z" />
    <glyph glyph-name="uni1EC9" unicode="&#x1ec9;" horiz-adv-x="598" 
d="M207 1540l51 -133q76 45 129 45q26 0 45.5 -11t16.5 -34q-6 -32 -35.5 -59.5t-100.5 -71.5l66 -113q52 40 78 61t61 55t52.5 66.5t23.5 69.5q10 82 -42.5 131t-143.5 49q-30 0 -66.5 -9t-57 -16.5t-77.5 -29.5zM541 1057l-150 -1057h-346l145 1057h351z" />
    <glyph glyph-name="uni1ECA" unicode="&#x1eca;" horiz-adv-x="657" 
d="M289 1481h346l-205 -1481h-348zM393 -84l-35 -246h-266l39 246h262z" />
    <glyph glyph-name="uni1ECB" unicode="&#x1ecb;" horiz-adv-x="585" 
d="M610 1520l-47 -312h-350l45 312h352zM541 1057l-146 -1057h-348l148 1057h346zM344 -84l-33 -246h-266l37 246h262z" />
    <glyph glyph-name="uni1ECC" unicode="&#x1ecc;" horiz-adv-x="1587" 
d="M717 -20q-320 0 -478.5 203.5t-109.5 553.5q47 349 265.5 556.5t535.5 207.5q315 0 475 -207t111 -557q-49 -348 -265.5 -552.5t-533.5 -204.5zM758 262q148 0 246.5 112.5t132.5 356.5q34 251 -32.5 369.5t-213.5 118.5t-248.5 -119t-136.5 -369q-32 -244 36 -356.5
t216 -112.5zM834 -84l-33 -246h-266l36 246h263z" />
    <glyph glyph-name="uni1ECD" unicode="&#x1ecd;" horiz-adv-x="1196" 
d="M520 -20q-238 0 -365.5 151.5t-93.5 390.5q33 246 207 400.5t408 154.5q160 0 273 -71.5t161 -197.5t27 -286q-34 -238 -205.5 -390t-411.5 -152zM555 201q51 0 94 32t71 83.5t45.5 106.5t25.5 112q9 53 4.5 110.5t-17.5 105t-47.5 78.5t-85.5 31q-52 0 -94.5 -30
t-70 -80t-45 -104t-25.5 -111q-4 -43 -6 -88.5t7.5 -89.5t25 -78.5t46 -56t72.5 -21.5zM645 -84l-33 -246h-266l37 246h262z" />
    <glyph glyph-name="uni1ECE" unicode="&#x1ece;" horiz-adv-x="1527" 
d="M731 1964l51 -133q76 45 129 45q27 0 46.5 -11t15.5 -34q-4 -32 -33.5 -59.5t-101.5 -71.5l65 -113q51 38 79.5 60.5t62 55.5t51 66t22.5 70q12 82 -40.5 131t-145.5 49q-30 0 -66.5 -9t-57 -16.5t-77.5 -29.5zM717 -20q-320 0 -478.5 203.5t-109.5 553.5
q47 349 265.5 556.5t535.5 207.5q315 0 475 -207t111 -557q-49 -348 -265.5 -552.5t-533.5 -204.5zM758 262q148 0 246.5 112.5t132.5 356.5q34 251 -32.5 369.5t-213.5 118.5t-248.5 -119t-136.5 -369q-32 -244 36 -356.5t216 -112.5z" />
    <glyph glyph-name="uni1ECF" unicode="&#x1ecf;" horiz-adv-x="1189" 
d="M504 1540l51 -133q76 45 129 45q27 0 46 -11t15 -34q-4 -32 -33.5 -59.5t-101.5 -71.5l66 -113q51 38 79.5 60.5t62 55.5t51 66t22.5 70q12 82 -40.5 131t-145.5 49q-30 0 -66.5 -9t-57 -16.5t-77.5 -29.5zM520 -20q-238 0 -365.5 151.5t-93.5 390.5q33 246 207 400.5
t408 154.5q160 0 273 -71.5t161 -197.5t27 -286q-34 -238 -205.5 -390t-411.5 -152zM555 201q51 0 94 32t71 83.5t45.5 106.5t25.5 112q9 53 4.5 110.5t-17.5 105t-47.5 78.5t-85.5 31q-52 0 -94.5 -30t-70 -80t-45 -104t-25.5 -111q-4 -43 -6 -88.5t7.5 -89.5t25 -78.5
t46 -56t72.5 -21.5z" />
    <glyph glyph-name="uni1ED0" unicode="&#x1ed0;" horiz-adv-x="1527" 
d="M1223 2304l51 -227l-561 -138l-33 154zM1067 1626l-111 164l-170 -164h-258l310 295h235l230 -295h-236zM717 -20q-320 0 -478.5 203.5t-109.5 553.5q47 349 265.5 556.5t535.5 207.5q315 0 475 -207t111 -557q-49 -348 -265.5 -552.5t-533.5 -204.5zM758 262
q148 0 246.5 112.5t132.5 356.5q34 251 -32.5 369.5t-213.5 118.5t-248.5 -119t-136.5 -369q-32 -244 36 -356.5t216 -112.5z" />
    <glyph glyph-name="uni1ED1" unicode="&#x1ed1;" horiz-adv-x="1189" 
d="M995 1880l49 -227l-559 -137l-32 153zM840 1202l-111 164l-170 -164h-258l309 295h236l229 -295h-235zM520 -20q-238 0 -365.5 151.5t-93.5 390.5q33 246 207 400.5t408 154.5q160 0 273 -71.5t161 -197.5t27 -286q-34 -238 -205.5 -390t-411.5 -152zM555 201q51 0 94 32
t71 83.5t45.5 106.5t25.5 112q9 53 4.5 110.5t-17.5 105t-47.5 78.5t-85.5 31q-52 0 -94.5 -30t-70 -80t-45 -104t-25.5 -111q-4 -43 -6 -88.5t7.5 -89.5t25 -78.5t46 -56t72.5 -21.5z" />
    <glyph glyph-name="uni1ED2" unicode="&#x1ed2;" horiz-adv-x="1527" 
d="M772 2304l498 -225l-64 -137l-532 143zM1067 1626l-111 164l-170 -164h-258l310 295h235l230 -295h-236zM717 -20q-320 0 -478.5 203.5t-109.5 553.5q47 349 265.5 556.5t535.5 207.5q315 0 475 -207t111 -557q-49 -348 -265.5 -552.5t-533.5 -204.5zM758 262
q148 0 246.5 112.5t132.5 356.5q34 251 -32.5 369.5t-213.5 118.5t-248.5 -119t-136.5 -369q-32 -244 36 -356.5t216 -112.5z" />
    <glyph glyph-name="uni1ED3" unicode="&#x1ed3;" horiz-adv-x="1189" 
d="M545 1880l497 -225l-63 -137l-533 143zM840 1202l-111 164l-170 -164h-258l309 295h236l229 -295h-235zM520 -20q-238 0 -365.5 151.5t-93.5 390.5q33 246 207 400.5t408 154.5q160 0 273 -71.5t161 -197.5t27 -286q-34 -238 -205.5 -390t-411.5 -152zM555 201
q51 0 94 32t71 83.5t45.5 106.5t25.5 112q9 53 4.5 110.5t-17.5 105t-47.5 78.5t-85.5 31q-52 0 -94.5 -30t-70 -80t-45 -104t-25.5 -111q-4 -43 -6 -88.5t7.5 -89.5t25 -78.5t46 -56t72.5 -21.5z" />
    <glyph glyph-name="uni1ED4" unicode="&#x1ed4;" horiz-adv-x="1527" 
d="M1139 2132l51 -131q78 43 129 43q26 0 45 -10.5t16 -34.5q-6 -32 -35.5 -59.5t-99.5 -71.5l66 -113q111 86 147 124q58 63 68 130q10 81 -42.5 129.5t-144.5 48.5q-43 0 -86 -13t-114 -42zM1067 1626l-111 164l-170 -164h-258l310 295h235l230 -295h-236zM717 -20
q-320 0 -478.5 203.5t-109.5 553.5q47 349 265.5 556.5t535.5 207.5q315 0 475 -207t111 -557q-49 -348 -265.5 -552.5t-533.5 -204.5zM758 262q148 0 246.5 112.5t132.5 356.5q34 251 -32.5 369.5t-213.5 118.5t-248.5 -119t-136.5 -369q-32 -244 36 -356.5t216 -112.5z
" />
    <glyph glyph-name="uni1ED5" unicode="&#x1ed5;" horiz-adv-x="1189" 
d="M911 1708l52 -131q78 43 129 43q28 0 46.5 -10.5t14.5 -34.5q-4 -32 -33.5 -59.5t-101.5 -71.5l65 -113q55 41 80 61.5t60.5 55t52.5 67.5t22 70q12 80 -41 129t-145 49q-68 0 -201 -55zM840 1202l-111 164l-170 -164h-258l309 295h236l229 -295h-235zM520 -20
q-238 0 -365.5 151.5t-93.5 390.5q33 246 207 400.5t408 154.5q160 0 273 -71.5t161 -197.5t27 -286q-34 -238 -205.5 -390t-411.5 -152zM555 201q51 0 94 32t71 83.5t45.5 106.5t25.5 112q9 53 4.5 110.5t-17.5 105t-47.5 78.5t-85.5 31q-52 0 -94.5 -30t-70 -80t-45 -104
t-25.5 -111q-4 -43 -6 -88.5t7.5 -89.5t25 -78.5t46 -56t72.5 -21.5z" />
    <glyph glyph-name="uni1ED6" unicode="&#x1ed6;" horiz-adv-x="1527" 
d="M1358 2081q-106 -56 -217 -56q-63 0 -155.5 31t-141.5 31q-28 0 -52.5 -7t-39 -15.5t-42.5 -27t-46 -28.5l-39 197q51 36 99 54.5t110 18.5q69 0 168 -31.5t137 -31.5t74.5 15t70.5 34.5t55 24.5zM1067 1626l-111 164l-170 -164h-258l310 295h235l230 -295h-236zM717 -20
q-320 0 -478.5 203.5t-109.5 553.5q47 349 265.5 556.5t535.5 207.5q315 0 475 -207t111 -557q-49 -348 -265.5 -552.5t-533.5 -204.5zM758 262q148 0 246.5 112.5t132.5 356.5q34 251 -32.5 369.5t-213.5 118.5t-248.5 -119t-136.5 -369q-32 -244 36 -356.5t216 -112.5z
" />
    <glyph glyph-name="uni1ED7" unicode="&#x1ed7;" horiz-adv-x="1189" 
d="M1130 1657q-104 -55 -217 -55q-63 0 -155.5 30.5t-141.5 30.5q-28 0 -52.5 -7t-39 -15.5t-42.5 -27t-46 -28.5l-39 197q105 73 207 73q70 0 169.5 -31.5t137.5 -31.5t75 15t71 34.5t55 24.5zM840 1202l-111 164l-170 -164h-258l309 295h236l229 -295h-235zM520 -20
q-238 0 -365.5 151.5t-93.5 390.5q33 246 207 400.5t408 154.5q160 0 273 -71.5t161 -197.5t27 -286q-34 -238 -205.5 -390t-411.5 -152zM555 201q51 0 94 32t71 83.5t45.5 106.5t25.5 112q9 53 4.5 110.5t-17.5 105t-47.5 78.5t-85.5 31q-52 0 -94.5 -30t-70 -80t-45 -104
t-25.5 -111q-4 -43 -6 -88.5t7.5 -89.5t25 -78.5t46 -56t72.5 -21.5z" />
    <glyph glyph-name="uni1ED8" unicode="&#x1ed8;" horiz-adv-x="1527" 
d="M1067 1626l-111 164l-170 -164h-258l310 295h235l230 -295h-236zM717 -20q-320 0 -478.5 203.5t-109.5 553.5q47 349 265.5 556.5t535.5 207.5q315 0 475 -207t111 -557q-49 -348 -265.5 -552.5t-533.5 -204.5zM758 262q148 0 246.5 112.5t132.5 356.5
q34 251 -32.5 369.5t-213.5 118.5t-248.5 -119t-136.5 -369q-32 -244 36 -356.5t216 -112.5zM823 -84l-32 -246h-267l37 246h262z" />
    <glyph glyph-name="uni1ED9" unicode="&#x1ed9;" horiz-adv-x="1189" 
d="M840 1202l-111 164l-170 -164h-258l309 295h236l229 -295h-235zM520 -20q-238 0 -365.5 151.5t-93.5 390.5q33 246 207 400.5t408 154.5q160 0 273 -71.5t161 -197.5t27 -286q-34 -238 -205.5 -390t-411.5 -152zM555 201q51 0 94 32t71 83.5t45.5 106.5t25.5 112
q9 53 4.5 110.5t-17.5 105t-47.5 78.5t-85.5 31q-52 0 -94.5 -30t-70 -80t-45 -104t-25.5 -111q-4 -43 -6 -88.5t7.5 -89.5t25 -78.5t46 -56t72.5 -21.5zM645 -84l-33 -246h-266l37 246h262z" />
    <glyph glyph-name="uni1EDA" unicode="&#x1eda;" horiz-adv-x="1490" 
d="M1239 1706l-559 -139l-35 153l543 213zM1300 1395q134 -95 191 -264.5t25 -393.5q-49 -348 -265.5 -552.5t-533.5 -204.5q-320 0 -478.5 203.5t-109.5 553.5q47 349 265.5 556.5t535.5 207.5q84 0 147 -14q59 5 107 35t76 86h210q-56 -139 -170 -213zM1137 731
q34 251 -32.5 369.5t-213.5 118.5t-248.5 -119t-136.5 -369q-32 -244 36 -356.5t216 -112.5t246.5 112.5t132.5 356.5z" />
    <glyph glyph-name="uni1EDB" unicode="&#x1edb;" horiz-adv-x="1173" 
d="M1006 1282l-560 -139l-32 153l540 213zM1008 961q80 -76 114 -189t15 -250q-34 -238 -205.5 -390t-411.5 -152q-238 0 -365.5 151.5t-93.5 390.5q33 246 207 400.5t408 154.5q88 0 155 -20q86 27 130 110h210q-53 -132 -163 -206zM791 535q9 53 4.5 110.5t-17.5 105
t-47.5 78.5t-85.5 31q-52 0 -94.5 -30t-70 -80t-45 -104t-25.5 -111q-4 -43 -6 -88.5t7.5 -89.5t25 -78.5t46 -56t72.5 -21.5q51 0 94 32t71 83.5t45.5 106.5t25.5 112z" />
    <glyph glyph-name="uni1EDC" unicode="&#x1edc;" horiz-adv-x="1490" 
d="M1235 1706l-64 -137l-532 143l98 219zM1300 1395q134 -95 191 -264.5t25 -393.5q-49 -348 -265.5 -552.5t-533.5 -204.5q-320 0 -478.5 203.5t-109.5 553.5q47 349 265.5 556.5t535.5 207.5q84 0 147 -14q59 5 107 35t76 86h210q-56 -139 -170 -213zM1137 731
q34 251 -32.5 369.5t-213.5 118.5t-248.5 -119t-136.5 -369q-32 -244 36 -356.5t216 -112.5t246.5 112.5t132.5 356.5z" />
    <glyph glyph-name="uni1EDD" unicode="&#x1edd;" horiz-adv-x="1173" 
d="M1004 1282l-66 -137l-530 143l96 219zM1008 961q80 -76 114 -189t15 -250q-34 -238 -205.5 -390t-411.5 -152q-238 0 -365.5 151.5t-93.5 390.5q33 246 207 400.5t408 154.5q88 0 155 -20q86 27 130 110h210q-53 -132 -163 -206zM791 535q9 53 4.5 110.5t-17.5 105
t-47.5 78.5t-85.5 31q-52 0 -94.5 -30t-70 -80t-45 -104t-25.5 -111q-4 -43 -6 -88.5t7.5 -89.5t25 -78.5t46 -56t72.5 -21.5q51 0 94 32t71 83.5t45.5 106.5t25.5 112z" />
    <glyph glyph-name="uni1EDE" unicode="&#x1ede;" horiz-adv-x="1490" 
d="M913 1876q-53 0 -129 -45l-51 133q57 22 77.5 29.5t57 16.5t66.5 9q93 0 145.5 -49t40.5 -131q-5 -37 -22.5 -70t-51 -66t-62 -55.5t-79.5 -60.5l-65 113q70 43 99.5 70.5t35.5 60.5q4 23 -15.5 34t-46.5 11zM1300 1395q134 -95 191 -264.5t25 -393.5
q-49 -348 -265.5 -552.5t-533.5 -204.5q-320 0 -478.5 203.5t-109.5 553.5q47 349 265.5 556.5t535.5 207.5q84 0 147 -14q59 5 107 35t76 86h210q-56 -139 -170 -213zM1137 731q34 251 -32.5 369.5t-213.5 118.5t-248.5 -119t-136.5 -369q-32 -244 36 -356.5t216 -112.5
t246.5 112.5t132.5 356.5z" />
    <glyph glyph-name="uni1EDF" unicode="&#x1edf;" horiz-adv-x="1173" 
d="M680 1452q-53 0 -129 -45l-51 133q55 21 77.5 29.5t58.5 17t66 8.5q91 0 144 -49t41 -131q-5 -37 -22.5 -70t-51 -66t-62 -55.5t-79.5 -60.5l-66 113q72 44 101.5 71.5t33.5 59.5q4 23 -15 34t-46 11zM1008 961q80 -76 114 -189t15 -250q-34 -238 -205.5 -390
t-411.5 -152q-238 0 -365.5 151.5t-93.5 390.5q33 246 207 400.5t408 154.5q88 0 155 -20q86 27 130 110h210q-53 -132 -163 -206zM791 535q9 53 4.5 110.5t-17.5 105t-47.5 78.5t-85.5 31q-52 0 -94.5 -30t-70 -80t-45 -104t-25.5 -111q-4 -43 -6 -88.5t7.5 -89.5t25 -78.5
t46 -56t72.5 -21.5q51 0 94 32t71 83.5t45.5 106.5t25.5 112z" />
    <glyph glyph-name="uni1EE0" unicode="&#x1ee0;" horiz-adv-x="1490" 
d="M811 1714q-28 0 -52.5 -7t-39 -15.5t-43 -26.5t-47.5 -29l-39 199q57 37 103.5 55.5t105.5 18.5q69 0 168 -33t137 -33q49 0 116.5 35t86.5 39l16 -209q-112 -55 -215 -55q-63 0 -156.5 30.5t-140.5 30.5zM1300 1395q134 -95 191 -264.5t25 -393.5
q-49 -348 -265.5 -552.5t-533.5 -204.5q-320 0 -478.5 203.5t-109.5 553.5q47 349 265.5 556.5t535.5 207.5q84 0 147 -14q59 5 107 35t76 86h210q-56 -139 -170 -213zM1137 731q34 251 -32.5 369.5t-213.5 118.5t-248.5 -119t-136.5 -369q-32 -244 36 -356.5t216 -112.5
t246.5 112.5t132.5 356.5z" />
    <glyph glyph-name="uni1EE1" unicode="&#x1ee1;" horiz-adv-x="1173" 
d="M578 1290q-28 0 -52.5 -7.5t-39 -15.5t-43 -26.5t-46.5 -28.5l-41 199q57 37 103.5 55.5t105.5 18.5q69 0 168.5 -33t136.5 -33q50 0 117 35t86 39l17 -209q-112 -55 -216 -55q-63 0 -156 30.5t-140 30.5zM1008 961q80 -76 114 -189t15 -250q-34 -238 -205.5 -390
t-411.5 -152q-238 0 -365.5 151.5t-93.5 390.5q33 246 207 400.5t408 154.5q88 0 155 -20q86 27 130 110h210q-53 -132 -163 -206zM791 535q9 53 4.5 110.5t-17.5 105t-47.5 78.5t-85.5 31q-52 0 -94.5 -30t-70 -80t-45 -104t-25.5 -111q-4 -43 -6 -88.5t7.5 -89.5t25 -78.5
t46 -56t72.5 -21.5q51 0 94 32t71 83.5t45.5 106.5t25.5 112z" />
    <glyph glyph-name="uni1EE2" unicode="&#x1ee2;" horiz-adv-x="1490" 
d="M1300 1395q134 -95 191 -264.5t25 -393.5q-49 -348 -265.5 -552.5t-533.5 -204.5q-320 0 -478.5 203.5t-109.5 553.5q47 349 265.5 556.5t535.5 207.5q84 0 147 -14q59 5 107 35t76 86h210q-56 -139 -170 -213zM1137 731q34 251 -32.5 369.5t-213.5 118.5t-248.5 -119
t-136.5 -369q-32 -244 36 -356.5t216 -112.5t246.5 112.5t132.5 356.5zM526 -330l37 246h262l-32 -246h-267z" />
    <glyph glyph-name="uni1EE3" unicode="&#x1ee3;" horiz-adv-x="1173" 
d="M1008 961q80 -76 114 -189t15 -250q-34 -238 -205.5 -390t-411.5 -152q-238 0 -365.5 151.5t-93.5 390.5q33 246 207 400.5t408 154.5q88 0 155 -20q86 27 130 110h210q-53 -132 -163 -206zM791 535q9 53 4.5 110.5t-17.5 105t-47.5 78.5t-85.5 31q-52 0 -94.5 -30
t-70 -80t-45 -104t-25.5 -111q-4 -43 -6 -88.5t7.5 -89.5t25 -78.5t46 -56t72.5 -21.5q51 0 94 32t71 83.5t45.5 106.5t25.5 112zM348 -330l37 246h262l-33 -246h-266z" />
    <glyph glyph-name="uni1EE4" unicode="&#x1ee4;" horiz-adv-x="1488" 
d="M1389 588q-21 -142 -69 -250.5t-130.5 -190.5t-208 -124.5t-291.5 -42.5q-134 0 -233.5 28t-162 80.5t-98 128t-41 170.5t8.5 207l125 887h352l-125 -910q-23 -150 38.5 -224.5t176.5 -74.5q116 0 197.5 74t105.5 225l125 910h352zM760 -84l-35 -246h-266l39 246h262z
" />
    <glyph glyph-name="uni1EE5" unicode="&#x1ee5;" horiz-adv-x="1224" 
d="M387 -20q-140 0 -231 89.5t-72 237.5l104 750h351l-101 -713q-9 -60 23 -96.5t100 -36.5q123 0 178 123l103 723h350l-154 -1057h-258l-18 178q-74 -97 -179 -147.5t-196 -50.5zM666 -84l-35 -246h-266l38 246h263z" />
    <glyph glyph-name="uni1EE6" unicode="&#x1ee6;" horiz-adv-x="1511" 
d="M696 1964l52 -133q73 45 126 45q27 0 47 -11t17 -34q-6 -32 -36 -59.5t-101 -71.5l67 -113q42 32 62.5 48t53 45t48.5 50t30.5 50t18.5 59q12 82 -40.5 131t-143.5 49q-30 0 -66.5 -9t-57 -16.5t-77.5 -29.5zM1389 588q-21 -142 -69 -250.5t-130.5 -190.5t-208 -124.5
t-291.5 -42.5q-134 0 -233.5 28t-162 80.5t-98 128t-41 170.5t8.5 207l125 887h352l-125 -910q-23 -150 38.5 -224.5t176.5 -74.5q116 0 197.5 74t105.5 225l125 910h352z" />
    <glyph glyph-name="uni1EE7" unicode="&#x1ee7;" horiz-adv-x="1224" 
d="M522 1540l51 -133q76 45 129 45q26 0 45.5 -11t16.5 -34q-6 -33 -35.5 -60.5t-99.5 -70.5l65 -113q52 40 78 61t61 55t52.5 66.5t23.5 69.5q12 82 -40.5 131t-145.5 49q-30 0 -66.5 -9t-57 -16.5t-77.5 -29.5zM387 -20q-140 0 -231 89.5t-72 237.5l104 750h351l-101 -713
q-9 -60 23 -96.5t100 -36.5q123 0 178 123l103 723h350l-154 -1057h-258l-18 178q-74 -97 -179 -147.5t-196 -50.5z" />
    <glyph glyph-name="uni1EE8" unicode="&#x1ee8;" horiz-adv-x="1468" 
d="M1217 1706l-562 -139l-32 153l542 213zM1870 1612q-51 -128 -152 -200t-227 -81l-102 -743q-21 -142 -69 -250.5t-130.5 -190.5t-208 -124.5t-291.5 -42.5q-134 0 -233.5 28t-162 80.5t-98 128t-41 170.5t8.5 207l125 887h352l-125 -910q-23 -150 38.5 -224.5
t176.5 -74.5q116 0 197.5 74t105.5 225l125 910h301v10q62 0 115 30.5t84 90.5h211z" />
    <glyph glyph-name="uni1EE9" unicode="&#x1ee9;" horiz-adv-x="1236" 
d="M995 1282l-559 -139l-33 153l541 213zM1436 1176q-79 -190 -265 -258l-133 -918h-258l-18 178q-74 -97 -179 -147.5t-196 -50.5q-140 0 -231 89.5t-72 237.5l104 750h351l-101 -713q-9 -60 23 -96.5t100 -36.5q123 0 178 123l103 723h215q52 6 96.5 36.5t71.5 82.5h211z
" />
    <glyph glyph-name="uni1EEA" unicode="&#x1eea;" horiz-adv-x="1468" 
d="M1212 1706l-63 -137l-533 143l99 219zM1870 1612q-51 -128 -152 -200t-227 -81l-102 -743q-21 -142 -69 -250.5t-130.5 -190.5t-208 -124.5t-291.5 -42.5q-134 0 -233.5 28t-162 80.5t-98 128t-41 170.5t8.5 207l125 887h352l-125 -910q-23 -150 38.5 -224.5t176.5 -74.5
q116 0 197.5 74t105.5 225l125 910h301v10q62 0 115 30.5t84 90.5h211z" />
    <glyph glyph-name="uni1EEB" unicode="&#x1eeb;" horiz-adv-x="1236" 
d="M991 1282l-65 -137l-531 143l97 219zM1436 1176q-79 -190 -265 -258l-133 -918h-258l-18 178q-74 -97 -179 -147.5t-196 -50.5q-140 0 -231 89.5t-72 237.5l104 750h351l-101 -713q-9 -60 23 -96.5t100 -36.5q123 0 178 123l103 723h215q52 6 96.5 36.5t71.5 82.5h211z
" />
    <glyph glyph-name="uni1EEC" unicode="&#x1eec;" horiz-adv-x="1468" 
d="M891 1876q-53 0 -129 -45l-51 133q115 45 158 52q22 3 42 3q91 0 144 -49t43 -131q-6 -37 -23.5 -69.5t-52.5 -66.5t-61 -55t-78 -61l-66 113q70 44 99.5 71.5t35.5 59.5q3 23 -16 34t-45 11zM1870 1612q-51 -128 -152 -200t-227 -81l-102 -743q-21 -142 -69 -250.5
t-130.5 -190.5t-208 -124.5t-291.5 -42.5q-134 0 -233.5 28t-162 80.5t-98 128t-41 170.5t8.5 207l125 887h352l-125 -910q-23 -150 38.5 -224.5t176.5 -74.5q116 0 197.5 74t105.5 225l125 910h301v10q62 0 115 30.5t84 90.5h211z" />
    <glyph glyph-name="uni1EED" unicode="&#x1eed;" horiz-adv-x="1236" 
d="M680 1452q-53 0 -129 -45l-51 133q55 21 77.5 29.5t58.5 17t66 8.5q91 0 144 -49t41 -131q-5 -37 -22.5 -70t-51 -66t-62 -55.5t-79.5 -60.5l-66 113q72 44 101.5 71.5t33.5 59.5q4 23 -15 34t-46 11zM1436 1176q-79 -190 -265 -258l-133 -918h-258l-18 178
q-74 -97 -179 -147.5t-196 -50.5q-140 0 -231 89.5t-72 237.5l104 750h351l-101 -713q-9 -60 23 -96.5t100 -36.5q123 0 178 123l103 723h215q52 6 96.5 36.5t71.5 82.5h211z" />
    <glyph glyph-name="uni1EEE" unicode="&#x1eee;" horiz-adv-x="1468" 
d="M786 1714q-28 0 -52.5 -7t-39 -15.5t-42.5 -27t-46 -28.5l-39 199q55 36 101.5 55t107.5 19q69 0 168 -33t137 -33q49 0 116 35t85 39l18 -209q-112 -55 -217 -55q-63 0 -155.5 30.5t-141.5 30.5zM1870 1612q-51 -128 -152 -200t-227 -81l-102 -743q-21 -142 -69 -250.5
t-130.5 -190.5t-208 -124.5t-291.5 -42.5q-134 0 -233.5 28t-162 80.5t-98 128t-41 170.5t8.5 207l125 887h352l-125 -910q-23 -150 38.5 -224.5t176.5 -74.5q116 0 197.5 74t105.5 225l125 910h301v10q62 0 115 30.5t84 90.5h211z" />
    <glyph glyph-name="uni1EEF" unicode="&#x1eef;" horiz-adv-x="1236" 
d="M565 1290q-28 0 -52.5 -7t-39 -15.5t-42.5 -27t-46 -28.5l-41 199q57 37 103.5 55.5t105.5 18.5q69 0 168.5 -33t136.5 -33q50 0 117 35t86 39l16 -209q-112 -55 -215 -55q-63 0 -155.5 30.5t-141.5 30.5zM1436 1176q-79 -190 -265 -258l-133 -918h-258l-18 178
q-74 -97 -179 -147.5t-196 -50.5q-140 0 -231 89.5t-72 237.5l104 750h351l-101 -713q-9 -60 23 -96.5t100 -36.5q123 0 178 123l103 723h215q52 6 96.5 36.5t71.5 82.5h211z" />
    <glyph glyph-name="uni1EF0" unicode="&#x1ef0;" horiz-adv-x="1468" 
d="M1870 1612q-51 -128 -152 -200t-227 -81l-102 -743q-21 -142 -69 -250.5t-130.5 -190.5t-208 -124.5t-291.5 -42.5q-134 0 -233.5 28t-162 80.5t-98 128t-41 170.5t8.5 207l125 887h352l-125 -910q-23 -150 38.5 -224.5t176.5 -74.5q116 0 197.5 74t105.5 225l125 910
h301v10q62 0 115 30.5t84 90.5h211zM500 -330l39 246h262l-35 -246h-266z" />
    <glyph glyph-name="uni1EF1" unicode="&#x1ef1;" horiz-adv-x="1236" 
d="M1436 1176q-79 -190 -265 -258l-133 -918h-258l-18 178q-74 -97 -179 -147.5t-196 -50.5q-140 0 -231 89.5t-72 237.5l104 750h351l-101 -713q-9 -60 23 -96.5t100 -36.5q123 0 178 123l103 723h215q52 6 96.5 36.5t71.5 82.5h211zM338 -330l37 246h262l-33 -246h-266z
" />
    <glyph glyph-name="Ygrave" unicode="&#x1ef2;" horiz-adv-x="1404" 
d="M705 1931l497 -225l-63 -137l-533 143zM1524 1481l-635 -860l-86 -621h-348l86 621l-396 860h375l236 -563l389 563h379z" />
    <glyph glyph-name="ygrave" unicode="&#x1ef3;" horiz-adv-x="1171" 
d="M530 1507l498 -225l-65 -137l-531 143zM186 -338q-68 0 -120.5 10t-70.5 20l-18 11l33 223l103 -8q54 -3 96 4t64.5 17t40 28.5t21 26t9.5 20.5l14 39l-268 1004h344l137 -631l318 631h340l-561 -1028q-61 -111 -120 -184.5t-119 -113t-116.5 -54.5t-126.5 -15z" />
    <glyph glyph-name="uni1EF4" unicode="&#x1ef4;" horiz-adv-x="1366" 
d="M1524 1481l-635 -860l-86 -621h-348l86 621l-396 860h375l236 -563l389 563h379zM727 -84l-33 -246h-266l37 246h262z" />
    <glyph glyph-name="uni1EF5" unicode="&#x1ef5;" horiz-adv-x="1097" 
d="M184 -338q-68 0 -120.5 10t-70.5 20l-18 11l31 223l105 -8q62 -4 108 5t69.5 27t34 31t17.5 28q1 4 2 5l14 39l-268 1004h344l137 -631l318 631h340l-561 -1028q-61 -111 -120 -184.5t-119 -113t-116.5 -54.5t-126.5 -15zM983 -84l-33 -246h-266l37 246h262z" />
    <glyph glyph-name="uni1EF6" unicode="&#x1ef6;" horiz-adv-x="1382" 
d="M700 1964l52 -133q76 45 129 45q27 0 46 -11t15 -34q-6 -33 -35.5 -60.5t-99.5 -70.5l65 -113q51 38 79.5 60.5t62 55.5t51 66t22.5 70q12 82 -40.5 131t-145.5 49q-30 0 -66.5 -9t-57 -16.5t-77.5 -29.5zM1524 1481l-635 -860l-86 -621h-348l86 621l-396 860h375
l236 -563l389 563h379z" />
    <glyph glyph-name="uni1EF7" unicode="&#x1ef7;" horiz-adv-x="1175" 
d="M537 1540l51 -133q76 45 129 45q27 0 46.5 -11t16.5 -34q-6 -32 -36 -59.5t-101 -71.5l68 -113q42 32 62.5 48t53 45t48.5 50t30.5 50t18.5 59q12 82 -41 131t-144 49q-10 0 -20 -0.5t-22 -3t-20 -4t-22 -5.5t-20.5 -6t-23.5 -8t-22.5 -8t-25.5 -10t-26 -10zM186 -338
q-68 0 -120.5 10t-70.5 20l-18 11l33 223l103 -8q54 -3 96 4t64.5 17t40 28.5t21 26t9.5 20.5l14 39l-268 1004h344l137 -631l318 631h340l-561 -1028q-61 -111 -120 -184.5t-119 -113t-116.5 -54.5t-126.5 -15z" />
    <glyph glyph-name="uni1EF8" unicode="&#x1ef8;" horiz-adv-x="1404" 
d="M1290 1708q-112 -55 -217 -55q-62 0 -154.5 30.5t-140.5 30.5q-28 0 -52.5 -7t-39 -15.5t-43 -26.5t-47.5 -29l-39 199q57 37 103.5 55.5t105.5 18.5q69 0 168 -33t137 -33q49 0 116.5 35t86.5 39zM1524 1481l-635 -860l-86 -621h-348l86 621l-396 860h375l236 -563
l389 563h379z" />
    <glyph glyph-name="uni1EF9" unicode="&#x1ef9;" horiz-adv-x="1171" 
d="M1116 1284q-117 -55 -217 -55q-63 0 -155.5 30.5t-141.5 30.5q-28 0 -52.5 -7t-39 -15.5t-42.5 -27t-46 -28.5l-39 199q55 36 101 55t106 19q70 0 169.5 -33t137.5 -33q49 0 116 35t85 39zM186 -338q-68 0 -120.5 10t-70.5 20l-18 11l33 223l103 -8q54 -3 96 4t64.5 17
t40 28.5t21 26t9.5 20.5l14 39l-268 1004h344l137 -631l318 631h340l-561 -1028q-61 -111 -120 -184.5t-119 -113t-116.5 -54.5t-126.5 -15z" />
    <glyph glyph-name="endash" unicode="&#x2013;" horiz-adv-x="1241" 
d="M1122 631l-30 -248h-1000l35 248h995z" />
    <glyph glyph-name="emdash" unicode="&#x2014;" horiz-adv-x="1884" 
d="M1767 631l-32 -248h-1643l35 248h1640z" />
    <glyph glyph-name="quoteleft" unicode="&#x2018;" horiz-adv-x="561" 
d="M547 1542l-162 -291l109 -10l-43 -317h-332l39 278l266 340h123z" />
    <glyph glyph-name="quoteright" unicode="&#x2019;" horiz-adv-x="548" 
d="M150 862l161 291l-108 10l43 318h329l-38 -279l-267 -340h-120z" />
    <glyph glyph-name="quotesinglbase" unicode="&#x201a;" horiz-adv-x="550" 
d="M-16 -297l166 285l-117 16l45 318h332l-39 -267l-279 -352h-108z" />
    <glyph glyph-name="quotedblleft" unicode="&#x201c;" horiz-adv-x="1034" 
d="M145 862l41 281l267 338h120l-159 -289l108 -12l-45 -318h-332zM621 862l38 281l269 338h121l-162 -289l110 -12l-45 -318h-331z" />
    <glyph glyph-name="quotedblright" unicode="&#x201d;" horiz-adv-x="1077" 
d="M150 862l161 291l-108 10l43 318h329l-38 -279l-267 -340h-120zM625 862l161 291l-110 10l43 318h334l-41 -279l-269 -340h-118z" />
    <glyph glyph-name="quotedblbase" unicode="&#x201e;" horiz-adv-x="1220" 
d="M33 -297l205 285l-115 16l90 318h332l-76 -267l-328 -352h-108zM522 -297l205 285l-115 16l90 318h332l-76 -267l-327 -352h-109z" />
    <glyph glyph-name="dagger" unicode="&#x2020;" horiz-adv-x="1118" 
d="M1094 1030l-41 -297l-365 49l-92 -1112h-328l219 1106l-378 -49l41 299l360 -47l12 502h330l-123 -496z" />
    <glyph glyph-name="daggerdbl" unicode="&#x2021;" horiz-adv-x="1120" 
d="M686 748l-57 -408l377 49l-41 -299l-361 47l-8 -467h-332l119 461l-365 -47l41 299l363 -49l59 409l-377 -53l39 301l359 -47l20 537h330l-129 -533l367 47l-43 -299z" />
    <glyph glyph-name="bullet" unicode="&#x2022;" horiz-adv-x="753" 
d="M371 471q-121 0 -195 88t-57 213q15 109 104 185.5t199 76.5q122 0 196.5 -89t55.5 -212q-15 -109 -104 -185.5t-199 -76.5z" />
    <glyph glyph-name="ellipsis" unicode="&#x2026;" horiz-adv-x="1918" 
d="M496 362l-52 -362h-372l51 362h373zM1174 362l-50 -362h-374l51 362h373zM1851 362l-49 -362h-372l49 362h372z" />
    <glyph glyph-name="perthousand" unicode="&#x2030;" horiz-adv-x="2795" 
d="M596 1503q107 0 189.5 -61.5t120.5 -163.5t22 -219q-24 -163 -144.5 -279t-275.5 -116q-110 0 -194.5 59.5t-123 159.5t-22.5 217q25 165 149 284t279 119zM1765 1497l-1200 -1505l-217 4l1200 1501h217zM502 840q72 0 116.5 67t59.5 191q16 118 -2.5 174.5t-79.5 56.5
q-69 0 -114.5 -71.5t-63.5 -200.5q-14 -111 4 -164t80 -53zM1485 817q108 0 190.5 -61t120 -162.5t21.5 -216.5q-24 -165 -145 -281t-277 -116q-110 0 -193.5 59.5t-121 159.5t-21.5 217q24 165 147.5 283t278.5 118zM2335 817q109 0 192 -61t120.5 -162.5t21.5 -216.5
q-25 -165 -145 -281t-275 -116q-111 0 -195 59.5t-122 159.5t-21 217q23 164 146.5 282.5t277.5 118.5zM1391 156q138 0 178 258q16 117 -2.5 174t-79.5 57q-71 0 -117 -71.5t-61 -198.5q-16 -111 2.5 -165t79.5 -54zM2243 156q138 0 178 258q14 117 -4 174t-78 57
q-70 0 -116 -71.5t-64 -198.5q-14 -112 4.5 -165.5t79.5 -53.5z" />
    <glyph glyph-name="guilsinglleft" unicode="&#x2039;" horiz-adv-x="663" 
d="M367 496l94 -371h-170l-180 401l272 392h201z" />
    <glyph glyph-name="guilsinglright" unicode="&#x203a;" horiz-adv-x="663" 
d="M276 526l-92 392h168l180 -422l-272 -371h-199z" />
    <glyph glyph-name="fraction" unicode="&#x2044;" horiz-adv-x="548" 
d="M999 1497l-1202 -1505l-215 4l1200 1501h217z" />
    <glyph glyph-name="uni2070" unicode="&#x2070;" horiz-adv-x="864" 
d="M582 1731q171 0 259.5 -135t59.5 -349q-31 -213 -154.5 -343t-297.5 -130q-175 0 -263 130t-59 343q29 214 156 349t299 135zM471 946q77 0 120.5 69t65.5 232q24 165 -0.5 238.5t-99.5 73.5q-74 0 -119.5 -74t-70.5 -238q-21 -160 4 -230.5t100 -70.5z" />
    <glyph glyph-name="uni2074" unicode="&#x2074;" horiz-adv-x="868" 
d="M608 1710h217l-80 -553h136l-23 -168h-135l-29 -211h-221l31 211h-410l23 162zM303 1157h227l43 318z" />
    <glyph glyph-name="uni2075" unicode="&#x2075;" horiz-adv-x="837" 
d="M311 1710h613l-33 -178h-436l-43 -191q48 16 71 22.5t57 12.5t68 6q149 0 229 -79t60 -220q-20 -149 -133 -233t-287 -84q-133 0 -233 51.5t-140 136.5l179 111q29 -43 49 -66t57.5 -42t85.5 -19q76 0 125.5 38.5t58.5 98.5q6 58 -29.5 94.5t-107.5 36.5q-57 0 -147 -43
q-15 -5 -18.5 -5t-16.5 7l-137 80z" />
    <glyph glyph-name="uni2076" unicode="&#x2076;" horiz-adv-x="841" 
d="M596 1731q123 0 202.5 -67.5t86.5 -141.5l-197 -58q-20 48 -45 71.5t-72 23.5q-86 0 -139 -67t-61 -179q86 31 125.5 40t83.5 9q144 0 220.5 -77.5t57.5 -199.5q-19 -133 -135 -220t-274 -87q-184 0 -270 122.5t-58 332.5q32 232 160 365t315 133zM502 1202
q-33 0 -73 -12t-64 -27q-17 -11 -19 -39q-12 -80 20 -132t99 -52q56 0 100 38.5t53 96.5q7 59 -26.5 93t-89.5 34z" />
    <glyph glyph-name="uni2077" unicode="&#x2077;" horiz-adv-x="765" 
d="M225 1710h709l-31 -225q-133 -136 -257 -344t-146 -363h-236q11 60 40.5 140t80.5 181t134.5 216.5t185.5 216.5h-506z" />
    <glyph glyph-name="uni2078" unicode="&#x2078;" horiz-adv-x="839" 
d="M573 1731q151 0 239 -75t71 -186q-5 -41 -25.5 -75t-49.5 -55t-50 -32.5t-39 -17.5q4 -3 14 -8q25 -14 39 -23t37.5 -30t35.5 -42.5t19 -56t2 -75.5q-19 -132 -136 -206.5t-296 -74.5q-168 0 -261.5 64t-76.5 178q20 143 199 209l-17 11q-17 12 -34 27.5t-35 39.5
t-26.5 60t-2.5 77q18 123 125.5 207t267.5 84zM555 1569q-53 0 -93 -27.5t-46 -71.5q-6 -67 63 -88l84 -28q33 -12 73 26.5t46 81.5q6 45 -27.5 76t-99.5 31zM471 936q65 0 106.5 26.5t47.5 71.5q3 36 -13 59.5t-65 39.5l-101 32q-35 14 -81.5 -21.5t-53.5 -90.5
q-8 -56 30.5 -86.5t129.5 -30.5z" />
    <glyph glyph-name="uni2079" unicode="&#x2079;" horiz-adv-x="847" 
d="M422 778q-64 0 -119 20.5t-90 52t-56.5 67t-25.5 69.5l195 57q22 -49 46.5 -72.5t71.5 -23.5q88 0 143.5 74t57.5 188q-78 -63 -207 -63q-144 0 -219.5 76t-58.5 200q19 133 135 220.5t274 87.5q183 0 271 -124t59 -331q-32 -232 -161 -365t-316 -133zM514 1307
q53 0 103 30t53 60q7 86 -23.5 129t-93.5 43q-56 0 -101.5 -38.5t-52.5 -96.5q-9 -59 24.5 -93t90.5 -34z" />
    <glyph glyph-name="colonmonetary" unicode="&#x20a1;" horiz-adv-x="1271" 
d="M1196 1481l-127 -330q88 -108 82 -244l-305 -41q-18 99 -36 134q-32 63 -99 63q-90 0 -158 -90.5t-88 -233.5q-20 -144 25.5 -233.5t136.5 -89.5q30 0 57 13t45 29t36.5 45t27 47t22.5 48l285 -43q-24 -93 -96 -176t-177 -135l-100 -242l-182 4l73 184h-34q-46 0 -90 9
l-82 -197l-181 4l99 250q-115 68 -170.5 193t-32.5 286q30 208 164 354.5t323 186.5l82 199l185 6l-78 -197q61 -6 119 -29l90 220z" />
    <glyph glyph-name="franc" unicode="&#x20a3;" horiz-adv-x="1296" 
d="M1313 1192h-695l-45 -324h482l-41 -280h-477l-25 -174h287l-25 -183h-287l-32 -231h-396l33 229h-180l31 185h174l147 1067h1090z" />
    <glyph glyph-name="lira" unicode="&#x20a4;" horiz-adv-x="1355" 
d="M1255 387q-67 -188 -205 -287.5t-323 -99.5h-758l41 287h60q65 0 114 37.5t72 111.5q12 9 18 64q-1 -1 -4 -2.5t-8 -1.5h-213l21 180h211l-2 119h-189l23 180h166l4 102q5 107 50.5 190t119 133t163 75.5t189.5 25.5q103 0 195.5 -33.5t166.5 -109t99 -182.5l-287 -82
q-21 66 -49 100.5t-82 34.5q-64 0 -110.5 -47t-55.5 -121q-1 -4 -1.5 -15t-1.5 -29.5t-3 -35.5q2 -6 16 -6h262l-26 -180h-246l-2 -119h233l-28 -180h-221q-55 -124 -142 -207h203q85 0 140.5 38.5t90.5 121.5z" />
    <glyph glyph-name="uni20A6" unicode="&#x20a6;" horiz-adv-x="1632" 
d="M1647 905h-129l-39 -289h127l-23 -165h-129l-61 -451h-316l-246 451h-344l-63 -451h-348l63 451h-127l23 165h127l41 287h-127l22 166h127l58 412h348l225 -412h336l57 412h348l-57 -412h129zM1130 616l39 289h-223l158 -289h26zM510 616h229l-157 287h-31z" />
    <glyph glyph-name="uni20A9" unicode="&#x20a9;" horiz-adv-x="2379" 
d="M2423 1106h-408l-59 -135h448l-28 -185h-500l-342 -786h-268l-115 786h-57l-334 -786h-264l-123 786h-303l28 183h246l-20 137h-207l22 182h156l-31 193h338l27 -193h387l80 193h247l27 -191h389l80 191h338l-82 -191h352zM655 1106l21 -137h209l55 137h-285zM1626 971
l57 135h-286l20 -135h209zM729 594l80 192h-107zM1470 594l80 192h-106z" />
    <glyph glyph-name="dong" unicode="&#x20ab;" horiz-adv-x="1116" 
d="M1190 1372l-19 -145h-120l-136 -955h-288l14 80q-62 -48 -120.5 -72t-137.5 -24q-157 0 -236.5 121.5t-48.5 343.5q27 195 143.5 316.5t256.5 121.5q19 0 40 -3t57.5 -12.5t73 -35t64.5 -64.5l27 183h-209l18 145h211l15 109h290l-14 -109h119zM664 571l51 338
q-44 66 -115 66q-159 0 -211 -291q-19 -136 10 -193t99 -57q62 0 110 41t56 96zM55 0l27 162h817l-22 -162h-822z" />
    <glyph glyph-name="Euro" unicode="&#x20ac;" horiz-adv-x="1382" 
d="M803 270q74 0 150.5 45t119.5 103l182 -219q-103 -98 -236.5 -158.5t-275.5 -60.5q-217 0 -360.5 135.5t-179.5 365.5h-195l29 181h158q4 76 10 114l6 41h-156l25 182h180q88 235 266 368.5t404 133.5q154 0 274.5 -66t186.5 -178l-228 -153q-37 41 -59 62t-63.5 42
t-86.5 21q-189 0 -284 -230h299l-25 -180h-328q-7 -34 -14 -88q-3 -22 -8 -67h330l-25 -183h-303q17 -108 71 -159.5t136 -51.5z" />
    <glyph glyph-name="uni20B9" unicode="&#x20b9;" horiz-adv-x="1368" 
d="M1417 1315h-262q47 -59 59 -137h185l-23 -166h-170q-28 -114 -107.5 -198.5t-187.5 -127.5q-13 -1 -21.5 -12.5t-6.5 -22.5l184 -651h-420l-133 631h-442l32 248h439q181 0 243 133h-663l22 166h670q-14 125 -199 125h-454l26 178h1254z" />
    <glyph glyph-name="uni20BA" unicode="&#x20ba;" horiz-adv-x="1433" 
d="M1075 598l316 -68q-45 -90 -97.5 -163.5t-128.5 -143.5t-165 -118t-209 -76.5t-259 -28.5h-313l62 438l-164 -57l-43 182l235 82l17 123l-199 -70l-43 185l272 94l70 504h395l-49 -361l236 82l43 -180l-308 -109l-16 -125l270 95l45 -183l-344 -118l-41 -293h50
q104 5 201 85.5t167 223.5z" />
    <glyph glyph-name="uni2113" unicode="&#x2113;" horiz-adv-x="1218" 
d="M987 414l-405 -434q-77 0 -138.5 13.5t-102.5 39t-70 55.5t-46 70t-25 75.5t-12 77.5q-2 0 -4 -4t-4 -9t-4 -7l-96 -58l-53 201l184 127l59 426q36 256 174 385t347 129q80 0 141.5 -19.5t98.5 -54t60 -82t26 -103t-5 -116.5t-29.5 -119t-47.5 -104.5t-70.5 -99
t-80.5 -89t-97.5 -87.5t-102 -82t-111.5 -85l-24 -18l-6 -51q-10 -78 25 -116.5t108 -38.5q78 0 156.5 46t146.5 124zM625 985l-29 -221q271 212 297 418q16 118 -74 118q-148 0 -194 -315z" />
    <glyph glyph-name="uni2116" unicode="&#x2116;" horiz-adv-x="2406" 
d="M2126 1501q159 0 242.5 -103.5t60.5 -264.5q-19 -141 -120.5 -229.5t-248.5 -88.5q-157 0 -240 100.5t-63 255.5q22 148 125.5 239t243.5 91zM1255 1481h349l-205 -1481h-316l-520 950l-133 -950h-348l207 1481h346l495 -903zM2134 1358q-126 0 -156 -219
q-15 -94 2.5 -137.5t71.5 -43.5q64 0 105.5 56.5t54.5 163.5q12 94 -6 137t-72 43z" />
    <glyph glyph-name="uni2117" unicode="&#x2117;" horiz-adv-x="1697" 
d="M778 -20q-156 0 -290 61.5t-222 166t-128.5 249t-18.5 303.5q28 202 150.5 372.5t306.5 269.5t387 99q155 0 288.5 -62t222 -167t129.5 -249t19 -302q-28 -203 -151 -374t-307 -269t-386 -98zM776 164q253 0 432 163.5t217 432.5q34 253 -93 406t-367 153
q-255 0 -434 -165.5t-216 -432.5q-37 -255 89 -406t372 -151zM518 346l111 787h358q138 0 218.5 -72t62.5 -207q-17 -119 -101 -180.5t-215 -61.5h-180l-37 -266h-217zM795 764h153q40 0 69.5 37t35.5 73q7 54 -21 79.5t-65 25.5h-146z" />
    <glyph glyph-name="uni2120" unicode="&#x2120;" horiz-adv-x="2013" 
d="M385 -12q-136 0 -239 50t-138 136l166 105q38 -60 84 -85.5t133 -25.5q165 0 178 84q4 30 -9 51t-58 35l-195 55q-103 31 -155 98.5t-39 159.5q18 123 130 205t277 82q115 0 203.5 -42t122.5 -118l-164 -104q-22 31 -38 47t-52.5 30.5t-87.5 14.5q-70 0 -109.5 -23
t-44.5 -59v-31.5t19.5 -32t58.5 -28.5l195 -55q211 -63 186 -254q-20 -136 -134 -215.5t-290 -79.5zM848 0l131 926h319l93 -613l264 613h319l-129 -926h-219l96 688l-295 -688h-161l-103 686l-96 -686h-219z" />
    <glyph glyph-name="trademark" unicode="&#x2122;" horiz-adv-x="1970" 
d="M49 731l27 195h753l-26 -195h-266l-103 -731h-217l100 731h-268zM803 0l131 926h319l93 -613l264 613h319l-129 -926h-219l96 688l-295 -688h-161l-103 686l-96 -686h-219z" />
    <glyph glyph-name="uni2126" unicode="&#x2126;" horiz-adv-x="1521" 
d="M879 1229q-138 0 -244 -118t-137 -349q-45 -300 125 -490q49 -30 41 -75l-27 -197h-610l41 289h284q-32 24 -61 53t-60.5 70t-53.5 86t-40 101.5t-19.5 117.5t7.5 133q17 123 78.5 238.5t157.5 208t234 148.5t294 56q132 0 240.5 -41.5t179 -110t115 -157.5t58 -185.5
t-0.5 -191.5q-37 -276 -314 -514q-20 -7 -19 -10q1 -2 9 -2h232l-43 -289h-609l39 274q109 68 199 202t121 335q30 206 -31 312t-186 106z" />
    <glyph glyph-name="estimated" unicode="&#x212e;" horiz-adv-x="1697" 
d="M1450 303q-137 -147 -312.5 -235t-359.5 -88q-156 0 -290 61.5t-222 166t-128.5 249t-18.5 303.5q28 202 150.5 372.5t306.5 269.5t387 99q153 0 286 -60t222.5 -161.5t132 -240.5t22.5 -291q-1 -7 -3 -8t-13 -1h-4h-1104l-82 -579q147 -86 342 -86q156 0 297 62t237 167
h154zM977 1405q-206 0 -371 -105q-12 -1 -21 -11t-12 -23l-59 -430h721l68 497q-147 72 -326 72z" />
    <glyph glyph-name="uni2153" unicode="&#x2153;" horiz-adv-x="1949" 
d="M166 565l94 690l-164 -43l21 150l286 135h113l-131 -932h-219zM1618 1497l-1202 -1505l-215 4l1200 1501h217zM1274 788q56 66 158.5 108t209.5 42q153 0 242 -69t74 -177q-20 -141 -195 -198q77 -24 126.5 -81.5t37.5 -146.5q-13 -88 -82.5 -155t-160.5 -98t-187 -31
q-117 0 -213 51t-137 135l170 108q53 -68 98.5 -95t116.5 -27q66 0 109 30t51 78q7 53 -32 86t-106 35l-129 2l25 170l109 6q67 3 111 35t52 80q5 39 -25.5 65.5t-82.5 26.5q-61 0 -111 -23.5t-112 -80.5z" />
    <glyph glyph-name="uni2154" unicode="&#x2154;" horiz-adv-x="2113" 
d="M41 571l22 158l320 250q140 107 181.5 151.5t47.5 94.5q7 52 -23 82t-85 30q-61 0 -114 -28.5t-103 -106.5l-156 74q86 123 186 181.5t226 58.5q159 0 239.5 -78.5t61.5 -210.5q-10 -72 -52.5 -127.5t-146.5 -143.5l-244 -202h385l-24 -183h-721zM1782 1497l-1200 -1505
l-217 4l1202 1501h215zM1438 788q57 66 159.5 108t208.5 42q154 0 242.5 -68.5t75.5 -177.5q-20 -140 -197 -198q78 -23 127 -81t37 -147q-12 -88 -81 -155t-160.5 -98t-188.5 -31q-115 0 -211 51.5t-137 134.5l170 108q53 -68 98 -95t115 -27q68 0 110.5 30t48.5 78
q9 53 -30 86t-105 35l-129 2l23 170l108 6q67 3 112.5 35t51.5 80q6 38 -24.5 65t-81.5 27q-61 0 -112 -23.5t-114 -80.5z" />
    <glyph glyph-name="oneeighth" unicode="&#x215b;" horiz-adv-x="1992" 
d="M166 565l94 690l-164 -43l21 150l286 135h113l-131 -932h-219zM1618 1497l-1202 -1505l-215 4l1200 1501h217zM1614 936q151 0 238.5 -74.5t70.5 -185.5q-5 -41 -25.5 -75t-49.5 -55t-50 -32.5t-39 -17.5q63 -37 80 -50q85 -70 68 -186q-19 -132 -136 -206t-296 -74
q-168 0 -260.5 63t-77.5 178q20 144 198 209l-17 12q-17 11 -33 26.5t-34 39.5t-26.5 60t-3.5 77q18 123 125.5 207t267.5 84zM1595 774q-53 0 -92 -27t-45 -71q-9 -67 62 -88l86 -29q32 -12 71 27t45 82q6 45 -27.5 75.5t-99.5 30.5zM1511 141q66 0 107 27t47 72
q5 35 -11.5 58.5t-66.5 39.5l-98 33q-37 14 -82.5 -22t-54.5 -91q-8 -56 30 -86.5t129 -30.5z" />
    <glyph glyph-name="threeeighths" unicode="&#x215c;" horiz-adv-x="2189" 
d="M203 1366q56 66 158 108t208 42q154 0 242.5 -68.5t75.5 -177.5q-20 -142 -197 -199q78 -23 127.5 -80.5t38.5 -146.5q-10 -67 -52.5 -122.5t-104 -90t-132.5 -53.5t-141 -19q-117 0 -213 51t-137 135l170 109q53 -69 98 -96t115 -27q68 0 111 30.5t51 78.5q7 53 -32 86
t-106 35l-129 2l25 170l108 6q67 3 111.5 34.5t52.5 79.5q5 39 -25.5 66t-82.5 27q-61 0 -111.5 -24t-112.5 -81zM1812 1497l-1200 -1505l-217 4l1202 1501h215zM1810 936q151 0 238 -74.5t72 -185.5q-5 -41 -26 -75t-50 -55t-49.5 -32t-38.5 -18q61 -37 76 -48
q86 -70 71 -188q-19 -132 -136 -206t-298 -74q-168 0 -260.5 63t-75.5 178q20 145 199 209l-17 12q-17 11 -34 26.5t-35 39.5t-26.5 60t-2.5 77q18 123 125.5 207t267.5 84zM1792 774q-55 0 -94 -27t-45 -71q-6 -67 61 -88l86 -29q33 -12 73 27t46 82q6 45 -27.5 75.5
t-99.5 30.5zM1708 141q65 0 105.5 27t48.5 72q3 35 -13.5 58.5t-64.5 39.5l-101 33q-35 14 -81.5 -22t-53.5 -91q-8 -56 30 -86.5t130 -30.5z" />
    <glyph glyph-name="fiveeighths" unicode="&#x215d;" horiz-adv-x="2191" 
d="M281 1497h614l-35 -178h-434l-45 -191q47 16 71 22.5t58 12.5t68 6q148 0 228 -78.5t60 -220.5q-20 -149 -133 -233t-287 -84q-132 0 -231 51.5t-141 136.5l178 111q29 -43 49 -66t57.5 -42t85.5 -19q76 0 126 38.5t59 98.5q6 58 -28.5 94.5t-106.5 36.5q-60 0 -150 -43
q-15 -5 -18.5 -5t-16.5 7l-137 80zM1815 1497l-1201 -1505l-217 4l1202 1501h216zM1812 936q151 0 238 -74.5t72 -185.5q-5 -41 -26 -75t-50 -55t-49.5 -32t-38.5 -18q61 -37 76 -48q86 -70 71 -188q-19 -132 -136 -206t-298 -74q-168 0 -260.5 63t-75.5 178q20 145 199 209
l-17 12q-17 11 -34 26.5t-35 39.5t-26.5 60t-2.5 77q18 123 125.5 207t267.5 84zM1794 774q-55 0 -94 -27t-45 -71q-6 -67 61 -88l86 -29q33 -12 73 27t46 82q6 45 -27.5 75.5t-99.5 30.5zM1710 141q65 0 105.5 27t48.5 72q3 35 -13.5 58.5t-64.5 39.5l-100 33
q-35 14 -82 -22t-54 -91q-8 -56 30 -86.5t130 -30.5z" />
    <glyph glyph-name="seveneighths" unicode="&#x215e;" horiz-adv-x="2119" 
d="M1743 1497l-1200 -1505l-217 4l1202 1501h215zM195 1495h708l-31 -225q-133 -136 -257 -344t-146 -363h-236q11 60 40.5 140t80.5 181t134.5 216.5t185.5 216.5h-506zM1741 936q151 0 237.5 -74.5t71.5 -185.5q-5 -41 -26 -75t-50 -55t-49.5 -32t-38.5 -18q62 -37 75 -47
q88 -71 73 -189q-19 -132 -136.5 -206t-298.5 -74q-168 0 -260 63t-75 178q20 145 198 209l-17 12q-17 11 -33.5 26.5t-34.5 39.5t-26.5 60t-2.5 77q18 123 125.5 207t267.5 84zM1722 774q-55 0 -94 -27t-45 -71q-6 -67 62 -88l86 -29q33 -12 72.5 27t45.5 82
q6 45 -27.5 75.5t-99.5 30.5zM1638 141q65 0 105.5 27t48.5 72q3 35 -13.5 58.5t-64.5 39.5l-100 33q-35 14 -81.5 -22t-53.5 -91q-8 -57 29.5 -87t129.5 -30z" />
    <glyph glyph-name="partialdiff" unicode="&#x2202;" horiz-adv-x="1239" 
d="M305 1147l-80 237q72 44 184.5 80.5t245.5 36.5q139 0 247.5 -48.5t181.5 -147t98 -247t-2 -349.5q-47 -339 -216 -534t-444 -195q-161 0 -271.5 67.5t-155 182t-23.5 259.5q29 204 170 335.5t354 131.5q96 0 150.5 -27.5t99.5 -78.5q39 -19 53 47q6 47 0.5 94t-26 94
t-55.5 82.5t-93 57.5t-133 22q-64 0 -123.5 -17.5t-91.5 -36t-70 -46.5zM524 223h2q100 0 178.5 94.5t112.5 247.5q8 23 9 33.5t-5 36.5q-26 40 -71 68t-99 28q-98 0 -171 -85t-91 -210q-17 -103 21 -158t114 -55z" />
    <glyph glyph-name="emptyset" unicode="&#x2205;" horiz-adv-x="1232" 
d="M1219 1110l-146 -119q59 -118 41 -266q-28 -190 -181.5 -324.5t-344.5 -134.5q-156 0 -273 96l-159 -131l-105 127l162 134q-61 126 -41 272q17 125 92.5 230t189.5 166t240 61q160 0 281 -103l141 117zM319 725q-9 -71 13 -135l526 432q-67 45 -158 45q-137 0 -249 -101
t-132 -241zM967 764q8 66 -11 129l-522 -432q62 -41 148 -41q138 0 251.5 101.5t133.5 242.5z" />
    <glyph glyph-name="uni2206" unicode="&#x2206;" horiz-adv-x="1370" 
d="M-35 0l35 240l618 1241h392l276 -1278l-29 -203h-1292zM379 281h536l-149 841z" />
    <glyph glyph-name="product" unicode="&#x220f;" horiz-adv-x="1460" 
d="M1538 1481l-43 -285h-172l-166 -1196h-360l168 1196h-299l-166 -1196h-361l168 1196h-172l39 285h1364z" />
    <glyph glyph-name="summation" unicode="&#x2211;" horiz-adv-x="1214" 
d="M1061 0h-1071l33 223l489 525l-326 512l33 221h1012l-41 -277h-551l307 -444l-450 -467h606z" />
    <glyph glyph-name="minus" unicode="&#x2212;" horiz-adv-x="1228" 
d="M1157 870l-39 -249h-993l33 249h999z" />
    <glyph glyph-name="radical" unicode="&#x221a;" horiz-adv-x="1452" 
d="M1606 1690l-813 -2020h-347l-182 809l-168 -59l-49 203l430 147l170 -780l658 1700h301z" />
    <glyph glyph-name="infinity" unicode="&#x221e;" horiz-adv-x="1665" 
d="M1559 551v-2q-17 -119 -78 -206t-146.5 -129t-183.5 -42q-61 0 -109.5 16.5t-86.5 51.5t-63 68t-58 87q-11 6 -20.5 -2t-22.5 -31q-5 -4 -49.5 -41.5t-84 -66.5t-108.5 -55.5t-137 -26.5q-74 0 -137.5 28.5t-107 79.5t-63 126t-6.5 163q23 161 139 260t277 99
q50 0 92 -11.5t70.5 -27t58.5 -46.5t48 -54.5t46 -65.5q10 -7 17.5 -8t14.5 4.5t12 12t14 20.5q97 84 148 114q102 62 212 62q157 0 246.5 -105t65.5 -272zM440 381h4q55 0 116.5 44.5t101.5 98.5q22 19 25.5 30t-5.5 44q-78 127 -176 127q-73 0 -129 -54t-68 -136
q-9 -70 27 -112t104 -42zM1223 725h-2q-101 0 -220 -152q-37 -23 -26 -71q81 -121 184 -121q71 0 122.5 59t61.5 133q11 63 -21.5 107.5t-98.5 44.5z" />
    <glyph glyph-name="integral" unicode="&#x222b;" horiz-adv-x="980" 
d="M391 1184q37 268 149.5 397t317.5 129q84 0 142 -23.5t87 -60.5l-90 -227q-78 12 -131 12q-64 0 -103.5 -52t-53.5 -171q-27 -180 -54.5 -535.5t-42.5 -466.5q-38 -274 -152.5 -405t-316.5 -131q-151 0 -227 76l92 233q82 -12 131 -12q62 0 100.5 52.5t55.5 174.5
q24 173 53 536.5t43 473.5z" />
    <glyph glyph-name="approxequal" unicode="&#x2248;" horiz-adv-x="1300" 
d="M1221 920q-66 -93 -154 -140t-176 -47q-57 0 -111 21t-89 46.5t-80.5 46.5t-88.5 21q-71 0 -131 -44.5t-127 -123.5l-98 197q116 96 194 140t168 44q59 0 113 -21t87 -45.5t75.5 -45.5t81.5 -21q70 0 133 46.5t112 119.5zM1161 479q-67 -92 -156.5 -139t-177.5 -47
q-58 0 -112 21t-88.5 45.5t-79.5 45.5t-86 21q-71 0 -132.5 -45t-127.5 -123l-97 199q119 96 197 140t166 44q59 0 113 -21t87 -45.5t75 -45.5t81 -21q71 0 134.5 45.5t109.5 118.5z" />
    <glyph glyph-name="notequal" unicode="&#x2260;" horiz-adv-x="1243" 
d="M1186 813h-307l-129 -225h403l-35 -248l-510 -2l-168 -293h-182l170 293h-307l35 250h415l129 225h-514l35 250h623l164 283h176l-162 -283h199z" />
    <glyph glyph-name="lessequal" unicode="&#x2264;" horiz-adv-x="1228" 
d="M1096 674l-39 -281l-922 377l41 285l1024 381l-41 -308l-631 -223zM1063 289l-37 -250l-997 2l32 248h1002z" />
    <glyph glyph-name="greaterequal" unicode="&#x2265;" horiz-adv-x="1228" 
d="M160 688l631 217l-568 236l39 282l920 -381l-39 -284l-1024 -377zM84 289h997l-34 -248l-998 -2z" />
    <glyph glyph-name="lozenge" unicode="&#x25ca;" horiz-adv-x="1198" 
d="M657 0h-219l-274 756l473 725h219l279 -756zM725 1233l-307 -506l151 -483l308 506z" />
    <glyph glyph-name="i.loclTRK" horiz-adv-x="587" 
d="M618 1481l-45 -314h-352l45 314h352zM541 1057l-150 -1057h-346l145 1057h351z" />
    <glyph glyph-name="g.001" horiz-adv-x="1257" 
d="M1049 205q-13 -95 -39 -173.5t-60.5 -135t-79 -100t-91.5 -70.5t-102.5 -44t-107.5 -23.5t-110 -6.5q-316 0 -469 184l143 146q49 -56 126.5 -80.5t156.5 -26.5q116 0 188.5 61t85.5 175l12 88q-84 -170 -309 -170q-162 0 -256 109.5t-94 312.5q0 176 57.5 317.5t168 225
t255.5 83.5q56 0 107.5 -14.5t101.5 -57.5t68 -110l24 162h344zM735 410l43 327q-4 57 -47.5 88t-93.5 31q-52 0 -93.5 -21t-68 -58t-45 -80t-27.5 -93.5t-12.5 -90.5t-3.5 -79q0 -192 143 -192q75 0 136 52t69 116z" />
    <glyph glyph-name="l.ss01" horiz-adv-x="671" 
d="M86 0l213 1520h350l-213 -1520h-350z" />
    <glyph glyph-name="one.osf" horiz-adv-x="860" 
d="M236 0l151 1098l-262 -68l33 236l456 215h179l-207 -1481h-350z" />
    <glyph glyph-name="two.osf" horiz-adv-x="1292" 
d="M-2 0l35 250l510 397q221 169 287.5 240.5t76.5 150.5q10 82 -37.5 130.5t-134.5 48.5q-47 0 -87 -8.5t-85.5 -30t-90 -65.5t-85.5 -109l-248 116q138 196 298 288.5t360 92.5q252 0 379.5 -125.5t97.5 -333.5q-17 -114 -84.5 -203t-231.5 -227l-387 -323h613l-39 -289
h-1147z" />
    <glyph glyph-name="three.osf" horiz-adv-x="1339" 
d="M221 1264q89 106 253 172.5t333 66.5q244 0 385.5 -109t118.5 -282q-33 -222 -312 -317q57 -17 105.5 -46.5t89 -72.5t59.5 -105.5t9 -136.5q-15 -106 -82.5 -194t-165.5 -143t-211 -85t-225 -30q-185 0 -338.5 81.5t-219.5 212.5l271 175q86 -108 157.5 -151.5
t182.5 -43.5q107 0 176 47.5t80 124.5q12 85 -49.5 137.5t-167.5 55.5l-207 4l39 270l172 8q109 6 180 56t80 126q9 62 -40 106t-130 44q-95 0 -175.5 -38.5t-180.5 -129.5z" />
    <glyph glyph-name="four.osf" horiz-adv-x="1302" 
d="M838 1481h344l-123 -879h215l-37 -268h-215l-47 -334h-350l49 334h-651l34 258zM352 602h361l71 506z" />
    <glyph glyph-name="five.osf" horiz-adv-x="1376" 
d="M358 1481h977l-55 -283h-690l-70 -303q78 26 112.5 36t90 20t108.5 10q236 0 363.5 -126.5t97.5 -351.5q-34 -236 -213.5 -369.5t-455.5 -133.5q-211 0 -368.5 82t-223.5 217l282 178q28 -41 46 -65.5t47 -54t57 -45.5t68 -27t87 -11q124 0 202.5 61.5t90.5 155.5
q11 93 -44 152t-171 59q-53 0 -104 -16t-131 -54q-24 -8 -29.5 -7.5t-25.5 11.5l-218 127z" />
    <glyph glyph-name="six.osf" horiz-adv-x="1351" 
d="M850 1497q102 0 189.5 -32.5t143.5 -83t89.5 -107t38.5 -109.5l-314 -92q-31 76 -71.5 114t-112.5 38q-138 0 -222.5 -106.5t-96.5 -287.5q132 51 194.5 65.5t136.5 14.5q227 0 350 -122.5t95 -315.5q-19 -139 -110.5 -251t-234 -175t-307.5 -63q-293 0 -430.5 195.5
t-91.5 527.5q51 368 254 579t500 211zM700 657q-51 0 -115 -18.5t-102 -40.5q-15 -11 -21 -24t-9 -42q-19 -127 32 -209.5t156 -82.5q90 0 161 62t83 155q13 93 -41 146.5t-144 53.5z" />
    <glyph glyph-name="seven.osf" horiz-adv-x="1218" 
d="M186 1481h1129l-49 -359q-98 -99 -202 -236t-196 -288.5t-158.5 -311t-84.5 -286.5h-377q14 74 45 167.5t89.5 220.5t134.5 256t189.5 276t245.5 278h-805z" />
    <glyph glyph-name="eight.osf" horiz-adv-x="1327" 
d="M793 1501q240 0 378.5 -118t112.5 -296q-7 -52 -31.5 -98.5t-54.5 -76.5t-66.5 -55t-61.5 -37t-46 -19q85 -48 108 -65q155 -112 128 -310q-20 -139 -113 -240.5t-241 -153.5t-337 -52q-175 0 -300.5 43.5t-188 130.5t-45.5 208q31 230 315 334l-27 18q-27 18 -53.5 43
t-55 63.5t-42 95.5t-4.5 122q18 126 98 230.5t218 168.5t309 64zM762 1243q-85 0 -147 -43.5t-72 -114.5q-13 -105 98 -139l137 -45q52 -18 115 43.5t72 130.5q9 71 -44 119.5t-159 48.5zM631 238q103 0 167.5 42t75.5 115q7 54 -19.5 92t-104.5 64l-158 53
q-58 21 -131 -35.5t-86 -144.5q-12 -90 49 -138t207 -48z" />
    <glyph glyph-name="nine.osf" horiz-adv-x="1353" 
d="M557 -16q-102 0 -190.5 32t-144.5 82.5t-89.5 107t-38.5 109.5l309 93q35 -77 75.5 -114.5t113.5 -37.5q139 0 227.5 117.5t91.5 296.5q-124 -101 -329 -101q-227 0 -348 122t-95 317q19 140 110 252t232.5 174.5t306.5 62.5q292 0 432 -195.5t95 -527.5
q-52 -369 -257 -579.5t-501 -210.5zM705 823q81 0 160 48.5t85 95.5q12 137 -36.5 205.5t-147.5 68.5q-91 0 -161.5 -62t-82.5 -155q-14 -93 39.5 -147t143.5 -54z" />
    <glyph glyph-name="zero.tf" horiz-adv-x="1425" 
d="M864 1503q180 0 307 -96.5t179.5 -271t21.5 -398.5q-47 -340 -244.5 -546.5t-474.5 -206.5q-184 0 -310.5 93.5t-179 264.5t-22.5 395q31 224 133 398.5t256 271t334 96.5zM690 258q123 0 192.5 110t104.5 367q38 262 -2 379t-160 117q-119 0 -191.5 -117t-111.5 -379
q-33 -256 7 -366.5t161 -110.5z" />
    <glyph glyph-name="one.tf" horiz-adv-x="1605" 
d="M1038 324h324v-324h-1073v324h379v782l-375 -98v299l581 174h164v-1157z" />
    <glyph glyph-name="two.tf" horiz-adv-x="1423" 
d="M92 0l35 250l510 397q221 171 287 241.5t75 149.5q12 82 -36 130.5t-136 48.5q-46 0 -85.5 -8.5t-85 -30t-90 -65.5t-85.5 -109l-248 116q138 196 297 288.5t359 92.5q252 0 380 -125.5t97 -333.5q-17 -114 -83.5 -203t-229.5 -227l-387 -323h612l-41 -289h-1145z" />
    <glyph glyph-name="three.tf" horiz-adv-x="1368" 
d="M276 1262q89 106 252.5 172.5t333.5 66.5q244 0 385.5 -108.5t118.5 -282.5q-33 -223 -311 -317q56 -16 104.5 -45.5t88.5 -73t58.5 -106t8.5 -136.5q-15 -106 -82.5 -194t-165 -143t-210.5 -85t-226 -30q-184 0 -336.5 81.5t-218.5 212.5l270 175q83 -107 155.5 -150
t184.5 -43q107 0 175 47t79 123q13 84 -48.5 136.5t-166.5 55.5l-207 5l39 270l172 8q107 6 178.5 56t81.5 126q9 62 -40 106t-130 44q-96 0 -176 -38.5t-180 -129.5z" />
    <glyph glyph-name="four.tf" horiz-adv-x="1425" 
d="M926 1481h344l-125 -879h215l-37 -268h-213l-47 -334h-350l47 334h-651l36 258zM440 602h361l71 506z" />
    <glyph glyph-name="five.tf" horiz-adv-x="1423" 
d="M412 1481h974l-53 -283h-692l-70 -303q80 26 114.5 36t90.5 20t109 10q115 0 207 -32t153.5 -91.5t87.5 -150.5t10 -204q-32 -236 -211.5 -369.5t-455.5 -133.5q-211 0 -368.5 82t-223.5 217l283 178q28 -41 46 -65.5t47 -54t57 -45.5t68 -27t87 -11q122 0 201.5 61.5
t91.5 155.5q11 93 -44 152t-171 59q-54 0 -104.5 -16t-133.5 -54q-23 -8 -28 -7.5t-25 11.5l-219 127z" />
    <glyph glyph-name="six.tf" horiz-adv-x="1425" 
d="M913 1497q81 0 154.5 -21.5t126 -56.5t92 -79t61 -88.5t25.5 -86.5l-311 -92q-33 77 -73.5 114.5t-113.5 37.5q-137 0 -222 -107t-97 -287q134 51 196.5 65.5t135.5 14.5q228 0 350 -122t94 -316q-19 -139 -110.5 -251t-233.5 -175t-307 -63q-194 0 -322.5 89.5
t-178.5 252t-21 381.5q52 368 255.5 579t499.5 211zM764 657q-52 0 -116 -18.5t-101 -40.5q-16 -11 -22.5 -23.5t-10.5 -42.5q-19 -127 32.5 -209.5t158.5 -82.5q90 0 160 62t83 155t-41 146.5t-143 53.5z" />
    <glyph glyph-name="seven.tf" horiz-adv-x="1476" 
d="M246 1481h1163v-359q-84 -98 -168.5 -235.5t-155.5 -289t-115.5 -311t-45.5 -286.5h-402q4 93 34 216t89 276.5t166.5 331.5t247.5 341h-813v316z" />
    <glyph glyph-name="eight.tf" horiz-adv-x="1427" 
d="M866 1501q242 0 381 -118t113 -296q-7 -52 -32 -98.5t-55 -76.5t-66.5 -55t-62 -37t-46.5 -19q87 -48 116 -70q145 -111 119 -305q-29 -210 -215 -328t-473 -118q-175 0 -301 43.5t-189 130.5t-46 208q33 230 317 334q-1 1 -28 18.5t-53.5 42.5t-55 63.5t-42.5 95.5
t-5 122q19 126 99 230.5t217.5 168.5t307.5 64zM838 1243q-85 0 -148 -43.5t-72 -114.5q-13 -104 99 -139l135 -45q52 -18 115.5 43.5t72.5 130.5q9 71 -43.5 119.5t-158.5 48.5zM707 238q103 0 166.5 42t74.5 115q7 55 -19 92.5t-104 63.5l-157 53q-58 21 -131 -35.5
t-86 -144.5q-12 -90 49 -138t207 -48z" />
    <glyph glyph-name="nine.tf" horiz-adv-x="1429" 
d="M610 -16q-102 0 -190 32t-144 82.5t-90 107t-39 109.5l312 93q33 -77 73.5 -114.5t114.5 -37.5q139 0 227 117t91 297q-124 -101 -328 -101q-228 0 -349 122t-95 317q31 213 215 351t436 138q292 0 431 -195.5t93 -527.5q-51 -369 -256 -579.5t-502 -210.5zM758 823
q82 0 161 48t85 96q13 136 -36 205t-149 69q-90 0 -161 -62t-83 -155q-13 -93 40.5 -147t142.5 -54z" />
    <glyph glyph-name="zero.subs" horiz-adv-x="866" 
d="M424 598q171 0 259.5 -134.5t59.5 -348.5q-31 -213 -154.5 -343t-297.5 -130q-175 0 -263 130t-59 343q29 214 156 348.5t299 134.5zM313 -186q77 0 121.5 69.5t65.5 231.5q24 164 -1 237.5t-100 73.5q-74 0 -119.5 -73.5t-70.5 -237.5q-21 -160 4 -230.5t100 -70.5z" />
    <glyph glyph-name="one.subs" horiz-adv-x="638" 
d="M39 -338l94 690l-164 -43l21 150l286 135h113l-131 -932h-219z" />
    <glyph glyph-name="two.subs" horiz-adv-x="802" 
d="M-86 -338l23 158l319 250q141 108 182 151.5t47 93.5q7 52 -23 82.5t-85 30.5q-61 0 -114 -28.5t-103 -106.5l-156 74q86 123 186 181t226 58q159 0 239.5 -78.5t61.5 -210.5q-10 -72 -52.5 -127t-146.5 -143l-244 -203h385l-24 -182h-721z" />
    <glyph glyph-name="three.subs" horiz-adv-x="796" 
d="M74 451q55 66 157.5 107.5t208.5 41.5q154 0 242.5 -68.5t75.5 -177.5q-20 -141 -197 -198q78 -23 127.5 -81t38.5 -147q-13 -88 -82.5 -155t-160.5 -98t-187 -31q-117 0 -213 51t-137 135l170 109q53 -69 98 -96t115 -27q68 0 111 30t51 78q7 53 -32 86t-106 35l-129 2
l25 170l108 6q67 3 111.5 35t52.5 80q5 39 -25.5 65.5t-82.5 26.5q-61 0 -111.5 -23.5t-112.5 -80.5z" />
    </font>
</defs>
</svg>
