<?xml version="1.0" standalone="no"?>
<!DOCTYPE svg PUBLIC "-//W3C//DTD SVG 1.1//EN" "http://www.w3.org/Graphics/SVG/1.1/DTD/svg11.dtd" >
<svg xmlns="http://www.w3.org/2000/svg" xmlns:xlink="http://www.w3.org/1999/xlink" version="1.1">
<metadata>
Created by FontForge 20201107 at Thu Jun 12 13:50:19 2025
 By 
copyright missing
</metadata>
<defs>
<font id="PublicSans-ExtraLight" horiz-adv-x="1175" >
  <font-face 
    font-family="Public Sans ExtraLight"
    font-weight="200"
    font-stretch="normal"
    units-per-em="2048"
    panose-1="0 0 3 0 0 0 0 0 0 0"
    ascent="1597"
    descent="-451"
    x-height="1059"
    cap-height="1481"
    bbox="-705 -475 2542 2019"
    underline-thickness="102"
    underline-position="-204"
    unicode-range="U+000D-FB02"
  />
<missing-glyph horiz-adv-x="1429" 
d="M1192 1692q35 0 35 -43v-1921q0 -31 -15.5 -44.5t-50.5 -13.5h-893q-31 0 -43 11.5t-12 37.5v1926q0 47 39 47h940zM1124 1556q0 15 -8.5 25t-21.5 10h-705l735 -1708v1673zM317 -188q0 -21 10 -31t35 -10h687l-732 1695v-1654z" />
    <glyph glyph-name="fi" unicode="fi" horiz-adv-x="1333" 
d="M1147 1522v-219h-143v219h143zM727 1059v-101h-274v-958h-131v958h-238v101h238v170q0 252 239 252h176v-99h-168q-66 0 -92 -36.5t-26 -114.5v-172h276zM1141 1059v-1059h-129v1059h129z" />
    <glyph glyph-name="fl" unicode="fl" horiz-adv-x="1425" 
d="M1227 -10q-230 0 -230 268v1264h129v-1254q0 -89 33 -132.5t86 -45.5h62v-88q-43 -12 -80 -12zM727 1059v-101h-274v-958h-131v958h-238v101h238v170q0 252 239 252h176v-99h-168q-66 0 -92 -36.5t-26 -114.5v-172h276z" />
    <glyph glyph-name="f_f.liga" unicode="ff" horiz-adv-x="1597" 
d="M1503 1059v-101h-276v-958h-129v958h-240v101h240v170q0 252 239 252h176v-99h-167q-68 0 -94.5 -37t-26.5 -114v-172h278zM719 1059v-101h-277v-958h-131v958h-237v101h237v164q0 252 240 252h176v-101h-168q-66 0 -92.5 -36t-26.5 -113v-166h279z" />
    <glyph glyph-name="colon_one_eight_F_colon.liga" unicode="&#x3a;&#x31;&#x38;F&#x3a;" horiz-adv-x="1572" 
d="M33 1559h1509q23 0 23 -25v-1507q0 -27 -23 -27h-1509q-25 0 -25 27v1507q0 25 25 25zM762 479q71 0 122.5 52t51.5 124q0 93 -76 144q55 52 55 119q0 63 -45.5 108t-107.5 45q-67 0 -112.5 -44.5t-45.5 -108.5t55 -119q-75 -51 -75 -144q0 -73 52 -124.5t126 -51.5z
M498 498v557q0 10 -9 10h-137q-8 0 -8 -10v-54q0 -8 8 -8h74v-495q0 -9 8 -9h55q9 0 9 9zM1253 1001v54q0 10 -8 10h-215q-8 0 -8 -10v-557q0 -9 8 -9h53q13 0 13 9v254h125q8 0 8 8v51q0 10 -8 10h-125v172h149q8 0 8 8zM762 836q-37 0 -61.5 23t-24.5 59q0 35 24.5 59
t61.5 24q34 0 58 -24t24 -59q0 -36 -24 -59t-58 -23zM762 760q43 0 72.5 -30.5t29.5 -74.5q0 -43 -29.5 -73.5t-72.5 -30.5q-44 0 -75.5 30.5t-31.5 73.5q0 44 31.5 74.5t75.5 30.5z" />
    <glyph glyph-name="colon_f_l_a_g_two_colon.liga" unicode="&#x3a;flag&#x32;&#x3a;" horiz-adv-x="2361" 
d="M88 1559h2185v-1557h-2185v1557zM2144 1321v109h-1095v-109h1095zM283 1198h127v121h-127v-121zM764 1198h125v121h-125v-121zM524 1079h125v119h-125v-119zM1049 1081h1095v113h-1095v-113zM285 958h125v121h-125v-121zM889 1079h-125v-121h125v121zM649 958h-125v-118
h125v118zM1049 842h1095v112h-1095v-112zM410 840h-125v-121h125v121zM889 840h-125v-121h125v121zM1049 602h1095v113h-1095v-113zM2144 475h-1931v-113h1931v113zM215 129h1929v107h-1929v-107z" />
    <glyph glyph-name="colon_f_l_a_g_colon.liga" unicode="&#x3a;flag&#x3a;" horiz-adv-x="2361" 
d="M88 1559h2185v-1557h-2185v1557zM2152 1438h-1945v-838h1945v119h-1105v121h1105v118h-1105v121h1105v119h-1105v121h1105v119zM446 1319v-121h-118v121h118zM926 1319v-121h-119v121h119zM686 1198v-119h-119v119h119zM446 1079v-121h-118v121h118zM926 1079v-121h-119
v121h119zM686 958v-118h-119v118h119zM446 840v-121h-118v121h118zM926 840v-121h-119v121h119zM2152 479h-1945v-119h1945v119zM207 121h1945v119h-1945v-119z" />
    <glyph glyph-name=".notdef" horiz-adv-x="1429" 
d="M1192 1692q35 0 35 -43v-1921q0 -31 -15.5 -44.5t-50.5 -13.5h-893q-31 0 -43 11.5t-12 37.5v1926q0 47 39 47h940zM1124 1556q0 15 -8.5 25t-21.5 10h-705l735 -1708v1673zM317 -188q0 -21 10 -31t35 -10h687l-732 1695v-1654z" />
    <glyph glyph-name="uni0000" horiz-adv-x="65" 
 />
    <glyph glyph-name="nonmarkingreturn" horiz-adv-x="682" 
 />
    <glyph glyph-name="CR" unicode="&#xd;" horiz-adv-x="483" 
 />
    <glyph glyph-name="space" unicode=" " horiz-adv-x="516" 
 />
    <glyph glyph-name="exclam" unicode="!" horiz-adv-x="495" 
d="M326 1481l-33 -1149h-94l-33 1149h160zM330 195v-195h-168v195h168z" />
    <glyph glyph-name="quotedbl" unicode="&#x22;" horiz-adv-x="802" 
d="M360 1481l-51 -426h-86l-49 426h186zM678 1481l-53 -426h-86l-50 426h189z" />
    <glyph glyph-name="numbersign" unicode="#" horiz-adv-x="1222" 
d="M1135 911h-234l-49 -325h217v-94h-231l-76 -494l-94 14l73 480h-317l-76 -494l-94 14l74 480h-242v94h256l51 325h-241v95h256l73 477l92 -10l-71 -467h317l74 477l94 -10l-72 -467h220v-95zM756 586l49 325h-318l-49 -325h318z" />
    <glyph glyph-name="dollar" unicode="$" horiz-adv-x="1331" 
d="M1194 371q0 -157 -125.5 -265.5t-327.5 -123.5v-207h-129v207q-194 15 -320 112.5t-155 263.5l137 17q36 -136 142 -205.5t264 -69.5q147 0 260 75t113 194q0 106 -62 174t-196 106l-263 76q-169 48 -258.5 133t-89.5 221q-2 171 120.5 286t324.5 132v211h129v-213
q181 -20 289.5 -132.5t117.5 -268.5l-133 -13q-52 299 -342 299q-67 0 -131 -18t-117 -52t-85.5 -91t-32.5 -129q0 -89 61.5 -141t224.5 -103l252 -76q332 -102 332 -399z" />
    <glyph glyph-name="percent" unicode="%" horiz-adv-x="1828" 
d="M463 1503q151 0 243.5 -113t92.5 -311q0 -199 -92.5 -311.5t-243.5 -112.5q-150 0 -244 113t-94 311q0 197 94 310.5t244 113.5zM1503 1497l-995 -1505h-100l997 1505h98zM461 735q107 0 170 95t63 249q0 153 -63 248.5t-170 95.5q-106 0 -169 -96t-63 -248
q0 -153 63 -248.5t169 -95.5zM1366 829q150 0 243 -113.5t93 -309.5q0 -200 -92.5 -313t-243.5 -113q-150 0 -244 113.5t-94 312.5q0 196 94.5 309.5t243.5 113.5zM1364 61q103 0 168 97t65 245q0 149 -65 247t-168 98q-102 0 -166.5 -98.5t-64.5 -246.5t64 -245t167 -97z
" />
    <glyph glyph-name="ampersand" unicode="&#x26;" horiz-adv-x="1372" 
d="M590 1503q157 0 268 -85.5t111 -225.5q0 -220 -363 -406l377 -438q47 54 93.5 167t51.5 259h123q-11 -157 -61.5 -274.5t-138.5 -233.5l227 -266h-154l-153 176q-209 -186 -455 -186q-200 0 -315 104.5t-115 278.5q0 139 83 245.5t257 198.5q-94 99 -140 187.5t-46 183.5
q0 134 98.5 224.5t251.5 90.5zM594 1401q-105 0 -164 -60t-59 -145q0 -79 45 -158t94 -133l35 -37q175 99 238 173t63 151q0 56 -22 98.5t-59 66t-80 34.5t-91 10zM496 733q-127 -70 -198.5 -161.5t-70.5 -200.5q3 -121 92.5 -196t219.5 -75q98 0 192.5 43.5t171.5 116.5z
" />
    <glyph glyph-name="quotesingle" unicode="'" horiz-adv-x="509" 
d="M348 1481l-51 -426h-86l-51 426h188z" />
    <glyph glyph-name="parenleft" unicode="(" horiz-adv-x="595" 
d="M541 1481q-110 -212 -176 -448t-66 -466q0 -432 221 -897h-86q-136 233 -204 443.5t-68 455.5q0 242 79.5 477.5t213.5 434.5h86z" />
    <glyph glyph-name="parenright" unicode=")" horiz-adv-x="612" 
d="M39 1481h86q134 -199 213.5 -434.5t79.5 -477.5q0 -245 -68.5 -455.5t-204.5 -443.5h-86q222 467 222 897q0 231 -65.5 467.5t-176.5 446.5z" />
    <glyph glyph-name="asterisk" unicode="*" horiz-adv-x="733" 
d="M530 854l-153 248l-162 -254l-86 57l184 234l-254 73l33 91l242 -95l-17 273h111l-14 -273l243 105l29 -90l-248 -82l178 -223z" />
    <glyph glyph-name="plus" unicode="+" horiz-adv-x="1114" 
d="M975 799v-109h-363v-364h-108v362h-367v109h365v366h108v-364h365z" />
    <glyph glyph-name="comma" unicode="," horiz-adv-x="458" 
d="M86 -242l113 240l-80 2v193h200v-166l-157 -269h-76z" />
    <glyph glyph-name="hyphen" unicode="-" horiz-adv-x="778" 
d="M637 586v-111l-498 -2v111z" />
    <glyph glyph-name="period" unicode="." horiz-adv-x="428" 
d="M297 197v-197h-170v197h170z" />
    <glyph glyph-name="slash" unicode="/" horiz-adv-x="690" 
d="M33 -102l510 1583h112l-510 -1583h-112z" />
    <glyph glyph-name="zero" unicode="0" horiz-adv-x="1294" 
d="M647 1501q115 0 212 -48.5t170 -141.5t114 -240t41 -334q0 -186 -41 -332t-114 -238t-170 -139.5t-214 -47.5q-116 0 -212 47t-168 139t-112 237t-40 330q0 188 40.5 336t113 241.5t169 142t211.5 48.5zM649 100q182 0 285.5 156t103.5 481q0 328 -105 486.5t-286 158.5
q-179 0 -285 -159.5t-106 -485.5q0 -323 106 -480t287 -157z" />
    <glyph glyph-name="one" unicode="1" horiz-adv-x="774" 
d="M381 0v1319l-297 -113v111l332 164h102v-1481h-137z" />
    <glyph glyph-name="two" unicode="2" horiz-adv-x="1159" 
d="M98 0v129l484 485q171 168 239 269.5t68 212.5q0 60 -20 109t-52 80.5t-74.5 53t-85 30.5t-86.5 9q-113 0 -209.5 -50.5t-156.5 -156.5l-113 48q70 139 194.5 210.5t293.5 71.5q196 0 320.5 -107.5t123.5 -299.5q-1 -128 -71.5 -240t-256.5 -301l-428 -430h772v-123h-942
z" />
    <glyph glyph-name="three" unicode="3" horiz-adv-x="1277" 
d="M154 1255q57 119 188 182.5t287 63.5q215 0 350 -106t135 -265q0 -241 -291 -342q160 -43 248 -143.5t88 -241.5q0 -183 -150.5 -303t-402.5 -120q-174 0 -296 56.5t-210 190.5l115 52q142 -181 395 -181q187 0 295.5 84t108.5 217q0 99 -60 173t-150 109.5t-194 35.5
l-198 2v115l166 2q166 0 279.5 82t113.5 206q0 111 -96.5 185.5t-243.5 74.5q-241 0 -367 -178z" />
    <glyph glyph-name="four" unicode="4" horiz-adv-x="1269" 
d="M805 1481h135v-953h234v-122h-234v-406h-131l2 406h-702v135zM246 528h559v752z" />
    <glyph glyph-name="five" unicode="5" horiz-adv-x="1316" 
d="M252 1481h864l-12 -119h-731l-43 -545q68 39 108 58.5t111.5 38t148.5 18.5q98 0 183.5 -26t154.5 -78.5t109.5 -140.5t40.5 -202q0 -234 -156 -369.5t-403 -135.5q-148 0 -280.5 55.5t-229.5 161.5l94 84q100 -97 184.5 -141t210.5 -44q202 0 319 106t117 279
q0 84 -29 149t-79.5 105t-114.5 60t-139 20q-71 0 -145.5 -22.5t-114.5 -43.5t-107 -61l-7.5 -4.5t-4.5 -2.5t-4 0l-3 1.5t-4.5 3t-6.5 4.5l-90 53z" />
    <glyph glyph-name="six" unicode="6" horiz-adv-x="1239" 
d="M686 1516q161 0 271 -70.5t157 -183.5l-106 -54q-30 45 -55 74.5t-62.5 59t-88 43.5t-114.5 14q-219 0 -332 -203.5t-98 -591.5q35 132 149 210.5t261 78.5q111 0 199.5 -35t145.5 -96.5t87 -142t30 -173.5q0 -206 -137 -329t-350 -123q-250 0 -392 195t-142 546
q0 365 152 573t425 208zM662 776q-157 0 -265 -80.5t-108 -216.5q34 -183 124.5 -275.5t233.5 -92.5q148 0 245 92.5t97 236.5q0 141 -89 238.5t-238 97.5z" />
    <glyph glyph-name="seven" unicode="7" horiz-adv-x="1171" 
d="M84 1481h1008v-133q-200 -286 -378.5 -700.5t-215.5 -647.5h-150q32 159 102.5 368t202 485t289.5 509h-858v119z" />
    <glyph glyph-name="eight" unicode="8" horiz-adv-x="1267" 
d="M631 1501q213 0 343 -112t130 -295q0 -62 -22 -119t-48.5 -91.5t-66.5 -67.5t-57 -43.5t-40 -22.5q5 -2 31.5 -12.5t44 -18.5t48 -25t51.5 -34.5t46.5 -46t41 -60t26 -75t10.5 -93.5q0 -185 -148 -295t-394 -110t-386.5 102.5t-140.5 286.5q0 49 14 97t44.5 99.5t87 99
t133.5 83.5q-17 6 -34 14t-47.5 25.5t-56 43t-50 59.5t-38.5 83t-14 106q0 181 139.5 301.5t352.5 120.5zM633 1384q-150 0 -250 -83.5t-100 -210.5q0 -200 225 -246l217 -51q38 -8 95.5 34.5t103 119.5t45.5 153q0 128 -91.5 206t-244.5 78zM633 96q178 0 284.5 78
t106.5 209q0 102 -54.5 163t-170.5 89l-279 65q-30 7 -77.5 -15t-93.5 -63t-79.5 -106t-33.5 -135q0 -134 104 -209.5t293 -75.5z" />
    <glyph glyph-name="nine" unicode="9" horiz-adv-x="1239" 
d="M545 -20q-158 0 -268.5 71.5t-155.5 184.5l106 53q29 -45 53.5 -75t62 -59.5t87.5 -44t113 -14.5q223 0 339 201.5t101 597.5q-33 -134 -147.5 -214.5t-266.5 -80.5q-218 0 -341.5 128t-123.5 323q0 203 137.5 326.5t348.5 123.5q252 0 394 -194t142 -545
q0 -372 -152 -577t-429 -205zM573 719q153 0 262 85t109 214q-34 182 -124 274t-232 92q-148 0 -244 -91.5t-96 -235.5q0 -140 88 -239t237 -99z" />
    <glyph glyph-name="colon" unicode=":" horiz-adv-x="428" 
d="M297 1008v-197h-170v197h170zM297 201v-195h-170v195h170z" />
    <glyph glyph-name="semicolon" unicode=";" horiz-adv-x="483" 
d="M131 809v197h170v-197h-170zM102 -279l107 279h-70v195h170v-172l-147 -302h-60z" />
    <glyph glyph-name="less" unicode="&#x3c;" horiz-adv-x="1101" 
d="M948 453v-129l-821 321v131l821 330v-137l-651 -258z" />
    <glyph glyph-name="equal" unicode="=" horiz-adv-x="1114" 
d="M975 997v-106l-838 -2v108h838zM975 551v-109h-838v107z" />
    <glyph glyph-name="greater" unicode="&#x3e;" horiz-adv-x="1101" 
d="M152 453l651 258l-653 258v137l821 -330v-131l-819 -321v129z" />
    <glyph glyph-name="question" unicode="?" horiz-adv-x="1062" 
d="M68 1227q65 128 190 201t279 73q198 0 317 -98.5t119 -259.5q0 -72 -23 -137t-59.5 -115.5t-81 -99.5t-89 -98.5t-81 -100.5t-59.5 -117t-23 -139h-119q0 80 22 152t57 127t77 106t84 99t77 95t57 104.5t22 119.5q0 116 -81.5 184t-217.5 68q-108 0 -209.5 -61
t-135.5 -146zM582 195v-195h-168v195h168z" />
    <glyph glyph-name="at" unicode="@" horiz-adv-x="1681" 
d="M1339 -72q-203 -153 -462 -153q-177 0 -323.5 58.5t-243.5 160t-150.5 237t-53.5 289.5q0 161 59 307t162 254.5t253.5 173t324.5 64.5q105 0 203.5 -23t189 -74t158.5 -124t108 -181t40 -237q0 -228 -109 -373t-274 -145q-77 0 -119.5 25.5t-57.5 84.5q-3 13 -8 13
t-14 -11q-104 -141 -281 -141q-113 0 -194.5 98.5t-81.5 253.5q0 194 109 328.5t274 134.5q158 0 233 -133q2 -3 5 -4t6 1.5t4 8.5l18 76h105l-78 -463q-15 -91 7 -129.5t79 -38.5q109 0 183.5 111t74.5 291q0 114 -34.5 208t-91.5 156t-133 105t-157 61.5t-166 18.5
q-156 0 -286 -56t-215 -151.5t-132 -222t-47 -269.5q0 -133 44 -248t127 -203.5t214 -139t295 -50.5q65 0 118 9.5t101 31.5t76.5 39.5t79.5 52.5zM592 492q0 -116 45.5 -183t124.5 -67q101 0 181 86.5t99 208.5q20 144 -38 223.5t-150 79.5q-116 0 -189 -100t-73 -248z" />
    <glyph glyph-name="A" unicode="A" horiz-adv-x="1443" 
d="M104 0l539 1481h160l538 -1481h-137l-157 438h-646l-163 -438h-134zM438 565h568l-281 785z" />
    <glyph glyph-name="B" unicode="B" horiz-adv-x="1361" 
d="M213 0v1481h442q259 0 397 -99t138 -286q0 -126 -66.5 -210t-218.5 -132q322 -61 322 -357q0 -198 -143.5 -297.5t-417.5 -99.5h-453zM342 809h344q55 0 105 7t101 26t87.5 48t60 77.5t23.5 111.5q0 143 -109 214t-299 71h-313v-555zM342 117h317q218 0 327.5 66.5
t109.5 209.5q0 78 -32 136.5t-89 93t-129.5 51t-159.5 16.5h-344v-573z" />
    <glyph glyph-name="C" unicode="C" horiz-adv-x="1409" 
d="M737 1501q226 0 375 -123t170 -303l-139 -12q-29 145 -132.5 231t-273.5 86q-223 0 -338.5 -162t-115.5 -481q0 -313 117.5 -475t351.5 -162q145 0 249 81t136 222l137 -18q-19 -172 -167 -288.5t-355 -116.5q-293 0 -453 199.5t-160 559.5t156 561t442 201z" />
    <glyph glyph-name="D" unicode="D" horiz-adv-x="1404" 
d="M213 1481q1 0 48.5 -0.5t117 -1t123.5 -0.5q404 -3 588 -181.5t184 -545.5q0 -383 -195 -567.5t-600 -184.5h-266v1481zM348 1362v-1241h127q164 0 284.5 33.5t206.5 106.5t128.5 193.5t42.5 290.5q0 175 -42.5 295.5t-129 190.5t-203 100.5t-277.5 30.5h-137z" />
    <glyph glyph-name="E" unicode="E" horiz-adv-x="1267" 
d="M213 0v1481h887v-121h-758v-551h696v-121h-696v-563l782 -2v-123h-911z" />
    <glyph glyph-name="F" unicode="F" horiz-adv-x="1181" 
d="M213 1481h877l-3 -121h-739v-553h678v-119h-678v-688h-135v1481z" />
    <glyph glyph-name="G" unicode="G" horiz-adv-x="1492" 
d="M745 -20q-284 0 -445 200t-161 555q0 361 165 563.5t448 202.5q132 0 251 -58t194 -155t85 -209l-145 -14q-24 135 -131 224t-256 89q-222 0 -346.5 -164.5t-124.5 -465.5q0 -317 124.5 -482.5t348.5 -165.5q82 0 152.5 25.5t118.5 67.5t82.5 95.5t51 108t17.5 107.5
l2 153h-390v103l523 -2v-758h-109v244q-64 -118 -178 -191t-277 -73z" />
    <glyph glyph-name="H" unicode="H" horiz-adv-x="1435" 
d="M1102 709h-760v-709h-129v1481h129v-652h760v652h129v-1481h-129v709z" />
    <glyph glyph-name="I" unicode="I" horiz-adv-x="544" 
d="M213 1481h129v-1481h-129v1481z" />
    <glyph glyph-name="J" unicode="J" horiz-adv-x="772" 
d="M565 315q0 -169 -62 -252t-218 -83q-72 0 -139.5 19t-92.5 34l17 131q9 -4 34.5 -16t43 -19t48.5 -13.5t64 -6.5q98 0 136 55t38 192v1125h131v-1166z" />
    <glyph glyph-name="K" unicode="K" horiz-adv-x="1357" 
d="M1282 0h-158l-501 801l-275 -312v-489h-135v1481h135v-813l729 813h164l-514 -582z" />
    <glyph glyph-name="L" unicode="L" horiz-adv-x="1148" 
d="M213 1481h135v-1356h731v-125h-866v1481z" />
    <glyph glyph-name="M" unicode="M" horiz-adv-x="1769" 
d="M213 0v1481h168l506 -1315l512 1315h168v-1481h-137v1233l-472 -1233h-145l-465 1219v-1219h-135z" />
    <glyph glyph-name="N" unicode="N" horiz-adv-x="1505" 
d="M1171 1481h132v-1481h-115l-846 1249v-1249h-129v1481h117l841 -1243v1243z" />
    <glyph glyph-name="O" unicode="O" horiz-adv-x="1515" 
d="M760 -20q-293 0 -457 196t-164 557q0 368 165.5 568t457.5 200q288 0 451 -199t163 -565q0 -362 -163 -559.5t-453 -197.5zM762 100q471 0 471 637q0 322 -121 482.5t-350 160.5q-232 0 -355.5 -161t-123.5 -482q0 -319 123 -478t356 -159z" />
    <glyph glyph-name="P" unicode="P" horiz-adv-x="1300" 
d="M213 0v1481h475q159 0 280 -51t191 -156t70 -252q0 -218 -143.5 -340.5t-378.5 -122.5h-359v-559h-135zM348 680h357q177 0 284 93t107 257q0 163 -107.5 247.5t-294.5 84.5h-346v-682z" />
    <glyph glyph-name="Q" unicode="Q" horiz-adv-x="1486" 
d="M113 737q0 368 164.5 566t455.5 198q292 0 455.5 -198t163.5 -566q0 -249 -75 -418t-237 -262q82 -177 297 -184v-119q-40 0 -80 5.5t-89 22t-92.5 43t-87.5 71.5t-77 104q-110 -20 -178 -20q-289 0 -454.5 194.5t-165.5 562.5zM258 733q0 -319 122 -476t353 -157
q233 0 355 157.5t122 479.5q0 318 -122 480.5t-355 162.5q-232 0 -353.5 -163.5t-121.5 -483.5z" />
    <glyph glyph-name="R" unicode="R" horiz-adv-x="1376" 
d="M1223 0h-142l-286 674h-453v-674h-129v1481h545q227 0 347 -99t120 -284q0 -71 -18 -131.5t-47 -102.5t-70 -76t-81.5 -54t-86.5 -34zM692 791q398 0 398 292q0 283 -340 283h-408v-575h350z" />
    <glyph glyph-name="S" unicode="S" horiz-adv-x="1406" 
d="M707 -20q-140 0 -260.5 42.5t-204.5 130t-105 205.5l137 17q30 -134 151 -207.5t282 -73.5q179 0 293 76.5t114 198.5q0 226 -266 290l-316 76q-171 39 -259.5 123t-88.5 221q-1 121 63.5 216.5t182.5 149.5t268 54q123 0 222 -33t162 -90.5t99.5 -128.5t45.5 -153
l-133 -13q-13 80 -50 139.5t-91.5 93.5t-118.5 50t-138 16q-67 0 -131 -18t-119 -52t-88.5 -91.5t-33.5 -128.5q0 -91 63.5 -147.5t222.5 -96.5l303 -76q95 -23 163.5 -65t105 -97t53 -113t16.5 -124q0 -169 -144 -280t-400 -111z" />
    <glyph glyph-name="T" unicode="T" horiz-adv-x="1153" 
d="M35 1358v123h1083v-123h-459v-1358h-131v1358h-493z" />
    <glyph glyph-name="U" unicode="U" horiz-adv-x="1447" 
d="M1239 483q0 -250 -126.5 -376.5t-387.5 -126.5q-265 0 -388.5 130.5t-123.5 397.5v973h137v-1004q0 -379 375 -379q189 0 287 95t98 284v1004h129v-998z" />
    <glyph glyph-name="V" unicode="V" horiz-adv-x="1284" 
d="M1253 1481l-530 -1481h-170l-520 1481h133l471 -1338l485 1338h131z" />
    <glyph glyph-name="W" unicode="W" horiz-adv-x="1949" 
d="M1890 1481l-428 -1481h-141l-350 1245l-357 -1245h-135l-420 1481h136l356 -1288l367 1288h110l363 -1288l366 1288h133z" />
    <glyph glyph-name="X" unicode="X" horiz-adv-x="1298" 
d="M1241 0h-164l-434 647l-432 -647h-152l506 758l-485 723h166l403 -607l406 607h151l-481 -715z" />
    <glyph glyph-name="Y" unicode="Y" horiz-adv-x="1167" 
d="M1145 1481l-494 -848v-633h-129v635l-499 846h143l422 -725l416 725h141z" />
    <glyph glyph-name="Z" unicode="Z" horiz-adv-x="1249" 
d="M115 0v82l843 1280h-817v119h996v-80l-850 -1282h848v-119h-1020z" />
    <glyph glyph-name="bracketleft" unicode="[" horiz-adv-x="589" 
d="M207 1481h336v-97h-211l-2 -1617h211v-97h-332z" />
    <glyph glyph-name="backslash" unicode="\" horiz-adv-x="690" 
d="M539 -102l-510 1583h114l510 -1583h-114z" />
    <glyph glyph-name="bracketright" unicode="]" horiz-adv-x="622" 
d="M375 1481v-1811h-332v97h211l-2 1617h-211v97h334z" />
    <glyph glyph-name="asciicircum" unicode="^" horiz-adv-x="966" 
d="M731 268l-252 641l-254 -637h-116l297 734q28 70 73 72t76 -72l299 -738h-123z" />
    <glyph glyph-name="underscore" unicode="_" horiz-adv-x="1038" 
d="M897 -109v-110l-760 -2v110z" />
    <glyph glyph-name="grave" unicode="`" horiz-adv-x="575" 
d="M59 1499l490 -194l-25 -78l-501 155z" />
    <glyph glyph-name="a" unicode="a" horiz-adv-x="1157" 
d="M467 -20q-157 0 -250.5 80.5t-93.5 218.5q0 177 118.5 260t385.5 92l219 6v94q0 114 -76 178t-203 64q-107 0 -183.5 -53.5t-94.5 -151.5h-123q8 131 117.5 221t291.5 90q185 0 291.5 -92t106.5 -252v-735h-115l-8 199q-113 -219 -383 -219zM500 82q79 0 159.5 37.5
t133.5 99.5t53 125v197l-182 -4q-221 -5 -316.5 -62t-95.5 -186q0 -96 68 -151.5t180 -55.5z" />
    <glyph glyph-name="b" unicode="b" horiz-adv-x="1200" 
d="M635 -20q-71 0 -133.5 20t-104 50.5t-66.5 57t-38 50.5l-14 -158h-105v1522h131v-607q14 20 40 43.5t69.5 53t109 48.5t138.5 19q87 0 158.5 -27.5t121.5 -77t84 -118.5t50 -150t16 -174q0 -257 -120 -404.5t-337 -147.5zM612 86q152 0 248 113.5t96 335.5
q0 205 -86 320.5t-243 115.5q-101 0 -185 -51t-137 -136v-401q0 -122 94 -209.5t213 -87.5z" />
    <glyph glyph-name="c" unicode="c" horiz-adv-x="1120" 
d="M590 1079q154 0 268.5 -85t142.5 -240l-124 -4q-30 110 -103.5 163.5t-175.5 53.5q-162 0 -257 -120t-95 -319q0 -202 94.5 -322t257.5 -120q105 0 181.5 57t99.5 160h120q-15 -82 -54 -145t-95 -101t-121.5 -57.5t-138.5 -19.5q-216 0 -343.5 149.5t-127.5 394.5
q0 248 127.5 401.5t343.5 153.5z" />
    <glyph glyph-name="d" unicode="d" horiz-adv-x="1173" 
d="M553 -20q-201 0 -317.5 137.5t-116.5 396.5q0 258 117.5 411.5t330.5 153.5q90 0 165 -32.5t151 -100.5v576h131v-1522h-109l-8 201q-96 -221 -344 -221zM575 86q126 0 217 88.5t91 187.5v447q-125 162 -293 162q-160 0 -250 -117t-90 -332q0 -216 89.5 -326t235.5 -110z
" />
    <glyph glyph-name="e" unicode="e" horiz-adv-x="1150" 
d="M252 498q0 -115 36 -205t115.5 -146.5t194.5 -56.5q229 0 295 205h127q-40 -157 -153 -236t-267 -79q-217 0 -349 143.5t-132 396.5q0 259 123 409t344 150q211 0 327.5 -137t116.5 -381v-63h-778zM254 600h649q0 166 -81 268.5t-238 102.5q-83 0 -148 -32.5t-104 -86
t-59 -118t-19 -134.5z" />
    <glyph glyph-name="f" unicode="f" horiz-adv-x="817" 
d="M727 1059v-101h-274v-958h-131v958h-238v101h238v170q0 252 239 252h176v-99h-168q-66 0 -92 -36.5t-26 -114.5v-172h276z" />
    <glyph glyph-name="g" unicode="g" horiz-adv-x="1245" 
d="M590 -350q-241 0 -371.5 77t-130.5 212q0 44 17 82.5t44.5 65.5t53 45t52 33t30.5 19q-5 3 -24 14.5t-28 19t-22 20.5t-19 29.5t-6 37.5q0 47 44.5 86t127.5 60q-101 53 -144.5 120.5t-43.5 167.5q0 157 118 246.5t320 89.5q179 0 301 -96l248 104v-145l-186 -37
q16 -32 28.5 -80t12.5 -82q0 -142 -107 -234.5t-313 -92.5l-41 2q-86 -2 -141.5 -15.5t-76 -31.5t-20.5 -39q0 -32 45.5 -46t167.5 -22l236 -14q323 -20 323 -279q0 -150 -130 -233.5t-365 -83.5zM596 510q144 0 217.5 58t73.5 171q0 116 -75.5 179t-215.5 63
q-141 0 -219 -64t-78 -178q0 -112 77 -170.5t220 -58.5zM614 -254q342 0 342 209q0 78 -49 121.5t-162 50.5l-327 20q-60 3 -129.5 -55t-69.5 -139q0 -101 102 -154t293 -53z" />
    <glyph glyph-name="h" unicode="h" horiz-adv-x="1173" 
d="M174 0v1522h125v-617q44 75 134 122.5t212 47.5q159 0 264 -84.5t105 -218.5v-772h-129v739q0 105 -71.5 164.5t-192.5 59.5q-136 0 -226 -61t-90 -177v-725h-131z" />
    <glyph glyph-name="i" unicode="i" horiz-adv-x="514" 
d="M330 1522v-219h-144v219h144zM324 1059v-1059h-129v1059h129z" />
    <glyph glyph-name="j" unicode="j" horiz-adv-x="520" 
d="M344 1522v-219h-147v219h147zM334 -78q0 -139 -55.5 -200.5t-198.5 -61.5q-33 0 -58.5 2t-38.5 5t-21.5 6.5t-10.5 5.5l-2 2v86l117 4q75 3 107 39t32 120v1129h129v-1137z" />
    <glyph glyph-name="k" unicode="k" horiz-adv-x="1138" 
d="M1055 0h-148l-354 571l-248 -252v-319h-131v1522h131v-1047l559 584h158l-381 -393z" />
    <glyph glyph-name="l" unicode="l" horiz-adv-x="608" 
d="M410 -10q-230 0 -230 268v1264h129v-1254q0 -89 33 -132.5t86 -45.5h61v-88q-43 -12 -79 -12z" />
    <glyph glyph-name="m" unicode="m" horiz-adv-x="1816" 
d="M174 0v1059h125v-154q43 77 126 125.5t200 48.5q119 0 209 -44t127 -128q99 172 333 172q54 0 101 -9t97 -34.5t85 -66.5t57.5 -111t22.5 -162v-696h-129v688q0 81 -20 138t-58 87t-82 43t-102 13q-55 0 -103 -12t-91 -39t-68 -77.5t-25 -119.5v-721h-129v760
q0 100 -74 154.5t-188 54.5q-48 0 -95.5 -14t-90.5 -41t-70 -74.5t-27 -108.5v-731h-131z" />
    <glyph glyph-name="n" unicode="n" 
d="M174 0v1059h125v-154q46 77 134.5 124.5t211.5 47.5q163 0 267 -100t104 -287v-690h-131v682q0 135 -70.5 208t-193.5 73q-135 0 -225.5 -61.5t-90.5 -176.5v-725h-131z" />
    <glyph glyph-name="o" unicode="o" horiz-adv-x="1153" 
d="M578 -20q-222 0 -345.5 148t-123.5 394q0 250 126 403.5t345 153.5q217 0 340.5 -152.5t123.5 -400.5q0 -247 -123.5 -396.5t-342.5 -149.5zM582 88q164 0 247.5 119.5t83.5 320.5t-85 321t-248 120q-165 0 -252.5 -121t-87.5 -320q0 -198 88 -319t254 -121z" />
    <glyph glyph-name="p" unicode="p" horiz-adv-x="1198" 
d="M174 -330v1389h127v-152q23 27 32.5 38t45 42t67 47t84.5 30.5t111 14.5q95 0 176 -33.5t142 -98.5t96 -167.5t35 -232.5q0 -260 -131 -413.5t-345 -153.5q-184 0 -309 163v-473h-131zM600 86q159 0 261 122t102 331t-102 320.5t-249 111.5q-128 0 -217.5 -84.5
t-89.5 -177.5v-463q133 -160 295 -160z" />
    <glyph glyph-name="q" unicode="q" horiz-adv-x="1193" 
d="M1034 -330h-129v432q-78 -65 -153 -93.5t-162 -28.5q-215 0 -343 153t-128 414q0 257 125 394.5t323 137.5q33 0 63.5 -4t57 -12.5t48.5 -16.5t43.5 -22t35.5 -23.5t31 -25.5t24.5 -23t21.5 -22t15 -17v146h127v-1389zM612 84q155 0 293 174v440q0 103 -88.5 189
t-218.5 86q-70 0 -131 -26.5t-110 -77.5t-77 -135.5t-28 -192.5q0 -210 101 -333.5t259 -123.5z" />
    <glyph glyph-name="r" unicode="r" horiz-adv-x="778" 
d="M174 0v1059h123v-207q58 98 171 162.5t226 64.5v-127q-96 3 -187.5 -39t-146.5 -108.5t-55 -134.5v-670h-131z" />
    <glyph glyph-name="s" unicode="s" horiz-adv-x="1056" 
d="M539 -20q-167 0 -289.5 84t-140.5 227h122q27 -104 107 -155.5t201 -51.5q124 0 198 51.5t74 143.5q0 64 -42 103.5t-128 63.5l-231 62q-130 34 -197.5 96.5t-67.5 169.5q0 73 33.5 132.5t89 96.5t125 56.5t144.5 19.5q165 0 266 -87.5t106 -203.5h-125
q-12 88 -80.5 137.5t-168.5 49.5q-45 0 -88 -10t-84.5 -31t-67 -61.5t-25.5 -94.5q0 -62 46 -100t139 -62l233 -61q130 -36 187 -107.5t57 -162.5q0 -97 -55.5 -167.5t-143 -104t-194.5 -33.5z" />
    <glyph glyph-name="t" unicode="t" horiz-adv-x="796" 
d="M666 958h-242v-700q0 -94 27 -127t86 -33h141v-88q-40 -12 -141 -12q-137 0 -189.5 58t-52.5 190v712h-172v101h174l8 303h119v-303h242v-101z" />
    <glyph glyph-name="u" unicode="u" 
d="M573 -18q-56 1 -109.5 12.5t-107 39.5t-93 68.5t-64.5 104.5t-25 143v713h131v-705q0 -74 26.5 -128.5t70 -83.5t90.5 -42.5t96 -13.5q58 0 110.5 18t94 52t66.5 89t26 124v690h131l-2 -1061h-109l-8 215q-25 -121 -114.5 -179t-209.5 -56z" />
    <glyph glyph-name="v" unicode="v" horiz-adv-x="1028" 
d="M961 1059l-371 -1059h-150l-372 1059h127l307 -901h22l314 901h123z" />
    <glyph glyph-name="w" unicode="w" horiz-adv-x="1630" 
d="M1542 1059l-305 -1059h-158l-266 858l-248 -858h-159l-318 1059h127l264 -899h21l262 899h106l275 -897h20l252 897h127z" />
    <glyph glyph-name="x" unicode="x" horiz-adv-x="1136" 
d="M1053 0h-148l-338 453l-336 -453h-149l410 549l-377 510h147l305 -412l307 412h148l-377 -510z" />
    <glyph glyph-name="y" unicode="y" horiz-adv-x="1077" 
d="M250 -338q-49 0 -85 5t-47 11l-12 5v86h113q96 -3 143 30.5t72 91.5l45 123l-411 1045h133l344 -887l340 887h127l-457 -1180q-47 -118 -122 -167.5t-183 -49.5z" />
    <glyph glyph-name="z" unicode="z" horiz-adv-x="989" 
d="M96 0v94l641 869h-598v96h748v-98l-637 -863h649v-98h-803z" />
    <glyph glyph-name="braceleft" unicode="{" horiz-adv-x="612" 
d="M248 1288q0 88 63 140.5t174 52.5h78v-97h-63q-72 0 -99.5 -24t-27.5 -80v-451q-1 -112 -56.5 -173.5t-138.5 -69.5q-8 -1 -11.5 -4t-0.5 -6.5t12 -4.5q83 -7 138.5 -65t56.5 -174v-457q0 -58 27.5 -83t99.5 -25h63v-97h-76q-115 0 -177 54.5t-62 144.5v457
q0 80 -61.5 142t-170.5 62v95q114 1 173 60.5t59 154.5v448z" />
    <glyph glyph-name="bar" unicode="|" horiz-adv-x="526" 
d="M322 -330h-109v2022h109v-2022z" />
    <glyph glyph-name="braceright" unicode="}" horiz-adv-x="638" 
d="M356 1288v-448q0 -95 59 -154.5t173 -60.5v-95q-109 0 -170.5 -62t-61.5 -142v-457q0 -91 -61 -145t-178 -54h-76v97h63q73 0 101 24.5t28 83.5v457q0 116 55.5 174t139.5 65q9 1 12 4.5t-0.5 6.5t-11.5 4q-83 8 -139 69.5t-56 173.5v451q0 56 -27.5 80t-99.5 24h-65v97
h78q111 0 174 -52.5t63 -140.5z" />
    <glyph glyph-name="asciitilde" unicode="~" horiz-adv-x="1128" 
d="M997 760q-33 -47 -94 -78t-145 -31q-54 0 -107 15t-88.5 33.5t-84 33.5t-95.5 15q-70 0 -120.5 -27.5t-96.5 -73.5l-37 84q60 56 115.5 86.5t134.5 30.5q63 0 128.5 -24.5t129 -49t121.5 -24.5q120 0 198 98z" />
    <glyph glyph-name="uni00A0" unicode="&#xa0;" horiz-adv-x="473" 
 />
    <glyph glyph-name="exclamdown" unicode="&#xa1;" horiz-adv-x="495" 
d="M332 864h-170v195h170v-195zM328 -330h-160l33 1055h92z" />
    <glyph glyph-name="cent" unicode="&#xa2;" horiz-adv-x="1103" 
d="M612 313q105 0 181.5 57t99.5 160h121q-28 -152 -131.5 -233.5t-247.5 -89.5v-207h-109v213q-182 28 -287.5 173t-105.5 366q0 223 105 371.5t288 176.5v181h109v-174q145 -9 250.5 -93.5t130.5 -232.5l-123 -4q-30 109 -104.5 163t-176.5 54q-161 0 -255.5 -119.5
t-94.5 -318.5q0 -202 94 -322.5t256 -120.5z" />
    <glyph glyph-name="sterling" unicode="&#xa3;" horiz-adv-x="1230" 
d="M31 0v117h82q83 0 136.5 80.5t53.5 236.5q0 111 -27 277h-204v96h190l-37 160q-29 124 -7 223t80 168t142 106t181 37q131 0 240 -63t147 -152l-119 -49q-36 73 -96.5 108t-157.5 35q-123 0 -203 -68.5t-80 -189.5q0 -146 54 -313h348v-96h-334q25 -155 20 -246
q-2 -226 -118 -348h399q112 0 179 38.5t101 129.5l115 -37q-91 -250 -389 -250h-696z" />
    <glyph glyph-name="currency" unicode="&#xa4;" horiz-adv-x="1069" 
d="M532 383q-115 0 -204 61q-15 12 -27 -2l-104 -106l-72 78l115 112q-70 98 -70 219q0 115 61 201q9 19 -2 27l-102 104l74 74l114 -117q92 70 215 70q115 0 201 -62q16 -9 27 2l106 109l74 -76l-119 -119q70 -99 70 -213q0 -117 -62 -200q-8 -15 2 -25l111 -104l-74 -76
l-118 117q-100 -74 -216 -74zM535 496q104 0 175.5 74t71.5 175q0 100 -71.5 175t-175.5 75q-105 0 -177.5 -75t-72.5 -175q0 -101 72 -175t178 -74z" />
    <glyph glyph-name="yen" unicode="&#xa5;" horiz-adv-x="1204" 
d="M1182 1481l-484 -799h301v-94h-317v-195h317v-96h-317v-297h-147v295h-318v96h318v195h-318v96h281l-473 799h168l421 -723l424 723h144z" />
    <glyph glyph-name="brokenbar" unicode="&#xa6;" horiz-adv-x="526" 
d="M322 879h-109v813h109v-813zM322 -330h-109v813h109v-813z" />
    <glyph glyph-name="section" unicode="&#xa7;" horiz-adv-x="980" 
d="M510 -141q-136 0 -253 65.5t-173 171.5l92 51q52 -83 140 -133.5t198 -50.5q109 0 178.5 44.5t69.5 121.5q0 61 -48 111t-171 100l-185 72q-129 50 -188 120t-59 164q0 92 59 161t154 104q-120 62 -164.5 126t-44.5 144q0 117 102 193.5t266 76.5q122 0 221 -57.5
t156 -143.5l-94 -53q-117 152 -274 152q-117 0 -183.5 -43.5t-66.5 -116.5q0 -111 182 -186l176 -72q151 -61 219 -140t68 -182q0 -95 -51.5 -156t-139.5 -104q97 -55 146 -117.5t49 -144.5q0 -121 -105.5 -199.5t-275.5 -78.5zM555 461q83 -6 146 48.5t61 131.5
q0 75 -38 124.5t-146 92.5l-121 47q-91 -7 -157.5 -65t-66.5 -129q0 -63 39 -105.5t150 -87.5z" />
    <glyph glyph-name="dieresis" unicode="&#xa8;" horiz-adv-x="456" 
d="M164 1481v-209h-137v209h137zM426 1481v-209h-137v209h137z" />
    <glyph glyph-name="copyright" unicode="&#xa9;" horiz-adv-x="1673" 
d="M836 -20q-208 0 -383 101t-277 276.5t-102 383.5q0 154 60 294.5t162 242.5t243.5 162.5t296.5 60.5q154 0 294.5 -60.5t242 -162.5t162 -242.5t60.5 -294.5q0 -156 -60 -297.5t-162 -242.5t-242.5 -161t-294.5 -60zM836 86q130 0 248 47t207 130.5t141.5 207.5t52.5 270
q0 191 -90 342.5t-237.5 232.5t-321.5 81q-178 0 -325.5 -81t-236 -232t-88.5 -343q0 -194 88.5 -345t236 -230.5t325.5 -79.5zM840 1176q201 0 329 -207l-104 -39q-88 149 -217 149q-119 0 -193.5 -90.5t-74.5 -238.5q0 -153 74.5 -244.5t193.5 -91.5q78 0 141 43.5
t101 117.5l84 -38q-55 -99 -140 -159.5t-194 -60.5q-171 0 -277 118t-106 310q0 190 107.5 310.5t275.5 120.5z" />
    <glyph glyph-name="ordfeminine" unicode="&#xaa;" horiz-adv-x="880" 
d="M344 809q-104 0 -162.5 49t-58.5 135q0 96 82 151.5t241 67.5l132 13v49q0 141 -168 141q-62 0 -105 -22.5t-80 -79.5l-86 28q36 74 107.5 114t171.5 40q126 0 192 -59.5t66 -165.5v-232q0 -88 8 -135l12 -82h-104l-17 97q-57 -57 -110.5 -83t-120.5 -26zM375 887
q84 0 147 57q56 50 56 94v115l-109 -8q-244 -18 -244 -148q0 -51 41 -80.5t109 -29.5z" />
    <glyph glyph-name="guillemotleft" unicode="&#xab;" horiz-adv-x="886" 
d="M211 514l225 -364h-80l-280 364l282 381h80zM557 514l225 -364h-77l-283 364l283 381h81z" />
    <glyph glyph-name="logicalnot" unicode="&#xac;" horiz-adv-x="1114" 
d="M137 797l838 2v-393h-111l-2 284l-725 -2v109z" />
    <glyph glyph-name="uni00AD" unicode="&#xad;" horiz-adv-x="753" 
d="M649 586v-111l-497 -2v111z" />
    <glyph glyph-name="registered" unicode="&#xae;" horiz-adv-x="1103" 
d="M551 549q-199 0 -338 138.5t-139 336.5t139 337.5t338 139.5q97 0 184.5 -37.5t151.5 -101.5t101.5 -152.5t37.5 -185.5t-37.5 -185t-101.5 -151.5t-151.5 -101t-184.5 -37.5zM551 629q174 0 282.5 107.5t108.5 287.5q0 179 -109 288t-282 109q-174 0 -282.5 -109
t-108.5 -288q0 -180 108 -287.5t283 -107.5zM373 784v473h209q74 0 114.5 -29.5t40.5 -86.5q0 -93 -100 -127l90 -230h-78l-84 224h-119v-224h-73zM446 1071h123q93 0 93 62q0 63 -99 63h-117v-125z" />
    <glyph glyph-name="macron" unicode="&#xaf;" horiz-adv-x="610" 
d="M580 1448v-102h-553v102h553z" />
    <glyph glyph-name="degree" unicode="&#xb0;" horiz-adv-x="942" 
d="M778 1403q0 -135 -87.5 -222t-221.5 -87t-220.5 87t-86.5 222q0 136 86.5 223.5t220.5 87.5t221.5 -87.5t87.5 -223.5zM672 1401q0 95 -56 154t-151 59q-92 0 -148.5 -59.5t-54.5 -153.5q2 -96 57 -154.5t148 -58.5q94 0 149.5 58.5t55.5 154.5z" />
    <glyph glyph-name="plusminus" unicode="&#xb1;" horiz-adv-x="1114" 
d="M610 946h365v-108h-365v-365h-106v363h-367v108h365v367h108v-365zM137 145v107l838 2v-107z" />
    <glyph glyph-name="uni00B2" unicode="&#xb2;" horiz-adv-x="774" 
d="M43 786v82l305 306q107 106 150 169.5t43 131.5q0 38 -12.5 69t-33 51t-47 33.5t-53.5 19t-55 5.5q-70 0 -130.5 -31t-98.5 -98l-72 30q89 177 307 177q123 0 202 -67.5t79 -188.5q-1 -81 -45.5 -151t-161.5 -189l-270 -273h487v-76h-594z" />
    <glyph glyph-name="uni00B3" unicode="&#xb3;" horiz-adv-x="804" 
d="M98 1577q37 75 119 114.5t180 39.5q135 0 220 -66.5t85 -167.5q0 -152 -182 -215q100 -28 155.5 -90.5t55.5 -151.5q0 -115 -94.5 -190.5t-253.5 -75.5q-109 0 -185.5 35.5t-131.5 120.5l71 31q91 -113 248 -113q119 0 187.5 52t68.5 136q0 93 -76.5 147t-177.5 54h-127
v74h105q105 2 176 53.5t71 128.5q0 71 -60.5 117.5t-152.5 46.5q-152 0 -231 -113z" />
    <glyph glyph-name="acute" unicode="&#xb4;" horiz-adv-x="575" 
d="M512 1499l39 -117l-502 -155l-26 78z" />
    <glyph glyph-name="paragraph" unicode="&#xb6;" horiz-adv-x="1110" 
d="M950 1393h-121v-1563h-94v1563h-96v-1563h-94v778q-134 2 -234.5 61.5t-151 153.5t-50.5 207q0 86 29.5 165.5t85 144t146.5 103t203 38.5h377v-88z" />
    <glyph glyph-name="periodcentered" unicode="&#xb7;" horiz-adv-x="395" 
d="M295 842v-191h-197v191h197z" />
    <glyph glyph-name="cedilla" unicode="&#xb8;" horiz-adv-x="436" 
d="M406 -260q0 -74 -59 -114t-150 -40q-99 0 -172 49l26 68q57 -47 131 -47q115 0 115 82q0 44 -38 66.5t-120 25.5q-17 0 -10 10l74 170h82l-49 -125q90 -6 130 -47t40 -98z" />
    <glyph glyph-name="uni00B9" unicode="&#xb9;" horiz-adv-x="606" 
d="M197 778v830l-187 -70v68l207 104h66v-932h-86z" />
    <glyph glyph-name="ordmasculine" unicode="&#xba;" horiz-adv-x="841" 
d="M420 1499q145 0 229 -94.5t84 -251.5q0 -153 -82.5 -246.5t-230.5 -93.5q-146 0 -228.5 93.5t-82.5 246.5q0 156 85 251t226 95zM420 1417q-99 0 -151 -69t-52 -189q0 -125 52 -195.5t151 -70.5q100 0 152.5 70.5t52.5 195.5q0 120 -53 189t-152 69z" />
    <glyph glyph-name="guillemotright" unicode="&#xbb;" horiz-adv-x="884" 
d="M326 514l-228 381h80l283 -381l-283 -364h-76zM674 514l-230 381h80l283 -381l-281 -364h-77z" />
    <glyph glyph-name="onequarter" unicode="&#xbc;" horiz-adv-x="1959" 
d="M197 565v830l-187 -70v68l207 104h66v-932h-86zM1407 1497l-995 -1505h-101l1000 1505h96zM1616 932h86v-600h147v-78h-147v-254h-82v254h-442v86zM1264 332h352v473z" />
    <glyph glyph-name="onehalf" unicode="&#xbd;" horiz-adv-x="1894" 
d="M197 565v830l-187 -70v68l207 104h66v-932h-86zM1407 1497l-995 -1505h-101l1000 1505h96zM1163 0v82l305 305q107 106 150 169.5t43 131.5q0 38 -12.5 69t-33 51t-47 33.5t-53.5 19t-55 5.5q-70 0 -130.5 -31t-98.5 -98l-72 31q89 176 307 176q123 0 202 -67.5
t79 -188.5q-1 -81 -45.5 -151t-161.5 -189l-270 -272h487v-76h-594z" />
    <glyph glyph-name="threequarters" unicode="&#xbe;" horiz-adv-x="2158" 
d="M98 1362q37 75 119 114.5t180 39.5q135 0 220 -66.5t85 -167.5q0 -152 -182 -215q100 -28 155.5 -90.5t55.5 -151.5q0 -115 -94.5 -190.5t-253.5 -75.5q-109 0 -185.5 35.5t-131.5 120.5l71 30q91 -112 248 -112q119 0 187.5 52t68.5 136q0 93 -76.5 147t-177.5 54h-127
v74h105q105 2 176 53.5t71 128.5q0 71 -60.5 117.5t-152.5 46.5q-152 0 -231 -113zM1606 1497l-996 -1505h-100l999 1505h97zM1815 932h86v-600h147v-78h-147v-254h-82v254h-443v86zM1462 332h353v473z" />
    <glyph glyph-name="questiondown" unicode="&#xbf;" horiz-adv-x="1040" 
d="M455 864v195h172v-195h-172zM969 -76q-65 -128 -189 -201t-278 -73q-202 0 -319 98.5t-117 261.5q0 69 23 127t59.5 100t80.5 81t88.5 79t81 84.5t59.5 107t23 136.5h119q0 -82 -22 -150.5t-57 -116.5t-77 -90.5t-84.5 -80t-77.5 -76t-57 -89t-22 -108.5
q0 -115 82 -183.5t217 -68.5q109 0 210.5 61t135.5 146z" />
    <glyph glyph-name="Agrave" unicode="&#xc0;" horiz-adv-x="1443" 
d="M471 1921l490 -195l-25 -77l-502 155zM104 0l539 1481h160l538 -1481h-137l-157 438h-646l-163 -438h-134zM438 565h568l-281 785z" />
    <glyph glyph-name="Aacute" unicode="&#xc1;" horiz-adv-x="1443" 
d="M952 1921l39 -117l-502 -155l-26 77zM104 0l539 1481h160l538 -1481h-137l-157 438h-646l-163 -438h-134zM438 565h568l-281 785z" />
    <glyph glyph-name="Acircumflex" unicode="&#xc2;" horiz-adv-x="1443" 
d="M874 1694l-147 129l-158 -129h-139l250 213h98l246 -213h-150zM104 0l539 1481h160l538 -1481h-137l-157 438h-646l-163 -438h-134zM438 565h568l-281 785z" />
    <glyph glyph-name="Atilde" unicode="&#xc3;" horiz-adv-x="1443" 
d="M995 1788q-65 -43 -143 -43q-55 0 -128.5 25.5t-115.5 25.5q-20 0 -38.5 -4.5t-28.5 -9.5t-26.5 -14.5t-22.5 -12.5q-10 -6 -15.5 -5t-9.5 13l-16 45q-6 14 6 21q70 59 143 59q48 0 128.5 -27.5t123.5 -27.5q22 0 43 6t33 12t35 19q18 13 26 -8l19 -52q6 -11 -13 -22z
M104 0l539 1481h160l538 -1481h-137l-157 438h-646l-163 -438h-134zM438 565h568l-281 785z" />
    <glyph glyph-name="Adieresis" unicode="&#xc4;" horiz-adv-x="1443" 
d="M664 1903v-209h-138v209h138zM926 1903v-209h-138v209h138zM104 0l539 1481h160l538 -1481h-137l-157 438h-646l-163 -438h-134zM438 565h568l-281 785z" />
    <glyph glyph-name="Aring" unicode="&#xc5;" horiz-adv-x="1443" 
d="M934 1819q0 -87 -60 -146t-147 -59q-85 0 -145 60t-60 149q0 81 60.5 138.5t144.5 57.5q87 0 147 -58t60 -142zM838 1819q0 49 -32.5 80.5t-80.5 31.5q-46 0 -80.5 -32t-34.5 -80q0 -46 35.5 -81.5t79.5 -35.5q47 0 80 35.5t33 81.5zM104 0l539 1481h160l538 -1481h-137
l-157 438h-646l-163 -438h-134zM438 565h568l-281 785z" />
    <glyph glyph-name="AE" unicode="&#xc6;" horiz-adv-x="2037" 
d="M1894 119v-119h-882v446h-523l-251 -446h-134l834 1481h930v-119h-709v-555h549v-119h-549v-569h735zM1012 565v811l-465 -811h465z" />
    <glyph glyph-name="Ccedilla" unicode="&#xc7;" horiz-adv-x="1409" 
d="M752 100q145 0 249 81t136 222l137 -18q-19 -165 -157 -280t-335 -125l-37 -95q90 -6 130 -47t40 -98q0 -74 -58.5 -114t-149.5 -40q-99 0 -172 49l26 68q57 -47 131 -47q115 0 115 82q0 44 -38 66.5t-120 25.5q-17 0 -10 10l61 142q-269 17 -415 215t-146 542
q0 360 156 561t442 201q226 0 375 -123t170 -303l-139 -12q-29 145 -132.5 231t-273.5 86q-223 0 -338.5 -162t-115.5 -481q0 -313 117.5 -475t351.5 -162z" />
    <glyph glyph-name="Egrave" unicode="&#xc8;" horiz-adv-x="1267" 
d="M424 1921l489 -195l-24 -77l-502 155zM213 0v1481h887v-121h-758v-551h696v-121h-696v-563l782 -2v-123h-911z" />
    <glyph glyph-name="Eacute" unicode="&#xc9;" horiz-adv-x="1267" 
d="M907 1921l39 -117l-502 -155l-26 77zM213 0v1481h887v-121h-758v-551h696v-121h-696v-563l782 -2v-123h-911z" />
    <glyph glyph-name="Ecircumflex" unicode="&#xca;" horiz-adv-x="1267" 
d="M827 1694l-147 129l-158 -129h-139l250 213h98l246 -213h-150zM213 0v1481h887v-121h-758v-551h696v-121h-696v-563l782 -2v-123h-911z" />
    <glyph glyph-name="Edieresis" unicode="&#xcb;" horiz-adv-x="1267" 
d="M616 1903v-209h-137v209h137zM879 1903v-209h-138v209h138zM213 0v1481h887v-121h-758v-551h696v-121h-696v-563l782 -2v-123h-911z" />
    <glyph glyph-name="Igrave" unicode="&#xcc;" horiz-adv-x="544" 
d="M29 1921l489 -195l-24 -77l-502 155zM213 1481h129v-1481h-129v1481z" />
    <glyph glyph-name="Iacute" unicode="&#xcd;" horiz-adv-x="544" 
d="M510 1921l39 -117l-502 -155l-27 77zM213 1481h129v-1481h-129v1481z" />
    <glyph glyph-name="Icircumflex" unicode="&#xce;" horiz-adv-x="544" 
d="M432 1694l-147 129l-158 -129h-139l250 213h98l246 -213h-150zM213 1481h129v-1481h-129v1481z" />
    <glyph glyph-name="Idieresis" unicode="&#xcf;" horiz-adv-x="544" 
d="M221 1903v-209h-137v209h137zM483 1903v-209h-137v209h137zM213 1481h129v-1481h-129v1481z" />
    <glyph glyph-name="Eth" unicode="&#xd0;" horiz-adv-x="1421" 
d="M520 1479q404 -3 587 -181.5t183 -545.5q0 -383 -194.5 -567.5t-599.5 -184.5h-267v686h-131q-24 0 -24 25v67q0 23 18 23h137v680q1 0 48.5 -0.5t117.5 -1t125 -0.5zM492 121q164 0 284.5 33.5t206 106.5t128 193.5t42.5 290.5q0 140 -28.5 245.5t-81 176t-134 114.5
t-180.5 62.5t-227 18.5h-135v-561h333q17 0 17 -21v-67q0 -27 -31 -27h-319v-565h125z" />
    <glyph glyph-name="Ntilde" unicode="&#xd1;" horiz-adv-x="1505" 
d="M1051 1788q-65 -43 -144 -43q-55 0 -128 25.5t-115 25.5q-20 0 -39 -4.5t-28.5 -9t-27 -14.5t-22.5 -13q-10 -6 -15.5 -5t-9.5 13l-16 45q-6 14 6 21q70 59 143 59q48 0 128.5 -27.5t123.5 -27.5q22 0 43 6t33 12t35 19q18 13 26 -8l19 -52q6 -12 -12 -22zM1171 1481h132
v-1481h-115l-846 1249v-1249h-129v1481h117l841 -1243v1243z" />
    <glyph glyph-name="Ograve" unicode="&#xd2;" horiz-adv-x="1515" 
d="M506 1921l489 -195l-24 -77l-502 155zM760 -20q-293 0 -457 196t-164 557q0 368 165.5 568t457.5 200q288 0 451 -199t163 -565q0 -362 -163 -559.5t-453 -197.5zM762 100q471 0 471 637q0 322 -121 482.5t-350 160.5q-232 0 -355.5 -161t-123.5 -482q0 -319 123 -478
t356 -159z" />
    <glyph glyph-name="Oacute" unicode="&#xd3;" horiz-adv-x="1515" 
d="M987 1921l39 -117l-502 -155l-26 77zM760 -20q-293 0 -457 196t-164 557q0 368 165.5 568t457.5 200q288 0 451 -199t163 -565q0 -362 -163 -559.5t-453 -197.5zM762 100q471 0 471 637q0 322 -121 482.5t-350 160.5q-232 0 -355.5 -161t-123.5 -482q0 -319 123 -478
t356 -159z" />
    <glyph glyph-name="Ocircumflex" unicode="&#xd4;" horiz-adv-x="1515" 
d="M909 1694l-147 129l-158 -129h-139l250 213h98l246 -213h-150zM760 -20q-293 0 -457 196t-164 557q0 368 165.5 568t457.5 200q288 0 451 -199t163 -565q0 -362 -163 -559.5t-453 -197.5zM762 100q471 0 471 637q0 322 -121 482.5t-350 160.5q-232 0 -355.5 -161
t-123.5 -482q0 -319 123 -478t356 -159z" />
    <glyph glyph-name="Otilde" unicode="&#xd5;" horiz-adv-x="1515" 
d="M1030 1788q-65 -43 -143 -43q-55 0 -128.5 25.5t-115.5 25.5q-20 0 -39 -4.5t-28.5 -9t-27 -14.5t-22.5 -13q-10 -6 -15 -5t-9 13l-17 45q-5 14 7 21q70 59 143 59q48 0 128.5 -27.5t123.5 -27.5q22 0 43 6t32 11.5t35 19.5q19 14 27 -8l18 -52q6 -12 -12 -22zM760 -20
q-293 0 -457 196t-164 557q0 368 165.5 568t457.5 200q288 0 451 -199t163 -565q0 -362 -163 -559.5t-453 -197.5zM762 100q471 0 471 637q0 322 -121 482.5t-350 160.5q-232 0 -355.5 -161t-123.5 -482q0 -319 123 -478t356 -159z" />
    <glyph glyph-name="Odieresis" unicode="&#xd6;" horiz-adv-x="1515" 
d="M698 1903v-209h-137v209h137zM961 1903v-209h-138v209h138zM760 -20q-293 0 -457 196t-164 557q0 368 165.5 568t457.5 200q288 0 451 -199t163 -565q0 -362 -163 -559.5t-453 -197.5zM762 100q471 0 471 637q0 322 -121 482.5t-350 160.5q-232 0 -355.5 -161
t-123.5 -482q0 -319 123 -478t356 -159z" />
    <glyph glyph-name="multiply" unicode="&#xd7;" horiz-adv-x="1075" 
d="M938 420l-78 -78l-325 324l-322 -324l-78 78l322 323l-324 324l78 76l324 -322l323 326l78 -76l-324 -328z" />
    <glyph glyph-name="Oslash" unicode="&#xd8;" horiz-adv-x="1454" 
d="M1401 1440q14 -14 2 -29l-168 -188q111 -190 111 -486q0 -362 -164.5 -559.5t-454.5 -197.5q-282 0 -438 176l-142 -158q-17 -29 -45 -4l-41 39q-12 14 -13.5 21t5.5 16l162 184q-109 188 -109 479q0 368 165 568t456 200q278 0 438 -180l146 166q16 20 30 6zM266 737
q0 -225 64 -362l739 846q-111 159 -342 159q-461 0 -461 -643zM1186 737q0 224 -64 367l-739 -846q116 -158 346 -158t343.5 156.5t113.5 480.5z" />
    <glyph glyph-name="Ugrave" unicode="&#xd9;" horiz-adv-x="1447" 
d="M467 1921l489 -195l-24 -77l-502 155zM1239 483q0 -250 -126.5 -376.5t-387.5 -126.5q-265 0 -388.5 130.5t-123.5 397.5v973h137v-1004q0 -379 375 -379q189 0 287 95t98 284v1004h129v-998z" />
    <glyph glyph-name="Uacute" unicode="&#xda;" horiz-adv-x="1447" 
d="M950 1921l39 -117l-502 -155l-26 77zM1239 483q0 -250 -126.5 -376.5t-387.5 -126.5q-265 0 -388.5 130.5t-123.5 397.5v973h137v-1004q0 -379 375 -379q189 0 287 95t98 284v1004h129v-998z" />
    <glyph glyph-name="Ucircumflex" unicode="&#xdb;" horiz-adv-x="1447" 
d="M872 1694l-147 129l-158 -129h-139l250 213h98l246 -213h-150zM1239 483q0 -250 -126.5 -376.5t-387.5 -126.5q-265 0 -388.5 130.5t-123.5 397.5v973h137v-1004q0 -379 375 -379q189 0 287 95t98 284v1004h129v-998z" />
    <glyph glyph-name="Udieresis" unicode="&#xdc;" horiz-adv-x="1447" 
d="M659 1903v-209h-137v209h137zM922 1903v-209h-138v209h138zM1239 483q0 -250 -126.5 -376.5t-387.5 -126.5q-265 0 -388.5 130.5t-123.5 397.5v973h137v-1004q0 -379 375 -379q189 0 287 95t98 284v1004h129v-998z" />
    <glyph glyph-name="Yacute" unicode="&#xdd;" horiz-adv-x="1167" 
d="M811 1921l39 -117l-502 -155l-26 77zM1145 1481l-494 -848v-633h-129v635l-499 846h143l422 -725l416 725h141z" />
    <glyph glyph-name="Thorn" unicode="&#xde;" horiz-adv-x="1329" 
d="M1257 772q0 -110 -38.5 -192t-109.5 -131.5t-165 -74t-211 -24.5h-373v-350h-147v1481h147v-316h355q162 0 281 -40.5t190 -130.5t71 -222zM1104 774q0 145 -102 210t-293 65h-349v-582h363q180 0 280.5 74.5t100.5 232.5z" />
    <glyph glyph-name="germandbls" unicode="&#xdf;" horiz-adv-x="1224" 
d="M639 1481q89 0 155 -23t103 -63t54.5 -87t17.5 -100q0 -33 -7.5 -62.5t-16.5 -50.5t-30.5 -42.5t-35 -33.5t-46 -30.5t-47 -26t-53.5 -26.5q-85 -46 -112 -70t-27 -65t26.5 -59.5t108.5 -45.5q134 -46 188 -76q185 -101 185 -298q0 -161 -111 -251.5t-278 -90.5
q-73 0 -152 19t-131 52l55 94q57 -32 104 -47.5t111 -15.5q127 0 201 60.5t74 166.5q0 35 -8.5 64.5t-21 51t-36 41.5t-43 33t-53.5 27.5t-56 22t-61 20.5q-34 11 -52 18t-48 20.5t-47 28t-35 36t-26.5 49.5t-8.5 63q0 72 43.5 121.5t145.5 104.5q8 4 30.5 17t31.5 18
t28.5 18t28 21.5t21.5 23.5t19 28.5t10.5 32t4.5 39.5q0 79 -58 124.5t-161 45.5q-131 0 -209 -79t-78 -230v-1069h-129v948h-144v101h142q2 197 117.5 314.5t316.5 117.5z" />
    <glyph glyph-name="agrave" unicode="&#xe0;" horiz-adv-x="1157" 
d="M319 1499l490 -194l-25 -78l-501 155zM467 -20q-157 0 -250.5 80.5t-93.5 218.5q0 177 118.5 260t385.5 92l219 6v94q0 114 -76 178t-203 64q-107 0 -183.5 -53.5t-94.5 -151.5h-123q8 131 117.5 221t291.5 90q185 0 291.5 -92t106.5 -252v-735h-115l-8 199
q-113 -219 -383 -219zM500 82q79 0 159.5 37.5t133.5 99.5t53 125v197l-182 -4q-221 -5 -316.5 -62t-95.5 -186q0 -96 68 -151.5t180 -55.5z" />
    <glyph glyph-name="aacute" unicode="&#xe1;" horiz-adv-x="1157" 
d="M801 1499l39 -117l-502 -155l-27 78zM467 -20q-157 0 -250.5 80.5t-93.5 218.5q0 177 118.5 260t385.5 92l219 6v94q0 114 -76 178t-203 64q-107 0 -183.5 -53.5t-94.5 -151.5h-123q8 131 117.5 221t291.5 90q185 0 291.5 -92t106.5 -252v-735h-115l-8 199
q-113 -219 -383 -219zM500 82q79 0 159.5 37.5t133.5 99.5t53 125v197l-182 -4q-221 -5 -316.5 -62t-95.5 -186q0 -96 68 -151.5t180 -55.5z" />
    <glyph glyph-name="acircumflex" unicode="&#xe2;" horiz-adv-x="1157" 
d="M723 1272l-148 129l-157 -129h-139l249 213h99l245 -213h-149zM467 -20q-157 0 -250.5 80.5t-93.5 218.5q0 177 118.5 260t385.5 92l219 6v94q0 114 -76 178t-203 64q-107 0 -183.5 -53.5t-94.5 -151.5h-123q8 131 117.5 221t291.5 90q185 0 291.5 -92t106.5 -252v-735
h-115l-8 199q-113 -219 -383 -219zM500 82q79 0 159.5 37.5t133.5 99.5t53 125v197l-182 -4q-221 -5 -316.5 -62t-95.5 -186q0 -96 68 -151.5t180 -55.5z" />
    <glyph glyph-name="atilde" unicode="&#xe3;" horiz-adv-x="1157" 
d="M846 1366q-64 -43 -144 -43q-55 0 -128 25.5t-115 25.5q-20 0 -39 -4.5t-28.5 -9t-27 -14.5t-22.5 -13q-10 -6 -15.5 -5t-9.5 13l-16 45q-6 14 6 21q70 59 144 59q48 0 128 -27.5t123 -27.5q22 0 43 6t33 12t35 19q19 14 27 -8l18 -51q6 -13 -12 -23zM467 -20
q-157 0 -250.5 80.5t-93.5 218.5q0 177 118.5 260t385.5 92l219 6v94q0 114 -76 178t-203 64q-107 0 -183.5 -53.5t-94.5 -151.5h-123q8 131 117.5 221t291.5 90q185 0 291.5 -92t106.5 -252v-735h-115l-8 199q-113 -219 -383 -219zM500 82q79 0 159.5 37.5t133.5 99.5
t53 125v197l-182 -4q-221 -5 -316.5 -62t-95.5 -186q0 -96 68 -151.5t180 -55.5z" />
    <glyph glyph-name="adieresis" unicode="&#xe4;" horiz-adv-x="1157" 
d="M512 1481v-209h-137v209h137zM774 1481v-209h-137v209h137zM467 -20q-157 0 -250.5 80.5t-93.5 218.5q0 177 118.5 260t385.5 92l219 6v94q0 114 -76 178t-203 64q-107 0 -183.5 -53.5t-94.5 -151.5h-123q8 131 117.5 221t291.5 90q185 0 291.5 -92t106.5 -252v-735h-115
l-8 199q-113 -219 -383 -219zM500 82q79 0 159.5 37.5t133.5 99.5t53 125v197l-182 -4q-221 -5 -316.5 -62t-95.5 -186q0 -96 68 -151.5t180 -55.5z" />
    <glyph glyph-name="aring" unicode="&#xe5;" horiz-adv-x="1157" 
d="M782 1397q0 -87 -60 -146t-147 -59q-85 0 -144.5 60t-59.5 149q0 81 60 138.5t144 57.5q87 0 147 -58t60 -142zM686 1397q0 49 -32.5 80.5t-80.5 31.5q-46 0 -80 -32t-34 -80q0 -46 35 -81.5t79 -35.5q47 0 80 35.5t33 81.5zM467 -20q-157 0 -250.5 80.5t-93.5 218.5
q0 177 118.5 260t385.5 92l219 6v94q0 114 -76 178t-203 64q-107 0 -183.5 -53.5t-94.5 -151.5h-123q8 131 117.5 221t291.5 90q185 0 291.5 -92t106.5 -252v-735h-115l-8 199q-113 -219 -383 -219zM500 82q79 0 159.5 37.5t133.5 99.5t53 125v197l-182 -4
q-221 -5 -316.5 -62t-95.5 -186q0 -96 68 -151.5t180 -55.5z" />
    <glyph glyph-name="ae" unicode="&#xe6;" horiz-adv-x="1921" 
d="M969 498q0 -101 48 -196.5t134 -156.5t186 -61q69 0 124.5 16t97 47.5t66.5 58t56 68.5l93 -53q-64 -112 -181 -176.5t-268 -64.5q-82 0 -150.5 21t-118 59t-79 69.5t-59.5 73.5q-8 10 -13 0q-31 -36 -54 -60t-66 -58t-86 -54.5t-106.5 -35.5t-135.5 -15
q-156 0 -245 78.5t-89 215.5q0 151 122.5 240t368.5 109l234 16v86q0 119 -72 185.5t-207 66.5q-180 0 -313 -189l-104 48q65 118 176 180.5t258 62.5q284 0 352 -215q61 106 161 160.5t230 54.5q215 0 344 -153.5t129 -425.5zM1327 977q-98 0 -178 -46.5t-127.5 -134.5
t-48.5 -202l696 -2q0 159 -96.5 272t-245.5 113zM848 545l-195 -15q-397 -30 -397 -247q0 -94 65.5 -149.5t178.5 -51.5q143 6 245.5 83.5t102.5 182.5v197z" />
    <glyph glyph-name="ccedilla" unicode="&#xe7;" horiz-adv-x="1126" 
d="M598 86q105 0 181.5 57t99.5 160h120q-28 -152 -130.5 -232.5t-245.5 -90.5l-37 -95q90 -6 130 -47t40 -98q0 -74 -59 -114t-150 -40q-99 0 -172 49l26 68q57 -47 131 -47q115 0 115 82q0 45 -37.5 67t-120.5 25q-17 0 -10 10l62 142q-196 19 -309 165.5t-113 376.5
q0 248 127.5 401.5t343.5 153.5q154 0 268.5 -85t142.5 -240l-124 -4q-30 110 -103.5 163.5t-175.5 53.5q-162 0 -257 -120t-95 -319q0 -202 94.5 -322t257.5 -120z" />
    <glyph glyph-name="egrave" unicode="&#xe8;" horiz-adv-x="1159" 
d="M330 1499l489 -194l-24 -78l-502 155zM252 498q0 -115 36 -205t115.5 -146.5t194.5 -56.5q229 0 295 205h127q-40 -157 -153 -236t-267 -79q-217 0 -349 143.5t-132 396.5q0 259 123 409t344 150q211 0 327.5 -137t116.5 -381v-63h-778zM254 600h649q0 166 -81 268.5
t-238 102.5q-83 0 -148 -32.5t-104 -86t-59 -118t-19 -134.5z" />
    <glyph glyph-name="eacute" unicode="&#xe9;" horiz-adv-x="1159" 
d="M813 1499l37 -117l-502 -155l-24 78zM252 498q0 -115 36 -205t115.5 -146.5t194.5 -56.5q229 0 295 205h127q-40 -157 -153 -236t-267 -79q-217 0 -349 143.5t-132 396.5q0 259 123 409t344 150q211 0 327.5 -137t116.5 -381v-63h-778zM254 600h649q0 166 -81 268.5
t-238 102.5q-83 0 -148 -32.5t-104 -86t-59 -118t-19 -134.5z" />
    <glyph glyph-name="ecircumflex" unicode="&#xea;" horiz-adv-x="1159" 
d="M733 1272l-147 129l-158 -129h-137l250 213h96l246 -213h-150zM252 498q0 -115 36 -205t115.5 -146.5t194.5 -56.5q229 0 295 205h127q-40 -157 -153 -236t-267 -79q-217 0 -349 143.5t-132 396.5q0 259 123 409t344 150q211 0 327.5 -137t116.5 -381v-63h-778zM254 600
h649q0 166 -81 268.5t-238 102.5q-83 0 -148 -32.5t-104 -86t-59 -118t-19 -134.5z" />
    <glyph glyph-name="edieresis" unicode="&#xeb;" horiz-adv-x="1159" 
d="M522 1481v-209h-135v209h135zM786 1481v-209h-139v209h139zM252 498q0 -115 36 -205t115.5 -146.5t194.5 -56.5q229 0 295 205h127q-40 -157 -153 -236t-267 -79q-217 0 -349 143.5t-132 396.5q0 259 123 409t344 150q211 0 327.5 -137t116.5 -381v-63h-778zM254 600h649
q0 166 -81 268.5t-238 102.5q-83 0 -148 -32.5t-104 -86t-59 -118t-19 -134.5z" />
    <glyph glyph-name="igrave" unicode="&#xec;" horiz-adv-x="499" 
d="M-6 1499l489 -194l-24 -78l-502 155zM315 1059v-1059h-129v1059h129z" />
    <glyph glyph-name="iacute" unicode="&#xed;" horiz-adv-x="499" 
d="M475 1499l39 -117l-502 -155l-26 78zM315 1059v-1059h-129v1059h129z" />
    <glyph glyph-name="icircumflex" unicode="&#xee;" horiz-adv-x="499" 
d="M397 1272l-147 129l-158 -129h-139l250 213h98l246 -213h-150zM315 1059v-1059h-129v1059h129z" />
    <glyph glyph-name="idieresis" unicode="&#xef;" horiz-adv-x="499" 
d="M186 1481v-209h-137v209h137zM449 1481v-209h-138v209h138zM315 1059v-1059h-129v1059h129z" />
    <glyph glyph-name="eth" unicode="&#xf0;" horiz-adv-x="1210" 
d="M1102 518q0 -241 -135 -389.5t-367 -148.5q-218 0 -354.5 147t-136.5 377q0 233 135 383.5t346 150.5q180 0 291 -114q-92 207 -306 352l-331 -186l-43 69l297 166q-95 54 -238 111l94 67q132 -49 252 -117l215 119l37 -71l-174 -99q418 -285 418 -817zM608 84
q157 0 258 120t101 304q0 183 -102.5 305.5t-258.5 122.5q-157 0 -260.5 -122.5t-103.5 -305.5q0 -182 103.5 -303t262.5 -121z" />
    <glyph glyph-name="ntilde" unicode="&#xf1;" 
d="M881 1366q-65 -43 -144 -43q-55 0 -128 25.5t-115 25.5q-20 0 -39 -4.5t-28.5 -9t-27 -14.5t-22.5 -13q-10 -6 -15.5 -5t-9.5 13l-16 45q-6 14 6 21q70 59 143 59q48 0 128.5 -27.5t123.5 -27.5q22 0 43 6t33 12t35 19q18 13 26 -8l19 -51q6 -13 -12 -23zM174 0v1059h125
v-154q46 77 134.5 124.5t211.5 47.5q163 0 267 -100t104 -287v-690h-131v682q0 135 -70.5 208t-193.5 73q-135 0 -225.5 -61.5t-90.5 -176.5v-725h-131z" />
    <glyph glyph-name="ograve" unicode="&#xf2;" horiz-adv-x="1153" 
d="M324 1499l489 -194l-25 -78l-501 155zM578 -20q-222 0 -345.5 148t-123.5 394q0 250 126 403.5t345 153.5q217 0 340.5 -152.5t123.5 -400.5q0 -247 -123.5 -396.5t-342.5 -149.5zM582 88q164 0 247.5 119.5t83.5 320.5t-85 321t-248 120q-165 0 -252.5 -121t-87.5 -320
q0 -198 88 -319t254 -121z" />
    <glyph glyph-name="oacute" unicode="&#xf3;" horiz-adv-x="1153" 
d="M807 1499l39 -117l-502 -155l-27 78zM578 -20q-222 0 -345.5 148t-123.5 394q0 250 126 403.5t345 153.5q217 0 340.5 -152.5t123.5 -400.5q0 -247 -123.5 -396.5t-342.5 -149.5zM582 88q164 0 247.5 119.5t83.5 320.5t-85 321t-248 120q-165 0 -252.5 -121t-87.5 -320
q0 -198 88 -319t254 -121z" />
    <glyph glyph-name="ocircumflex" unicode="&#xf4;" horiz-adv-x="1153" 
d="M729 1272l-147 129l-158 -129h-139l250 213h98l246 -213h-150zM578 -20q-222 0 -345.5 148t-123.5 394q0 250 126 403.5t345 153.5q217 0 340.5 -152.5t123.5 -400.5q0 -247 -123.5 -396.5t-342.5 -149.5zM582 88q164 0 247.5 119.5t83.5 320.5t-85 321t-248 120
q-165 0 -252.5 -121t-87.5 -320q0 -198 88 -319t254 -121z" />
    <glyph glyph-name="otilde" unicode="&#xf5;" horiz-adv-x="1153" 
d="M850 1366q-64 -43 -143 -43q-55 0 -128.5 25.5t-115.5 25.5q-20 0 -39 -4.5t-28.5 -9t-27 -14.5t-22.5 -13q-10 -6 -15 -5t-9 13l-17 45q-6 14 6 21q70 59 144 59q48 0 128.5 -27.5t123.5 -27.5q22 0 43 6t32 11.5t35 19.5q19 14 27 -8l18 -51q6 -13 -12 -23zM578 -20
q-222 0 -345.5 148t-123.5 394q0 250 126 403.5t345 153.5q217 0 340.5 -152.5t123.5 -400.5q0 -247 -123.5 -396.5t-342.5 -149.5zM582 88q164 0 247.5 119.5t83.5 320.5t-85 321t-248 120q-165 0 -252.5 -121t-87.5 -320q0 -198 88 -319t254 -121z" />
    <glyph glyph-name="odieresis" unicode="&#xf6;" horiz-adv-x="1153" 
d="M516 1481v-209h-137v209h137zM778 1481v-209h-137v209h137zM578 -20q-222 0 -345.5 148t-123.5 394q0 250 126 403.5t345 153.5q217 0 340.5 -152.5t123.5 -400.5q0 -247 -123.5 -396.5t-342.5 -149.5zM582 88q164 0 247.5 119.5t83.5 320.5t-85 321t-248 120
q-165 0 -252.5 -121t-87.5 -320q0 -198 88 -319t254 -121z" />
    <glyph glyph-name="divide" unicode="&#xf7;" horiz-adv-x="1116" 
d="M655 1178v-191h-196v191h196zM975 799v-109l-838 -2v109zM655 502v-189h-196v189h196z" />
    <glyph glyph-name="oslash" unicode="&#xf8;" horiz-adv-x="1179" 
d="M1137 997l-152 -147q72 -138 72 -324q0 -247 -124 -396.5t-343 -149.5t-344 147l-142 -137l-65 69l151 148q-69 132 -69 315q0 250 126 403.5t345 153.5q214 0 340 -151l139 137zM252 528q0 -127 37 -225l555 541q-88 125 -252 125q-165 0 -252.5 -121t-87.5 -320z
M926 528q0 130 -37 228l-553 -541q87 -127 258 -127q164 0 248 119.5t84 320.5z" />
    <glyph glyph-name="ugrave" unicode="&#xf9;" 
d="M317 1499l490 -194l-25 -78l-501 155zM573 -18q-56 1 -109.5 12.5t-107 39.5t-93 68.5t-64.5 104.5t-25 143v713h131v-705q0 -74 26.5 -128.5t70 -83.5t90.5 -42.5t96 -13.5q58 0 110.5 18t94 52t66.5 89t26 124v690h131l-2 -1061h-109l-8 215q-25 -121 -114.5 -179
t-209.5 -56z" />
    <glyph glyph-name="uacute" unicode="&#xfa;" 
d="M799 1499l39 -117l-502 -155l-27 78zM573 -18q-56 1 -109.5 12.5t-107 39.5t-93 68.5t-64.5 104.5t-25 143v713h131v-705q0 -74 26.5 -128.5t70 -83.5t90.5 -42.5t96 -13.5q58 0 110.5 18t94 52t66.5 89t26 124v690h131l-2 -1061h-109l-8 215q-25 -121 -114.5 -179
t-209.5 -56z" />
    <glyph glyph-name="ucircumflex" unicode="&#xfb;" 
d="M721 1272l-148 129l-157 -129h-140l250 213h99l245 -213h-149zM573 -18q-56 1 -109.5 12.5t-107 39.5t-93 68.5t-64.5 104.5t-25 143v713h131v-705q0 -74 26.5 -128.5t70 -83.5t90.5 -42.5t96 -13.5q58 0 110.5 18t94 52t66.5 89t26 124v690h131l-2 -1061h-109l-8 215
q-25 -121 -114.5 -179t-209.5 -56z" />
    <glyph glyph-name="udieresis" unicode="&#xfc;" 
d="M510 1481v-209h-137v209h137zM772 1481v-209h-137v209h137zM573 -18q-56 1 -109.5 12.5t-107 39.5t-93 68.5t-64.5 104.5t-25 143v713h131v-705q0 -74 26.5 -128.5t70 -83.5t90.5 -42.5t96 -13.5q58 0 110.5 18t94 52t66.5 89t26 124v690h131l-2 -1061h-109l-8 215
q-25 -121 -114.5 -179t-209.5 -56z" />
    <glyph glyph-name="yacute" unicode="&#xfd;" horiz-adv-x="1077" 
d="M776 1499l39 -117l-502 -155l-26 78zM250 -338q-49 0 -85 5t-47 11l-12 5v86h113q96 -3 143 30.5t72 91.5l45 123l-411 1045h133l344 -887l340 887h127l-457 -1180q-47 -118 -122 -167.5t-183 -49.5z" />
    <glyph glyph-name="thorn" unicode="&#xfe;" horiz-adv-x="1198" 
d="M301 1481v-574q50 58 76 80q110 92 266 92q198 0 322.5 -137.5t124.5 -394.5q0 -261 -127 -414t-340 -153q-165 0 -289 100q-17 15 -23 12t-6 -26v-396h-131v1811h127zM305 221q142 -139 291 -139q161 0 260.5 121.5t99.5 337.5q0 111 -28 196.5t-76.5 136.5t-110 77
t-133.5 26q-128 0 -215.5 -80t-87.5 -170v-506z" />
    <glyph glyph-name="ydieresis" unicode="&#xff;" horiz-adv-x="1077" 
d="M487 1481v-209h-137v209h137zM750 1481v-209h-138v209h138zM250 -338q-49 0 -85 5t-47 11l-12 5v86h113q96 -3 143 30.5t72 91.5l45 123l-411 1045h133l344 -887l340 887h127l-457 -1180q-47 -118 -122 -167.5t-183 -49.5z" />
    <glyph glyph-name="Amacron" unicode="&#x100;" horiz-adv-x="1443" 
d="M1001 1870v-103h-552v103h552zM104 0l539 1481h160l538 -1481h-137l-157 438h-646l-163 -438h-134zM438 565h568l-281 785z" />
    <glyph glyph-name="amacron" unicode="&#x101;" horiz-adv-x="1157" 
d="M852 1448v-102h-553v102h553zM467 -20q-157 0 -250.5 80.5t-93.5 218.5q0 177 118.5 260t385.5 92l219 6v94q0 114 -76 178t-203 64q-107 0 -183.5 -53.5t-94.5 -151.5h-123q8 131 117.5 221t291.5 90q185 0 291.5 -92t106.5 -252v-735h-115l-8 199q-113 -219 -383 -219z
M500 82q79 0 159.5 37.5t133.5 99.5t53 125v197l-182 -4q-221 -5 -316.5 -62t-95.5 -186q0 -96 68 -151.5t180 -55.5z" />
    <glyph glyph-name="Abreve" unicode="&#x102;" horiz-adv-x="1443" 
d="M1012 1903q-24 -78 -99 -139.5t-188 -61.5q-114 0 -186.5 58.5t-94.5 142.5h115q14 -22 22.5 -32.5t29.5 -30.5t49.5 -30t64.5 -10q103 0 168 103h119zM104 0l539 1481h160l538 -1481h-137l-157 438h-646l-163 -438h-134zM438 565h568l-281 785z" />
    <glyph glyph-name="abreve" unicode="&#x103;" horiz-adv-x="1157" 
d="M862 1481q-24 -78 -99 -139.5t-188 -61.5q-114 0 -186 58t-94 143h115q11 -16 14 -20.5t16 -21t23.5 -24t28 -18t38.5 -15t45 -4.5q103 0 168 103h119zM467 -20q-157 0 -250.5 80.5t-93.5 218.5q0 177 118.5 260t385.5 92l219 6v94q0 114 -76 178t-203 64
q-107 0 -183.5 -53.5t-94.5 -151.5h-123q8 131 117.5 221t291.5 90q185 0 291.5 -92t106.5 -252v-735h-115l-8 199q-113 -219 -383 -219zM500 82q79 0 159.5 37.5t133.5 99.5t53 125v197l-182 -4q-221 -5 -316.5 -62t-95.5 -186q0 -96 68 -151.5t180 -55.5z" />
    <glyph glyph-name="Aogonek" unicode="&#x104;" horiz-adv-x="1443" 
d="M1376 -229q17 9 17 -11v-49q0 -13 -11 -18q-73 -33 -165 -33q-94 0 -143.5 42.5t-49.5 115.5q0 63 40.5 108.5t137.5 79.5l-155 432h-646l-163 -438h-134l539 1481h160l538 -1481h-12q-98 -44 -142 -84.5t-44 -91.5q0 -41 24.5 -60.5t79.5 -19.5q75 0 129 27zM438 565
h568l-281 785z" />
    <glyph glyph-name="aogonek" unicode="&#x105;" horiz-adv-x="1157" 
d="M1006 -223q9 5 12.5 2.5t3.5 -12.5v-50q0 -13 -10 -18q-73 -33 -166 -33q-94 0 -143.5 42.5t-49.5 115.5q0 66 46.5 113.5t158.5 82.5l-8 179q-113 -219 -383 -219q-157 0 -250.5 80.5t-93.5 218.5q0 177 118.5 260t385.5 92l219 6v94q0 114 -76 178t-203 64
q-107 0 -183.5 -53.5t-94.5 -151.5h-123q8 131 117.5 221t291.5 90q185 0 291.5 -92t106.5 -252v-735h-27q-92 -42 -133 -81t-41 -89q0 -80 105 -80q75 0 129 27zM846 344v197l-182 -4q-221 -5 -316.5 -62t-95.5 -186q0 -96 68 -151.5t180 -55.5q79 0 159.5 37.5t133.5 99.5
t53 125z" />
    <glyph glyph-name="Cacute" unicode="&#x106;" horiz-adv-x="1409" 
d="M977 1921l39 -117l-502 -155l-27 77zM737 1501q226 0 375 -123t170 -303l-139 -12q-29 145 -132.5 231t-273.5 86q-223 0 -338.5 -162t-115.5 -481q0 -313 117.5 -475t351.5 -162q145 0 249 81t136 222l137 -18q-19 -172 -167 -288.5t-355 -116.5q-293 0 -453 199.5
t-160 559.5t156 561t442 201z" />
    <glyph glyph-name="cacute" unicode="&#x107;" horiz-adv-x="1126" 
d="M813 1499l37 -117l-502 -155l-24 78zM590 1079q154 0 268.5 -85t142.5 -240l-124 -4q-30 110 -103.5 163.5t-175.5 53.5q-162 0 -257 -120t-95 -319q0 -202 94.5 -322t257.5 -120q105 0 181.5 57t99.5 160h120q-15 -82 -54 -145t-95 -101t-121.5 -57.5t-138.5 -19.5
q-216 0 -343.5 149.5t-127.5 394.5q0 248 127.5 401.5t343.5 153.5z" />
    <glyph glyph-name="Ccircumflex" unicode="&#x108;" horiz-adv-x="1409" 
d="M897 1694l-147 129l-158 -129h-139l249 213h99l246 -213h-150zM737 1501q226 0 375 -123t170 -303l-139 -12q-29 145 -132.5 231t-273.5 86q-223 0 -338.5 -162t-115.5 -481q0 -313 117.5 -475t351.5 -162q145 0 249 81t136 222l137 -18q-19 -172 -167 -288.5
t-355 -116.5q-293 0 -453 199.5t-160 559.5t156 561t442 201z" />
    <glyph glyph-name="ccircumflex" unicode="&#x109;" horiz-adv-x="1126" 
d="M735 1272l-147 129l-158 -129h-139l250 213h98l244 -213h-148zM590 1079q154 0 268.5 -85t142.5 -240l-124 -4q-30 110 -103.5 163.5t-175.5 53.5q-162 0 -257 -120t-95 -319q0 -202 94.5 -322t257.5 -120q105 0 181.5 57t99.5 160h120q-15 -82 -54 -145t-95 -101
t-121.5 -57.5t-138.5 -19.5q-216 0 -343.5 149.5t-127.5 394.5q0 248 127.5 401.5t343.5 153.5z" />
    <glyph glyph-name="Cdotaccent" unicode="&#x10a;" horiz-adv-x="1409" 
d="M823 1903v-217h-145v217h145zM737 1501q226 0 375 -123t170 -303l-139 -12q-29 145 -132.5 231t-273.5 86q-223 0 -338.5 -162t-115.5 -481q0 -313 117.5 -475t351.5 -162q145 0 249 81t136 222l137 -18q-19 -172 -167 -288.5t-355 -116.5q-293 0 -453 199.5t-160 559.5
t156 561t442 201z" />
    <glyph glyph-name="cdotaccent" unicode="&#x10b;" horiz-adv-x="1126" 
d="M659 1481v-217h-145v217h145zM590 1079q154 0 268.5 -85t142.5 -240l-124 -4q-30 110 -103.5 163.5t-175.5 53.5q-162 0 -257 -120t-95 -319q0 -202 94.5 -322t257.5 -120q105 0 181.5 57t99.5 160h120q-15 -82 -54 -145t-95 -101t-121.5 -57.5t-138.5 -19.5
q-216 0 -343.5 149.5t-127.5 394.5q0 248 127.5 401.5t343.5 153.5z" />
    <glyph glyph-name="Ccaron" unicode="&#x10c;" horiz-adv-x="1409" 
d="M897 1903h150l-246 -213h-99l-251 213h141l158 -129zM737 1501q226 0 375 -123t170 -303l-139 -12q-29 145 -132.5 231t-273.5 86q-223 0 -338.5 -162t-115.5 -481q0 -313 117.5 -475t351.5 -162q145 0 249 81t136 222l137 -18q-19 -172 -167 -288.5t-355 -116.5
q-293 0 -453 199.5t-160 559.5t156 561t442 201z" />
    <glyph glyph-name="ccaron" unicode="&#x10d;" horiz-adv-x="1126" 
d="M735 1481h148l-244 -213h-98l-252 213h141l158 -129zM590 1079q154 0 268.5 -85t142.5 -240l-124 -4q-30 110 -103.5 163.5t-175.5 53.5q-162 0 -257 -120t-95 -319q0 -202 94.5 -322t257.5 -120q105 0 181.5 57t99.5 160h120q-15 -82 -54 -145t-95 -101t-121.5 -57.5
t-138.5 -19.5q-216 0 -343.5 149.5t-127.5 394.5q0 248 127.5 401.5t343.5 153.5z" />
    <glyph glyph-name="Dcaron" unicode="&#x10e;" horiz-adv-x="1404" 
d="M827 1903h150l-246 -213h-98l-252 213h141l158 -129zM213 1481q1 0 48.5 -0.5t117 -1t123.5 -0.5q404 -3 588 -181.5t184 -545.5q0 -383 -195 -567.5t-600 -184.5h-266v1481zM348 1362v-1241h127q164 0 284.5 33.5t206.5 106.5t128.5 193.5t42.5 290.5q0 175 -42.5 295.5
t-129 190.5t-203 100.5t-277.5 30.5h-137z" />
    <glyph glyph-name="dcaron" unicode="&#x10f;" horiz-adv-x="1173" 
d="M553 -20q-201 0 -317.5 137.5t-116.5 396.5q0 258 117.5 411.5t330.5 153.5q90 0 165 -32.5t151 -100.5v576h131v-1522h-109l-8 201q-96 -221 -344 -221zM1104 1044q-7 0 -10.5 6t-1.5 11l59 141q5 12 4 17t-10 6l-15 2q-18 3 -18 18v156q0 14 14 14h103q14 0 14 -12
v-176q0 -4 -4 -8l-65 -158q-8 -17 -33 -17h-37zM575 86q126 0 217 88.5t91 187.5v447q-125 162 -293 162q-160 0 -250 -117t-90 -332q0 -216 89.5 -326t235.5 -110z" />
    <glyph glyph-name="Dcroat" unicode="&#x110;" horiz-adv-x="1421" 
d="M520 1479q404 -3 587 -181.5t183 -545.5q0 -383 -194.5 -567.5t-599.5 -184.5h-267v686h-131q-24 0 -24 25v67q0 23 18 23h137v680q1 0 48.5 -0.5t117.5 -1t125 -0.5zM492 121q164 0 284.5 33.5t206 106.5t128 193.5t42.5 290.5q0 140 -28.5 245.5t-81 176t-134 114.5
t-180.5 62.5t-227 18.5h-135v-561h333q17 0 17 -21v-67q0 -27 -31 -27h-319v-565h125z" />
    <glyph glyph-name="dcroat" unicode="&#x111;" horiz-adv-x="1216" 
d="M1157 1329v-92h-143v-1237h-109l-8 201q-96 -221 -344 -221q-201 0 -317.5 137.5t-116.5 396.5q0 258 117.5 411.5t330.5 153.5q90 0 165 -32.5t151 -100.5v291h-328v92h328v193h131v-193h143zM883 362v447q-125 162 -293 162q-160 0 -250 -117t-90 -332
q0 -216 89.5 -326t235.5 -110q126 0 217 88.5t91 187.5z" />
    <glyph glyph-name="Emacron" unicode="&#x112;" horiz-adv-x="1267" 
d="M956 1870v-103h-553v103h553zM213 0v1481h887v-121h-758v-551h696v-121h-696v-563l782 -2v-123h-911z" />
    <glyph glyph-name="emacron" unicode="&#x113;" horiz-adv-x="1159" 
d="M862 1448v-102h-553v102h553zM252 498q0 -115 36 -205t115.5 -146.5t194.5 -56.5q229 0 295 205h127q-40 -157 -153 -236t-267 -79q-217 0 -349 143.5t-132 396.5q0 259 123 409t344 150q211 0 327.5 -137t116.5 -381v-63h-778zM254 600h649q0 166 -81 268.5t-238 102.5
q-83 0 -148 -32.5t-104 -86t-59 -118t-19 -134.5z" />
    <glyph glyph-name="Ebreve" unicode="&#x114;" horiz-adv-x="1267" 
d="M967 1903q-24 -78 -99 -139.5t-188 -61.5q-114 0 -186.5 58.5t-94.5 142.5h115q14 -22 22.5 -32.5t29.5 -30.5t49.5 -30t64.5 -10q103 0 168 103h119zM213 0v1481h887v-121h-758v-551h696v-121h-696v-563l782 -2v-123h-911z" />
    <glyph glyph-name="ebreve" unicode="&#x115;" horiz-adv-x="1159" 
d="M872 1481q-24 -79 -98.5 -140t-187.5 -61q-114 0 -187 58.5t-94 142.5h115q14 -22 22.5 -32.5t29.5 -30.5t49.5 -30t64.5 -10q103 0 168 103h118zM252 498q0 -115 36 -205t115.5 -146.5t194.5 -56.5q229 0 295 205h127q-40 -157 -153 -236t-267 -79q-217 0 -349 143.5
t-132 396.5q0 259 123 409t344 150q211 0 327.5 -137t116.5 -381v-63h-778zM254 600h649q0 166 -81 268.5t-238 102.5q-83 0 -148 -32.5t-104 -86t-59 -118t-19 -134.5z" />
    <glyph glyph-name="Edotaccent" unicode="&#x116;" horiz-adv-x="1267" 
d="M754 1903v-217h-146v217h146zM213 0v1481h887v-121h-758v-551h696v-121h-696v-563l782 -2v-123h-911z" />
    <glyph glyph-name="edotaccent" unicode="&#x117;" horiz-adv-x="1159" 
d="M659 1481v-217h-145v217h145zM252 498q0 -115 36 -205t115.5 -146.5t194.5 -56.5q229 0 295 205h127q-40 -157 -153 -236t-267 -79q-217 0 -349 143.5t-132 396.5q0 259 123 409t344 150q211 0 327.5 -137t116.5 -381v-63h-778zM254 600h649q0 166 -81 268.5t-238 102.5
q-83 0 -148 -32.5t-104 -86t-59 -118t-19 -134.5z" />
    <glyph glyph-name="Eogonek" unicode="&#x118;" horiz-adv-x="1267" 
d="M1161 -231q17 9 17 -11v-49q0 -13 -11 -18q-73 -33 -166 -33q-94 0 -143 42.5t-49 115.5q0 60 38.5 105t129.5 79h-764v1481h887v-121h-758v-551h696v-121h-696v-563l782 -2v-123h-4q-103 -46 -147.5 -85.5t-44.5 -92.5q0 -41 24.5 -60.5t79.5 -19.5q75 0 129 27z" />
    <glyph glyph-name="eogonek" unicode="&#x119;" horiz-adv-x="1159" 
d="M1030 561v-63h-778q0 -115 36 -205t115.5 -146.5t194.5 -56.5q229 0 295 205h127q-51 -198 -217 -275h2q-107 -46 -153 -86t-46 -94q0 -80 105 -80q75 0 129 27q18 12 18 -8v-49q0 -12 -12 -21q-73 -33 -166 -33q-94 0 -142.5 43.5t-48.5 116.5q0 88 84 144
q-206 9 -330 152t-124 388q0 259 123 409t344 150q211 0 327.5 -137t116.5 -381zM254 600h649q0 166 -81 268.5t-238 102.5q-83 0 -148 -32.5t-104 -86t-59 -118t-19 -134.5z" />
    <glyph glyph-name="Ecaron" unicode="&#x11a;" horiz-adv-x="1267" 
d="M827 1903h150l-246 -213h-98l-252 213h141l158 -129zM213 0v1481h887v-121h-758v-551h696v-121h-696v-563l782 -2v-123h-911z" />
    <glyph glyph-name="ecaron" unicode="&#x11b;" horiz-adv-x="1159" 
d="M733 1481h150l-246 -213h-98l-250 213h139l158 -129zM252 498q0 -115 36 -205t115.5 -146.5t194.5 -56.5q229 0 295 205h127q-40 -157 -153 -236t-267 -79q-217 0 -349 143.5t-132 396.5q0 259 123 409t344 150q211 0 327.5 -137t116.5 -381v-63h-778zM254 600h649
q0 166 -81 268.5t-238 102.5q-83 0 -148 -32.5t-104 -86t-59 -118t-19 -134.5z" />
    <glyph glyph-name="Gcircumflex" unicode="&#x11c;" horiz-adv-x="1492" 
d="M895 1694l-147 129l-158 -129h-139l249 213h99l245 -213h-149zM745 -20q-284 0 -445 200t-161 555q0 361 165 563.5t448 202.5q132 0 251 -58t194 -155t85 -209l-145 -14q-24 135 -131 224t-256 89q-222 0 -346.5 -164.5t-124.5 -465.5q0 -317 124.5 -482.5t348.5 -165.5
q82 0 152.5 25.5t118.5 67.5t82.5 95.5t51 108t17.5 107.5l2 153h-390v103l523 -2v-758h-109v244q-64 -118 -178 -191t-277 -73z" />
    <glyph glyph-name="gcircumflex" unicode="&#x11d;" horiz-adv-x="1245" 
d="M750 1272l-148 129l-158 -129h-139l250 213h98l246 -213h-149zM590 -350q-241 0 -371.5 77t-130.5 212q0 44 17 82.5t44.5 65.5t53 45t52 33t30.5 19q-5 3 -24 14.5t-28 19t-22 20.5t-19 29.5t-6 37.5q0 47 44.5 86t127.5 60q-101 53 -144.5 120.5t-43.5 167.5
q0 157 118 246.5t320 89.5q179 0 301 -96l248 104v-145l-186 -37q16 -32 28.5 -80t12.5 -82q0 -142 -107 -234.5t-313 -92.5l-41 2q-86 -2 -141.5 -15.5t-76 -31.5t-20.5 -39q0 -32 45.5 -46t167.5 -22l236 -14q323 -20 323 -279q0 -150 -130 -233.5t-365 -83.5zM596 510
q144 0 217.5 58t73.5 171q0 116 -75.5 179t-215.5 63q-141 0 -219 -64t-78 -178q0 -112 77 -170.5t220 -58.5zM614 -254q342 0 342 209q0 78 -49 121.5t-162 50.5l-327 20q-60 3 -129.5 -55t-69.5 -139q0 -101 102 -154t293 -53z" />
    <glyph glyph-name="Gbreve" unicode="&#x11e;" horiz-adv-x="1492" 
d="M1034 1903q-24 -79 -98.5 -140t-187.5 -61q-114 0 -186.5 58.5t-94.5 142.5h115q14 -22 22.5 -32.5t29.5 -30.5t49.5 -30t64.5 -10q102 0 167 103h119zM745 -20q-284 0 -445 200t-161 555q0 361 165 563.5t448 202.5q132 0 251 -58t194 -155t85 -209l-145 -14
q-24 135 -131 224t-256 89q-222 0 -346.5 -164.5t-124.5 -465.5q0 -317 124.5 -482.5t348.5 -165.5q82 0 152.5 25.5t118.5 67.5t82.5 95.5t51 108t17.5 107.5l2 153h-390v103l523 -2v-758h-109v244q-64 -118 -178 -191t-277 -73z" />
    <glyph glyph-name="gbreve" unicode="&#x11f;" horiz-adv-x="1245" 
d="M889 1481q-24 -78 -99 -139.5t-188 -61.5q-114 0 -186 58t-94 143h114q14 -22 22.5 -32.5t29.5 -30.5t49.5 -30t64.5 -10q103 0 168 103h119zM590 -350q-241 0 -371.5 77t-130.5 212q0 44 17 82.5t44.5 65.5t53 45t52 33t30.5 19q-5 3 -24 14.5t-28 19t-22 20.5t-19 29.5
t-6 37.5q0 47 44.5 86t127.5 60q-101 53 -144.5 120.5t-43.5 167.5q0 157 118 246.5t320 89.5q179 0 301 -96l248 104v-145l-186 -37q16 -32 28.5 -80t12.5 -82q0 -142 -107 -234.5t-313 -92.5l-41 2q-86 -2 -141.5 -15.5t-76 -31.5t-20.5 -39q0 -32 45.5 -46t167.5 -22
l236 -14q323 -20 323 -279q0 -150 -130 -233.5t-365 -83.5zM596 510q144 0 217.5 58t73.5 171q0 116 -75.5 179t-215.5 63q-141 0 -219 -64t-78 -178q0 -112 77 -170.5t220 -58.5zM614 -254q342 0 342 209q0 78 -49 121.5t-162 50.5l-327 20q-60 3 -129.5 -55t-69.5 -139
q0 -101 102 -154t293 -53z" />
    <glyph glyph-name="Gdotaccent" unicode="&#x120;" horiz-adv-x="1492" 
d="M821 1903v-217h-145v217h145zM745 -20q-284 0 -445 200t-161 555q0 361 165 563.5t448 202.5q132 0 251 -58t194 -155t85 -209l-145 -14q-24 135 -131 224t-256 89q-222 0 -346.5 -164.5t-124.5 -465.5q0 -317 124.5 -482.5t348.5 -165.5q82 0 152.5 25.5t118.5 67.5
t82.5 95.5t51 108t17.5 107.5l2 153h-390v103l523 -2v-758h-109v244q-64 -118 -178 -191t-277 -73z" />
    <glyph glyph-name="gdotaccent" unicode="&#x121;" horiz-adv-x="1245" 
d="M674 1481v-217h-146v217h146zM590 -350q-241 0 -371.5 77t-130.5 212q0 44 17 82.5t44.5 65.5t53 45t52 33t30.5 19q-5 3 -24 14.5t-28 19t-22 20.5t-19 29.5t-6 37.5q0 47 44.5 86t127.5 60q-101 53 -144.5 120.5t-43.5 167.5q0 157 118 246.5t320 89.5q179 0 301 -96
l248 104v-145l-186 -37q16 -32 28.5 -80t12.5 -82q0 -142 -107 -234.5t-313 -92.5l-41 2q-86 -2 -141.5 -15.5t-76 -31.5t-20.5 -39q0 -32 45.5 -46t167.5 -22l236 -14q323 -20 323 -279q0 -150 -130 -233.5t-365 -83.5zM596 510q144 0 217.5 58t73.5 171q0 116 -75.5 179
t-215.5 63q-141 0 -219 -64t-78 -178q0 -112 77 -170.5t220 -58.5zM614 -254q342 0 342 209q0 78 -49 121.5t-162 50.5l-327 20q-60 3 -129.5 -55t-69.5 -139q0 -101 102 -154t293 -53z" />
    <glyph glyph-name="uni0122" unicode="&#x122;" horiz-adv-x="1492" 
d="M745 -20q-284 0 -445 200t-161 555q0 361 165 563.5t448 202.5q132 0 251 -58t194 -155t85 -209l-145 -14q-24 135 -131 224t-256 89q-222 0 -346.5 -164.5t-124.5 -465.5q0 -317 124.5 -482.5t348.5 -165.5q82 0 152.5 25.5t118.5 67.5t82.5 95.5t51 108t17.5 107.5
l2 153h-390v103l523 -2v-758h-109v244q-64 -118 -178 -191t-277 -73zM698 -475q-7 0 -11 7t-1 13l53 105q6 10 2.5 17t-12.5 7h-16q-21 0 -21 23v129q0 20 17 20h106q14 0 14 -16v-156l-2 -14l-69 -119q-8 -16 -33 -16h-27z" />
    <glyph glyph-name="uni0123" unicode="&#x123;" horiz-adv-x="1245" 
d="M492 1251v183l79 139h76l-78 -150h60v-172h-137zM590 -350q-241 0 -371.5 77t-130.5 212q0 44 17 82.5t44.5 65.5t53 45t52 33t30.5 19q-5 3 -24 14.5t-28 19t-22 20.5t-19 29.5t-6 37.5q0 47 44.5 86t127.5 60q-101 53 -144.5 120.5t-43.5 167.5q0 157 118 246.5
t320 89.5q179 0 301 -96l248 104v-145l-186 -37q16 -32 28.5 -80t12.5 -82q0 -142 -107 -234.5t-313 -92.5l-41 2q-86 -2 -141.5 -15.5t-76 -31.5t-20.5 -39q0 -32 45.5 -46t167.5 -22l236 -14q323 -20 323 -279q0 -150 -130 -233.5t-365 -83.5zM596 510q144 0 217.5 58
t73.5 171q0 116 -75.5 179t-215.5 63q-141 0 -219 -64t-78 -178q0 -112 77 -170.5t220 -58.5zM614 -254q342 0 342 209q0 78 -49 121.5t-162 50.5l-327 20q-60 3 -129.5 -55t-69.5 -139q0 -101 102 -154t293 -53z" />
    <glyph glyph-name="Hcircumflex" unicode="&#x124;" horiz-adv-x="1435" 
d="M868 1694l-147 129l-158 -129h-139l250 213h98l246 -213h-150zM1102 709h-760v-709h-129v1481h129v-652h760v652h129v-1481h-129v709z" />
    <glyph glyph-name="hcircumflex" unicode="&#x125;" horiz-adv-x="1173" 
d="M174 0v1522h125v-617q44 75 134 122.5t212 47.5q159 0 264 -84.5t105 -218.5v-772h-129v739q0 105 -71.5 164.5t-192.5 59.5q-136 0 -226 -61t-90 -177v-725h-131zM842 1272l-148 129l-157 -129h-140l250 213h98l246 -213h-149z" />
    <glyph glyph-name="Hbar" unicode="&#x126;" horiz-adv-x="1456" 
d="M1423 1247q15 0 15 -18v-55q0 -27 -29 -27h-162v-1147h-129v709h-760v-709h-129v1147h-190q-13 0 -18 5t-5 17v56q0 22 17 22h196v234h129v-234h760v234h129v-234h176zM1118 829v318h-760v-318h760z" />
    <glyph glyph-name="hbar" unicode="&#x127;" horiz-adv-x="1191" 
d="M662 1075q158 0 263 -84.5t105 -218.5v-772h-129v739q0 105 -71 164.5t-193 59.5q-87 0 -156.5 -25t-114 -80t-44.5 -133v-725h-129v1237h-150v92h150v193h122v-193h332v-92h-332v-332q44 75 134.5 122.5t212.5 47.5z" />
    <glyph glyph-name="Itilde" unicode="&#x128;" horiz-adv-x="544" 
d="M553 1788q-65 -43 -143 -43q-55 0 -128.5 25.5t-115.5 25.5q-20 0 -39 -4.5t-28.5 -9t-27 -14.5t-22.5 -13q-10 -6 -15 -5t-9 13l-17 45q-6 14 6 21q70 59 144 59q48 0 128.5 -27.5t123.5 -27.5q22 0 43 6t32 11.5t35 19.5q19 14 27 -8l18 -52q6 -12 -12 -22zM213 1481
h129v-1481h-129v1481z" />
    <glyph glyph-name="itilde" unicode="&#x129;" horiz-adv-x="499" 
d="M518 1366q-65 -43 -143 -43q-55 0 -128.5 25.5t-115.5 25.5q-20 0 -39 -4.5t-28.5 -9t-27 -14.5t-22.5 -13q-10 -6 -15 -5t-9 13l-17 45q-5 14 7 21q70 59 143 59q48 0 128.5 -27.5t123.5 -27.5q22 0 43 6t32 11.5t35 19.5q19 14 27 -8l18 -51q6 -13 -12 -23zM315 1059
v-1059h-129v1059h129z" />
    <glyph glyph-name="Imacron" unicode="&#x12a;" horiz-adv-x="544" 
d="M561 1870v-103h-553v103h553zM213 1481h129v-1481h-129v1481z" />
    <glyph glyph-name="imacron" unicode="&#x12b;" horiz-adv-x="499" 
d="M526 1448v-102h-553v102h553zM315 1059v-1059h-129v1059h129z" />
    <glyph glyph-name="Ibreve" unicode="&#x12c;" horiz-adv-x="544" 
d="M571 1903q-24 -79 -98.5 -140t-187.5 -61q-114 0 -186.5 58.5t-94.5 142.5h115q14 -22 22.5 -32.5t29.5 -30.5t49.5 -30t64.5 -10q103 0 168 103h118zM213 1481h129v-1481h-129v1481z" />
    <glyph glyph-name="ibreve" unicode="&#x12d;" horiz-adv-x="499" 
d="M537 1481q-24 -78 -99 -139.5t-188 -61.5q-114 0 -186.5 58.5t-94.5 142.5h115q14 -22 22.5 -32.5t29.5 -30.5t49.5 -30t64.5 -10q103 0 168 103h119zM315 1059v-1059h-129v1059h129z" />
    <glyph glyph-name="Iogonek" unicode="&#x12e;" horiz-adv-x="544" 
d="M375 -233q16 8 16 -11v-49q0 -13 -10 -18q-73 -33 -166 -33q-94 0 -143 42.5t-49 115.5q0 65 42.5 111t147.5 81v1475h129v-1481h-4q-105 -46 -151 -86.5t-46 -93.5q0 -80 105 -80q75 0 129 27z" />
    <glyph glyph-name="iogonek" unicode="&#x12f;" horiz-adv-x="499" 
d="M324 1481v-217h-146v217h146zM344 -225q16 8 16 -11v-49q0 -13 -10 -18q-73 -33 -166 -33q-94 0 -143 42.5t-49 115.5q0 65 44 112t150 82v1043h129v-1059h-26q-94 -42 -136 -82t-42 -90q0 -41 24.5 -60.5t79.5 -19.5q75 0 129 27z" />
    <glyph glyph-name="Idotaccent" unicode="&#x130;" horiz-adv-x="544" 
d="M356 1903v-217h-145v217h145zM213 1481h129v-1481h-129v1481z" />
    <glyph glyph-name="dotlessi" unicode="&#x131;" horiz-adv-x="499" 
d="M315 1059v-1059h-129v1059h129z" />
    <glyph glyph-name="IJ" unicode="&#x132;" horiz-adv-x="1316" 
d="M213 1481h129v-1481h-129v1481zM1110 315q0 -169 -62 -252t-219 -83q-72 0 -139 19t-92 34l16 131q9 -4 34.5 -16t43.5 -19t49 -13.5t64 -6.5q98 0 136 55t38 192v1125h131v-1166z" />
    <glyph glyph-name="ij" unicode="&#x133;" horiz-adv-x="1028" 
d="M338 1522v-219h-145v219h145zM858 1522v-219h-145v219h145zM332 1059v-1059h-131v1059h131zM850 -78q0 -139 -55.5 -200.5t-198.5 -61.5q-33 0 -58.5 2t-38.5 5t-21.5 6.5t-10.5 5.5l-2 2v86l117 4q75 3 107 39t32 120v1129h129v-1137z" />
    <glyph glyph-name="Jcircumflex" unicode="&#x134;" horiz-adv-x="772" 
d="M635 1694l-148 129l-157 -129h-140l250 213h99l245 -213h-149zM565 315q0 -169 -62 -252t-218 -83q-72 0 -139.5 19t-92.5 34l17 131q9 -4 34.5 -16t43 -19t48.5 -13.5t64 -6.5q98 0 136 55t38 192v1125h131v-1166z" />
    <glyph glyph-name="jcircumflex" unicode="&#x135;" horiz-adv-x="483" 
d="M387 1272l-147 129l-158 -129h-139l250 213h98l246 -213h-150zM307 -78q0 -138 -56.5 -200t-199.5 -62q-57 0 -86.5 2.5t-38 6.5t-8.5 12v86l119 4q75 3 107 39t32 120v1129h131v-1137z" />
    <glyph glyph-name="uni0136" unicode="&#x136;" horiz-adv-x="1357" 
d="M1282 0h-158l-501 801l-275 -312v-489h-135v1481h135v-813l729 813h164l-514 -582zM631 -475q-7 0 -11.5 7t-1.5 13l54 105q6 10 2.5 17t-12.5 7h-17q-20 0 -20 23v129q0 20 16 20h107q14 0 14 -16v-156l-2 -14l-70 -119q-8 -16 -33 -16h-26z" />
    <glyph glyph-name="uni0137" unicode="&#x137;" horiz-adv-x="1138" 
d="M1055 0h-148l-354 571l-248 -252v-319h-131v1522h131v-1047l559 584h158l-381 -393zM504 -475q-7 0 -11 7t-1 13l53 105q6 10 2.5 17t-12.5 7h-17q-20 0 -20 23v129q0 20 16 20h107q14 0 14 -16v-156l-2 -14l-70 -119q-8 -16 -33 -16h-26z" />
    <glyph glyph-name="kgreenlandic" unicode="&#x138;" horiz-adv-x="1148" 
d="M1065 0h-158l-346 580l-256 -261v-319h-131v1059h131v-586l565 586h158l-373 -379z" />
    <glyph glyph-name="Lacute" unicode="&#x139;" horiz-adv-x="1148" 
d="M508 1921l39 -117l-502 -155l-27 77zM213 1481h135v-1356h731v-125h-866v1481z" />
    <glyph glyph-name="lacute" unicode="&#x13a;" horiz-adv-x="614" 
d="M471 2001l37 -115l-500 -155l-26 77zM410 -10q-230 0 -230 268v1264h129v-1254q0 -89 33 -132.5t86 -45.5h61v-88q-43 -12 -79 -12z" />
    <glyph glyph-name="uni013B" unicode="&#x13b;" horiz-adv-x="1148" 
d="M213 1481h135v-1356h731v-125h-866v1481zM575 -475q-7 0 -11 7t-1 13l53 105q6 10 2.5 17t-12.5 7h-16q-21 0 -21 23v129q0 20 17 20h106q15 0 15 -16v-156l-2 -14l-70 -119q-8 -16 -33 -16h-27z" />
    <glyph glyph-name="uni013C" unicode="&#x13c;" horiz-adv-x="614" 
d="M410 -10q-230 0 -230 268v1264h129v-1254q0 -89 33 -132.5t86 -45.5h61v-88q-43 -12 -79 -12zM182 -475q-8 0 -11 7t1 13l51 105q6 10 3 17t-13 7h-16q-19 0 -19 23v129q0 20 17 20h104q16 0 16 -16v-156q0 -2 -2 -7.5t-2 -6.5l-67 -119q-11 -16 -35 -16h-27z" />
    <glyph glyph-name="Lcaron" unicode="&#x13d;" horiz-adv-x="1148" 
d="M213 1481h135v-1356h731v-125h-866v1481zM739 1110q-7 0 -10.5 5.5t-1.5 10.5l59 142q5 12 4 16.5t-10 5.5l-14 2q-18 3 -18 19v155q0 15 14 15h102q15 0 15 -13v-176q0 -3 -5 -8l-65 -158q-8 -16 -33 -16h-37z" />
    <glyph glyph-name="lcaron" unicode="&#x13e;" horiz-adv-x="608" 
d="M410 -10q-230 0 -230 268v1264h129v-1254q0 -89 33 -132.5t86 -45.5h61v-88q-43 -12 -79 -12zM436 1124q-7 0 -10.5 6t-1.5 11l59 141q5 12 4 17t-10 6l-14 2q-19 3 -19 18v156q0 14 15 14h102q14 0 14 -12v-176q0 -5 -4 -9l-65 -157q-8 -17 -33 -17h-37z" />
    <glyph glyph-name="Ldot" unicode="&#x13f;" horiz-adv-x="1171" 
d="M213 1481h135v-1356h731v-125h-866v1481zM1059 895v-190h-197v190h197z" />
    <glyph glyph-name="ldot" unicode="&#x140;" horiz-adv-x="653" 
d="M410 -10q-230 0 -230 268v1264h129v-1254q0 -89 33 -132.5t86 -45.5h61v-88q-43 -12 -79 -12zM680 684v-188h-197v188h197z" />
    <glyph glyph-name="Lslash" unicode="&#x141;" horiz-adv-x="1159" 
d="M358 125h732v-125h-867v678l-143 -39q-21 -3 -21 14v78q0 19 15 23l149 39v688h135v-654l318 82q18 3 18 -14v-76q0 -17 -16 -20l-320 -86v-588z" />
    <glyph glyph-name="lslash" unicode="&#x142;" horiz-adv-x="516" 
d="M473 90h62v-88q-41 -12 -80 -12q-230 0 -230 268v264l-205 -182v129l205 178v875h129v-762l166 145v-123l-166 -147v-367q0 -89 33 -132.5t86 -45.5z" />
    <glyph glyph-name="Nacute" unicode="&#x143;" horiz-adv-x="1505" 
d="M1006 1921l38 -117l-501 -155l-27 77zM1171 1481h132v-1481h-115l-846 1249v-1249h-129v1481h117l841 -1243v1243z" />
    <glyph glyph-name="nacute" unicode="&#x144;" 
d="M838 1499l39 -117l-502 -155l-27 78zM174 0v1059h125v-154q46 77 134.5 124.5t211.5 47.5q163 0 267 -100t104 -287v-690h-131v682q0 135 -70.5 208t-193.5 73q-135 0 -225.5 -61.5t-90.5 -176.5v-725h-131z" />
    <glyph glyph-name="uni0145" unicode="&#x145;" horiz-adv-x="1505" 
d="M1171 1481h132v-1481h-115l-846 1249v-1249h-129v1481h117l841 -1243v1243zM657 -475q-7 0 -11 7t-1 13l53 105q6 10 2.5 17t-12.5 7h-16q-21 0 -21 23v129q0 20 17 20h106q14 0 14 -16v-156l-2 -14l-69 -119q-8 -16 -33 -16h-27z" />
    <glyph glyph-name="uni0146" unicode="&#x146;" 
d="M174 0v1059h125v-154q46 77 134.5 124.5t211.5 47.5q163 0 267 -100t104 -287v-690h-131v682q0 135 -70.5 208t-193.5 73q-135 0 -225.5 -61.5t-90.5 -176.5v-725h-131zM539 -475q-7 0 -11.5 7t-1.5 13l54 105q6 10 2 17t-13 7h-16q-21 0 -21 23v129q0 20 17 20h106
q15 0 15 -16v-156l-2 -14l-70 -119q-8 -16 -33 -16h-26z" />
    <glyph glyph-name="Ncaron" unicode="&#x147;" horiz-adv-x="1505" 
d="M928 1903h149l-246 -213h-98l-252 213h142l157 -129zM1171 1481h132v-1481h-115l-846 1249v-1249h-129v1481h117l841 -1243v1243z" />
    <glyph glyph-name="ncaron" unicode="&#x148;" 
d="M760 1481h149l-245 -213h-99l-252 213h142l157 -129zM174 0v1059h125v-154q46 77 134.5 124.5t211.5 47.5q163 0 267 -100t104 -287v-690h-131v682q0 135 -70.5 208t-193.5 73q-135 0 -225.5 -61.5t-90.5 -176.5v-725h-131z" />
    <glyph glyph-name="napostrophe" unicode="&#x149;" horiz-adv-x="1251" 
d="M82 942q-7 0 -10.5 5.5t-1.5 10.5l61 238q6 23 -6 23h-12q-19 3 -19 18v229q0 15 15 15h102q12 0 12 -13v-249q0 -2 -1 -5.5t-1 -5.5l-69 -250q-5 -16 -31 -16h-39zM252 0v1059h125v-154q44 76 133 124t211 48q163 0 267 -100t104 -287v-690h-129v682q0 134 -71.5 207.5
t-193.5 73.5q-136 0 -226.5 -61t-90.5 -177v-725h-129z" />
    <glyph glyph-name="Eng" unicode="&#x14a;" horiz-adv-x="1509" 
d="M1286 1481q19 0 19 -21v-1523q0 -140 -68.5 -213.5t-218.5 -73.5q-106 0 -176 31q-20 7 -17 28l9 76q2 11 6 14t14 0q79 -24 137 -24q82 0 124.5 42.5t43.5 141.5v92l-797 1149q-18 23 -18 -2v-1175q0 -23 -25 -23h-83q-23 0 -23 25v1433q0 14 4.5 18.5t18.5 4.5h83
q23 0 35 -17l793 -1155q11 -14 20 -10.5t9 16.5v1145q0 21 20 21h90z" />
    <glyph glyph-name="eng" unicode="&#x14b;" horiz-adv-x="1191" 
d="M760 -340q-51 0 -77 2.5t-33 6.5t-7 12v83l102 3q75 3 107.5 40t32.5 123v805q0 236 -230 236q-161 0 -350 -174v-797h-131l2 1059h123v-160q124 102 209 141t184 39q150 0 237 -82t87 -217v-839q0 -136 -64.5 -208.5t-191.5 -72.5z" />
    <glyph glyph-name="Omacron" unicode="&#x14c;" horiz-adv-x="1515" 
d="M1038 1870v-103h-553v103h553zM760 -20q-293 0 -457 196t-164 557q0 368 165.5 568t457.5 200q288 0 451 -199t163 -565q0 -362 -163 -559.5t-453 -197.5zM762 100q471 0 471 637q0 322 -121 482.5t-350 160.5q-232 0 -355.5 -161t-123.5 -482q0 -319 123 -478t356 -159z
" />
    <glyph glyph-name="omacron" unicode="&#x14d;" horiz-adv-x="1153" 
d="M856 1448v-102h-553v102h553zM578 -20q-222 0 -345.5 148t-123.5 394q0 250 126 403.5t345 153.5q217 0 340.5 -152.5t123.5 -400.5q0 -247 -123.5 -396.5t-342.5 -149.5zM582 88q164 0 247.5 119.5t83.5 320.5t-85 321t-248 120q-165 0 -252.5 -121t-87.5 -320
q0 -198 88 -319t254 -121z" />
    <glyph glyph-name="Obreve" unicode="&#x14e;" horiz-adv-x="1515" 
d="M1049 1903q-24 -78 -99 -139.5t-188 -61.5q-114 0 -186.5 58.5t-94.5 142.5h115q14 -22 22.5 -32.5t29.5 -30.5t49.5 -30t64.5 -10q103 0 168 103h119zM760 -20q-293 0 -457 196t-164 557q0 368 165.5 568t457.5 200q288 0 451 -199t163 -565q0 -362 -163 -559.5
t-453 -197.5zM762 100q471 0 471 637q0 322 -121 482.5t-350 160.5q-232 0 -355.5 -161t-123.5 -482q0 -319 123 -478t356 -159z" />
    <glyph glyph-name="obreve" unicode="&#x14f;" horiz-adv-x="1153" 
d="M866 1481q-24 -79 -98.5 -140t-187.5 -61q-114 0 -186.5 58.5t-94.5 142.5h115q14 -22 22.5 -32.5t29.5 -30.5t49.5 -30t64.5 -10q103 0 168 103h118zM578 -20q-222 0 -345.5 148t-123.5 394q0 250 126 403.5t345 153.5q217 0 340.5 -152.5t123.5 -400.5
q0 -247 -123.5 -396.5t-342.5 -149.5zM582 88q164 0 247.5 119.5t83.5 320.5t-85 321t-248 120q-165 0 -252.5 -121t-87.5 -320q0 -198 88 -319t254 -121z" />
    <glyph glyph-name="Ohungarumlaut" unicode="&#x150;" horiz-adv-x="1515" 
d="M797 1911l51 -64q14 -17 -4 -32l-254 -224q-21 -12 -31 2l-27 35q-14 11 0 25l240 260q13 10 25 -2zM1102 1911l53 -64q14 -17 -6 -32l-254 -224q-21 -12 -31 2l-24 35q-12 10 -2 25l241 260q14 11 23 -2zM760 -20q-293 0 -457 196t-164 557q0 368 165.5 568t457.5 200
q288 0 451 -199t163 -565q0 -362 -163 -559.5t-453 -197.5zM762 100q471 0 471 637q0 322 -121 482.5t-350 160.5q-232 0 -355.5 -161t-123.5 -482q0 -319 123 -478t356 -159z" />
    <glyph glyph-name="ohungarumlaut" unicode="&#x151;" horiz-adv-x="1153" 
d="M614 1489l52 -64q14 -17 -4 -32l-254 -224q-21 -12 -31 2l-27 35q-14 11 0 25l240 260q13 9 24 -2zM920 1489l53 -64q14 -17 -6 -32l-254 -224q-21 -12 -31 2l-25 35q-12 10 -2 25l242 260q14 11 23 -2zM578 -20q-222 0 -345.5 148t-123.5 394q0 250 126 403.5t345 153.5
q217 0 340.5 -152.5t123.5 -400.5q0 -247 -123.5 -396.5t-342.5 -149.5zM582 88q164 0 247.5 119.5t83.5 320.5t-85 321t-248 120q-165 0 -252.5 -121t-87.5 -320q0 -198 88 -319t254 -121z" />
    <glyph glyph-name="OE" unicode="&#x152;" horiz-adv-x="2287" 
d="M2144 119v-119h-893l-16 238q-70 -127 -190.5 -192.5t-280.5 -65.5q-295 0 -460 196t-165 557q0 369 166.5 568.5t462.5 199.5q324 0 467 -258l20 238h861v-119h-742v-555h563v-119h-563v-569h770zM762 98q231 0 344 157t113 482q0 645 -457 645q-467 0 -467 -645
q0 -639 467 -639z" />
    <glyph glyph-name="oe" unicode="&#x153;" horiz-adv-x="2048" 
d="M604 -20q-224 0 -359.5 149t-135.5 393q0 249 137 403t360 154q138 0 245.5 -65.5t166.5 -182.5q17 -25 31 0q58 115 164.5 181.5t240.5 66.5q222 0 348.5 -154t126.5 -425h-829q0 -172 108 -293t260 -121q224 0 338 188l97 -53q-78 -124 -186 -182.5t-257 -58.5
q-135 0 -242 62t-169 173q-18 34 -37 -6q-62 -109 -167.5 -169t-240.5 -60zM1460 975q-156 0 -256.5 -107t-99.5 -274l696 -2q0 160 -95.5 271.5t-244.5 111.5zM608 86q166 0 262.5 118.5t96.5 321.5t-99 325t-262 122q-165 0 -264.5 -122t-99.5 -325q0 -201 100 -320.5
t266 -119.5z" />
    <glyph glyph-name="Racute" unicode="&#x154;" horiz-adv-x="1376" 
d="M889 1921l39 -117l-502 -155l-27 77zM1223 0h-142l-286 674h-453v-674h-129v1481h545q227 0 347 -99t120 -284q0 -71 -18 -131.5t-47 -102.5t-70 -76t-81.5 -54t-86.5 -34zM692 791q398 0 398 292q0 283 -340 283h-408v-575h350z" />
    <glyph glyph-name="racute" unicode="&#x155;" horiz-adv-x="778" 
d="M647 1499l39 -117l-502 -155l-26 78zM174 0v1059h123v-207q58 98 171 162.5t226 64.5v-127q-96 3 -187.5 -39t-146.5 -108.5t-55 -134.5v-670h-131z" />
    <glyph glyph-name="uni0156" unicode="&#x156;" horiz-adv-x="1376" 
d="M1223 0h-142l-286 674h-453v-674h-129v1481h545q227 0 347 -99t120 -284q0 -71 -18 -131.5t-47 -102.5t-70 -76t-81.5 -54t-86.5 -34zM692 791q398 0 398 292q0 283 -340 283h-408v-575h350zM621 -475q-7 0 -11.5 7t-1.5 13l54 105q6 10 2 17t-13 7h-16q-21 0 -21 23v129
q0 20 17 20h106q15 0 15 -16v-156l-2 -14l-70 -119q-8 -16 -33 -16h-26z" />
    <glyph glyph-name="uni0157" unicode="&#x157;" horiz-adv-x="778" 
d="M174 0v1059h123v-207q58 98 171 162.5t226 64.5v-127q-96 3 -187.5 -39t-146.5 -108.5t-55 -134.5v-670h-131zM184 -475q-7 0 -11 7t-1 13l53 105q6 10 2.5 17t-12.5 7h-16q-21 0 -21 23v129q0 20 17 20h106q14 0 14 -16v-156l-2 -14l-69 -119q-8 -16 -33 -16h-27z" />
    <glyph glyph-name="Rcaron" unicode="&#x158;" horiz-adv-x="1376" 
d="M811 1903h150l-246 -213h-99l-251 213h141l158 -129zM1223 0h-142l-286 674h-453v-674h-129v1481h545q227 0 347 -99t120 -284q0 -71 -18 -131.5t-47 -102.5t-70 -76t-81.5 -54t-86.5 -34zM692 791q398 0 398 292q0 283 -340 283h-408v-575h350z" />
    <glyph glyph-name="rcaron" unicode="&#x159;" horiz-adv-x="778" 
d="M569 1481h150l-246 -213h-98l-252 213h141l158 -129zM174 0v1059h123v-207q58 98 171 162.5t226 64.5v-127q-96 3 -187.5 -39t-146.5 -108.5t-55 -134.5v-670h-131z" />
    <glyph glyph-name="Sacute" unicode="&#x15a;" horiz-adv-x="1406" 
d="M922 1921l39 -117l-502 -155l-27 77zM707 -20q-140 0 -260.5 42.5t-204.5 130t-105 205.5l137 17q30 -134 151 -207.5t282 -73.5q179 0 293 76.5t114 198.5q0 226 -266 290l-316 76q-171 39 -259.5 123t-88.5 221q-1 121 63.5 216.5t182.5 149.5t268 54q123 0 222 -33
t162 -90.5t99.5 -128.5t45.5 -153l-133 -13q-13 80 -50 139.5t-91.5 93.5t-118.5 50t-138 16q-67 0 -131 -18t-119 -52t-88.5 -91.5t-33.5 -128.5q0 -91 63.5 -147.5t222.5 -96.5l303 -76q95 -23 163.5 -65t105 -97t53 -113t16.5 -124q0 -169 -144 -280t-400 -111z" />
    <glyph glyph-name="sacute" unicode="&#x15b;" horiz-adv-x="1056" 
d="M725 1499l39 -117l-502 -155l-26 78zM539 -20q-167 0 -289.5 84t-140.5 227h122q27 -104 107 -155.5t201 -51.5q124 0 198 51.5t74 143.5q0 64 -42 103.5t-128 63.5l-231 62q-130 34 -197.5 96.5t-67.5 169.5q0 73 33.5 132.5t89 96.5t125 56.5t144.5 19.5
q165 0 266 -87.5t106 -203.5h-125q-12 88 -80.5 137.5t-168.5 49.5q-45 0 -88 -10t-84.5 -31t-67 -61.5t-25.5 -94.5q0 -62 46 -100t139 -62l233 -61q130 -36 187 -107.5t57 -162.5q0 -97 -55.5 -167.5t-143 -104t-194.5 -33.5z" />
    <glyph glyph-name="Scircumflex" unicode="&#x15c;" horiz-adv-x="1406" 
d="M842 1694l-148 129l-157 -129h-140l250 213h98l246 -213h-149zM707 -20q-140 0 -260.5 42.5t-204.5 130t-105 205.5l137 17q30 -134 151 -207.5t282 -73.5q179 0 293 76.5t114 198.5q0 226 -266 290l-316 76q-171 39 -259.5 123t-88.5 221q-1 121 63.5 216.5t182.5 149.5
t268 54q123 0 222 -33t162 -90.5t99.5 -128.5t45.5 -153l-133 -13q-13 80 -50 139.5t-91.5 93.5t-118.5 50t-138 16q-67 0 -131 -18t-119 -52t-88.5 -91.5t-33.5 -128.5q0 -91 63.5 -147.5t222.5 -96.5l303 -76q95 -23 163.5 -65t105 -97t53 -113t16.5 -124
q0 -169 -144 -280t-400 -111z" />
    <glyph glyph-name="scircumflex" unicode="&#x15d;" horiz-adv-x="1056" 
d="M647 1272l-147 129l-158 -129h-139l250 213h98l246 -213h-150zM539 -20q-167 0 -289.5 84t-140.5 227h122q27 -104 107 -155.5t201 -51.5q124 0 198 51.5t74 143.5q0 64 -42 103.5t-128 63.5l-231 62q-130 34 -197.5 96.5t-67.5 169.5q0 73 33.5 132.5t89 96.5t125 56.5
t144.5 19.5q165 0 266 -87.5t106 -203.5h-125q-12 88 -80.5 137.5t-168.5 49.5q-45 0 -88 -10t-84.5 -31t-67 -61.5t-25.5 -94.5q0 -62 46 -100t139 -62l233 -61q130 -36 187 -107.5t57 -162.5q0 -97 -55.5 -167.5t-143 -104t-194.5 -33.5z" />
    <glyph glyph-name="Scedilla" unicode="&#x15e;" horiz-adv-x="1406" 
d="M1251 371q0 -167 -141 -277.5t-393 -113.5l-37 -95q90 -6 130 -47t40 -98q0 -74 -59 -114t-150 -40q-99 0 -172 49l27 68q57 -47 131 -47q114 0 114 82q0 44 -38 66.5t-119 25.5q-9 0 -11.5 3t0.5 7l62 142q-193 18 -331.5 116.5t-166.5 259.5l137 17q30 -134 151 -207.5
t282 -73.5q179 0 293 76.5t114 198.5q0 226 -266 290l-316 76q-171 39 -259.5 123t-88.5 221q-1 121 63.5 216.5t182.5 149.5t268 54q123 0 222 -33t162 -90.5t99.5 -128.5t45.5 -153l-133 -13q-13 80 -50 139.5t-91.5 93.5t-118.5 50t-138 16q-67 0 -131 -18t-119 -52
t-88.5 -91.5t-33.5 -128.5q0 -91 63.5 -147.5t222.5 -96.5l303 -76q95 -23 163.5 -65t105 -97t53 -113t16.5 -124z" />
    <glyph glyph-name="scedilla" unicode="&#x15f;" horiz-adv-x="1056" 
d="M932 285q0 -96 -54 -166t-140 -104t-191 -35l-37 -95q90 -6 130 -47t40 -98q0 -74 -59 -114t-150 -40q-99 0 -172 49l27 68q57 -47 131 -47q114 0 114 82q0 44 -38 66.5t-119 25.5q-9 0 -11.5 3t0.5 7l62 144q-142 18 -240.5 99t-115.5 208h122q27 -104 107 -155.5
t201 -51.5q124 0 198 51.5t74 143.5q0 64 -42 103.5t-128 63.5l-231 62q-130 34 -197.5 96.5t-67.5 169.5q0 73 33.5 132.5t89 96.5t125 56.5t144.5 19.5q165 0 266 -87.5t106 -203.5h-125q-12 88 -80.5 137.5t-168.5 49.5q-45 0 -88 -10t-84.5 -31t-67 -61.5t-25.5 -94.5
q0 -62 46 -100t139 -62l233 -61q130 -36 187 -107.5t57 -162.5z" />
    <glyph glyph-name="Scaron" unicode="&#x160;" horiz-adv-x="1406" 
d="M842 1903h149l-246 -213h-98l-252 213h142l157 -129zM707 -20q-140 0 -260.5 42.5t-204.5 130t-105 205.5l137 17q30 -134 151 -207.5t282 -73.5q179 0 293 76.5t114 198.5q0 226 -266 290l-316 76q-171 39 -259.5 123t-88.5 221q-1 121 63.5 216.5t182.5 149.5t268 54
q123 0 222 -33t162 -90.5t99.5 -128.5t45.5 -153l-133 -13q-13 80 -50 139.5t-91.5 93.5t-118.5 50t-138 16q-67 0 -131 -18t-119 -52t-88.5 -91.5t-33.5 -128.5q0 -91 63.5 -147.5t222.5 -96.5l303 -76q95 -23 163.5 -65t105 -97t53 -113t16.5 -124q0 -169 -144 -280
t-400 -111z" />
    <glyph glyph-name="scaron" unicode="&#x161;" horiz-adv-x="1056" 
d="M647 1481h150l-246 -213h-98l-252 213h141l158 -129zM539 -20q-167 0 -289.5 84t-140.5 227h122q27 -104 107 -155.5t201 -51.5q124 0 198 51.5t74 143.5q0 64 -42 103.5t-128 63.5l-231 62q-130 34 -197.5 96.5t-67.5 169.5q0 73 33.5 132.5t89 96.5t125 56.5
t144.5 19.5q165 0 266 -87.5t106 -203.5h-125q-12 88 -80.5 137.5t-168.5 49.5q-45 0 -88 -10t-84.5 -31t-67 -61.5t-25.5 -94.5q0 -62 46 -100t139 -62l233 -61q130 -36 187 -107.5t57 -162.5q0 -97 -55.5 -167.5t-143 -104t-194.5 -33.5z" />
    <glyph glyph-name="uni0162" unicode="&#x162;" horiz-adv-x="1153" 
d="M659 0h-20l-45 -115q90 -6 130 -47t40 -98q0 -74 -59 -114t-150 -40q-99 0 -172 49l27 68q57 -47 131 -47q114 0 114 82q0 44 -38 66.5t-119 25.5q-9 0 -11.5 3t0.5 7l70 160h-29v1358h-493v123h1083v-123h-459v-1358z" />
    <glyph glyph-name="uni0163" unicode="&#x163;" horiz-adv-x="796" 
d="M541 -115q90 -6 130 -47t40 -98q0 -74 -59 -114t-150 -40q-99 0 -172 49l26 68q57 -47 131 -47q115 0 115 82q0 44 -38 66.5t-120 25.5q-17 0 -10 10l70 158q-118 7 -163.5 65t-45.5 183v712h-172v101h174l8 303h119v-303h242v-101h-242v-700q0 -94 27 -127t86 -33h141
v-88q-26 -9 -92 -12z" />
    <glyph glyph-name="Tcaron" unicode="&#x164;" horiz-adv-x="1153" 
d="M745 1903h150l-246 -213h-98l-252 213h141l158 -129zM35 1358v123h1083v-123h-459v-1358h-131v1358h-493z" />
    <glyph glyph-name="tcaron" unicode="&#x165;" horiz-adv-x="796" 
d="M649 1155q-7 0 -10.5 5.5t-1.5 10.5l59 142q5 12 4 16.5t-10 5.5l-14 2q-19 3 -19 19v155q0 15 15 15h102q14 0 14 -13v-176q0 -4 -4 -8l-65 -158q-8 -16 -33 -16h-37zM666 958h-242v-700q0 -94 27 -127t86 -33h141v-88q-40 -12 -141 -12q-137 0 -189.5 58t-52.5 190v712
h-172v101h174l8 303h119v-303h242v-101z" />
    <glyph glyph-name="Tbar" unicode="&#x166;" horiz-adv-x="1153" 
d="M1118 1358h-459v-549h359v-115h-359v-694h-131v694h-264v115h264v549h-493v123h1083v-123z" />
    <glyph glyph-name="tbar" unicode="&#x167;" horiz-adv-x="741" 
d="M553 98h139v-88q-40 -12 -141 -12q-136 0 -189 58t-53 190v299h-211v92h211v321h-172v101h174l11 303h116v-303h242v-101h-242v-321h162v-92h-160v-287q0 -95 26.5 -127.5t86.5 -32.5z" />
    <glyph glyph-name="Utilde" unicode="&#x168;" horiz-adv-x="1447" 
d="M993 1788q-65 -43 -143 -43q-55 0 -128.5 25.5t-115.5 25.5q-20 0 -39 -4.5t-28.5 -9t-27 -14.5t-22.5 -13q-10 -6 -15 -5t-9 13l-16 45q-6 14 6 21q70 59 143 59q48 0 128.5 -27.5t123.5 -27.5q22 0 43 6t33 12t35 19q18 13 26 -8l19 -52q6 -11 -13 -22zM1239 483
q0 -250 -126.5 -376.5t-387.5 -126.5q-265 0 -388.5 130.5t-123.5 397.5v973h137v-1004q0 -379 375 -379q189 0 287 95t98 284v1004h129v-998z" />
    <glyph glyph-name="utilde" unicode="&#x169;" 
d="M842 1366q-65 -43 -144 -43q-55 0 -128 25.5t-115 25.5q-20 0 -39 -4.5t-28.5 -9t-27 -14.5t-22.5 -13q-10 -6 -15.5 -5t-9.5 13l-16 45q-6 14 6 21q70 59 143 59q48 0 128.5 -27.5t123.5 -27.5q22 0 43 6t33 12t35 19q19 14 27 -8l18 -51q6 -13 -12 -23zM573 -18
q-56 1 -109.5 12.5t-107 39.5t-93 68.5t-64.5 104.5t-25 143v713h131v-705q0 -74 26.5 -128.5t70 -83.5t90.5 -42.5t96 -13.5q58 0 110.5 18t94 52t66.5 89t26 124v690h131l-2 -1061h-109l-8 215q-25 -121 -114.5 -179t-209.5 -56z" />
    <glyph glyph-name="Umacron" unicode="&#x16a;" horiz-adv-x="1447" 
d="M999 1870v-103h-553v103h553zM1239 483q0 -250 -126.5 -376.5t-387.5 -126.5q-265 0 -388.5 130.5t-123.5 397.5v973h137v-1004q0 -379 375 -379q189 0 287 95t98 284v1004h129v-998z" />
    <glyph glyph-name="umacron" unicode="&#x16b;" 
d="M848 1448v-102h-553v102h553zM573 -18q-56 1 -109.5 12.5t-107 39.5t-93 68.5t-64.5 104.5t-25 143v713h131v-705q0 -74 26.5 -128.5t70 -83.5t90.5 -42.5t96 -13.5q58 0 110.5 18t94 52t66.5 89t26 124v690h131l-2 -1061h-109l-8 215q-25 -121 -114.5 -179t-209.5 -56z
" />
    <glyph glyph-name="Ubreve" unicode="&#x16c;" horiz-adv-x="1447" 
d="M1010 1903q-24 -78 -99 -139.5t-188 -61.5q-114 0 -186.5 58.5t-94.5 142.5h115q14 -22 22.5 -32.5t29.5 -30.5t49.5 -30t64.5 -10q103 0 168 103h119zM1239 483q0 -250 -126.5 -376.5t-387.5 -126.5q-265 0 -388.5 130.5t-123.5 397.5v973h137v-1004q0 -379 375 -379
q189 0 287 95t98 284v1004h129v-998z" />
    <glyph glyph-name="ubreve" unicode="&#x16d;" 
d="M858 1481q-24 -78 -99 -139.5t-188 -61.5q-114 0 -186 58t-94 143h115q11 -16 14 -20.5t16 -21t23.5 -24t28 -18t38.5 -15t45 -4.5q103 0 168 103h119zM573 -18q-56 1 -109.5 12.5t-107 39.5t-93 68.5t-64.5 104.5t-25 143v713h131v-705q0 -74 26.5 -128.5t70 -83.5
t90.5 -42.5t96 -13.5q58 0 110.5 18t94 52t66.5 89t26 124v690h131l-2 -1061h-109l-8 215q-25 -121 -114.5 -179t-209.5 -56z" />
    <glyph glyph-name="Uring" unicode="&#x16e;" horiz-adv-x="1447" 
d="M932 1819q0 -87 -60 -146t-147 -59q-85 0 -145 60t-60 149q0 81 60.5 138.5t144.5 57.5q87 0 147 -58t60 -142zM836 1819q0 49 -32.5 80.5t-80.5 31.5q-46 0 -80.5 -32t-34.5 -80q0 -46 35.5 -81.5t79.5 -35.5q47 0 80 35.5t33 81.5zM1239 483q0 -250 -126.5 -376.5
t-387.5 -126.5q-265 0 -388.5 130.5t-123.5 397.5v973h137v-1004q0 -379 375 -379q189 0 287 95t98 284v1004h129v-998z" />
    <glyph glyph-name="uring" unicode="&#x16f;" 
d="M780 1397q0 -87 -60 -146t-147 -59q-85 0 -144.5 60t-59.5 149q0 81 60 138.5t144 57.5q87 0 147 -58t60 -142zM684 1397q0 49 -32.5 80.5t-80.5 31.5q-46 0 -80 -32t-34 -80q0 -46 35 -81.5t79 -35.5q47 0 80 35.5t33 81.5zM573 -18q-56 1 -109.5 12.5t-107 39.5
t-93 68.5t-64.5 104.5t-25 143v713h131v-705q0 -74 26.5 -128.5t70 -83.5t90.5 -42.5t96 -13.5q58 0 110.5 18t94 52t66.5 89t26 124v690h131l-2 -1061h-109l-8 215q-25 -121 -114.5 -179t-209.5 -56z" />
    <glyph glyph-name="Uhungarumlaut" unicode="&#x170;" horiz-adv-x="1447" 
d="M758 1911l51 -64q14 -17 -4 -32l-254 -224q-21 -12 -31 2l-26 35q-14 11 0 25l239 260q13 10 25 -2zM1063 1911l53 -64q14 -17 -6 -32l-254 -224q-21 -12 -31 2l-24 35q-12 10 -2 25l241 260q14 11 23 -2zM1239 483q0 -250 -126.5 -376.5t-387.5 -126.5
q-265 0 -388.5 130.5t-123.5 397.5v973h137v-1004q0 -379 375 -379q189 0 287 95t98 284v1004h129v-998z" />
    <glyph glyph-name="uhungarumlaut" unicode="&#x171;" 
d="M606 1489l51 -64q14 -17 -4 -32l-254 -224q-21 -12 -30 2l-27 35q-14 11 0 25l240 260q13 9 24 -2zM911 1489l54 -64q14 -16 -7 -32l-253 -224q-21 -12 -31 2l-25 35q-12 10 -2 25l242 260q14 10 22 -2zM573 -18q-56 1 -109.5 12.5t-107 39.5t-93 68.5t-64.5 104.5
t-25 143v713h131v-705q0 -74 26.5 -128.5t70 -83.5t90.5 -42.5t96 -13.5q58 0 110.5 18t94 52t66.5 89t26 124v690h131l-2 -1061h-109l-8 215q-25 -121 -114.5 -179t-209.5 -56z" />
    <glyph glyph-name="Uogonek" unicode="&#x172;" horiz-adv-x="1447" 
d="M1110 1481h129v-998q0 -433 -381 -493q-89 -42 -128.5 -81t-39.5 -87q0 -80 105 -80q75 0 129 27q16 8 16 -11v-49q0 -13 -10 -18q-73 -33 -166 -33q-94 0 -143.5 42.5t-49.5 115.5q0 106 121 164q-249 7 -364 137.5t-115 390.5v973h137v-1004q0 -379 375 -379
q189 0 287 95t98 284v1004z" />
    <glyph glyph-name="uogonek" unicode="&#x173;" 
d="M1040 -229q17 9 17 -11v-49q0 -13 -10 -18q-73 -33 -166 -33q-94 0 -143.5 42.5t-49.5 115.5q0 68 49 116.5t168 83.5l-8 199q-25 -121 -114.5 -179t-209.5 -56q-56 1 -109.5 12.5t-107 39.5t-93 68.5t-64.5 104.5t-25 143v713h131v-705q0 -74 26.5 -128.5t70 -83.5
t90.5 -42.5t96 -13.5q58 0 110.5 18t94 52t66.5 89t26 124v690h131l-2 -1061h-15q-103 -46 -147.5 -85.5t-44.5 -92.5q0 -41 24.5 -60.5t79.5 -19.5q75 0 129 27z" />
    <glyph glyph-name="Wcircumflex" unicode="&#x174;" horiz-adv-x="1949" 
d="M1130 1694l-147 129l-158 -129h-139l250 213h98l246 -213h-150zM1890 1481l-428 -1481h-141l-350 1245l-357 -1245h-135l-420 1481h136l356 -1288l367 1288h110l363 -1288l366 1288h133z" />
    <glyph glyph-name="wcircumflex" unicode="&#x175;" horiz-adv-x="1630" 
d="M971 1272l-148 129l-157 -129h-140l250 213h98l246 -213h-149zM1542 1059l-305 -1059h-158l-266 858l-248 -858h-159l-318 1059h127l264 -899h21l262 899h106l275 -897h20l252 897h127z" />
    <glyph glyph-name="Ycircumflex" unicode="&#x176;" horiz-adv-x="1167" 
d="M733 1694l-147 129l-158 -129h-139l250 213h98l246 -213h-150zM1145 1481l-494 -848v-633h-129v635l-499 846h143l422 -725l416 725h141z" />
    <glyph glyph-name="ycircumflex" unicode="&#x177;" horiz-adv-x="1077" 
d="M698 1272l-147 129l-158 -129h-139l250 213h98l246 -213h-150zM250 -338q-49 0 -85 5t-47 11l-12 5v86h113q96 -3 143 30.5t72 91.5l45 123l-411 1045h133l344 -887l340 887h127l-457 -1180q-47 -118 -122 -167.5t-183 -49.5z" />
    <glyph glyph-name="Ydieresis" unicode="&#x178;" horiz-adv-x="1167" 
d="M522 1903v-209h-137v209h137zM784 1903v-209h-137v209h137zM1145 1481l-494 -848v-633h-129v635l-499 846h143l422 -725l416 725h141z" />
    <glyph glyph-name="Zacute" unicode="&#x179;" horiz-adv-x="1249" 
d="M868 1921l39 -117l-501 -155l-27 77zM115 0v82l843 1280h-817v119h996v-80l-850 -1282h848v-119h-1020z" />
    <glyph glyph-name="zacute" unicode="&#x17a;" horiz-adv-x="989" 
d="M754 1499l39 -117l-502 -155l-27 78zM96 0v94l641 869h-598v96h748v-98l-637 -863h649v-98h-803z" />
    <glyph glyph-name="Zdotaccent" unicode="&#x17b;" horiz-adv-x="1249" 
d="M715 1903v-217h-146v217h146zM115 0v82l843 1280h-817v119h996v-80l-850 -1282h848v-119h-1020z" />
    <glyph glyph-name="zdotaccent" unicode="&#x17c;" horiz-adv-x="989" 
d="M600 1481v-217h-145v217h145zM96 0v94l641 869h-598v96h748v-98l-637 -863h649v-98h-803z" />
    <glyph glyph-name="Zcaron" unicode="&#x17d;" horiz-adv-x="1249" 
d="M788 1903h150l-246 -213h-98l-252 213h141l158 -129zM115 0v82l843 1280h-817v119h996v-80l-850 -1282h848v-119h-1020z" />
    <glyph glyph-name="zcaron" unicode="&#x17e;" horiz-adv-x="989" 
d="M676 1481h149l-245 -213h-99l-252 213h142l157 -129zM96 0v94l641 869h-598v96h748v-98l-637 -863h649v-98h-803z" />
    <glyph glyph-name="uni018F" unicode="&#x18f;" horiz-adv-x="1513" 
d="M1214 788q0 52 -4 101.5t-17 109.5t-33 111t-55.5 101t-81.5 85t-113.5 56.5t-149.5 21.5q-89 0 -160.5 -24t-114 -58t-77 -82.5t-49.5 -86t-30.5 -80t-21.5 -54.5q-2 -6 -20 0l-107 43q-14 3 -4 25q2 4 15.5 36.5t21.5 49.5t27.5 54.5t36.5 60.5t46 58.5t58 58t70.5 49
t86 41.5t101.5 25.5t119 10.5q103 0 189 -24.5t148.5 -66.5t111.5 -102t80 -126t51 -144t28 -151.5t8 -151.5q0 -118 -21 -225t-68.5 -205t-117.5 -169.5t-175 -113.5t-234 -42q-137 0 -244 40.5t-176.5 110t-115 168t-64.5 208t-19 236.5q0 16 3.5 23.5t17.5 7.5h1038
q9 0 12.5 2.5t3.5 11.5zM1212 659h-888q-21 0 -21 -16q0 -82 13 -156t45.5 -146t82.5 -124.5t130 -84.5t182 -32q440 0 456 559z" />
    <glyph glyph-name="florin" unicode="&#x192;" horiz-adv-x="874" 
d="M717 1059l-19 -101h-276l-180 -1036q-46 -262 -287 -262h-141l14 96l117 2q76 2 114.5 40.5t53.5 129.5l180 1030h-170l16 101h172l29 170q22 124 94.5 188t190.5 64h174l-15 -99h-157q-60 0 -103 -43t-57 -114l-29 -166h279z" />
    <glyph glyph-name="uni01C4" unicode="&#x1c4;" horiz-adv-x="2652" 
d="M2193 1903h150l-246 -213h-98l-250 213h139l158 -129zM213 1481q1 0 48.5 -0.5t117 -1t123.5 -0.5q404 -3 588 -181.5t184 -545.5q0 -383 -195 -567.5t-600 -184.5h-266v1481zM1520 0v82l843 1280h-817v119h996v-80l-850 -1282h848v-119h-1020zM348 1362v-1241h127
q164 0 284.5 33.5t206.5 106.5t128.5 193.5t42.5 290.5q0 175 -42.5 295.5t-129 190.5t-203 100.5t-277.5 30.5h-137z" />
    <glyph glyph-name="uni01C5" unicode="&#x1c5;" horiz-adv-x="2394" 
d="M213 1481q1 0 48.5 -0.5t117 -1t123.5 -0.5q404 -3 588 -181.5t184 -545.5q0 -383 -195 -567.5t-600 -184.5h-266v1481zM2081 1481h147l-243 -213h-99l-252 213h142l157 -129zM348 1362v-1241h127q164 0 284.5 33.5t206.5 106.5t128.5 193.5t42.5 290.5
q0 175 -42.5 295.5t-129 190.5t-203 100.5t-277.5 30.5h-137zM1501 0v94l641 869h-598v96h748v-98l-637 -863h649v-98h-803z" />
    <glyph glyph-name="uni01C6" unicode="&#x1c6;" horiz-adv-x="2162" 
d="M553 -20q-201 0 -317.5 137.5t-116.5 396.5q0 258 117.5 411.5t330.5 153.5q90 0 165 -32.5t151 -100.5v576h131v-1522h-109l-8 201q-96 -221 -344 -221zM1849 1481h148l-244 -213h-98l-252 213h141l158 -129zM1270 0v94l641 869h-598v96h747v-98l-637 -863h650v-98h-803
zM575 86q126 0 217 88.5t91 187.5v447q-125 162 -293 162q-160 0 -250 -117t-90 -332q0 -216 89.5 -326t235.5 -110z" />
    <glyph glyph-name="uni01C7" unicode="&#x1c7;" horiz-adv-x="1986" 
d="M213 1481h135v-1356h731v-125h-866v1481zM1780 315q0 -169 -62 -252t-219 -83q-72 0 -139 19t-92 34l16 131q9 -4 34.5 -16t43.5 -19t49 -13.5t64 -6.5q98 0 136 55t38 192v1125h131v-1166z" />
    <glyph glyph-name="uni01C8" unicode="&#x1c8;" horiz-adv-x="1669" 
d="M1493 1522v-219h-147v219h147zM213 1481h135v-1356h731v-125h-866v1481zM1483 -78q0 -139 -55.5 -200.5t-198.5 -61.5q-52 0 -84.5 5t-39.5 11l-7 5v86l116 4q76 3 108 39t32 120v1129h129v-1137z" />
    <glyph glyph-name="uni01C9" unicode="&#x1c9;" horiz-adv-x="1120" 
d="M418 -10q-230 0 -230 268v1264h127v-1254q0 -88 33.5 -132t85.5 -46h64v-88q-44 -12 -80 -12zM952 1522v-219h-147v219h147zM944 -78q0 -139 -55.5 -200.5t-200.5 -61.5q-52 0 -84 5t-38 11l-7 5l-2 86l117 4q77 3 109 39t32 120v1129h129v-1137z" />
    <glyph glyph-name="uni01CA" unicode="&#x1ca;" horiz-adv-x="2281" 
d="M1171 1481h132v-1481h-115l-846 1249v-1249h-129v1481h117l841 -1243v1243zM2071 315q0 -169 -62 -252t-219 -83q-72 0 -136 18.5t-95 34.5l16 131q9 -4 34.5 -16t43 -19t48.5 -13.5t64 -6.5q98 0 136 55t38 192v1125h132v-1166z" />
    <glyph glyph-name="uni01CB" unicode="&#x1cb;" horiz-adv-x="2025" 
d="M1849 1522v-219h-147v219h147zM1171 1481h132v-1481h-115l-846 1249v-1249h-129v1481h117l841 -1243v1243zM1839 -78q0 -139 -55.5 -200.5t-198.5 -61.5q-52 0 -84.5 5t-39.5 11l-7 5v86l117 4q75 3 107 39t32 120v1129h129v-1137z" />
    <glyph glyph-name="uni01CC" unicode="&#x1cc;" horiz-adv-x="1683" 
d="M1516 1522v-219h-148v219h148zM182 0v1059h125v-154q46 77 134.5 124.5t209.5 47.5q163 0 267 -100t104 -287v-690h-129v682q0 134 -71 207.5t-193 73.5q-135 0 -225.5 -61.5t-90.5 -176.5v-725h-131zM1507 -78q0 -139 -55.5 -200.5t-200.5 -61.5q-33 0 -58 2t-38 5
t-21 6.5t-10 5.5l-2 2l-2 86l117 4q77 3 109 39t32 120v1129h129v-1137z" />
    <glyph glyph-name="uni01EA" unicode="&#x1ea;" horiz-adv-x="1515" 
d="M913 -4q-98 -44 -142 -84.5t-44 -91.5q0 -41 24.5 -60.5t79.5 -19.5q76 0 130 27q16 8 16 -11v-49q0 -13 -10 -18q-73 -33 -166 -33q-94 0 -143.5 42.5t-49.5 115.5q0 109 125 166q-280 9 -437 205t-157 548q0 368 165.5 568t457.5 200q288 0 451 -199t163 -565
q0 -310 -121 -500.5t-342 -240.5zM283 737q0 -319 123 -478t356 -159q471 0 471 637q0 322 -121 482.5t-350 160.5q-232 0 -355.5 -161t-123.5 -482z" />
    <glyph glyph-name="uni01EB" unicode="&#x1eb;" horiz-adv-x="1153" 
d="M715 -2q-99 -44 -143 -84.5t-44 -91.5q0 -80 105 -80q75 0 129 27q16 8 16 -11v-49q0 -13 -10 -18q-73 -33 -166 -33q-94 0 -143 42.5t-49 115.5q0 53 28 93.5t94 72.5q-201 15 -312 161t-111 379q0 250 126 403.5t345 153.5q217 0 340.5 -152.5t123.5 -400.5
q0 -205 -86 -345.5t-243 -182.5zM240 528q0 -198 88 -319t254 -121q164 0 247.5 119.5t83.5 320.5t-85 321t-248 120q-165 0 -252.5 -121t-87.5 -320z" />
    <glyph glyph-name="uni01F1" unicode="&#x1f1;" horiz-adv-x="2652" 
d="M213 1481q1 0 48.5 -0.5t117 -1t123.5 -0.5q404 -3 588 -181.5t184 -545.5q0 -383 -195 -567.5t-600 -184.5h-266v1481zM1520 0v82l843 1280h-817v119h996v-80l-850 -1282h848v-119h-1020zM348 1362v-1241h127q164 0 284.5 33.5t206.5 106.5t128.5 193.5t42.5 290.5
q0 175 -42.5 295.5t-129 190.5t-203 100.5t-277.5 30.5h-137z" />
    <glyph glyph-name="uni01F2" unicode="&#x1f2;" horiz-adv-x="2394" 
d="M213 1481q1 0 48.5 -0.5t117 -1t123.5 -0.5q404 -3 588 -181.5t184 -545.5q0 -383 -195 -567.5t-600 -184.5h-266v1481zM348 1362v-1241h127q164 0 284.5 33.5t206.5 106.5t128.5 193.5t42.5 290.5q0 175 -42.5 295.5t-129 190.5t-203 100.5t-277.5 30.5h-137zM1501 0v94
l641 869h-598v96h748v-98l-637 -863h649v-98h-803z" />
    <glyph glyph-name="uni01F3" unicode="&#x1f3;" horiz-adv-x="2162" 
d="M553 -20q-201 0 -317.5 137.5t-116.5 396.5q0 258 117.5 411.5t330.5 153.5q90 0 165 -32.5t151 -100.5v576h131v-1522h-109l-8 201q-96 -221 -344 -221zM1270 0v94l641 869h-598v96h747v-98l-637 -863h650v-98h-803zM575 86q126 0 217 88.5t91 187.5v447
q-125 162 -293 162q-160 0 -250 -117t-90 -332q0 -216 89.5 -326t235.5 -110z" />
    <glyph glyph-name="uni01F4" unicode="&#x1f4;" horiz-adv-x="1492" 
d="M973 1921l39 -117l-502 -155l-27 77zM745 -20q-284 0 -445 200t-161 555q0 361 165 563.5t448 202.5q132 0 251 -58t194 -155t85 -209l-145 -14q-24 135 -131 224t-256 89q-222 0 -346.5 -164.5t-124.5 -465.5q0 -317 124.5 -482.5t348.5 -165.5q82 0 152.5 25.5
t118.5 67.5t82.5 95.5t51 108t17.5 107.5l2 153h-390v103l523 -2v-758h-109v244q-64 -118 -178 -191t-277 -73z" />
    <glyph glyph-name="uni01F5" unicode="&#x1f5;" horiz-adv-x="1257" 
d="M836 1499l36 -117l-499 -155l-27 78zM596 -350q-240 0 -370 77t-130 212q0 44 17 82.5t44.5 65.5t53 45t52 33t30.5 19q-4 3 -20 12.5t-23 14.5t-20 16t-19 20.5t-11 25t-5 32.5q0 47 44.5 86t127.5 60q-102 54 -146.5 121.5t-44.5 166.5q0 157 118 246.5t320 89.5
q98 0 169 -23.5t135 -72.5q15 6 120 50.5t127 53.5v-145l-186 -37q16 -32 28.5 -80t12.5 -82q0 -142 -107 -234.5t-313 -92.5q-6 0 -21 1t-22 1q-85 -2 -140 -15.5t-75 -31.5t-20 -39q0 -32 44.5 -46t165.5 -22l236 -14q165 -10 245.5 -82t80.5 -197q0 -150 -130.5 -233.5
t-367.5 -83.5zM602 510q291 0 291 229q0 116 -74.5 179t-216.5 63q-141 0 -218 -64t-77 -178q0 -112 76.5 -170.5t218.5 -58.5zM623 -254q342 0 342 209q0 78 -49.5 121.5t-161.5 50.5l-328 20q-61 3 -130 -55t-69 -139q0 -101 102.5 -154t293.5 -53z" />
    <glyph glyph-name="Aringacute" unicode="&#x1fa;" horiz-adv-x="1339" 
d="M778 1430l484 -1430h-154l-154 446h-598l-151 -446h-131l491 1425q-47 27 -73.5 73.5t-26.5 105.5q0 74 50 128.5t126 63.5l31 129h123l-60 -137q61 -20 98 -72t37 -117q0 -56 -25 -100t-67 -69zM666 1712q-46 0 -80.5 -33t-34.5 -82q0 -44 35.5 -79t79.5 -35
q46 0 79 34.5t33 79.5q0 50 -32 82.5t-80 32.5zM393 567h529l-265 776z" />
    <glyph glyph-name="aringacute" unicode="&#x1fb;" horiz-adv-x="1157" 
d="M338 1227l-27 78l70 28q-10 33 -10 68q0 81 60 138.5t144 57.5q61 0 111.5 -30.5t75.5 -81.5l39 14l39 -117l-60 -18q-12 -75 -69.5 -123.5t-135.5 -48.5q-87 0 -147 63zM459 1397q0 -11 4 -31l211 82q-28 61 -101 61q-46 0 -80 -32t-34 -80zM573 1280q59 0 91 47
l-129 -39q16 -8 38 -8zM575 1079q185 0 291.5 -92t106.5 -252v-735h-115l-8 199q-113 -219 -383 -219q-157 0 -250.5 80.5t-93.5 218.5q0 177 118.5 260t385.5 92l219 6v94q0 114 -76 178t-203 64q-107 0 -183.5 -53.5t-94.5 -151.5h-123q8 131 117.5 221t291.5 90zM846 344
v197l-182 -4q-221 -5 -316.5 -62t-95.5 -186q0 -96 68 -151.5t180 -55.5q79 0 159.5 37.5t133.5 99.5t53 125z" />
    <glyph glyph-name="AEacute" unicode="&#x1fc;" horiz-adv-x="2037" 
d="M1616 1921l39 -117l-502 -155l-27 77zM1894 119v-119h-882v446h-523l-251 -446h-134l834 1481h930v-119h-709v-555h549v-119h-549v-569h735zM1012 565v811l-465 -811h465z" />
    <glyph glyph-name="aeacute" unicode="&#x1fd;" horiz-adv-x="1931" 
d="M1167 1499l37 -117l-499 -155l-27 78zM969 498q0 -101 48 -196.5t134 -156.5t186 -61q69 0 124.5 16t97 47.5t66.5 58t56 68.5l93 -53q-64 -112 -181 -176.5t-268 -64.5q-82 0 -150.5 21t-118 59t-79 69.5t-59.5 73.5q-8 10 -13 0q-31 -36 -54 -60t-66 -58t-86 -54.5
t-106.5 -35.5t-135.5 -15q-156 0 -245 78.5t-89 215.5q0 151 122.5 240t368.5 109l234 16v86q0 119 -72 185.5t-207 66.5q-180 0 -313 -189l-104 48q65 118 176 180.5t258 62.5q284 0 352 -215q61 106 161 160.5t230 54.5q215 0 344 -153.5t129 -425.5zM1327 977
q-98 0 -178 -46.5t-127.5 -134.5t-48.5 -202l696 -2q0 159 -96.5 272t-245.5 113zM848 545l-195 -15q-397 -30 -397 -247q0 -94 65.5 -149.5t178.5 -51.5q143 6 245.5 83.5t102.5 182.5v197z" />
    <glyph glyph-name="Oslashacute" unicode="&#x1fe;" horiz-adv-x="1454" 
d="M952 1921l39 -117l-502 -155l-26 77zM1401 1440q14 -14 2 -29l-168 -188q111 -190 111 -486q0 -362 -164.5 -559.5t-454.5 -197.5q-282 0 -438 176l-142 -158q-17 -29 -45 -4l-41 39q-12 14 -13.5 21t5.5 16l162 184q-109 188 -109 479q0 368 165 568t456 200
q278 0 438 -180l146 166q16 20 30 6zM266 737q0 -225 64 -362l739 846q-111 159 -342 159q-461 0 -461 -643zM1186 737q0 224 -64 367l-739 -846q116 -158 346 -158t343.5 156.5t113.5 480.5z" />
    <glyph glyph-name="oslashacute" unicode="&#x1ff;" horiz-adv-x="1179" 
d="M854 1382l-502 -155l-26 78l489 194zM1137 997l-152 -147q72 -138 72 -324q0 -247 -124 -396.5t-343 -149.5t-344 147l-142 -137l-65 69l151 148q-69 132 -69 315q0 250 126 403.5t345 153.5q214 0 340 -151l139 137zM252 528q0 -127 37 -225l555 541q-88 125 -252 125
q-165 0 -252.5 -121t-87.5 -320zM926 528q0 130 -37 228l-553 -541q87 -127 258 -127q164 0 248 119.5t84 320.5z" />
    <glyph glyph-name="uni0200" unicode="&#x200;" horiz-adv-x="1443" 
d="M391 1925l264 -283l-49 -65l-293 254zM696 1925l265 -283l-50 -65l-293 254zM104 0l539 1481h160l538 -1481h-137l-157 438h-646l-163 -438h-134zM438 565h568l-281 785z" />
    <glyph glyph-name="uni0201" unicode="&#x201;" horiz-adv-x="1157" 
d="M242 1503l264 -282l-49 -66l-293 254zM547 1503l264 -282l-49 -66l-293 254zM467 -20q-157 0 -250.5 80.5t-93.5 218.5q0 177 118.5 260t385.5 92l219 6v94q0 114 -76 178t-203 64q-107 0 -183.5 -53.5t-94.5 -151.5h-123q8 131 117.5 221t291.5 90q185 0 291.5 -92
t106.5 -252v-735h-115l-8 199q-113 -219 -383 -219zM500 82q79 0 159.5 37.5t133.5 99.5t53 125v197l-182 -4q-221 -5 -316.5 -62t-95.5 -186q0 -96 68 -151.5t180 -55.5z" />
    <glyph glyph-name="uni0202" unicode="&#x202;" horiz-adv-x="1443" 
d="M1022 1788h-119q-64 102 -170 102q-35 0 -63 -9.5t-49 -29.5t-29.5 -31t-22.5 -32h-114q21 83 93.5 142t184.5 59q114 0 189.5 -61.5t99.5 -139.5zM104 0l539 1481h160l538 -1481h-137l-157 438h-646l-163 -438h-134zM438 565h568l-281 785z" />
    <glyph glyph-name="uni0203" unicode="&#x203;" horiz-adv-x="1157" 
d="M870 1366h-118q-64 102 -170 102q-35 0 -63 -9.5t-49 -29.5t-29.5 -31t-22.5 -32h-115q21 83 94 142t185 59q114 0 189 -61t99 -140zM467 -20q-157 0 -250.5 80.5t-93.5 218.5q0 177 118.5 260t385.5 92l219 6v94q0 114 -76 178t-203 64q-107 0 -183.5 -53.5
t-94.5 -151.5h-123q8 131 117.5 221t291.5 90q185 0 291.5 -92t106.5 -252v-735h-115l-8 199q-113 -219 -383 -219zM500 82q79 0 159.5 37.5t133.5 99.5t53 125v197l-182 -4q-221 -5 -316.5 -62t-95.5 -186q0 -96 68 -151.5t180 -55.5z" />
    <glyph glyph-name="uni0204" unicode="&#x204;" horiz-adv-x="1267" 
d="M346 1925l264 -283l-49 -65l-293 254zM651 1925l264 -283l-49 -65l-293 254zM213 0v1481h887v-121h-758v-551h696v-121h-696v-563l782 -2v-123h-911z" />
    <glyph glyph-name="uni0205" unicode="&#x205;" horiz-adv-x="1159" 
d="M252 1503l262 -282l-47 -66l-293 254zM555 1503l264 -282l-49 -66l-291 254zM252 498q0 -115 36 -205t115.5 -146.5t194.5 -56.5q229 0 295 205h127q-40 -157 -153 -236t-267 -79q-217 0 -349 143.5t-132 396.5q0 259 123 409t344 150q211 0 327.5 -137t116.5 -381v-63
h-778zM254 600h649q0 166 -81 268.5t-238 102.5q-83 0 -148 -32.5t-104 -86t-59 -118t-19 -134.5z" />
    <glyph glyph-name="uni0206" unicode="&#x206;" horiz-adv-x="1267" 
d="M977 1788h-119q-64 102 -170 102q-35 0 -63 -9.5t-49 -29.5t-29.5 -31t-22.5 -32h-114q21 83 93.5 142t184.5 59q114 0 189.5 -61.5t99.5 -139.5zM213 0v1481h887v-121h-758v-551h696v-121h-696v-563l782 -2v-123h-911z" />
    <glyph glyph-name="uni0207" unicode="&#x207;" horiz-adv-x="1159" 
d="M881 1366h-119q-59 102 -168 102q-106 0 -164 -102h-115q21 83 94 142t185 59q113 0 188 -61.5t99 -139.5zM252 498q0 -115 36 -205t115.5 -146.5t194.5 -56.5q229 0 295 205h127q-40 -157 -153 -236t-267 -79q-217 0 -349 143.5t-132 396.5q0 259 123 409t344 150
q211 0 327.5 -137t116.5 -381v-63h-778zM254 600h649q0 166 -81 268.5t-238 102.5q-83 0 -148 -32.5t-104 -86t-59 -118t-19 -134.5z" />
    <glyph glyph-name="uni0208" unicode="&#x208;" horiz-adv-x="544" 
d="M-51 1925l264 -283l-49 -65l-293 254zM254 1925l264 -283l-49 -65l-293 254zM213 1481h129v-1481h-129v1481z" />
    <glyph glyph-name="uni0209" unicode="&#x209;" horiz-adv-x="499" 
d="M-84 1503l264 -282l-49 -66l-293 254zM221 1503l264 -282l-49 -66l-293 254zM315 1059v-1059h-129v1059h129z" />
    <glyph glyph-name="uni020A" unicode="&#x20a;" horiz-adv-x="544" 
d="M580 1788h-119q-64 102 -170 102q-35 0 -63 -9.5t-49 -29.5t-29.5 -31t-22.5 -32h-115q21 83 94 142t185 59q114 0 189.5 -61.5t99.5 -139.5zM213 1481h129v-1481h-129v1481z" />
    <glyph glyph-name="uni020B" unicode="&#x20b;" horiz-adv-x="499" 
d="M545 1366h-119q-64 102 -170 102q-35 0 -63 -9.5t-49 -29.5t-29.5 -31t-22.5 -32h-115q21 83 94 142t185 59q114 0 189.5 -61.5t99.5 -139.5zM315 1059v-1059h-129v1059h129z" />
    <glyph glyph-name="uni020C" unicode="&#x20c;" horiz-adv-x="1515" 
d="M428 1925l264 -283l-49 -65l-293 254zM733 1925l264 -283l-49 -65l-293 254zM760 -20q-293 0 -457 196t-164 557q0 368 165.5 568t457.5 200q288 0 451 -199t163 -565q0 -362 -163 -559.5t-453 -197.5zM762 100q471 0 471 637q0 322 -121 482.5t-350 160.5
q-232 0 -355.5 -161t-123.5 -482q0 -319 123 -478t356 -159z" />
    <glyph glyph-name="uni020D" unicode="&#x20d;" horiz-adv-x="1153" 
d="M246 1503l264 -282l-49 -66l-293 254zM551 1503l264 -282l-49 -66l-293 254zM578 -20q-222 0 -345.5 148t-123.5 394q0 250 126 403.5t345 153.5q217 0 340.5 -152.5t123.5 -400.5q0 -247 -123.5 -396.5t-342.5 -149.5zM582 88q164 0 247.5 119.5t83.5 320.5t-85 321
t-248 120q-165 0 -252.5 -121t-87.5 -320q0 -198 88 -319t254 -121z" />
    <glyph glyph-name="uni020E" unicode="&#x20e;" horiz-adv-x="1515" 
d="M1057 1788h-119q-64 102 -170 102q-35 0 -63 -9.5t-49 -29.5t-29.5 -31t-22.5 -32h-115q21 83 94 142t185 59q114 0 189.5 -61.5t99.5 -139.5zM760 -20q-293 0 -457 196t-164 557q0 368 165.5 568t457.5 200q288 0 451 -199t163 -565q0 -362 -163 -559.5t-453 -197.5z
M762 100q471 0 471 637q0 322 -121 482.5t-350 160.5q-232 0 -355.5 -161t-123.5 -482q0 -319 123 -478t356 -159z" />
    <glyph glyph-name="uni020F" unicode="&#x20f;" horiz-adv-x="1153" 
d="M877 1366h-119q-64 102 -170 102q-35 0 -63 -9.5t-49 -29.5t-29.5 -31t-22.5 -32h-115q21 83 94 142t185 59q114 0 189.5 -61.5t99.5 -139.5zM578 -20q-222 0 -345.5 148t-123.5 394q0 250 126 403.5t345 153.5q217 0 340.5 -152.5t123.5 -400.5q0 -247 -123.5 -396.5
t-342.5 -149.5zM582 88q164 0 247.5 119.5t83.5 320.5t-85 321t-248 120q-165 0 -252.5 -121t-87.5 -320q0 -198 88 -319t254 -121z" />
    <glyph glyph-name="uni0210" unicode="&#x210;" horiz-adv-x="1376" 
d="M328 1925l264 -283l-49 -65l-293 254zM633 1925l264 -283l-49 -65l-293 254zM1223 0h-142l-286 674h-453v-674h-129v1481h545q227 0 347 -99t120 -284q0 -71 -18 -131.5t-47 -102.5t-70 -76t-81.5 -54t-86.5 -34zM692 791q398 0 398 292q0 283 -340 283h-408v-575h350z
" />
    <glyph glyph-name="uni0211" unicode="&#x211;" horiz-adv-x="778" 
d="M88 1503l264 -282l-49 -66l-293 254zM393 1503l264 -282l-49 -66l-293 254zM174 0v1059h123v-207q58 98 171 162.5t226 64.5v-127q-96 3 -187.5 -39t-146.5 -108.5t-55 -134.5v-670h-131z" />
    <glyph glyph-name="uni0212" unicode="&#x212;" horiz-adv-x="1376" 
d="M958 1788h-118q-64 102 -170 102q-35 0 -63 -9.5t-49 -29.5t-29.5 -31t-22.5 -32h-115q21 83 94 142t185 59q114 0 189 -61t99 -140zM1223 0h-142l-286 674h-453v-674h-129v1481h545q227 0 347 -99t120 -284q0 -71 -18 -131.5t-47 -102.5t-70 -76t-81.5 -54t-86.5 -34z
M692 791q398 0 398 292q0 283 -340 283h-408v-575h350z" />
    <glyph glyph-name="uni0213" unicode="&#x213;" horiz-adv-x="778" 
d="M719 1366h-119q-64 102 -170 102q-35 0 -63 -9.5t-49 -29.5t-29.5 -31t-22.5 -32h-114q21 83 93.5 142t184.5 59q114 0 189.5 -61.5t99.5 -139.5zM174 0v1059h123v-207q58 98 171 162.5t226 64.5v-127q-96 3 -187.5 -39t-146.5 -108.5t-55 -134.5v-670h-131z" />
    <glyph glyph-name="uni0214" unicode="&#x214;" horiz-adv-x="1447" 
d="M389 1925l264 -283l-49 -65l-293 254zM694 1925l264 -283l-49 -65l-293 254zM1239 483q0 -250 -126.5 -376.5t-387.5 -126.5q-265 0 -388.5 130.5t-123.5 397.5v973h137v-1004q0 -379 375 -379q189 0 287 95t98 284v1004h129v-998z" />
    <glyph glyph-name="uni0215" unicode="&#x215;" 
d="M238 1503l264 -282l-49 -66l-293 254zM543 1503l264 -282l-49 -66l-293 254zM573 -18q-56 1 -109.5 12.5t-107 39.5t-93 68.5t-64.5 104.5t-25 143v713h131v-705q0 -74 26.5 -128.5t70 -83.5t90.5 -42.5t96 -13.5q58 0 110.5 18t94 52t66.5 89t26 124v690h131l-2 -1061
h-109l-8 215q-25 -121 -114.5 -179t-209.5 -56z" />
    <glyph glyph-name="uni0216" unicode="&#x216;" horiz-adv-x="1447" 
d="M1020 1788h-119q-64 102 -170 102q-35 0 -63 -9.5t-49 -29.5t-29.5 -31t-22.5 -32h-114q21 83 93.5 142t184.5 59q114 0 189.5 -61.5t99.5 -139.5zM1239 483q0 -250 -126.5 -376.5t-387.5 -126.5q-265 0 -388.5 130.5t-123.5 397.5v973h137v-1004q0 -379 375 -379
q189 0 287 95t98 284v1004h129v-998z" />
    <glyph glyph-name="uni0217" unicode="&#x217;" 
d="M868 1366h-118q-64 102 -170 102q-35 0 -63 -9.5t-49 -29.5t-29.5 -31t-22.5 -32h-115q21 83 94 142t185 59q114 0 189 -61t99 -140zM573 -18q-56 1 -109.5 12.5t-107 39.5t-93 68.5t-64.5 104.5t-25 143v713h131v-705q0 -74 26.5 -128.5t70 -83.5t90.5 -42.5t96 -13.5
q58 0 110.5 18t94 52t66.5 89t26 124v690h131l-2 -1061h-109l-8 215q-25 -121 -114.5 -179t-209.5 -56z" />
    <glyph glyph-name="uni0218" unicode="&#x218;" horiz-adv-x="1406" 
d="M707 -20q-140 0 -260.5 42.5t-204.5 130t-105 205.5l137 17q30 -134 151 -207.5t282 -73.5q179 0 293 76.5t114 198.5q0 226 -266 290l-316 76q-171 39 -259.5 123t-88.5 221q-1 121 63.5 216.5t182.5 149.5t268 54q123 0 222 -33t162 -90.5t99.5 -128.5t45.5 -153
l-133 -13q-13 80 -50 139.5t-91.5 93.5t-118.5 50t-138 16q-67 0 -131 -18t-119 -52t-88.5 -91.5t-33.5 -128.5q0 -91 63.5 -147.5t222.5 -96.5l303 -76q95 -23 163.5 -65t105 -97t53 -113t16.5 -124q0 -169 -144 -280t-400 -111zM627 -475q-7 0 -11.5 7t-1.5 13l54 105
q6 10 2 17t-13 7h-16q-20 0 -20 23v129q0 20 16 20h106q15 0 15 -16v-156l-2 -14l-70 -119q-8 -16 -33 -16h-26z" />
    <glyph glyph-name="uni0219" unicode="&#x219;" horiz-adv-x="1056" 
d="M539 -20q-167 0 -289.5 84t-140.5 227h122q27 -104 107 -155.5t201 -51.5q124 0 198 51.5t74 143.5q0 64 -42 103.5t-128 63.5l-231 62q-130 34 -197.5 96.5t-67.5 169.5q0 73 33.5 132.5t89 96.5t125 56.5t144.5 19.5q165 0 266 -87.5t106 -203.5h-125
q-12 88 -80.5 137.5t-168.5 49.5q-45 0 -88 -10t-84.5 -31t-67 -61.5t-25.5 -94.5q0 -62 46 -100t139 -62l233 -61q130 -36 187 -107.5t57 -162.5q0 -97 -55.5 -167.5t-143 -104t-194.5 -33.5zM457 -475q-7 0 -11.5 7t-1.5 13l54 105q6 10 2 17t-13 7h-16q-20 0 -20 23v129
q0 20 16 20h106q15 0 15 -16v-156l-2 -14l-70 -119q-8 -16 -33 -16h-26z" />
    <glyph glyph-name="uni021A" unicode="&#x21a;" horiz-adv-x="1153" 
d="M35 1358v123h1083v-123h-459v-1358h-131v1358h-493zM541 -475q-7 0 -11.5 7t-1.5 13l54 105q6 10 2 17t-13 7h-16q-20 0 -20 23v129q0 20 16 20h106q15 0 15 -16v-156l-2 -14l-70 -119q-8 -16 -33 -16h-26z" />
    <glyph glyph-name="uni021B" unicode="&#x21b;" horiz-adv-x="796" 
d="M666 958h-242v-700q0 -94 27 -127t86 -33h141v-88q-40 -12 -141 -12q-137 0 -189.5 58t-52.5 190v712h-172v101h174l8 303h119v-303h242v-101zM487 -475q-7 0 -11 7t-1 13l53 105q6 10 2.5 17t-12.5 7h-16q-21 0 -21 23v129q0 20 17 20h106q14 0 14 -16v-156l-2 -14
l-69 -119q-8 -16 -33 -16h-27z" />
    <glyph glyph-name="uni0237" unicode="&#x237;" horiz-adv-x="483" 
d="M307 -78q0 -138 -56.5 -200t-199.5 -62q-57 0 -86.5 2.5t-38 6.5t-8.5 12v86l119 4q75 3 107 39t32 120v1129h131v-1137z" />
    <glyph glyph-name="uni0259" unicode="&#x259;" horiz-adv-x="1150" 
d="M899 561q0 115 -36 205t-115.5 146.5t-194.5 56.5q-229 0 -295 -205h-127q40 157 153 236t267 79q217 0 349 -143.5t132 -396.5q0 -259 -123 -409t-344 -150q-211 0 -327.5 137t-116.5 381v63h778zM897 459h-649q0 -166 81 -268.5t238 -102.5q83 0 148 32.5t104 86
t59 118t19 134.5z" />
    <glyph glyph-name="uni02BC" unicode="&#x2bc;" horiz-adv-x="294" 
d="M82 942q-7 0 -10.5 5.5t-1.5 10.5l61 238q6 23 -6 23h-12q-19 3 -19 18v229q0 15 15 15h102q12 0 12 -13v-249q0 -2 -1 -5.5t-1 -5.5l-69 -250q-5 -16 -31 -16h-39z" />
    <glyph glyph-name="circumflex" unicode="&#x2c6;" horiz-adv-x="620" 
d="M455 1272l-148 129l-157 -129h-140l250 213h98l246 -213h-149z" />
    <glyph glyph-name="caron" unicode="&#x2c7;" horiz-adv-x="620" 
d="M455 1481h149l-246 -213h-98l-252 213h142l157 -129z" />
    <glyph glyph-name="breve" unicode="&#x2d8;" horiz-adv-x="618" 
d="M592 1481q-24 -78 -99 -139.5t-188 -61.5q-114 0 -186 58t-94 143h114q14 -22 22.5 -32.5t29.5 -30.5t49.5 -30t64.5 -10q103 0 168 103h119z" />
    <glyph glyph-name="dotaccent" unicode="&#x2d9;" horiz-adv-x="202" 
d="M172 1481v-217h-145v217h145z" />
    <glyph glyph-name="ring" unicode="&#x2da;" horiz-adv-x="466" 
d="M438 1393q0 -87 -60 -146t-147 -59q-85 0 -144.5 60t-59.5 149q0 81 60 138.5t144 57.5q87 0 147 -58t60 -142zM342 1393q0 49 -32.5 80.5t-80.5 31.5q-46 0 -80 -32t-34 -80q0 -46 35 -81.5t79 -35.5q47 0 80 35.5t33 81.5z" />
    <glyph glyph-name="ogonek" unicode="&#x2db;" horiz-adv-x="425" 
d="M27 -180q0 68 49 116.5t168 83.5l98 -14q-105 -46 -151 -86.5t-46 -93.5q0 -80 105 -80q75 0 129 27q16 8 16 -11v-49q0 -13 -10 -18q-73 -33 -166 -33q-94 0 -143 42.5t-49 115.5z" />
    <glyph glyph-name="tilde" unicode="&#x2dc;" horiz-adv-x="634" 
d="M584 1366q-65 -43 -144 -43q-55 0 -128 25.5t-115 25.5q-20 0 -39 -4.5t-28.5 -9t-27 -14.5t-22.5 -13q-10 -6 -15.5 -5t-9.5 13l-16 45q-6 14 6 21q70 59 143 59q48 0 128.5 -27.5t123.5 -27.5q22 0 43 6t33 12t35 19q19 14 27 -8l18 -51q6 -13 -12 -23z" />
    <glyph glyph-name="hungarumlaut" unicode="&#x2dd;" horiz-adv-x="757" 
d="M330 1489l51 -64q14 -17 -4 -32l-254 -224q-21 -12 -31 2l-26 35q-14 11 0 25l239 260q13 10 25 -2zM635 1489l53 -64q14 -17 -6 -32l-254 -224q-21 -12 -31 2l-24 35q-12 10 -2 25l241 260q14 11 23 -2z" />
    <glyph glyph-name="gravecomb" unicode="&#x300;" horiz-adv-x="0" 
d="M-516 1499l489 -194l-24 -78l-502 155z" />
    <glyph glyph-name="acutecomb" unicode="&#x301;" horiz-adv-x="0" 
d="M-63 1499l38 -117l-501 -155l-27 78z" />
    <glyph glyph-name="uni0302" unicode="&#x302;" horiz-adv-x="0" 
d="M-166 1272l-147 129l-158 -129h-139l250 213h98l246 -213h-150z" />
    <glyph glyph-name="tildecomb" unicode="&#x303;" horiz-adv-x="0" 
d="M-51 1366q-65 -43 -144 -43q-55 0 -128 25.5t-115 25.5q-20 0 -39 -4.5t-28.5 -9t-27 -14.5t-22.5 -13q-10 -6 -15.5 -5t-9.5 13l-16 45q-6 14 6 21q70 59 144 59q48 0 128 -27.5t123 -27.5q22 0 43 6t33 12t35 19q19 14 27 -8l18 -51q6 -13 -12 -23z" />
    <glyph glyph-name="uni0304" unicode="&#x304;" horiz-adv-x="0" 
d="M-31 1448v-102h-553v102h553z" />
    <glyph glyph-name="uni0306" unicode="&#x306;" horiz-adv-x="0" 
d="M-27 1481q-24 -79 -98.5 -140t-187.5 -61q-114 0 -186.5 58.5t-94.5 142.5h115q14 -22 22.5 -32.5t29.5 -30.5t49.5 -30t64.5 -10q103 0 168 103h118z" />
    <glyph glyph-name="uni0307" unicode="&#x307;" horiz-adv-x="0" 
d="M-31 1481v-217h-145v217h145z" />
    <glyph glyph-name="uni0308" unicode="&#x308;" horiz-adv-x="0" 
d="M-293 1481v-209h-137v209h137zM-31 1481v-209h-137v209h137z" />
    <glyph glyph-name="uni030A" unicode="&#x30a;" horiz-adv-x="0" 
d="M-29 1393q0 -87 -60 -146t-147 -59q-85 0 -144.5 60t-59.5 149q0 81 60 138.5t144 57.5q87 0 147 -58t60 -142zM-125 1393q0 49 -32.5 80.5t-80.5 31.5q-46 0 -80 -32t-34 -80q0 -46 35 -81.5t79 -35.5q47 0 80 35.5t33 81.5z" />
    <glyph glyph-name="uni030B" unicode="&#x30b;" horiz-adv-x="0" 
d="M-428 1489l51 -64q14 -17 -4 -32l-254 -224q-21 -12 -31 2l-26 35q-14 11 0 25l239 260q13 10 25 -2zM-123 1489l53 -64q14 -17 -6 -32l-254 -224q-21 -12 -30 2l-25 35q-12 10 -2 25l242 260q14 10 22 -2z" />
    <glyph glyph-name="uni030C" unicode="&#x30c;" horiz-adv-x="0" 
d="M-166 1481h150l-246 -213h-98l-252 213h141l158 -129z" />
    <glyph glyph-name="uni030F" unicode="&#x30f;" horiz-adv-x="0" 
d="M-627 1503l265 -282l-50 -66l-293 254zM-322 1503l265 -282l-49 -66l-293 254z" />
    <glyph glyph-name="uni0311" unicode="&#x311;" horiz-adv-x="0" 
d="M12 1366h-118q-64 102 -170 102q-35 0 -63 -9.5t-49 -29.5t-29.5 -31t-22.5 -32h-115q21 83 94 142t185 59q114 0 189 -61t99 -140z" />
    <glyph glyph-name="dotbelowcomb" unicode="&#x323;" horiz-adv-x="0" 
d="M-31 -139v-162q0 -17 -5.5 -23t-20.5 -6h-82q-25 0 -25 23v168q0 22 19 22h96q11 0 14.5 -4.5t3.5 -17.5z" />
    <glyph glyph-name="uni0326" unicode="&#x326;" horiz-adv-x="0" 
d="M-162 -475q-7 0 -11 7t-1 13l53 105q6 10 2.5 17t-12.5 7h-16q-21 0 -21 23v129q0 20 16 20h107q14 0 14 -16v-156l-2 -14l-69 -119q-8 -16 -33 -16h-27z" />
    <glyph glyph-name="uni0327" unicode="&#x327;" horiz-adv-x="0" 
d="M-31 -260q0 -74 -59 -114t-150 -40q-99 0 -172 49l27 68q57 -47 131 -47q115 0 115 82q0 44 -38 66.5t-120 25.5q-17 0 -10 10l74 170h81l-49 -125q90 -6 130 -47t40 -98z" />
    <glyph glyph-name="uni0328" unicode="&#x328;" horiz-adv-x="0" 
d="M-399 -180q0 68 49 116.5t168 83.5l98 -14q-105 -46 -151 -86.5t-46 -93.5q0 -80 105 -80q75 0 129 27q16 8 16 -11v-49q0 -13 -10 -18q-73 -33 -166 -33q-94 0 -143 42.5t-49 115.5z" />
    <glyph glyph-name="uni0394" unicode="&#x394;" horiz-adv-x="1308" 
d="M80 0v119l500 1364l151 -2l496 -1356v-125h-1147zM219 121h866l-434 1208z" />
    <glyph glyph-name="uni03A9" unicode="&#x3a9;" horiz-adv-x="1548" 
d="M772 1380q-118 0 -211.5 -48t-152 -129t-89 -184t-30.5 -218q0 -76 14.5 -147.5t37 -127t57 -109.5t66 -91.5t73.5 -77t69.5 -61t63.5 -48.5q24 -15 24 -53v-86h-493v123h334l-33 25q-33 25 -54.5 42.5t-63.5 58t-71 77t-65 93.5t-58 114.5t-37.5 132t-15.5 153.5
q0 133 42.5 255t120.5 217.5t200.5 152.5t271.5 57q150 0 273 -57.5t200.5 -154t119.5 -217t42 -251.5q0 -75 -14.5 -147t-36 -128t-54 -110.5t-61.5 -92t-65.5 -75t-59.5 -57.5t-50 -41.5t-30 -24.5q-11 -11 -8 -16.5t16 -5.5h299v-123h-495v121q38 27 67.5 49.5t74.5 63
t78 79t70.5 94t61 113t39.5 131.5t16 152q0 114 -30 216t-88 183.5t-152 129.5t-213 48z" />
    <glyph glyph-name="uni03BC" unicode="&#x3bc;" horiz-adv-x="1167" 
d="M528 88q164 0 349 191v780h131v-1059h-125v164q-116 -97 -196 -138t-165 -42q-137 -3 -217 71v-385h-131v1389h131v-772q0 -82 65 -140.5t158 -58.5z" />
    <glyph glyph-name="pi" unicode="&#x3c0;" horiz-adv-x="1335" 
d="M1272 958h-252v-958h-125l-2 958h-496q0 -274 -35 -540t-86 -418h-116q49 185 81.5 435.5t32.5 502.5q0 20 -16 20h-199v101h1213v-101z" />
    <glyph glyph-name="uni1E0C" unicode="&#x1e0c;" horiz-adv-x="1415" 
d="M213 1481q1 0 48.5 -0.5t117 -1t123.5 -0.5q404 -3 588 -181.5t184 -545.5q0 -383 -195 -567.5t-600 -184.5h-266v1481zM348 1362v-1241h127q164 0 284.5 33.5t206.5 106.5t128.5 193.5t42.5 290.5q0 175 -42.5 295.5t-129 190.5t-203 100.5t-277.5 30.5h-137zM774 -139
v-162q0 -17 -5.5 -23t-20.5 -6h-82q-25 0 -25 23v168q0 22 18 22h97q11 0 14.5 -4.5t3.5 -17.5z" />
    <glyph glyph-name="uni1E0D" unicode="&#x1e0d;" horiz-adv-x="1173" 
d="M553 -20q-201 0 -317.5 137.5t-116.5 396.5q0 258 117.5 411.5t330.5 153.5q90 0 165 -32.5t151 -100.5v576h131v-1522h-109l-8 201q-96 -221 -344 -221zM575 86q126 0 217 88.5t91 187.5v447q-125 162 -293 162q-160 0 -250 -117t-90 -332q0 -216 89.5 -326t235.5 -110z
M659 -139v-162q0 -17 -5.5 -23t-20.5 -6h-82q-25 0 -25 23v168q0 22 19 22h96q11 0 14.5 -4.5t3.5 -17.5z" />
    <glyph glyph-name="uni1E24" unicode="&#x1e24;" horiz-adv-x="1435" 
d="M1102 709h-760v-709h-129v1481h129v-652h760v652h129v-1481h-129v709zM786 -139v-162q0 -17 -5.5 -23t-20.5 -6h-82q-25 0 -25 23v168q0 22 19 22h96q11 0 14.5 -4.5t3.5 -17.5z" />
    <glyph glyph-name="uni1E25" unicode="&#x1e25;" horiz-adv-x="1173" 
d="M174 0v1522h125v-617q44 75 134 122.5t212 47.5q159 0 264 -84.5t105 -218.5v-772h-129v739q0 105 -71.5 164.5t-192.5 59.5q-136 0 -226 -61t-90 -177v-725h-131zM680 -139v-162q0 -17 -6 -23t-21 -6h-82q-24 0 -24 23v168q0 22 18 22h97q11 0 14.5 -4.5t3.5 -17.5z" />
    <glyph glyph-name="uni1E44" unicode="&#x1e44;" horiz-adv-x="1505" 
d="M854 1903v-217h-145v217h145zM1171 1481h132v-1481h-115l-846 1249v-1249h-129v1481h117l841 -1243v1243z" />
    <glyph glyph-name="uni1E45" unicode="&#x1e45;" 
d="M684 1481v-217h-145v217h145zM174 0v1059h125v-154q46 77 134.5 124.5t211.5 47.5q163 0 267 -100t104 -287v-690h-131v682q0 135 -70.5 208t-193.5 73q-135 0 -225.5 -61.5t-90.5 -176.5v-725h-131z" />
    <glyph glyph-name="uni1E5A" unicode="&#x1e5a;" horiz-adv-x="1376" 
d="M1223 0h-142l-286 674h-453v-674h-129v1481h545q227 0 347 -99t120 -284q0 -71 -18 -131.5t-47 -102.5t-70 -76t-81.5 -54t-86.5 -34zM692 791q398 0 398 292q0 283 -340 283h-408v-575h350zM745 -139v-162q0 -17 -5.5 -23t-20.5 -6h-82q-25 0 -25 23v168q0 22 19 22h96
q11 0 14.5 -4.5t3.5 -17.5z" />
    <glyph glyph-name="uni1E5B" unicode="&#x1e5b;" horiz-adv-x="778" 
d="M174 0v1059h123v-207q58 98 171 162.5t226 64.5v-127q-96 3 -187.5 -39t-146.5 -108.5t-55 -134.5v-670h-131zM309 -139v-162q0 -17 -5.5 -23t-20.5 -6h-82q-25 0 -25 23v168q0 22 19 22h96q11 0 14.5 -4.5t3.5 -17.5z" />
    <glyph glyph-name="uni1E62" unicode="&#x1e62;" horiz-adv-x="1406" 
d="M707 -20q-140 0 -260.5 42.5t-204.5 130t-105 205.5l137 17q30 -134 151 -207.5t282 -73.5q179 0 293 76.5t114 198.5q0 226 -266 290l-316 76q-171 39 -259.5 123t-88.5 221q-1 121 63.5 216.5t182.5 149.5t268 54q123 0 222 -33t162 -90.5t99.5 -128.5t45.5 -153
l-133 -13q-13 80 -50 139.5t-91.5 93.5t-118.5 50t-138 16q-67 0 -131 -18t-119 -52t-88.5 -91.5t-33.5 -128.5q0 -91 63.5 -147.5t222.5 -96.5l303 -76q95 -23 163.5 -65t105 -97t53 -113t16.5 -124q0 -169 -144 -280t-400 -111zM752 -139v-162q0 -17 -6 -23t-21 -6h-82
q-25 0 -25 23v168q0 22 19 22h96q11 0 15 -4.5t4 -17.5z" />
    <glyph glyph-name="uni1E63" unicode="&#x1e63;" horiz-adv-x="1056" 
d="M539 -20q-167 0 -289.5 84t-140.5 227h122q27 -104 107 -155.5t201 -51.5q124 0 198 51.5t74 143.5q0 64 -42 103.5t-128 63.5l-231 62q-130 34 -197.5 96.5t-67.5 169.5q0 73 33.5 132.5t89 96.5t125 56.5t144.5 19.5q165 0 266 -87.5t106 -203.5h-125
q-12 88 -80.5 137.5t-168.5 49.5q-45 0 -88 -10t-84.5 -31t-67 -61.5t-25.5 -94.5q0 -62 46 -100t139 -62l233 -61q130 -36 187 -107.5t57 -162.5q0 -97 -55.5 -167.5t-143 -104t-194.5 -33.5zM580 -139v-162q0 -17 -6 -23t-21 -6h-82q-25 0 -25 23v168q0 22 19 22h96
q11 0 15 -4.5t4 -17.5z" />
    <glyph glyph-name="uni1E6C" unicode="&#x1e6c;" horiz-adv-x="1153" 
d="M35 1358v123h1083v-123h-459v-1358h-131v1358h-493zM666 -139v-162q0 -17 -6 -23t-21 -6h-82q-25 0 -25 23v168q0 22 19 22h96q11 0 15 -4.5t4 -17.5z" />
    <glyph glyph-name="uni1E6D" unicode="&#x1e6d;" horiz-adv-x="796" 
d="M666 958h-242v-700q0 -94 27 -127t86 -33h141v-88q-40 -12 -141 -12q-137 0 -189.5 58t-52.5 190v712h-172v101h174l8 303h119v-303h242v-101zM612 -139v-162q0 -17 -5.5 -23t-20.5 -6h-82q-25 0 -25 23v168q0 22 19 22h96q11 0 14.5 -4.5t3.5 -17.5z" />
    <glyph glyph-name="Wgrave" unicode="&#x1e80;" horiz-adv-x="1949" 
d="M727 1921l490 -195l-25 -77l-502 155zM1890 1481l-428 -1481h-141l-350 1245l-357 -1245h-135l-420 1481h136l356 -1288l367 1288h110l363 -1288l366 1288h133z" />
    <glyph glyph-name="wgrave" unicode="&#x1e81;" horiz-adv-x="1630" 
d="M567 1499l490 -194l-25 -78l-502 155zM1542 1059l-305 -1059h-158l-266 858l-248 -858h-159l-318 1059h127l264 -899h21l262 899h106l275 -897h20l252 897h127z" />
    <glyph glyph-name="Wacute" unicode="&#x1e82;" horiz-adv-x="1949" 
d="M1208 1921l39 -117l-502 -155l-26 77zM1890 1481l-428 -1481h-141l-350 1245l-357 -1245h-135l-420 1481h136l356 -1288l367 1288h110l363 -1288l366 1288h133z" />
    <glyph glyph-name="wacute" unicode="&#x1e83;" horiz-adv-x="1630" 
d="M1049 1499l38 -117l-501 -155l-27 78zM1542 1059l-305 -1059h-158l-266 858l-248 -858h-159l-318 1059h127l264 -899h21l262 899h106l275 -897h20l252 897h127z" />
    <glyph glyph-name="Wdieresis" unicode="&#x1e84;" horiz-adv-x="1949" 
d="M920 1903v-209h-138v209h138zM1182 1903v-209h-138v209h138zM1890 1481l-428 -1481h-141l-350 1245l-357 -1245h-135l-420 1481h136l356 -1288l367 1288h110l363 -1288l366 1288h133z" />
    <glyph glyph-name="wdieresis" unicode="&#x1e85;" horiz-adv-x="1630" 
d="M760 1481v-209h-137v209h137zM1022 1481v-209h-137v209h137zM1542 1059l-305 -1059h-158l-266 858l-248 -858h-159l-318 1059h127l264 -899h21l262 899h106l275 -897h20l252 897h127z" />
    <glyph glyph-name="uni1E92" unicode="&#x1e92;" horiz-adv-x="1249" 
d="M115 0v82l843 1280h-817v119h996v-80l-850 -1282h848v-119h-1020zM713 -139v-162q0 -17 -6 -23t-21 -6h-82q-24 0 -24 23v168q0 22 18 22h96q11 0 15 -4.5t4 -17.5z" />
    <glyph glyph-name="uni1E93" unicode="&#x1e93;" horiz-adv-x="935" 
d="M104 0v94l639 869h-596v96h748v-98l-639 -863h651v-98h-803zM565 -139v-162q0 -17 -5.5 -23t-20.5 -6h-84q-23 0 -23 23v168q0 13 4 17.5t13 4.5h98q18 0 18 -22z" />
    <glyph glyph-name="uni1EB8" unicode="&#x1eb8;" horiz-adv-x="1267" 
d="M213 0v1481h887v-121h-758v-551h696v-121h-696v-563l782 -2v-123h-911zM778 -139v-162q0 -17 -5.5 -23t-20.5 -6h-82q-25 0 -25 23v168q0 22 19 22h96q11 0 14.5 -4.5t3.5 -17.5z" />
    <glyph glyph-name="uni1EB9" unicode="&#x1eb9;" horiz-adv-x="1159" 
d="M252 498q0 -115 36 -205t115.5 -146.5t194.5 -56.5q229 0 295 205h127q-40 -157 -153 -236t-267 -79q-217 0 -349 143.5t-132 396.5q0 259 123 409t344 150q211 0 327.5 -137t116.5 -381v-63h-778zM254 600h649q0 166 -81 268.5t-238 102.5q-83 0 -148 -32.5t-104 -86
t-59 -118t-19 -134.5zM639 -139v-162q0 -17 -6 -23t-21 -6h-84q-13 0 -17.5 5t-4.5 18v168q0 13 3.5 17.5t14.5 4.5h97q18 0 18 -22z" />
    <glyph glyph-name="uni1EBC" unicode="&#x1ebc;" horiz-adv-x="1267" 
d="M950 1788q-65 -43 -143 -43q-55 0 -128.5 25.5t-115.5 25.5q-20 0 -39 -4.5t-28.5 -9t-27 -14.5t-22.5 -13q-10 -6 -15 -5t-9 13l-16 45q-6 14 6 21q70 59 143 59q48 0 128.5 -27.5t123.5 -27.5q22 0 43 6t33 12t35 19q18 13 26 -8l19 -52q6 -11 -13 -22zM213 0v1481h887
v-121h-758v-551h696v-121h-696v-563l782 -2v-123h-911z" />
    <glyph glyph-name="uni1EBD" unicode="&#x1ebd;" horiz-adv-x="1159" 
d="M856 1366q-69 -43 -145 -43q-55 0 -127.5 25.5t-114.5 25.5q-21 0 -39.5 -4.5t-28.5 -9.5t-26.5 -14.5t-22.5 -12.5q-10 -6 -15.5 -5t-8.5 13l-19 45q-5 13 6 21q37 29 69 44t77 15q48 0 128.5 -27.5t123.5 -27.5q22 0 43 6.5t30 11t35 19.5q21 13 29 -8l18 -51
q6 -13 -12 -23zM252 498q0 -115 36 -205t115.5 -146.5t194.5 -56.5q229 0 295 205h127q-40 -157 -153 -236t-267 -79q-217 0 -349 143.5t-132 396.5q0 259 123 409t344 150q211 0 327.5 -137t116.5 -381v-63h-778zM254 600h649q0 166 -81 268.5t-238 102.5q-83 0 -148 -32.5
t-104 -86t-59 -118t-19 -134.5z" />
    <glyph glyph-name="uni1ECA" unicode="&#x1eca;" horiz-adv-x="544" 
d="M213 1481h129v-1481h-129v1481zM348 -139v-162q0 -17 -5.5 -23t-20.5 -6h-82q-25 0 -25 23v168q0 22 18 22h97q11 0 14.5 -4.5t3.5 -17.5z" />
    <glyph glyph-name="uni1ECB" unicode="&#x1ecb;" horiz-adv-x="557" 
d="M330 1522v-219h-144v219h144zM324 1059v-1059h-129v1059h129zM373 -139v-162q0 -17 -6 -23t-21 -6h-82q-24 0 -24 23v168q0 22 18 22h96q11 0 15 -4.5t4 -17.5z" />
    <glyph glyph-name="uni1ECC" unicode="&#x1ecc;" horiz-adv-x="1515" 
d="M760 -20q-293 0 -457 196t-164 557q0 368 165.5 568t457.5 200q288 0 451 -199t163 -565q0 -362 -163 -559.5t-453 -197.5zM762 100q471 0 471 637q0 322 -121 482.5t-350 160.5q-232 0 -355.5 -161t-123.5 -482q0 -319 123 -478t356 -159zM829 -139v-162q0 -17 -5.5 -23
t-20.5 -6h-82q-25 0 -25 23v168q0 22 19 22h96q11 0 14.5 -4.5t3.5 -17.5z" />
    <glyph glyph-name="uni1ECD" unicode="&#x1ecd;" horiz-adv-x="1153" 
d="M578 -20q-222 0 -345.5 148t-123.5 394q0 250 126 403.5t345 153.5q217 0 340.5 -152.5t123.5 -400.5q0 -247 -123.5 -396.5t-342.5 -149.5zM582 88q164 0 247.5 119.5t83.5 320.5t-85 321t-248 120q-165 0 -252.5 -121t-87.5 -320q0 -198 88 -319t254 -121zM641 -139
v-162q0 -17 -6 -23t-21 -6h-82q-24 0 -24 23v168q0 22 18 22h97q11 0 14.5 -4.5t3.5 -17.5z" />
    <glyph glyph-name="uni1EE4" unicode="&#x1ee4;" horiz-adv-x="1400" 
d="M1247 483q0 -250 -126.5 -376.5t-389.5 -126.5q-264 0 -388 130.5t-124 397.5v973h137v-1004q0 -188 94.5 -283.5t280.5 -95.5q385 0 385 379v1004h131v-998zM776 -139v-162q0 -18 -4.5 -23.5t-21.5 -5.5h-82q-23 0 -23 23v168q0 13 4 17.5t13 4.5h98q9 0 12.5 -4.5
t3.5 -17.5z" />
    <glyph glyph-name="uni1EE5" unicode="&#x1ee5;" 
d="M573 -18q-56 1 -109.5 12.5t-107 39.5t-93 68.5t-64.5 104.5t-25 143v713h131v-705q0 -74 26.5 -128.5t70 -83.5t90.5 -42.5t96 -13.5q58 0 110.5 18t94 52t66.5 89t26 124v690h131l-2 -1061h-109l-8 215q-25 -121 -114.5 -179t-209.5 -56zM659 -139v-162q0 -17 -5.5 -23
t-20.5 -6h-82q-25 0 -25 23v168q0 22 19 22h96q11 0 14.5 -4.5t3.5 -17.5z" />
    <glyph glyph-name="Ygrave" unicode="&#x1ef2;" horiz-adv-x="1167" 
d="M330 1921l489 -195l-24 -77l-502 155zM1145 1481l-494 -848v-633h-129v635l-499 846h143l422 -725l416 725h141z" />
    <glyph glyph-name="ygrave" unicode="&#x1ef3;" horiz-adv-x="1077" 
d="M295 1499l489 -194l-24 -78l-502 155zM250 -338q-49 0 -85 5t-47 11l-12 5v86h113q96 -3 143 30.5t72 91.5l45 123l-411 1045h133l344 -887l340 887h127l-457 -1180q-47 -118 -122 -167.5t-183 -49.5z" />
    <glyph glyph-name="uni1EF8" unicode="&#x1ef8;" horiz-adv-x="1167" 
d="M854 1788q-65 -43 -143 -43q-55 0 -128.5 25.5t-115.5 25.5q-20 0 -39 -4.5t-28.5 -9t-27 -14.5t-22.5 -13q-10 -6 -15 -5t-9 13l-17 45q-6 14 6 21q70 59 144 59q48 0 128.5 -27.5t123.5 -27.5q22 0 43 6t32 11.5t35 19.5q19 14 27 -8l18 -52q6 -12 -12 -22zM1145 1481
l-494 -848v-633h-129v635l-499 846h143l422 -725l416 725h141z" />
    <glyph glyph-name="uni1EF9" unicode="&#x1ef9;" horiz-adv-x="1077" 
d="M819 1366q-65 -43 -143 -43q-55 0 -128.5 25.5t-115.5 25.5q-20 0 -39 -4.5t-28.5 -9t-27 -14.5t-22.5 -13q-10 -6 -15 -5t-9 13l-17 45q-5 14 7 21q70 59 143 59q48 0 128.5 -27.5t123.5 -27.5q22 0 43 6t32 11.5t35 19.5q19 14 27 -8l18 -51q6 -13 -12 -23zM250 -338
q-49 0 -85 5t-47 11l-12 5v86h113q96 -3 143 30.5t72 91.5l45 123l-411 1045h133l344 -887l340 887h127l-457 -1180q-47 -118 -122 -167.5t-183 -49.5z" />
    <glyph glyph-name="endash" unicode="&#x2013;" horiz-adv-x="1118" 
d="M977 573v-112l-840 -2v112z" />
    <glyph glyph-name="emdash" unicode="&#x2014;" horiz-adv-x="1759" 
d="M1620 573v-112l-1483 -2v112z" />
    <glyph glyph-name="quoteleft" unicode="&#x2018;" horiz-adv-x="475" 
d="M354 1546l-110 -239l78 -2v-191h-201v166l158 266h75z" />
    <glyph glyph-name="quoteright" unicode="&#x2019;" horiz-adv-x="415" 
d="M104 1049l111 239l-80 2v191h201v-166l-156 -266h-76z" />
    <glyph glyph-name="quotesinglbase" unicode="&#x201a;" horiz-adv-x="452" 
d="M96 -240l113 238l-80 2v193h201v-164l-158 -269h-76z" />
    <glyph glyph-name="quotedblleft" unicode="&#x201c;" horiz-adv-x="792" 
d="M127 1049v165l158 267h75l-112 -240l80 -2v-190h-201zM455 1049v165l155 267h76l-113 -240l80 -2v-190h-198z" />
    <glyph glyph-name="quotedblright" unicode="&#x201d;" horiz-adv-x="800" 
d="M104 1049l111 239l-80 2v191h201v-166l-156 -266h-76zM430 1049l113 239l-80 2v191h199v-166l-156 -266h-76z" />
    <glyph glyph-name="quotedblbase" unicode="&#x201e;" horiz-adv-x="815" 
d="M111 -240l110 238l-80 2v193h201v-164l-156 -269h-75zM444 -240l111 238l-80 2v193h201v-164l-156 -269h-76z" />
    <glyph glyph-name="dagger" unicode="&#x2020;" horiz-adv-x="872" 
d="M852 948v-133l-371 21l29 -1166h-148l27 1166l-371 -21v133l365 -16l-21 549h148l-21 -549z" />
    <glyph glyph-name="daggerdbl" unicode="&#x2021;" horiz-adv-x="872" 
d="M483 829v-520l369 21v-133l-363 16l21 -543h-148l21 543l-365 -16v133l371 -21v520l-371 -20v133l365 -16l-21 555h148l-21 -555l363 16v-133z" />
    <glyph glyph-name="bullet" unicode="&#x2022;" horiz-adv-x="626" 
d="M309 584q-70 0 -119 49.5t-49 120.5t49 120.5t119 49.5q71 0 120.5 -50t49.5 -120t-49.5 -120t-120.5 -50z" />
    <glyph glyph-name="ellipsis" unicode="&#x2026;" horiz-adv-x="1439" 
d="M309 197v-197h-170v197h170zM819 197v-197h-170v197h170zM1329 197v-197h-172v197h172z" />
    <glyph glyph-name="perthousand" unicode="&#x2030;" horiz-adv-x="2635" 
d="M463 1503q151 0 243.5 -113t92.5 -311q0 -199 -92.5 -311.5t-243.5 -112.5q-150 0 -244 113t-94 311q0 197 94 310.5t244 113.5zM1503 1497l-995 -1505h-100l997 1505h98zM461 735q107 0 170 95t63 249q0 153 -63 248.5t-170 95.5q-106 0 -169 -96t-63 -248
q0 -153 63 -248.5t169 -95.5zM1366 829q150 0 243 -113.5t93 -309.5q0 -200 -92.5 -313t-243.5 -113q-150 0 -244 113.5t-94 312.5q0 196 94.5 309.5t243.5 113.5zM2171 829q150 0 243 -113.5t93 -309.5q0 -200 -92.5 -313t-243.5 -113q-150 0 -244 113.5t-94 312.5
q0 196 94.5 309.5t243.5 113.5zM1364 61q103 0 168 97t65 245q0 149 -65 247t-168 98q-102 0 -166.5 -98.5t-64.5 -246.5t64 -245t167 -97zM2169 61q103 0 168 97t65 245q0 149 -65 247t-168 98q-102 0 -167 -98.5t-65 -246.5q0 -147 65 -244.5t167 -97.5z" />
    <glyph glyph-name="guilsinglleft" unicode="&#x2039;" horiz-adv-x="540" 
d="M211 514l225 -364h-80l-280 364l282 381h80z" />
    <glyph glyph-name="guilsinglright" unicode="&#x203a;" horiz-adv-x="542" 
d="M328 514l-228 381h80l283 -381l-283 -364h-76z" />
    <glyph glyph-name="fraction" unicode="&#x2044;" horiz-adv-x="514" 
d="M801 1497l-996 -1505h-100l1000 1505h96z" />
    <glyph glyph-name="uni2070" unicode="&#x2070;" horiz-adv-x="839" 
d="M379 1729q149 0 242.5 -124.5t93.5 -357.5q0 -230 -93.5 -352.5t-242.5 -122.5q-152 0 -244 121.5t-92 351.5q0 234 93.5 359t242.5 125zM379 848q114 0 180 97.5t66 301.5q0 206 -66.5 307t-179.5 101t-179.5 -101.5t-66.5 -306.5q0 -202 66.5 -300.5t179.5 -98.5z" />
    <glyph glyph-name="uni2074" unicode="&#x2074;" horiz-adv-x="839" 
d="M496 1710h86v-600h147v-78h-147v-254h-82v254h-443v86zM143 1110h353v473z" />
    <glyph glyph-name="uni2075" unicode="&#x2075;" horiz-adv-x="808" 
d="M154 1710h542l-8 -76h-459l-28 -342q47 26 70 37t68.5 23t94.5 12q61 0 114.5 -16.5t97 -49t68.5 -88t25 -127.5q0 -147 -97.5 -232t-252.5 -85q-198 0 -321 135l59 53q62 -61 116 -88.5t134 -27.5q127 0 199.5 67t72.5 176q0 103 -64.5 156t-162.5 53q-45 0 -90.5 -13.5
t-73 -28t-65.5 -38.5q-5 -3 -8 -4t-4 -0.5t-4 3t-5 3.5l-57 33z" />
    <glyph glyph-name="uni2076" unicode="&#x2076;" horiz-adv-x="815" 
d="M401 1741q101 0 170.5 -44t98.5 -116l-66 -33q-39 60 -82.5 90.5t-120.5 30.5q-137 0 -208 -128t-62 -374q23 84 94.5 133.5t163.5 49.5q137 0 214 -80t77 -201q0 -130 -86 -207.5t-219 -77.5q-159 0 -248.5 122.5t-89.5 344.5q0 229 96.5 359.5t267.5 130.5zM385 1278
q-98 0 -165.5 -51t-67.5 -137q44 -232 225 -232q93 0 154 58.5t61 148.5q0 88 -57 150.5t-150 62.5z" />
    <glyph glyph-name="uni2077" unicode="&#x2077;" horiz-adv-x="737" 
d="M70 1710h632v-84q-126 -179 -237.5 -440t-134.5 -408h-94q34 165 131.5 405t240.5 451h-538v76z" />
    <glyph glyph-name="uni2078" unicode="&#x2078;" horiz-adv-x="808" 
d="M381 1731q134 0 215.5 -70.5t81.5 -185.5q0 -48 -18.5 -89.5t-47 -68t-47.5 -39.5t-35 -21l15 -5q15 -6 21.5 -8.5t23 -10t26 -14t25 -18t24.5 -22.5t21 -27.5t18 -34.5t10.5 -41t4.5 -48q0 -116 -93.5 -185t-248.5 -69q-154 0 -242 64.5t-88 179.5q0 67 41 131.5
t135 107.5q-14 5 -27.5 11t-37.5 23t-41.5 38.5t-31 57.5t-13.5 79q0 113 87.5 189t221.5 76zM381 1657q-93 0 -156 -53t-63 -134q0 -126 141 -153l137 -33q39 -7 96.5 58.5t57.5 136.5q0 80 -58.5 129t-154.5 49zM381 846q113 0 180.5 49.5t67.5 132.5q0 124 -144 158
l-174 41q-19 5 -48.5 -9t-58.5 -39.5t-50 -67t-21 -85.5q0 -85 65 -132.5t183 -47.5z" />
    <glyph glyph-name="uni2079" unicode="&#x2079;" horiz-adv-x="815" 
d="M322 776q-99 0 -169 45t-100 115l68 33q38 -59 80.5 -90t117.5 -31q140 0 213 127t64 377q-22 -85 -93.5 -136t-166.5 -51q-136 0 -214.5 80.5t-78.5 202.5q0 130 86.5 207.5t220.5 77.5q158 0 247 -122t89 -343q0 -233 -95.5 -362.5t-268.5 -129.5zM338 1241
q97 0 165 53t68 133q-40 232 -223 232q-94 0 -154.5 -58t-60.5 -149q0 -87 56 -149t149 -62z" />
    <glyph glyph-name="colonmonetary" unicode="&#x20a1;" horiz-adv-x="1187" 
d="M614 297q105 0 181.5 57t99.5 160h121q-27 -143 -118.5 -223t-221.5 -96l-55 -195l-101 2l51 191q-57 3 -110 18l-55 -211l-103 2l68 250q-113 65 -174.5 190.5t-61.5 292.5q0 212 96 358.5t263 184.5l55 203h102l-51 -191h6q50 0 105 -10l55 201h100l-61 -234
q84 -38 139.5 -109.5t73.5 -172.5l-123 -4q-30 109 -104.5 163t-176.5 54q-160 0 -255 -120t-95 -319q0 -202 94 -322t256 -120z" />
    <glyph glyph-name="franc" unicode="&#x20a3;" horiz-adv-x="1236" 
d="M1120 1362h-772v-580h684v-116h-684v-283l348 2v-96h-348v-289h-149v289h-195v94h195v1098h921v-119z" />
    <glyph glyph-name="lira" unicode="&#x20a4;" horiz-adv-x="1230" 
d="M1116 250q-45 -123 -145 -186.5t-244 -63.5h-696v117h82q80 -2 132.5 77t55.5 232q2 19 -2 82q-3 10 -16 10h-222v96h224l-35 205h-189v96h172l-8 52q-22 144 -0.5 250t80 166.5t137.5 89t179 28.5q128 0 239 -63t148 -152l-119 -49q-73 143 -254 143q-123 0 -203 -68.5
t-80 -189.5q0 -42 25 -188q3 -19 20 -19l348 3v-97l-352 -2l35 -205l317 2v-96h-309q7 -109 -21.5 -219.5t-92.5 -181.5h399q111 0 178.5 38.5t101.5 129.5z" />
    <glyph glyph-name="uni20A6" unicode="&#x20a6;" horiz-adv-x="1464" 
d="M1444 893h-119v-254h119v-92h-119v-547h-115l-368 547h-475v-547h-131v547h-220v92h220v252h-220v92h220v498h118l336 -498l506 2v496h129v-496h119v-92zM367 1249v-266h180zM1196 639v254h-442l170 -254h272zM367 639h411l-170 252h-241v-252zM1196 238v309h-209z" />
    <glyph glyph-name="uni20A9" unicode="&#x20a9;" horiz-adv-x="2062" 
d="M2036 930h-264l-66 -225h330v-95h-357l-176 -610h-141l-172 610l-361 -2l-174 -608h-135l-172 608h-309v97h280l-61 223h-219v96h190l-129 457h136l126 -457h465l129 457h113l129 -457h469l129 457h135l-131 -457h236v-94zM1012 1245l-64 -221h125zM1577 705l63 225h-415
l63 -225h289zM856 705h307l-63 225l-178 -2zM389 928l62 -223h286l64 223h-412zM1432 193l118 417h-235zM592 193l119 415h-234z" />
    <glyph glyph-name="dong" unicode="&#x20ab;" horiz-adv-x="1015" 
d="M854 1343h125v-83h-125v-992h-113v127q-47 -55 -77 -78q-85 -65 -203 -65q-163 0 -267 113.5t-104 322.5q0 208 108 336.5t279 128.5q43 0 79 -7.5t65.5 -23.5t48 -29t43.5 -34q15 -11 19.5 -8.5t4.5 18.5v191h-293v83h293v136h117v-136zM733 547v397q-109 109 -231 109
q-126 0 -204.5 -95t-78.5 -266q0 -170 78.5 -257t198.5 -87q99 0 168 64t69 135zM133 0v86h729v-86h-729z" />
    <glyph glyph-name="Euro" unicode="&#x20ac;" horiz-adv-x="1185" 
d="M1030 193l74 -95q-151 -118 -342 -118q-244 0 -398.5 145t-197.5 410h-189v96h177q-4 70 -4 108q0 41 4 119h-177v94h189q44 262 197 405.5t389 143.5q193 0 344 -125l-90 -94q-120 98 -244 98q-182 0 -294 -107.5t-149 -320.5l439 2v-96h-451q-4 -78 -4 -121
q0 -36 4 -106l451 2v-96l-441 -2q35 -213 151.5 -323t307.5 -110q133 0 254 91z" />
    <glyph glyph-name="uni20B9" unicode="&#x20b9;" horiz-adv-x="1136" 
d="M1100 1483v-92h-293q112 -82 127 -226h166v-92h-166q-22 -243 -295 -334q-12 -2 -8 -18l270 -721h-162l-260 711h-467v110h375q186 0 281 59.5t108 192.5l-760 -2v92l760 2q-27 217 -332 217h-432v99z" />
    <glyph glyph-name="uni20BA" unicode="&#x20ba;" horiz-adv-x="1073" 
d="M920 483l127 -30q-70 -217 -219.5 -335t-362.5 -118h-236v459l-149 -53l-35 100l184 67v220l-155 -58l-35 103l190 69v574h150v-518l293 106l37 -102l-330 -121v-217l299 108l37 -102l-336 -121v-395h113q150 0 254.5 86.5t173.5 277.5z" />
    <glyph glyph-name="uni2113" unicode="&#x2113;" horiz-adv-x="970" 
d="M346 410q0 -178 45 -248t146 -70q67 0 120 29l-131 -141q-75 0 -131 25t-86 60.5t-50.5 84.5t-26 86.5t-10.5 78.5t-7 50q-2 11 -12 4l-99 -70l-49 90l160 113v545q0 224 93.5 339t238.5 115q130 0 200 -85.5t70 -225.5q0 -62 -16 -125t-39 -115.5t-64.5 -113.5
t-75.5 -103t-91 -101t-91 -92t-94 -89v-41zM346 997v-411q365 324 365 626q0 89 -41 136t-119 47q-102 0 -153.5 -90.5t-51.5 -307.5zM657 121l144 153l-13 -16q-68 -102 -131 -137z" />
    <glyph glyph-name="uni2116" unicode="&#x2116;" horiz-adv-x="2347" 
d="M1925 1499q145 0 229 -94.5t84 -251.5q0 -153 -82.5 -246.5t-230.5 -93.5q-146 0 -228.5 93.5t-82.5 246.5q0 156 85 251t226 95zM1171 1481h132v-1481h-115l-846 1249v-1249h-129v1481h117l841 -1243v1243zM1925 1417q-99 0 -151 -69t-52 -189q0 -125 52 -195.5
t151 -70.5q100 0 152.5 70.5t52.5 195.5q0 120 -53 189t-152 69z" />
    <glyph glyph-name="uni2117" unicode="&#x2117;" horiz-adv-x="1673" 
d="M836 -20q-208 0 -383 101t-277 276.5t-102 383.5q0 154 60 294.5t162 242.5t243.5 162.5t296.5 60.5q154 0 294.5 -60.5t242 -162.5t162 -242.5t60.5 -294.5q0 -156 -60 -297.5t-162 -242.5t-242.5 -161t-294.5 -60zM836 86q130 0 248 47t207 130.5t141.5 207.5t52.5 270
q0 191 -90 342.5t-237.5 232.5t-321.5 81q-178 0 -325.5 -81t-236 -232t-88.5 -343q0 -194 88.5 -345t236 -230.5t325.5 -79.5zM1163 920q0 -124 -77 -189t-205 -65h-201v-328h-105v797h295q134 0 213.5 -53.5t79.5 -161.5zM1055 903q0 144 -189 144h-186v-295h194
q80 0 130.5 38.5t50.5 112.5z" />
    <glyph glyph-name="uni2120" unicode="&#x2120;" horiz-adv-x="1990" 
d="M442 -12q-136 0 -236 62.5t-120 174.5l86 8q18 -83 93.5 -128.5t176.5 -45.5q111 0 182.5 47.5t71.5 122.5q0 143 -166 183l-196 47q-219 52 -219 215q0 116 89.5 190t231.5 74q151 0 235.5 -73.5t94.5 -180.5l-82 -8q-16 97 -83.5 141.5t-164.5 44.5q-91 0 -162 -47.5
t-71 -134.5q0 -57 39.5 -91.5t138.5 -60.5l190 -47q114 -27 162.5 -94.5t48.5 -155.5q0 -104 -90 -173.5t-250 -69.5zM1012 0v926h106l316 -822l319 822h105v-926h-84v770l-295 -770h-90l-291 762v-762h-86z" />
    <glyph glyph-name="trademark" unicode="&#x2122;" horiz-adv-x="1830" 
d="M23 848v78h675v-78h-286v-848h-82v848h-307zM852 0v926h106l316 -822l321 822h105v-926h-86v770l-295 -770h-90l-291 762v-762h-86z" />
    <glyph glyph-name="uni2153" unicode="&#x2153;" horiz-adv-x="1925" 
d="M197 565v830l-187 -70v68l207 104h66v-932h-86zM1407 1497l-995 -1505h-101l1000 1505h96zM1219 784q37 75 119 114.5t180 39.5q135 0 220 -66t85 -167q0 -153 -183 -216q101 -28 156 -90t55 -151q0 -115 -94.5 -190.5t-253.5 -75.5q-109 0 -185.5 35t-131.5 120l71 31
q91 -113 248 -113q119 0 187.5 52.5t68.5 136.5q0 93 -76.5 146.5t-177.5 53.5h-127v74h105q105 2 176.5 53.5t71.5 128.5q0 71 -60.5 117.5t-152.5 46.5q-154 0 -232 -112z" />
    <glyph glyph-name="uni2154" unicode="&#x2154;" horiz-adv-x="2093" 
d="M43 571v82l305 305q107 105 150 169.5t43 132.5q0 38 -12.5 69t-33 51t-47 33.5t-53.5 19t-55 5.5q-70 0 -130.5 -31t-98.5 -98l-72 30q89 177 307 177q123 0 202 -67.5t79 -188.5q-1 -81 -45.5 -151t-161.5 -189l-270 -273h487v-76h-594zM1575 1497l-995 -1505h-101
l1000 1505h96zM1386 784q37 75 119.5 114.5t180.5 39.5q135 0 220 -66t85 -167q0 -153 -183 -216q101 -28 156 -90t55 -151q0 -115 -94.5 -190.5t-253.5 -75.5q-109 0 -185.5 35t-131.5 120l71 31q91 -113 248 -113q119 0 187.5 52.5t68.5 136.5q0 93 -76.5 146.5
t-177.5 53.5h-127v74h105q105 2 176.5 53.5t71.5 128.5q0 71 -60.5 117.5t-152.5 46.5q-154 0 -232 -112z" />
    <glyph glyph-name="oneeighth" unicode="&#x215b;" horiz-adv-x="1929" 
d="M197 565v830l-187 -70v68l207 104h66v-932h-86zM1407 1497l-995 -1505h-101l1000 1505h96zM1501 936q134 0 215.5 -70.5t81.5 -185.5q0 -48 -18.5 -89.5t-47 -68t-47 -39t-34.5 -20.5q67 -25 97 -46q91 -64 91 -184q0 -116 -93.5 -184.5t-248.5 -68.5t-242.5 64
t-87.5 179q0 67 41 132t135 108q-14 5 -27.5 11t-37.5 23t-41.5 38.5t-31 57.5t-13.5 79q0 113 87.5 188.5t221.5 75.5zM1501 862q-93 0 -156 -52.5t-63 -133.5q0 -127 141 -154l138 -33q24 -4 60 23t64.5 75.5t28.5 96.5q0 80 -58.5 129t-154.5 49zM1501 51
q113 0 180.5 49.5t67.5 132.5q0 124 -143 158l-174 41q-26 6 -67.5 -17.5t-76.5 -74.5t-35 -109q0 -85 65 -132.5t183 -47.5z" />
    <glyph glyph-name="threeeighths" unicode="&#x215c;" horiz-adv-x="2127" 
d="M98 1362q37 75 119 114.5t180 39.5q135 0 220 -66.5t85 -167.5q0 -152 -182 -215q100 -28 155.5 -90.5t55.5 -151.5q0 -115 -94.5 -190.5t-253.5 -75.5q-109 0 -185.5 35.5t-131.5 120.5l71 30q91 -112 248 -112q119 0 187.5 52t68.5 136q0 93 -76.5 147t-177.5 54h-127
v74h105q105 2 176 53.5t71 128.5q0 71 -60.5 117.5t-152.5 46.5q-152 0 -231 -113zM1606 1497l-996 -1505h-100l999 1505h97zM1700 936q134 0 215.5 -70.5t81.5 -185.5q0 -48 -18.5 -89.5t-47.5 -68t-47.5 -39t-34.5 -20.5q67 -25 96 -45q93 -64 93 -185
q0 -116 -93.5 -184.5t-248.5 -68.5t-242.5 64t-87.5 179q0 67 41 132t135 108q-14 5 -27.5 11t-37.5 23t-41.5 38.5t-31 57.5t-13.5 79q0 113 87.5 188.5t221.5 75.5zM1700 862q-93 0 -156 -52.5t-63 -133.5q0 -127 141 -154l137 -33q39 -7 96.5 58.5t57.5 136.5
q0 80 -58.5 129t-154.5 49zM1700 51q113 0 180.5 49.5t67.5 132.5q0 124 -144 158l-174 41q-19 5 -48.5 -9t-58.5 -39.5t-50 -67t-21 -85.5q0 -85 65 -132.5t183 -47.5z" />
    <glyph glyph-name="fiveeighths" unicode="&#x215d;" horiz-adv-x="2131" 
d="M154 1497h542l-8 -76h-459l-28 -342q47 26 70 37t68.5 23t94.5 12q61 0 114.5 -16.5t97 -49t68.5 -88t25 -127.5q0 -147 -97.5 -232t-252.5 -85q-198 0 -321 135l59 53q62 -61 116 -88.5t134 -27.5q127 0 199.5 67t72.5 176q0 103 -64.5 156t-162.5 53q-45 0 -90.5 -13.5
t-73 -28t-65.5 -38.5q-5 -3 -8 -4t-4 -0.5t-4 3t-5 3.5l-57 33zM1610 1497l-996 -1505h-100l999 1505h97zM1704 936q134 0 215.5 -70.5t81.5 -185.5q0 -48 -18.5 -89.5t-47.5 -68t-47.5 -39t-34.5 -20.5q67 -25 96 -45q93 -64 93 -185q0 -116 -93.5 -184.5t-248.5 -68.5
t-242.5 64t-87.5 179q0 67 41 132t135 108q-14 5 -27.5 11t-37.5 23t-41.5 38.5t-31 57.5t-13.5 79q0 113 87.5 188.5t221.5 75.5zM1704 862q-93 0 -156 -52.5t-63 -133.5q0 -127 141 -154l137 -33q39 -7 96.5 58.5t57.5 136.5q0 80 -58.5 129t-154.5 49zM1704 51
q113 0 180.5 49.5t67.5 132.5q0 124 -144 158l-174 41q-19 5 -48.5 -9t-58.5 -39.5t-50 -67t-21 -85.5q0 -85 65 -132.5t183 -47.5z" />
    <glyph glyph-name="seveneighths" unicode="&#x215e;" horiz-adv-x="2060" 
d="M1538 1497l-995 -1505h-101l1000 1505h96zM70 1495h632v-84q-126 -179 -237.5 -440t-134.5 -408h-94q34 165 131.5 405t240.5 451h-538v76zM1632 936q134 0 215.5 -70.5t81.5 -185.5q0 -48 -18.5 -89.5t-47 -68t-47 -39t-34.5 -20.5q67 -25 97 -46q91 -64 91 -184
q0 -116 -93.5 -184.5t-248.5 -68.5t-242.5 64t-87.5 179q0 67 41.5 132t135.5 108q-14 5 -27.5 11t-38 23t-42 38.5t-31 57.5t-13.5 79q0 113 87.5 188.5t221.5 75.5zM1632 862q-93 0 -156 -52.5t-63 -133.5q0 -127 141 -154l138 -33q24 -4 60 23t64.5 75.5t28.5 96.5
q0 80 -58.5 129t-154.5 49zM1632 51q113 0 180.5 49.5t67.5 132.5q0 124 -143 158l-174 41q-26 6 -67.5 -17.5t-76.5 -74.5t-35 -109q0 -85 65 -132.5t183 -47.5z" />
    <glyph glyph-name="partialdiff" unicode="&#x2202;" horiz-adv-x="1191" 
d="M223 1282l-45 86q52 58 158.5 95.5t220.5 37.5q250 0 389 -191t139 -562q0 -365 -133.5 -566.5t-376.5 -201.5q-207 0 -338 133.5t-131 335.5q0 200 132 319t362 119q100 0 164.5 -23t153.5 -78q26 -14 26 5q0 289 -110 440t-318 151q-64 0 -121.5 -16t-89.5 -33.5
t-82 -50.5zM559 94h2q147 0 253 130t126 341q3 32 0.5 46t-12.5 26q-48 58 -145.5 97.5t-194.5 39.5q-150 0 -246 -93.5t-96 -238.5q0 -146 91 -247t222 -101z" />
    <glyph glyph-name="emptyset" unicode="&#x2205;" horiz-adv-x="1173" 
d="M1042 1092l-118 -111q75 -105 75 -236q0 -170 -121.5 -290.5t-291.5 -120.5q-147 0 -262 94l-134 -123l-65 66l135 125q-84 111 -84 249q0 169 120 289.5t290 120.5q157 0 276 -106l119 108zM262 745q0 -108 62 -192l475 436q-93 80 -213 80q-134 0 -229 -95.5
t-95 -228.5zM911 745q0 95 -53 177l-471 -435q86 -67 199 -67q135 0 230 95t95 230z" />
    <glyph glyph-name="product" unicode="&#x220f;" horiz-adv-x="1298" 
d="M1264 1481v-119h-215v-1362h-140v1362h-520v-1362h-141v1362h-213v119h1229z" />
    <glyph glyph-name="summation" unicode="&#x2211;" horiz-adv-x="1040" 
d="M989 0h-934v94l447 645l-418 639v103h868v-117h-686l402 -614l-435 -631h756v-119z" />
    <glyph glyph-name="minus" unicode="&#x2212;" horiz-adv-x="1114" 
d="M975 799v-109l-838 -2v109z" />
    <glyph glyph-name="uni2219" unicode="&#x2219;" horiz-adv-x="626" 
d="M309 643q-44 0 -76 32.5t-32 78.5q0 44 32 76t76 32q45 0 77 -32t32 -76q0 -46 -31.5 -78.5t-77.5 -32.5z" />
    <glyph glyph-name="radical" unicode="&#x221a;" horiz-adv-x="1255" 
d="M1253 1690l-530 -2020h-143l-355 957l-151 -60l-35 97l274 102l332 -944l488 1868h120z" />
    <glyph glyph-name="infinity" unicode="&#x221e;" horiz-adv-x="1437" 
d="M1331 559v-2q0 -149 -89 -236.5t-220 -87.5q-40 0 -76 10.5t-60.5 23t-55.5 40.5t-47.5 45.5t-49.5 55.5q-10 11 -15 12t-18 -12q-2 -2 -21.5 -24t-33.5 -37.5t-43 -38.5t-56.5 -38t-66.5 -26t-80 -11q-123 0 -210 88.5t-87 227.5q0 141 89.5 228t230.5 87q49 0 89 -11
t75.5 -36.5t59 -47.5t61.5 -64q15 -13 23 -13t20 13q33 36 53.5 56t58 48t81.5 41.5t95 13.5q128 0 210.5 -83t82.5 -222zM406 346h6q66 0 129 46.5t106 107.5q20 28 19 41.5t-23 46.5q-56 84 -113 127t-127 43q-85 0 -137.5 -56t-52.5 -147q0 -92 56 -150.5t137 -58.5z
M1036 758h-2q-36 0 -70.5 -13.5t-66 -40.5t-53 -49.5t-51.5 -58.5q-37 -45 0 -82q119 -168 249 -168q81 0 129 63t48 144q0 85 -50.5 145t-132.5 60z" />
    <glyph glyph-name="integral" unicode="&#x222b;" horiz-adv-x="882" 
d="M324 1335q0 180 84.5 277.5t218.5 97.5q84 0 130.5 -11.5t102.5 -45.5l-39 -125q-54 29 -92 41t-88 12q-81 0 -133.5 -57.5t-52.5 -169.5q0 -221 47 -670t47 -657q0 -181 -83.5 -279t-213.5 -98q-82 0 -128 11.5t-104 45.5l39 125q54 -29 92 -41t87 -12q78 0 130 57
t52 172q0 222 -48 669t-48 658z" />
    <glyph glyph-name="approxequal" unicode="&#x2248;" horiz-adv-x="1128" 
d="M997 924q-33 -45 -94 -76t-145 -31q-64 0 -127.5 23.5t-125.5 47t-122 23.5q-119 0 -217 -98l-37 84q60 56 115.5 86.5t134.5 30.5q50 0 103 -15.5t91 -34t88.5 -34t96.5 -15.5q118 0 198 97zM997 530q-34 -46 -94.5 -77t-144.5 -31q-54 0 -107 15.5t-88.5 33.5t-84 33.5
t-95.5 15.5q-119 0 -217 -102l-37 88q57 54 113.5 83t136.5 29q63 0 128.5 -24.5t129 -49t121.5 -24.5q70 0 115 27t83 71z" />
    <glyph glyph-name="notequal" unicode="&#x2260;" horiz-adv-x="1187" 
d="M985 891h-317l-152 -342l469 2v-109h-516l-131 -292h-90l131 292h-232v107h279l154 342l-433 -2v108h480l123 273h86l-121 -273h270v-106z" />
    <glyph glyph-name="lessequal" unicode="&#x2264;" horiz-adv-x="1099" 
d="M950 627v-131l-817 323v131l819 328v-135l-651 -258zM956 250v-107h-837v109z" />
    <glyph glyph-name="greaterequal" unicode="&#x2265;" horiz-adv-x="1099" 
d="M143 627l652 258l-654 258v135l822 -328v-131l-820 -323v131zM139 250l838 2v-109h-838v107z" />
    <glyph glyph-name="lozenge" unicode="&#x25ca;" horiz-adv-x="940" 
d="M530 0h-122l-316 739l328 742h121l317 -738zM475 1368l-254 -618l254 -637l254 626z" />
    <glyph glyph-name="i.loclTRK" horiz-adv-x="499" 
d="M324 1481v-217h-146v217h146zM315 1059v-1059h-129v1059h129z" />
    <glyph glyph-name="p.001" horiz-adv-x="1212" 
d="M195 -330v1389h127v-152q1 1 18 20.5t24.5 27t29 27t38 29.5t44 25.5t54 23t62.5 13.5t74 6q196 0 320 -137.5t124 -394.5q0 -261 -127 -414t-340 -153q-89 0 -163.5 28.5t-155.5 95.5v-434h-129zM616 84q161 0 261 121t100 336q0 214 -99 323t-247 109q-131 0 -219 -83
t-88 -185v-453q133 -168 292 -168z" />
    <glyph glyph-name="q.001" horiz-adv-x="1193" 
d="M1034 -330h-129v434q-83 -67 -157 -95.5t-162 -28.5q-213 0 -340 153t-127 414q0 257 124 394.5t320 137.5q38 0 74 -6t62.5 -13.5t54 -23t44 -25.5t38 -29.5t29 -27t24.5 -27t18 -20.5v152h127v-1389zM612 84q160 0 293 168v453q0 102 -88 185t-219 83q-148 0 -247 -109
t-99 -323q0 -215 99.5 -336t260.5 -121z" />
    <glyph glyph-name="l.ss01" horiz-adv-x="552" 
d="M211 0v1522h131v-1522h-131z" />
    <glyph glyph-name="zero.osf" horiz-adv-x="1294" 
d="M647 1501q115 0 212 -48.5t170 -141.5t114 -240t41 -334q0 -186 -41 -332t-114 -238t-170 -139.5t-214 -47.5q-116 0 -212 47t-168 139t-112 237t-40 330q0 188 40.5 336t113 241.5t169 142t211.5 48.5zM649 100q182 0 285.5 156t103.5 481q0 328 -105 486.5t-286 158.5
q-179 0 -285 -159.5t-106 -485.5q0 -323 106 -480t287 -157z" />
    <glyph glyph-name="one.osf" horiz-adv-x="774" 
d="M381 0v1319l-297 -113v111l332 164h102v-1481h-137z" />
    <glyph glyph-name="two.osf" horiz-adv-x="1159" 
d="M98 0v129l484 485q171 168 239 269.5t68 212.5q0 60 -20 109t-52 80.5t-74.5 53t-85 30.5t-86.5 9q-113 0 -209.5 -50.5t-156.5 -156.5l-113 48q70 139 194.5 210.5t293.5 71.5q196 0 320.5 -107.5t123.5 -299.5q-1 -128 -71.5 -240t-256.5 -301l-428 -430h772v-123h-942
z" />
    <glyph glyph-name="three.osf" horiz-adv-x="1277" 
d="M154 1264q57 119 188 182t287 63q216 0 350.5 -105t134.5 -265q0 -241 -291 -342q160 -43 248 -143.5t88 -239.5q0 -185 -150.5 -305.5t-402.5 -120.5q-174 0 -296 57.5t-210 192.5l115 49q140 -178 395 -178q187 0 295.5 83t108.5 216q0 99 -60 173t-150 109t-194 35
l-198 2v115l166 2q165 0 279 82.5t114 206.5q0 111 -96.5 185.5t-243.5 74.5q-241 0 -367 -179z" />
    <glyph glyph-name="four.osf" horiz-adv-x="1269" 
d="M805 1481h135v-953h234v-122h-234v-406h-131l2 406h-702v135zM246 528h559v752z" />
    <glyph glyph-name="five.osf" horiz-adv-x="1316" 
d="M252 1481h864l-12 -119h-731l-43 -545q68 39 108 58.5t111.5 38t148.5 18.5q98 0 183.5 -26t154.5 -78.5t109.5 -140.5t40.5 -202q0 -234 -156 -369.5t-403 -135.5q-148 0 -280.5 55.5t-229.5 161.5l94 84q100 -97 184.5 -141t210.5 -44q202 0 319 106t117 279
q0 84 -29 149t-79.5 105t-114.5 60t-139 20q-71 0 -145.5 -22.5t-114.5 -43.5t-107 -61l-7.5 -4.5t-4.5 -2.5t-4 0l-3 1.5t-4.5 3t-6.5 4.5l-90 53z" />
    <glyph glyph-name="six.osf" horiz-adv-x="1239" 
d="M686 1516q161 0 271 -70.5t157 -183.5l-106 -54q-30 45 -55 74.5t-62.5 59t-88 43.5t-114.5 14q-219 0 -332 -203.5t-98 -591.5q35 132 149 210.5t261 78.5q111 0 199.5 -35t145.5 -96.5t87 -142t30 -173.5q0 -206 -137 -329t-350 -123q-250 0 -392 195t-142 546
q0 365 152 573t425 208zM662 776q-157 0 -265 -80.5t-108 -216.5q34 -183 124.5 -275.5t233.5 -92.5q148 0 245 92.5t97 236.5q0 141 -89 238.5t-238 97.5z" />
    <glyph glyph-name="seven.osf" horiz-adv-x="1171" 
d="M84 1481h1008v-133q-200 -286 -378.5 -700.5t-215.5 -647.5h-150q32 159 102.5 368t202 485t289.5 509h-858v119z" />
    <glyph glyph-name="eight.osf" horiz-adv-x="1267" 
d="M631 1501q213 0 343 -112t130 -295q0 -62 -22 -119t-48.5 -91.5t-66.5 -67.5t-57 -43.5t-40 -22.5q5 -2 31.5 -12.5t44 -18.5t48 -25t51.5 -34.5t46.5 -46t41 -60t26 -75t10.5 -93.5q0 -185 -148 -295t-394 -110t-386.5 102.5t-140.5 286.5q0 49 14 97t44.5 99.5t87 99
t133.5 83.5q-17 6 -34 14t-47.5 25.5t-56 43t-50 59.5t-38.5 83t-14 106q0 181 139.5 301.5t352.5 120.5zM633 1384q-150 0 -250 -83.5t-100 -210.5q0 -200 225 -246l217 -51q38 -8 95.5 34.5t103 119.5t45.5 153q0 128 -91.5 206t-244.5 78zM633 96q178 0 284.5 78
t106.5 209q0 102 -54.5 163t-170.5 89l-279 65q-30 7 -77.5 -15t-93.5 -63t-79.5 -106t-33.5 -135q0 -134 104 -209.5t293 -75.5z" />
    <glyph glyph-name="nine.osf" horiz-adv-x="1239" 
d="M545 -20q-158 0 -268.5 71.5t-155.5 184.5l106 53q29 -45 53.5 -75t62 -59.5t87.5 -44t113 -14.5q223 0 339 201.5t101 597.5q-33 -134 -147.5 -214.5t-266.5 -80.5q-218 0 -341.5 128t-123.5 323q0 203 137.5 326.5t348.5 123.5q252 0 394 -194t142 -545
q0 -372 -152 -577t-429 -205zM573 719q153 0 262 85t109 214q-34 182 -124 274t-232 92q-148 0 -244 -91.5t-96 -235.5q0 -140 88 -239t237 -99z" />
    <glyph glyph-name="zero.tf" horiz-adv-x="1427" 
d="M731 1501q115 0 211.5 -48.5t169 -141.5t113.5 -240t41 -334q0 -186 -41 -332t-113.5 -238t-169.5 -139.5t-213 -47.5t-213 47t-169 139t-112 236.5t-40 330.5q0 188 40.5 336t113 241.5t169.5 142t213 48.5zM731 100q182 0 285.5 156t103.5 481q0 328 -105 486.5
t-286 158.5q-179 0 -285 -159.5t-106 -485.5q0 -323 106 -480t287 -157z" />
    <glyph glyph-name="one.tf" horiz-adv-x="1427" 
d="M819 131h461v-131h-1065v131h463v1206l-442 -182v131l483 197h100v-1352z" />
    <glyph glyph-name="two.tf" horiz-adv-x="1427" 
d="M274 0v129l486 485q170 167 237.5 268.5t67.5 213.5q0 60 -19.5 109t-51.5 80.5t-74 53t-85 30.5t-87 9q-111 0 -208 -50.5t-157 -156.5l-113 48q69 139 193.5 210.5t292.5 71.5q197 0 322 -107.5t124 -299.5q-1 -128 -71.5 -240t-256.5 -301l-428 -430h773v-123h-945z
" />
    <glyph glyph-name="three.tf" horiz-adv-x="1427" 
d="M262 1255q57 119 187.5 182.5t285.5 63.5q215 0 350.5 -106t135.5 -265q0 -241 -289 -342q159 -43 247.5 -144t88.5 -241q0 -183 -151 -303t-402 -120q-174 0 -296 56.5t-210 190.5l113 52q142 -181 395 -181q187 0 296 84t109 217q0 99 -59.5 173t-150 109.5
t-195.5 35.5l-199 2v115l166 2q167 0 281 82t114 206q0 111 -97.5 185.5t-244.5 74.5q-123 0 -211.5 -44t-152.5 -134z" />
    <glyph glyph-name="four.tf" horiz-adv-x="1427" 
d="M922 1481h137v-953h233v-122h-233v-406h-131v406h-703v135zM362 528h560v752z" />
    <glyph glyph-name="five.tf" horiz-adv-x="1427" 
d="M344 1481h864l-12 -119h-731l-43 -545q68 38 108.5 58t112 38.5t148.5 18.5t147.5 -16t133 -51t108 -86.5t72 -126.5t26.5 -167q0 -234 -156 -369.5t-403 -135.5q-150 0 -282.5 55.5t-229.5 161.5l96 84q100 -97 184.5 -141t210.5 -44q202 0 318.5 106t116.5 279
q0 84 -28.5 149t-79 105t-114.5 60t-139 20q-55 0 -106 -10.5t-102 -33t-79 -38t-79 -45.5q-7 -4 -9.5 -5.5t-5.5 -1.5t-4 0.5t-5 3.5t-7 5l-90 53z" />
    <glyph glyph-name="six.tf" horiz-adv-x="1427" 
d="M793 1516q161 0 271 -70.5t157 -183.5l-105 -54q-31 46 -56 75t-63 58.5t-88 43.5t-114 14q-219 0 -332 -203.5t-98 -591.5q36 132 149.5 210.5t261.5 78.5q146 0 252 -61t157.5 -161t51.5 -225q0 -205 -137 -328.5t-348 -123.5q-252 0 -394.5 195t-142.5 546
q0 365 152.5 573t425.5 208zM768 776q-157 0 -264 -80.5t-107 -216.5q32 -183 123.5 -275.5t233.5 -92.5q148 0 245 92.5t97 236.5q0 141 -89 238.5t-239 97.5z" />
    <glyph glyph-name="seven.tf" horiz-adv-x="1427" 
d="M137 1481h1110v-133q-132 -191 -263 -457t-218 -504.5t-111 -386.5h-155q24 116 71.5 266t119.5 330t177.5 381.5t225.5 378.5h-957v125z" />
    <glyph glyph-name="eight.tf" horiz-adv-x="1427" 
d="M737 1501q213 0 342 -112t129 -295q0 -62 -21.5 -119t-48 -91.5t-65.5 -67.5t-56.5 -43.5t-39.5 -22.5q5 -2 31.5 -12.5t43.5 -18t47.5 -25t51.5 -35t46 -46t40.5 -60t26 -75t10.5 -93.5q0 -185 -148.5 -295t-394.5 -110q-244 0 -384 102.5t-140 286.5q0 49 14 97
t44 99.5t86.5 99t133.5 83.5q-22 8 -43 18t-59.5 37t-66 61t-49 91t-21.5 124q0 181 138.5 301.5t352.5 120.5zM739 1384q-150 0 -250 -83.5t-100 -210.5q0 -199 223 -246l217 -51q39 -8 97 34.5t103.5 119.5t45.5 153q0 128 -92 206t-244 78zM737 96q180 0 286.5 78
t106.5 209q0 102 -54.5 163t-170.5 89l-278 65q-30 7 -77.5 -15t-94 -63t-80 -106t-33.5 -135q0 -134 103.5 -209.5t291.5 -75.5z" />
    <glyph glyph-name="nine.tf" horiz-adv-x="1427" 
d="M666 -20q-158 0 -268.5 71.5t-157.5 184.5l108 53q29 -45 53.5 -75t62 -59.5t87.5 -44t113 -14.5q223 0 339 201.5t101 597.5q-35 -134 -149.5 -214.5t-264.5 -80.5q-218 0 -342.5 128t-124.5 323q0 203 138.5 326.5t349.5 123.5q252 0 394 -194t142 -545
q0 -372 -152.5 -577t-428.5 -205zM694 719q153 0 262 85t109 214q-34 182 -124 274t-232 92q-150 0 -245 -91.5t-95 -235.5q0 -140 88 -239t237 -99z" />
    <glyph glyph-name="zero.subs" horiz-adv-x="839" 
d="M379 596q149 0 242.5 -124t93.5 -357q0 -230 -93.5 -352.5t-242.5 -122.5q-152 0 -244 121.5t-92 351.5q0 234 93.5 358.5t242.5 124.5zM379 -285q114 0 180 98t66 302q0 206 -66.5 306.5t-179.5 100.5t-179.5 -101t-66.5 -306q0 -202 66.5 -301t179.5 -99z" />
    <glyph glyph-name="one.subs" horiz-adv-x="606" 
d="M197 -338v830l-187 -70v67l207 105h66v-932h-86z" />
    <glyph glyph-name="two.subs" horiz-adv-x="774" 
d="M43 -338v82l305 305q107 106 150 169.5t43 131.5q0 38 -12.5 69t-33 51t-47 33.5t-53.5 19t-55 5.5q-70 0 -130.5 -31t-98.5 -98l-72 31q89 176 307 176q123 0 202 -67.5t79 -188.5q-1 -81 -45.5 -151t-161.5 -189l-270 -272h487v-76h-594z" />
    <glyph glyph-name="three.subs" horiz-adv-x="804" 
d="M98 446q37 75 119 114.5t180 39.5q135 0 220 -66t85 -167q0 -152 -182 -215q100 -28 155.5 -90.5t55.5 -151.5q0 -115 -94.5 -190.5t-253.5 -75.5q-109 0 -185.5 35t-131.5 120l71 31q91 -113 248 -113q119 0 187.5 52.5t68.5 136.5q0 93 -76.5 146.5t-177.5 53.5h-127
v74h105q105 2 176 53.5t71 128.5q0 71 -60.5 117.5t-152.5 46.5q-153 0 -231 -112z" />
    <glyph glyph-name="four.subs" horiz-adv-x="839" 
d="M496 594h86v-600h147v-78h-147v-254h-82v254h-443v86zM143 -6h353v473z" />
    <glyph glyph-name="five.subs" horiz-adv-x="808" 
d="M154 588h542l-8 -76h-459l-28 -342q47 26 70 37t68.5 23t94.5 12q61 0 114.5 -16.5t97 -49t68.5 -88t25 -127.5q0 -147 -97.5 -232t-252.5 -85q-198 0 -321 135l59 53q63 -61 116.5 -89t133.5 -28q127 0 199.5 67.5t72.5 176.5q0 103 -64.5 156t-162.5 53
q-45 0 -90.5 -13.5t-73 -28t-65.5 -38.5q-5 -3 -8 -4t-4 -0.5t-4 3t-5 3.5l-57 33z" />
    <glyph glyph-name="six.subs" horiz-adv-x="815" 
d="M401 604q101 0 170.5 -44t98.5 -116l-66 -32q-25 39 -47 62t-62.5 40.5t-93.5 17.5q-137 0 -208 -127.5t-62 -373.5q23 83 94.5 132.5t163.5 49.5q137 0 214 -80t77 -201q0 -130 -86 -207t-219 -77q-159 0 -248.5 122.5t-89.5 344.5q0 229 96.5 359t267.5 130zM385 141
q-98 0 -165.5 -51t-67.5 -137q44 -232 225 -232q93 0 154 58.5t61 148.5q0 88 -57 150.5t-150 62.5z" />
    <glyph glyph-name="seven.subs" horiz-adv-x="737" 
d="M70 594h632v-84q-126 -179 -237.5 -440t-134.5 -408h-94q34 165 131.5 405t240.5 451h-538v76z" />
    <glyph glyph-name="eight.subs" horiz-adv-x="808" 
d="M381 600q134 0 215.5 -70.5t81.5 -185.5q0 -48 -18.5 -89.5t-47.5 -68t-47.5 -39t-34.5 -20.5l15 -5q15 -6 21.5 -8.5t23 -10t26 -14t25 -18t24.5 -22.5t21 -27.5t18 -34.5t10.5 -41t4.5 -48q0 -116 -93.5 -185t-248.5 -69t-242.5 64t-87.5 179q0 67 41 132t135 108
q-14 5 -27.5 11t-37.5 23t-41.5 38.5t-31 57.5t-13.5 79q0 113 87.5 188.5t221.5 75.5zM381 526q-93 0 -156 -52.5t-63 -133.5q0 -127 141 -154l137 -32q39 -7 96.5 58t57.5 136q0 80 -58.5 129t-154.5 49zM381 -285q113 0 180.5 50t67.5 133q0 123 -144 157l-174 41
q-26 6 -67.5 -17.5t-76 -74t-34.5 -108.5q0 -85 65 -133t183 -48z" />
    <glyph glyph-name="nine.subs" horiz-adv-x="815" 
d="M322 -360q-100 0 -170 44.5t-99 114.5l68 33q38 -59 80.5 -90t117.5 -31q140 0 213 127t64 377q-21 -85 -93 -135.5t-167 -50.5q-137 0 -215 80t-78 202q0 130 86.5 207.5t220.5 77.5q158 0 247 -122t89 -343q0 -233 -95.5 -362t-268.5 -129zM338 104q97 0 165 53t68 134
q-40 231 -223 231q-94 0 -154.5 -58t-60.5 -149q0 -87 56 -149t149 -62z" />
    <glyph glyph-name="zero.dnom" horiz-adv-x="839" 
d="M379 934q149 0 242.5 -124t93.5 -357q0 -231 -93.5 -353.5t-242.5 -122.5q-152 0 -244 122t-92 352q0 234 93.5 358.5t242.5 124.5zM379 53q114 0 180 98t66 302q0 206 -66.5 306.5t-179.5 100.5t-179.5 -101t-66.5 -306q0 -202 66.5 -301t179.5 -99z" />
    <glyph glyph-name="one.dnom" horiz-adv-x="606" 
d="M197 0v829l-187 -69v67l207 105h66v-932h-86z" />
    <glyph glyph-name="two.dnom" horiz-adv-x="774" 
d="M43 0v82l305 305q107 106 150 169.5t43 131.5q0 38 -12.5 69t-33 51t-47 33.5t-53.5 19t-55 5.5q-70 0 -130.5 -31t-98.5 -98l-72 31q89 176 307 176q123 0 202 -67.5t79 -188.5q-1 -81 -45.5 -151t-161.5 -189l-270 -272h487v-76h-594z" />
    <glyph glyph-name="three.dnom" horiz-adv-x="804" 
d="M98 784q37 75 119 114.5t180 39.5q135 0 220 -66t85 -167q0 -153 -182 -216q101 -28 156 -90t55 -151q0 -115 -94.5 -190.5t-253.5 -75.5q-109 0 -185.5 35t-131.5 120l71 31q91 -113 248 -113q119 0 187.5 52.5t68.5 136.5q0 93 -76.5 146.5t-177.5 53.5h-127v74h105
q105 2 176 53.5t71 128.5q0 71 -60.5 117.5t-152.5 46.5q-153 0 -231 -112z" />
    <glyph glyph-name="four.dnom" horiz-adv-x="839" 
d="M496 932h86v-600h147v-78h-147v-254h-82v254h-443v86zM143 332h353v473z" />
    <glyph glyph-name="five.dnom" horiz-adv-x="808" 
d="M154 926h542l-8 -76h-459l-28 -342q47 26 70 37t68.5 23t94.5 12q61 0 114.5 -16.5t97 -49t68.5 -88t25 -127.5q0 -147 -97.5 -232t-252.5 -85q-198 0 -321 135l59 53q63 -61 116.5 -89t133.5 -28q127 0 199.5 67.5t72.5 176.5q0 103 -64.5 156t-162.5 53
q-45 0 -90.5 -13.5t-73 -28t-65.5 -38.5q-5 -3 -8 -4t-4 -0.5t-4 3t-5 3.5l-57 33z" />
    <glyph glyph-name="six.dnom" horiz-adv-x="815" 
d="M401 942q101 0 170.5 -44t98.5 -116l-66 -32q-25 39 -47 62t-62.5 40.5t-93.5 17.5q-137 0 -208 -127.5t-62 -373.5q23 83 94.5 132.5t163.5 49.5q137 0 214 -80t77 -201q0 -130 -86 -207t-219 -77q-159 0 -248.5 122.5t-89.5 344.5q0 229 96.5 359t267.5 130zM385 479
q-98 0 -165.5 -51t-67.5 -137q44 -232 225 -232q93 0 154 58.5t61 148.5q0 88 -57 150.5t-150 62.5z" />
    <glyph glyph-name="seven.dnom" horiz-adv-x="737" 
d="M70 932h632v-84q-126 -179 -237.5 -440t-134.5 -408h-94q34 165 131.5 405t240.5 451h-538v76z" />
    <glyph glyph-name="eight.dnom" horiz-adv-x="808" 
d="M381 936q134 0 215.5 -70.5t81.5 -185.5q0 -48 -18.5 -89.5t-47.5 -68t-47.5 -39t-34.5 -20.5q67 -25 96 -45q93 -64 93 -185q0 -116 -93.5 -184.5t-248.5 -68.5t-242.5 64t-87.5 179q0 67 41 132t135 108q-14 5 -27.5 11t-37.5 23t-41.5 38.5t-31 57.5t-13.5 79
q0 113 87.5 188.5t221.5 75.5zM381 862q-93 0 -156 -52.5t-63 -133.5q0 -127 141 -154l137 -33q39 -7 96.5 58.5t57.5 136.5q0 80 -58.5 129t-154.5 49zM381 51q113 0 180.5 49.5t67.5 132.5q0 124 -144 158l-174 41q-19 5 -48.5 -9t-58.5 -39.5t-50 -67t-21 -85.5
q0 -85 65 -132.5t183 -47.5z" />
    <glyph glyph-name="nine.dnom" horiz-adv-x="815" 
d="M322 -23q-99 0 -169 45t-100 115l68 33q38 -59 80.5 -90t117.5 -31q140 0 213 127t64 377q-21 -85 -93 -135.5t-167 -50.5q-137 0 -215 80t-78 202q0 130 86.5 207.5t220.5 77.5q158 0 247 -122t89 -343q0 -233 -95.5 -362.5t-268.5 -129.5zM338 442q97 0 165 53t68 134
q-40 231 -223 231q-94 0 -154.5 -58t-60.5 -149q0 -87 56 -149t149 -62z" />
    <glyph glyph-name="zero.numr" horiz-adv-x="839" 
d="M379 1516q149 0 242.5 -124.5t93.5 -357.5q0 -230 -93.5 -352.5t-242.5 -122.5q-152 0 -244 121.5t-92 351.5q0 234 93.5 359t242.5 125zM379 635q114 0 180 97.5t66 301.5q0 206 -66.5 307t-179.5 101t-179.5 -101.5t-66.5 -306.5q0 -202 66.5 -300.5t179.5 -98.5z" />
    <glyph glyph-name="one.numr" horiz-adv-x="606" 
d="M197 565v830l-187 -70v68l207 104h66v-932h-86z" />
    <glyph glyph-name="two.numr" horiz-adv-x="774" 
d="M43 571v82l305 305q107 105 150 169.5t43 132.5q0 38 -12.5 69t-33 51t-47 33.5t-53.5 19t-55 5.5q-70 0 -130.5 -31t-98.5 -98l-72 30q89 177 307 177q123 0 202 -67.5t79 -188.5q-1 -81 -45.5 -151t-161.5 -189l-270 -273h487v-76h-594z" />
    <glyph glyph-name="three.numr" horiz-adv-x="804" 
d="M98 1362q37 75 119 114.5t180 39.5q135 0 220 -66.5t85 -167.5q0 -152 -182 -215q100 -28 155.5 -90.5t55.5 -151.5q0 -115 -94.5 -190.5t-253.5 -75.5q-109 0 -185.5 35.5t-131.5 120.5l71 30q91 -112 248 -112q119 0 187.5 52t68.5 136q0 93 -76.5 147t-177.5 54h-127
v74h105q105 2 176 53.5t71 128.5q0 71 -60.5 117.5t-152.5 46.5q-152 0 -231 -113z" />
    <glyph glyph-name="four.numr" horiz-adv-x="839" 
d="M496 1497h86v-600h147v-78h-147v-254h-82v254h-443v86zM143 897h353v473z" />
    <glyph glyph-name="five.numr" horiz-adv-x="808" 
d="M154 1497h542l-8 -76h-459l-28 -342q47 26 70 37t68.5 23t94.5 12q61 0 114.5 -16.5t97 -49t68.5 -88t25 -127.5q0 -147 -97.5 -232t-252.5 -85q-198 0 -321 135l59 53q62 -61 116 -88.5t134 -27.5q127 0 199.5 67t72.5 176q0 103 -64.5 156t-162.5 53q-45 0 -90.5 -13.5
t-73 -28t-65.5 -38.5q-5 -3 -8 -4t-4 -0.5t-4 3t-5 3.5l-57 33z" />
    <glyph glyph-name="six.numr" horiz-adv-x="815" 
d="M401 1526q101 0 170.5 -44t98.5 -116l-66 -33q-39 60 -82.5 90.5t-120.5 30.5q-137 0 -208 -128t-62 -374q23 84 94.5 133.5t163.5 49.5q137 0 214 -80t77 -201q0 -130 -86 -207.5t-219 -77.5q-159 0 -248.5 122.5t-89.5 344.5q0 229 96.5 359.5t267.5 130.5zM385 1063
q-98 0 -165.5 -51.5t-67.5 -137.5q44 -231 225 -231q93 0 154 58.5t61 148.5q0 88 -57 150.5t-150 62.5z" />
    <glyph glyph-name="seven.numr" horiz-adv-x="737" 
d="M70 1495h632v-84q-126 -179 -237.5 -440t-134.5 -408h-94q34 165 131.5 405t240.5 451h-538v76z" />
    <glyph glyph-name="eight.numr" horiz-adv-x="808" 
d="M381 1516q134 0 215.5 -70.5t81.5 -185.5q0 -48 -18.5 -89.5t-47 -68t-47.5 -39.5t-35 -21l15 -6q15 -5 21.5 -7.5t23 -10t26 -14t25 -18t24.5 -22.5t21 -27.5t18 -34.5t10.5 -41t4.5 -48q0 -116 -93.5 -185t-248.5 -69q-154 0 -242 64.5t-88 179.5q0 67 41 131.5
t135 107.5q-14 5 -27.5 11t-37.5 23t-41.5 38.5t-31 57.5t-13.5 79q0 113 87.5 189t221.5 76zM381 1442q-93 0 -156 -53t-63 -134q0 -126 141 -153l137 -33q39 -7 96.5 58.5t57.5 136.5q0 80 -58.5 129t-154.5 49zM381 631q113 0 180.5 49.5t67.5 132.5q0 124 -144 158
l-174 41q-19 5 -48.5 -9t-58.5 -39.5t-50 -67t-21 -85.5q0 -85 65 -132.5t183 -47.5z" />
    <glyph glyph-name="nine.numr" horiz-adv-x="815" 
d="M322 561q-99 0 -169 45t-100 115l68 33q38 -59 80.5 -90t117.5 -31q140 0 213 127t64 377q-22 -85 -93.5 -136t-166.5 -51q-136 0 -214.5 80.5t-78.5 202.5q0 130 86.5 207.5t220.5 77.5q158 0 247 -122t89 -343q0 -233 -95.5 -362.5t-268.5 -129.5zM338 1026
q97 0 165 53t68 133q-40 232 -223 232q-94 0 -154.5 -58t-60.5 -149q0 -87 56 -149t149 -62z" />
    <glyph glyph-name="period.tf" horiz-adv-x="593" 
d="M410 197v-197h-172v197h172z" />
    <glyph glyph-name="comma.tf" horiz-adv-x="593" 
d="M209 -242l113 240l-82 2v193h200v-166l-155 -269h-76z" />
    <glyph glyph-name="bullet.uc" horiz-adv-x="626" 
d="M309 584q-70 0 -119 49.5t-49 120.5t49 120.5t119 49.5q71 0 120.5 -50t49.5 -120t-49.5 -120t-120.5 -50z" />
    <glyph glyph-name="caroncomb.alt" horiz-adv-x="0" 
d="M-176 1110q-7 0 -10.5 5.5t-1.5 10.5l59 142q5 12 4 16.5t-10 5.5l-15 2q-18 3 -18 19v155q0 15 14 15h103q14 0 14 -13v-176q0 -4 -4 -8l-65 -158q-8 -16 -33 -16h-37z" />
    </font>
</defs>
</svg>
