<?xml version="1.0" standalone="no"?>
<!DOCTYPE svg PUBLIC "-//W3C//DTD SVG 1.1//EN" "http://www.w3.org/Graphics/SVG/1.1/DTD/svg11.dtd" >
<svg xmlns="http://www.w3.org/2000/svg" xmlns:xlink="http://www.w3.org/1999/xlink" version="1.1">
<metadata>
Created by FontForge 20201107 at Thu Jun 12 13:50:19 2025
 By 
copyright missing
</metadata>
<defs>
<font id="PublicSans-ExtraLightItalic" horiz-adv-x="0" >
  <font-face 
    font-family="Public Sans ExtraLight"
    font-weight="200"
    font-style="italic"
    font-stretch="normal"
    units-per-em="2048"
    panose-1="0 0 3 0 0 0 0 0 0 0"
    ascent="1597"
    descent="-451"
    x-height="1057"
    cap-height="1481"
    bbox="-743 -479 2397.11 2249"
    underline-thickness="102"
    underline-position="-204"
    slope="-8"
    unicode-range="U+000D-FB02"
  />
<missing-glyph horiz-adv-x="1400" 
d="M373 1690h970l-272 -2020h-971zM1001 -119l228 1710h-703zM440 1468l-227 -1697h702z" />
    <glyph glyph-name="fi" unicode="fi" horiz-adv-x="1288" 
d="M1247 1520l-30 -217h-144l31 217h143zM772 1057l-14 -101h-262l-127 -956h-129l129 956h-230l15 101h229l25 172q31 252 262 252h168l-15 -101h-155q-67 0 -97.5 -36t-38.5 -113l-24 -174h264zM1176 1057l-144 -1057h-125l144 1057h125z" />
    <glyph glyph-name="fl" unicode="fl" horiz-adv-x="1378" 
d="M1110 -2q-221 0 -184 270l168 1252h125l-168 -1244q-13 -89 14.5 -132.5t77.5 -45.5h59l-14 -88q-44 -12 -78 -12zM772 1057l-14 -101h-262l-127 -956h-129l129 956h-230l15 101h229l25 172q31 252 262 252h168l-15 -101h-155q-67 0 -97.5 -36t-38.5 -113l-24 -174h264z
" />
    <glyph glyph-name="colon_one_eight_F_colon.liga" unicode="&#x3a;&#x31;&#x38;F&#x3a;" horiz-adv-x="1712" 
d="M168 1556h1444q24 0 24 -24v-1505q0 -12 -6.5 -19.5t-17.5 -7.5h-1444q-23 0 -23 27v1505q0 24 23 24zM866 479q68 0 118 52t50 124q0 93 -73 144q53 47 53 116q0 64 -44.5 109t-103.5 45q-64 0 -106.5 -44.5t-42.5 -109.5q0 -63 53 -116q-74 -52 -74 -144q0 -72 50 -124
t120 -52zM614 498v555q0 10 -8 10h-131q-8 0 -8 -10v-52q0 -10 8 -10h70v-493q0 -9 8 -9h53q8 0 8 9zM1337 1001v52q0 10 -8 10h-205q-8 0 -8 -10v-555q0 -9 8 -9h50q12 0 12 9v252h121q8 0 8 8v53q0 8 -8 8h-121v172h143q8 0 8 10zM866 834q-35 0 -58.5 23t-23.5 58
q0 37 23.5 61.5t58.5 24.5q33 0 55.5 -25t22.5 -61q0 -35 -22.5 -58t-55.5 -23zM866 760q41 0 70 -30.5t29 -74.5t-29 -74t-70 -30q-42 0 -71 30t-29 74t29.5 74.5t70.5 30.5z" />
    <glyph glyph-name="colon_f_l_a_g_two_colon.liga" unicode="&#x3a;flag&#x32;&#x3a;" horiz-adv-x="2476" 
d="M227 1556h2091v-1554h-2091v1554zM2195 1321v109h-1048v-109h1048zM414 1198h121v119h-121v-119zM874 1198h119v119h-119v-119zM647 1077h117v121h-117v-121zM1147 1081h1048v113h-1048v-113zM418 958h117v119h-117v-119zM993 1077h-119v-119h119v119zM764 958h-117v-120
h117v120zM1147 842h1048v112h-1048v-112zM535 838h-117v-119h117v119zM993 838h-119v-119h119v119zM1147 602h1048v113h-1048v-113zM2195 475h-1847v-113h1847v113zM350 129h1845v107h-1845v-107z" />
    <glyph glyph-name="colon_f_l_a_g_colon.liga" unicode="&#x3a;flag&#x3a;" horiz-adv-x="2476" 
d="M227 1556h2091v-1554h-2091v1554zM2204 1436h-1860v-838h1860v121h-1059v119h1059v120h-1059v119h1059v121h-1059v119h1059v119zM571 1317v-119h-114v119h114zM1028 1317v-119h-113v119h113zM801 1198v-121h-115v121h115zM571 1077v-119h-114v119h114zM1028 1077v-119
h-113v119h113zM801 958v-120h-115v120h115zM571 838v-119h-114v119h114zM1028 838v-119h-113v119h113zM2204 479h-1860v-121h1860v121zM344 119h1860v121h-1860v-121z" />
    <glyph glyph-name=".notdef" horiz-adv-x="1400" 
d="M373 1690h970l-272 -2020h-971zM1001 -119l228 1710h-703zM440 1468l-227 -1697h702z" />
    <glyph glyph-name="uni0000" horiz-adv-x="16" 
 />
    <glyph glyph-name="nonmarkingreturn" horiz-adv-x="682" 
 />
    <glyph glyph-name="CR" unicode="&#xd;" horiz-adv-x="430" 
 />
    <glyph glyph-name="space" unicode=" " horiz-adv-x="493" 
 />
    <glyph glyph-name="exclam" unicode="!" horiz-adv-x="485" 
d="M446 1481l-190 -1149h-88l119 1149h159zM274 195l-26 -195h-166l29 195h163z" />
    <glyph glyph-name="quotedbl" unicode="&#x22;" horiz-adv-x="788" 
d="M477 1481l-108 -426h-84l10 426h182zM795 1481l-109 -426h-84l10 426h183z" />
    <glyph glyph-name="numbersign" unicode="#" horiz-adv-x="1169" 
d="M1139 909h-224l-92 -323h207l-10 -94h-223l-140 -494l-90 14l135 480h-299l-139 -494l-92 14l135 480h-229l12 94h244l92 323h-229l12 95h244l135 479l90 -15l-131 -464h299l135 479l92 -15l-131 -464h209zM729 586l90 323h-299l-90 -323h299z" />
    <glyph glyph-name="dollar" unicode="$" horiz-adv-x="1146" 
d="M1038 344q-24 -162 -149.5 -262t-317.5 -100l-20 -162h-100l22 162q-175 3 -277 67t-169 197l90 65q44 -73 89 -117t115 -70t168 -28l76 584q-226 91 -306 184t-58 246q22 163 159.5 275t315.5 112l16 137h103l-23 -141q120 -13 207 -65t156 -142l-86 -69
q-53 75 -123.5 113t-167.5 46l-78 -583l78 -33q313 -136 280 -416zM584 817l73 561q-149 -11 -230.5 -88.5t-98.5 -187.5q-11 -79 30 -137t154 -117zM588 98q128 1 217.5 74t103.5 182q13 101 -43 168t-204 129z" />
    <glyph glyph-name="percent" unicode="%" horiz-adv-x="1761" 
d="M575 1503q146 0 221 -115t48 -315q-26 -197 -128 -307.5t-243 -110.5q-148 0 -223.5 115t-48.5 315q26 194 129.5 306t244.5 112zM1546 1497l-1157 -1505h-104l1159 1505h102zM469 735q105 0 179.5 96.5t96.5 251.5q21 151 -25.5 244.5t-146.5 93.5q-103 0 -177.5 -97.5
t-96.5 -252.5q-19 -150 26.5 -243t143.5 -93zM1348 827q146 0 221.5 -114.5t48.5 -313.5q-27 -198 -129 -308.5t-242 -110.5q-147 0 -222.5 115t-49.5 317q27 194 129.5 304.5t243.5 110.5zM1245 59q100 0 176.5 99.5t98.5 251.5q19 148 -28.5 243t-143.5 95
q-100 0 -177 -100.5t-98 -250.5q-19 -146 28.5 -242t143.5 -96z" />
    <glyph glyph-name="ampersand" unicode="&#x26;" horiz-adv-x="1327" 
d="M762 1503q149 0 235 -80.5t66 -216.5q-6 -51 -30 -102t-71.5 -106.5t-131.5 -112t-197 -105.5l289 -428q53 55 111.5 165.5t82.5 254.5h129q-32 -156 -96.5 -272t-165.5 -234l180 -266h-157l-123 176q-225 -186 -461 -186q-193 0 -289 104.5t-72 278.5
q18 139 111.5 245.5t271.5 198.5q-77 105 -104 169.5t-16 146.5q20 158 145.5 264t292.5 106zM752 1401q-119 0 -199.5 -77.5t-93.5 -186.5q-6 -43 5 -81t24 -58t51 -74l36 -56q186 85 270 165.5t95 172.5q13 94 -42 145.5t-146 49.5zM510 725q-134 -65 -217 -154.5
t-96 -199.5q-12 -121 62 -196t198 -75q94 0 191.5 43.5t176.5 116.5z" />
    <glyph glyph-name="quotesingle" unicode="'" horiz-adv-x="495" 
d="M471 1481l-109 -426h-81l10 426h180z" />
    <glyph glyph-name="parenleft" unicode="(" horiz-adv-x="573" 
d="M311 -330q-104 231 -142.5 443t-2.5 462q31 237 135.5 471t257.5 435h96q-136 -215 -232.5 -451t-129.5 -469q-56 -412 88 -891h-70z" />
    <glyph glyph-name="parenright" unicode=")" horiz-adv-x="591" 
d="M-78 -330q299 474 361 920q29 236 7 445t-95 446h71q103 -230 142 -442.5t4 -460.5q-31 -239 -136.5 -473t-259.5 -435h-94z" />
    <glyph glyph-name="asterisk" unicode="*" horiz-adv-x="704" 
d="M565 854l-116 246l-191 -252l-78 63l207 232l-233 71l43 86l223 -94l20 275h105l-49 -273l245 105l17 -90l-252 -84l145 -226z" />
    <glyph glyph-name="plus" unicode="+" horiz-adv-x="1073" 
d="M975 799l-14 -109h-349l-49 -364h-106l49 362h-350l16 109h348l49 366h107l-49 -364h348z" />
    <glyph glyph-name="comma" unicode="," horiz-adv-x="442" 
d="M-25 -242l140 240l-76 2l24 193h193l-23 -166l-184 -269h-74z" />
    <glyph glyph-name="hyphen" unicode="-" horiz-adv-x="753" 
d="M623 586l-17 -111l-477 -2l14 111z" />
    <glyph glyph-name="period" unicode="." horiz-adv-x="417" 
d="M242 197l-25 -197h-168l29 197h164z" />
    <glyph glyph-name="slash" unicode="/" horiz-adv-x="657" 
d="M-59 -100l704 1581h115l-701 -1581h-118z" />
    <glyph glyph-name="zero" unicode="0" horiz-adv-x="1245" 
d="M756 1501q227 0 342.5 -199t66.5 -565q-25 -184 -83 -329.5t-140 -238t-181.5 -141t-211.5 -48.5q-228 0 -344 195t-68 558q51 367 221.5 567.5t397.5 200.5zM569 100q174 0 293 156t162 481q44 327 -34.5 486t-250.5 159q-171 0 -292.5 -160t-165.5 -485
q-44 -323 35.5 -480t252.5 -157z" />
    <glyph glyph-name="one" unicode="1" horiz-adv-x="759" 
d="M299 0l176 1317l-299 -111l14 111l340 164h101l-199 -1481h-133z" />
    <glyph glyph-name="two" unicode="2" horiz-adv-x="1122" 
d="M29 0l18 129l524 485q188 167 267.5 268.5t93.5 213.5q8 60 -4.5 109t-38.5 80.5t-63 53t-76.5 30.5t-81.5 9q-240 0 -387 -207l-91 70q201 260 502 260q188 0 293.5 -108t77.5 -299q-18 -129 -100 -240.5t-285 -300.5l-467 -430h737l-16 -123h-903z" />
    <glyph glyph-name="three" unicode="3" horiz-adv-x="1216" 
d="M258 1294q80 95 209.5 151t259.5 56q206 0 319.5 -106t92.5 -267q-33 -238 -324 -340q149 -44 219.5 -144.5t50.5 -240.5q-25 -183 -185 -303t-400 -120q-147 0 -256 53t-193 166l109 80q72 -97 158.5 -139t205.5 -42q177 0 289.5 82.5t130.5 216.5q15 101 -32 175
t-128.5 108.5t-181.5 34.5l-190 2l14 114l158 3q159 0 279.5 83t135.5 207q14 110 -65.5 184t-218.5 74q-114 0 -203.5 -43t-175.5 -129z" />
    <glyph glyph-name="four" unicode="4" horiz-adv-x="1218" 
d="M899 1481h133l-131 -955h223l-16 -114h-221l-56 -412h-126l55 412h-670l16 129zM225 526h547l100 774z" />
    <glyph glyph-name="five" unicode="5" horiz-adv-x="1263" 
d="M371 1481h825l-25 -121h-702l-113 -543q68 38 110.5 58t113 38.5t143.5 18.5q75 0 140 -16t120 -51t91.5 -86.5t51.5 -126.5t2 -167q-32 -234 -199 -369.5t-403 -135.5q-143 0 -262 55.5t-198 161.5l104 84q56 -64 98 -100t107 -60.5t147 -24.5q192 0 317.5 106
t149.5 279q22 163 -64.5 248.5t-234.5 85.5q-52 0 -101.5 -10t-102 -33.5t-80 -38t-82.5 -45.5q-9 -5 -13 -6t-5.5 -1.5t-5.5 3.5t-7 6l-80 51z" />
    <glyph glyph-name="six" unicode="6" horiz-adv-x="1210" 
d="M801 1501q233 0 336 -194l-117 -58q-42 65 -95.5 99t-136.5 34q-202 0 -340.5 -166t-168.5 -460q159 73 241.5 98t173.5 25q216 0 321 -122t79 -313q-29 -204 -184 -334t-357 -130q-245 0 -357 194.5t-65 546.5q50 365 227 572.5t443 207.5zM670 762q-83 0 -188 -27.5
t-173 -68.5q-27 -18 -37 -36t-16 -57q-9 -49 -4 -103t15.5 -107t37.5 -101.5t62.5 -85t88.5 -58.5t117 -22q142 0 250.5 99t128.5 245q21 136 -56.5 229t-225.5 93z" />
    <glyph glyph-name="seven" unicode="7" horiz-adv-x="1124" 
d="M215 1481h967l-21 -135q-228 -286 -454.5 -700.5t-292.5 -645.5h-144q83 259 283.5 640.5t466.5 719.5h-823z" />
    <glyph glyph-name="eight" unicode="8" horiz-adv-x="1216" 
d="M735 1501q204 0 313.5 -112t84.5 -295q-8 -63 -36 -120t-59 -92.5t-71 -67t-60.5 -43.5t-40.5 -21q6 -3 21.5 -10t28.5 -13t33 -17t35 -22t34.5 -28.5t32 -36t27 -44.5t19 -54t9 -64t-3.5 -76q-26 -185 -184 -295t-392 -110q-235 0 -356 103t-96 286q7 49 27 97
t56.5 99.5t96.5 99t139 83.5q-20 7 -40 17.5t-52.5 37.5t-54.5 61t-35 91t-4 124q26 181 175 301.5t353 120.5zM723 1384q-143 0 -249.5 -83.5t-125.5 -210.5q-24 -198 180 -248l201 -49q27 -7 70.5 17.5t86.5 67t77 103.5t41 119q17 127 -59.5 205.5t-221.5 78.5zM549 96
q170 0 281.5 78t130.5 209q12 102 -32 163t-151 89l-258 63q-27 7 -75 -15t-97.5 -63t-89.5 -105.5t-49 -133.5q-20 -134 69 -209.5t271 -75.5z" />
    <glyph glyph-name="nine" unicode="9" horiz-adv-x="1202" 
d="M461 -20q-240 0 -350 194l118 59q77 -135 250 -135q212 0 344 187.5t166 570.5q-62 -125 -171.5 -189.5t-250.5 -64.5q-143 0 -239.5 57.5t-135.5 155t-22 221.5q29 206 182.5 335.5t356.5 129.5q243 0 353.5 -195t61.5 -546q-50 -365 -225 -572.5t-438 -207.5zM592 719
q94 0 178.5 37t142.5 106t70 156q-7 181 -81.5 273.5t-209.5 92.5q-141 0 -252 -98.5t-131 -243.5q-18 -137 59 -230t224 -93z" />
    <glyph glyph-name="colon" unicode=":" horiz-adv-x="423" 
d="M354 1006l-26 -195h-166l28 195h164zM246 201l-23 -195h-166l25 195h164z" />
    <glyph glyph-name="semicolon" unicode=";" horiz-adv-x="471" 
d="M164 809l26 195h164l-24 -195h-166zM-16 -279l145 279h-66l27 195h166l-27 -181l-176 -293h-69z" />
    <glyph glyph-name="less" unicode="&#x3c;" horiz-adv-x="1060" 
d="M897 451l-14 -127l-744 321l19 133l829 328l-16 -139l-660 -256z" />
    <glyph glyph-name="equal" unicode="=" horiz-adv-x="1077" 
d="M1006 995l-15 -106l-805 -2l13 108h807zM944 551l-14 -109h-805l16 107z" />
    <glyph glyph-name="greater" unicode="&#x3e;" horiz-adv-x="1064" 
d="M141 455l658 256l-590 260l16 131l744 -326l-17 -133l-831 -324z" />
    <glyph glyph-name="question" unicode="?" horiz-adv-x="1024" 
d="M162 1229q78 127 207 199.5t276 72.5q193 0 295 -101t82 -267q-10 -70 -40.5 -134t-72.5 -114t-91 -98.5l-98 -97t-90.5 -99.5t-72 -116.5t-39.5 -137.5h-119q11 80 42 152.5t72 127.5t88 106.5t94 99t87 95.5t68.5 106t36.5 120q15 114 -51.5 181t-192.5 67
q-105 0 -211 -61.5t-147 -147.5zM522 195l-26 -195h-166l26 195h166z" />
    <glyph glyph-name="at" unicode="@" horiz-adv-x="1611" 
d="M1204 -78q-208 -147 -459 -147q-171 0 -304.5 59.5t-213 162t-112 239.5t-11.5 292q21 160 96 304t187.5 252t264 171.5t317.5 63.5q101 0 193.5 -23.5t173 -75t135.5 -126t79 -183.5t6 -241q-29 -223 -151.5 -365.5t-278.5 -142.5q-80 0 -115 30t-44 99
q-66 -84 -137 -121t-166 -37q-111 0 -176.5 100t-45.5 259q27 192 147 324t277 132q152 0 213 -149l39 96h103l-138 -465q-27 -91 -14 -127.5t68 -36.5q107 0 194.5 115t112.5 291q15 114 -4.5 207t-65.5 154t-112.5 103t-141 60t-155.5 18q-151 0 -283.5 -56t-227.5 -152.5
t-157.5 -224t-81.5 -271.5q-14 -86 -4.5 -167t34 -151t72.5 -128t112 -99.5t152.5 -64.5t192.5 -23q83 0 154.5 20.5t113 44.5t107.5 70zM563 485q-15 -114 17.5 -178.5t105.5 -64.5q100 0 190.5 88t124.5 213q38 140 -6.5 218.5t-128.5 78.5q-113 0 -198.5 -103
t-104.5 -252z" />
    <glyph glyph-name="A" unicode="A" horiz-adv-x="1386" 
d="M27 0l716 1481h154l315 -1481h-131l-90 438h-618l-215 -438h-131zM426 565h543l-166 783z" />
    <glyph glyph-name="B" unicode="B" horiz-adv-x="1318" 
d="M143 0l199 1481h426q248 0 367 -99t96 -286q-20 -127 -94.5 -211t-225.5 -133q153 -30 215.5 -122t44.5 -233q-29 -198 -178.5 -297.5t-412.5 -99.5h-437zM379 807h326q67 0 128.5 12.5t120.5 41.5t99.5 85t50.5 133q13 96 -28.5 161t-123.5 94.5t-200 29.5h-299z
M287 117h303q206 0 319 66.5t133 209.5q11 78 -12 136.5t-73.5 92t-117.5 50t-151 16.5h-326z" />
    <glyph glyph-name="C" unicode="C" horiz-adv-x="1353" 
d="M842 1501q216 0 342.5 -123t120.5 -301l-136 -14q-5 143 -90.5 230t-247.5 87q-213 0 -347.5 -162.5t-178.5 -480.5q-40 -313 51.5 -475t315.5 -162q138 0 248 81t159 222l127 -24q-42 -170 -200 -284.5t-357 -114.5q-280 0 -405.5 199.5t-79.5 559.5q50 359 227.5 560.5
t450.5 201.5z" />
    <glyph glyph-name="D" unicode="D" horiz-adv-x="1359" 
d="M342 1481q1 0 47.5 -0.5t113.5 -1t120 -0.5q386 -4 537.5 -182.5t103.5 -546.5q-53 -381 -264.5 -565.5t-598.5 -184.5h-258zM459 1360l-164 -1239h119q317 0 493.5 144.5t220.5 477.5q15 102 10 184t-21 146t-51 112t-80 81.5t-107 54t-132.5 30t-156.5 9.5h-131z" />
    <glyph glyph-name="E" unicode="E" horiz-adv-x="1232" 
d="M143 0l199 1481h852l-16 -123h-725l-74 -549h663l-16 -123h-664l-75 -561l749 -2l-16 -123h-877z" />
    <glyph glyph-name="F" unicode="F" horiz-adv-x="1138" 
d="M342 1481h842l-19 -123h-706l-72 -551h647l-16 -119h-647l-95 -688h-133z" />
    <glyph glyph-name="G" unicode="G" horiz-adv-x="1443" 
d="M645 -20q-272 0 -399.5 200t-81.5 555q51 361 236 563.5t454 202.5q191 0 323.5 -124t129.5 -292l-142 -22q-6 136 -96.5 225.5t-230.5 89.5q-212 0 -354 -166t-183 -467q-42 -316 55.5 -480.5t311.5 -164.5q96 0 179.5 38t138.5 99t90 129t46 136l25 153h-371l15 103
l499 -2l-102 -756h-105l31 244q-78 -118 -196 -191t-273 -73z" />
    <glyph glyph-name="H" unicode="H" horiz-adv-x="1402" 
d="M1090 709h-723l-97 -709h-127l199 1481h127l-88 -652h725l88 652h127l-201 -1481h-125z" />
    <glyph glyph-name="I" unicode="I" horiz-adv-x="552" 
d="M342 1481h127l-199 -1481h-127z" />
    <glyph glyph-name="J" unicode="J" horiz-adv-x="745" 
d="M512 315q-23 -168 -94.5 -251.5t-222.5 -83.5q-69 0 -128.5 18.5t-86.5 34.5l36 131q5 -3 28.5 -15.5t38.5 -19t43.5 -13.5t59.5 -7q95 0 140.5 55t64.5 192l150 1125h127z" />
    <glyph glyph-name="K" unicode="K" horiz-adv-x="1318" 
d="M1171 0h-151l-369 797l-309 -316l-66 -481h-133l199 1481h131l-106 -813l804 813h164l-575 -584z" />
    <glyph glyph-name="L" unicode="L" horiz-adv-x="1114" 
d="M342 1481h133l-180 -1356h696l-16 -125h-832z" />
    <glyph glyph-name="M" unicode="M" horiz-adv-x="1724" 
d="M143 0l199 1481h166l303 -1315l668 1315h163l-200 -1481h-133l166 1231l-615 -1231h-141l-279 1219l-164 -1219h-133z" />
    <glyph glyph-name="N" unicode="N" horiz-adv-x="1472" 
d="M1262 1481h127l-199 -1481h-113l-639 1247l-168 -1247h-127l199 1481h117l637 -1243z" />
    <glyph glyph-name="O" unicode="O" horiz-adv-x="1460" 
d="M657 -20q-281 0 -410.5 195.5t-82.5 557.5q51 367 235.5 567.5t462.5 200.5t409.5 -199.5t82.5 -564.5q-51 -363 -234.5 -560t-462.5 -197zM676 100q222 0 358.5 158t177.5 479q44 323 -50 483t-314 160q-221 0 -360 -161t-183 -482q-42 -319 53.5 -478t317.5 -159z" />
    <glyph glyph-name="P" unicode="P" horiz-adv-x="1253" 
d="M143 0l199 1481h457q238 0 364 -105t97 -321q-28 -213 -177.5 -320.5t-377.5 -107.5h-345l-84 -627h-133zM377 748h342q173 0 281.5 77t129.5 238q22 160 -67.5 228.5t-271.5 68.5h-332z" />
    <glyph glyph-name="Q" unicode="Q" horiz-adv-x="1429" 
d="M139 737q49 367 232.5 565.5t462.5 198.5q280 0 411 -198.5t82 -565.5q-35 -249 -130 -418t-263 -262q57 -177 260 -184l-14 -119q-39 0 -76.5 5.5t-82.5 22t-83 43t-74.5 71.5t-60.5 104q-105 -20 -174 -20q-277 0 -408.5 194.5t-81.5 562.5zM276 733q-81 -633 371 -633
q221 0 359 158t180 479q43 318 -51 480.5t-316 162.5q-223 0 -361 -163t-182 -484z" />
    <glyph glyph-name="R" unicode="R" horiz-adv-x="1329" 
d="M1112 0h-137l-184 674h-431l-90 -674h-127l199 1481h524q218 0 319.5 -99t76.5 -284q-11 -88 -45.5 -159t-85 -117t-102 -75t-109.5 -47zM711 791q378 0 417 292q18 142 -55 211.5t-231 69.5h-389l-76 -573h334z" />
    <glyph glyph-name="S" unicode="S" horiz-adv-x="1286" 
d="M571 -20q-347 0 -475 274l113 72q47 -80 90.5 -124.5t113.5 -71t171 -26.5q359 0 393 263q13 87 -28 151.5t-167 118.5l-278 108q-266 104 -234 353q25 186 167.5 294.5t353.5 108.5q275 0 421 -217l-108 -80q-110 174 -332 174q-151 0 -250 -71t-116 -199
q-19 -170 188 -252l260 -96q158 -60 219.5 -153.5t42.5 -227.5q-25 -188 -170.5 -293.5t-374.5 -105.5z" />
    <glyph glyph-name="T" unicode="T" horiz-adv-x="1103" 
d="M147 1356l19 125h1038l-16 -125h-438l-183 -1356h-127l183 1356h-476z" />
    <glyph glyph-name="U" unicode="U" horiz-adv-x="1404" 
d="M1194 483q-34 -251 -171.5 -377t-389.5 -126q-255 0 -355.5 130t-64.5 398l129 973h133l-133 -1004q-53 -379 307 -379q368 0 420 379l133 1004h127z" />
    <glyph glyph-name="V" unicode="V" horiz-adv-x="1226" 
d="M1333 1481l-708 -1481h-162l-301 1481h131l272 -1338l639 1338h129z" />
    <glyph glyph-name="W" unicode="W" horiz-adv-x="1863" 
d="M1942 1481l-609 -1481h-137l-166 1245l-506 -1245h-133l-203 1481h131l168 -1288l521 1288h108l174 -1288l520 1288h132z" />
    <glyph glyph-name="X" unicode="X" horiz-adv-x="1245" 
d="M1116 0h-160l-325 647l-500 -647h-149l585 756l-366 725h161l302 -609l471 609h145l-555 -715z" />
    <glyph glyph-name="Y" unicode="Y" horiz-adv-x="1116" 
d="M1231 1481l-588 -848l-86 -633h-125l86 635l-366 846h133l311 -729l498 729h137z" />
    <glyph glyph-name="Z" unicode="Z" horiz-adv-x="1200" 
d="M37 0l12 82l977 1280h-780l16 119h952l-8 -80l-987 -1282h811l-14 -119h-979z" />
    <glyph glyph-name="bracketleft" unicode="[" horiz-adv-x="579" 
d="M96 -330l242 1811h319l-12 -97h-199l-223 -1617h203l-12 -97h-318z" />
    <glyph glyph-name="backslash" unicode="\" horiz-adv-x="663" 
d="M436 -100l-276 1581h106l277 -1581h-107z" />
    <glyph glyph-name="bracketright" unicode="]" horiz-adv-x="612" 
d="M-68 -330l13 97h200l222 1617h-203l14 97h316l-240 -1811h-322z" />
    <glyph glyph-name="asciicircum" unicode="^" horiz-adv-x="933" 
d="M674 268l-156 637l-328 -635h-120l387 740q23 45 52 61t53 -1.5t34 -65.5l190 -736h-112z" />
    <glyph glyph-name="underscore" unicode="_" horiz-adv-x="1001" 
d="M772 -109l-14 -110l-727 -2l14 110z" />
    <glyph glyph-name="grave" unicode="`" horiz-adv-x="550" 
d="M190 1501l445 -203l-39 -69l-457 157z" />
    <glyph glyph-name="a" unicode="a" horiz-adv-x="1114" 
d="M371 -20q-150 0 -228.5 80.5t-58.5 218.5q23 172 143.5 248.5t384.5 97.5l211 16l11 84q15 115 -46 183.5t-178 68.5q-187 0 -327 -186l-99 38q76 113 190.5 180.5t256.5 67.5q178 0 262.5 -90.5t64.5 -251.5l-98 -735h-110l12 164q-169 -184 -391 -184zM418 82
q76 0 158 37t140 99t66 126l27 207l-174 -14q-221 -18 -314 -70t-110 -180q-15 -94 42.5 -149.5t164.5 -55.5z" />
    <glyph glyph-name="b" unicode="b" horiz-adv-x="1161" 
d="M545 -20q-68 0 -125 20.5t-91.5 52.5t-54 59t-28.5 52l-37 -164h-103l205 1520h125l-80 -605q18 21 45.5 43.5t73.5 52t111 48t135 18.5q83 0 147.5 -27.5t104.5 -77t64.5 -118t26.5 -149.5t-9 -173q-34 -257 -169 -404.5t-341 -147.5zM539 84q69 0 130.5 27t113.5 80.5
t89 141.5t52 202q28 207 -37.5 322.5t-216.5 115.5q-97 0 -183.5 -49.5t-148.5 -135.5l-55 -415q-17 -119 62 -204t194 -85z" />
    <glyph glyph-name="c" unicode="c" horiz-adv-x="1091" 
d="M643 1077q249 0 346 -256l-115 -43q-43 75 -71 112t-69 60t-97 23q-154 0 -260 -122.5t-133 -322.5q-28 -202 46 -323t228 -121q92 0 162 50.5t143 158.5l101 -45q-163 -268 -430 -268q-206 0 -309.5 150t-69.5 394q34 247 178.5 400t349.5 153z" />
    <glyph glyph-name="d" unicode="d" horiz-adv-x="1132" 
d="M455 -20q-192 0 -284.5 137.5t-57.5 394.5q34 259 167.5 412t337.5 153q88 0 155 -33t126 -104l80 580h129l-205 -1520h-104l10 162q-15 -19 -33.5 -39t-52.5 -47t-71 -47t-89.5 -34.5t-107.5 -14.5zM498 84q119 0 216 88t111 190l60 447q-99 164 -258 164
q-152 0 -253 -118t-130 -335q-29 -219 42 -327.5t212 -108.5z" />
    <glyph glyph-name="e" unicode="e" horiz-adv-x="1118" 
d="M240 492q-15 -113 9 -203t94.5 -146.5t180.5 -56.5q104 0 175 44t126 132l105 -37q-69 -122 -178 -183.5t-242 -61.5q-138 0 -235 63t-141 186.5t-21 290.5q35 258 175 407.5t351 149.5q202 0 297 -137.5t61 -382.5l-10 -65h-747zM256 598h623q15 110 -6.5 193.5
t-85.5 133.5t-164 50q-80 0 -147.5 -32.5t-111.5 -87t-71.5 -120t-36.5 -137.5z" />
    <glyph glyph-name="f" unicode="f" horiz-adv-x="782" 
d="M772 1057l-14 -101h-262l-127 -956h-129l129 956h-230l15 101h229l25 172q31 252 262 252h168l-15 -101h-155q-67 0 -97.5 -36t-38.5 -113l-24 -174h264z" />
    <glyph glyph-name="g" unicode="g" horiz-adv-x="1187" 
d="M442 -350q-232 0 -346.5 77t-93.5 212q18 139 205 233q28 13 4 23q-74 41 -66 110q8 47 55 86t128 60q-90 53 -123 120.5t-19 165.5q20 158 145.5 247t319.5 89q176 0 267 -88q2 -2 5.5 -3.5t6 -1.5t6.5 1t6.5 2t8 3t7.5 3q72 32 224 92l-21 -143q-71 -13 -139 -27
q-33 -6 -39.5 -13t0.5 -26q1 -3 5 -21t5.5 -29t3 -37.5t-3.5 -45.5q-20 -143 -134.5 -235t-311.5 -92q-6 0 -20 1t-19 1q-118 -3 -174.5 -27.5t-61.5 -58.5q-3 -33 37 -46.5t156 -21.5q23 -2 56 -4t81.5 -5t83.5 -5q157 -10 224.5 -82.5t52.5 -196.5q-20 -150 -157 -233.5
t-364 -83.5zM563 508q137 0 215.5 59t93.5 170q17 116 -46 179t-199 63q-134 0 -217.5 -64t-98.5 -178q-14 -110 51.5 -169.5t200.5 -59.5zM479 -252q329 0 355 207q11 78 -30.5 121.5t-148.5 50.5l-307 20q-59 3 -133 -55t-84 -139q-15 -101 75 -153t273 -52z" />
    <glyph glyph-name="h" unicode="h" horiz-adv-x="1140" 
d="M106 0l205 1520h119l-84 -629q124 99 214 142.5t188 43.5q150 0 218.5 -80.5t49.5 -218.5l-105 -778h-127l101 743q15 108 -30 167t-153 59q-88 0 -163.5 -38t-198.5 -132l-107 -799h-127z" />
    <glyph glyph-name="i" unicode="i" horiz-adv-x="505" 
d="M465 1520l-31 -217h-143l31 217h143zM393 1057l-143 -1057h-125l143 1057h125z" />
    <glyph glyph-name="j" unicode="j" horiz-adv-x="489" 
d="M455 1520l-29 -217h-143l30 217h142zM231 -78q-18 -138 -80 -200t-200 -62q-49 0 -80.5 5t-38.5 11l-6 5l12 86l113 4q74 3 109.5 39t45.5 120l152 1127h125z" />
    <glyph glyph-name="k" unicode="k" horiz-adv-x="1105" 
d="M952 0h-141l-264 578l-273 -259l-41 -319h-127l205 1520h125l-139 -1031l602 568h160l-414 -393z" />
    <glyph glyph-name="l" unicode="l" horiz-adv-x="595" 
d="M328 -2q-222 0 -185 270l168 1252h125l-168 -1244q-13 -89 14.5 -132.5t77.5 -45.5h60l-14 -88q-44 -12 -78 -12z" />
    <glyph glyph-name="m" unicode="m" horiz-adv-x="1753" 
d="M102 0l144 1057h119l-21 -166q116 100 203 143t184 43q107 0 171.5 -52t76.5 -142q145 117 226.5 155.5t172.5 38.5q136 0 202 -81t48 -218l-106 -778h-125l100 743q14 108 -28.5 167t-143.5 59q-142 0 -311 -148q-15 -15 -20 -20.5t-10 -15.5t-7 -23l-100 -762h-127
l98 743q15 108 -26 167t-142 59q-83 0 -158 -39t-186 -131l-105 -799h-129z" />
    <glyph glyph-name="n" unicode="n" horiz-adv-x="1138" 
d="M102 0l144 1057h121l-23 -166q126 100 212.5 143t188.5 43q148 0 218 -80.5t51 -216.5l-107 -780h-125l101 743q15 108 -32 167t-155 59q-88 0 -165.5 -39t-194.5 -131l-105 -799h-129z" />
    <glyph glyph-name="o" unicode="o" horiz-adv-x="1112" 
d="M479 -20q-211 0 -310 148.5t-65 393.5q33 249 176 402t353 153q209 0 308 -152t65 -399q-31 -246 -173.5 -396t-353.5 -150zM500 82q156 0 253.5 123t123.5 323q29 201 -38 324t-223 123q-157 0 -255.5 -123.5t-124.5 -323.5q-19 -129 2.5 -228.5t88.5 -158.5t173 -59z
" />
    <glyph glyph-name="p" unicode="p" horiz-adv-x="1155" 
d="M59 -330l187 1387h123l-21 -156q21 24 34.5 38t49.5 44t70 47.5t87 32t109 14.5q190 0 290 -137t65 -393q-35 -261 -177.5 -414t-347.5 -153q-172 0 -284 131l-58 -441h-127zM518 84q153 0 264 121t140 336q15 110 -0.5 195t-55.5 135.5t-95 76t-122 25.5
q-123 0 -217 -83t-108 -185l-62 -453q105 -168 256 -168z" />
    <glyph glyph-name="q" unicode="q" horiz-adv-x="1155" 
d="M877 -330h-125l57 434q-85 -66 -161 -95t-161 -29q-204 0 -305.5 153t-64.5 414q18 130 64.5 232t113 166.5t147.5 98t172 33.5q46 0 85.5 -7.5t71 -24.5t52 -29.5t42.5 -38t28 -33.5t22 -32q3 -5 5 -7l18 152h125zM528 84q153 0 299 168l62 453q8 65 -19.5 126
t-90.5 101.5t-146 40.5q-140 0 -248.5 -109t-136.5 -323q-30 -215 48 -336t232 -121z" />
    <glyph glyph-name="r" unicode="r" horiz-adv-x="749" 
d="M102 0l144 1057h119l-27 -205q65 96 183.5 160.5t223.5 64.5l-16 -127q-92 4 -185 -37.5t-155 -108t-72 -134.5l-86 -670h-129z" />
    <glyph glyph-name="s" unicode="s" horiz-adv-x="1052" 
d="M453 -20q-146 0 -253 66.5t-143 172.5l101 55q38 -89 117.5 -139.5t193.5 -50.5q102 0 197.5 57t105.5 129q9 62 -30.5 106.5t-143.5 78.5l-182 57q-134 42 -188 105t-42 151q17 138 135.5 223.5t286.5 85.5q129 0 221.5 -52t135.5 -146l-97 -58q-34 72 -106 112t-172 40
q-106 0 -188 -55t-93 -130q-7 -52 24 -90t132 -73l233 -80q221 -71 201 -262q-20 -133 -146.5 -218t-299.5 -85z" />
    <glyph glyph-name="t" unicode="t" horiz-adv-x="819" 
d="M748 956h-248l-92 -698q-11 -94 10 -127t78 -33h147l-14 -88q-41 -12 -150 -12q-131 0 -174.5 58t-25.5 190l96 710h-197l15 101h196l60 356h112l-47 -356h248z" />
    <glyph glyph-name="u" unicode="u" horiz-adv-x="1138" 
d="M416 -18q-148 3 -221 84.5t-54 216.5l105 778h125l-101 -744q-29 -229 187 -229q89 0 163.5 38.5t196.5 133.5l107 801h127l-144 -1059h-104l12 162q-129 -98 -216 -140.5t-183 -41.5z" />
    <glyph glyph-name="v" unicode="v" horiz-adv-x="1067" 
d="M1073 1057l-551 -1057h-112l-269 1057h129l226 -893l458 893h119z" />
    <glyph glyph-name="w" unicode="w" horiz-adv-x="1566" 
d="M1556 1057l-444 -1057h-133l-148 858l-360 -858h-139l-174 1057h129l141 -897l379 897h108l152 -895l373 895h116z" />
    <glyph glyph-name="x" unicode="x" horiz-adv-x="1087" 
d="M934 0h-143l-261 453l-380 -453h-144l463 549l-293 508h146l235 -412l348 412h142l-429 -508z" />
    <glyph glyph-name="y" unicode="y" horiz-adv-x="1040" 
d="M131 -338q-49 0 -83.5 5t-43.5 11l-10 5l12 86h109q91 -3 139.5 30t81.5 92l61 123l-256 1043h129l209 -885l445 885h123l-592 -1178q-63 -118 -142.5 -167.5t-181.5 -49.5z" />
    <glyph glyph-name="z" unicode="z" horiz-adv-x="952" 
d="M20 0l13 94l729 867h-574l15 96h717l-13 -99l-727 -860h623l-12 -98h-771z" />
    <glyph glyph-name="braceleft" unicode="{" horiz-adv-x="589" 
d="M356 -330q-111 0 -166 56t-43 145l62 459q7 50 -9.5 94.5t-64 75t-119.5 30.5l11 95q108 1 173.5 62t78.5 155l61 448q11 88 77 139.5t173 51.5h78l-15 -97h-55q-68 0 -101.5 -27t-41.5 -81l-58 -453q-18 -112 -76.5 -171.5t-138.5 -69.5q-19 0 -19 -7q0 -3 7 -4
q81 -7 127.5 -67t30.5 -176l-76 -561h186l-14 -97h-68z" />
    <glyph glyph-name="bar" unicode="|" horiz-adv-x="536" 
d="M207 -330h-107l273 2020h106z" />
    <glyph glyph-name="braceright" unicode="}" horiz-adv-x="614" 
d="M-66 -330l13 97h57q69 0 102 27t39 81l62 453q16 111 75 171t138 70q16 0 18 8q1 3 -4 4q-1 1 -2 1q-80 5 -127 65t-31 176l76 561h-184l12 97h68q111 0 165.5 -56t43.5 -145l-64 -459q-10 -79 39 -139.5t156 -60.5l-13 -95q-107 -1 -171 -61.5t-78 -155.5l-62 -448
q-11 -88 -77.5 -139.5t-174.5 -51.5h-76z" />
    <glyph glyph-name="asciitilde" unicode="~" horiz-adv-x="1087" 
d="M991 748q-36 -41 -97 -70t-140 -29q-53 0 -102 15t-81 33t-76 33t-87 15q-129 0 -220 -106l-34 100q66 52 122 79.5t127 27.5q62 0 122.5 -24.5t118 -49t110.5 -24.5q70 0 116 28t86 74z" />
    <glyph glyph-name="uni00A0" unicode="&#xa0;" horiz-adv-x="430" 
 />
    <glyph glyph-name="exclamdown" unicode="&#xa1;" horiz-adv-x="487" 
d="M373 862h-164l24 195h166zM207 -330h-156l174 1055h88z" />
    <glyph glyph-name="cent" unicode="&#xa2;" horiz-adv-x="1067" 
d="M557 311q92 0 161 50.5t144 158.5l101 -45q-126 -206 -316 -254l-31 -221h-102l29 207h-11q-208 0 -310 150t-68 395q32 246 177 399.5t351 153.5h8l25 176h102l-24 -191q159 -44 235 -241l-115 -43q-63 110 -109.5 152t-127.5 42q-155 0 -261.5 -122t-133.5 -322
q-26 -203 47.5 -324t228.5 -121z" />
    <glyph glyph-name="sterling" unicode="&#xa3;" horiz-adv-x="1181" 
d="M-45 0l14 117h76q78 -2 141.5 79.5t85.5 233.5q13 78 13 281h-197l14 96h179l-13 164q-8 111 12.5 201t62 150.5t102 101.5t128.5 59t144 18q127 0 219.5 -57.5t120.5 -163.5l-109 -41q-52 141 -223 141q-119 0 -206.5 -72.5t-102.5 -195.5q-5 -34 -5 -77.5t1.5 -70.5
t7 -82t6.5 -73h330l-15 -96l-315 -2q0 -147 -12 -250q-13 -119 -48 -198.5t-96 -143.5h359q105 0 175.5 39t113.5 129l114 -39q-123 -248 -407 -248h-670z" />
    <glyph glyph-name="currency" unicode="&#xa4;" horiz-adv-x="1034" 
d="M500 383q-115 0 -187 66q-14 8 -28 -9l-109 -104l-65 82l127 117q-60 102 -41 215q18 112 84 202q15 12 8 25l-90 104l75 68l93 -113q111 68 219 68q110 0 182 -66q17 -5 31 9l112 104l68 -82l-131 -117q56 -96 41 -215q-15 -109 -82 -198q-18 -13 -8 -23l92 -108
l-76 -68l-92 115q-107 -72 -223 -72zM508 496q101 0 182 76t96 178q12 100 -45.5 171.5t-154.5 71.5q-103 0 -185 -76.5t-94 -179.5q-12 -98 45.5 -169.5t155.5 -71.5z" />
    <glyph glyph-name="yen" unicode="&#xa5;" horiz-adv-x="1150" 
d="M1264 1481l-566 -799h281l-10 -96h-303l-27 -193h299l-10 -96h-303l-41 -297h-144l41 295h-305l14 96h304l26 193h-303l12 96h275l-350 801h159l301 -723l506 723h144z" />
    <glyph glyph-name="brokenbar" unicode="&#xa6;" horiz-adv-x="536" 
d="M369 879h-107l111 811h106zM207 -330h-107l111 813h106z" />
    <glyph glyph-name="section" unicode="&#xa7;" horiz-adv-x="937" 
d="M645 395q84 -54 123 -117.5t27 -146.5q-15 -120 -125 -196t-273 -76q-131 0 -235 66.5t-142 174.5l86 45q38 -83 116.5 -132.5t183.5 -49.5q107 0 181.5 46t84.5 124q7 61 -32.5 109.5t-150.5 95.5l-165 72q-117 52 -165 123.5t-34 168.5q10 88 74.5 156t162.5 107
q-107 59 -140.5 124t-20.5 148q14 114 119 189t260 75q118 0 208.5 -59.5t129.5 -147.5l-80 -45q-98 150 -248 150q-114 0 -185.5 -45.5t-80.5 -118.5q-5 -53 25 -97t120 -85l160 -72q136 -62 191.5 -142.5t43.5 -187.5q-14 -93 -71.5 -153.5t-147.5 -102.5zM514 461
q75 -6 144 47.5t81 128.5q10 75 -16 125.5t-121 91.5l-115 51q-86 -8 -158.5 -66t-84.5 -130q-8 -62 20.5 -104t122.5 -85z" />
    <glyph glyph-name="dieresis" unicode="&#xa8;" horiz-adv-x="438" 
d="M291 1481l-29 -211h-133l29 211h133zM541 1481l-25 -211h-135l29 211h131z" />
    <glyph glyph-name="copyright" unicode="&#xa9;" horiz-adv-x="1603" 
d="M731 -20q-120 0 -226.5 38.5t-187 109t-135.5 164.5t-76 211t-4 242q20 154 96 294t186 241t252 161t290 60t275 -61t211.5 -164t124 -244.5t19.5 -296.5q-28 -207 -149 -381t-300.5 -274t-375.5 -100zM735 86q126 0 246.5 47.5t217.5 132t164.5 209t86.5 270.5
q19 143 -14 266t-105.5 207t-178 131.5t-228.5 47.5q-172 0 -326.5 -82.5t-259.5 -235t-131 -344.5q-19 -145 13 -268t104.5 -206t178.5 -129t232 -46zM887 1176q194 0 287 -213l-97 -33q-68 149 -186 149q-116 0 -200.5 -93.5t-104.5 -246.5q-20 -148 38 -236.5t169 -88.5
q74 0 139.5 43.5t111.5 117.5l84 -43q-68 -96 -156.5 -155.5t-191.5 -59.5q-163 0 -251 121t-62 312q25 187 143 306.5t277 119.5z" />
    <glyph glyph-name="ordfeminine" unicode="&#xaa;" horiz-adv-x="829" 
d="M377 809q-101 0 -152 51t-39 139q24 186 336 213l127 13l8 51q17 139 -137 139q-59 0 -102 -24t-84 -80l-90 35q43 71 115.5 110t168.5 39q122 0 179 -61.5t43 -167.5l-62 -447h-80l-2 90q-59 -53 -112 -76.5t-117 -23.5zM406 887q67 0 140 52t79 105l14 107l-96 -8
q-243 -21 -258 -152q-6 -48 26 -76t95 -28z" />
    <glyph glyph-name="guillemotleft" unicode="&#xab;" horiz-adv-x="849" 
d="M199 506l161 -356h-65l-225 368l319 377h84zM530 506l164 -356h-69l-224 368l320 377h84z" />
    <glyph glyph-name="logicalnot" unicode="&#xac;" horiz-adv-x="1075" 
d="M975 799l-4 -29h2l-51 -364h-109l37 284l-694 -2l16 109z" />
    <glyph glyph-name="uni00AD" unicode="&#xad;" horiz-adv-x="727" 
d="M629 586l-17 -111l-479 -2l14 111z" />
    <glyph glyph-name="registered" unicode="&#xae;" horiz-adv-x="1056" 
d="M532 549q-191 0 -304 138t-87 337q17 129 92.5 239t188.5 174t237 64q93 0 172.5 -38t132 -102t77 -152.5t10.5 -184.5q-26 -197 -178.5 -336t-340.5 -139zM543 629q167 0 284.5 107.5t143.5 287.5q23 179 -66.5 287t-255.5 108q-168 0 -285.5 -108t-142.5 -287
q-23 -181 65.5 -288t256.5 -107zM395 784l62 473h200q70 0 105.5 -31t28.5 -87q-12 -91 -115 -125l57 -230h-78l-47 224h-114l-31 -224h-68zM504 1069h117q88 0 96 61q8 66 -86 66h-115z" />
    <glyph glyph-name="macron" unicode="&#xaf;" horiz-adv-x="583" 
d="M684 1446l-14 -103h-531l13 103h532z" />
    <glyph glyph-name="degree" unicode="&#xb0;" horiz-adv-x="911" 
d="M872 1397q-17 -134 -111 -218.5t-220 -84.5q-131 0 -204 88.5t-56 226.5q19 134 111.5 218.5t219.5 84.5q131 0 205 -89t55 -226zM770 1407q12 92 -31.5 148.5t-130.5 56.5q-92 0 -155.5 -60.5t-75.5 -156.5q-11 -94 32.5 -150.5t131.5 -56.5q90 0 153.5 61t75.5 158z
" />
    <glyph glyph-name="plusminus" unicode="&#xb1;" horiz-adv-x="1079" 
d="M645 946h350l-16 -108h-348l-49 -365h-105l49 363h-348l15 108h348l49 365h104zM84 145l16 107l801 2l-12 -107z" />
    <glyph glyph-name="uni00B2" unicode="&#xb2;" horiz-adv-x="749" 
d="M78 786l12 82l330 306q117 104 167 168t60 133q11 91 -40.5 134.5t-127.5 43.5q-150 0 -241 -129l-58 43q123 164 316 164q118 0 184.5 -68.5t48.5 -187.5q-10 -81 -61.5 -151t-180.5 -189l-294 -273h464l-10 -76h-569z" />
    <glyph glyph-name="uni00B3" unicode="&#xb3;" horiz-adv-x="765" 
d="M244 1599q50 61 131 96.5t164 35.5q129 0 200.5 -66.5t57.5 -167.5q-20 -152 -203 -215q93 -28 137 -90.5t31 -151.5q-15 -115 -115.5 -190.5t-251.5 -75.5q-93 0 -160.5 32.5t-121.5 104.5l67 50q84 -113 230 -113q112 0 182.5 51.5t81.5 136.5q14 94 -51 146.5
t-164 54.5h-119l8 72l101 2q99 0 175 52.5t85 129.5q9 70 -41 117t-138 47q-71 0 -126.5 -27t-110.5 -82z" />
    <glyph glyph-name="acute" unicode="&#xb4;" horiz-adv-x="544" 
d="M623 1505l22 -119l-498 -157l-20 76z" />
    <glyph glyph-name="uni00B5" unicode="&#xb5;" horiz-adv-x="1132" 
d="M57 -330l189 1387h127l-105 -772q-12 -81 42 -139t139 -58q86 0 172.5 49t189.5 144l107 776h126l-143 -1057h-121l21 160q-119 -96 -198 -135.5t-161 -42.5q-136 -3 -204 73l-54 -385h-127z" />
    <glyph glyph-name="paragraph" unicode="&#xb6;" horiz-adv-x="1067" 
d="M1032 1393h-114l-213 -1563h-91l209 1563h-88l-213 -1563h-92l107 778q-191 3 -288 127t-73 301q11 85 49.5 163.5t100 142t153.5 101.5t199 38h366z" />
    <glyph glyph-name="periodcentered" unicode="&#xb7;" horiz-adv-x="382" 
d="M326 840l-25 -189h-190l26 189h189z" />
    <glyph glyph-name="cedilla" unicode="&#xb8;" horiz-adv-x="415" 
d="M276 -268q-10 -69 -71 -107.5t-144 -38.5q-99 0 -165 60l32 51q44 -41 117 -41q116 0 129 88q6 44 -25.5 63.5t-109.5 22.5q-19 0 -14 14l90 166h82l-62 -125q85 -6 117.5 -49t23.5 -104z" />
    <glyph glyph-name="uni00B9" unicode="&#xb9;" horiz-adv-x="591" 
d="M219 778l113 830l-189 -70l9 68l215 104h61l-125 -932h-84z" />
    <glyph glyph-name="ordmasculine" unicode="&#xba;" horiz-adv-x="813" 
d="M532 1499q140 0 210.5 -97.5t50.5 -256.5q-21 -150 -111.5 -241t-230.5 -91q-142 0 -210.5 96t-47.5 250q22 153 114 246.5t225 93.5zM532 1417q-96 0 -158 -72.5t-77 -193.5q-17 -122 22 -190t132 -68q97 0 158.5 72t80.5 200q14 117 -26 184.5t-132 67.5z" />
    <glyph glyph-name="guillemotright" unicode="&#xbb;" horiz-adv-x="851" 
d="M315 520l-165 375h71l221 -389l-313 -356h-82zM645 520l-166 375h72l225 -389l-315 -356h-84z" />
    <glyph glyph-name="onequarter" unicode="&#xbc;" horiz-adv-x="1871" 
d="M190 565l113 830l-188 -70l8 68l215 104h61l-125 -932h-84zM1460 1497l-1157 -1505h-106l1159 1505h104zM1587 932h84l-82 -600h142l-11 -74h-139l-35 -258h-80l35 258h-422l11 82zM1163 332h344l64 485z" />
    <glyph glyph-name="onehalf" unicode="&#xbd;" horiz-adv-x="1814" 
d="M190 565l113 830l-188 -70l8 68l215 104h61l-125 -932h-84zM1460 1497l-1157 -1505h-106l1159 1505h104zM1032 0l10 82l332 305q118 105 168 168.5t60 132.5q11 91 -41.5 134.5t-126.5 43.5q-150 0 -244 -129l-57 43q125 164 317 164q118 0 184 -68t49 -188
q-12 -82 -63 -152.5t-178 -187.5l-295 -272h465l-10 -76h-570z" />
    <glyph glyph-name="threequarters" unicode="&#xbe;" horiz-adv-x="2062" 
d="M213 1384q50 61 131 96.5t164 35.5q129 0 200.5 -66.5t57.5 -167.5q-20 -152 -203 -215q93 -28 137 -90.5t31 -151.5q-15 -115 -115 -190.5t-251 -75.5q-93 0 -161 32.5t-122 104.5l68 49q83 -112 229 -112q112 0 182.5 51.5t81.5 136.5q14 94 -51 146.5t-164 54.5h-119
l8 72l101 2q99 0 175 52.5t85 129.5q9 70 -40.5 117t-137.5 47q-71 0 -127.5 -27.5t-110.5 -81.5zM1651 1497l-1157 -1505h-105l1157 1505h105zM1780 932h84l-82 -600h139l-10 -74h-139l-35 -258h-80l35 258h-422l10 82zM1356 332h344l63 485z" />
    <glyph glyph-name="questiondown" unicode="&#xbf;" horiz-adv-x="1001" 
d="M477 862l27 195h166l-29 -195h-164zM848 -78q-76 -127 -206 -199.5t-280 -72.5q-193 0 -293.5 101t-78.5 267q9 67 38.5 123.5t70.5 97.5t88.5 79.5t95.5 78.5t89 84t71 106t40 136h115q-10 -81 -40 -149.5t-70 -117t-86.5 -90.5t-92.5 -80.5t-84.5 -77.5t-66.5 -90
t-35 -110q-13 -114 53.5 -180t192.5 -66q106 0 211.5 61t146.5 146z" />
    <glyph glyph-name="Agrave" unicode="&#xc0;" horiz-adv-x="1386" 
d="M641 1925l444 -203l-38 -69l-457 157zM27 0l716 1481h154l315 -1481h-131l-90 438h-618l-215 -438h-131zM426 565h543l-166 783z" />
    <glyph glyph-name="Aacute" unicode="&#xc1;" horiz-adv-x="1386" 
d="M1100 1929l22 -119l-497 -157l-21 76zM27 0l716 1481h154l315 -1481h-131l-90 438h-618l-215 -438h-131zM426 565h543l-166 783z" />
    <glyph glyph-name="Acircumflex" unicode="&#xc2;" horiz-adv-x="1386" 
d="M995 1694l-125 129l-168 -129h-145l268 215h95l208 -215h-133zM27 0l716 1481h154l315 -1481h-131l-90 438h-618l-215 -438h-131zM426 565h543l-166 783z" />
    <glyph glyph-name="Atilde" unicode="&#xc3;" horiz-adv-x="1386" 
d="M1143 1790q-65 -43 -158 -43q-54 0 -120 24.5t-103 24.5q-31 0 -56 -9t-47.5 -23.5t-33.5 -18.5l-25 86q78 55 152 55q48 0 122 -25.5t113 -25.5q27 0 49 7.5t47 21.5t39 20zM27 0l716 1481h154l315 -1481h-131l-90 438h-618l-215 -438h-131zM426 565h543l-166 783z" />
    <glyph glyph-name="Adieresis" unicode="&#xc4;" horiz-adv-x="1386" 
d="M821 1905l-28 -211h-134l29 211h133zM1071 1905l-24 -211h-136l29 211h131zM27 0l716 1481h154l315 -1481h-131l-90 438h-618l-215 -438h-131zM426 565h543l-166 783z" />
    <glyph glyph-name="Aring" unicode="&#xc5;" horiz-adv-x="1386" 
d="M1067 1812q-12 -85 -74.5 -140.5t-144.5 -55.5q-85 0 -134.5 61.5t-37.5 153.5q10 79 74 133.5t141 54.5q85 0 135.5 -59.5t40.5 -147.5zM977 1825q7 47 -18 76.5t-70 29.5q-46 0 -85.5 -34.5t-45.5 -86.5q-5 -41 22.5 -73.5t67.5 -32.5q48 0 85.5 36t43.5 85zM27 0
l716 1481h154l315 -1481h-131l-90 438h-618l-215 -438h-131zM426 565h543l-166 783z" />
    <glyph glyph-name="AE" unicode="&#xc6;" horiz-adv-x="1964" 
d="M1765 119l-16 -119h-848l62 446h-494l-301 -446h-141l1001 1481h895l-18 -119h-678l-72 -555h524l-18 -119h-524l-72 -569h700zM979 565l106 799l-546 -799h440z" />
    <glyph glyph-name="Ccedilla" unicode="&#xc7;" horiz-adv-x="1353" 
d="M831 1380q-213 0 -347.5 -162.5t-178.5 -480.5q-40 -313 51.5 -475t315.5 -162q138 0 248 81t159 222l127 -24q-40 -164 -187.5 -277t-338.5 -122l-47 -95q85 -6 117.5 -48.5t25.5 -104.5q-10 -69 -71.5 -107.5t-145.5 -38.5q-98 0 -164 60l31 51q48 -41 119 -41
q56 0 89.5 23t39.5 65q4 44 -27.5 63.5t-107.5 22.5q-11 0 -15 4.5t-2 9.5l76 138q-254 19 -366 216.5t-68 540.5q50 359 227.5 560.5t450.5 201.5q216 0 342.5 -123t120.5 -301l-136 -14q-5 143 -90.5 230t-247.5 87z" />
    <glyph glyph-name="Egrave" unicode="&#xc8;" horiz-adv-x="1232" 
d="M606 1925l445 -203l-39 -69l-457 157zM143 0l199 1481h852l-16 -123h-725l-74 -549h663l-16 -123h-664l-75 -561l749 -2l-16 -123h-877z" />
    <glyph glyph-name="Eacute" unicode="&#xc9;" horiz-adv-x="1232" 
d="M1065 1929l22 -119l-497 -157l-21 76zM143 0l199 1481h852l-16 -123h-725l-74 -549h663l-16 -123h-664l-75 -561l749 -2l-16 -123h-877z" />
    <glyph glyph-name="Ecircumflex" unicode="&#xca;" horiz-adv-x="1232" 
d="M961 1694l-125 129l-168 -129h-146l269 215h94l209 -215h-133zM143 0l199 1481h852l-16 -123h-725l-74 -549h663l-16 -123h-664l-75 -561l749 -2l-16 -123h-877z" />
    <glyph glyph-name="Edieresis" unicode="&#xcb;" horiz-adv-x="1232" 
d="M786 1905l-28 -211h-133l28 211h133zM1036 1905l-24 -211h-135l28 211h131zM143 0l199 1481h852l-16 -123h-725l-74 -549h663l-16 -123h-664l-75 -561l749 -2l-16 -123h-877z" />
    <glyph glyph-name="Igrave" unicode="&#xcc;" horiz-adv-x="552" 
d="M227 1925l447 -203l-41 -69l-457 157zM342 1481h125l-197 -1481h-127z" />
    <glyph glyph-name="Iacute" unicode="&#xcd;" horiz-adv-x="550" 
d="M686 1929l23 -119l-496 -157l-20 76zM342 1481h127l-199 -1481h-127z" />
    <glyph glyph-name="Icircumflex" unicode="&#xce;" horiz-adv-x="550" 
d="M584 1694l-125 129l-168 -129h-144l267 215h94l209 -215h-133zM342 1481h127l-199 -1481h-127z" />
    <glyph glyph-name="Idieresis" unicode="&#xcf;" horiz-adv-x="552" 
d="M408 1905l-27 -211h-135l30 211h132zM659 1905l-24 -211h-135l28 211h131zM342 1481h127l-199 -1481h-127z" />
    <glyph glyph-name="Eth" unicode="&#xd0;" horiz-adv-x="1331" 
d="M594 1479q387 -4 538 -182.5t103 -546.5q-51 -381 -262.5 -565.5t-599.5 -184.5h-258l92 686h-113l15 115h112l92 680q1 0 47.5 -0.5t113.5 -1t120 -0.5zM1100 743q15 102 10 184t-21 146t-51 112t-79.5 81.5t-106.5 54t-132.5 30t-156.5 9.5h-131l-76 -559h371l-14 -115
h-371l-76 -565h119q157 0 276 33t211 106t148.5 193.5t79.5 289.5z" />
    <glyph glyph-name="Ntilde" unicode="&#xd1;" horiz-adv-x="1472" 
d="M1208 1790q-65 -43 -159 -43q-54 0 -120.5 24.5t-103.5 24.5q-31 0 -55.5 -9t-46.5 -23.5t-35 -18.5l-22 86q75 55 151 55q48 0 121.5 -25.5t114.5 -25.5q26 0 48 7.5t47.5 22t39.5 19.5zM1262 1481h127l-199 -1481h-113l-639 1247l-168 -1247h-127l199 1481h117
l637 -1243z" />
    <glyph glyph-name="Ograve" unicode="&#xd2;" horiz-adv-x="1460" 
d="M659 1925l445 -203l-39 -69l-457 157zM657 -20q-281 0 -410.5 195.5t-82.5 557.5q51 367 235.5 567.5t462.5 200.5t409.5 -199.5t82.5 -564.5q-51 -363 -234.5 -560t-462.5 -197zM676 100q222 0 358.5 158t177.5 479q44 323 -50 483t-314 160q-221 0 -360 -161t-183 -482
q-42 -319 53.5 -478t317.5 -159z" />
    <glyph glyph-name="Oacute" unicode="&#xd3;" horiz-adv-x="1460" 
d="M1118 1929l23 -119l-498 -157l-20 76zM657 -20q-281 0 -410.5 195.5t-82.5 557.5q51 367 235.5 567.5t462.5 200.5t409.5 -199.5t82.5 -564.5q-51 -363 -234.5 -560t-462.5 -197zM676 100q222 0 358.5 158t177.5 479q44 323 -50 483t-314 160q-221 0 -360 -161t-183 -482
q-42 -319 53.5 -478t317.5 -159z" />
    <glyph glyph-name="Ocircumflex" unicode="&#xd4;" horiz-adv-x="1460" 
d="M1014 1694l-123 129l-170 -129h-143l266 215h94l209 -215h-133zM657 -20q-281 0 -410.5 195.5t-82.5 557.5q51 367 235.5 567.5t462.5 200.5t409.5 -199.5t82.5 -564.5q-51 -363 -234.5 -560t-462.5 -197zM676 100q222 0 358.5 158t177.5 479q44 323 -50 483t-314 160
q-221 0 -360 -161t-183 -482q-42 -319 53.5 -478t317.5 -159z" />
    <glyph glyph-name="Otilde" unicode="&#xd5;" horiz-adv-x="1460" 
d="M1163 1790q-65 -43 -159 -43q-54 0 -120 24.5t-104 24.5q-31 0 -55.5 -9t-46.5 -23.5t-35 -18.5l-22 86q75 55 151 55q48 0 121.5 -25.5t114.5 -25.5q27 0 49 7.5t47 21.5t39 20zM657 -20q-281 0 -410.5 195.5t-82.5 557.5q51 367 235.5 567.5t462.5 200.5t409.5 -199.5
t82.5 -564.5q-51 -363 -234.5 -560t-462.5 -197zM676 100q222 0 358.5 158t177.5 479q44 323 -50 483t-314 160q-221 0 -360 -161t-183 -482q-42 -319 53.5 -478t317.5 -159z" />
    <glyph glyph-name="Odieresis" unicode="&#xd6;" horiz-adv-x="1460" 
d="M840 1905l-27 -211h-135l29 211h133zM1092 1905l-27 -211h-135l31 211h131zM657 -20q-281 0 -410.5 195.5t-82.5 557.5q51 367 235.5 567.5t462.5 200.5t409.5 -199.5t82.5 -564.5q-51 -363 -234.5 -560t-462.5 -197zM676 100q222 0 358.5 158t177.5 479q44 323 -50 483
t-314 160q-221 0 -360 -161t-183 -482q-42 -319 53.5 -478t317.5 -159z" />
    <glyph glyph-name="multiply" unicode="&#xd7;" horiz-adv-x="1038" 
d="M975 1063l-354 -324l268 -323l-82 -74l-266 324l-353 -324l-67 84l350 322l-266 323l80 74l268 -324l352 324z" />
    <glyph glyph-name="Oslash" unicode="&#xd8;" horiz-adv-x="1398" 
d="M55 -29l-78 86l199 201q-83 189 -41 483q49 363 230.5 561.5t457.5 198.5q268 0 398 -184l180 188l80 -86l-205 -200q86 -192 43 -488q-47 -360 -229.5 -555.5t-460.5 -195.5q-266 0 -398 180zM299 371l825 854q-88 155 -305 155q-436 0 -530 -637q-30 -227 10 -372z
M639 100q219 0 349.5 157t176.5 478q28 233 -10 371l-823 -852q87 -154 307 -154z" />
    <glyph glyph-name="Ugrave" unicode="&#xd9;" horiz-adv-x="1404" 
d="M649 1925l447 -203l-39 -69l-459 157zM1194 483q-34 -251 -171.5 -377t-389.5 -126q-255 0 -355.5 130t-64.5 398l129 973h133l-133 -1004q-53 -379 307 -379q368 0 420 379l133 1004h127z" />
    <glyph glyph-name="Uacute" unicode="&#xda;" horiz-adv-x="1404" 
d="M1110 1929l23 -119l-498 -157l-19 76zM1194 483q-34 -251 -171.5 -377t-389.5 -126q-255 0 -355.5 130t-64.5 398l129 973h133l-133 -1004q-53 -379 307 -379q368 0 420 379l133 1004h127z" />
    <glyph glyph-name="Ucircumflex" unicode="&#xdb;" horiz-adv-x="1404" 
d="M1006 1694l-123 129l-170 -129h-144l269 215h92l209 -215h-133zM1194 483q-34 -251 -171.5 -377t-389.5 -126q-255 0 -355.5 130t-64.5 398l129 973h133l-133 -1004q-53 -379 307 -379q368 0 420 379l133 1004h127z" />
    <glyph glyph-name="Udieresis" unicode="&#xdc;" horiz-adv-x="1404" 
d="M831 1905l-26 -211h-135l28 211h133zM1083 1905l-26 -211h-133l28 211h131zM1194 483q-34 -251 -171.5 -377t-389.5 -126q-255 0 -355.5 130t-64.5 398l129 973h133l-133 -1004q-53 -379 307 -379q368 0 420 379l133 1004h127z" />
    <glyph glyph-name="Yacute" unicode="&#xdd;" horiz-adv-x="1116" 
d="M967 1929l22 -119l-497 -157l-21 76zM1231 1481l-588 -848l-86 -633h-125l86 635l-366 846h133l311 -729l498 729h137z" />
    <glyph glyph-name="Thorn" unicode="&#xde;" horiz-adv-x="1284" 
d="M1249 766q-15 -108 -63 -189t-122 -130t-166.5 -73t-203.5 -24h-360l-45 -350h-146l199 1481h145l-43 -318h336q115 0 206 -24t155 -71.5t93 -124.5t15 -177zM1102 780q19 142 -68.5 204.5t-269.5 62.5h-334l-78 -580h340q173 0 281 76.5t129 236.5z" />
    <glyph glyph-name="germandbls" unicode="&#xdf;" horiz-adv-x="1179" 
d="M737 1481q86 0 147.5 -24t92.5 -65t42 -90t3 -104q-5 -37 -16 -68t-32.5 -56.5t-38 -42t-52.5 -37t-54 -29.5t-63 -31q-89 -46 -120 -71t-38 -68q-4 -39 17.5 -57t95.5 -48q128 -45 185 -84q148 -101 124 -291q-15 -107 -76 -184t-147.5 -114t-190.5 -37q-73 0 -146 21.5
t-116 57.5l56 80q90 -57 198 -57q124 0 204 62.5t95 172.5q9 58 -4 100t-54 71.5t-73 44.5t-96 38q-36 13 -57 22t-51 28t-45.5 40t-24.5 54.5t-4 75.5q10 70 57 119.5t147 103.5q6 3 32 16.5t34 18t30 17.5t30.5 21.5t24.5 23.5t23 29t14.5 33.5t10.5 40.5
q11 77 -36.5 120.5t-143.5 43.5q-127 0 -215 -81.5t-109 -233.5l-141 -1063h-125l127 946h-141l16 101h137q25 198 150 316t317 118z" />
    <glyph glyph-name="agrave" unicode="&#xe0;" horiz-adv-x="1114" 
d="M440 1501l445 -203l-39 -69l-459 157zM371 -20q-150 0 -228.5 80.5t-58.5 218.5q23 172 143.5 248.5t384.5 97.5l211 16l11 84q15 115 -46 183.5t-178 68.5q-187 0 -327 -186l-99 38q76 113 190.5 180.5t256.5 67.5q178 0 262.5 -90.5t64.5 -251.5l-98 -735h-110l12 164
q-169 -184 -391 -184zM418 82q76 0 158 37t140 99t66 126l27 207l-174 -14q-221 -18 -314 -70t-110 -180q-15 -94 42.5 -149.5t164.5 -55.5z" />
    <glyph glyph-name="aacute" unicode="&#xe1;" horiz-adv-x="1114" 
d="M899 1505l23 -119l-498 -157l-21 76zM371 -20q-150 0 -228.5 80.5t-58.5 218.5q23 172 143.5 248.5t384.5 97.5l211 16l11 84q15 115 -46 183.5t-178 68.5q-187 0 -327 -186l-99 38q76 113 190.5 180.5t256.5 67.5q178 0 262.5 -90.5t64.5 -251.5l-98 -735h-110l12 164
q-169 -184 -391 -184zM418 82q76 0 158 37t140 99t66 126l27 207l-174 -14q-221 -18 -314 -70t-110 -180q-15 -94 42.5 -149.5t164.5 -55.5z" />
    <glyph glyph-name="acircumflex" unicode="&#xe2;" horiz-adv-x="1114" 
d="M795 1270l-125 129l-168 -129h-144l267 215h94l209 -215h-133zM371 -20q-150 0 -228.5 80.5t-58.5 218.5q23 172 143.5 248.5t384.5 97.5l211 16l11 84q15 115 -46 183.5t-178 68.5q-187 0 -327 -186l-99 38q76 113 190.5 180.5t256.5 67.5q178 0 262.5 -90.5
t64.5 -251.5l-98 -735h-110l12 164q-169 -184 -391 -184zM418 82q76 0 158 37t140 99t66 126l27 207l-174 -14q-221 -18 -314 -70t-110 -180q-15 -94 42.5 -149.5t164.5 -55.5z" />
    <glyph glyph-name="atilde" unicode="&#xe3;" horiz-adv-x="1114" 
d="M944 1366q-65 -43 -160 -43q-54 0 -120 24.5t-103 24.5q-31 0 -55.5 -9t-46.5 -23.5t-35 -18.5l-25 86q78 55 154 55q47 0 120.5 -25.5t114.5 -25.5q26 0 48 7.5t47.5 21.5t40.5 20zM371 -20q-150 0 -228.5 80.5t-58.5 218.5q23 172 143.5 248.5t384.5 97.5l211 16l11 84
q15 115 -46 183.5t-178 68.5q-187 0 -327 -186l-99 38q76 113 190.5 180.5t256.5 67.5q178 0 262.5 -90.5t64.5 -251.5l-98 -735h-110l12 164q-169 -184 -391 -184zM418 82q76 0 158 37t140 99t66 126l27 207l-174 -14q-221 -18 -314 -70t-110 -180q-15 -94 42.5 -149.5
t164.5 -55.5z" />
    <glyph glyph-name="adieresis" unicode="&#xe4;" horiz-adv-x="1114" 
d="M621 1481l-29 -211h-133l28 211h134zM870 1481l-24 -211h-135l28 211h131zM371 -20q-150 0 -228.5 80.5t-58.5 218.5q23 172 143.5 248.5t384.5 97.5l211 16l11 84q15 115 -46 183.5t-178 68.5q-187 0 -327 -186l-99 38q76 113 190.5 180.5t256.5 67.5q178 0 262.5 -90.5
t64.5 -251.5l-98 -735h-110l12 164q-169 -184 -391 -184zM418 82q76 0 158 37t140 99t66 126l27 207l-174 -14q-221 -18 -314 -70t-110 -180q-15 -94 42.5 -149.5t164.5 -55.5z" />
    <glyph glyph-name="aring" unicode="&#xe5;" horiz-adv-x="1114" 
d="M866 1389q-12 -86 -74.5 -141.5t-144.5 -55.5q-85 0 -134.5 61.5t-37.5 153.5q10 78 74 133t141 55q85 0 135.5 -59t40.5 -147zM776 1401q7 47 -18 75.5t-70 28.5q-46 0 -85 -34t-46 -85q-4 -43 23 -74.5t67 -31.5q48 0 85.5 36t43.5 85zM371 -20q-150 0 -228.5 80.5
t-58.5 218.5q23 172 143.5 248.5t384.5 97.5l211 16l11 84q15 115 -46 183.5t-178 68.5q-187 0 -327 -186l-99 38q76 113 190.5 180.5t256.5 67.5q178 0 262.5 -90.5t64.5 -251.5l-98 -735h-110l12 164q-169 -184 -391 -184zM418 82q76 0 158 37t140 99t66 126l27 207
l-174 -14q-221 -18 -314 -70t-110 -180q-15 -94 42.5 -149.5t164.5 -55.5z" />
    <glyph glyph-name="ae" unicode="&#xe6;" horiz-adv-x="1851" 
d="M926 496q-11 -100 23 -195t106 -156t162 -61q66 0 121 16t98 47.5t70.5 59.5t60.5 69l92 -61q-74 -109 -195 -172t-262 -63q-64 0 -119.5 16t-91.5 38t-68.5 56t-49.5 59.5t-35 59.5q-7 7 -15 -12q-35 -36 -59.5 -59t-70.5 -56.5t-89 -53t-105 -34t-130 -14.5
q-152 0 -227.5 81t-55.5 220q42 301 514 340l227 20l11 86q17 118 -43 184t-185 66q-169 0 -319 -189l-107 54q75 113 190.5 174t254.5 61q275 0 313 -213q140 213 401 213q204 0 308.5 -152.5t68.5 -426.5zM1335 977q-147 0 -258 -107t-135 -278h666q20 160 -58 272.5
t-215 112.5zM813 545l-184 -15q-387 -35 -414 -256q-12 -91 40 -143.5t159 -48.5q141 6 250 84t124 184z" />
    <glyph glyph-name="ccedilla" unicode="&#xe7;" horiz-adv-x="1091" 
d="M518 84q92 0 162 50.5t143 158.5l101 -45q-150 -249 -392 -266l-47 -97q85 -6 118 -48.5t26 -104.5q-10 -69 -71.5 -107.5t-145.5 -38.5q-98 0 -164 60l31 51q48 -41 118 -41q56 0 89.5 23t39.5 65q6 43 -26.5 63t-108.5 23q-11 0 -14.5 4.5t-1.5 9.5l76 138
q-186 17 -277 164.5t-59 377.5q34 247 178.5 400t349.5 153q249 0 346 -256l-115 -43q-43 75 -71 112t-69 60t-97 23q-154 0 -260 -122.5t-133 -322.5q-28 -202 46 -323t228 -121z" />
    <glyph glyph-name="egrave" unicode="&#xe8;" horiz-adv-x="1118" 
d="M455 1501l446 -203l-41 -69l-457 157zM240 492q-15 -113 9 -203t94.5 -146.5t180.5 -56.5q104 0 175 44t126 132l105 -37q-69 -122 -178 -183.5t-242 -61.5q-138 0 -235 63t-141 186.5t-21 290.5q35 258 175 407.5t351 149.5q202 0 297 -137.5t61 -382.5l-10 -65h-747z
M256 598h623q15 110 -6.5 193.5t-85.5 133.5t-164 50q-80 0 -147.5 -32.5t-111.5 -87t-71.5 -120t-36.5 -137.5z" />
    <glyph glyph-name="eacute" unicode="&#xe9;" horiz-adv-x="1118" 
d="M913 1505l23 -119l-498 -157l-18 76zM240 492q-15 -113 9 -203t94.5 -146.5t180.5 -56.5q104 0 175 44t126 132l105 -37q-69 -122 -178 -183.5t-242 -61.5q-138 0 -235 63t-141 186.5t-21 290.5q35 258 175 407.5t351 149.5q202 0 297 -137.5t61 -382.5l-10 -65h-747z
M256 598h623q15 110 -6.5 193.5t-85.5 133.5t-164 50q-80 0 -147.5 -32.5t-111.5 -87t-71.5 -120t-36.5 -137.5z" />
    <glyph glyph-name="ecircumflex" unicode="&#xea;" horiz-adv-x="1118" 
d="M809 1270l-123 129l-168 -129h-145l268 215h92l211 -215h-135zM240 492q-15 -113 9 -203t94.5 -146.5t180.5 -56.5q104 0 175 44t126 132l105 -37q-69 -122 -178 -183.5t-242 -61.5q-138 0 -235 63t-141 186.5t-21 290.5q35 258 175 407.5t351 149.5q202 0 297 -137.5
t61 -382.5l-10 -65h-747zM256 598h623q15 110 -6.5 193.5t-85.5 133.5t-164 50q-80 0 -147.5 -32.5t-111.5 -87t-71.5 -120t-36.5 -137.5z" />
    <glyph glyph-name="edieresis" unicode="&#xeb;" horiz-adv-x="1118" 
d="M635 1481l-27 -211h-135l29 211h133zM887 1481l-27 -211h-133l29 211h131zM240 492q-15 -113 9 -203t94.5 -146.5t180.5 -56.5q104 0 175 44t126 132l105 -37q-69 -122 -178 -183.5t-242 -61.5q-138 0 -235 63t-141 186.5t-21 290.5q35 258 175 407.5t351 149.5
q202 0 297 -137.5t61 -382.5l-10 -65h-747zM256 598h623q15 110 -6.5 193.5t-85.5 133.5t-164 50q-80 0 -147.5 -32.5t-111.5 -87t-71.5 -120t-36.5 -137.5z" />
    <glyph glyph-name="igrave" unicode="&#xec;" horiz-adv-x="475" 
d="M125 1501l444 -203l-39 -69l-458 157zM373 1057l-146 -1057h-127l144 1057h129z" />
    <glyph glyph-name="iacute" unicode="&#xed;" horiz-adv-x="468" 
d="M586 1505l22 -119l-497 -157l-19 76zM375 1057l-146 -1057h-127l144 1057h129z" />
    <glyph glyph-name="icircumflex" unicode="&#xee;" horiz-adv-x="471" 
d="M492 1270l-125 129l-168 -129h-144l267 215h94l209 -215h-133zM385 1057l-145 -1057h-127l143 1057h129z" />
    <glyph glyph-name="idieresis" unicode="&#xef;" horiz-adv-x="481" 
d="M313 1481l-28 -211h-133l28 211h133zM563 1481l-24 -211h-136l29 211h131zM381 1057l-145 -1057h-127l143 1057h129z" />
    <glyph glyph-name="eth" unicode="&#xf0;" horiz-adv-x="1159" 
d="M1051 510q-30 -237 -177.5 -383.5t-367.5 -146.5q-211 0 -324 148.5t-82 379.5q32 232 181 381t348 149q168 0 268 -112q-63 210 -244 352l-338 -188l-36 71l307 166q-71 44 -213 115l88 59q129 -50 233 -119l217 125l35 -80l-184 -94q365 -285 289 -823zM516 84
q153 0 268 122.5t138 307.5q25 181 -54.5 301.5t-226.5 120.5q-152 0 -269.5 -125t-140.5 -309q-25 -181 55.5 -299.5t229.5 -118.5z" />
    <glyph glyph-name="ntilde" unicode="&#xf1;" horiz-adv-x="1138" 
d="M987 1366q-65 -43 -158 -43q-54 0 -120 24.5t-103 24.5q-31 0 -55.5 -9t-46.5 -23.5t-35 -18.5l-25 86q78 55 152 55q48 0 121.5 -25.5t113.5 -25.5q27 0 49.5 7.5t48 21.5t40.5 20zM102 0l144 1057h121l-23 -166q126 100 212.5 143t188.5 43q148 0 218 -80.5t51 -216.5
l-107 -780h-125l101 743q15 108 -32 167t-155 59q-88 0 -165.5 -39t-194.5 -131l-105 -799h-129z" />
    <glyph glyph-name="ograve" unicode="&#xf2;" horiz-adv-x="1112" 
d="M457 1501l446 -203l-41 -69l-456 157zM479 -20q-211 0 -310 148.5t-65 393.5q33 249 176 402t353 153q209 0 308 -152t65 -399q-31 -246 -173.5 -396t-353.5 -150zM500 82q156 0 253.5 123t123.5 323q29 201 -38 324t-223 123q-157 0 -255.5 -123.5t-124.5 -323.5
q-19 -129 2.5 -228.5t88.5 -158.5t173 -59z" />
    <glyph glyph-name="oacute" unicode="&#xf3;" horiz-adv-x="1112" 
d="M915 1505l23 -119l-498 -157l-18 76zM479 -20q-211 0 -310 148.5t-65 393.5q33 249 176 402t353 153q209 0 308 -152t65 -399q-31 -246 -173.5 -396t-353.5 -150zM500 82q156 0 253.5 123t123.5 323q29 201 -38 324t-223 123q-157 0 -255.5 -123.5t-124.5 -323.5
q-19 -129 2.5 -228.5t88.5 -158.5t173 -59z" />
    <glyph glyph-name="ocircumflex" unicode="&#xf4;" horiz-adv-x="1112" 
d="M811 1270l-123 129l-170 -129h-143l268 215h92l209 -215h-133zM479 -20q-211 0 -310 148.5t-65 393.5q33 249 176 402t353 153q209 0 308 -152t65 -399q-31 -246 -173.5 -396t-353.5 -150zM500 82q156 0 253.5 123t123.5 323q29 201 -38 324t-223 123
q-157 0 -255.5 -123.5t-124.5 -323.5q-19 -129 2.5 -228.5t88.5 -158.5t173 -59z" />
    <glyph glyph-name="otilde" unicode="&#xf5;" horiz-adv-x="1112" 
d="M961 1366q-65 -43 -160 -43q-53 0 -119 24.5t-104 24.5q-31 0 -55.5 -9t-47.5 -23.5t-35 -18.5l-22 86q75 55 151 55q49 0 123 -25.5t113 -25.5q27 0 49 7.5t47 21.5t39 20zM479 -20q-211 0 -310 148.5t-65 393.5q33 249 176 402t353 153q209 0 308 -152t65 -399
q-31 -246 -173.5 -396t-353.5 -150zM500 82q156 0 253.5 123t123.5 323q29 201 -38 324t-223 123q-157 0 -255.5 -123.5t-124.5 -323.5q-19 -129 2.5 -228.5t88.5 -158.5t173 -59z" />
    <glyph glyph-name="odieresis" unicode="&#xf6;" horiz-adv-x="1112" 
d="M637 1481l-27 -211h-135l29 211h133zM889 1481l-27 -211h-133l29 211h131zM479 -20q-211 0 -310 148.5t-65 393.5q33 249 176 402t353 153q209 0 308 -152t65 -399q-31 -246 -173.5 -396t-353.5 -150zM500 82q156 0 253.5 123t123.5 323q29 201 -38 324t-223 123
q-157 0 -255.5 -123.5t-124.5 -323.5q-19 -129 2.5 -228.5t88.5 -158.5t173 -59z" />
    <glyph glyph-name="divide" unicode="&#xf7;" horiz-adv-x="1075" 
d="M721 1176l-27 -191h-192l28 191h191zM975 799l-14 -109l-805 -2l16 109zM629 502l-25 -189h-190l24 189h191z" />
    <glyph glyph-name="oslash" unicode="&#xf8;" horiz-adv-x="1120" 
d="M1143 991l-189 -168q40 -125 19 -297q-31 -246 -173.5 -396t-353.5 -150q-190 0 -292 124l-127 -114l-58 73l135 123q-60 135 -32 336q31 249 173.5 402t352.5 153q216 0 317 -166l168 152zM201 528q-19 -147 10 -247l608 544q-65 150 -235 150q-157 0 -257 -123.5
t-126 -323.5zM844 528q15 105 2 197l-596 -535q71 -108 217 -108q155 0 252.5 122.5t124.5 323.5z" />
    <glyph glyph-name="ugrave" unicode="&#xf9;" horiz-adv-x="1138" 
d="M442 1501l445 -203l-39 -69l-457 157zM416 -18q-148 3 -221 84.5t-54 216.5l105 778h125l-101 -744q-29 -229 187 -229q89 0 163.5 38.5t196.5 133.5l107 801h127l-144 -1059h-104l12 162q-129 -98 -216 -140.5t-183 -41.5z" />
    <glyph glyph-name="uacute" unicode="&#xfa;" horiz-adv-x="1138" 
d="M903 1505l23 -119l-498 -157l-20 76zM416 -18q-148 3 -221 84.5t-54 216.5l105 778h125l-101 -744q-29 -229 187 -229q89 0 163.5 38.5t196.5 133.5l107 801h127l-144 -1059h-104l12 162q-129 -98 -216 -140.5t-183 -41.5z" />
    <glyph glyph-name="ucircumflex" unicode="&#xfb;" horiz-adv-x="1138" 
d="M799 1270l-125 129l-168 -129h-146l269 215h94l209 -215h-133zM416 -18q-148 3 -221 84.5t-54 216.5l105 778h125l-101 -744q-29 -229 187 -229q89 0 163.5 38.5t196.5 133.5l107 801h127l-144 -1059h-104l12 162q-129 -98 -216 -140.5t-183 -41.5z" />
    <glyph glyph-name="udieresis" unicode="&#xfc;" horiz-adv-x="1138" 
d="M623 1481l-29 -211h-133l28 211h134zM872 1481l-24 -211h-135l28 211h131zM416 -18q-148 3 -221 84.5t-54 216.5l105 778h125l-101 -744q-29 -229 187 -229q89 0 163.5 38.5t196.5 133.5l107 801h127l-144 -1059h-104l12 162q-129 -98 -216 -140.5t-183 -41.5z" />
    <glyph glyph-name="yacute" unicode="&#xfd;" horiz-adv-x="1040" 
d="M887 1505l22 -119l-497 -157l-21 76zM131 -338q-49 0 -83.5 5t-43.5 11l-10 5l12 86h109q91 -3 139.5 30t81.5 92l61 123l-256 1043h129l209 -885l445 885h123l-592 -1178q-63 -118 -142.5 -167.5t-181.5 -49.5z" />
    <glyph glyph-name="thorn" unicode="&#xfe;" horiz-adv-x="1159" 
d="M63 -330l242 1811h125l-78 -566q1 1 19.5 19t26 25t30.5 25.5t39.5 28t45 24t54.5 22t60.5 13t70.5 5.5q92 0 165 -34t123 -99.5t69 -169t0 -235.5q-35 -258 -174.5 -408.5t-341.5 -150.5q-177 0 -293 133l-58 -443h-125zM514 82q159 0 271 125t141 342
q29 213 -48.5 319.5t-218.5 106.5q-124 0 -221 -81t-108 -171l-72 -504q117 -137 256 -137z" />
    <glyph glyph-name="ydieresis" unicode="&#xff;" horiz-adv-x="1040" 
d="M608 1481l-28 -211h-134l29 211h133zM858 1481l-24 -211h-136l29 211h131zM131 -338q-49 0 -83.5 5t-43.5 11l-10 5l12 86h109q91 -3 139.5 30t81.5 92l61 123l-256 1043h129l209 -885l445 885h123l-592 -1178q-63 -118 -142.5 -167.5t-181.5 -49.5z" />
    <glyph glyph-name="Amacron" unicode="&#x100;" horiz-adv-x="1386" 
d="M1143 1870l-15 -103h-530l12 103h533zM27 0l716 1481h154l315 -1481h-131l-90 438h-618l-215 -438h-131zM426 565h543l-166 783z" />
    <glyph glyph-name="amacron" unicode="&#x101;" horiz-adv-x="1114" 
d="M942 1446l-14 -103h-531l13 103h532zM371 -20q-150 0 -228.5 80.5t-58.5 218.5q23 172 143.5 248.5t384.5 97.5l211 16l11 84q15 115 -46 183.5t-178 68.5q-187 0 -327 -186l-99 38q76 113 190.5 180.5t256.5 67.5q178 0 262.5 -90.5t64.5 -251.5l-98 -735h-110l12 164
q-169 -184 -391 -184zM418 82q76 0 158 37t140 99t66 126l27 207l-174 -14q-221 -18 -314 -70t-110 -180q-15 -94 42.5 -149.5t164.5 -55.5z" />
    <glyph glyph-name="Abreve" unicode="&#x102;" horiz-adv-x="1386" 
d="M1151 1903q-36 -79 -116.5 -140t-188.5 -61q-111 0 -176 57.5t-68 143.5h107q1 -2 13.5 -23.5t20.5 -30t24 -23.5t37 -21.5t48 -6.5q43 0 80.5 19t56 37t43.5 49h119zM27 0l716 1481h154l315 -1481h-131l-90 438h-618l-215 -438h-131zM426 565h543l-166 783z" />
    <glyph glyph-name="abreve" unicode="&#x103;" horiz-adv-x="1114" 
d="M948 1479q-34 -79 -114.5 -140t-190.5 -61q-111 0 -175 57.5t-69 143.5h109q2 -3 13.5 -23.5t19.5 -29.5t24 -24t37.5 -21.5t48.5 -6.5q43 0 80.5 19t56 37t43.5 49h117zM371 -20q-150 0 -228.5 80.5t-58.5 218.5q23 172 143.5 248.5t384.5 97.5l211 16l11 84
q15 115 -46 183.5t-178 68.5q-187 0 -327 -186l-99 38q76 113 190.5 180.5t256.5 67.5q178 0 262.5 -90.5t64.5 -251.5l-98 -735h-110l12 164q-169 -184 -391 -184zM418 82q76 0 158 37t140 99t66 126l27 207l-174 -14q-221 -18 -314 -70t-110 -180q-15 -94 42.5 -149.5
t164.5 -55.5z" />
    <glyph glyph-name="Aogonek" unicode="&#x104;" horiz-adv-x="1386" 
d="M1087 -258q71 0 150 41l-12 -92q-76 -31 -170 -31q-93 0 -136 45t-32 121q10 60 52.5 103.5t139.5 78.5l-88 430h-618l-215 -438h-131l716 1481h154l315 -1481q-106 -44 -155.5 -85.5t-55.5 -96.5q-6 -39 14 -57.5t72 -18.5zM426 565h543l-166 783z" />
    <glyph glyph-name="aogonek" unicode="&#x105;" horiz-adv-x="1120" 
d="M846 0q-99 -45 -145.5 -84.5t-53.5 -93.5q-5 -38 15.5 -56t70.5 -18q64 0 152 39l-15 -90q-72 -31 -168 -31q-93 0 -135.5 45t-31.5 121q8 62 57 107.5t160 80.5l10 144q-169 -184 -391 -184q-150 0 -228.5 80.5t-58.5 218.5q23 172 143.5 248.5t384.5 97.5l211 16l11 84
q15 115 -46 183.5t-178 68.5q-187 0 -327 -186l-99 38q76 113 190.5 180.5t256.5 67.5q178 0 262.5 -90.5t64.5 -251.5l-98 -735h-14zM418 82q76 0 158 37t140 99t66 126l27 207l-174 -14q-221 -18 -314 -70t-110 -180q-15 -94 42.5 -149.5t164.5 -55.5z" />
    <glyph glyph-name="Cacute" unicode="&#x106;" horiz-adv-x="1353" 
d="M1122 1929l23 -119l-496 -157l-20 76zM842 1501q216 0 342.5 -123t120.5 -301l-136 -14q-5 143 -90.5 230t-247.5 87q-213 0 -347.5 -162.5t-178.5 -480.5q-40 -313 51.5 -475t315.5 -162q138 0 248 81t159 222l127 -24q-42 -170 -200 -284.5t-357 -114.5
q-280 0 -405.5 199.5t-79.5 559.5q50 359 227.5 560.5t450.5 201.5z" />
    <glyph glyph-name="cacute" unicode="&#x107;" horiz-adv-x="1091" 
d="M915 1505l25 -119l-498 -157l-20 76zM643 1077q249 0 346 -256l-115 -43q-43 75 -71 112t-69 60t-97 23q-154 0 -260 -122.5t-133 -322.5q-28 -202 46 -323t228 -121q92 0 162 50.5t143 158.5l101 -45q-163 -268 -430 -268q-206 0 -309.5 150t-69.5 394q34 247 178.5 400
t349.5 153z" />
    <glyph glyph-name="Ccircumflex" unicode="&#x108;" horiz-adv-x="1353" 
d="M1020 1694l-125 129l-168 -129h-145l268 215h94l209 -215h-133zM842 1501q216 0 342.5 -123t120.5 -301l-136 -14q-5 143 -90.5 230t-247.5 87q-213 0 -347.5 -162.5t-178.5 -480.5q-40 -313 51.5 -475t315.5 -162q138 0 248 81t159 222l127 -24q-42 -170 -200 -284.5
t-357 -114.5q-280 0 -405.5 199.5t-79.5 559.5q50 359 227.5 560.5t450.5 201.5z" />
    <glyph glyph-name="ccircumflex" unicode="&#x109;" horiz-adv-x="1091" 
d="M813 1270l-125 129l-168 -129h-145l268 215h94l209 -215h-133zM643 1077q249 0 346 -256l-115 -43q-43 75 -71 112t-69 60t-97 23q-154 0 -260 -122.5t-133 -322.5q-28 -202 46 -323t228 -121q92 0 162 50.5t143 158.5l101 -45q-163 -268 -430 -268q-206 0 -309.5 150
t-69.5 394q34 247 178.5 400t349.5 153z" />
    <glyph glyph-name="Cdotaccent" unicode="&#x10a;" horiz-adv-x="1353" 
d="M979 1905l-29 -219h-143l29 219h143zM842 1501q216 0 342.5 -123t120.5 -301l-136 -14q-5 143 -90.5 230t-247.5 87q-213 0 -347.5 -162.5t-178.5 -480.5q-40 -313 51.5 -475t315.5 -162q138 0 248 81t159 222l127 -24q-42 -170 -200 -284.5t-357 -114.5
q-280 0 -405.5 199.5t-79.5 559.5q50 359 227.5 560.5t450.5 201.5z" />
    <glyph glyph-name="cdotaccent" unicode="&#x10b;" horiz-adv-x="1091" 
d="M772 1481l-29 -219h-143l29 219h143zM643 1077q249 0 346 -256l-115 -43q-43 75 -71 112t-69 60t-97 23q-154 0 -260 -122.5t-133 -322.5q-28 -202 46 -323t228 -121q92 0 162 50.5t143 158.5l101 -45q-163 -268 -430 -268q-206 0 -309.5 150t-69.5 394q34 247 178.5 400
t349.5 153z" />
    <glyph glyph-name="Ccaron" unicode="&#x10c;" horiz-adv-x="1353" 
d="M1040 1905h152l-262 -215h-92l-213 215h123l135 -129zM842 1501q216 0 342.5 -123t120.5 -301l-136 -14q-5 143 -90.5 230t-247.5 87q-213 0 -347.5 -162.5t-178.5 -480.5q-40 -313 51.5 -475t315.5 -162q138 0 248 81t159 222l127 -24q-42 -170 -200 -284.5t-357 -114.5
q-280 0 -405.5 199.5t-79.5 559.5q50 359 227.5 560.5t450.5 201.5z" />
    <glyph glyph-name="ccaron" unicode="&#x10d;" horiz-adv-x="1091" 
d="M834 1481h151l-262 -215h-92l-213 215h123l135 -129zM643 1077q249 0 346 -256l-115 -43q-43 75 -71 112t-69 60t-97 23q-154 0 -260 -122.5t-133 -322.5q-28 -202 46 -323t228 -121q92 0 162 50.5t143 158.5l101 -45q-163 -268 -430 -268q-206 0 -309.5 150t-69.5 394
q34 247 178.5 400t349.5 153z" />
    <glyph glyph-name="Dcaron" unicode="&#x10e;" horiz-adv-x="1359" 
d="M985 1905h152l-263 -215h-92l-213 215h125l133 -129zM342 1481q1 0 47.5 -0.5t113.5 -1t120 -0.5q386 -4 537.5 -182.5t103.5 -546.5q-53 -381 -264.5 -565.5t-598.5 -184.5h-258zM459 1360l-164 -1239h119q317 0 493.5 144.5t220.5 477.5q15 102 10 184t-21 146t-51 112
t-80 81.5t-107 54t-132.5 30t-156.5 9.5h-131z" />
    <glyph glyph-name="dcaron" unicode="&#x10f;" horiz-adv-x="1226" 
d="M455 -20q-192 0 -284.5 137.5t-57.5 394.5q34 259 167.5 412t337.5 153q88 0 155 -33t126 -104l80 580h129l-205 -1520h-104l10 162q-15 -19 -33.5 -39t-52.5 -47t-71 -47t-89.5 -34.5t-107.5 -14.5zM1108 1042l98 179l-41 8l25 186h125l-27 -196l-94 -177h-86zM498 84
q119 0 216 88t111 190l60 447q-99 164 -258 164q-152 0 -253 -118t-130 -335q-29 -219 42 -327.5t212 -108.5z" />
    <glyph glyph-name="Dcroat" unicode="&#x110;" horiz-adv-x="1331" 
d="M594 1479q387 -4 538 -182.5t103 -546.5q-51 -381 -262.5 -565.5t-599.5 -184.5h-258l92 686h-113l15 115h112l92 680q1 0 47.5 -0.5t113.5 -1t120 -0.5zM1100 743q15 102 10 184t-21 146t-51 112t-79.5 81.5t-106.5 54t-132.5 30t-156.5 9.5h-131l-76 -559h371l-14 -115
h-371l-76 -565h119q157 0 276 33t211 106t148.5 193.5t79.5 289.5z" />
    <glyph glyph-name="dcroat" unicode="&#x111;" horiz-adv-x="1253" 
d="M1309 1329l-15 -92h-225l-166 -1237h-104l10 162q-15 -19 -33.5 -39t-52.5 -47t-71 -47t-89.5 -34.5t-107.5 -14.5q-192 0 -284.5 137.5t-57.5 394.5q34 259 167.5 412t337.5 153q88 0 155 -33t126 -104l41 297h-223l12 92h223l27 191h129l-27 -191h228zM825 362l60 447
q-99 164 -258 164q-152 0 -253 -118t-130 -335q-29 -219 42 -327.5t212 -108.5q119 0 216 88t111 190z" />
    <glyph glyph-name="Emacron" unicode="&#x112;" horiz-adv-x="1232" 
d="M1106 1870l-14 -103h-531l12 103h533zM143 0l199 1481h852l-16 -123h-725l-74 -549h663l-16 -123h-664l-75 -561l749 -2l-16 -123h-877z" />
    <glyph glyph-name="emacron" unicode="&#x113;" horiz-adv-x="1118" 
d="M956 1446l-14 -103h-530l12 103h532zM240 492q-15 -113 9 -203t94.5 -146.5t180.5 -56.5q104 0 175 44t126 132l105 -37q-69 -122 -178 -183.5t-242 -61.5q-138 0 -235 63t-141 186.5t-21 290.5q35 258 175 407.5t351 149.5q202 0 297 -137.5t61 -382.5l-10 -65h-747z
M256 598h623q15 110 -6.5 193.5t-85.5 133.5t-164 50q-80 0 -147.5 -32.5t-111.5 -87t-71.5 -120t-36.5 -137.5z" />
    <glyph glyph-name="Ebreve" unicode="&#x114;" horiz-adv-x="1232" 
d="M1116 1903q-36 -79 -116.5 -140t-188.5 -61q-111 0 -176 57.5t-68 143.5h107q1 -2 13.5 -23.5t20.5 -30t24 -23.5t37 -21.5t48 -6.5q43 0 80.5 19t56 37t43.5 49h119zM143 0l199 1481h852l-16 -123h-725l-74 -549h663l-16 -123h-664l-75 -561l749 -2l-16 -123h-877z" />
    <glyph glyph-name="ebreve" unicode="&#x115;" horiz-adv-x="1118" 
d="M965 1479q-36 -79 -116 -140t-190 -61q-111 0 -174.5 57.5t-68.5 143.5h108q1 -2 7.5 -14t10 -17.5t11.5 -17t14.5 -17.5t18 -14.5t22.5 -13t27 -8t33 -3.5q32 0 59.5 9t51 28t36 31.5t33.5 36.5h117zM240 492q-15 -113 9 -203t94.5 -146.5t180.5 -56.5q104 0 175 44
t126 132l105 -37q-69 -122 -178 -183.5t-242 -61.5q-138 0 -235 63t-141 186.5t-21 290.5q35 258 175 407.5t351 149.5q202 0 297 -137.5t61 -382.5l-10 -65h-747zM256 598h623q15 110 -6.5 193.5t-85.5 133.5t-164 50q-80 0 -147.5 -32.5t-111.5 -87t-71.5 -120
t-36.5 -137.5z" />
    <glyph glyph-name="Edotaccent" unicode="&#x116;" horiz-adv-x="1232" 
d="M920 1905l-29 -219h-143l30 219h142zM143 0l199 1481h852l-16 -123h-725l-74 -549h663l-16 -123h-664l-75 -561l749 -2l-16 -123h-877z" />
    <glyph glyph-name="edotaccent" unicode="&#x117;" horiz-adv-x="1118" 
d="M768 1481l-27 -219h-143l29 219h141zM240 492q-15 -113 9 -203t94.5 -146.5t180.5 -56.5q104 0 175 44t126 132l105 -37q-69 -122 -178 -183.5t-242 -61.5q-138 0 -235 63t-141 186.5t-21 290.5q35 258 175 407.5t351 149.5q202 0 297 -137.5t61 -382.5l-10 -65h-747z
M256 598h623q15 110 -6.5 193.5t-85.5 133.5t-164 50q-80 0 -147.5 -32.5t-111.5 -87t-71.5 -120t-36.5 -137.5z" />
    <glyph glyph-name="Eogonek" unicode="&#x118;" horiz-adv-x="1232" 
d="M1178 1358h-725l-74 -549h663l-16 -123h-664l-75 -561l749 -2l-16 -123h-2q-107 -46 -156 -87.5t-55 -96.5q-6 -37 14 -55.5t70 -18.5q76 0 151 39l-12 -92q-86 -31 -170 -31q-93 0 -136 45t-32 121q8 58 47.5 100t128.5 76h-725l199 1481h852z" />
    <glyph glyph-name="eogonek" unicode="&#x119;" horiz-adv-x="1118" 
d="M639 1077q202 0 297 -137.5t61 -382.5l-10 -65h-747q-15 -113 9 -203t94.5 -146.5t180.5 -56.5q104 0 175 44t126 132l105 -37q-82 -146 -223 -207h2q-107 -46 -156 -87.5t-55 -96.5q-6 -37 14 -55.5t72 -18.5q79 0 149 39l-12 -92q-86 -31 -168 -31q-94 0 -136.5 45
t-33.5 121q13 85 98 138q-198 11 -299.5 154t-68.5 386q35 258 175 407.5t351 149.5zM879 598q15 110 -6.5 193.5t-85.5 133.5t-164 50q-80 0 -147.5 -32.5t-111.5 -87t-71.5 -120t-36.5 -137.5h623z" />
    <glyph glyph-name="Ecaron" unicode="&#x11a;" horiz-adv-x="1232" 
d="M981 1905h152l-263 -215h-92l-213 215h125l133 -129zM143 0l199 1481h852l-16 -123h-725l-74 -549h663l-16 -123h-664l-75 -561l749 -2l-16 -123h-877z" />
    <glyph glyph-name="ecaron" unicode="&#x11b;" horiz-adv-x="1118" 
d="M831 1481h152l-262 -215h-94l-213 215h125l133 -129zM240 492q-15 -113 9 -203t94.5 -146.5t180.5 -56.5q104 0 175 44t126 132l105 -37q-69 -122 -178 -183.5t-242 -61.5q-138 0 -235 63t-141 186.5t-21 290.5q35 258 175 407.5t351 149.5q202 0 297 -137.5t61 -382.5
l-10 -65h-747zM256 598h623q15 110 -6.5 193.5t-85.5 133.5t-164 50q-80 0 -147.5 -32.5t-111.5 -87t-71.5 -120t-36.5 -137.5z" />
    <glyph glyph-name="Gcircumflex" unicode="&#x11c;" horiz-adv-x="1443" 
d="M1016 1694l-123 129l-168 -129h-145l268 215h94l209 -215h-135zM645 -20q-272 0 -399.5 200t-81.5 555q51 361 236 563.5t454 202.5q191 0 323.5 -124t129.5 -292l-142 -22q-6 136 -96.5 225.5t-230.5 89.5q-212 0 -354 -166t-183 -467q-42 -316 55.5 -480.5
t311.5 -164.5q96 0 179.5 38t138.5 99t90 129t46 136l25 153h-371l15 103l499 -2l-102 -756h-105l31 244q-78 -118 -196 -191t-273 -73z" />
    <glyph glyph-name="gcircumflex" unicode="&#x11d;" horiz-adv-x="1187" 
d="M813 1270l-123 129l-170 -129h-143l268 215h92l209 -215h-133zM442 -350q-232 0 -346.5 77t-93.5 212q18 139 205 233q28 13 4 23q-74 41 -66 110q8 47 55 86t128 60q-90 53 -123 120.5t-19 165.5q20 158 145.5 247t319.5 89q176 0 267 -88q2 -2 5.5 -3.5t6 -1.5t6.5 1
t6.5 2t8 3t7.5 3q72 32 224 92l-21 -143q-71 -13 -139 -27q-33 -6 -39.5 -13t0.5 -26q1 -3 5 -21t5.5 -29t3 -37.5t-3.5 -45.5q-20 -143 -134.5 -235t-311.5 -92q-6 0 -20 1t-19 1q-118 -3 -174.5 -27.5t-61.5 -58.5q-3 -33 37 -46.5t156 -21.5q23 -2 56 -4t81.5 -5t83.5 -5
q157 -10 224.5 -82.5t52.5 -196.5q-20 -150 -157 -233.5t-364 -83.5zM563 508q137 0 215.5 59t93.5 170q17 116 -46 179t-199 63q-134 0 -217.5 -64t-98.5 -178q-14 -110 51.5 -169.5t200.5 -59.5zM479 -252q329 0 355 207q11 78 -30.5 121.5t-148.5 50.5l-307 20
q-59 3 -133 -55t-84 -139q-15 -101 75 -153t273 -52z" />
    <glyph glyph-name="Gbreve" unicode="&#x11e;" horiz-adv-x="1443" 
d="M1171 1903q-36 -80 -115.5 -140.5t-189.5 -60.5q-111 0 -174.5 57.5t-68.5 143.5h108q1 -1 9 -16t11.5 -20.5t13.5 -19t19 -19.5t22.5 -14.5t30.5 -12t37 -3.5q42 0 79.5 18.5t57.5 37.5t44 49h116zM645 -20q-272 0 -399.5 200t-81.5 555q51 361 236 563.5t454 202.5
q191 0 323.5 -124t129.5 -292l-142 -22q-6 136 -96.5 225.5t-230.5 89.5q-212 0 -354 -166t-183 -467q-42 -316 55.5 -480.5t311.5 -164.5q96 0 179.5 38t138.5 99t90 129t46 136l25 153h-371l15 103l499 -2l-102 -756h-105l31 244q-78 -118 -196 -191t-273 -73z" />
    <glyph glyph-name="gbreve" unicode="&#x11f;" horiz-adv-x="1187" 
d="M969 1479q-36 -80 -115.5 -140.5t-189.5 -60.5q-111 0 -176 57.5t-68 143.5h106l14 -23q13 -23 20.5 -30.5t24.5 -23.5t38.5 -22t48.5 -6q42 0 79 19t55.5 37t43.5 49h119zM442 -350q-232 0 -346.5 77t-93.5 212q18 139 205 233q28 13 4 23q-74 41 -66 110q8 47 55 86
t128 60q-90 53 -123 120.5t-19 165.5q20 158 145.5 247t319.5 89q176 0 267 -88q2 -2 5.5 -3.5t6 -1.5t6.5 1t6.5 2t8 3t7.5 3q72 32 224 92l-21 -143q-71 -13 -139 -27q-33 -6 -39.5 -13t0.5 -26q1 -3 5 -21t5.5 -29t3 -37.5t-3.5 -45.5q-20 -143 -134.5 -235t-311.5 -92
q-6 0 -20 1t-19 1q-118 -3 -174.5 -27.5t-61.5 -58.5q-3 -33 37 -46.5t156 -21.5q23 -2 56 -4t81.5 -5t83.5 -5q157 -10 224.5 -82.5t52.5 -196.5q-20 -150 -157 -233.5t-364 -83.5zM563 508q137 0 215.5 59t93.5 170q17 116 -46 179t-199 63q-134 0 -217.5 -64t-98.5 -178
q-14 -110 51.5 -169.5t200.5 -59.5zM479 -252q329 0 355 207q11 78 -30.5 121.5t-148.5 50.5l-307 20q-59 3 -133 -55t-84 -139q-15 -101 75 -153t273 -52z" />
    <glyph glyph-name="Gdotaccent" unicode="&#x120;" horiz-adv-x="1443" 
d="M975 1905l-27 -219h-143l29 219h141zM645 -20q-272 0 -399.5 200t-81.5 555q51 361 236 563.5t454 202.5q191 0 323.5 -124t129.5 -292l-142 -22q-6 136 -96.5 225.5t-230.5 89.5q-212 0 -354 -166t-183 -467q-42 -316 55.5 -480.5t311.5 -164.5q96 0 179.5 38t138.5 99
t90 129t46 136l25 153h-371l15 103l499 -2l-102 -756h-105l31 244q-78 -118 -196 -191t-273 -73z" />
    <glyph glyph-name="gdotaccent" unicode="&#x121;" horiz-adv-x="1187" 
d="M772 1481l-29 -219h-143l31 219h141zM442 -350q-232 0 -346.5 77t-93.5 212q18 139 205 233q28 13 4 23q-74 41 -66 110q8 47 55 86t128 60q-90 53 -123 120.5t-19 165.5q20 158 145.5 247t319.5 89q176 0 267 -88q2 -2 5.5 -3.5t6 -1.5t6.5 1t6.5 2t8 3t7.5 3
q72 32 224 92l-21 -143q-71 -13 -139 -27q-33 -6 -39.5 -13t0.5 -26q1 -3 5 -21t5.5 -29t3 -37.5t-3.5 -45.5q-20 -143 -134.5 -235t-311.5 -92q-6 0 -20 1t-19 1q-118 -3 -174.5 -27.5t-61.5 -58.5q-3 -33 37 -46.5t156 -21.5q23 -2 56 -4t81.5 -5t83.5 -5
q157 -10 224.5 -82.5t52.5 -196.5q-20 -150 -157 -233.5t-364 -83.5zM563 508q137 0 215.5 59t93.5 170q17 116 -46 179t-199 63q-134 0 -217.5 -64t-98.5 -178q-14 -110 51.5 -169.5t200.5 -59.5zM479 -252q329 0 355 207q11 78 -30.5 121.5t-148.5 50.5l-307 20
q-59 3 -133 -55t-84 -139q-15 -101 75 -153t273 -52z" />
    <glyph glyph-name="uni0122" unicode="&#x122;" horiz-adv-x="1443" 
d="M645 -20q-272 0 -399.5 200t-81.5 555q51 361 236 563.5t454 202.5q191 0 323.5 -124t129.5 -292l-142 -22q-6 136 -96.5 225.5t-230.5 89.5q-212 0 -354 -166t-183 -467q-42 -316 55.5 -480.5t311.5 -164.5q96 0 179.5 38t138.5 99t90 129t46 136l25 153h-371l15 103
l499 -2l-102 -756h-105l31 244q-78 -118 -196 -191t-273 -73zM516 -475l92 149h-59l24 172h132l-23 -178l-102 -143h-64z" />
    <glyph glyph-name="uni0123" unicode="&#x123;" horiz-adv-x="1187" 
d="M659 1251l25 179l100 143h64l-94 -150h61l-22 -172h-134zM442 -350q-232 0 -346.5 77t-93.5 212q18 139 205 233q28 13 4 23q-74 41 -66 110q8 47 55 86t128 60q-90 53 -123 120.5t-19 165.5q20 158 145.5 247t319.5 89q176 0 267 -88q2 -2 5.5 -3.5t6 -1.5t6.5 1t6.5 2
t8 3t7.5 3q72 32 224 92l-21 -143q-71 -13 -139 -27q-33 -6 -39.5 -13t0.5 -26q1 -3 5 -21t5.5 -29t3 -37.5t-3.5 -45.5q-20 -143 -134.5 -235t-311.5 -92q-6 0 -20 1t-19 1q-118 -3 -174.5 -27.5t-61.5 -58.5q-3 -33 37 -46.5t156 -21.5q23 -2 56 -4t81.5 -5t83.5 -5
q157 -10 224.5 -82.5t52.5 -196.5q-20 -150 -157 -233.5t-364 -83.5zM563 508q137 0 215.5 59t93.5 170q17 116 -46 179t-199 63q-134 0 -217.5 -64t-98.5 -178q-14 -110 51.5 -169.5t200.5 -59.5zM479 -252q329 0 355 207q11 78 -30.5 121.5t-148.5 50.5l-307 20
q-59 3 -133 -55t-84 -139q-15 -101 75 -153t273 -52z" />
    <glyph glyph-name="Hcircumflex" unicode="&#x124;" horiz-adv-x="1402" 
d="M1001 1694l-124 129l-168 -129h-146l268 215h95l209 -215h-134zM1090 709h-723l-97 -709h-127l199 1481h127l-88 -652h725l88 652h127l-201 -1481h-125z" />
    <glyph glyph-name="hcircumflex" unicode="&#x125;" horiz-adv-x="1142" 
d="M106 0l205 1520h119l-84 -629q124 99 214 142.5t188 43.5q150 0 218.5 -80.5t49.5 -218.5l-105 -778h-127l101 743q15 108 -30 167t-153 59q-88 0 -163.5 -38t-198.5 -132l-107 -799h-127zM920 1270l-123 129l-168 -129h-146l269 215h92l211 -215h-135z" />
    <glyph glyph-name="Hbar" unicode="&#x126;" horiz-adv-x="1392" 
d="M1477 1245l-13 -98h-258l-153 -1147h-127l94 709h-723l-96 -709h-127l153 1147h-125l11 98h129l30 236h127l-30 -236h725l30 236h127l-30 -236h256zM1038 829l41 318h-725l-41 -318h725z" />
    <glyph glyph-name="hbar" unicode="&#x127;" horiz-adv-x="1073" 
d="M680 1077q149 0 218 -80.5t48 -218.5l-104 -778h-125l98 743q15 108 -29.5 167t-152.5 59q-88 0 -164 -38t-199 -132l-104 -799h-129l166 1237h-62l11 92h63l27 191h120l-24 -191h393l-14 -92h-391l-47 -346q124 100 213 143t188 43z" />
    <glyph glyph-name="Itilde" unicode="&#x128;" horiz-adv-x="532" 
d="M727 1790q-65 -43 -158 -43q-54 0 -120 24.5t-103 24.5q-31 0 -55.5 -9t-46.5 -23.5t-35 -18.5l-25 86q78 55 154 55q47 0 120 -25.5t113 -25.5q27 0 49.5 7.5t48 21.5t40.5 20zM338 1481h125l-197 -1481h-127z" />
    <glyph glyph-name="itilde" unicode="&#x129;" horiz-adv-x="477" 
d="M633 1366q-62 -43 -158 -43q-54 0 -120 24.5t-103 24.5q-31 0 -55.5 -9t-46.5 -23.5t-35 -18.5l-25 86q78 55 154 55q47 0 120 -25.5t113 -25.5q27 0 49.5 7.5t47.5 21.5t40 20zM379 1057l-146 -1057h-127l144 1057h129z" />
    <glyph glyph-name="Imacron" unicode="&#x12a;" horiz-adv-x="530" 
d="M727 1870l-14 -103h-531l13 103h532zM338 1481h127l-199 -1481h-127z" />
    <glyph glyph-name="imacron" unicode="&#x12b;" horiz-adv-x="473" 
d="M631 1446l-15 -103h-530l12 103h533zM377 1057l-146 -1057h-127l144 1057h129z" />
    <glyph glyph-name="Ibreve" unicode="&#x12c;" horiz-adv-x="555" 
d="M739 1903q-34 -79 -114.5 -140t-190.5 -61q-111 0 -174.5 57.5t-66.5 143.5h106q2 -3 13.5 -23.5t19.5 -29.5t24 -24t37.5 -21.5t48.5 -6.5q33 0 61 9t51 27.5t37 32.5t32 36h116zM344 1481h127l-199 -1481h-125z" />
    <glyph glyph-name="ibreve" unicode="&#x12d;" horiz-adv-x="475" 
d="M647 1479q-34 -79 -114.5 -140t-190.5 -61q-111 0 -175 57.5t-67 143.5h107q2 -3 13.5 -23.5t19.5 -29.5t24 -24t37.5 -21.5t48.5 -6.5q43 0 80.5 19t56 37t43.5 49h117zM387 1057l-145 -1057h-127l143 1057h129z" />
    <glyph glyph-name="Iogonek" unicode="&#x12e;" horiz-adv-x="534" 
d="M33 -186q-5 -38 15.5 -57t70.5 -19q76 0 149 41l-12 -92q-86 -31 -168 -31q-93 0 -136 45t-34 121q10 62 56 106.5t151 79.5l197 1473h124l-198 -1481h-15l11 -2q-105 -46 -154.5 -87.5t-56.5 -96.5z" />
    <glyph glyph-name="iogonek" unicode="&#x12f;" horiz-adv-x="479" 
d="M289 1481h141l-27 -219h-145zM207 0q-100 -44 -147.5 -85t-53.5 -95q-6 -37 14 -55.5t72 -18.5q62 0 150 39l-13 -90q-76 -31 -170 -31q-93 0 -136 45t-32 121q10 61 55.5 105t147.5 79l142 1043h129l-144 -1057h-14z" />
    <glyph glyph-name="Idotaccent" unicode="&#x130;" horiz-adv-x="552" 
d="M543 1905l-29 -219h-143l30 219h142zM342 1481h127l-199 -1481h-127z" />
    <glyph glyph-name="dotlessi" unicode="&#x131;" horiz-adv-x="493" 
d="M383 1057l-143 -1057h-127l143 1057h127z" />
    <glyph glyph-name="Jcircumflex" unicode="&#x134;" horiz-adv-x="716" 
d="M762 1694l-123 129l-170 -129h-143l268 215h92l209 -215h-133zM510 315q-11 -83 -31.5 -142t-56.5 -104t-92.5 -67t-134.5 -22q-69 0 -128.5 18.5t-86.5 34.5l36 131q5 -3 28.5 -15.5t38.5 -19t43.5 -13.5t59.5 -7q95 0 140.5 55t62.5 192l152 1125h127z" />
    <glyph glyph-name="jcircumflex" unicode="&#x135;" horiz-adv-x="432" 
d="M459 1270l-125 129l-168 -129h-143l266 215h94l209 -215h-133zM207 -82q-21 -139 -81 -198.5t-196 -59.5q-49 0 -81.5 5t-40.5 11l-7 5l15 88l110 4q73 3 108.5 41.5t47.5 122.5l151 1120h127z" />
    <glyph glyph-name="uni0136" unicode="&#x136;" horiz-adv-x="1318" 
d="M1171 0h-151l-369 797l-309 -316l-66 -481h-133l199 1481h131l-106 -813l804 813h164l-575 -584zM461 -475l94 149h-61l24 172h131l-22 -178l-101 -143h-65z" />
    <glyph glyph-name="uni0137" unicode="&#x137;" horiz-adv-x="1105" 
d="M952 0h-141l-264 578l-273 -259l-41 -319h-127l205 1520h125l-139 -1031l602 568h160l-414 -393zM344 -475l92 149h-59l22 172h133l-22 -178l-102 -143h-64z" />
    <glyph glyph-name="kgreenlandic" unicode="&#x138;" horiz-adv-x="1107" 
d="M954 0h-145l-252 578l-287 -265l-41 -313h-129l146 1057h127l-78 -580l612 580h160l-412 -383z" />
    <glyph glyph-name="Lacute" unicode="&#x139;" horiz-adv-x="1107" 
d="M678 1929l22 -119l-497 -157l-19 76zM334 1481h133l-180 -1356h696l-16 -125h-832z" />
    <glyph glyph-name="lacute" unicode="&#x13a;" horiz-adv-x="589" 
d="M651 2011l25 -119l-498 -159l-20 77zM328 -2q-222 0 -185 270l168 1252h125l-168 -1244q-13 -89 14 -132.5t76 -45.5h62l-14 -88q-44 -12 -78 -12z" />
    <glyph glyph-name="uni013B" unicode="&#x13b;" horiz-adv-x="1114" 
d="M342 1481h133l-180 -1356h696l-16 -125h-832zM410 -475l94 149h-62l25 172h131l-23 -178l-102 -143h-63z" />
    <glyph glyph-name="uni013C" unicode="&#x13c;" horiz-adv-x="604" 
d="M324 -2q-222 0 -185 270l168 1252h125l-166 -1244q-13 -89 13.5 -132.5t76.5 -45.5h60l-15 -88q-41 -12 -77 -12zM23 -475l94 149h-62l25 172h131l-23 -178l-102 -143h-63z" />
    <glyph glyph-name="Lcaron" unicode="&#x13d;" horiz-adv-x="1114" 
d="M342 1481h133l-180 -1356h696l-16 -125h-832zM774 1108l98 178l-41 8l25 187h125l-27 -197l-94 -176h-86z" />
    <glyph glyph-name="lcaron" unicode="&#x13e;" horiz-adv-x="593" 
d="M328 -2q-222 0 -185 270l168 1252h125l-168 -1244q-13 -89 14.5 -132.5t77.5 -45.5h60l-14 -88q-44 -12 -78 -12zM485 1122l99 178l-41 9l24 186h125l-24 -197l-97 -176h-86z" />
    <glyph glyph-name="Ldot" unicode="&#x13f;" horiz-adv-x="1122" 
d="M342 1481h133l-180 -1356h696l-16 -125h-832zM1008 893l-25 -188h-190l26 188h189z" />
    <glyph glyph-name="ldot" unicode="&#x140;" horiz-adv-x="559" 
d="M328 -2q-222 0 -185 270l168 1252h125l-168 -1244q-13 -89 14.5 -132.5t77.5 -45.5h60l-14 -88q-44 -12 -78 -12zM602 682l-24 -188h-191l27 188h188z" />
    <glyph glyph-name="Lslash" unicode="&#x141;" horiz-adv-x="1046" 
d="M227 125h697l-17 -125h-831l88 657l-92 -24l16 119l92 24l94 705h134l-89 -670l400 104l-17 -114l-399 -107z" />
    <glyph glyph-name="lslash" unicode="&#x142;" horiz-adv-x="479" 
d="M303 590l-41 -314q-13 -89 13.5 -132.5t76.5 -45.5h60l-15 -88q-43 -12 -78 -12q-221 0 -184 270l29 207l-174 -141l20 139l172 139l121 908h125l-106 -793l225 182l-19 -135z" />
    <glyph glyph-name="Nacute" unicode="&#x143;" horiz-adv-x="1472" 
d="M1163 1929l23 -119l-498 -157l-20 76zM1262 1481h127l-199 -1481h-113l-639 1247l-168 -1247h-127l199 1481h117l637 -1243z" />
    <glyph glyph-name="nacute" unicode="&#x144;" horiz-adv-x="1138" 
d="M942 1505l23 -119l-496 -157l-20 76zM102 0l144 1057h121l-23 -166q126 100 212.5 143t188.5 43q148 0 218 -80.5t51 -216.5l-107 -780h-125l101 743q15 108 -32 167t-155 59q-88 0 -165.5 -39t-194.5 -131l-105 -799h-129z" />
    <glyph glyph-name="uni0145" unicode="&#x145;" horiz-adv-x="1472" 
d="M1262 1481h127l-199 -1481h-113l-639 1247l-168 -1247h-127l199 1481h117l637 -1243zM489 -475l93 149h-60l23 172h133l-23 -178l-102 -143h-64z" />
    <glyph glyph-name="uni0146" unicode="&#x146;" horiz-adv-x="1138" 
d="M102 0l144 1057h121l-23 -166q126 100 212.5 143t188.5 43q148 0 218 -80.5t51 -216.5l-107 -780h-125l101 743q15 108 -32 167t-155 59q-88 0 -165.5 -39t-194.5 -131l-105 -799h-129zM373 -475l92 149h-59l22 172h133l-22 -178l-103 -143h-63z" />
    <glyph glyph-name="Ncaron" unicode="&#x147;" horiz-adv-x="1472" 
d="M1079 1905h154l-262 -215h-94l-213 215h124l134 -129zM1262 1481h127l-199 -1481h-113l-639 1247l-168 -1247h-127l199 1481h117l637 -1243z" />
    <glyph glyph-name="ncaron" unicode="&#x148;" horiz-adv-x="1138" 
d="M860 1481h152l-262 -215h-93l-213 215h123l135 -129zM102 0l144 1057h121l-23 -166q126 100 212.5 143t188.5 43q148 0 218 -80.5t51 -216.5l-107 -780h-125l101 743q15 108 -32 167t-155 59q-88 0 -165.5 -39t-194.5 -131l-105 -799h-129z" />
    <glyph glyph-name="Eng" unicode="&#x14a;" horiz-adv-x="1476" 
d="M1393 1481l-209 -1549q-19 -140 -93.5 -211t-216.5 -71q-109 0 -188 41l25 106q86 -28 153 -28q81 0 126.5 42.5t58.5 141.5l12 90l-625 1188l-164 -1231h-131l201 1481h123l637 -1221l164 1221h127z" />
    <glyph glyph-name="eng" unicode="&#x14b;" horiz-adv-x="1155" 
d="M739 1077q147 0 220.5 -83t54.5 -218l-115 -839q-35 -277 -274 -277q-45 0 -75 4.5t-37 9.5l-7 4l14 86l103 5q69 3 104.5 43t44.5 125l109 794q33 242 -181 242q-147 0 -360 -180l-109 -793h-129l146 1057h119l-21 -152q127 98 214 135t179 37z" />
    <glyph glyph-name="Omacron" unicode="&#x14c;" horiz-adv-x="1460" 
d="M1161 1870l-14 -103h-531l13 103h532zM657 -20q-281 0 -410.5 195.5t-82.5 557.5q51 367 235.5 567.5t462.5 200.5t409.5 -199.5t82.5 -564.5q-51 -363 -234.5 -560t-462.5 -197zM676 100q222 0 358.5 158t177.5 479q44 323 -50 483t-314 160q-221 0 -360 -161t-183 -482
q-42 -319 53.5 -478t317.5 -159z" />
    <glyph glyph-name="omacron" unicode="&#x14d;" horiz-adv-x="1112" 
d="M958 1446l-14 -103h-530l12 103h532zM479 -20q-211 0 -310 148.5t-65 393.5q33 249 176 402t353 153q209 0 308 -152t65 -399q-31 -246 -173.5 -396t-353.5 -150zM500 82q156 0 253.5 123t123.5 323q29 201 -38 324t-223 123q-157 0 -255.5 -123.5t-124.5 -323.5
q-19 -129 2.5 -228.5t88.5 -158.5t173 -59z" />
    <glyph glyph-name="Obreve" unicode="&#x14e;" horiz-adv-x="1460" 
d="M1167 1903q-34 -79 -114 -140t-189 -61q-111 0 -175.5 57.5t-67.5 143.5h106q1 -2 13.5 -23.5t20.5 -30t24 -23.5t37 -21.5t48 -6.5q33 0 61 9t51 27.5t37 32.5t32 36h116zM657 -20q-281 0 -410.5 195.5t-82.5 557.5q51 367 235.5 567.5t462.5 200.5t409.5 -199.5
t82.5 -564.5q-51 -363 -234.5 -560t-462.5 -197zM676 100q222 0 358.5 158t177.5 479q44 323 -50 483t-314 160q-221 0 -360 -161t-183 -482q-42 -319 53.5 -478t317.5 -159z" />
    <glyph glyph-name="obreve" unicode="&#x14f;" horiz-adv-x="1112" 
d="M967 1479q-36 -79 -116.5 -140t-188.5 -61q-111 0 -176 57.5t-68 143.5h106q3 -4 12 -19.5t15 -24t18.5 -22t25 -20.5t32 -13t41.5 -6q43 0 80.5 19t56 37t43.5 49h119zM479 -20q-211 0 -310 148.5t-65 393.5q33 249 176 402t353 153q209 0 308 -152t65 -399
q-31 -246 -173.5 -396t-353.5 -150zM500 82q156 0 253.5 123t123.5 323q29 201 -38 324t-223 123q-157 0 -255.5 -123.5t-124.5 -323.5q-19 -129 2.5 -228.5t88.5 -158.5t173 -59z" />
    <glyph glyph-name="Ohungarumlaut" unicode="&#x150;" horiz-adv-x="1460" 
d="M920 1929l67 -100l-309 -252l-45 70zM1214 1929l66 -100l-307 -252l-47 70zM657 -20q-281 0 -410.5 195.5t-82.5 557.5q51 367 235.5 567.5t462.5 200.5t409.5 -199.5t82.5 -564.5q-51 -363 -234.5 -560t-462.5 -197zM676 100q222 0 358.5 158t177.5 479q44 323 -50 483
t-314 160q-221 0 -360 -161t-183 -482q-42 -319 53.5 -478t317.5 -159z" />
    <glyph glyph-name="ohungarumlaut" unicode="&#x151;" horiz-adv-x="1112" 
d="M717 1505l67 -100l-309 -252l-45 70zM1012 1505l65 -100l-307 -252l-47 70zM479 -20q-211 0 -310 148.5t-65 393.5q33 249 176 402t353 153q209 0 308 -152t65 -399q-31 -246 -173.5 -396t-353.5 -150zM500 82q156 0 253.5 123t123.5 323q29 201 -38 324t-223 123
q-157 0 -255.5 -123.5t-124.5 -323.5q-19 -129 2.5 -228.5t88.5 -158.5t173 -59z" />
    <glyph glyph-name="OE" unicode="&#x152;" horiz-adv-x="2199" 
d="M1999 119l-12 -119h-857l19 233q-173 -253 -483 -253q-286 0 -418.5 197.5t-83.5 563.5q51 364 234 562t464 198q155 0 261 -66t157 -194l45 240h832l-19 -119h-708l-74 -555h540l-18 -119h-539l-73 -569h733zM670 98q442 0 526 643q43 325 -42.5 483t-301.5 158
q-223 0 -359 -163.5t-180 -489.5q-41 -319 48.5 -475t308.5 -156z" />
    <glyph glyph-name="oe" unicode="&#x153;" horiz-adv-x="1974" 
d="M510 -20q-217 0 -328.5 151t-77.5 397q34 247 184 398t361 151q135 0 229.5 -67t131.5 -185q17 -20 32 11q71 113 181 177t237 64q213 0 315 -154t68 -425h-794q-20 -171 65.5 -291.5t224.5 -120.5q214 0 349 190l96 -61q-173 -235 -457 -235q-130 0 -226 64t-136 177
q-15 27 -37 -18q-74 -107 -182 -165t-236 -58zM1462 975q-149 0 -261 -108.5t-132 -274.5h662q19 160 -56.5 271.5t-212.5 111.5zM516 86q160 0 271 122t139 327q28 199 -49 318.5t-230 119.5q-160 0 -272.5 -124t-138.5 -329q-28 -200 47.5 -317t232.5 -117z" />
    <glyph glyph-name="Racute" unicode="&#x154;" horiz-adv-x="1329" 
d="M1051 1929l22 -119l-498 -157l-18 76zM1112 0h-137l-184 674h-431l-90 -674h-127l199 1481h524q218 0 319.5 -99t76.5 -284q-11 -88 -45.5 -159t-85 -117t-102 -75t-109.5 -47zM711 791q378 0 417 292q18 142 -55 211.5t-231 69.5h-389l-76 -573h334z" />
    <glyph glyph-name="racute" unicode="&#x155;" horiz-adv-x="751" 
d="M762 1505l22 -119l-497 -157l-21 76zM104 0l144 1057h119l-29 -205q67 96 186 160.5t224 64.5l-17 -127q-92 4 -185 -37.5t-155 -108t-72 -134.5l-86 -670h-129z" />
    <glyph glyph-name="uni0156" unicode="&#x156;" horiz-adv-x="1329" 
d="M1112 0h-137l-184 674h-431l-90 -674h-127l199 1481h524q218 0 319.5 -99t76.5 -284q-11 -88 -45.5 -159t-85 -117t-102 -75t-109.5 -47zM711 791q378 0 417 292q18 142 -55 211.5t-231 69.5h-389l-76 -573h334zM453 -475l94 149h-62l25 172h131l-23 -178l-102 -143h-63z
" />
    <glyph glyph-name="uni0157" unicode="&#x157;" horiz-adv-x="741" 
d="M94 0l144 1057h118l-28 -205q67 96 185.5 160.5t223.5 64.5l-16 -127q-92 4 -185 -37.5t-155 -108t-72 -134.5l-88 -670h-127zM27 -475l92 149h-60l23 172h133l-22 -178l-103 -143h-63z" />
    <glyph glyph-name="Rcaron" unicode="&#x158;" horiz-adv-x="1329" 
d="M969 1905h151l-262 -215h-94l-213 215h125l133 -129zM1112 0h-137l-184 674h-431l-90 -674h-127l199 1481h524q218 0 319.5 -99t76.5 -284q-11 -88 -45.5 -159t-85 -117t-102 -75t-109.5 -47zM711 791q378 0 417 292q18 142 -55 211.5t-231 69.5h-389l-76 -573h334z" />
    <glyph glyph-name="rcaron" unicode="&#x159;" horiz-adv-x="745" 
d="M672 1481h151l-262 -215h-94l-213 215h125l133 -129zM96 0l144 1057h118l-28 -205q67 96 185.5 160.5t223.5 64.5l-16 -127q-92 4 -185 -37.5t-155 -108t-72 -134.5l-88 -670h-127z" />
    <glyph glyph-name="Sacute" unicode="&#x15a;" horiz-adv-x="1286" 
d="M1049 1929l22 -119l-498 -157l-20 76zM571 -20q-347 0 -475 274l113 72q47 -80 90.5 -124.5t113.5 -71t171 -26.5q359 0 393 263q13 87 -28 151.5t-167 118.5l-278 108q-266 104 -234 353q25 186 167.5 294.5t353.5 108.5q275 0 421 -217l-108 -80q-110 174 -332 174
q-151 0 -250 -71t-116 -199q-19 -170 188 -252l260 -96q158 -60 219.5 -153.5t42.5 -227.5q-25 -188 -170.5 -293.5t-374.5 -105.5z" />
    <glyph glyph-name="sacute" unicode="&#x15b;" horiz-adv-x="1052" 
d="M918 1505l22 -119l-498 -157l-18 76zM453 -20q-146 0 -253 66.5t-143 172.5l101 55q38 -89 117.5 -139.5t193.5 -50.5q102 0 197.5 57t105.5 129q9 62 -30.5 106.5t-143.5 78.5l-182 57q-134 42 -188 105t-42 151q17 138 135.5 223.5t286.5 85.5q129 0 221.5 -52
t135.5 -146l-97 -58q-34 72 -106 112t-172 40q-106 0 -188 -55t-93 -130q-7 -52 24 -90t132 -73l233 -80q221 -71 201 -262q-20 -133 -146.5 -218t-299.5 -85z" />
    <glyph glyph-name="Scircumflex" unicode="&#x15c;" horiz-adv-x="1286" 
d="M944 1694l-125 129l-168 -129h-143l266 215h94l209 -215h-133zM571 -20q-347 0 -475 274l113 72q47 -80 90.5 -124.5t113.5 -71t171 -26.5q359 0 393 263q13 87 -28 151.5t-167 118.5l-278 108q-266 104 -234 353q25 186 167.5 294.5t353.5 108.5q275 0 421 -217
l-108 -80q-110 174 -332 174q-151 0 -250 -71t-116 -199q-19 -170 188 -252l260 -96q158 -60 219.5 -153.5t42.5 -227.5q-25 -188 -170.5 -293.5t-374.5 -105.5z" />
    <glyph glyph-name="scircumflex" unicode="&#x15d;" horiz-adv-x="1052" 
d="M817 1270l-125 129l-168 -129h-145l268 215h94l209 -215h-133zM453 -20q-146 0 -253 66.5t-143 172.5l101 55q38 -89 117.5 -139.5t193.5 -50.5q102 0 197.5 57t105.5 129q9 62 -30.5 106.5t-143.5 78.5l-182 57q-134 42 -188 105t-42 151q17 138 135.5 223.5t286.5 85.5
q129 0 221.5 -52t135.5 -146l-97 -58q-34 72 -106 112t-172 40q-106 0 -188 -55t-93 -130q-7 -52 24 -90t132 -73l233 -80q221 -71 201 -262q-20 -133 -146.5 -218t-299.5 -85z" />
    <glyph glyph-name="Scedilla" unicode="&#x15e;" horiz-adv-x="1286" 
d="M854 760q158 -60 219.5 -153.5t42.5 -227.5q-25 -183 -163.5 -288t-358.5 -111l-47 -95q86 -6 118 -48.5t25 -104.5q-10 -69 -71 -107.5t-146 -38.5q-98 0 -164 60l33 51q44 -41 117 -41q116 0 129 88q6 43 -26.5 63t-108.5 23q-10 0 -14.5 4.5t-2.5 9.5l76 138
q-300 21 -416 272l113 72q47 -80 90.5 -124.5t113.5 -71t171 -26.5q359 0 393 263q13 87 -28 151.5t-167 118.5l-278 108q-266 104 -234 353q25 186 167.5 294.5t353.5 108.5q275 0 421 -217l-108 -80q-110 174 -332 174q-151 0 -250 -71t-116 -199q-19 -170 188 -252z" />
    <glyph glyph-name="scedilla" unicode="&#x15f;" horiz-adv-x="1052" 
d="M698 545q221 -71 201 -262q-20 -133 -146.5 -218t-299.5 -85h-27l-49 -99q85 -6 117.5 -49t23.5 -104q-10 -69 -71 -107.5t-144 -38.5q-100 0 -166 60l33 51q44 -41 117 -41q116 0 129 88q6 44 -25.5 63.5t-109.5 22.5q-10 0 -13.5 4.5t-1.5 9.5l82 150q-108 22 -185 83
t-106 146l101 55q38 -89 117.5 -139.5t193.5 -50.5q102 0 197.5 57t105.5 129q9 62 -30.5 106.5t-143.5 78.5l-182 57q-134 42 -188 105t-42 151q17 138 135.5 223.5t286.5 85.5q129 0 221.5 -52t135.5 -146l-97 -58q-34 72 -106 112t-172 40q-106 0 -188 -55t-93 -130
q-7 -52 24 -90t132 -73z" />
    <glyph glyph-name="Scaron" unicode="&#x160;" horiz-adv-x="1286" 
d="M965 1905h153l-264 -215h-92l-213 215h125l133 -129zM571 -20q-347 0 -475 274l113 72q47 -80 90.5 -124.5t113.5 -71t171 -26.5q359 0 393 263q13 87 -28 151.5t-167 118.5l-278 108q-266 104 -234 353q25 186 167.5 294.5t353.5 108.5q275 0 421 -217l-108 -80
q-110 174 -332 174q-151 0 -250 -71t-116 -199q-19 -170 188 -252l260 -96q158 -60 219.5 -153.5t42.5 -227.5q-25 -188 -170.5 -293.5t-374.5 -105.5z" />
    <glyph glyph-name="scaron" unicode="&#x161;" horiz-adv-x="1052" 
d="M836 1481h151l-262 -215h-94l-213 215h125l133 -129zM453 -20q-146 0 -253 66.5t-143 172.5l101 55q38 -89 117.5 -139.5t193.5 -50.5q102 0 197.5 57t105.5 129q9 62 -30.5 106.5t-143.5 78.5l-182 57q-134 42 -188 105t-42 151q17 138 135.5 223.5t286.5 85.5
q129 0 221.5 -52t135.5 -146l-97 -58q-34 72 -106 112t-172 40q-106 0 -188 -55t-93 -130q-7 -52 24 -90t132 -73l233 -80q221 -71 201 -262q-20 -133 -146.5 -218t-299.5 -85z" />
    <glyph glyph-name="uni0162" unicode="&#x162;" horiz-adv-x="1103" 
d="M166 1481h1038l-16 -125h-438l-183 -1356h-18l-57 -115q86 -6 118 -48.5t25 -104.5q-10 -69 -71 -107.5t-146 -38.5q-98 0 -164 60l33 51q44 -41 116 -41q116 0 129 88q6 43 -26.5 63t-108.5 23q-10 0 -14 4.5t-2 9.5l86 156h-27l183 1356h-476z" />
    <glyph glyph-name="uni0163" unicode="&#x163;" horiz-adv-x="780" 
d="M500 956l-92 -698q-11 -94 10 -127t78 -33h147l-14 -88q-35 -12 -133 -12l-58 -113q86 -6 118.5 -48.5t25.5 -104.5q-10 -69 -71 -107.5t-146 -38.5q-98 0 -164 60l32 51q44 -41 117 -41q116 0 129 88q6 43 -26.5 63t-108.5 23q-10 0 -14 4.5t-2 9.5l88 158
q-92 13 -122.5 71.5t-14.5 172.5l96 710h-197l15 101h196l60 356h112l-47 -356h248l-14 -101h-248z" />
    <glyph glyph-name="Tcaron" unicode="&#x164;" horiz-adv-x="1103" 
d="M901 1905h152l-262 -215h-95l-213 215h125l133 -129zM147 1356l19 125h1038l-16 -125h-438l-183 -1356h-127l183 1356h-476z" />
    <glyph glyph-name="tcaron" unicode="&#x165;" horiz-adv-x="761" 
d="M688 1153l98 180l-41 8l25 185h125l-25 -197l-96 -176h-86zM748 956h-248l-92 -698q-11 -94 10 -127t78 -33h147l-14 -88q-41 -12 -150 -12q-131 0 -174.5 58t-25.5 190l96 710h-197l15 101h196l60 356h112l-47 -356h248z" />
    <glyph glyph-name="Tbar" unicode="&#x166;" horiz-adv-x="1103" 
d="M1188 1356h-438l-74 -547h360l-14 -115h-360l-95 -694h-127l95 694h-234l14 115h234l74 547h-476l19 125h1038z" />
    <glyph glyph-name="tbar" unicode="&#x167;" horiz-adv-x="743" 
d="M735 956h-246l-43 -321h156l-14 -90h-154l-39 -287q-11 -94 10 -127t78 -33h148l-15 -88q-38 -12 -149 -12q-131 0 -174.5 58.5t-24.5 189.5l39 299h-201l13 90h200l43 321h-196l14 101h197l61 356h113l-47 -356h246z" />
    <glyph glyph-name="Utilde" unicode="&#x168;" horiz-adv-x="1404" 
d="M1155 1790q-65 -43 -160 -43q-54 0 -120 24.5t-103 24.5q-31 0 -55.5 -9t-46.5 -23.5t-35 -18.5l-25 86q78 55 154 55q47 0 120.5 -25.5t114.5 -25.5q26 0 48 7.5t47.5 21.5t40.5 20zM1194 483q-34 -251 -171.5 -377t-389.5 -126q-255 0 -355.5 130t-64.5 398l129 973
h133l-133 -1004q-53 -379 307 -379q368 0 420 379l133 1004h127z" />
    <glyph glyph-name="utilde" unicode="&#x169;" horiz-adv-x="1138" 
d="M946 1366q-65 -43 -158 -43q-54 0 -120 24.5t-103 24.5q-31 0 -56 -9t-47.5 -23.5t-33.5 -18.5l-25 86q78 55 152 55q49 0 123 -25.5t113 -25.5q27 0 49 7.5t47 21.5t39 20zM416 -18q-148 3 -221 84.5t-54 216.5l105 778h125l-101 -744q-29 -229 187 -229
q89 0 163.5 38.5t196.5 133.5l107 801h127l-144 -1059h-104l12 162q-129 -98 -216 -140.5t-183 -41.5z" />
    <glyph glyph-name="Umacron" unicode="&#x16a;" horiz-adv-x="1404" 
d="M1153 1870l-14 -103h-531l13 103h532zM1194 483q-34 -251 -171.5 -377t-389.5 -126q-255 0 -355.5 130t-64.5 398l129 973h133l-133 -1004q-53 -379 307 -379q368 0 420 379l133 1004h127z" />
    <glyph glyph-name="umacron" unicode="&#x16b;" horiz-adv-x="1138" 
d="M944 1446l-14 -103h-531l13 103h532zM416 -18q-148 3 -221 84.5t-54 216.5l105 778h125l-101 -744q-29 -229 187 -229q89 0 163.5 38.5t196.5 133.5l107 801h127l-144 -1059h-104l12 162q-129 -98 -216 -140.5t-183 -41.5z" />
    <glyph glyph-name="Ubreve" unicode="&#x16c;" horiz-adv-x="1404" 
d="M1161 1903q-36 -79 -116.5 -140t-188.5 -61q-111 0 -176 57.5t-68 143.5h107q1 -2 13.5 -23.5t20.5 -30t24 -23.5t37 -21.5t48 -6.5q43 0 80.5 19t56 37t43.5 49h119zM1194 483q-34 -251 -171.5 -377t-389.5 -126q-255 0 -355.5 130t-64.5 398l129 973h133l-133 -1004
q-53 -379 307 -379q368 0 420 379l133 1004h127z" />
    <glyph glyph-name="ubreve" unicode="&#x16d;" horiz-adv-x="1138" 
d="M952 1479q-36 -79 -116.5 -140t-188.5 -61q-111 0 -176 57.5t-68 143.5h107q1 -2 13.5 -23.5t20.5 -30t24 -23.5t37 -21.5t48 -6.5q33 0 61 9t51 27.5t37 32.5t32 36h118zM416 -18q-148 3 -221 84.5t-54 216.5l105 778h125l-101 -744q-29 -229 187 -229q89 0 163.5 38.5
t196.5 133.5l107 801h127l-144 -1059h-104l12 162q-129 -98 -216 -140.5t-183 -41.5z" />
    <glyph glyph-name="Uring" unicode="&#x16e;" horiz-adv-x="1404" 
d="M1077 1812q-12 -85 -74.5 -140.5t-144.5 -55.5q-85 0 -134.5 61.5t-37.5 153.5q10 79 74 133.5t141 54.5q85 0 135.5 -59.5t40.5 -147.5zM987 1825q7 47 -18 76.5t-70 29.5q-46 0 -85.5 -34.5t-45.5 -86.5q-5 -41 22.5 -73.5t67.5 -32.5q48 0 85.5 36t43.5 85zM1194 483
q-34 -251 -171.5 -377t-389.5 -126q-255 0 -355.5 130t-64.5 398l129 973h133l-133 -1004q-53 -379 307 -379q368 0 420 379l133 1004h127z" />
    <glyph glyph-name="uring" unicode="&#x16f;" horiz-adv-x="1138" 
d="M870 1389q-12 -85 -74.5 -141t-144.5 -56q-85 0 -134.5 61.5t-37.5 153.5q10 79 74 133.5t141 54.5q85 0 135.5 -59t40.5 -147zM780 1401q7 47 -18 76.5t-70 29.5q-46 0 -85.5 -34.5t-45.5 -86.5q-5 -41 22.5 -73.5t67.5 -32.5q48 0 85.5 36t43.5 85zM416 -18
q-148 3 -221 84.5t-54 216.5l105 778h125l-101 -744q-29 -229 187 -229q89 0 163.5 38.5t196.5 133.5l107 801h127l-144 -1059h-104l12 162q-129 -98 -216 -140.5t-183 -41.5z" />
    <glyph glyph-name="Uhungarumlaut" unicode="&#x170;" horiz-adv-x="1404" 
d="M911 1929l68 -100l-309 -252l-47 70zM1206 1929l66 -100l-309 -252l-45 70zM1194 483q-34 -251 -171.5 -377t-389.5 -126q-255 0 -355.5 130t-64.5 398l129 973h133l-133 -1004q-53 -379 307 -379q368 0 420 379l133 1004h127z" />
    <glyph glyph-name="uhungarumlaut" unicode="&#x171;" horiz-adv-x="1138" 
d="M702 1505l68 -100l-309 -252l-45 70zM997 1505l66 -100l-307 -252l-47 70zM416 -18q-148 3 -221 84.5t-54 216.5l105 778h125l-101 -744q-29 -229 187 -229q89 0 163.5 38.5t196.5 133.5l107 801h127l-144 -1059h-104l12 162q-129 -98 -216 -140.5t-183 -41.5z" />
    <glyph glyph-name="Uogonek" unicode="&#x172;" horiz-adv-x="1404" 
d="M1202 1481h127l-135 -998q-59 -428 -420 -491q-98 -42 -143 -82t-51 -94q-6 -39 14 -57.5t72 -18.5q70 0 149 41l-12 -92q-76 -31 -170 -31q-93 0 -136 45t-32 121q8 50 38 87.5t93 68.5q-233 9 -325 139.5t-58 388.5l129 973h133l-133 -1004q-53 -379 307 -379
q368 0 420 379z" />
    <glyph glyph-name="uogonek" unicode="&#x173;" horiz-adv-x="1140" 
d="M686 -182q-5 -38 15.5 -57t70.5 -19q73 0 152 41l-15 -92q-86 -31 -168 -31q-93 0 -136 45t-32 121q8 65 59.5 111t170.5 83h2l10 144q-129 -98 -216 -140.5t-183 -41.5q-148 3 -221 84.5t-54 216.5l105 778h125l-101 -744q-29 -229 187 -229q89 0 163.5 38.5
t196.5 133.5l107 801h127l-144 -1059h-10q-105 -46 -154.5 -87.5t-56.5 -96.5z" />
    <glyph glyph-name="Wcircumflex" unicode="&#x174;" horiz-adv-x="1863" 
d="M1243 1694l-125 129l-168 -129h-145l268 215h94l209 -215h-133zM1942 1481l-609 -1481h-137l-166 1245l-506 -1245h-133l-203 1481h131l168 -1288l521 1288h108l174 -1288l520 1288h132z" />
    <glyph glyph-name="wcircumflex" unicode="&#x175;" horiz-adv-x="1566" 
d="M1034 1270l-125 129l-168 -129h-145l268 215h94l209 -215h-133zM1556 1057l-444 -1057h-133l-148 858l-360 -858h-139l-174 1057h129l141 -897l379 897h108l152 -895l373 895h116z" />
    <glyph glyph-name="Ycircumflex" unicode="&#x176;" horiz-adv-x="1116" 
d="M864 1694l-125 129l-168 -129h-145l268 215h94l209 -215h-133zM1231 1481l-588 -848l-86 -633h-125l86 635l-366 846h133l311 -729l498 729h137z" />
    <glyph glyph-name="ycircumflex" unicode="&#x177;" horiz-adv-x="1040" 
d="M782 1270l-125 129l-168 -129h-143l266 215h95l208 -215h-133zM131 -338q-49 0 -83.5 5t-43.5 11l-10 5l12 86h109q91 -3 139.5 30t81.5 92l61 123l-256 1043h129l209 -885l445 885h123l-592 -1178q-63 -118 -142.5 -167.5t-181.5 -49.5z" />
    <glyph glyph-name="Ydieresis" unicode="&#x178;" horiz-adv-x="1116" 
d="M688 1905l-26 -211h-136l29 211h133zM940 1905l-27 -211h-133l29 211h131zM1231 1481l-588 -848l-86 -633h-125l86 635l-366 846h133l311 -729l498 729h137z" />
    <glyph glyph-name="Zacute" unicode="&#x179;" horiz-adv-x="1200" 
d="M1018 1929l22 -119l-497 -157l-21 76zM37 0l12 82l977 1280h-780l16 119h952l-8 -80l-987 -1282h811l-14 -119h-979z" />
    <glyph glyph-name="zacute" unicode="&#x17a;" horiz-adv-x="952" 
d="M850 1505l22 -119l-497 -157l-21 76zM20 0l13 94l729 867h-574l15 96h717l-13 -99l-727 -860h623l-12 -98h-771z" />
    <glyph glyph-name="Zdotaccent" unicode="&#x17b;" horiz-adv-x="1200" 
d="M872 1905l-28 -219h-144l31 219h141zM37 0l12 82l977 1280h-780l16 119h952l-8 -80l-987 -1282h811l-14 -119h-979z" />
    <glyph glyph-name="zdotaccent" unicode="&#x17c;" horiz-adv-x="952" 
d="M702 1481l-28 -219h-144l31 219h141zM20 0l13 94l729 867h-574l15 96h717l-13 -99l-727 -860h623l-12 -98h-771z" />
    <glyph glyph-name="Zcaron" unicode="&#x17d;" horiz-adv-x="1200" 
d="M936 1905h151l-262 -215h-92l-213 215h125l133 -129zM37 0l12 82l977 1280h-780l16 119h952l-8 -80l-987 -1282h811l-14 -119h-979z" />
    <glyph glyph-name="zcaron" unicode="&#x17e;" horiz-adv-x="952" 
d="M766 1481h152l-263 -215h-92l-213 215h125l133 -129zM20 0l13 94l729 867h-574l15 96h717l-13 -99l-727 -860h623l-12 -98h-771z" />
    <glyph glyph-name="uni018F" unicode="&#x18f;" horiz-adv-x="1456" 
d="M1196 772q7 53 10.5 104t0 112.5t-15.5 114.5t-38 104t-64.5 87t-99.5 58t-139 22q-85 0 -157 -24.5t-117.5 -59t-85.5 -85t-59 -87.5t-39.5 -83t-26.5 -56l-136 61q4 6 27 49t38 68.5t49.5 74t65.5 80t80.5 71t100.5 62.5t120 39.5t144 16.5q99 0 179 -24.5t135 -67
t94.5 -103t61 -127.5t31 -145t8 -152.5t-12.5 -152.5q-16 -118 -50.5 -224.5t-92.5 -203.5t-134.5 -167.5t-182 -112t-228.5 -41.5q-110 0 -196.5 29t-143 82t-95.5 126t-53.5 161t-17 188t13.5 206h1026zM1182 662l-869 -5q-11 -66 -8.5 -133t12 -129t37 -115.5t67 -93.5
t102.5 -63t143 -23q99 0 180.5 32.5t136.5 85t96.5 128t65 151.5t37.5 165z" />
    <glyph glyph-name="florin" unicode="&#x192;" horiz-adv-x="817" 
d="M741 1057l-30 -101h-262l-314 -1038q-76 -258 -307 -258h-139l26 96l111 2q72 1 114 41.5t70 132.5l309 1024h-163l34 101h160l53 174q74 250 304 250h172l-31 -101h-148q-57 0 -105.5 -44t-68.5 -115l-49 -164h264z" />
    <glyph glyph-name="Ohorn" unicode="&#x1a0;" horiz-adv-x="1390" 
d="M1135 1434q138 -83 196 -261t23 -436q-51 -363 -234.5 -560t-462.5 -197q-281 0 -410.5 195.5t-82.5 557.5q51 367 235.5 567.5t462.5 200.5q77 0 137 -14v4q101 0 150 121h117q-32 -117 -131 -178zM1212 737q44 323 -50 483t-314 160q-221 0 -360 -161t-183 -482
q-42 -319 53.5 -478t317.5 -159t358.5 158t177.5 479z" />
    <glyph glyph-name="ohorn" unicode="&#x1a1;" horiz-adv-x="1124" 
d="M887 989q78 -72 109.5 -192t9.5 -271q-31 -246 -173.5 -396t-353.5 -150t-310 148.5t-65 393.5q33 249 176 402t353 153q69 0 137 -20q61 0 94.5 33.5t55.5 87.5h116q-38 -136 -149 -189zM877 528q29 201 -38 324t-223 123q-157 0 -255.5 -123.5t-124.5 -323.5
q-19 -129 2.5 -228.5t88.5 -158.5t173 -59q156 0 253.5 123t123.5 323z" />
    <glyph glyph-name="Uhorn" unicode="&#x1af;" horiz-adv-x="1339" 
d="M1575 1614q-23 -85 -88.5 -147.5t-169.5 -69.5l-123 -914q-34 -251 -171.5 -377t-389.5 -126q-255 0 -355.5 130t-64.5 398l129 973h133l-133 -1004q-53 -379 307 -379q368 0 420 379l133 1004h105l2 12q59 0 93 33.5t56 87.5h117z" />
    <glyph glyph-name="uhorn" unicode="&#x1b0;" horiz-adv-x="1130" 
d="M1255 1176q-21 -76 -76 -135.5t-141 -75.5l-131 -963h-104l12 162q-129 -98 -216 -140.5t-183 -41.5q-148 3 -221 84.5t-54 216.5l105 778h125l-101 -744q-29 -229 187 -229q89 0 163.5 38.5t196.5 133.5l107 801h110q68 19 105 115h116z" />
    <glyph glyph-name="uni01EA" unicode="&#x1ea;" horiz-adv-x="1460" 
d="M862 1501q278 0 409.5 -199.5t82.5 -564.5q-44 -318 -193 -510.5t-377 -234.5q-98 -45 -143 -84.5t-51 -93.5q-6 -37 14 -55.5t72 -18.5q79 0 149 39l-12 -90q-76 -31 -168 -31q-94 0 -136.5 44.5t-33.5 119.5q17 105 135 160q-257 15 -374 210t-72 541
q51 367 235.5 567.5t462.5 200.5zM1212 737q44 323 -50 483t-314 160q-221 0 -360 -161t-183 -482q-42 -319 53.5 -478t317.5 -159t358.5 158t177.5 479z" />
    <glyph glyph-name="uni01EB" unicode="&#x1eb;" horiz-adv-x="1112" 
d="M633 1077q209 0 308 -152t65 -399q-25 -198 -125.5 -337.5t-253.5 -186.5l8 -2q-105 -46 -154.5 -87.5t-56.5 -96.5q-5 -38 15.5 -56t70.5 -18q79 0 149 39l-12 -92q-86 -31 -168 -31q-93 0 -136 45t-34 121q8 50 38 88t95 70q-192 13 -281.5 160t-56.5 380
q33 249 176 402t353 153zM877 528q29 201 -38 324t-223 123q-157 0 -255.5 -123.5t-124.5 -323.5q-19 -129 2.5 -228.5t88.5 -158.5t173 -59q156 0 253.5 123t123.5 323z" />
    <glyph glyph-name="Aringacute" unicode="&#x1fa;" horiz-adv-x="1284" 
d="M862 1425l273 -1425h-146l-88 446h-565l-207 -446h-133l663 1430q-39 27 -57.5 73.5t-11.5 104.5q9 74 64.5 127t127.5 61l47 127h125l-80 -141q53 -22 81.5 -74t19.5 -117q-15 -111 -113 -166zM670 1589q-4 -43 22 -74.5t66 -31.5q48 0 86.5 36t44.5 83q6 49 -17.5 78.5
t-68.5 29.5q-48 0 -87.5 -34.5t-45.5 -86.5zM385 565h500l-146 770z" />
    <glyph glyph-name="aringacute" unicode="&#x1fb;" horiz-adv-x="1114" 
d="M424 1229l-21 76l74 28q-7 40 -2 74q10 78 74 133t141 55q58 0 101.5 -29t62.5 -79l45 18l23 -119l-60 -18q-19 -78 -78.5 -127t-136.5 -49q-87 0 -137 63zM557 1386v-20l215 88q-19 51 -84 51q-46 0 -85 -34t-46 -85zM647 1280q60 0 98 51l-135 -43q16 -8 37 -8z
M631 1077q178 0 262.5 -90.5t64.5 -251.5l-98 -735h-110l12 164q-169 -184 -391 -184q-150 0 -228.5 80.5t-58.5 218.5q23 172 143.5 248.5t384.5 97.5l211 16l11 84q15 115 -46 183.5t-178 68.5q-187 0 -327 -186l-99 38q76 113 190.5 180.5t256.5 67.5zM782 344l27 207
l-174 -14q-221 -18 -314 -70t-110 -180q-15 -94 42.5 -149.5t164.5 -55.5q76 0 158 37t140 99t66 126z" />
    <glyph glyph-name="AEacute" unicode="&#x1fc;" horiz-adv-x="1964" 
d="M1739 1929l22 -119l-497 -157l-21 76zM1765 119l-16 -119h-848l62 446h-494l-301 -446h-141l1001 1481h895l-18 -119h-678l-72 -555h524l-18 -119h-524l-72 -569h700zM979 565l106 799l-546 -799h440z" />
    <glyph glyph-name="aeacute" unicode="&#x1fd;" horiz-adv-x="1851" 
d="M1249 1505l23 -119l-498 -157l-20 76zM926 496q-11 -100 23 -195t106 -156t162 -61q66 0 121 16t98 47.5t70.5 59.5t60.5 69l92 -61q-74 -109 -195 -172t-262 -63q-64 0 -119.5 16t-91.5 38t-68.5 56t-49.5 59.5t-35 59.5q-7 7 -15 -12q-35 -36 -59.5 -59t-70.5 -56.5
t-89 -53t-105 -34t-130 -14.5q-152 0 -227.5 81t-55.5 220q42 301 514 340l227 20l11 86q17 118 -43 184t-185 66q-169 0 -319 -189l-107 54q75 113 190.5 174t254.5 61q275 0 313 -213q140 213 401 213q204 0 308.5 -152.5t68.5 -426.5zM1335 977q-147 0 -258 -107
t-135 -278h666q20 160 -58 272.5t-215 112.5zM813 545l-184 -15q-387 -35 -414 -256q-12 -91 40 -143.5t159 -48.5q141 6 250 84t124 184z" />
    <glyph glyph-name="Oslashacute" unicode="&#x1fe;" horiz-adv-x="1398" 
d="M1102 1929l22 -119l-497 -157l-19 76zM55 -29l-78 86l199 201q-83 189 -41 483q49 363 230.5 561.5t457.5 198.5q268 0 398 -184l180 188l80 -86l-205 -200q86 -192 43 -488q-47 -360 -229.5 -555.5t-460.5 -195.5q-266 0 -398 180zM299 371l825 854q-88 155 -305 155
q-436 0 -530 -637q-30 -227 10 -372zM639 100q219 0 349.5 157t176.5 478q28 233 -10 371l-823 -852q87 -154 307 -154z" />
    <glyph glyph-name="oslashacute" unicode="&#x1ff;" horiz-adv-x="1120" 
d="M922 1386l-498 -157l-18 76l493 200zM1143 991l-189 -168q40 -125 19 -297q-31 -246 -173.5 -396t-353.5 -150q-190 0 -292 124l-127 -114l-58 73l135 123q-60 135 -32 336q31 249 173.5 402t352.5 153q216 0 317 -166l168 152zM201 528q-19 -147 10 -247l608 544
q-65 150 -235 150q-157 0 -257 -123.5t-126 -323.5zM844 528q15 105 2 197l-596 -535q71 -108 217 -108q155 0 252.5 122.5t124.5 323.5z" />
    <glyph glyph-name="uni0200" unicode="&#x200;" horiz-adv-x="1386" 
d="M563 1931l217 -297l-47 -53l-252 262zM856 1931l215 -297l-47 -53l-252 262zM27 0l716 1481h154l315 -1481h-131l-90 438h-618l-215 -438h-131zM426 565h543l-166 783z" />
    <glyph glyph-name="uni0201" unicode="&#x201;" horiz-adv-x="1114" 
d="M360 1507l220 -297l-48 -53l-251 262zM653 1507l217 -297l-47 -53l-254 262zM371 -20q-150 0 -228.5 80.5t-58.5 218.5q23 172 143.5 248.5t384.5 97.5l211 16l11 84q15 115 -46 183.5t-178 68.5q-187 0 -327 -186l-99 38q76 113 190.5 180.5t256.5 67.5
q178 0 262.5 -90.5t64.5 -251.5l-98 -735h-110l12 164q-169 -184 -391 -184zM418 82q76 0 158 37t140 99t66 126l27 207l-174 -14q-221 -18 -314 -70t-110 -180q-15 -94 42.5 -149.5t164.5 -55.5z" />
    <glyph glyph-name="uni0202" unicode="&#x202;" horiz-adv-x="1386" 
d="M555 1702q33 81 109 142t186 61q111 0 176 -58.5t76 -144.5h-111q-27 52 -46 71q-37 35 -97 35q-107 0 -176 -106h-117zM27 0l716 1481h154l315 -1481h-131l-90 438h-618l-215 -438h-131zM426 565h543l-166 783z" />
    <glyph glyph-name="uni0203" unicode="&#x203;" horiz-adv-x="1118" 
d="M356 1278q32 81 109.5 142t187.5 61q109 0 175 -58.5t77 -144.5h-110q-2 3 -10 17.5t-12 21t-13.5 19t-19 19.5t-22.5 14.5t-30 11t-37 3.5q-112 0 -176 -106h-119zM371 -20q-150 0 -228.5 80.5t-58.5 218.5q23 172 143.5 248.5t384.5 97.5l211 16l11 84
q15 115 -46 183.5t-178 68.5q-187 0 -327 -186l-99 38q76 113 190.5 180.5t256.5 67.5q178 0 262.5 -90.5t64.5 -251.5l-98 -735h-110l12 164q-169 -184 -391 -184zM418 82q76 0 158 37t140 99t66 126l27 207l-174 -14q-221 -18 -314 -70t-110 -180q-15 -94 42.5 -149.5
t164.5 -55.5z" />
    <glyph glyph-name="uni0204" unicode="&#x204;" horiz-adv-x="1232" 
d="M526 1931l217 -297l-47 -53l-252 262zM819 1931l215 -297l-47 -53l-252 262zM143 0l199 1481h852l-16 -123h-725l-74 -549h663l-16 -123h-664l-75 -561l749 -2l-16 -123h-877z" />
    <glyph glyph-name="uni0205" unicode="&#x205;" horiz-adv-x="1118" 
d="M377 1507l217 -297l-47 -53l-250 262zM670 1507l217 -297l-49 -53l-252 262zM240 492q-15 -113 9 -203t94.5 -146.5t180.5 -56.5q104 0 175 44t126 132l105 -37q-69 -122 -178 -183.5t-242 -61.5q-138 0 -235 63t-141 186.5t-21 290.5q35 258 175 407.5t351 149.5
q202 0 297 -137.5t61 -382.5l-10 -65h-747zM256 598h623q15 110 -6.5 193.5t-85.5 133.5t-164 50q-80 0 -147.5 -32.5t-111.5 -87t-71.5 -120t-36.5 -137.5z" />
    <glyph glyph-name="uni0206" unicode="&#x206;" horiz-adv-x="1232" 
d="M520 1702q33 81 109 142t186 61q111 0 176 -58.5t76 -144.5h-111q-27 52 -46 71q-37 35 -97 35q-107 0 -176 -106h-117zM143 0l199 1481h852l-16 -123h-725l-74 -549h663l-16 -123h-664l-75 -561l749 -2l-16 -123h-877z" />
    <glyph glyph-name="uni0207" unicode="&#x207;" horiz-adv-x="1118" 
d="M373 1278q33 81 109 142t186 61q111 0 176.5 -58.5t75.5 -144.5h-109q-2 3 -10 18t-12 21t-14 19t-19 19t-22 14t-30 11.5t-36 3.5q-110 0 -179 -106h-116zM240 492q-15 -113 9 -203t94.5 -146.5t180.5 -56.5q104 0 175 44t126 132l105 -37q-69 -122 -178 -183.5
t-242 -61.5q-138 0 -235 63t-141 186.5t-21 290.5q35 258 175 407.5t351 149.5q202 0 297 -137.5t61 -382.5l-10 -65h-747zM256 598h623q15 110 -6.5 193.5t-85.5 133.5t-164 50q-80 0 -147.5 -32.5t-111.5 -87t-71.5 -120t-36.5 -137.5z" />
    <glyph glyph-name="uni0208" unicode="&#x208;" horiz-adv-x="555" 
d="M152 1931l217 -297l-47 -53l-252 262zM442 1931l217 -297l-47 -53l-252 262zM344 1481h125l-199 -1481h-125z" />
    <glyph glyph-name="uni0209" unicode="&#x209;" horiz-adv-x="464" 
d="M39 1507l219 -297l-49 -53l-250 262zM332 1507l217 -297l-47 -53l-254 262zM365 1057l-144 -1057h-127l144 1057h127z" />
    <glyph glyph-name="uni020A" unicode="&#x20a;" horiz-adv-x="555" 
d="M143 1702q33 81 109 142t186 61q111 0 176.5 -58.5t75.5 -144.5h-108q-2 3 -10 17.5t-12 21t-13.5 19t-19 19.5t-22.5 14.5t-30 11t-37 3.5q-112 0 -176 -106h-119zM344 1481h127l-199 -1481h-127z" />
    <glyph glyph-name="uni020B" unicode="&#x20b;" horiz-adv-x="473" 
d="M74 1278q33 81 109 142t186 61q111 0 176.5 -58.5t75.5 -144.5h-109q-1 2 -11.5 20.5t-15 25t-17.5 21.5t-25 21t-31.5 12t-42.5 6q-110 0 -179 -106h-116zM403 1057l-143 -1057h-129l145 1057h127z" />
    <glyph glyph-name="uni020C" unicode="&#x20c;" horiz-adv-x="1460" 
d="M582 1931l217 -297l-47 -53l-252 262zM874 1931l216 -297l-48 -53l-251 262zM657 -20q-281 0 -410.5 195.5t-82.5 557.5q51 367 235.5 567.5t462.5 200.5t409.5 -199.5t82.5 -564.5q-51 -363 -234.5 -560t-462.5 -197zM676 100q222 0 358.5 158t177.5 479q44 323 -50 483
t-314 160q-221 0 -360 -161t-183 -482q-42 -319 53.5 -478t317.5 -159z" />
    <glyph glyph-name="uni020D" unicode="&#x20d;" horiz-adv-x="1112" 
d="M379 1507l217 -297l-47 -53l-252 262zM672 1507l215 -297l-47 -53l-252 262zM479 -20q-211 0 -310 148.5t-65 393.5q33 249 176 402t353 153q209 0 308 -152t65 -399q-31 -246 -173.5 -396t-353.5 -150zM500 82q156 0 253.5 123t123.5 323q29 201 -38 324t-223 123
q-157 0 -255.5 -123.5t-124.5 -323.5q-19 -129 2.5 -228.5t88.5 -158.5t173 -59z" />
    <glyph glyph-name="uni020E" unicode="&#x20e;" horiz-adv-x="1460" 
d="M578 1702q33 81 108.5 142t185.5 61q109 0 175 -58.5t77 -144.5h-110q-27 54 -49 73q-37 33 -95 33q-107 0 -176 -106h-116zM657 -20q-281 0 -410.5 195.5t-82.5 557.5q51 367 235.5 567.5t462.5 200.5t409.5 -199.5t82.5 -564.5q-51 -363 -234.5 -560t-462.5 -197z
M676 100q222 0 358.5 158t177.5 479q44 323 -50 483t-314 160q-221 0 -360 -161t-183 -482q-42 -319 53.5 -478t317.5 -159z" />
    <glyph glyph-name="uni020F" unicode="&#x20f;" horiz-adv-x="1112" 
d="M375 1278q33 81 109 142t186 61q111 0 176 -58.5t76 -144.5h-111q-27 52 -46 71q-37 35 -97 35q-107 0 -176 -106h-117zM479 -20q-211 0 -310 148.5t-65 393.5q33 249 176 402t353 153q209 0 308 -152t65 -399q-31 -246 -173.5 -396t-353.5 -150zM500 82q156 0 253.5 123
t123.5 323q29 201 -38 324t-223 123q-157 0 -255.5 -123.5t-124.5 -323.5q-19 -129 2.5 -228.5t88.5 -158.5t173 -59z" />
    <glyph glyph-name="uni0210" unicode="&#x210;" horiz-adv-x="1329" 
d="M514 1931l217 -297l-47 -53l-252 262zM807 1931l215 -297l-47 -53l-252 262zM1112 0h-137l-184 674h-431l-90 -674h-127l199 1481h524q218 0 319.5 -99t76.5 -284q-11 -88 -45.5 -159t-85 -117t-102 -75t-109.5 -47zM711 791q378 0 417 292q18 142 -55 211.5t-231 69.5
h-389l-76 -573h334z" />
    <glyph glyph-name="uni0211" unicode="&#x211;" horiz-adv-x="743" 
d="M211 1507l219 -297l-47 -53l-252 262zM504 1507l217 -297l-47 -53l-254 262zM92 0l141 1057h121l-28 -205q67 96 185 160.5t224 64.5l-16 -127q-92 4 -185.5 -37.5t-155.5 -108t-71 -134.5l-88 -670h-127z" />
    <glyph glyph-name="uni0212" unicode="&#x212;" horiz-adv-x="1329" 
d="M510 1702q33 81 109 142t186 61q111 0 176 -58.5t76 -144.5h-111q-27 52 -46 71q-37 35 -97 35q-107 0 -176 -106h-117zM1112 0h-137l-184 674h-431l-90 -674h-127l199 1481h524q218 0 319.5 -99t76.5 -284q-11 -88 -45.5 -159t-85 -117t-102 -75t-109.5 -47zM711 791
q378 0 417 292q18 142 -55 211.5t-231 69.5h-389l-76 -573h334z" />
    <glyph glyph-name="uni0213" unicode="&#x213;" horiz-adv-x="786" 
d="M252 1278q33 81 109 142t186 61q111 0 176 -58.5t76 -144.5h-111q-27 52 -46 71q-37 35 -97 35q-107 0 -176 -106h-117zM135 0l144 1057h118l-26 -205q65 96 183.5 160.5t223.5 64.5l-16 -127q-92 4 -185 -37.5t-155 -108t-72 -134.5l-86 -670h-129z" />
    <glyph glyph-name="uni0214" unicode="&#x214;" horiz-adv-x="1404" 
d="M573 1931l218 -297l-48 -53l-251 262zM866 1931l215 -297l-47 -53l-252 262zM1194 483q-34 -251 -171.5 -377t-389.5 -126q-255 0 -355.5 130t-64.5 398l129 973h133l-133 -1004q-53 -379 307 -379q368 0 420 379l133 1004h127z" />
    <glyph glyph-name="uni0215" unicode="&#x215;" horiz-adv-x="1134" 
d="M360 1507l220 -297l-48 -53l-251 262zM653 1507l217 -297l-47 -53l-252 262zM414 -18q-148 3 -221 84.5t-56 216.5l105 778h127l-101 -744q-15 -110 31 -169.5t154 -59.5q90 0 165 38.5t195 133.5l109 801h125l-144 -1059h-104l14 162q-128 -98 -216 -140.5t-183 -41.5z
" />
    <glyph glyph-name="uni0216" unicode="&#x216;" horiz-adv-x="1404" 
d="M567 1702q32 81 109.5 142t187.5 61q109 0 175 -58.5t77 -144.5h-110q-2 3 -10 17.5t-12 21t-13.5 19t-19 19.5t-22.5 14.5t-30 11t-37 3.5q-112 0 -176 -106h-119zM1194 483q-34 -251 -171.5 -377t-389.5 -126q-255 0 -355.5 130t-64.5 398l129 973h133l-133 -1004
q-53 -379 307 -379q368 0 420 379l133 1004h127z" />
    <glyph glyph-name="uni0217" unicode="&#x217;" horiz-adv-x="1138" 
d="M356 1278q33 81 109 142t186 61q111 0 176 -58.5t76 -144.5h-110q-27 54 -49 73q-37 33 -95 33q-107 0 -176 -106h-117zM416 -18q-148 3 -221 84.5t-54 216.5l105 778h125l-101 -744q-29 -229 187 -229q89 0 163.5 38.5t196.5 133.5l107 801h127l-144 -1059h-104l12 162
q-129 -98 -216 -140.5t-183 -41.5z" />
    <glyph glyph-name="uni0218" unicode="&#x218;" horiz-adv-x="1286" 
d="M571 -20q-347 0 -475 274l113 72q47 -80 90.5 -124.5t113.5 -71t171 -26.5q359 0 393 263q13 87 -28 151.5t-167 118.5l-278 108q-266 104 -234 353q25 186 167.5 294.5t353.5 108.5q275 0 421 -217l-108 -80q-110 174 -332 174q-151 0 -250 -71t-116 -199
q-19 -170 188 -252l260 -96q158 -60 219.5 -153.5t42.5 -227.5q-25 -188 -170.5 -293.5t-374.5 -105.5zM426 -475l94 149h-61l24 172h131l-22 -178l-103 -143h-63z" />
    <glyph glyph-name="uni0219" unicode="&#x219;" horiz-adv-x="1052" 
d="M453 -20q-146 0 -253 66.5t-143 172.5l101 55q38 -89 117.5 -139.5t193.5 -50.5q102 0 197.5 57t105.5 129q9 62 -30.5 106.5t-143.5 78.5l-182 57q-134 42 -188 105t-42 151q17 138 135.5 223.5t286.5 85.5q129 0 221.5 -52t135.5 -146l-97 -58q-34 72 -106 112t-172 40
q-106 0 -188 -55t-93 -130q-7 -52 24 -90t132 -73l233 -80q221 -71 201 -262q-20 -133 -146.5 -218t-299.5 -85zM256 -479l92 149h-61l24 172h131l-20 -178l-103 -143h-63z" />
    <glyph glyph-name="uni021A" unicode="&#x21a;" horiz-adv-x="1103" 
d="M147 1356l19 125h1038l-16 -125h-438l-183 -1356h-127l183 1356h-476zM371 -475l94 149h-62l25 172h131l-22 -178l-103 -143h-63z" />
    <glyph glyph-name="uni021B" unicode="&#x21b;" horiz-adv-x="819" 
d="M748 956h-248l-92 -698q-11 -94 10 -127t78 -33h147l-14 -88q-41 -12 -150 -12q-131 0 -174.5 58t-25.5 190l96 710h-197l15 101h196l60 356h112l-47 -356h248zM319 -475l93 149h-62l25 172h131l-21 -178l-102 -143h-64z" />
    <glyph glyph-name="uni0237" unicode="&#x237;" horiz-adv-x="456" 
d="M199 -82q-19 -138 -79.5 -198t-197.5 -60q-48 0 -80 5t-40 11l-7 5l12 88l113 4q73 3 108.5 41.5t47.5 122.5l149 1120h129z" />
    <glyph glyph-name="uni0259" unicode="&#x259;" horiz-adv-x="1120" 
d="M879 567q15 113 -9 203t-95 146.5t-181 56.5q-103 0 -174.5 -44t-126.5 -132l-105 37q69 122 178 183.5t242 61.5q210 0 321.5 -144.5t76.5 -395.5q-35 -258 -175.5 -407.5t-351.5 -149.5q-202 0 -297 137.5t-61 382.5l10 65h748zM862 461h-620q-24 -168 40 -272.5
t214 -104.5q80 0 147 32.5t111.5 87t71.5 120t36 137.5z" />
    <glyph glyph-name="uni02BC" unicode="&#x2bc;" horiz-adv-x="282" 
d="M123 942l106 272l-45 5l35 262h127l-35 -260l-112 -279h-76z" />
    <glyph glyph-name="circumflex" unicode="&#x2c6;" horiz-adv-x="591" 
d="M549 1270l-125 129l-168 -129h-145l268 215h94l209 -215h-133z" />
    <glyph glyph-name="caron" unicode="&#x2c7;" horiz-adv-x="587" 
d="M555 1481h152l-263 -215h-92l-213 215h125l133 -129z" />
    <glyph glyph-name="breve" unicode="&#x2d8;" horiz-adv-x="593" 
d="M705 1479q-36 -79 -116.5 -140t-189.5 -61q-111 0 -175.5 57.5t-67.5 143.5h106q3 -4 12 -19.5t15 -24t18.5 -22t25 -20.5t32 -13t41.5 -6q43 0 80.5 19t56 37t43.5 49h119z" />
    <glyph glyph-name="dotaccent" unicode="&#x2d9;" horiz-adv-x="194" 
d="M299 1481l-29 -219h-143l31 219h141z" />
    <glyph glyph-name="ring" unicode="&#x2da;" horiz-adv-x="442" 
d="M537 1384q-12 -84 -75 -140t-145 -56q-85 0 -134.5 61.5t-37.5 153.5q10 79 74 133.5t141 54.5q85 0 136 -59.5t41 -147.5zM446 1397q7 47 -18 76.5t-70 29.5q-46 0 -85.5 -34.5t-45.5 -86.5q-5 -41 22.5 -73.5t67.5 -32.5q48 0 85.5 36t43.5 85z" />
    <glyph glyph-name="ogonek" unicode="&#x2db;" horiz-adv-x="407" 
d="M-74 -172q10 65 61.5 111.5t168.5 83.5l96 -21q-106 -44 -155.5 -85.5t-55.5 -96.5q-6 -39 14 -57.5t72 -18.5q70 0 149 41l-12 -92q-76 -31 -170 -31q-93 0 -136 45t-32 121z" />
    <glyph glyph-name="tilde" unicode="&#x2dc;" horiz-adv-x="614" 
d="M698 1366q-65 -43 -157 -43q-54 0 -120.5 24.5t-103.5 24.5q-31 0 -56 -9t-47.5 -23.5t-33.5 -18.5l-24 86q78 55 151 55q48 0 122.5 -25.5t113.5 -25.5q27 0 49 7.5t47 21.5t39 20z" />
    <glyph glyph-name="hungarumlaut" unicode="&#x2dd;" horiz-adv-x="737" 
d="M440 1505l68 -100l-309 -252l-45 70zM735 1505l66 -100l-307 -252l-48 70z" />
    <glyph glyph-name="gravecomb" unicode="&#x300;" 
d="M-360 1501l444 -203l-39 -69l-457 157z" />
    <glyph glyph-name="acutecomb" unicode="&#x301;" 
d="M78 1505l22 -119l-497 -157l-21 76z" />
    <glyph glyph-name="uni0302" unicode="&#x302;" 
d="M-43 1270l-125 129l-168 -129h-145l268 215h94l211 -215h-135z" />
    <glyph glyph-name="tildecomb" unicode="&#x303;" 
d="M84 1366q-65 -43 -158 -43q-54 0 -120 24.5t-103 24.5q-31 0 -56 -9t-47.5 -23.5t-33.5 -18.5l-25 86q78 55 152 55q49 0 122 -25.5t113 -25.5q27 0 49 7.5t47 21.5t39 20z" />
    <glyph glyph-name="uni0304" unicode="&#x304;" 
d="M100 1446l-14 -103h-530l12 103h532z" />
    <glyph glyph-name="uni0306" unicode="&#x306;" 
d="M111 1479q-36 -79 -116.5 -140t-189.5 -61q-111 0 -175.5 57.5t-67.5 143.5h106q3 -4 12 -19.5t15 -24t18.5 -22t25 -20.5t32 -13t41.5 -6q43 0 80.5 19t56 37t43.5 49h119z" />
    <glyph glyph-name="uni0307" unicode="&#x307;" 
d="M104 1481l-28 -219h-144l31 219h141z" />
    <glyph glyph-name="uni0308" unicode="&#x308;" 
d="M-147 1481l-29 -211h-133l28 211h134zM102 1481l-24 -211h-135l28 211h131z" />
    <glyph glyph-name="hookabovecomb" unicode="&#x309;" 
d="M-614 1473l24 -80q65 45 109 45q37 0 54 -13t11 -47q-1 -8 -4.5 -15.5t-10.5 -17t-12 -16t-17.5 -19t-19 -18.5t-24 -22t-24.5 -23l43 -61q8 8 35 34t35.5 34.5t27.5 29.5t26 33.5t15 31t10 35.5q9 63 -27 101.5t-102 38.5q-75 0 -149 -51z" />
    <glyph glyph-name="uni030A" unicode="&#x30a;" 
d="M94 1384q-12 -85 -74.5 -140.5t-144.5 -55.5q-85 0 -134.5 61.5t-37.5 153.5q10 79 74 133.5t141 54.5q85 0 135.5 -59.5t40.5 -147.5zM4 1397q7 47 -18 76.5t-70 29.5q-46 0 -85.5 -34.5t-45.5 -86.5q-5 -41 22.5 -73.5t67.5 -32.5q48 0 85.5 36t43.5 85z" />
    <glyph glyph-name="uni030B" unicode="&#x30b;" 
d="M-297 1505l68 -100l-310 -252l-45 70zM-2 1505l65 -100l-307 -252l-47 70z" />
    <glyph glyph-name="uni030C" unicode="&#x30c;" 
d="M-33 1481h152l-262 -215h-93l-213 215h125l134 -129z" />
    <glyph glyph-name="uni030F" unicode="&#x30f;" 
d="M-467 1507l217 -297l-47 -53l-252 262zM-174 1507l215 -297l-47 -53l-252 262z" />
    <glyph glyph-name="uni0311" unicode="&#x311;" 
d="M-432 1278q33 81 109 142t186 61q111 0 176 -58.5t76 -144.5h-111q-27 52 -46 71q-37 35 -97 35q-107 0 -176 -106h-117z" />
    <glyph glyph-name="uni031B" unicode="&#x31b;" 
d="M-313 1180q-27 -90 -97 -153.5t-180 -63.5l10 96q101 0 150 121h117z" />
    <glyph glyph-name="dotbelowcomb" unicode="&#x323;" 
d="M-123 -117l-24 -213h-134l31 213h127z" />
    <glyph glyph-name="uni0326" unicode="&#x326;" 
d="M-313 -475l92 149h-62l25 172h131l-20 -178l-103 -143h-63z" />
    <glyph glyph-name="uni0327" unicode="&#x327;" 
d="M-139 -268q-10 -69 -71 -107.5t-144 -38.5q-100 0 -166 60l33 51q44 -41 116 -41q116 0 129 88q6 44 -25.5 63.5t-109.5 22.5q-19 0 -14 14l90 166h82l-62 -125q85 -6 118 -49t24 -104z" />
    <glyph glyph-name="uni0328" unicode="&#x328;" 
d="M-481 -172q10 65 61 112t168 83l96 -21q-106 -44 -155.5 -85.5t-55.5 -96.5q-6 -39 14 -57.5t72 -18.5q71 0 150 41l-12 -92q-76 -31 -170 -31q-93 0 -136 45t-32 121z" />
    <glyph glyph-name="pi" unicode="&#x3c0;" horiz-adv-x="1280" 
d="M1280 956h-242l-129 -956h-123l125 956h-469q-41 -277 -107.5 -542t-131.5 -414h-121q71 181 137.5 433t102.5 509q3 14 -15 14h-188l12 101h1161z" />
    <glyph glyph-name="uni1E0C" unicode="&#x1e0c;" horiz-adv-x="1370" 
d="M342 1481q1 0 47.5 -0.5t113.5 -1t120 -0.5q386 -4 537.5 -182.5t103.5 -546.5q-53 -381 -264.5 -565.5t-598.5 -184.5h-258zM459 1360l-164 -1239h119q317 0 493.5 144.5t220.5 477.5q15 102 10 184t-21 146t-51 112t-80 81.5t-107 54t-132.5 30t-156.5 9.5h-131z
M586 -117l-27 -213h-131l31 213h127z" />
    <glyph glyph-name="uni1E0D" unicode="&#x1e0d;" horiz-adv-x="1132" 
d="M455 -20q-192 0 -284.5 137.5t-57.5 394.5q34 259 167.5 412t337.5 153q88 0 155 -33t126 -104l80 580h129l-205 -1520h-104l10 162q-15 -19 -33.5 -39t-52.5 -47t-71 -47t-89.5 -34.5t-107.5 -14.5zM498 84q119 0 216 88t111 190l60 447q-99 164 -258 164
q-152 0 -253 -118t-130 -335q-29 -219 42 -327.5t212 -108.5zM551 -117l-27 -213h-133l33 213h127z" />
    <glyph glyph-name="uni1E24" unicode="&#x1e24;" horiz-adv-x="1402" 
d="M1090 709h-723l-97 -709h-127l199 1481h127l-88 -652h725l88 652h127l-201 -1481h-125zM678 -117l-25 -213h-133l31 213h127z" />
    <glyph glyph-name="uni1E25" unicode="&#x1e25;" horiz-adv-x="1140" 
d="M106 0l205 1520h119l-84 -629q124 99 214 142.5t188 43.5q150 0 218.5 -80.5t49.5 -218.5l-105 -778h-127l101 743q15 108 -30 167t-153 59q-88 0 -163.5 -38t-198.5 -132l-107 -799h-127zM578 -117l-27 -213h-133l33 213h127z" />
    <glyph glyph-name="uni1E44" unicode="&#x1e44;" horiz-adv-x="1472" 
d="M1018 1905l-29 -219h-143l31 219h141zM1262 1481h127l-199 -1481h-113l-639 1247l-168 -1247h-127l199 1481h117l637 -1243z" />
    <glyph glyph-name="uni1E45" unicode="&#x1e45;" horiz-adv-x="1138" 
d="M799 1481l-29 -219h-143l28 219h144zM102 0l144 1057h121l-23 -166q126 100 212.5 143t188.5 43q148 0 218 -80.5t51 -216.5l-107 -780h-125l101 743q15 108 -32 167t-155 59q-88 0 -165.5 -39t-194.5 -131l-105 -799h-129z" />
    <glyph glyph-name="uni1E5A" unicode="&#x1e5a;" horiz-adv-x="1329" 
d="M1112 0h-137l-184 674h-431l-90 -674h-127l199 1481h524q218 0 319.5 -99t76.5 -284q-11 -88 -45.5 -159t-85 -117t-102 -75t-109.5 -47zM711 791q378 0 417 292q18 142 -55 211.5t-231 69.5h-389l-76 -573h334zM639 -117l-27 -213h-133l33 213h127z" />
    <glyph glyph-name="uni1E5B" unicode="&#x1e5b;" horiz-adv-x="743" 
d="M96 0l142 1057h118l-26 -205q67 96 185 160.5t224 64.5l-18 -127q-91 4 -184 -37.5t-155 -108t-71 -134.5l-88 -670h-127zM215 -117l-27 -213h-133l33 213h127z" />
    <glyph glyph-name="uni1E62" unicode="&#x1e62;" horiz-adv-x="1286" 
d="M571 -20q-347 0 -475 274l113 72q47 -80 90.5 -124.5t113.5 -71t171 -26.5q359 0 393 263q13 87 -28 151.5t-167 118.5l-278 108q-266 104 -234 353q25 186 167.5 294.5t353.5 108.5q275 0 421 -217l-108 -80q-110 174 -332 174q-151 0 -250 -71t-116 -199
q-19 -170 188 -252l260 -96q158 -60 219.5 -153.5t42.5 -227.5q-25 -188 -170.5 -293.5t-374.5 -105.5zM612 -117l-26 -213h-133l32 213h127z" />
    <glyph glyph-name="uni1E63" unicode="&#x1e63;" horiz-adv-x="1052" 
d="M453 -20q-146 0 -253 66.5t-143 172.5l101 55q38 -89 117.5 -139.5t193.5 -50.5q102 0 197.5 57t105.5 129q9 62 -30.5 106.5t-143.5 78.5l-182 57q-134 42 -188 105t-42 151q17 138 135.5 223.5t286.5 85.5q129 0 221.5 -52t135.5 -146l-97 -58q-34 72 -106 112t-172 40
q-106 0 -188 -55t-93 -130q-7 -52 24 -90t132 -73l233 -80q221 -71 201 -262q-20 -133 -146.5 -218t-299.5 -85zM440 -121l-24 -213h-133l30 213h127z" />
    <glyph glyph-name="uni1E6C" unicode="&#x1e6c;" horiz-adv-x="1103" 
d="M147 1356l19 125h1038l-16 -125h-438l-183 -1356h-127l183 1356h-476zM557 -117l-27 -213h-133l33 213h127z" />
    <glyph glyph-name="uni1E6D" unicode="&#x1e6d;" horiz-adv-x="819" 
d="M748 956h-248l-92 -698q-11 -94 10 -127t78 -33h147l-14 -88q-41 -12 -150 -12q-131 0 -174.5 58t-25.5 190l96 710h-197l15 101h196l60 356h112l-47 -356h248zM504 -117l-25 -213h-133l31 213h127z" />
    <glyph glyph-name="Wgrave" unicode="&#x1e80;" horiz-adv-x="1863" 
d="M889 1925l444 -203l-39 -69l-458 157zM1942 1481l-609 -1481h-137l-166 1245l-506 -1245h-133l-203 1481h131l168 -1288l521 1288h108l174 -1288l520 1288h132z" />
    <glyph glyph-name="wgrave" unicode="&#x1e81;" horiz-adv-x="1566" 
d="M678 1501l444 -203l-39 -69l-456 157zM1556 1057l-444 -1057h-133l-148 858l-360 -858h-139l-174 1057h129l141 -897l379 897h108l152 -895l373 895h116z" />
    <glyph glyph-name="Wacute" unicode="&#x1e82;" horiz-adv-x="1863" 
d="M1348 1929l22 -119l-498 -157l-20 76zM1942 1481l-609 -1481h-137l-166 1245l-506 -1245h-133l-203 1481h131l168 -1288l521 1288h108l174 -1288l520 1288h132z" />
    <glyph glyph-name="wacute" unicode="&#x1e83;" horiz-adv-x="1566" 
d="M1139 1505l22 -119l-497 -157l-21 76zM1556 1057l-444 -1057h-133l-148 858l-360 -858h-139l-174 1057h129l141 -897l379 897h108l152 -895l373 895h116z" />
    <glyph glyph-name="Wdieresis" unicode="&#x1e84;" horiz-adv-x="1863" 
d="M1069 1905l-29 -211h-133l29 211h133zM1319 1905l-25 -211h-135l29 211h131zM1942 1481l-609 -1481h-137l-166 1245l-506 -1245h-133l-203 1481h131l168 -1288l521 1288h108l174 -1288l520 1288h132z" />
    <glyph glyph-name="wdieresis" unicode="&#x1e85;" horiz-adv-x="1566" 
d="M860 1481l-29 -211h-133l29 211h133zM1110 1481l-25 -211h-135l29 211h131zM1556 1057l-444 -1057h-133l-148 858l-360 -858h-139l-174 1057h129l141 -897l379 897h108l152 -895l373 895h116z" />
    <glyph glyph-name="uni1E92" unicode="&#x1e92;" horiz-adv-x="1200" 
d="M37 0l12 82l977 1280h-780l16 119h952l-8 -80l-987 -1282h811l-14 -119h-979zM596 -117l-25 -213h-133l31 213h127z" />
    <glyph glyph-name="uni1E93" unicode="&#x1e93;" horiz-adv-x="899" 
d="M20 0l13 94l729 867h-574l15 96h717l-13 -99l-727 -860h623l-12 -98h-771zM459 -117l-27 -213h-131l31 213h127z" />
    <glyph glyph-name="uni1EA0" unicode="&#x1ea0;" horiz-adv-x="1284" 
d="M27 0l716 1481h154l315 -1481h-131l-90 438h-618l-215 -438h-131zM426 565h543l-166 783zM676 -117l-27 -213h-133l33 213h127z" />
    <glyph glyph-name="uni1EA1" unicode="&#x1ea1;" horiz-adv-x="1050" 
d="M358 -20q-152 0 -230 80t-58 219q23 172 144 248.5t386 97.5l209 16l12 84q14 116 -46 184t-177 68q-190 0 -330 -186l-98 38q76 113 190.5 180.5t255.5 67.5q179 0 264.5 -90.5t63.5 -251.5l-98 -735h-111l15 164q-169 -184 -392 -184zM403 82q76 0 158 37t140.5 99
t66.5 126l29 207l-176 -14q-221 -18 -314 -70t-110 -180q-15 -94 42.5 -149.5t163.5 -55.5zM469 -117l-27 -213h-133l33 213h127z" />
    <glyph glyph-name="uni1EA2" unicode="&#x1ea2;" horiz-adv-x="1386" 
d="M709 1896l24 -79q65 45 109 45q37 0 54 -13t11 -47q-1 -8 -4.5 -15.5t-10.5 -17t-12 -16t-17.5 -19t-19 -18.5t-24 -22t-24.5 -23l43 -61q8 8 35 34t35.5 34.5t27.5 29.5t26 33.5t15 31t10 35.5q9 63 -27 101.5t-102 38.5q-74 0 -149 -52zM27 0l716 1481h154l315 -1481
h-131l-90 438h-618l-215 -438h-131zM426 565h543l-166 783z" />
    <glyph glyph-name="uni1EA3" unicode="&#x1ea3;" horiz-adv-x="1118" 
d="M508 1473l24 -80q65 45 109 45q36 0 53 -13t11 -47q-1 -6 -3 -12t-6.5 -13t-8 -12.5t-11 -14t-12.5 -13.5t-15.5 -15t-16.5 -15.5t-18.5 -17.5t-19.5 -18l41 -61q9 8 35.5 33.5t35.5 34.5t27.5 30t26 33.5t16 31t10.5 35.5q9 63 -27 101.5t-104 38.5q-76 0 -147 -51z
M371 -20q-150 0 -228.5 80.5t-58.5 218.5q23 172 143.5 248.5t384.5 97.5l211 16l11 84q15 115 -46 183.5t-178 68.5q-187 0 -327 -186l-99 38q76 113 190.5 180.5t256.5 67.5q178 0 262.5 -90.5t64.5 -251.5l-98 -735h-110l12 164q-169 -184 -391 -184zM418 82q76 0 158 37
t140 99t66 126l27 207l-174 -14q-221 -18 -314 -70t-110 -180q-15 -94 42.5 -149.5t164.5 -55.5z" />
    <glyph glyph-name="uni1EA4" unicode="&#x1ea4;" horiz-adv-x="1386" 
d="M1139 2218l22 -119l-495 -160l-21 76zM995 1694l-123 129l-170 -129h-143l268 215h93l208 -215h-133zM27 0l716 1481h154l315 -1481h-131l-90 438h-618l-215 -438h-131zM426 565h543l-166 783z" />
    <glyph glyph-name="uni1EA5" unicode="&#x1ea5;" horiz-adv-x="1118" 
d="M938 1794l23 -119l-498 -159l-19 75zM795 1270l-125 129l-168 -129h-144l267 215h94l209 -215h-133zM371 -20q-150 0 -228.5 80.5t-58.5 218.5q23 172 143.5 248.5t384.5 97.5l211 16l11 84q15 115 -46 183.5t-178 68.5q-187 0 -327 -186l-99 38q76 113 190.5 180.5
t256.5 67.5q178 0 262.5 -90.5t64.5 -251.5l-98 -735h-110l12 164q-169 -184 -391 -184zM418 82q76 0 158 37t140 99t66 126l27 207l-174 -14q-221 -18 -314 -70t-110 -180q-15 -94 42.5 -149.5t164.5 -55.5z" />
    <glyph glyph-name="uni1EA6" unicode="&#x1ea6;" horiz-adv-x="1386" 
d="M680 2212l446 -201l-39 -72l-458 158zM995 1694l-123 129l-167 -129h-146l268 215h93l210 -215h-135zM27 0l716 1481h154l315 -1481h-131l-90 438h-618l-215 -438h-131zM426 565h543l-166 783z" />
    <glyph glyph-name="uni1EA7" unicode="&#x1ea7;" horiz-adv-x="1118" 
d="M479 1788l447 -201l-41 -71l-457 157zM795 1270l-125 129l-168 -129h-144l267 215h94l209 -215h-133zM371 -20q-150 0 -228.5 80.5t-58.5 218.5q23 172 143.5 248.5t384.5 97.5l211 16l11 84q15 115 -46 183.5t-178 68.5q-187 0 -327 -186l-99 38q76 113 190.5 180.5
t256.5 67.5q178 0 262.5 -90.5t64.5 -251.5l-98 -735h-110l12 164q-169 -184 -391 -184zM418 82q76 0 158 37t140 99t66 126l27 207l-174 -14q-221 -18 -314 -70t-110 -180q-15 -94 42.5 -149.5t164.5 -55.5z" />
    <glyph glyph-name="uni1EA8" unicode="&#x1ea8;" horiz-adv-x="1386" 
d="M1020 2093l24 -80q63 47 109 47q36 0 53 -13t11 -46q-1 -6 -3 -12t-6.5 -13t-8 -12.5t-11 -14t-12.5 -13.5t-15.5 -15t-16.5 -15.5t-18.5 -17.5t-19.5 -18l41 -64q6 6 30.5 29.5t31 30t25 26t25 29.5t17.5 26t15.5 29.5t6.5 28.5q9 64 -27 102.5t-104 38.5
q-73 0 -147 -53zM993 1694l-123 129l-168 -129h-145l268 215h93l210 -215h-135zM27 0l716 1481h154l315 -1481h-131l-90 438h-618l-215 -438h-131zM426 565h543l-166 783z" />
    <glyph glyph-name="uni1EA9" unicode="&#x1ea9;" horiz-adv-x="1118" 
d="M825 1669l25 -80q63 47 108 47q36 0 53 -13t11 -46q-1 -6 -3 -12t-6.5 -13t-8 -12.5t-11 -14t-12.5 -13.5t-15.5 -15t-16.5 -15.5t-18.5 -17.5t-19.5 -18l41 -64q8 8 30.5 29.5t31 30t25.5 26.5t24.5 28.5t18 26t15.5 29.5t7 29q9 64 -27 102.5t-104 38.5q-74 0 -148 -53
zM795 1270l-125 129l-168 -129h-144l267 215h94l209 -215h-133zM371 -20q-150 0 -228.5 80.5t-58.5 218.5q23 172 143.5 248.5t384.5 97.5l211 16l11 84q15 115 -46 183.5t-178 68.5q-187 0 -327 -186l-99 38q76 113 190.5 180.5t256.5 67.5q178 0 262.5 -90.5t64.5 -251.5
l-98 -735h-110l12 164q-169 -184 -391 -184zM418 82q76 0 158 37t140 99t66 126l27 207l-174 -14q-221 -18 -314 -70t-110 -180q-15 -94 42.5 -149.5t164.5 -55.5z" />
    <glyph glyph-name="uni1EAA" unicode="&#x1eaa;" horiz-adv-x="1386" 
d="M1184 2077q-75 -43 -158 -43q-54 0 -120 24.5t-103 24.5q-31 0 -56 -9t-47.5 -23.5t-33.5 -18.5l-25 88q42 28 75.5 41.5t76.5 13.5q49 0 122 -26.5t113 -26.5q27 0 49.5 8.5t46.5 22t39 18.5zM995 1694l-125 129l-168 -129h-143l266 215h95l208 -215h-133zM27 0
l716 1481h154l315 -1481h-131l-90 438h-618l-215 -438h-131zM426 565h543l-166 783z" />
    <glyph glyph-name="uni1EAB" unicode="&#x1eab;" horiz-adv-x="1118" 
d="M983 1653q-75 -43 -158 -43q-54 0 -120 24.5t-103 24.5q-31 0 -56 -9t-47.5 -23.5t-33.5 -18.5l-25 88q42 28 75.5 41.5t76.5 13.5q48 0 122 -26.5t113 -26.5q27 0 50 8.5t47 22t39 18.5zM795 1270l-125 129l-168 -129h-144l267 215h94l209 -215h-133zM371 -20
q-150 0 -228.5 80.5t-58.5 218.5q23 172 143.5 248.5t384.5 97.5l211 16l11 84q15 115 -46 183.5t-178 68.5q-187 0 -327 -186l-99 38q76 113 190.5 180.5t256.5 67.5q178 0 262.5 -90.5t64.5 -251.5l-98 -735h-110l12 164q-169 -184 -391 -184zM418 82q76 0 158 37t140 99
t66 126l27 207l-174 -14q-221 -18 -314 -70t-110 -180q-15 -94 42.5 -149.5t164.5 -55.5z" />
    <glyph glyph-name="uni1EAC" unicode="&#x1eac;" horiz-adv-x="1284" 
d="M995 1694l-125 129l-168 -129h-143l266 215h95l208 -215h-133zM27 0l716 1481h154l315 -1481h-131l-90 438h-618l-215 -438h-131zM426 565h543l-166 783zM676 -117l-27 -213h-133l33 213h127z" />
    <glyph glyph-name="uni1EAD" unicode="&#x1ead;" horiz-adv-x="1050" 
d="M795 1270l-125 129l-168 -129h-144l267 215h94l209 -215h-133zM371 -20q-150 0 -228.5 80.5t-58.5 218.5q23 172 143.5 248.5t384.5 97.5l211 16l11 84q15 115 -46 183.5t-178 68.5q-187 0 -327 -186l-99 38q76 113 190.5 180.5t256.5 67.5q178 0 262.5 -90.5
t64.5 -251.5l-98 -735h-110l12 164q-169 -184 -391 -184zM418 82q76 0 158 37t140 99t66 126l27 207l-174 -14q-221 -18 -314 -70t-110 -180q-15 -94 42.5 -149.5t164.5 -55.5zM469 -117l-27 -213h-133l33 213h127z" />
    <glyph glyph-name="uni1EAE" unicode="&#x1eae;" horiz-adv-x="1386" 
d="M1133 2249l22 -119l-498 -160l-18 78zM1149 1903q-34 -79 -114.5 -140t-190.5 -61q-111 0 -175 57.5t-69 143.5h109q2 -3 13.5 -23.5t19.5 -29.5t24 -24t37.5 -21.5t48.5 -6.5q42 0 79.5 19t56.5 37.5t44 48.5h117zM27 0l716 1481h154l315 -1481h-131l-90 438h-618
l-215 -438h-131zM426 565h543l-166 783z" />
    <glyph glyph-name="uni1EAF" unicode="&#x1eaf;" horiz-adv-x="1118" 
d="M934 1825l22 -119l-497 -160l-19 78zM948 1479q-34 -79 -114.5 -140t-190.5 -61q-111 0 -175 57.5t-69 143.5h109q2 -3 13.5 -23.5t19.5 -29.5t24 -24t37.5 -21.5t48.5 -6.5q43 0 80.5 19t56 37t43.5 49h117zM371 -20q-150 0 -228.5 80.5t-58.5 218.5q23 172 143.5 248.5
t384.5 97.5l211 16l11 84q15 115 -46 183.5t-178 68.5q-187 0 -327 -186l-99 38q76 113 190.5 180.5t256.5 67.5q178 0 262.5 -90.5t64.5 -251.5l-98 -735h-110l12 164q-169 -184 -391 -184zM418 82q76 0 158 37t140 99t66 126l27 207l-174 -14q-221 -18 -314 -70t-110 -180
q-15 -94 42.5 -149.5t164.5 -55.5z" />
    <glyph glyph-name="uni1EB0" unicode="&#x1eb0;" horiz-adv-x="1386" 
d="M674 2243l446 -201l-41 -72l-456 160zM1149 1903q-36 -80 -115.5 -140.5t-189.5 -60.5q-111 0 -175 57.5t-69 143.5h109q1 -1 9 -16t11.5 -20.5t13.5 -19t19 -19.5t22.5 -14.5t30.5 -12t37 -3.5q32 0 59.5 9t51 28t36 31.5t33.5 36.5h117zM27 0l716 1481h154l315 -1481
h-131l-90 438h-618l-215 -438h-131zM426 565h543l-166 783z" />
    <glyph glyph-name="uni1EB1" unicode="&#x1eb1;" horiz-adv-x="1118" 
d="M475 1819l447 -201l-41 -72l-457 160zM948 1479q-34 -79 -114.5 -140t-190.5 -61q-111 0 -175 57.5t-69 143.5h109q2 -3 13.5 -23.5t19.5 -29.5t24 -24t37.5 -21.5t48.5 -6.5q43 0 80.5 19t56 37t43.5 49h117zM371 -20q-150 0 -228.5 80.5t-58.5 218.5
q23 172 143.5 248.5t384.5 97.5l211 16l11 84q15 115 -46 183.5t-178 68.5q-187 0 -327 -186l-99 38q76 113 190.5 180.5t256.5 67.5q178 0 262.5 -90.5t64.5 -251.5l-98 -735h-110l12 164q-169 -184 -391 -184zM418 82q76 0 158 37t140 99t66 126l27 207l-174 -14
q-221 -18 -314 -70t-110 -180q-15 -94 42.5 -149.5t164.5 -55.5z" />
    <glyph glyph-name="uni1EB2" unicode="&#x1eb2;" horiz-adv-x="1386" 
d="M733 2191l25 -80q69 48 108 48q36 0 53 -13.5t13 -46.5q-1 -8 -4.5 -15.5t-10.5 -17t-12.5 -16.5t-17.5 -18.5t-19.5 -18.5t-23.5 -22t-25 -23l43 -63q6 6 30.5 29.5t31 30t24.5 25.5t24.5 29t17.5 26t15.5 29.5t6.5 28.5q9 64 -27 103t-102 39q-72 0 -150 -54z
M1149 1903q-34 -79 -114 -140t-189 -61q-111 0 -176 57.5t-68 143.5h107q1 -2 13.5 -23.5t20.5 -30t24 -23.5t37 -21.5t48 -6.5q43 0 80.5 19t56 37t43.5 49h117zM27 0l716 1481h154l315 -1481h-131l-90 438h-618l-215 -438h-131zM426 565h543l-166 783z" />
    <glyph glyph-name="uni1EB3" unicode="&#x1eb3;" horiz-adv-x="1118" 
d="M543 1790l24 -80q68 47 109 47q37 0 54 -13t11 -46q-1 -8 -4.5 -15.5t-10.5 -17t-12 -16t-17.5 -19t-19 -18.5t-24 -22t-24.5 -23l43 -64q7 7 26.5 26t27 26t23.5 23.5t23 25t17.5 23t15.5 25.5t10 24t6 26q10 64 -26 102.5t-103 38.5q-72 0 -149 -53zM948 1479
q-34 -79 -114.5 -140t-190.5 -61q-111 0 -175 57.5t-69 143.5h109q2 -3 13.5 -23.5t19.5 -29.5t24 -24t37.5 -21.5t48.5 -6.5q43 0 80.5 19t56 37t43.5 49h117zM371 -20q-150 0 -228.5 80.5t-58.5 218.5q23 172 143.5 248.5t384.5 97.5l211 16l11 84q15 115 -46 183.5
t-178 68.5q-187 0 -327 -186l-99 38q76 113 190.5 180.5t256.5 67.5q178 0 262.5 -90.5t64.5 -251.5l-98 -735h-110l12 164q-169 -184 -391 -184zM418 82q76 0 158 37t140 99t66 126l27 207l-174 -14q-221 -18 -314 -70t-110 -180q-15 -94 42.5 -149.5t164.5 -55.5z" />
    <glyph glyph-name="uni1EB4" unicode="&#x1eb4;" horiz-adv-x="1386" 
d="M1178 2107q-75 -43 -158 -43q-54 0 -120 25t-103 25q-31 0 -56.5 -9.5t-47.5 -23t-34 -17.5l-24 86q41 28 74 42t77 14q48 0 122 -27t114 -27q27 0 49.5 8.5t46.5 22.5t39 19zM1149 1903q-34 -79 -114.5 -140t-190.5 -61q-111 0 -175 57.5t-69 143.5h109q2 -3 13.5 -23.5
t19.5 -29.5t24 -24t37.5 -21.5t48.5 -6.5q42 0 79.5 19t56.5 37.5t44 48.5h117zM27 0l716 1481h154l315 -1481h-131l-90 438h-618l-215 -438h-131zM426 565h543l-166 783z" />
    <glyph glyph-name="uni1EB5" unicode="&#x1eb5;" horiz-adv-x="1118" 
d="M979 1683q-75 -43 -158 -43q-54 0 -120 25t-103 25q-42 0 -87.5 -24.5t-49.5 -25.5l-25 86q80 56 152 56q48 0 122 -26.5t113 -26.5q27 0 50 8.5t47.5 21.5t40.5 19zM948 1479q-34 -79 -114.5 -140t-190.5 -61q-111 0 -175 57.5t-69 143.5h109q2 -3 13.5 -23.5
t19.5 -29.5t24 -24t37.5 -21.5t48.5 -6.5q43 0 80.5 19t56 37t43.5 49h117zM371 -20q-150 0 -228.5 80.5t-58.5 218.5q23 172 143.5 248.5t384.5 97.5l211 16l11 84q15 115 -46 183.5t-178 68.5q-187 0 -327 -186l-99 38q76 113 190.5 180.5t256.5 67.5q178 0 262.5 -90.5
t64.5 -251.5l-98 -735h-110l12 164q-169 -184 -391 -184zM418 82q76 0 158 37t140 99t66 126l27 207l-174 -14q-221 -18 -314 -70t-110 -180q-15 -94 42.5 -149.5t164.5 -55.5z" />
    <glyph glyph-name="uni1EB6" unicode="&#x1eb6;" horiz-adv-x="1284" 
d="M1149 1903q-34 -79 -114.5 -140t-190.5 -61q-111 0 -175 57.5t-69 143.5h109q2 -3 13.5 -23.5t19.5 -29.5t24 -24t37.5 -21.5t48.5 -6.5q43 0 80.5 19t56 37t43.5 49h117zM27 0l716 1481h154l315 -1481h-131l-90 438h-618l-215 -438h-131zM426 565h543l-166 783z
M676 -117l-27 -213h-133l33 213h127z" />
    <glyph glyph-name="uni1EB7" unicode="&#x1eb7;" horiz-adv-x="1050" 
d="M948 1479q-34 -79 -114.5 -140t-190.5 -61q-111 0 -175 57.5t-69 143.5h109q2 -3 13.5 -23.5t19.5 -29.5t24 -24t37.5 -21.5t48.5 -6.5q43 0 80.5 19t56 37t43.5 49h117zM371 -20q-150 0 -228.5 80.5t-58.5 218.5q23 172 143.5 248.5t384.5 97.5l211 16l11 84
q15 115 -46 183.5t-178 68.5q-187 0 -327 -186l-99 38q76 113 190.5 180.5t256.5 67.5q178 0 262.5 -90.5t64.5 -251.5l-98 -735h-110l12 164q-169 -184 -391 -184zM418 82q76 0 158 37t140 99t66 126l27 207l-174 -14q-221 -18 -314 -70t-110 -180q-15 -94 42.5 -149.5
t164.5 -55.5zM469 -117l-27 -213h-133l33 213h127z" />
    <glyph glyph-name="uni1EB8" unicode="&#x1eb8;" horiz-adv-x="1232" 
d="M143 0l199 1481h852l-16 -123h-725l-74 -549h663l-16 -123h-664l-75 -561l749 -2l-16 -123h-877zM670 -117l-25 -213h-133l31 213h127z" />
    <glyph glyph-name="uni1EB9" unicode="&#x1eb9;" horiz-adv-x="1118" 
d="M240 492q-15 -113 9 -203t94.5 -146.5t180.5 -56.5q104 0 175 44t126 132l105 -37q-69 -122 -178 -183.5t-242 -61.5q-138 0 -235 63t-141 186.5t-21 290.5q35 258 175 407.5t351 149.5q202 0 297 -137.5t61 -382.5l-10 -65h-747zM256 598h623q15 110 -6.5 193.5
t-85.5 133.5t-164 50q-80 0 -147.5 -32.5t-111.5 -87t-71.5 -120t-36.5 -137.5zM532 -117l-26 -213h-133l33 213h126z" />
    <glyph glyph-name="uni1EBA" unicode="&#x1eba;" horiz-adv-x="1232" 
d="M674 1896l24 -79q65 45 109 45q37 0 54 -13t11 -47q-1 -8 -4.5 -15.5t-10.5 -17t-12 -16t-17.5 -19t-19 -18.5t-24 -22t-24.5 -23l43 -61q8 8 35 34t35.5 34.5t27.5 29.5t26 33.5t15 31t10 35.5q9 63 -27 101.5t-102 38.5q-74 0 -149 -52zM143 0l199 1481h852l-16 -123
h-725l-74 -549h663l-16 -123h-664l-75 -561l749 -2l-16 -123h-877z" />
    <glyph glyph-name="uni1EBB" unicode="&#x1ebb;" horiz-adv-x="1132" 
d="M522 1473l25 -80q65 45 108 45q37 0 54.5 -13t11.5 -47q-1 -8 -4.5 -15.5t-10.5 -17t-12.5 -16.5t-17.5 -18.5t-19.5 -18.5t-23.5 -22t-25 -23l43 -61q10 9 35.5 33.5t35.5 34.5t28 30t26 33t15.5 31.5t9.5 35.5q9 63 -27 101.5t-102 38.5q-76 0 -150 -51zM240 492
q-15 -113 9 -203t94.5 -146.5t180.5 -56.5q104 0 175 44t126 132l105 -37q-69 -122 -178 -183.5t-242 -61.5q-138 0 -235 63t-141 186.5t-21 290.5q35 258 175 407.5t351 149.5q202 0 297 -137.5t61 -382.5l-10 -65h-747zM256 598h623q15 110 -6.5 193.5t-85.5 133.5
t-164 50q-80 0 -147.5 -32.5t-111.5 -87t-71.5 -120t-36.5 -137.5z" />
    <glyph glyph-name="uni1EBC" unicode="&#x1ebc;" horiz-adv-x="1232" 
d="M1108 1790q-65 -43 -158 -43q-54 0 -120 24.5t-103 24.5q-31 0 -56 -9t-47.5 -23.5t-33.5 -18.5l-25 86q78 55 152 55q49 0 122 -25.5t113 -25.5q27 0 49 7.5t47 21.5t39 20zM143 0l199 1481h852l-16 -123h-725l-74 -549h663l-16 -123h-664l-75 -561l749 -2l-16 -123
h-877z" />
    <glyph glyph-name="uni1EBD" unicode="&#x1ebd;" horiz-adv-x="1118" 
d="M958 1366q-65 -43 -157 -43q-54 0 -120 24.5t-103 24.5q-31 0 -55.5 -9t-47.5 -23.5t-35 -18.5l-24 86q78 55 151 55q49 0 123 -25.5t113 -25.5q27 0 49 7.5t47 21.5t39 20zM240 492q-15 -113 9 -203t94.5 -146.5t180.5 -56.5q104 0 175 44t126 132l105 -37
q-69 -122 -178 -183.5t-242 -61.5q-138 0 -235 63t-141 186.5t-21 290.5q35 258 175 407.5t351 149.5q202 0 297 -137.5t61 -382.5l-10 -65h-747zM256 598h623q15 110 -6.5 193.5t-85.5 133.5t-164 50q-80 0 -147.5 -32.5t-111.5 -87t-71.5 -120t-36.5 -137.5z" />
    <glyph glyph-name="uni1EBE" unicode="&#x1ebe;" horiz-adv-x="1232" 
d="M1104 2218l22 -119l-495 -160l-21 76zM961 1694l-123 129l-170 -129h-144l269 215h92l209 -215h-133zM143 0l199 1481h852l-16 -123h-725l-74 -549h663l-16 -123h-664l-75 -561l749 -2l-16 -123h-877z" />
    <glyph glyph-name="uni1EBF" unicode="&#x1ebf;" horiz-adv-x="1132" 
d="M954 1794l23 -119l-498 -159l-20 75zM809 1270l-123 129l-168 -129h-145l268 215h92l211 -215h-135zM240 492q-15 -113 9 -203t94.5 -146.5t180.5 -56.5q104 0 175 44t126 132l105 -37q-69 -122 -178 -183.5t-242 -61.5q-138 0 -235 63t-141 186.5t-21 290.5
q35 258 175 407.5t351 149.5q202 0 297 -137.5t61 -382.5l-10 -65h-747zM256 598h623q15 110 -6.5 193.5t-85.5 133.5t-164 50q-80 0 -147.5 -32.5t-111.5 -87t-71.5 -120t-36.5 -137.5z" />
    <glyph glyph-name="uni1EC0" unicode="&#x1ec0;" horiz-adv-x="1232" 
d="M643 2212l447 -201l-39 -72l-459 158zM958 1694l-122 129l-168 -129h-146l269 215h92l211 -215h-136zM143 0l199 1481h852l-16 -123h-725l-74 -549h663l-16 -123h-664l-75 -561l749 -2l-16 -123h-877z" />
    <glyph glyph-name="uni1EC1" unicode="&#x1ec1;" horiz-adv-x="1132" 
d="M496 1788l444 -201l-39 -71l-459 157zM809 1270l-123 129l-168 -129h-145l268 215h92l211 -215h-135zM240 492q-15 -113 9 -203t94.5 -146.5t180.5 -56.5q104 0 175 44t126 132l105 -37q-69 -122 -178 -183.5t-242 -61.5q-138 0 -235 63t-141 186.5t-21 290.5
q35 258 175 407.5t351 149.5q202 0 297 -137.5t61 -382.5l-10 -65h-747zM256 598h623q15 110 -6.5 193.5t-85.5 133.5t-164 50q-80 0 -147.5 -32.5t-111.5 -87t-71.5 -120t-36.5 -137.5z" />
    <glyph glyph-name="uni1EC2" unicode="&#x1ec2;" horiz-adv-x="1232" 
d="M985 2093l25 -80q63 47 108 47q36 0 53 -13t11 -46q-1 -6 -3 -12t-6.5 -13t-8 -12.5t-11 -14t-12.5 -13.5t-15.5 -15t-16.5 -15.5t-18.5 -17.5t-19.5 -18l41 -64q8 8 30.5 29.5t31 30t25.5 26.5t24.5 28.5t18 26t15.5 29.5t7 29q9 64 -27 102.5t-104 38.5q-74 0 -148 -53
zM958 1694l-122 129l-168 -129h-146l269 215h92l211 -215h-136zM143 0l199 1481h852l-16 -123h-725l-74 -549h663l-16 -123h-664l-75 -561l749 -2l-16 -123h-877z" />
    <glyph glyph-name="uni1EC3" unicode="&#x1ec3;" horiz-adv-x="1132" 
d="M840 1669l24 -80q63 47 109 47q37 0 54 -13t11 -46q-1 -8 -4.5 -15.5t-10.5 -17t-12 -16t-17.5 -19t-19 -18.5t-24 -22t-24.5 -23l43 -64q7 7 26.5 26t27 26t23.5 23.5t23 25t17.5 23t15.5 25.5t10 24t6 26q9 64 -27 102.5t-102 38.5q-72 0 -149 -53zM809 1270l-123 129
l-168 -129h-145l268 215h92l211 -215h-135zM240 492q-15 -113 9 -203t94.5 -146.5t180.5 -56.5q104 0 175 44t126 132l105 -37q-69 -122 -178 -183.5t-242 -61.5q-138 0 -235 63t-141 186.5t-21 290.5q35 258 175 407.5t351 149.5q202 0 297 -137.5t61 -382.5l-10 -65h-747z
M256 598h623q15 110 -6.5 193.5t-85.5 133.5t-164 50q-80 0 -147.5 -32.5t-111.5 -87t-71.5 -120t-36.5 -137.5z" />
    <glyph glyph-name="uni1EC4" unicode="&#x1ec4;" horiz-adv-x="1232" 
d="M1149 2077q-75 -43 -158 -43q-54 0 -120 24.5t-103 24.5q-31 0 -56 -9t-47.5 -23.5t-33.5 -18.5l-25 88q42 28 75.5 41.5t76.5 13.5q48 0 122 -26.5t113 -26.5q27 0 49.5 8.5t46.5 22t39 18.5zM961 1694l-125 129l-168 -129h-144l267 215h94l209 -215h-133zM143 0
l199 1481h852l-16 -123h-725l-74 -549h663l-16 -123h-664l-75 -561l749 -2l-16 -123h-877z" />
    <glyph glyph-name="uni1EC5" unicode="&#x1ec5;" horiz-adv-x="1132" 
d="M999 1653q-75 -43 -159 -43q-54 0 -120 24.5t-104 24.5q-31 0 -55.5 -9t-46.5 -23.5t-35 -18.5l-22 88q80 55 151 55q48 0 121.5 -26.5t114.5 -26.5q26 0 48.5 8.5t47 22t39.5 18.5zM809 1270l-123 129l-168 -129h-145l268 215h92l211 -215h-135zM240 492
q-15 -113 9 -203t94.5 -146.5t180.5 -56.5q104 0 175 44t126 132l105 -37q-69 -122 -178 -183.5t-242 -61.5q-138 0 -235 63t-141 186.5t-21 290.5q35 258 175 407.5t351 149.5q202 0 297 -137.5t61 -382.5l-10 -65h-747zM256 598h623q15 110 -6.5 193.5t-85.5 133.5
t-164 50q-80 0 -147.5 -32.5t-111.5 -87t-71.5 -120t-36.5 -137.5z" />
    <glyph glyph-name="uni1EC6" unicode="&#x1ec6;" horiz-adv-x="1232" 
d="M961 1694l-125 129l-168 -129h-146l269 215h94l209 -215h-133zM143 0l199 1481h852l-16 -123h-725l-74 -549h663l-16 -123h-664l-75 -561l749 -2l-16 -123h-877zM670 -117l-25 -213h-133l31 213h127z" />
    <glyph glyph-name="uni1EC7" unicode="&#x1ec7;" horiz-adv-x="1132" 
d="M809 1270l-123 129l-168 -129h-145l268 215h92l211 -215h-135zM240 492q-15 -113 9 -203t94.5 -146.5t180.5 -56.5q104 0 175 44t126 132l105 -37q-69 -122 -178 -183.5t-242 -61.5q-138 0 -235 63t-141 186.5t-21 290.5q35 258 175 407.5t351 149.5q202 0 297 -137.5
t61 -382.5l-10 -65h-747zM256 598h623q15 110 -6.5 193.5t-85.5 133.5t-164 50q-80 0 -147.5 -32.5t-111.5 -87t-71.5 -120t-36.5 -137.5zM532 -117l-26 -213h-133l33 213h126z" />
    <glyph glyph-name="uni1EC8" unicode="&#x1ec8;" horiz-adv-x="552" 
d="M297 1896l25 -79q65 45 108 45q37 0 54.5 -13t11.5 -47q-1 -8 -4.5 -15.5t-10.5 -17t-12.5 -16.5t-17.5 -18.5t-19.5 -18.5t-23.5 -22t-25 -23l43 -61q8 8 35 34t35.5 34.5t27.5 29.5t26 33.5t15 31t10 35.5q9 63 -27 101.5t-102 38.5q-74 0 -149 -52zM342 1481h127
l-199 -1481h-127z" />
    <glyph glyph-name="uni1EC9" unicode="&#x1ec9;" horiz-adv-x="497" 
d="M203 1473l24 -80q65 45 109 45q37 0 54 -13t11 -47q-2 -13 -9 -26t-27.5 -34t-30.5 -30t-45 -41l43 -61q8 8 35 34t35.5 34.5t27.5 29.5t26 33.5t15 31t10 35.5q10 63 -25.5 101.5t-103.5 38.5q-75 0 -149 -51zM383 1057l-143 -1057h-127l143 1057h127z" />
    <glyph glyph-name="uni1ECA" unicode="&#x1eca;" horiz-adv-x="552" 
d="M342 1481h127l-199 -1481h-127zM258 -117l-25 -213h-133l31 213h127z" />
    <glyph glyph-name="uni1ECB" unicode="&#x1ecb;" horiz-adv-x="526" 
d="M465 1520l-31 -217h-143l31 217h143zM393 1057l-143 -1057h-125l143 1057h125zM244 -117l-27 -213h-133l33 213h127z" />
    <glyph glyph-name="uni1ECC" unicode="&#x1ecc;" horiz-adv-x="1460" 
d="M657 -20q-281 0 -410.5 195.5t-82.5 557.5q51 367 235.5 567.5t462.5 200.5t409.5 -199.5t82.5 -564.5q-51 -363 -234.5 -560t-462.5 -197zM676 100q222 0 358.5 158t177.5 479q44 323 -50 483t-314 160q-221 0 -360 -161t-183 -482q-42 -319 53.5 -478t317.5 -159z
M694 -117l-26 -213h-133l32 213h127z" />
    <glyph glyph-name="uni1ECD" unicode="&#x1ecd;" horiz-adv-x="1112" 
d="M479 -20q-211 0 -310 148.5t-65 393.5q33 249 176 402t353 153q209 0 308 -152t65 -399q-31 -246 -173.5 -396t-353.5 -150zM500 82q156 0 253.5 123t123.5 323q29 201 -38 324t-223 123q-157 0 -255.5 -123.5t-124.5 -323.5q-19 -129 2.5 -228.5t88.5 -158.5t173 -59z
M541 -117l-27 -213h-133l33 213h127z" />
    <glyph glyph-name="uni1ECE" unicode="&#x1ece;" horiz-adv-x="1415" 
d="M725 1896l25 -79q65 45 108 45q36 0 53 -13t13 -47q-1 -6 -3.5 -12t-7 -13t-8.5 -12.5t-11.5 -13.5t-12.5 -13.5t-15.5 -15.5t-16.5 -15.5t-18.5 -17.5t-19.5 -18l43 -61q10 10 41 40t41.5 41.5t29.5 34.5t27 42t11 40q9 63 -27.5 101.5t-102.5 38.5q-74 0 -149 -52z
M657 -20q-281 0 -410.5 195.5t-82.5 557.5q51 367 235.5 567.5t462.5 200.5t409.5 -199.5t82.5 -564.5q-51 -363 -234.5 -560t-462.5 -197zM676 100q222 0 358.5 158t177.5 479q44 323 -50 483t-314 160q-221 0 -360 -161t-183 -482q-42 -319 53.5 -478t317.5 -159z" />
    <glyph glyph-name="uni1ECF" unicode="&#x1ecf;" horiz-adv-x="1130" 
d="M524 1473l25 -80q65 45 108 45q36 0 53 -13t13 -47q-1 -6 -3.5 -12t-7 -13t-8.5 -12.5t-11.5 -13.5t-12.5 -13.5t-15.5 -15.5t-16.5 -15.5t-18.5 -17.5t-19.5 -18l43 -61q10 10 41 40t41.5 41.5t29.5 34.5t27 42t11 40q9 63 -27 101.5t-102 38.5q-76 0 -150 -51zM479 -20
q-211 0 -310 148.5t-65 393.5q33 249 176 402t353 153q209 0 308 -152t65 -399q-31 -246 -173.5 -396t-353.5 -150zM500 82q156 0 253.5 123t123.5 323q29 201 -38 324t-223 123q-157 0 -255.5 -123.5t-124.5 -323.5q-19 -129 2.5 -228.5t88.5 -158.5t173 -59z" />
    <glyph glyph-name="uni1ED0" unicode="&#x1ed0;" horiz-adv-x="1415" 
d="M1155 2218l23 -119l-496 -160l-20 76zM1012 1694l-123 129l-170 -129h-144l269 215h92l209 -215h-133zM657 -20q-281 0 -410.5 195.5t-82.5 557.5q51 367 235.5 567.5t462.5 200.5t409.5 -199.5t82.5 -564.5q-51 -363 -234.5 -560t-462.5 -197zM676 100q222 0 358.5 158
t177.5 479q44 323 -50 483t-314 160q-221 0 -360 -161t-183 -482q-42 -319 53.5 -478t317.5 -159z" />
    <glyph glyph-name="uni1ED1" unicode="&#x1ed1;" horiz-adv-x="1130" 
d="M954 1794l25 -119l-498 -159l-20 75zM811 1270l-123 129l-170 -129h-143l268 215h92l209 -215h-133zM479 -20q-211 0 -310 148.5t-65 393.5q33 249 176 402t353 153q209 0 308 -152t65 -399q-31 -246 -173.5 -396t-353.5 -150zM500 82q156 0 253.5 123t123.5 323
q29 201 -38 324t-223 123q-157 0 -255.5 -123.5t-124.5 -323.5q-19 -129 2.5 -228.5t88.5 -158.5t173 -59z" />
    <glyph glyph-name="uni1ED2" unicode="&#x1ed2;" horiz-adv-x="1415" 
d="M696 2212l447 -201l-41 -72l-457 158zM1012 1694l-123 129l-170 -129h-144l269 215h92l209 -215h-133zM657 -20q-281 0 -410.5 195.5t-82.5 557.5q51 367 235.5 567.5t462.5 200.5t409.5 -199.5t82.5 -564.5q-51 -363 -234.5 -560t-462.5 -197zM676 100q222 0 358.5 158
t177.5 479q44 323 -50 483t-314 160q-221 0 -360 -161t-183 -482q-42 -319 53.5 -478t317.5 -159z" />
    <glyph glyph-name="uni1ED3" unicode="&#x1ed3;" horiz-adv-x="1130" 
d="M496 1788l446 -201l-41 -71l-457 157zM811 1270l-123 129l-170 -129h-143l268 215h92l209 -215h-133zM479 -20q-211 0 -310 148.5t-65 393.5q33 249 176 402t353 153q209 0 308 -152t65 -399q-31 -246 -173.5 -396t-353.5 -150zM500 82q156 0 253.5 123t123.5 323
q29 201 -38 324t-223 123q-157 0 -255.5 -123.5t-124.5 -323.5q-19 -129 2.5 -228.5t88.5 -158.5t173 -59z" />
    <glyph glyph-name="uni1ED4" unicode="&#x1ed4;" horiz-adv-x="1415" 
d="M1036 2093l25 -80q63 47 108 47q37 0 54.5 -13t11.5 -46q-6 -34 -99 -118q-9 -9 -14 -13l43 -64q7 7 30.5 29t31 30t25 26.5t25 29t17.5 26t14.5 29.5t6.5 29q10 64 -26 102.5t-103 38.5q-73 0 -150 -53zM1012 1694l-123 129l-170 -129h-144l269 215h92l209 -215h-133z
M657 -20q-281 0 -410.5 195.5t-82.5 557.5q51 367 235.5 567.5t462.5 200.5t409.5 -199.5t82.5 -564.5q-51 -363 -234.5 -560t-462.5 -197zM676 100q222 0 358.5 158t177.5 479q44 323 -50 483t-314 160q-221 0 -360 -161t-183 -482q-42 -319 53.5 -478t317.5 -159z" />
    <glyph glyph-name="uni1ED5" unicode="&#x1ed5;" horiz-adv-x="1130" 
d="M842 1669l24 -80q63 47 109 47q35 0 52 -13t13 -46q-3 -16 -18 -36t-29 -34t-49 -46q-10 -10 -16 -15l43 -64q9 9 30 29.5t30 30t25 26.5t24 28.5t18 26.5t15 29t7 29q9 64 -27 102.5t-102 38.5q-72 0 -149 -53zM811 1270l-123 129l-170 -129h-143l268 215h92l209 -215
h-133zM479 -20q-211 0 -310 148.5t-65 393.5q33 249 176 402t353 153q209 0 308 -152t65 -399q-31 -246 -173.5 -396t-353.5 -150zM500 82q156 0 253.5 123t123.5 323q29 201 -38 324t-223 123q-157 0 -255.5 -123.5t-124.5 -323.5q-19 -129 2.5 -228.5t88.5 -158.5t173 -59
z" />
    <glyph glyph-name="uni1ED6" unicode="&#x1ed6;" horiz-adv-x="1415" 
d="M1200 2077q-75 -43 -158 -43q-54 0 -120 24.5t-103 24.5q-31 0 -55.5 -9t-46.5 -23.5t-35 -18.5l-25 88q83 55 154 55q47 0 120 -26.5t113 -26.5q27 0 50 8.5t47.5 21.5t40.5 19zM1012 1694l-123 129l-170 -129h-144l269 215h92l209 -215h-133zM657 -20
q-281 0 -410.5 195.5t-82.5 557.5q51 367 235.5 567.5t462.5 200.5t409.5 -199.5t82.5 -564.5q-51 -363 -234.5 -560t-462.5 -197zM676 100q222 0 358.5 158t177.5 479q44 323 -50 483t-314 160q-221 0 -360 -161t-183 -482q-42 -319 53.5 -478t317.5 -159z" />
    <glyph glyph-name="uni1ED7" unicode="&#x1ed7;" horiz-adv-x="1130" 
d="M999 1653q-75 -43 -157 -43q-54 0 -120.5 24.5t-103.5 24.5q-31 0 -55.5 -9t-46.5 -23.5t-35 -18.5l-24 88q83 55 153 55q47 0 120.5 -26.5t113.5 -26.5q27 0 49.5 8.5t47 21.5t40.5 19zM811 1270l-123 129l-170 -129h-143l268 215h92l209 -215h-133zM479 -20
q-211 0 -310 148.5t-65 393.5q33 249 176 402t353 153q209 0 308 -152t65 -399q-31 -246 -173.5 -396t-353.5 -150zM500 82q156 0 253.5 123t123.5 323q29 201 -38 324t-223 123q-157 0 -255.5 -123.5t-124.5 -323.5q-19 -129 2.5 -228.5t88.5 -158.5t173 -59z" />
    <glyph glyph-name="uni1ED8" unicode="&#x1ed8;" horiz-adv-x="1415" 
d="M1012 1694l-123 129l-170 -129h-144l269 215h92l209 -215h-133zM657 -20q-281 0 -410.5 195.5t-82.5 557.5q51 367 235.5 567.5t462.5 200.5t409.5 -199.5t82.5 -564.5q-51 -363 -234.5 -560t-462.5 -197zM676 100q222 0 358.5 158t177.5 479q44 323 -50 483t-314 160
q-221 0 -360 -161t-183 -482q-42 -319 53.5 -478t317.5 -159zM692 -117l-26 -213h-134l33 213h127z" />
    <glyph glyph-name="uni1ED9" unicode="&#x1ed9;" horiz-adv-x="1130" 
d="M811 1270l-123 129l-170 -129h-143l268 215h92l209 -215h-133zM479 -20q-211 0 -310 148.5t-65 393.5q33 249 176 402t353 153q209 0 308 -152t65 -399q-31 -246 -173.5 -396t-353.5 -150zM500 82q156 0 253.5 123t123.5 323q29 201 -38 324t-223 123
q-157 0 -255.5 -123.5t-124.5 -323.5q-19 -129 2.5 -228.5t88.5 -158.5t173 -59zM541 -117l-27 -213h-133l33 213h127z" />
    <glyph glyph-name="uni1EDA" unicode="&#x1eda;" horiz-adv-x="1390" 
d="M1176 1810l-498 -157l-19 76l494 200zM1135 1434q138 -83 196 -261t23 -436q-51 -363 -234.5 -560t-462.5 -197q-281 0 -410.5 195.5t-82.5 557.5q51 367 235.5 567.5t462.5 200.5q77 0 137 -14v4q101 0 150 121h117q-32 -117 -131 -178zM1212 737q44 323 -50 483
t-314 160q-221 0 -360 -161t-183 -482q-42 -319 53.5 -478t317.5 -159t358.5 158t177.5 479z" />
    <glyph glyph-name="uni1EDB" unicode="&#x1edb;" horiz-adv-x="1124" 
d="M936 1386l-498 -157l-20 76l495 200zM887 989q78 -72 109.5 -192t9.5 -271q-31 -246 -173.5 -396t-353.5 -150t-310 148.5t-65 393.5q33 249 176 402t353 153q69 0 137 -20q61 0 94.5 33.5t55.5 87.5h116q-38 -136 -149 -189zM877 528q29 201 -38 324t-223 123
q-157 0 -255.5 -123.5t-124.5 -323.5q-19 -129 2.5 -228.5t88.5 -158.5t173 -59q156 0 253.5 123t123.5 323z" />
    <glyph glyph-name="uni1EDC" unicode="&#x1edc;" horiz-adv-x="1390" 
d="M1141 1722l-41 -69l-457 157l51 115zM1135 1434q138 -83 196 -261t23 -436q-51 -363 -234.5 -560t-462.5 -197q-281 0 -410.5 195.5t-82.5 557.5q51 367 235.5 567.5t462.5 200.5q77 0 137 -14v4q101 0 150 121h117q-32 -117 -131 -178zM1212 737q44 323 -50 483
t-314 160q-221 0 -360 -161t-183 -482q-42 -319 53.5 -478t317.5 -159t358.5 158t177.5 479z" />
    <glyph glyph-name="uni1EDD" unicode="&#x1edd;" horiz-adv-x="1124" 
d="M899 1298l-39 -69l-459 157l54 115zM887 989q78 -72 109.5 -192t9.5 -271q-31 -246 -173.5 -396t-353.5 -150t-310 148.5t-65 393.5q33 249 176 402t353 153q69 0 137 -20q61 0 94.5 33.5t55.5 87.5h116q-38 -136 -149 -189zM877 528q29 201 -38 324t-223 123
q-157 0 -255.5 -123.5t-124.5 -323.5q-19 -129 2.5 -228.5t88.5 -158.5t173 -59q156 0 253.5 123t123.5 323z" />
    <glyph glyph-name="uni1EDE" unicode="&#x1ede;" horiz-adv-x="1390" 
d="M895 1862q-44 0 -109 -45l-24 79q75 52 149 52q66 0 102 -38.5t27 -101.5q-3 -21 -10.5 -39.5t-27 -42.5t-29 -34.5t-42 -42t-40.5 -39.5l-43 61q9 8 25 23t23.5 22t19.5 18.5t17.5 18.5t12.5 16.5t10.5 17t4.5 15.5q4 34 -13 47t-53 13zM1135 1434q138 -83 196 -261
t23 -436q-51 -363 -234.5 -560t-462.5 -197q-281 0 -410.5 195.5t-82.5 557.5q51 367 235.5 567.5t462.5 200.5q77 0 137 -14v4q101 0 150 121h117q-32 -117 -131 -178zM1212 737q44 323 -50 483t-314 160q-221 0 -360 -161t-183 -482q-42 -319 53.5 -478t317.5 -159
t358.5 158t177.5 479z" />
    <glyph glyph-name="uni1EDF" unicode="&#x1edf;" horiz-adv-x="1124" 
d="M655 1438q-43 0 -108 -45l-25 80q74 51 148 51q68 0 104 -38.5t27 -101.5q-3 -21 -11 -40t-27 -42t-29.5 -34.5t-41.5 -41.5t-41 -40l-43 61q7 6 19.5 18t18.5 17.5t16.5 15.5t15.5 15.5t12.5 13.5t11.5 13.5t8.5 12.5t7 13t3.5 12q4 34 -13 47t-53 13zM887 989
q78 -72 109.5 -192t9.5 -271q-31 -246 -173.5 -396t-353.5 -150t-310 148.5t-65 393.5q33 249 176 402t353 153q69 0 137 -20q61 0 94.5 33.5t55.5 87.5h116q-38 -136 -149 -189zM877 528q29 201 -38 324t-223 123q-157 0 -255.5 -123.5t-124.5 -323.5q-19 -129 2.5 -228.5
t88.5 -158.5t173 -59q156 0 253.5 123t123.5 323z" />
    <glyph glyph-name="uni1EE0" unicode="&#x1ee0;" horiz-adv-x="1390" 
d="M815 1796q-31 0 -55.5 -9t-46.5 -23.5t-33 -18.5l-25 86q75 55 152 55q49 0 122 -25.5t113 -25.5q27 0 49.5 7.5t47.5 22t39 19.5l20 -94q-65 -43 -158 -43q-55 0 -121 24.5t-104 24.5zM1135 1434q138 -83 196 -261t23 -436q-51 -363 -234.5 -560t-462.5 -197
q-281 0 -410.5 195.5t-82.5 557.5q51 367 235.5 567.5t462.5 200.5q77 0 137 -14v4q101 0 150 121h117q-32 -117 -131 -178zM1212 737q44 323 -50 483t-314 160q-221 0 -360 -161t-183 -482q-42 -319 53.5 -478t317.5 -159t358.5 158t177.5 479z" />
    <glyph glyph-name="uni1EE1" unicode="&#x1ee1;" horiz-adv-x="1124" 
d="M575 1372q-31 0 -55.5 -9t-46.5 -23.5t-35 -18.5l-22 86q75 55 151 55q48 0 121.5 -25.5t114.5 -25.5q26 0 48 7.5t47.5 22t39.5 19.5l20 -94q-65 -43 -159 -43q-53 0 -119 24.5t-105 24.5zM887 989q78 -72 109.5 -192t9.5 -271q-31 -246 -173.5 -396t-353.5 -150
t-310 148.5t-65 393.5q33 249 176 402t353 153q69 0 137 -20q61 0 94.5 33.5t55.5 87.5h116q-38 -136 -149 -189zM877 528q29 201 -38 324t-223 123q-157 0 -255.5 -123.5t-124.5 -323.5q-19 -129 2.5 -228.5t88.5 -158.5t173 -59q156 0 253.5 123t123.5 323z" />
    <glyph glyph-name="uni1EE2" unicode="&#x1ee2;" horiz-adv-x="1390" 
d="M1135 1434q138 -83 196 -261t23 -436q-51 -363 -234.5 -560t-462.5 -197q-281 0 -410.5 195.5t-82.5 557.5q51 367 235.5 567.5t462.5 200.5q77 0 137 -14v4q101 0 150 121h117q-32 -117 -131 -178zM1212 737q44 323 -50 483t-314 160q-221 0 -360 -161t-183 -482
q-42 -319 53.5 -478t317.5 -159t358.5 158t177.5 479zM535 -330l32 213h127l-26 -213h-133z" />
    <glyph glyph-name="uni1EE3" unicode="&#x1ee3;" horiz-adv-x="1124" 
d="M887 989q78 -72 109.5 -192t9.5 -271q-31 -246 -173.5 -396t-353.5 -150t-310 148.5t-65 393.5q33 249 176 402t353 153q69 0 137 -20q61 0 94.5 33.5t55.5 87.5h116q-38 -136 -149 -189zM877 528q29 201 -38 324t-223 123q-157 0 -255.5 -123.5t-124.5 -323.5
q-19 -129 2.5 -228.5t88.5 -158.5t173 -59q156 0 253.5 123t123.5 323zM385 -330l33 213h127l-27 -213h-133z" />
    <glyph glyph-name="uni1EE4" unicode="&#x1ee4;" horiz-adv-x="1357" 
d="M1194 483q-34 -251 -171.5 -377t-389.5 -126q-255 0 -355.5 130t-64.5 398l129 973h133l-133 -1004q-53 -379 307 -379q368 0 420 379l133 1004h127zM655 -117l-24 -213h-133l30 213h127z" />
    <glyph glyph-name="uni1EE5" unicode="&#x1ee5;" horiz-adv-x="1138" 
d="M416 -18q-148 3 -221 84.5t-54 216.5l105 778h125l-101 -744q-29 -229 187 -229q89 0 163.5 38.5t196.5 133.5l107 801h127l-144 -1059h-104l12 162q-129 -98 -216 -140.5t-183 -41.5zM551 -117l-25 -213h-133l31 213h127z" />
    <glyph glyph-name="uni1EE6" unicode="&#x1ee6;" horiz-adv-x="1406" 
d="M719 1896l22 -79q68 45 111 45q36 0 52.5 -13t10.5 -47q-3 -16 -17 -36t-29 -34.5t-49 -46.5q-10 -9 -15 -14l41 -61q9 8 35.5 33.5t35.5 34.5t27.5 30t26 33.5t16 31t10.5 35.5q9 63 -27 101.5t-104 38.5q-75 0 -147 -52zM1194 483q-34 -251 -171.5 -377t-389.5 -126
q-255 0 -355.5 130t-64.5 398l129 973h133l-133 -1004q-53 -379 307 -379q368 0 420 379l133 1004h127z" />
    <glyph glyph-name="uni1EE7" unicode="&#x1ee7;" horiz-adv-x="1138" 
d="M512 1473l25 -80q65 45 108 45q37 0 54.5 -13t11.5 -47q-1 -8 -4.5 -15.5t-10.5 -17t-12.5 -16.5t-17.5 -18.5t-19.5 -18.5t-23.5 -22t-25 -23l43 -61q10 9 35.5 33.5t35.5 34.5t28 30t26 33t15.5 31.5t9.5 35.5q9 63 -27 101.5t-102 38.5q-76 0 -150 -51zM416 -18
q-148 3 -221 84.5t-54 216.5l105 778h125l-101 -744q-29 -229 187 -229q89 0 163.5 38.5t196.5 133.5l107 801h127l-144 -1059h-104l12 162q-129 -98 -216 -140.5t-183 -41.5z" />
    <glyph glyph-name="uni1EE8" unicode="&#x1ee8;" horiz-adv-x="1339" 
d="M1120 1810l-495 -157l-21 76l494 200zM1575 1614q-23 -85 -88.5 -147.5t-169.5 -69.5l-123 -914q-34 -251 -171.5 -377t-389.5 -126q-255 0 -355.5 130t-64.5 398l129 973h133l-133 -1004q-53 -379 307 -379q368 0 420 379l133 1004h105l2 12q59 0 93 33.5t56 87.5h117z
" />
    <glyph glyph-name="uni1EE9" unicode="&#x1ee9;" horiz-adv-x="1130" 
d="M934 1386l-498 -157l-20 76l495 200zM1255 1176q-21 -76 -76 -135.5t-141 -75.5l-131 -963h-104l12 162q-129 -98 -216 -140.5t-183 -41.5q-148 3 -221 84.5t-54 216.5l105 778h125l-101 -744q-29 -229 187 -229q89 0 163.5 38.5t196.5 133.5l107 801h110q68 19 105 115
h116z" />
    <glyph glyph-name="uni1EEA" unicode="&#x1eea;" horiz-adv-x="1339" 
d="M1085 1722l-41 -69l-456 157l51 115zM1575 1614q-23 -85 -88.5 -147.5t-169.5 -69.5l-123 -914q-34 -251 -171.5 -377t-389.5 -126q-255 0 -355.5 130t-64.5 398l129 973h133l-133 -1004q-53 -379 307 -379q368 0 420 379l133 1004h105l2 12q59 0 93 33.5t56 87.5h117z
" />
    <glyph glyph-name="uni1EEB" unicode="&#x1eeb;" horiz-adv-x="1130" 
d="M897 1298l-39 -69l-459 157l54 115zM1255 1176q-21 -76 -76 -135.5t-141 -75.5l-131 -963h-104l12 162q-129 -98 -216 -140.5t-183 -41.5q-148 3 -221 84.5t-54 216.5l105 778h125l-101 -744q-29 -229 187 -229q89 0 163.5 38.5t196.5 133.5l107 801h110q68 19 105 115
h116z" />
    <glyph glyph-name="uni1EEC" unicode="&#x1eec;" horiz-adv-x="1339" 
d="M840 1862q-44 0 -109 -45l-24 79q75 52 149 52q68 0 103.5 -38.5t25.5 -101.5q-2 -17 -10 -35.5t-15 -31t-26 -33.5t-27.5 -29.5t-35.5 -34.5t-35 -34l-41 61q5 5 15 14q34 31 49 46t29 35t17 36q6 34 -11 47t-54 13zM1575 1614q-23 -85 -88.5 -147.5t-169.5 -69.5
l-123 -914q-34 -251 -171.5 -377t-389.5 -126q-255 0 -355.5 130t-64.5 398l129 973h133l-133 -1004q-53 -379 307 -379q368 0 420 379l133 1004h105l2 12q59 0 93 33.5t56 87.5h117z" />
    <glyph glyph-name="uni1EED" unicode="&#x1eed;" horiz-adv-x="1130" 
d="M655 1438q-43 0 -108 -45l-25 80q74 51 148 51q68 0 104 -38.5t27 -101.5q-3 -21 -11 -40t-27 -42t-29.5 -34.5t-41.5 -41.5t-41 -40l-43 61q7 6 19.5 18t18.5 17.5t16.5 15.5t15.5 15.5t12.5 13.5t11.5 13.5t8.5 12.5t7 13t3.5 12q4 34 -13 47t-53 13zM1255 1176
q-21 -76 -76 -135.5t-141 -75.5l-131 -963h-104l12 162q-129 -98 -216 -140.5t-183 -41.5q-148 3 -221 84.5t-54 216.5l105 778h125l-101 -744q-29 -229 187 -229q89 0 163.5 38.5t196.5 133.5l107 801h110q68 19 105 115h116z" />
    <glyph glyph-name="uni1EEE" unicode="&#x1eee;" horiz-adv-x="1339" 
d="M762 1796q-31 0 -55.5 -9t-46.5 -23.5t-35 -18.5l-25 86q78 55 154 55q47 0 120 -25.5t113 -25.5q27 0 49.5 7.5t47.5 21.5t40 20l19 -94q-65 -43 -158 -43q-54 0 -120 24.5t-103 24.5zM1575 1614q-23 -85 -88.5 -147.5t-169.5 -69.5l-123 -914q-34 -251 -171.5 -377
t-389.5 -126q-255 0 -355.5 130t-64.5 398l129 973h133l-133 -1004q-53 -379 307 -379q368 0 420 379l133 1004h105l2 12q59 0 93 33.5t56 87.5h117z" />
    <glyph glyph-name="uni1EEF" unicode="&#x1eef;" horiz-adv-x="1130" 
d="M573 1372q-31 0 -55.5 -9t-46.5 -23.5t-35 -18.5l-22 86q75 55 151 55q48 0 121.5 -25.5t114.5 -25.5q26 0 48 7.5t47.5 22t39.5 19.5l20 -94q-65 -43 -159 -43q-54 0 -120.5 24.5t-103.5 24.5zM1255 1176q-21 -76 -76 -135.5t-141 -75.5l-131 -963h-104l12 162
q-129 -98 -216 -140.5t-183 -41.5q-148 3 -221 84.5t-54 216.5l105 778h125l-101 -744q-29 -229 187 -229q89 0 163.5 38.5t196.5 133.5l107 801h110q68 19 105 115h116z" />
    <glyph glyph-name="uni1EF0" unicode="&#x1ef0;" horiz-adv-x="1339" 
d="M1575 1614q-23 -85 -88.5 -147.5t-169.5 -69.5l-123 -914q-34 -251 -171.5 -377t-389.5 -126q-255 0 -355.5 130t-64.5 398l129 973h133l-133 -1004q-53 -379 307 -379q368 0 420 379l133 1004h105l2 12q59 0 93 33.5t56 87.5h117zM502 -330l30 213h127l-24 -213h-133z
" />
    <glyph glyph-name="uni1EF1" unicode="&#x1ef1;" horiz-adv-x="1130" 
d="M1255 1176q-21 -76 -76 -135.5t-141 -75.5l-131 -963h-104l12 162q-129 -98 -216 -140.5t-183 -41.5q-148 3 -221 84.5t-54 216.5l105 778h125l-101 -744q-29 -229 187 -229q89 0 163.5 38.5t196.5 133.5l107 801h110q68 19 105 115h116zM383 -330l33 213h127l-27 -213
h-133z" />
    <glyph glyph-name="Ygrave" unicode="&#x1ef2;" horiz-adv-x="1116" 
d="M508 1925l446 -203l-41 -69l-456 157zM1231 1481l-588 -848l-86 -633h-125l86 635l-366 846h133l311 -729l498 729h137z" />
    <glyph glyph-name="ygrave" unicode="&#x1ef3;" horiz-adv-x="1040" 
d="M426 1501l446 -203l-38 -69l-459 157zM131 -338q-49 0 -83.5 5t-43.5 11l-10 5l12 86h109q91 -3 139.5 30t81.5 92l61 123l-256 1043h129l209 -885l445 885h123l-592 -1178q-63 -118 -142.5 -167.5t-181.5 -49.5z" />
    <glyph glyph-name="uni1EF4" unicode="&#x1ef4;" horiz-adv-x="1107" 
d="M1231 1481l-588 -848l-86 -633h-125l86 635l-366 846h133l311 -729l498 729h137zM389 -117l-27 -213h-133l33 213h127z" />
    <glyph glyph-name="uni1EF5" unicode="&#x1ef5;" horiz-adv-x="991" 
d="M117 -338q-48 0 -82.5 5t-44.5 11l-10 5l14 86h106q92 -3 142 30.5t80 91.5l61 123l-256 1043h129l209 -885l444 885h123l-592 -1178q-63 -118 -142 -167.5t-181 -49.5zM707 -117l-27 -213h-133l33 213h127z" />
    <glyph glyph-name="uni1EF6" unicode="&#x1ef6;" horiz-adv-x="1112" 
d="M575 1896l25 -79q65 45 109 45q37 0 53 -12.5t12 -47.5q-1 -8 -4.5 -15.5t-10.5 -17t-12 -16t-17.5 -19t-19 -18.5t-24 -22t-24.5 -23l43 -61q8 7 30.5 29t30.5 30t25 26t24 28.5t17 26t15 29.5t7 29q9 63 -27 101.5t-102 38.5q-75 0 -150 -52zM1231 1481l-588 -848
l-86 -633h-125l86 635l-366 846h133l311 -729l498 729h137z" />
    <glyph glyph-name="uni1EF7" unicode="&#x1ef7;" horiz-adv-x="1052" 
d="M498 1473l24 -80q65 45 109 45q36 0 52.5 -13t10.5 -47q-3 -16 -17 -36t-29 -34.5t-49 -46.5q-10 -9 -15 -14l41 -61q9 8 35.5 33.5t35.5 34.5t27.5 30t26 33.5t16 31t10.5 35.5q9 63 -27 101.5t-104 38.5q-76 0 -147 -51zM131 -338q-49 0 -83.5 5t-43.5 11l-10 5l12 86
h109q91 -3 139.5 30t81.5 92l61 123l-256 1043h129l209 -885l445 885h123l-592 -1178q-63 -118 -142.5 -167.5t-181.5 -49.5z" />
    <glyph glyph-name="uni1EF8" unicode="&#x1ef8;" horiz-adv-x="1116" 
d="M1012 1790q-65 -43 -158 -43q-53 0 -119.5 24.5t-105.5 24.5q-31 0 -55.5 -9t-46.5 -23.5t-33 -18.5l-25 86q75 55 152 55q49 0 122 -25.5t113 -25.5q27 0 49 7.5t47 21.5t39 20zM1231 1481l-588 -848l-86 -633h-125l86 635l-366 846h133l311 -729l498 729h137z" />
    <glyph glyph-name="uni1EF9" unicode="&#x1ef9;" horiz-adv-x="1040" 
d="M930 1366q-62 -43 -158 -43q-54 0 -120 24.5t-103 24.5q-31 0 -55.5 -9t-46.5 -23.5t-35 -18.5l-25 86q78 55 154 55q47 0 120 -25.5t113 -25.5q27 0 49.5 7.5t47.5 21.5t40 20zM131 -338q-49 0 -83.5 5t-43.5 11l-10 5l12 86h109q91 -3 139.5 30t81.5 92l61 123
l-256 1043h129l209 -885l445 885h123l-592 -1178q-63 -118 -142.5 -167.5t-181.5 -49.5z" />
    <glyph glyph-name="endash" unicode="&#x2013;" horiz-adv-x="1075" 
d="M944 573l-16 -112l-803 -2l16 112z" />
    <glyph glyph-name="emdash" unicode="&#x2014;" horiz-adv-x="1689" 
d="M1559 573l-15 -112l-1419 -2l16 112z" />
    <glyph glyph-name="quoteleft" unicode="&#x2018;" horiz-adv-x="458" 
d="M492 1548l-140 -239l76 -2l-27 -193h-190l20 166l189 268h72z" />
    <glyph glyph-name="quoteright" unicode="&#x2019;" horiz-adv-x="399" 
d="M172 1047l139 239l-75 2l26 193h193l-21 -166l-188 -268h-74z" />
    <glyph glyph-name="quotesinglbase" unicode="&#x201a;" horiz-adv-x="436" 
d="M-14 -240l143 238l-80 2l25 193h194l-22 -160l-191 -273h-69z" />
    <glyph glyph-name="quotedblleft" unicode="&#x201c;" horiz-adv-x="763" 
d="M197 1047l22 165l189 269h73l-139 -240l76 -2l-27 -192h-194zM512 1047l20 165l189 269h72l-138 -240l76 -2l-26 -192h-193z" />
    <glyph glyph-name="quotedblright" unicode="&#x201d;" horiz-adv-x="772" 
d="M172 1047l139 239l-75 2l26 193h193l-21 -166l-188 -268h-74zM485 1047l140 239l-76 2l26 193h193l-23 -166l-186 -268h-74z" />
    <glyph glyph-name="quotedblbase" unicode="&#x201e;" horiz-adv-x="854" 
d="M-8 -240l178 238l-80 2l51 193h195l-45 -160l-230 -273h-69zM326 -240l178 238l-80 2l51 193h197l-47 -160l-230 -273h-69z" />
    <glyph glyph-name="dagger" unicode="&#x2020;" horiz-adv-x="833" 
d="M872 948l-18 -133l-350 21l-127 -1166h-146l187 1166l-363 -23l21 135l348 -18l51 551h146l-95 -549z" />
    <glyph glyph-name="daggerdbl" unicode="&#x2021;" horiz-adv-x="837" 
d="M504 829l-70 -520l357 23l-21 -135l-342 16l-51 -543h-146l95 543l-353 -16l19 133l354 -21l70 518l-363 -20l23 133l348 -16l51 557h146l-95 -555l346 16l-18 -133z" />
    <glyph glyph-name="bullet" unicode="&#x2022;" horiz-adv-x="606" 
d="M313 584q-69 0 -111 51t-32 123q9 69 61.5 116.5t118.5 47.5q69 0 111 -52.5t33 -124.5q-9 -68 -61.5 -114.5t-119.5 -46.5z" />
    <glyph glyph-name="ellipsis" unicode="&#x2026;" horiz-adv-x="1429" 
d="M248 197l-25 -197h-168l27 197h166zM756 197l-25 -197h-166l27 197h164zM1266 197l-25 -197h-168l29 197h164z" />
    <glyph glyph-name="perthousand" unicode="&#x2030;" horiz-adv-x="2535" 
d="M575 1503q146 0 221 -115t48 -315q-26 -197 -128 -307.5t-243 -110.5q-148 0 -223.5 115t-48.5 315q26 194 129.5 306t244.5 112zM1567 1497l-1157 -1505h-105l1159 1505h103zM469 735q105 0 179.5 96.5t96.5 251.5q21 151 -25.5 244.5t-146.5 93.5q-103 0 -177.5 -97.5
t-96.5 -252.5q-19 -150 26.5 -243t143.5 -93zM1348 827q146 0 221.5 -114.5t48.5 -313.5q-27 -198 -129 -308.5t-242 -110.5q-147 0 -222.5 115t-49.5 317q27 194 129.5 304.5t243.5 110.5zM2120 827q146 0 221.5 -114.5t48.5 -313.5q-27 -198 -130 -308.5t-243 -110.5
q-146 0 -222 115.5t-50 316.5q27 194 130.5 304.5t244.5 110.5zM1245 59q100 0 176.5 99.5t98.5 251.5q19 148 -28.5 243t-143.5 95q-100 0 -177 -100.5t-98 -250.5q-19 -146 28.5 -242t143.5 -96zM2017 59q100 0 176 100t97 251q20 148 -27.5 243t-144.5 95
q-99 0 -175.5 -100.5t-97.5 -250.5q-21 -147 26.5 -242.5t145.5 -95.5z" />
    <glyph glyph-name="guilsinglleft" unicode="&#x2039;" horiz-adv-x="520" 
d="M199 506l161 -356h-65l-225 368l319 377h84z" />
    <glyph glyph-name="guilsinglright" unicode="&#x203a;" horiz-adv-x="524" 
d="M315 520l-163 375h71l221 -389l-315 -356h-80z" />
    <glyph glyph-name="fraction" unicode="&#x2044;" horiz-adv-x="462" 
d="M887 1497l-1157 -1505h-105l1159 1505h103z" />
    <glyph glyph-name="uni2070" unicode="&#x2070;" horiz-adv-x="804" 
d="M524 1729q142 0 215 -126t43 -356q-31 -228 -138 -351.5t-251 -123.5t-216.5 123t-41.5 350q31 232 138.5 358t250.5 126zM406 848q109 0 184 97.5t102 301.5q28 206 -21 307t-157 101t-185 -101.5t-104 -306.5q-28 -202 22.5 -300.5t158.5 -98.5z" />
    <glyph glyph-name="uni2074" unicode="&#x2074;" horiz-adv-x="804" 
d="M633 1710h82l-80 -600h139l-10 -74h-139l-35 -258h-80l35 258h-422l10 82zM209 1110h342l65 485z" />
    <glyph glyph-name="uni2075" unicode="&#x2075;" horiz-adv-x="772" 
d="M303 1710h520l-16 -76h-440l-72 -342q45 24 70.5 36.5t70 24t90.5 11.5q125 0 199 -70.5t55 -210.5q-20 -148 -124.5 -232.5t-254.5 -84.5q-189 0 -288 135l65 53q52 -61 98.5 -88.5t122.5 -27.5q121 0 200 67t93 176q14 103 -40 156t-148 53q-42 0 -87.5 -13.5
t-73.5 -28t-69 -38.5q-5 -3 -7.5 -4t-3.5 -0.5t-3.5 2.5t-5.5 4l-49 33z" />
    <glyph glyph-name="uni2076" unicode="&#x2076;" horiz-adv-x="794" 
d="M551 1733q144 0 213 -123l-76 -37q-51 84 -145 84q-126 0 -213 -104t-107 -289q100 46 152 61.5t110 15.5q135 0 200.5 -76t51.5 -196q-18 -130 -116 -211.5t-226 -81.5q-154 0 -224.5 122.5t-39.5 344.5q31 228 142.5 359t277.5 131zM469 1268q-51 0 -117 -18t-110 -44
q-17 -11 -23.5 -21.5t-9.5 -35.5q-6 -49 1.5 -99t29 -96t65.5 -75t103 -29q90 0 158.5 62t80.5 153q12 87 -36.5 145t-141.5 58z" />
    <glyph glyph-name="uni2077" unicode="&#x2077;" horiz-adv-x="704" 
d="M227 1710h609l-13 -86q-144 -177 -286.5 -438t-184.5 -408h-90q52 163 178 403.5t293 452.5h-518z" />
    <glyph glyph-name="uni2078" unicode="&#x2078;" horiz-adv-x="774" 
d="M524 1731q129 0 197 -70t53 -186q-6 -48 -28 -89.5t-54 -68.5t-49 -39t-35 -21q4 -2 15 -7t20.5 -9t23.5 -12.5t24.5 -17t23.5 -22t20 -28.5t15 -36t7 -44t-3 -53q-15 -116 -113.5 -185t-247.5 -69q-148 0 -223.5 64.5t-60.5 179.5q9 66 57.5 130.5t142.5 106.5
q-134 60 -116 211q15 113 109 189t222 76zM516 1657q-90 0 -156.5 -53t-78.5 -134q-15 -125 112 -155l129 -31q37 -8 99.5 57.5t70.5 137.5q11 80 -36.5 129t-139.5 49zM408 846q107 0 177.5 49.5t82.5 132.5q15 125 -117 158l-162 41q-39 9 -112 -54t-84 -147
q-12 -85 44 -132.5t171 -47.5z" />
    <glyph glyph-name="uni2079" unicode="&#x2079;" horiz-adv-x="790" 
d="M348 776q-153 0 -221 121l74 37q51 -84 157 -84q133 0 216 118t106 359q-39 -80 -108 -120t-158 -40q-134 0 -200 76.5t-50 196.5q18 130 114.5 211.5t223.5 81.5q153 0 223 -122.5t39 -344.5q-31 -229 -141.5 -359.5t-274.5 -130.5zM428 1241q92 0 164 52.5t84 133.5
q-12 232 -184 232q-89 0 -158.5 -62t-81.5 -153q-11 -87 37 -145t139 -58z" />
    <glyph glyph-name="colonmonetary" unicode="&#x20a1;" horiz-adv-x="1150" 
d="M676 1184q-155 0 -261.5 -122.5t-133.5 -322.5q-26 -203 47.5 -323.5t228.5 -120.5q92 0 161 50.5t144 158.5l101 -45q-110 -180 -269 -240l-88 -219l-102 2l78 191q-24 -3 -50 -3q-12 0 -57 5l-76 -195l-102 2l84 215q-134 51 -194.5 188t-32.5 330q31 237 167 389
t332 164l76 193h102l-75 -199q48 -8 92 -31l90 230h100l-108 -289q55 -55 98 -160l-115 -43q-43 75 -71 112t-69 60t-97 23z" />
    <glyph glyph-name="franc" unicode="&#x20a3;" horiz-adv-x="1179" 
d="M1182 1362h-736l-77 -580h651l-16 -116h-654l-37 -283l334 2l-12 -96h-334l-39 -289h-145l39 289h-187l13 94h188l149 1098h881z" />
    <glyph glyph-name="lira" unicode="&#x20a4;" horiz-adv-x="1181" 
d="M1032 248q-123 -248 -407 -248h-670l14 117h76q76 -2 139.5 79t85.5 234q2 10 5 37t6 45q0 6 -8 6h-5h-215l13 96h215l-7 203h-180l12 96h168l-6 58q-1 143 33.5 248.5t98 165.5t142.5 88t175 28q123 0 222 -65t118 -156l-109 -41q-52 141 -223 141q-119 0 -206.5 -71.5
t-104.5 -194.5q-6 -31 -2 -190q0 -11 16 -11l334 2l-12 -96l-336 -2l6 -203l303 2l-12 -96h-291q-12 -110 -53 -220t-109 -181h371q105 0 175.5 39t113.5 129z" />
    <glyph glyph-name="uni20A6" unicode="&#x20a6;" horiz-adv-x="1402" 
d="M1434 891h-191l-33 -252h191l-12 -92h-191l-74 -547h-112l-281 547l-452 -2l-74 -545h-127l74 545h-129l10 94h131l33 252h-131l14 92h129l67 498h115l256 -498l483 2l66 496h127l-66 -496h191zM373 1247l-35 -264h170zM291 639h393l-129 252h-229zM1083 639l35 252h-424
l129 -252h260zM1030 238l41 309h-199z" />
    <glyph glyph-name="uni20A9" unicode="&#x20a9;" horiz-adv-x="2023" 
d="M2050 930h-338l-92 -225h401l-10 -95h-430l-250 -610h-135l-82 610l-344 -2l-248 -608h-131l-84 608h-213l15 97h184l-31 223h-125l15 96h98l-64 457h131l60 -457h446l185 457h106l62 -457h448l184 457h131l-188 -457h313zM1028 1245l-90 -221h121zM1495 705l90 225h-397
l31 -225h276zM809 705h293l-31 223h-172zM391 928l29 -223h274l90 223h-393zM1288 193l168 417h-225zM487 193l168 415h-223z" />
    <glyph glyph-name="dong" unicode="&#x20ab;" horiz-adv-x="968" 
d="M1051 1343l-13 -83h-118l-136 -992h-108l14 115q-1 -1 -16 -15.5t-21.5 -20.5t-25 -20.5t-32 -22.5t-36 -19.5t-43.5 -17.5t-49 -10.5t-57 -4.5q-156 0 -242.5 116t-56.5 326q28 205 146.5 331t281.5 126q73 0 125 -25.5t110 -95.5l31 230h-277l11 83h276l19 136h114
l-18 -136h121zM705 551l55 397q-83 103 -201 103q-123 0 -212 -99t-114 -266q-21 -168 40 -253t173 -85q96 0 173.5 65.5t85.5 137.5zM59 0l11 86h698l-12 -86h-697z" />
    <glyph glyph-name="Euro" unicode="&#x20ac;" horiz-adv-x="1138" 
d="M846 1380q-174 0 -296 -108t-185 -320l415 2l-12 -96h-428q-19 -98 -23 -127q-8 -73 -10 -100h430l-14 -94l-418 -2q3 -213 97 -323t274 -110q128 0 256 93l65 -103q-158 -112 -340 -112q-233 0 -362 145.5t-137 409.5h-183l15 96h170q4 72 10 112q12 78 20 115h-167
l10 94h180q77 261 241 405t388 144q92 0 175 -35t144 -96l-92 -84q-105 94 -223 94z" />
    <glyph glyph-name="uni20B9" unicode="&#x20b9;" horiz-adv-x="1091" 
d="M1186 1483l-12 -92h-285q97 -82 94 -226h160l-10 -92h-160q-51 -244 -324 -338q-13 0 -18 -16l166 -719h-154l-151 711h-451l16 110h357q176 0 274.5 59t130.5 193l-727 -2l14 92l728 2q3 109 -68 163t-219 54h-416l14 99z" />
    <glyph glyph-name="uni20BA" unicode="&#x20ba;" horiz-adv-x="1032" 
d="M872 485l127 -36q-98 -216 -256.5 -332.5t-365.5 -116.5h-227l61 457l-145 -54l-27 105l188 67l29 213l-154 -55l-24 105l194 71l78 572h144l-70 -518l291 106l24 -106l-331 -119l-29 -215l297 106l29 -102l-340 -123l-54 -391h103q143 0 256 87.5t202 278.5z" />
    <glyph glyph-name="uni2113" unicode="&#x2113;" horiz-adv-x="925" 
d="M315 438l-2 -32q-19 -119 -7.5 -189t45 -97.5t98.5 -27.5t126 33l-141 -145q-72 0 -123.5 25t-76 60.5t-38 86t-14.5 88t0 80.5t0 51q-1 6 -5 0q-1 -1 -1.5 -2t-1.5 -2l-104 -68l-37 96l166 113l73 541q31 224 133 338t240 114q127 0 185.5 -89t37.5 -228
q-7 -49 -23.5 -98.5t-35.5 -92t-52.5 -91.5t-59 -84.5t-71.5 -84.5t-73 -77t-80.5 -77t-78 -70.5t-79.5 -70.5zM391 991l-51 -393q66 51 128 111.5t129 141.5t114 177t59 189q27 178 -123 178q-99 0 -162.5 -93.5t-93.5 -310.5zM715 264q-73 -101 -140 -139l146 149z" />
    <glyph glyph-name="uni2116" unicode="&#x2116;" horiz-adv-x="2254" 
d="M1974 1499q141 0 211 -97t51 -257q-22 -150 -113 -241t-231 -91t-209 96.5t-47 249.5q20 153 112.5 246.5t225.5 93.5zM1262 1481h127l-199 -1481h-113l-639 1247l-168 -1247h-127l199 1481h117l637 -1243zM1974 1417q-96 0 -158 -72.5t-77 -193.5q-15 -122 24 -190
t131 -68q97 0 158 72t80 200q15 116 -25.5 184t-132.5 68z" />
    <glyph glyph-name="uni2117" unicode="&#x2117;" horiz-adv-x="1603" 
d="M731 -20q-120 0 -226.5 38.5t-187 109t-135.5 164.5t-76 211t-4 242q20 154 96 294t186 241t252 161t290 60t275 -61t211.5 -164t124 -244.5t19.5 -296.5q-28 -207 -149 -381t-300.5 -274t-375.5 -100zM735 86q126 0 246.5 47.5t217.5 132t164.5 209t86.5 270.5
q19 143 -14 266t-105.5 207t-178 131.5t-228.5 47.5q-172 0 -326.5 -82.5t-259.5 -235t-131 -344.5q-19 -145 13 -268t104.5 -206t178.5 -129t232 -46zM524 338l111 795h278q127 0 196 -55.5t56 -166.5q-18 -122 -99 -184.5t-202 -62.5h-194l-43 -326h-103zM682 752h186
q73 0 128 41t65 112q18 142 -158 142h-180z" />
    <glyph glyph-name="uni2120" unicode="&#x2120;" horiz-adv-x="1835" 
d="M328 -12q-216 0 -297 170l71 47q42 -75 92 -107t142 -32q227 0 246 163q8 54 -17.5 94.5t-103.5 73.5l-174 70q-167 66 -146 219q15 116 104.5 184t221.5 68q173 0 262 -135l-67 -51q-68 110 -207 110q-94 0 -157 -45t-73 -125q-10 -106 117 -157l164 -60
q99 -37 136.5 -95t25.5 -142q-13 -118 -104.5 -184t-235.5 -66zM819 0l125 926h103l190 -822l418 822h100l-125 -926h-82l105 770l-385 -770h-88l-174 762l-103 -762h-84z" />
    <glyph glyph-name="trademark" unicode="&#x2122;" horiz-adv-x="1763" 
d="M63 846l13 80h649l-10 -80h-275l-114 -846h-78l112 846h-297zM748 0l124 926h103l190 -822l418 822h100l-124 -926h-82l104 770l-385 -770h-88l-174 762l-103 -762h-83z" />
    <glyph glyph-name="uni2126" unicode="&#x2126;" horiz-adv-x="1480" 
d="M860 1380q-113 0 -210 -48.5t-164.5 -131t-112 -186t-60.5 -219.5q-17 -128 4 -239.5t74.5 -194.5t94 -129t98.5 -97q29 -16 24 -51l-10 -84h-477l18 123h330q-71 58 -105 92q-220 228 -199 544q2 32 7 64q14 106 52 205.5t100 185.5t141.5 150t183 100.5t217.5 36.5
q144 0 254.5 -58.5t172.5 -155.5t86.5 -219.5t6.5 -254.5q-13 -98 -49 -190.5t-77 -157.5t-95.5 -127t-92 -95t-79 -67t-45.5 -37q-26 -15 -2 -16h287l-16 -123h-476l21 129q58 38 103 72t112.5 100t115.5 133.5t89.5 167t56.5 207.5q9 90 5 173t-32.5 155.5t-73 126.5
t-116.5 85t-162 31z" />
    <glyph glyph-name="estimated" unicode="&#x212e;" horiz-adv-x="1601" 
d="M1376 303q-132 -148 -299.5 -235.5t-345.5 -87.5q-120 0 -226.5 38.5t-187 109t-135.5 164.5t-76 211t-4 242q20 154 96 294t186 241t252 161t290 60q145 0 272.5 -59.5t213 -158.5t126.5 -236t21 -285q-1 -15 -6 -19t-17 -4h-1065l-78 -585q131 -107 338 -107
q147 0 292.5 73t246.5 183h106zM928 1427q-189 0 -355 -98q-25 -12 -28 -37l-64 -477h695l71 526q-143 86 -319 86z" />
    <glyph glyph-name="uni2153" unicode="&#x2153;" horiz-adv-x="1826" 
d="M190 565l113 830l-188 -70l8 68l215 104h61l-125 -932h-84zM1460 1497l-1157 -1505h-106l1159 1505h104zM1194 807q52 60 133 95.5t162 35.5q130 0 201 -66t59 -167q-21 -153 -203 -216q93 -28 137 -90.5t31 -150.5q-15 -115 -115.5 -190.5t-252.5 -75.5q-92 0 -159.5 33
t-121.5 104l68 49q84 -113 229 -113q112 0 182.5 52t81.5 137q14 94 -51 146t-164 54h-119l8 72l101 2q99 0 175 52.5t85 129.5q9 70 -41 117t-137 47q-72 0 -128 -27t-112 -81z" />
    <glyph glyph-name="uni2154" unicode="&#x2154;" horiz-adv-x="1988" 
d="M47 571l12 82l330 305q117 104 167 168.5t60 133.5q11 91 -40.5 134.5t-126.5 43.5q-151 0 -242 -129l-57 43q123 164 315 164q118 0 184.5 -68.5t48.5 -187.5q-10 -81 -61.5 -151t-179.5 -189l-295 -273h465l-11 -76h-569zM1620 1497l-1157 -1505h-105l1158 1505h104z
M1356 807q50 60 132 95.5t163 35.5q129 0 200.5 -66t57.5 -167q-18 -152 -203 -216q93 -28 137.5 -90t32.5 -151q-15 -115 -116 -190.5t-253 -75.5q-93 0 -160.5 32.5t-121.5 104.5l69 49q45 -60 100 -86.5t130 -26.5q111 0 181 52t81 137q14 94 -51 146t-164 54h-119l10 72
l99 2q100 0 176 52t86 130q8 70 -42.5 117t-138.5 47q-129 0 -237 -108z" />
    <glyph glyph-name="oneeighth" unicode="&#x215b;" horiz-adv-x="1839" 
d="M190 565l113 830l-188 -70l8 68l215 104h61l-125 -932h-84zM1460 1497l-1157 -1505h-106l1159 1505h104zM1477 936q129 0 196.5 -70t52.5 -186q-17 -131 -161 -215q-3 -1 -4 -2q4 -2 15 -7t20 -9.5t23.5 -12.5t24 -17t23 -22.5t20 -28.5t14.5 -36t7 -44t-2 -53
q-15 -116 -113 -184.5t-247 -68.5q-148 0 -224 64t-61 179q9 67 57 131.5t144 106.5q-135 60 -117 211q15 113 109.5 188.5t222.5 75.5zM1468 862q-90 0 -156.5 -52.5t-78.5 -133.5q-15 -125 113 -156l127 -31q37 -8 100.5 57.5t71.5 137.5q11 80 -37 129t-140 49zM1360 51
q106 0 177 49.5t81 132.5q18 124 -115 158l-162 41q-24 5 -66.5 -19t-82.5 -74.5t-47 -107.5q-12 -85 44 -132.5t171 -47.5z" />
    <glyph glyph-name="threeeighths" unicode="&#x215c;" horiz-adv-x="2031" 
d="M213 1384q50 61 131 96.5t164 35.5q129 0 200.5 -66.5t57.5 -167.5q-20 -152 -203 -215q93 -28 137 -90.5t31 -151.5q-15 -115 -115 -190.5t-251 -75.5q-93 0 -161 32.5t-122 104.5l68 49q83 -112 229 -112q112 0 182.5 51.5t81.5 136.5q14 94 -51 146.5t-164 54.5h-119
l8 72l101 2q99 0 175 52.5t85 129.5q9 70 -40.5 117t-137.5 47q-71 0 -127.5 -27.5t-110.5 -81.5zM1651 1497l-1157 -1505h-105l1157 1505h105zM1669 936q128 0 196.5 -70.5t51.5 -185.5q-5 -39 -22 -75t-36 -58t-45 -42.5t-38 -27.5t-25 -14q4 -2 15 -7t20 -9.5t23.5 -12.5
t24.5 -17t23.5 -22.5t20.5 -28.5t15 -36t7 -44t-2 -53q-17 -117 -115.5 -185t-246.5 -68t-224 64.5t-59 178.5q9 67 57 131.5t144 106.5q-137 57 -117 211q15 113 108.5 188.5t223.5 75.5zM1659 862q-90 0 -157 -52.5t-79 -133.5q-15 -126 115 -156l127 -31q37 -8 99.5 57.5
t72.5 137.5q11 80 -37 129t-141 49zM1550 51q107 0 177.5 49.5t82.5 132.5q15 125 -114 158l-164 41q-39 9 -112.5 -54.5t-82.5 -146.5q-12 -85 43 -132.5t170 -47.5z" />
    <glyph glyph-name="fiveeighths" unicode="&#x215d;" horiz-adv-x="2033" 
d="M274 1497h521l-17 -76h-440l-72 -342q41 23 69 36t72 24.5t89 11.5q126 0 200.5 -70.5t55.5 -210.5q-20 -147 -125.5 -232t-253.5 -85q-190 0 -289 135l66 53q52 -61 98.5 -88.5t122.5 -27.5q121 0 200 67t93 176q13 103 -41 156t-148 53q-43 0 -88.5 -14t-71.5 -27.5
t-69 -38.5q-5 -3 -8 -4t-4 -0.5t-4 3t-5 3.5l-49 33zM1653 1497l-1157 -1505h-105l1157 1505h105zM1671 936q128 0 196.5 -70.5t51.5 -185.5q-5 -39 -22 -75t-36 -58t-45 -42.5t-38 -27.5t-25 -14q4 -2 15 -7t20 -9.5t24 -12.5t25 -17t23.5 -22.5t20.5 -28.5t15 -36t7.5 -44
t-2.5 -53q-17 -116 -116 -184.5t-247 -68.5t-224 64.5t-59 178.5q9 67 57 131.5t144 106.5q-137 57 -117 211q15 113 108.5 188.5t223.5 75.5zM1661 862q-90 0 -157 -52.5t-79 -133.5q-15 -126 115 -156l127 -31q37 -8 99.5 57.5t72.5 137.5q11 80 -37 129t-141 49zM1552 51
q107 0 177.5 49.5t82.5 132.5q15 125 -114 158l-164 41q-39 9 -112.5 -54.5t-82.5 -146.5q-12 -85 43 -132.5t170 -47.5z" />
    <glyph glyph-name="seveneighths" unicode="&#x215e;" horiz-adv-x="1961" 
d="M1581 1497l-1157 -1505h-105l1158 1505h104zM197 1495h608l-12 -86q-144 -177 -286.5 -438t-184.5 -408h-91q52 163 178 403.5t293 452.5h-518zM1599 936q128 0 196.5 -70.5t51.5 -185.5q-5 -39 -22 -75t-36 -58t-45 -42.5t-38 -27.5t-25 -14q4 -2 15 -7t20 -9.5
t24 -12.5t25 -17t23.5 -22.5t20.5 -28.5t15 -36t7.5 -44t-2.5 -53q-17 -116 -116 -184.5t-247 -68.5q-147 0 -223 64t-59 179q9 67 57 131.5t143 106.5q-136 56 -116 211q15 113 108.5 188.5t222.5 75.5zM1589 862q-90 0 -156.5 -52.5t-78.5 -133.5q-15 -126 114 -156
l127 -31q37 -8 99.5 57.5t72.5 137.5q11 80 -37 129t-141 49zM1481 51q107 0 177.5 49.5t82.5 132.5q15 125 -115 158l-164 41q-39 9 -111.5 -54.5t-82.5 -146.5q-12 -85 43 -132.5t170 -47.5z" />
    <glyph glyph-name="partialdiff" unicode="&#x2202;" horiz-adv-x="1140" 
d="M322 1276l-39 96q58 57 163 93t211 36q242 0 351.5 -193.5t58.5 -568.5q-47 -362 -200.5 -560.5t-385.5 -198.5q-131 0 -226.5 63t-137.5 171.5t-25 242.5q28 197 168 313.5t356 116.5q68 0 122.5 -15.5t84 -33t84.5 -56.5q15 -8 23 -2t8 17q38 286 -45 435.5t-279 149.5
q-47 0 -88 -8t-80 -26.5t-61 -31.5t-63 -40zM473 94h2q141 0 261 132.5t167 344.5q11 52 2 72q-39 55 -126 93t-179 38q-144 0 -248.5 -96t-126.5 -246q-19 -141 53 -239.5t195 -98.5z" />
    <glyph glyph-name="emptyset" unicode="&#x2205;" horiz-adv-x="1122" 
d="M1073 1085l-129 -110q59 -108 41 -238q-22 -167 -153 -285t-291 -118q-143 0 -240 94l-143 -123l-58 72l146 123q-67 109 -49 250q25 169 154 286t290 117q154 0 250 -104l129 108zM279 737q-12 -103 30 -182l518 438q-77 74 -186 74q-131 0 -236.5 -97t-125.5 -233z
M901 750q15 92 -22 170l-512 -437q69 -63 176 -63q130 0 235.5 97.5t122.5 232.5z" />
    <glyph glyph-name="uni2206" unicode="&#x2206;" horiz-adv-x="1253" 
d="M4 0l27 143l651 1340l143 -2l295 -1358l-14 -123h-1102zM158 121h829l-254 1204z" />
    <glyph glyph-name="product" unicode="&#x220f;" horiz-adv-x="1243" 
d="M1343 1481l-16 -121h-203l-184 -1360h-137l184 1360h-498l-182 -1360h-137l182 1360h-205l19 121h1177z" />
    <glyph glyph-name="summation" unicode="&#x2211;" horiz-adv-x="995" 
d="M874 0h-897l17 102l514 641l-315 643l12 95h831l-14 -117h-664l312 -623l-500 -622h719z" />
    <glyph glyph-name="minus" unicode="&#x2212;" horiz-adv-x="1073" 
d="M975 799l-14 -109l-805 -2l16 109z" />
    <glyph glyph-name="radical" unicode="&#x221a;" horiz-adv-x="1196" 
d="M1360 1688l-778 -2018h-140l-211 955l-147 -58l-29 95l275 104l194 -940l717 1862h119z" />
    <glyph glyph-name="infinity" unicode="&#x221e;" horiz-adv-x="1382" 
d="M1284 557l-2 -4q-13 -99 -63.5 -173t-121 -110.5t-149.5 -36.5q-39 0 -72 10.5t-56 24t-48.5 41.5t-39.5 47.5t-40 57.5q-10 7 -14.5 5t-18.5 -18q-5 -4 -29.5 -28.5t-49 -44.5t-60 -44t-79 -37.5t-89.5 -13.5q-122 0 -195 90t-55 232q19 140 115 224.5t229 84.5
q49 0 86.5 -11.5t68 -37.5t49.5 -49.5t48 -65.5q14 -12 22.5 -9.5t22.5 20.5q32 30 45.5 42.5t48 38.5t60 38t64 23t77.5 11q124 0 193.5 -84.5t52.5 -222.5zM362 346h7q65 0 131 48t116 112q23 27 25.5 40.5t-12.5 47.5q-42 81 -90 122.5t-111 41.5q-85 0 -146.5 -59
t-72.5 -150q-12 -89 32.5 -146t120.5 -57zM1028 758h-2q-45 0 -95 -29.5t-80 -58.5t-79 -82q-38 -36 -16 -82q90 -160 217 -160q80 0 136 65t67 148q11 82 -29 140.5t-119 58.5z" />
    <glyph glyph-name="integral" unicode="&#x222b;" horiz-adv-x="831" 
d="M414 1341q24 177 115.5 272t218.5 95q81 0 126 -14.5t95 -51.5l-47 -106q-51 24 -86 33.5t-78 9.5q-80 0 -140.5 -59t-76.5 -174q-27 -214 -43 -663t-45 -663q-22 -179 -113.5 -274.5t-216.5 -95.5q-78 0 -122.5 14t-96.5 51l49 109q86 -45 164 -45q76 0 134.5 59.5
t74.5 175.5q30 221 45 667.5t43 659.5z" />
    <glyph glyph-name="approxequal" unicode="&#x2248;" horiz-adv-x="1093" 
d="M1016 913q-37 -41 -98.5 -69.5t-139.5 -28.5q-63 0 -121 24t-113 48t-110 24q-127 0 -223 -104l-33 96q42 34 72 54t79 37.5t101 17.5q48 0 97 -15.5t83 -34t80 -34t90 -15.5q115 0 201 103zM965 522q-39 -42 -100.5 -71t-139.5 -29q-53 0 -102 15.5t-81 33.5t-76 33.5
t-87 15.5q-123 0 -221 -106l-33 98q62 50 120.5 78t129.5 28q62 0 122.5 -24.5t118 -49t111.5 -24.5q116 0 201 103z" />
    <glyph glyph-name="notequal" unicode="&#x2260;" horiz-adv-x="1148" 
d="M993 889h-227l-188 -338h370l-14 -109h-418l-164 -292h-96l166 292h-293l14 107h340l191 340l-484 -2l13 108h532l156 275h90l-154 -275h181z" />
    <glyph glyph-name="lessequal" unicode="&#x2264;" horiz-adv-x="1060" 
d="M924 623l-17 -125l-741 323l16 131l834 326l-21 -139l-657 -254zM881 250l-17 -107h-803l15 109z" />
    <glyph glyph-name="greaterequal" unicode="&#x2265;" horiz-adv-x="1067" 
d="M158 629l657 256l-588 260l17 131l743 -328l-18 -131l-828 -323zM104 250l803 2l-14 -109h-803z" />
    <glyph glyph-name="lozenge" unicode="&#x25ca;" horiz-adv-x="905" 
d="M442 0h-116l-207 745l409 736h117l209 -746zM573 1364l-331 -625l157 -622l330 626z" />
    <glyph glyph-name="i.loclTRK" horiz-adv-x="491" 
d="M451 1481l-27 -219h-143l28 219h142zM385 1057l-143 -1057h-129l145 1057h127z" />
    <glyph glyph-name="g.001" horiz-adv-x="1146" 
d="M907 39q-12 -93 -48.5 -164.5t-84 -113t-110.5 -67.5t-121.5 -35t-124.5 -9q-138 0 -234 59t-143 133l78 60q45 -65 120 -106.5t171 -41.5q154 -2 254 65.5t120 200.5l21 140q-20 -25 -49 -51t-72.5 -54.5t-102 -46.5t-120.5 -18q-168 0 -269.5 108.5t-101.5 313.5
q0 96 21.5 190t65.5 180t105.5 151.5t148.5 104.5t187 39q83 0 158 -39t125 -120l23 139h123zM829 354l60 461q-37 72 -105.5 116t-146.5 44q-100 0 -182.5 -50.5t-133 -132t-77.5 -178.5t-27 -196q0 -162 79 -245t202 -83q120 0 220 86t111 178z" />
    <glyph glyph-name="l.ss01" horiz-adv-x="552" 
d="M143 0l205 1520h125l-203 -1520h-127z" />
    <glyph glyph-name="one.osf" horiz-adv-x="759" 
d="M299 0l176 1317l-299 -111l14 111l340 164h101l-199 -1481h-133z" />
    <glyph glyph-name="two.osf" horiz-adv-x="1122" 
d="M29 0l18 129l524 485q188 167 267.5 268.5t93.5 213.5q8 60 -4.5 109t-38.5 80.5t-63 53t-76.5 30.5t-81.5 9q-240 0 -387 -207l-91 70q201 260 502 260q188 0 293.5 -108t77.5 -299q-18 -129 -100 -240.5t-285 -300.5l-467 -430h737l-16 -123h-903z" />
    <glyph glyph-name="three.osf" horiz-adv-x="1216" 
d="M260 1303q80 95 209.5 150.5t259.5 55.5q206 0 319.5 -105t92.5 -267q-33 -238 -324 -340q147 -43 218.5 -144t49.5 -241q-25 -184 -184.5 -304t-400.5 -120q-146 0 -254.5 53t-192.5 166l109 80q70 -96 157.5 -137t206.5 -41q177 0 288.5 82t129.5 215q12 76 -12 138
t-74.5 100t-116 58.5t-139.5 20.5l-188 2l14 115l158 2q159 2 278.5 84.5t136.5 206.5q14 110 -65.5 185t-218.5 75q-114 0 -203 -43.5t-176 -130.5z" />
    <glyph glyph-name="four.osf" horiz-adv-x="1218" 
d="M899 1481h133l-131 -955h223l-16 -114h-221l-56 -412h-126l55 412h-670l16 129zM225 526h547l100 774z" />
    <glyph glyph-name="five.osf" horiz-adv-x="1263" 
d="M371 1481h825l-25 -121h-702l-113 -543q68 38 110.5 58t113 38.5t143.5 18.5q75 0 140 -16t120 -51t91.5 -86.5t51.5 -126.5t2 -167q-32 -234 -199 -369.5t-403 -135.5q-143 0 -262 55.5t-198 161.5l104 84q56 -64 98 -100t107 -60.5t147 -24.5q192 0 317.5 106
t149.5 279q22 163 -64.5 248.5t-234.5 85.5q-52 0 -101.5 -10t-102 -33.5t-80 -38t-82.5 -45.5q-9 -5 -13 -6t-5.5 -1.5t-5.5 3.5t-7 6l-80 51z" />
    <glyph glyph-name="six.osf" horiz-adv-x="1210" 
d="M801 1501q233 0 336 -194l-117 -58q-42 65 -95.5 99t-136.5 34q-202 0 -340.5 -166t-168.5 -460q159 73 241.5 98t173.5 25q216 0 321 -122t79 -313q-29 -204 -184 -334t-357 -130q-245 0 -357 194.5t-65 546.5q50 365 227 572.5t443 207.5zM670 762q-83 0 -188 -27.5
t-173 -68.5q-27 -18 -37 -36t-16 -57q-9 -49 -4 -103t15.5 -107t37.5 -101.5t62.5 -85t88.5 -58.5t117 -22q142 0 250.5 99t128.5 245q21 136 -56.5 229t-225.5 93z" />
    <glyph glyph-name="seven.osf" horiz-adv-x="1124" 
d="M215 1481h967l-21 -135q-228 -286 -454.5 -700.5t-292.5 -645.5h-144q83 259 283.5 640.5t466.5 719.5h-823z" />
    <glyph glyph-name="eight.osf" horiz-adv-x="1216" 
d="M735 1501q204 0 313.5 -112t84.5 -295q-8 -63 -36 -120t-59 -92.5t-71 -67t-60.5 -43.5t-40.5 -21q6 -3 21.5 -10t28.5 -13t33 -17t35 -22t34.5 -28.5t32 -36t27 -44.5t19 -54t9 -64t-3.5 -76q-26 -185 -184 -295t-392 -110q-235 0 -356 103t-96 286q7 49 27 97
t56.5 99.5t96.5 99t139 83.5q-20 7 -40 17.5t-52.5 37.5t-54.5 61t-35 91t-4 124q26 181 175 301.5t353 120.5zM723 1384q-143 0 -249.5 -83.5t-125.5 -210.5q-24 -198 180 -248l201 -49q27 -7 70.5 17.5t86.5 67t77 103.5t41 119q17 127 -59.5 205.5t-221.5 78.5zM549 96
q170 0 281.5 78t130.5 209q12 102 -32 163t-151 89l-258 63q-27 7 -75 -15t-97.5 -63t-89.5 -105.5t-49 -133.5q-20 -134 69 -209.5t271 -75.5z" />
    <glyph glyph-name="nine.osf" horiz-adv-x="1202" 
d="M461 -20q-240 0 -350 194l118 59q77 -135 250 -135q212 0 344 187.5t166 570.5q-62 -125 -171.5 -189.5t-250.5 -64.5q-143 0 -239.5 57.5t-135.5 155t-22 221.5q29 206 182.5 335.5t356.5 129.5q243 0 353.5 -195t61.5 -546q-50 -365 -225 -572.5t-438 -207.5zM592 719
q94 0 178.5 37t142.5 106t70 156q-7 181 -81.5 273.5t-209.5 92.5q-141 0 -252 -98.5t-131 -243.5q-18 -137 59 -230t224 -93z" />
    <glyph glyph-name="zero.tf" horiz-adv-x="1378" 
d="M831 1501q227 0 343 -199t67 -565q-25 -184 -83 -329.5t-140 -238t-181.5 -141t-211.5 -48.5q-228 0 -344 195t-68 558q51 368 220.5 568t397.5 200zM645 100q174 0 293 156t162 481q44 327 -34.5 486t-250.5 159q-171 0 -293 -160t-166 -485q-44 -323 36 -480t253 -157z
" />
    <glyph glyph-name="one.tf" horiz-adv-x="1538" 
d="M881 131h440v-131h-1022v131h444v1204l-426 -180v131l465 197h99v-1352z" />
    <glyph glyph-name="two.tf" horiz-adv-x="1390" 
d="M199 0l18 129l524 485q187 164 266.5 266.5t96.5 215.5q7 60 -5.5 109t-38.5 80.5t-63 53t-77 30.5t-82 9q-240 0 -387 -207l-91 70q201 260 504 260q188 0 293 -108t78 -299q-18 -129 -100 -240.5t-285 -300.5l-469 -430h739l-16 -123h-905z" />
    <glyph glyph-name="three.tf" horiz-adv-x="1366" 
d="M358 1294q80 95 209.5 151t259.5 56q206 0 319.5 -106t92.5 -267q-33 -238 -324 -340q149 -45 220 -145t51 -240q-25 -183 -185 -303t-401 -120q-147 0 -255.5 52.5t-192.5 166.5l108 80q72 -97 159 -139t206 -42q177 0 289 82.5t130 216.5q15 101 -32 175t-128.5 108.5
t-181.5 34.5l-190 2l14 114l158 3q159 0 280 83t136 207q14 110 -66 184t-219 74q-114 0 -203.5 -43t-175.5 -129z" />
    <glyph glyph-name="four.tf" horiz-adv-x="1376" 
d="M1010 1481h133l-129 -955h223l-16 -114h-224l-55 -412h-127l57 412h-671l16 129zM336 526h547l102 774z" />
    <glyph glyph-name="five.tf" horiz-adv-x="1374" 
d="M455 1481h827l-27 -121h-700l-113 -543q66 37 109 57.5t113 39t143 18.5q94 0 172.5 -26t137.5 -78.5t85.5 -140.5t11.5 -202q-33 -234 -200.5 -369.5t-403.5 -135.5q-143 0 -262 55.5t-196 161.5l102 84q56 -64 98 -100t107 -60.5t147 -24.5q193 0 318 106t149 279
q22 163 -64.5 248.5t-234.5 85.5q-67 0 -140 -22.5t-115 -44t-109 -60.5q-8 -4 -11.5 -5.5t-7 -1.5t-4 0.5t-4 3.5t-6.5 5l-78 51z" />
    <glyph glyph-name="six.tf" horiz-adv-x="1398" 
d="M899 1501q235 0 338 -194l-119 -58q-40 65 -93.5 99t-135.5 34q-203 0 -341.5 -166t-168.5 -460q156 72 240 97.5t176 25.5q215 0 320 -122t79 -313q-29 -204 -184 -334t-357 -130q-247 0 -359 194.5t-63 546.5q47 365 224.5 572.5t443.5 207.5zM768 762
q-81 0 -185.5 -27.5t-174.5 -68.5q-27 -19 -37.5 -37t-14.5 -56q-9 -49 -4 -103t16 -107t38 -101.5t62 -85t88 -58.5t116 -22q142 0 251 99.5t128 244.5q22 136 -55.5 229t-227.5 93z" />
    <glyph glyph-name="seven.tf" horiz-adv-x="1390" 
d="M266 1481h1065v-135q-191 -286 -362 -700.5t-205 -645.5h-150q48 257 196.5 636t369.5 718h-914v127z" />
    <glyph glyph-name="eight.tf" horiz-adv-x="1376" 
d="M836 1501q202 0 311 -112t84 -295q-6 -53 -25.5 -101t-48 -84t-54.5 -63t-58.5 -49t-46.5 -30t-31 -17q6 -3 21 -10t28 -13t32.5 -17t35 -22t34.5 -28.5t31.5 -36t27 -44t19 -54t8.5 -64.5t-4 -76q-26 -185 -183.5 -295t-391.5 -110q-235 0 -355.5 103t-95.5 286
q14 105 91 207.5t229 171.5q-20 7 -40.5 17.5t-53 37.5t-54.5 61t-35 91t-4 124q25 181 174 301.5t355 120.5zM821 1384q-142 0 -248.5 -83t-126.5 -211q-24 -198 181 -248l202 -49q27 -7 70.5 17.5t85.5 67t76 103.5t41 119q17 127 -59.5 205.5t-221.5 78.5zM647 96
q170 0 282.5 78t131.5 209q12 102 -32.5 163t-151.5 89l-259 63q-27 7 -75 -15t-97.5 -63t-89.5 -105.5t-49 -133.5q-20 -134 69 -209.5t271 -75.5z" />
    <glyph glyph-name="nine.tf" horiz-adv-x="1388" 
d="M575 -20q-240 0 -350 194l117 59q39 -66 98.5 -100.5t151.5 -34.5q212 0 345 187.5t167 570.5q-62 -125 -172.5 -189.5t-251.5 -64.5q-212 0 -316.5 121.5t-78.5 312.5q18 136 95.5 243t193 164.5t247.5 57.5q243 0 354 -194.5t64 -546.5q-51 -365 -226.5 -572.5
t-437.5 -207.5zM705 719q145 0 260 84.5t133 214.5q-9 181 -82.5 273.5t-208.5 92.5q-142 0 -252.5 -98.5t-130.5 -243.5q-19 -137 57.5 -230t223.5 -93z" />
    <glyph glyph-name="zero.subs" horiz-adv-x="806" 
d="M367 596q142 0 215 -125.5t43 -355.5q-31 -228 -138 -351.5t-251 -123.5t-217 123t-42 350q31 231 138.5 357t251.5 126zM248 -285q109 0 184.5 98t102.5 302q28 205 -21.5 306t-157.5 101t-184.5 -101t-103.5 -306q-28 -202 22 -301t158 -99z" />
    <glyph glyph-name="one.subs" horiz-adv-x="593" 
d="M63 -338l113 830l-188 -70l8 67l215 105h61l-125 -932h-84z" />
    <glyph glyph-name="two.subs" horiz-adv-x="749" 
d="M-80 -338l12 82l330 305q117 104 167 168t60 133q11 91 -40.5 134.5t-126.5 43.5q-151 0 -242 -129l-57 43q123 164 315 164q118 0 184.5 -68.5t48.5 -187.5q-10 -81 -61.5 -151t-179.5 -189l-295 -272h465l-11 -76h-569z" />
    <glyph glyph-name="three.subs" horiz-adv-x="763" 
d="M84 469q50 61 131 96t164 35q129 0 200.5 -66t57.5 -167q-20 -152 -203 -215q93 -28 137 -90.5t31 -151.5q-15 -115 -115 -190.5t-251 -75.5q-93 0 -161 32.5t-122 104.5l67 49q84 -113 230 -113q112 0 182.5 52t81.5 137q14 94 -51 146t-164 54h-119l8 72l101 2
q99 0 175 52.5t85 129.5q9 70 -40.5 117t-137.5 47q-72 0 -128 -27t-110 -81z" />
    <glyph glyph-name="four.subs" horiz-adv-x="804" 
d="M475 594h82l-80 -600h139l-10 -74h-139l-35 -258h-80l35 258h-422l10 82zM51 -6h342l66 485z" />
    <glyph glyph-name="five.subs" horiz-adv-x="772" 
d="M145 588h521l-17 -76h-440l-72 -342q44 24 70.5 36.5t71 24t90.5 11.5q125 0 199 -70.5t55 -210.5q-20 -148 -124.5 -232.5t-254.5 -84.5q-190 0 -289 135l65 53q52 -61 99 -89t123 -28q121 0 200 67.5t93 176.5q14 103 -40.5 156t-148.5 53q-42 0 -87 -14t-73 -28
t-69 -38q-5 -3 -8 -4t-4 -0.5t-4 3t-5 3.5l-49 33z" />
    <glyph glyph-name="six.subs" horiz-adv-x="794" 
d="M391 596q144 0 213 -123l-76 -37q-51 84 -145 84q-126 0 -213 -104t-107 -289q101 46 153 62t110 16q135 0 200.5 -76.5t51.5 -196.5q-18 -130 -116 -211t-226 -81q-155 0 -225.5 122.5t-39.5 343.5q31 228 142.5 359t277.5 131zM309 131q-52 0 -117.5 -17.5
t-109.5 -43.5q-17 -10 -23.5 -21.5t-9.5 -36.5q-6 -49 1.5 -99t29 -96t65.5 -75t103 -29q90 0 158.5 62t80.5 153q12 87 -36.5 145t-141.5 58z" />
    <glyph glyph-name="seven.subs" horiz-adv-x="704" 
d="M72 594h606l-12 -86q-143 -177 -284.5 -437.5t-184.5 -408.5h-93q54 164 179.5 404.5t291.5 451.5h-516z" />
    <glyph glyph-name="eight.subs" horiz-adv-x="774" 
d="M365 600q129 0 196.5 -70t52.5 -186q-6 -48 -28 -89.5t-53.5 -68.5t-48.5 -38.5t-35 -20.5q4 -2 15 -7t20 -9t23.5 -12.5t24.5 -17t23.5 -22t20 -28.5t14.5 -36t7 -44t-3 -53q-15 -116 -113.5 -185t-247.5 -69q-148 0 -223.5 64t-60.5 179q9 66 58 131t143 107
q-135 60 -117 211q15 113 109.5 188.5t222.5 75.5zM356 526q-90 0 -156.5 -52.5t-78.5 -133.5q-15 -126 112 -156l129 -30q37 -8 99.5 57t70.5 137q11 80 -36.5 129t-139.5 49zM248 -285q107 0 177.5 50t82.5 133q8 64 -20.5 102t-96.5 55l-162 41q-39 9 -112 -53.5
t-84 -146.5q-12 -85 44 -133t171 -48z" />
    <glyph glyph-name="nine.subs" horiz-adv-x="790" 
d="M188 -360q-154 0 -221 120l74 37q51 -84 158 -84q133 0 215.5 117.5t105.5 359.5q-39 -80 -108 -119.5t-158 -39.5q-134 0 -200 76.5t-50 195.5q18 130 114.5 211.5t223.5 81.5q153 0 223 -122.5t39 -344.5q-31 -229 -141.5 -359t-274.5 -130zM268 104q91 0 163.5 53
t84.5 134q-12 231 -184 231q-89 0 -158.5 -62t-81.5 -153q-11 -87 37 -145t139 -58z" />
    <glyph glyph-name="zero.dnom" horiz-adv-x="806" 
d="M414 934q142 0 215 -125.5t43 -355.5q-31 -228 -138 -352t-251 -124q-143 0 -216 123.5t-42 350.5q31 231 138 357t251 126zM295 53q109 0 184.5 98t102.5 302q28 205 -21.5 306t-157.5 101t-184.5 -101t-103.5 -306q-28 -202 22 -301t158 -99z" />
    <glyph glyph-name="one.dnom" horiz-adv-x="591" 
d="M111 0l112 829l-188 -69l8 67l215 105h61l-124 -932h-84z" />
    <glyph glyph-name="two.dnom" horiz-adv-x="749" 
d="M-33 0l13 82l329 305q118 105 168 168.5t60 132.5q11 91 -40.5 134.5t-127.5 43.5q-151 0 -242 -129l-57 43q123 164 315 164q118 0 184.5 -68.5t48.5 -187.5q-10 -81 -61.5 -151t-179.5 -189l-295 -272h465l-10 -76h-570z" />
    <glyph glyph-name="three.dnom" horiz-adv-x="763" 
d="M131 807q50 61 131 96t164 35q129 0 200.5 -66t57.5 -167q-21 -153 -203 -216q93 -28 137 -90.5t31 -150.5q-15 -115 -115 -190.5t-251 -75.5q-93 0 -161 32.5t-122 104.5l68 49q84 -113 229 -113q112 0 182.5 52t81.5 137q14 94 -51 146t-164 54h-119l9 72l100 2
q99 0 175 52.5t85 129.5q9 70 -40.5 117t-137.5 47q-72 0 -128 -27t-110 -81z" />
    <glyph glyph-name="four.dnom" horiz-adv-x="806" 
d="M524 932h82l-82 -600h142l-11 -74h-139l-35 -258h-80l35 258h-422l11 82zM100 332h342l64 485z" />
    </font>
</defs>
</svg>
