<?xml version="1.0" standalone="no"?>
<!DOCTYPE svg PUBLIC "-//W3C//DTD SVG 1.1//EN" "http://www.w3.org/Graphics/SVG/1.1/DTD/svg11.dtd" >
<svg xmlns="http://www.w3.org/2000/svg" xmlns:xlink="http://www.w3.org/1999/xlink" version="1.1">
<metadata>
Created by FontForge 20201107 at Thu Jun 12 13:50:20 2025
 By 
copyright missing
</metadata>
<defs>
<font id="PublicSans-Italic" horiz-adv-x="0" >
  <font-face 
    font-family="Public Sans"
    font-weight="400"
    font-style="italic"
    font-stretch="normal"
    units-per-em="2048"
    panose-1="0 0 5 0 0 0 0 0 0 0"
    ascent="1597"
    descent="-451"
    x-height="1057"
    cap-height="1481"
    bbox="-791 -483 2460.35 2269"
    underline-thickness="102"
    underline-position="-204"
    slope="-8"
    unicode-range="U+000D-FB02"
  />
<missing-glyph horiz-adv-x="1382" 
d="M360 1690h979l-274 -2020h-979zM993 -121l232 1712h-711zM430 1464l-231 -1693h708z" />
    <glyph glyph-name="fi" unicode="fi" horiz-adv-x="1308" 
d="M1284 1520l-35 -238h-188l33 238h190zM788 1057l-18 -131h-250l-123 -926h-178l125 926h-219l18 131h219l23 166q36 258 281 258h190l-18 -129h-152q-62 0 -91 -34t-38 -108l-20 -153h251zM1212 1057l-143 -1057h-176l145 1057h174z" />
    <glyph glyph-name="fl" unicode="fl" horiz-adv-x="1400" 
d="M1133 -6q-62 0 -107 15t-68.5 41.5t-36 62.5t-10.5 77t7 86l167 1244h175l-166 -1225q-22 -158 92 -168h57l-18 -117q-53 -16 -92 -16zM788 1057l-18 -131h-250l-123 -926h-178l125 926h-219l18 131h219l23 166q36 258 281 258h190l-18 -129h-152q-62 0 -91 -34t-38 -108
l-20 -153h251z" />
    <glyph glyph-name="colon_one_eight_F_colon.liga" unicode="&#x3a;&#x31;&#x38;F&#x3a;" horiz-adv-x="1734" 
d="M174 1556h1454q25 0 25 -24v-1505q0 -12 -7 -19.5t-18 -7.5h-1454q-24 0 -24 27v1505q0 24 24 24zM877 479q69 0 119.5 52t50.5 124q0 92 -74 144q51 48 51 116q0 64 -43.5 109t-103.5 45q-65 0 -107.5 -44.5t-42.5 -109.5t51 -116q-71 -50 -71 -144q0 -73 49.5 -124.5
t120.5 -51.5zM623 498v555q0 10 -9 10h-133q-8 0 -8 -10v-52q0 -10 8 -10h72v-493q0 -9 8 -9h53q9 0 9 9zM1352 1001v52q0 10 -9 10h-206q-9 0 -9 -10v-555q0 -9 9 -9h51q12 0 12 9v252h119q8 0 8 8v53q0 8 -8 8h-119v172h143q9 0 9 10zM877 834q-36 0 -60 23t-24 58
q0 37 24.5 61.5t59.5 24.5q34 0 56.5 -24.5t22.5 -61.5q0 -35 -22.5 -58t-56.5 -23zM877 760q43 0 71.5 -30.5t28.5 -74.5t-28.5 -74t-71.5 -30q-42 0 -72.5 30t-30.5 74t30.5 74.5t72.5 30.5z" />
    <glyph glyph-name="colon_f_l_a_g_two_colon.liga" unicode="&#x3a;flag&#x32;&#x3a;" horiz-adv-x="2502" 
d="M231 1556h2108v-1554h-2108v1554zM2216 1321v109h-1057v-109h1057zM420 1198h123v119h-123v-119zM885 1198h121v119h-121v-119zM655 1077h119v121h-119v-121zM1159 1081h1057v113h-1057v-113zM424 958h119v119h-119v-119zM1006 1077h-121v-119h121v119zM774 958h-119
v-120h119v120zM1159 842h1057v112h-1057v-112zM543 838h-119v-119h119v119zM1006 838h-121v-119h121v119zM1159 602h1057v113h-1057v-113zM2216 475h-1864v-113h1864v113zM354 129h1862v107h-1862v-107z" />
    <glyph glyph-name="colon_f_l_a_g_colon.liga" unicode="&#x3a;flag&#x3a;" horiz-adv-x="2502" 
d="M231 1556h2108v-1554h-2108v1554zM2224 1436h-1876v-838h1876v121h-1067v119h1067v120h-1067v119h1067v121h-1067v119h1067v119zM580 1317v-119h-117v119h117zM1040 1317v-119h-114v119h114zM809 1198v-121h-115v121h115zM580 1077v-119h-117v119h117zM1040 1077v-119
h-114v119h114zM809 958v-120h-115v120h115zM580 838v-119h-117v119h117zM1040 838v-119h-114v119h114zM2224 479h-1876v-121h1876v121zM348 119h1876v121h-1876v-121z" />
    <glyph glyph-name=".notdef" horiz-adv-x="1382" 
d="M360 1690h979l-274 -2020h-979zM993 -121l232 1712h-711zM430 1464l-231 -1693h708z" />
    <glyph glyph-name="uni0000" horiz-adv-x="14" 
 />
    <glyph glyph-name="nonmarkingreturn" horiz-adv-x="682" 
 />
    <glyph glyph-name="CR" unicode="&#xd;" horiz-adv-x="423" 
 />
    <glyph glyph-name="space" unicode=" " horiz-adv-x="491" 
 />
    <glyph glyph-name="exclam" unicode="!" horiz-adv-x="512" 
d="M485 1481l-198 -1112h-117l102 1112h213zM313 231l-30 -231h-213l32 231h211z" />
    <glyph glyph-name="quotedbl" unicode="&#x22;" horiz-adv-x="845" 
d="M510 1481l-123 -469h-102l8 469h217zM864 1481l-121 -469h-104l8 469h217z" />
    <glyph glyph-name="numbersign" unicode="#" horiz-adv-x="1189" 
d="M1163 901h-227l-88 -307h209l-13 -113h-227l-137 -483l-111 16l133 467h-288l-138 -483l-110 16l131 467h-229l14 113h248l86 307h-228l17 111h241l134 471l112 -17l-129 -454h289l133 471l111 -17l-129 -454h211zM733 594l88 307h-289l-88 -307h289z" />
    <glyph glyph-name="dollar" unicode="$" horiz-adv-x="1200" 
d="M1087 362q-24 -167 -154.5 -272.5t-328.5 -105.5l-20 -158h-129l22 158q-172 4 -277 67t-177 191l112 92q68 -101 149.5 -151.5t213.5 -57.5l71 537q-229 79 -313.5 179t-60.5 257q15 110 85 200t176 141.5t224 51.5l18 137h129l-20 -141q221 -31 362 -201l-104 -94
q-57 74 -123 108.5t-156 42.5l-71 -528l92 -33q153 -61 226.5 -167.5t53.5 -252.5zM592 840l67 506q-133 -10 -211 -81t-92 -173q-8 -71 29.5 -122.5t136.5 -103.5zM623 133q122 3 204.5 69t94.5 165q13 92 -39.5 152.5t-190.5 113.5z" />
    <glyph glyph-name="percent" unicode="%" horiz-adv-x="1802" 
d="M580 1503q150 0 229.5 -119.5t52.5 -314.5q-24 -189 -130.5 -300.5t-250.5 -111.5q-152 0 -233 118.5t-55 314.5q26 188 134 300.5t253 112.5zM1587 1497l-1165 -1505l-131 2l1167 1503h129zM477 760q98 0 165.5 89.5t86.5 237.5q21 143 -19 228.5t-132 85.5
q-94 0 -162.5 -93t-89.5 -241q-18 -140 21.5 -223.5t129.5 -83.5zM1378 825q151 0 231 -118.5t54 -313.5q-26 -189 -132 -301t-251 -112q-151 0 -232 118.5t-55 315.5q27 187 134.5 299t250.5 112zM1278 82q94 0 163 91.5t91 238.5q18 139 -23.5 226t-130.5 87
q-93 0 -163 -95t-89 -239q-18 -137 23 -223t129 -86z" />
    <glyph glyph-name="ampersand" unicode="&#x26;" horiz-adv-x="1404" 
d="M797 1503q160 0 253.5 -83t73.5 -220q-13 -110 -112.5 -218t-302.5 -200l258 -381q48 57 101 159.5t77 232.5h180q-36 -144 -105.5 -259t-177.5 -245l199 -289h-213l-117 166q-229 -176 -469 -176q-205 0 -304 104.5t-75 278.5q20 142 116 247t284 201
q-80 105 -107.5 167.5t-15.5 146.5q20 158 150 263t307 105zM784 1378q-106 -1 -177.5 -69.5t-82.5 -165.5q-6 -39 3 -73.5t23 -57.5t48 -70l39 -55q164 80 239.5 153.5t84.5 155.5q12 88 -39.5 136t-137.5 46zM545 705q-123 -61 -200.5 -145t-84.5 -185
q-10 -107 59.5 -173.5t178.5 -66.5q84 0 176 38t164 103z" />
    <glyph glyph-name="quotesingle" unicode="'" horiz-adv-x="505" 
d="M494 1481l-121 -469h-105l11 469h215z" />
    <glyph glyph-name="parenleft" unicode="(" horiz-adv-x="608" 
d="M307 -330q-107 234 -148 446.5t-5 463.5q32 237 136.5 468t258.5 433h137q-137 -214 -234 -451t-130 -473q-23 -144 -17.5 -295t31 -291.5t74.5 -300.5h-103z" />
    <glyph glyph-name="parenright" unicode=")" horiz-adv-x="620" 
d="M-86 -330q138 213 235.5 451t131.5 473q29 233 6 440.5t-97 446.5h105q106 -229 146 -443t5 -465q-32 -238 -136.5 -469.5t-258.5 -433.5h-137z" />
    <glyph glyph-name="asterisk" unicode="*" horiz-adv-x="780" 
d="M598 801l-121 256l-194 -262l-101 79l217 236l-247 76l55 108l235 -102l23 289h131l-57 -285l262 111l20 -117l-266 -86l154 -232z" />
    <glyph glyph-name="plus" unicode="+" horiz-adv-x="1107" 
d="M1016 815l-21 -141h-352l-49 -367h-139l49 367h-354l20 139h354l49 369h138l-49 -367h354z" />
    <glyph glyph-name="comma" unicode="," horiz-adv-x="477" 
d="M-23 -254l144 250l-84 4l29 221h225l-27 -190l-203 -285h-84z" />
    <glyph glyph-name="hyphen" unicode="-" horiz-adv-x="770" 
d="M643 600l-22 -141l-500 -2l20 141z" />
    <glyph glyph-name="period" unicode="." horiz-adv-x="458" 
d="M289 233l-31 -233h-215l33 233h213z" />
    <glyph glyph-name="slash" unicode="/" horiz-adv-x="692" 
d="M-59 -82l708 1563h146l-707 -1563h-147z" />
    <glyph glyph-name="zero" unicode="0" horiz-adv-x="1275" 
d="M772 1501q237 0 358.5 -202t73.5 -562q-50 -359 -225.5 -557t-415.5 -198q-239 0 -360.5 198t-73.5 555q26 182 86.5 327.5t145.5 241t190 146.5t221 51zM588 135q162 0 270.5 146.5t149.5 455.5q43 312 -26.5 461.5t-231.5 149.5q-159 0 -270 -150.5t-154 -460.5
q-41 -307 30 -454.5t232 -147.5z" />
    <glyph glyph-name="one" unicode="1" horiz-adv-x="782" 
d="M285 0l170 1268l-291 -101l20 138l365 176h119l-201 -1481h-182z" />
    <glyph glyph-name="two" unicode="2" horiz-adv-x="1161" 
d="M20 0l23 158l522 465q196 168 272 262t89 198q9 67 -9 118.5t-55 81t-82.5 44t-97.5 14.5q-235 0 -377 -208l-127 79q216 289 539 289q202 0 312 -112t83 -308q-18 -125 -97.5 -232.5t-273.5 -283.5l-448 -405h708l-20 -160h-961z" />
    <glyph glyph-name="three" unicode="3" horiz-adv-x="1245" 
d="M250 1286q82 98 218.5 156.5t276.5 58.5q215 0 335 -106.5t98 -270.5q-33 -234 -320 -336q141 -41 213.5 -139t52.5 -239q-26 -188 -196.5 -309t-411.5 -121q-309 0 -473 235l145 102q74 -98 159 -140t202 -42q162 0 264 73.5t117 194.5q14 90 -28.5 157.5t-117.5 99.5
t-168 32l-192 2l20 152l160 2q148 3 257 78t124 188q12 100 -61 168t-197 68q-111 0 -197.5 -42t-177.5 -130z" />
    <glyph glyph-name="four" unicode="4" horiz-adv-x="1236" 
d="M885 1481h180l-127 -936h221l-22 -152h-219l-54 -393h-178l55 393h-667l20 160zM254 545h504l94 712z" />
    <glyph glyph-name="five" unicode="5" horiz-adv-x="1288" 
d="M369 1481h860l-33 -158h-698l-105 -487q72 35 112 52t107.5 33.5t135.5 16.5q99 0 180.5 -27.5t140.5 -81t85.5 -142t10.5 -202.5q-32 -235 -202 -370t-414 -135q-159 0 -287.5 61t-204.5 174l146 104q79 -98 152 -143t190 -45q177 0 291 96.5t135 251.5
q19 148 -60 226.5t-219 78.5q-61 0 -127 -19.5t-104.5 -38.5t-106.5 -56q-9 -5 -14 -6t-7 -0.5t-6.5 4t-9.5 6.5l-110 67z" />
    <glyph glyph-name="six" unicode="6" horiz-adv-x="1243" 
d="M811 1499q141 0 234 -65t131 -160l-162 -66q-38 68 -88.5 103t-130.5 35q-189 0 -315 -152.5t-152 -421.5q152 69 230.5 92t166.5 23q217 0 326 -122.5t84 -313.5q-29 -207 -191 -338t-377 -131q-257 0 -374 194.5t-70 542.5q50 365 232.5 572.5t455.5 207.5zM676 739
q-73 0 -169.5 -26.5t-158.5 -63.5q-23 -15 -33 -32.5t-14 -53.5q-9 -47 -4.5 -97t14.5 -98t34.5 -91.5t57 -76.5t80.5 -52t105 -19q130 0 230.5 90.5t117.5 224.5q19 127 -52.5 211t-207.5 84z" />
    <glyph glyph-name="seven" unicode="7" horiz-adv-x="1146" 
d="M209 1481h1003l-26 -187q-226 -270 -445.5 -665.5t-277.5 -628.5h-199q33 112 94.5 257.5t152 322t220 374t273.5 369.5h-818z" />
    <glyph glyph-name="eight" unicode="8" horiz-adv-x="1241" 
d="M750 1501q212 0 327 -113t90 -296q-8 -60 -35 -114.5t-57.5 -88.5t-70 -64t-61 -42t-40.5 -21q7 -4 26 -13q45 -22 73 -40.5t70 -60t59 -106.5t6 -149q-26 -189 -190 -301t-410 -112q-242 0 -369 102t-102 285q14 109 93 206.5t224 161.5q-19 8 -37 18t-51.5 38.5
t-55.5 63t-35.5 92t-4.5 124.5q27 183 181 306.5t370 123.5zM731 1352q-129 0 -225 -75t-115 -190q-21 -176 162 -223l188 -47q36 -9 92 30t104.5 108.5t57.5 138.5q14 116 -57 187t-207 71zM567 129q155 0 256.5 69.5t118.5 188.5q11 90 -29.5 146t-140.5 83l-235 62
q-27 8 -72.5 -12t-90.5 -57t-82 -96t-46 -122q-19 -124 64.5 -193t256.5 -69z" />
    <glyph glyph-name="nine" unicode="9" horiz-adv-x="1236" 
d="M483 -18q-146 0 -240.5 64.5t-136.5 160.5l162 65q38 -67 93 -102t143 -35q196 0 318 171t151 507q-63 -108 -168 -162.5t-236 -54.5q-216 0 -323 121t-82 313q18 137 99 244.5t202.5 166t261.5 58.5q254 0 370.5 -194.5t69.5 -542.5q-49 -365 -231.5 -572.5
t-452.5 -207.5zM616 741q131 0 237.5 76.5t123.5 188.5q-4 171 -72 258.5t-196 87.5q-129 0 -230.5 -91t-120.5 -223q-18 -128 53.5 -212.5t204.5 -84.5z" />
    <glyph glyph-name="colon" unicode=":" horiz-adv-x="462" 
d="M397 1014l-30 -232h-213l32 232h211zM291 238l-29 -232h-211l29 232h211z" />
    <glyph glyph-name="semicolon" unicode=";" horiz-adv-x="503" 
d="M156 778l30 234h213l-30 -234h-213zM-20 -291l157 291h-80l31 231h213l-31 -213l-200 -309h-90z" />
    <glyph glyph-name="less" unicode="&#x3c;" horiz-adv-x="1099" 
d="M936 455l-21 -162l-784 334l25 168l874 338l-24 -177l-654 -247z" />
    <glyph glyph-name="equal" unicode="=" horiz-adv-x="1112" 
d="M1044 1012l-18 -142h-848l19 140zM983 559l-18 -139l-848 -2l18 139z" />
    <glyph glyph-name="greater" unicode="&#x3e;" horiz-adv-x="1099" 
d="M139 461l649 248l-583 254l22 163l785 -338l-25 -165l-874 -336z" />
    <glyph glyph-name="question" unicode="?" horiz-adv-x="1048" 
d="M147 1212q82 137 215 213t291 76q199 0 307.5 -102.5t88.5 -265.5q-9 -68 -39 -129.5t-71.5 -109.5t-90 -93.5l-97 -91t-90 -94t-71.5 -110.5t-39 -132h-154q11 79 40.5 150.5t69 125t85.5 103.5t91 95.5t83.5 90t66 98.5t35.5 111q12 100 -47 157.5t-172 57.5
q-99 0 -197 -59t-139 -146zM561 231l-33 -231h-211l31 231h213z" />
    <glyph glyph-name="at" unicode="@" horiz-adv-x="1634" 
d="M1223 -82q-211 -143 -469 -143q-173 0 -308.5 59.5t-217 162t-114.5 240t-12 293.5q21 160 96 304t188.5 251.5t267.5 170.5t323 63q104 0 199 -23.5t177 -75t138 -126t80.5 -184.5t7.5 -242q-31 -224 -153.5 -365t-282.5 -141q-79 0 -116.5 29.5t-51.5 97.5
q-112 -156 -301 -156q-117 0 -185 101.5t-47 261.5q27 190 149 321t283 131q150 0 211 -141l37 88h125l-139 -463q-23 -78 -11.5 -112.5t58.5 -34.5q102 0 185 112t106 277q15 111 -4 201t-63 149t-110 99t-139 57.5t-155 17.5q-152 0 -284 -55t-225.5 -150t-154 -219.5
t-80.5 -265.5q-18 -131 8.5 -242.5t93.5 -194.5t182 -130t267 -47q121 0 200.5 32.5t174.5 100.5zM590 487q-14 -105 16 -165t101 -60q96 0 181.5 85.5t117.5 203.5q33 124 -8 196t-119 72q-107 0 -188.5 -96.5t-100.5 -235.5z" />
    <glyph glyph-name="A" unicode="A" horiz-adv-x="1406" 
d="M12 0l719 1481h201l315 -1481h-180l-84 412h-590l-200 -412h-181zM461 578h495l-147 722z" />
    <glyph glyph-name="B" unicode="B" horiz-adv-x="1343" 
d="M129 0l201 1481h456q258 0 379.5 -99t96.5 -286q-18 -124 -90.5 -207t-221.5 -135q292 -65 252 -357q-55 -397 -602 -397h-471zM420 825h311q61 0 116 12t107 39t87.5 77.5t45.5 119.5q18 126 -67.5 191t-245.5 65h-287zM328 152h290q369 0 408 254q16 135 -72 200.5
t-245 65.5h-312z" />
    <glyph glyph-name="C" unicode="C" horiz-adv-x="1384" 
d="M858 1501q225 0 357 -126.5t126 -315.5l-184 -19q-3 138 -82.5 220.5t-230.5 82.5q-196 0 -323 -151.5t-169 -450.5q-38 -299 48 -451.5t292 -152.5q130 0 232.5 80t148.5 215l178 -24q-47 -187 -206 -307.5t-383 -120.5q-286 0 -418 203t-86 560q50 356 234 557t466 201
z" />
    <glyph glyph-name="D" unicode="D" horiz-adv-x="1388" 
d="M330 1481q206 0 325 -2q387 -6 540 -187.5t105 -543.5q-100 -748 -864 -748h-307zM492 1323l-158 -1167h123q139 0 247.5 31.5t194 100t140 182.5t75.5 273q22 162 -0.5 275t-88.5 179.5t-163.5 96t-236.5 29.5h-133z" />
    <glyph glyph-name="E" unicode="E" horiz-adv-x="1255" 
d="M129 0l201 1481h897l-23 -162h-719l-65 -494h645l-21 -157h-647l-67 -504l737 -2l-20 -162h-918z" />
    <glyph glyph-name="F" unicode="F" horiz-adv-x="1167" 
d="M330 1481h887l-25 -160h-700l-68 -498h633l-21 -157h-633l-92 -666h-182z" />
    <glyph glyph-name="G" unicode="G" horiz-adv-x="1474" 
d="M657 -20q-279 0 -413 202t-88 553q51 358 243.5 562t472.5 204q104 0 194 -36t151 -95.5t96 -138t35 -162.5l-195 -29q-6 132 -88.5 216.5t-214.5 84.5q-197 0 -330 -154.5t-172 -441.5q-40 -302 53.5 -452t288.5 -150q87 0 162 32.5t125.5 85t83 112.5t45.5 121l22 137
h-348l19 131h532l-104 -762h-133l30 229q-78 -111 -194 -180t-273 -69z" />
    <glyph glyph-name="H" unicode="H" horiz-adv-x="1427" 
d="M1071 686h-672l-92 -686h-178l201 1481h176l-84 -635h674l84 635h178l-201 -1481h-178z" />
    <glyph glyph-name="I" unicode="I" horiz-adv-x="575" 
d="M330 1481h176l-199 -1481h-178z" />
    <glyph glyph-name="J" unicode="J" horiz-adv-x="770" 
d="M555 344q-12 -91 -34.5 -155t-62.5 -113t-103.5 -72.5t-151.5 -23.5q-109 0 -223 47l38 172q3 -1 36 -16.5t62 -23t64 -7.5q97 0 142.5 54.5t62.5 188.5l147 1086h177z" />
    <glyph glyph-name="K" unicode="K" horiz-adv-x="1359" 
d="M1219 0h-205l-344 764l-293 -299l-64 -465h-184l201 1481h184l-104 -774l751 774h217l-559 -582z" />
    <glyph glyph-name="L" unicode="L" horiz-adv-x="1128" 
d="M330 1481h182l-176 -1317h676l-23 -164h-860z" />
    <glyph glyph-name="M" unicode="M" horiz-adv-x="1765" 
d="M129 0l201 1481h243l269 -1239l612 1239h242l-201 -1481h-182l164 1202l-582 -1202h-170l-252 1190l-162 -1190h-182z" />
    <glyph glyph-name="N" unicode="N" horiz-adv-x="1507" 
d="M1260 1481h178l-201 -1481h-158l-612 1180l-160 -1180h-178l201 1481h168l606 -1166z" />
    <glyph glyph-name="O" unicode="O" horiz-adv-x="1488" 
d="M670 -20q-289 0 -425 197.5t-89 557.5q51 362 243.5 564t479.5 202q285 0 423 -201.5t89 -562.5q-51 -360 -242 -558.5t-479 -198.5zM694 137q204 0 333 147.5t169 450.5q40 306 -48 457t-290 151q-204 0 -335 -151t-173 -457q-39 -303 50.5 -450.5t293.5 -147.5z" />
    <glyph glyph-name="P" unicode="P" horiz-adv-x="1275" 
d="M129 0l201 1481h481q116 0 208 -26.5t156.5 -79t92.5 -138t12 -197.5q-28 -213 -180 -324.5t-383 -111.5h-324l-82 -604h-182zM414 760h319q155 0 255 73t120 218q21 145 -61 210.5t-244 65.5h-311z" />
    <glyph glyph-name="Q" unicode="Q" horiz-adv-x="1464" 
d="M129 737q51 363 242 563.5t477 200.5q288 0 426.5 -201t89.5 -563q-66 -473 -375 -661q25 -82 91.5 -124.5t158.5 -45.5l-22 -154q-291 0 -402 246q-99 -18 -172 -18q-287 0 -425 196.5t-89 560.5zM322 733q-74 -596 344 -596q206 0 334 147t167 451q41 304 -46.5 456
t-293.5 152q-205 0 -334 -152.5t-171 -457.5z" />
    <glyph glyph-name="R" unicode="R" horiz-adv-x="1355" 
d="M1145 0h-184l-179 643h-389l-86 -643h-178l201 1481h551q228 0 331 -105t78 -297q-41 -298 -334 -403zM729 795q165 0 262 68.5t117 203.5q17 130 -52.5 197t-211.5 67h-357l-71 -536h313z" />
    <glyph glyph-name="S" unicode="S" horiz-adv-x="1320" 
d="M590 -20q-182 0 -311.5 71.5t-192.5 208.5l147 94q46 -77 89 -119.5t111.5 -67t168.5 -24.5q340 0 371 232q10 78 -26.5 135.5t-149.5 103.5l-285 105q-285 107 -252 366q25 187 176 301.5t373 114.5q152 0 265.5 -58.5t180.5 -168.5l-143 -98q-53 79 -129 123t-195 44
q-141 0 -231.5 -63t-105.5 -174q-19 -158 174 -229l272 -95q161 -59 224 -154t44 -233q-26 -195 -179.5 -305t-395.5 -110z" />
    <glyph glyph-name="T" unicode="T" horiz-adv-x="1140" 
d="M141 1313l25 168h1077l-22 -168h-437l-178 -1313h-176l176 1313h-465z" />
    <glyph glyph-name="U" unicode="U" horiz-adv-x="1429" 
d="M1239 506q-36 -260 -180 -393t-412 -133q-272 0 -377 136.5t-69 411.5l129 953h184l-133 -983q-26 -179 48.5 -270t238.5 -91q166 0 266.5 90t126.5 271l131 983h178z" />
    <glyph glyph-name="V" unicode="V" horiz-adv-x="1273" 
d="M1380 1481l-706 -1481h-215l-297 1481h176l258 -1278l610 1278h174z" />
    <glyph glyph-name="W" unicode="W" horiz-adv-x="1892" 
d="M1974 1481l-616 -1481h-166l-160 1163l-475 -1163h-162l-211 1481h178l160 -1198l486 1198h139l162 -1198l487 1198h178z" />
    <glyph glyph-name="X" unicode="X" horiz-adv-x="1298" 
d="M1174 0h-226l-303 612l-467 -612h-201l586 754l-366 727h223l278 -570l435 570h196l-551 -707z" />
    <glyph glyph-name="Y" unicode="Y" horiz-adv-x="1181" 
d="M1296 1481l-598 -850l-86 -631h-176l86 633l-372 848h188l295 -690l473 690h190z" />
    <glyph glyph-name="Z" unicode="Z" horiz-adv-x="1245" 
d="M35 0l12 100l950 1223h-751l20 158h1002l-13 -97l-960 -1226h790l-20 -158h-1030z" />
    <glyph glyph-name="bracketleft" unicode="[" horiz-adv-x="610" 
d="M80 -330l242 1811h362l-14 -117h-207l-215 -1577h207l-17 -117h-358z" />
    <glyph glyph-name="backslash" unicode="\" horiz-adv-x="694" 
d="M440 -82l-284 1563h133l284 -1563h-133z" />
    <glyph glyph-name="bracketright" unicode="]" horiz-adv-x="636" 
d="M-74 -330l15 117h209l215 1577h-207l16 117h358l-243 -1811h-363z" />
    <glyph glyph-name="asciicircum" unicode="^" horiz-adv-x="950" 
d="M672 262l-152 602l-311 -600h-150l398 746q24 45 55.5 60.5t59 -3t38.5 -66.5l197 -739h-135z" />
    <glyph glyph-name="underscore" unicode="_" horiz-adv-x="1036" 
d="M811 -96l-16 -142l-770 -2l16 144h770z" />
    <glyph glyph-name="grave" unicode="`" horiz-adv-x="577" 
d="M199 1503l458 -209l-45 -84l-475 154z" />
    <glyph glyph-name="a" unicode="a" horiz-adv-x="1124" 
d="M367 -20q-153 0 -234 81t-61 224q23 173 150.5 254t395.5 96l187 14l10 76q12 104 -41.5 164.5t-159.5 60.5q-179 0 -303 -172l-139 35q73 122 193.5 193t273.5 71q194 0 281 -90t65 -250l-98 -737h-152l10 164q-153 -184 -378 -184zM436 111q106 0 210 73t116 162
l26 195l-155 -13q-193 -14 -281.5 -61.5t-105.5 -165.5q-13 -89 40 -139.5t150 -50.5z" />
    <glyph glyph-name="b" unicode="b" horiz-adv-x="1177" 
d="M569 -20q-52 0 -98.5 14t-78 34t-57 47t-40 49t-23.5 44l-45 -168h-135l207 1520h176l-82 -607q48 58 141.5 111t213.5 53q103 0 177 -41.5t112 -114.5t51.5 -172t-5.5 -214q-34 -257 -170 -406t-344 -149zM549 113q132 0 227.5 104.5t124.5 317.5q28 198 -32 303.5
t-197 105.5q-93 0 -171.5 -50t-129.5 -142l-49 -357q-17 -121 52 -201.5t175 -80.5z" />
    <glyph glyph-name="c" unicode="c" horiz-adv-x="1101" 
d="M651 1077q148 0 237 -77.5t124 -206.5l-160 -41q-26 54 -43 83t-42.5 58t-56 41t-71.5 12q-140 0 -237.5 -115t-122.5 -303q-25 -189 42 -303t207 -114q60 0 111 27t87 67.5t81 107.5l143 -43q-70 -134 -185.5 -212t-264.5 -78q-212 0 -322 150.5t-76 393.5
q34 245 186 399t363 154z" />
    <glyph glyph-name="d" unicode="d" horiz-adv-x="1153" 
d="M451 -20q-198 0 -291.5 139.5t-57.5 396.5q33 257 166 409t336 152q176 0 279 -145l80 588h178l-205 -1520h-137l4 164q-22 -28 -49 -54t-71.5 -58.5t-105 -52t-126.5 -19.5zM510 113q111 0 198 83t103 191l51 379q-71 178 -233 178q-135 0 -227 -107t-119 -313
q-28 -209 35 -310t192 -101z" />
    <glyph glyph-name="e" unicode="e" horiz-adv-x="1136" 
d="M276 477q-23 -159 44 -261.5t215 -102.5q183 0 284 163l142 -40q-72 -126 -187.5 -191t-255.5 -65q-218 0 -334.5 144.5t-83.5 393.5q36 254 182.5 406.5t364.5 152.5q213 0 313 -142t66 -386l-12 -72h-738zM295 612h567q21 152 -38 245t-195 93q-73 0 -134 -28.5
t-101 -77t-65 -107.5t-34 -125z" />
    <glyph glyph-name="f" unicode="f" horiz-adv-x="786" 
d="M788 1057l-18 -131h-250l-123 -926h-178l125 926h-219l18 131h219l23 166q36 258 281 258h190l-18 -129h-152q-62 0 -91 -34t-38 -108l-20 -153h251z" />
    <glyph glyph-name="g" unicode="g" horiz-adv-x="1206" 
d="M453 -350q-244 0 -365 75t-102 205q17 132 209 222q27 9 4 22q-85 43 -74 121q6 51 57.5 91t141.5 60q-92 53 -128 124.5t-24 168.5q21 157 154 245.5t333 88.5q176 0 273 -84q12 -12 51 8q37 16 128 52.5t106 42.5l-25 -168q-23 -4 -139 -25q-32 -6 -39 -13.5t-2 -27.5
q18 -61 10 -119q-20 -143 -141.5 -237t-327.5 -94q-43 0 -57 2q-187 -5 -199 -74q-3 -30 36.5 -42t149.5 -20q22 -2 55.5 -4t82.5 -5t84 -5q166 -10 238 -85t56 -200q-22 -153 -164 -239t-382 -86zM573 524q124 0 194.5 55t84.5 158q15 105 -42 164.5t-177 59.5
q-119 0 -195 -60.5t-90 -163.5q-12 -102 46 -157.5t179 -55.5zM500 -231q153 0 232 44t89 136q11 69 -29 108.5t-139 46.5l-284 19q-60 5 -127.5 -47.5t-77.5 -124.5q-12 -91 73.5 -136.5t262.5 -45.5z" />
    <glyph glyph-name="h" unicode="h" horiz-adv-x="1161" 
d="M92 0l207 1520h170l-86 -637q112 102 204.5 148t192.5 46q150 0 219 -81.5t48 -223.5l-105 -772h-176l98 735q14 97 -27 150t-139 53q-79 0 -147.5 -35.5t-177.5 -122.5l-103 -780h-178z" />
    <glyph glyph-name="i" unicode="i" horiz-adv-x="524" 
d="M498 1520l-35 -238h-189l33 238h191zM426 1057l-143 -1057h-177l146 1057h174z" />
    <glyph glyph-name="j" unicode="j" horiz-adv-x="518" 
d="M496 1520l-33 -238h-191l33 238h191zM276 -53q-21 -150 -93 -218.5t-224 -68.5q-49 0 -80.5 6t-38.5 12l-6 5l16 120l103 4q70 4 103 38.5t42 109.5l152 1102h176z" />
    <glyph glyph-name="k" unicode="k" horiz-adv-x="1128" 
d="M985 0h-186l-250 543l-240 -228l-39 -315h-178l207 1520h176l-133 -985l553 522h205l-420 -402z" />
    <glyph glyph-name="l" unicode="l" horiz-adv-x="614" 
d="M346 -6q-62 0 -107 15t-68.5 41.5t-36 62.5t-10.5 77t7 86l168 1244h174l-166 -1225q-22 -158 92 -168h58l-19 -117q-53 -16 -92 -16z" />
    <glyph glyph-name="m" unicode="m" horiz-adv-x="1779" 
d="M90 0l143 1057h170l-22 -172q104 102 195 147t188 45q111 0 175 -54.5t75 -148.5q132 120 219.5 161.5t179.5 41.5q137 0 204 -82t48 -223l-104 -772h-177l101 735q11 96 -30 149.5t-132 53.5q-77 0 -151 -41.5t-130 -97.5q-26 -33 -30 -62l-99 -737h-176l99 735
q14 95 -27.5 149t-132.5 54q-74 0 -143 -38t-162 -120l-105 -780h-176z" />
    <glyph glyph-name="n" unicode="n" horiz-adv-x="1159" 
d="M90 0l143 1057h170l-22 -172q113 101 202.5 146.5t192.5 45.5q147 0 218 -82.5t50 -220.5l-104 -774h-176l98 735q14 96 -30.5 149.5t-141.5 53.5q-80 0 -152 -37.5t-167 -120.5l-105 -780h-176z" />
    <glyph glyph-name="o" unicode="o" horiz-adv-x="1130" 
d="M489 -20q-217 0 -323 150t-72 392q32 248 183 401.5t366 153.5q216 0 321 -153t72 -400q-33 -242 -181.5 -393t-365.5 -151zM512 109q142 0 231.5 119t114.5 302q16 119 -2 211.5t-77.5 149.5t-155.5 57q-97 0 -172 -57.5t-118 -150t-59 -210.5t2 -211t78 -151.5
t158 -58.5z" />
    <glyph glyph-name="p" unicode="p" horiz-adv-x="1173" 
d="M45 -330l188 1387h175l-21 -152q147 172 346 172q187 0 285 -137t61 -395q-35 -266 -174.5 -415.5t-339.5 -149.5q-187 0 -284 139l-60 -449h-176zM535 113q138 0 237 111.5t127 316.5q13 109 1.5 185.5t-48.5 125t-85.5 70.5t-109.5 22q-115 0 -200.5 -77t-100.5 -185
l-51 -387q75 -182 230 -182z" />
    <glyph glyph-name="q" unicode="q" horiz-adv-x="1171" 
d="M905 -330h-176l59 436q-87 -69 -162 -97.5t-159 -28.5q-200 0 -299.5 149.5t-63.5 415.5q18 131 64 233.5t112 167t147 98t171 33.5q63 0 114.5 -15.5t85.5 -42.5t54.5 -49.5t40.5 -49.5l6 -9l19 146h176zM537 113q154 0 276 182l53 387q14 108 -50 185t-179 77
q-129 0 -225.5 -99t-124.5 -304q-30 -205 40 -316.5t210 -111.5z" />
    <glyph glyph-name="r" unicode="r" horiz-adv-x="770" 
d="M90 0l143 1057h168l-30 -221q65 104 180 172.5t227 68.5l-22 -172q-150 9 -270 -76t-136 -190l-84 -639h-176z" />
    <glyph glyph-name="s" unicode="s" horiz-adv-x="1071" 
d="M463 -20q-156 0 -266.5 67.5t-145.5 175.5l129 68q35 -80 113 -128t188 -48q93 0 181 48t98 111q8 56 -31.5 95.5t-136.5 68.5l-176 54q-138 39 -196 104.5t-46 161.5q19 142 143 230.5t304 88.5q137 0 231 -55.5t137 -151.5l-127 -65q-31 65 -100 102t-166 37
t-173 -47.5t-85 -114.5q-6 -45 26.5 -78.5t129.5 -66.5l219 -72q237 -69 215 -272q-20 -140 -151 -226.5t-314 -86.5z" />
    <glyph glyph-name="t" unicode="t" horiz-adv-x="835" 
d="M770 926h-244l-88 -660q-10 -81 10 -110t70 -29h152l-17 -115q-49 -18 -161 -18q-151 0 -201.5 63t-32.5 197l92 672h-192l18 131h195l69 350h152l-47 -350h243z" />
    <glyph glyph-name="u" unicode="u" horiz-adv-x="1157" 
d="M410 -18q-147 2 -223.5 85t-57.5 222l104 770h177l-101 -735q-14 -99 28.5 -153t141.5 -54q85 0 153.5 36.5t166.5 122.5l106 783h178l-147 -1057h-139l6 166q-111 -97 -204 -142t-189 -44z" />
    <glyph glyph-name="v" unicode="v" horiz-adv-x="1081" 
d="M1100 1057l-555 -1057h-144l-272 1057h180l207 -828l424 828h160z" />
    <glyph glyph-name="w" unicode="w" horiz-adv-x="1581" 
d="M1585 1057l-459 -1057h-161l-136 795l-337 -795h-166l-183 1057h172l134 -826l352 826h137l139 -824l346 824h162z" />
    <glyph glyph-name="x" unicode="x" horiz-adv-x="1116" 
d="M977 0h-193l-243 422l-357 -422h-192l467 551l-293 506h194l218 -377l319 377h193l-433 -506z" />
    <glyph glyph-name="y" unicode="y" horiz-adv-x="1069" 
d="M143 -338q-53 0 -91 6t-50 12l-12 7l18 118l107 -4q52 -1 92 8.5t65 29.5t39 38t27 43l51 103l-260 1034h178l193 -828l415 828h172l-583 -1143q-75 -140 -162 -196t-199 -56z" />
    <glyph glyph-name="z" unicode="z" horiz-adv-x="983" 
d="M12 0l17 113l700 821h-549l19 123h759l-16 -115l-698 -817h598l-15 -125h-815z" />
    <glyph glyph-name="braceleft" unicode="{" horiz-adv-x="645" 
d="M387 -330q-116 0 -181 60.5t-52 156.5l61 445q12 79 -37.5 135.5t-159.5 56.5l13 111q111 1 175 58t77 151l61 434q12 95 87.5 149t186.5 54h101l-17 -117h-63q-71 0 -104 -29t-41 -84l-58 -438q-16 -107 -76.5 -163t-140.5 -66q-22 0 -22 -8q0 -3 6 -5q82 -5 132 -63.5
t36 -173.5l-74 -547h192l-16 -117h-86z" />
    <glyph glyph-name="bar" unicode="|" horiz-adv-x="540" 
d="M223 -330h-137l274 2020h140z" />
    <glyph glyph-name="braceright" unicode="}" horiz-adv-x="665" 
d="M-72 -330l17 117h65q71 0 103.5 29t40.5 84l57 438q17 107 77.5 163t141.5 66q19 2 21 10q0 2 -5 3q-83 5 -133.5 63.5t-36.5 173.5l76 547h-194l18 117h86q116 0 180.5 -60.5t51.5 -156.5l-62 -445q-10 -78 39 -134t158 -56l-15 -113q-110 -1 -174 -58t-78 -151
l-57 -434q-13 -95 -89 -149t-187 -54h-101z" />
    <glyph glyph-name="asciitilde" unicode="~" horiz-adv-x="1136" 
d="M1038 750q-42 -54 -109 -86.5t-149 -32.5q-54 0 -104.5 16.5t-83 36.5t-77 36.5t-87.5 16.5q-118 0 -227 -121l-49 123q78 61 139 92t137 31q51 0 101 -16.5t83.5 -36.5t78.5 -36.5t87 -16.5q123 0 213 118z" />
    <glyph glyph-name="uni00A0" unicode="&#xa0;" horiz-adv-x="423" 
 />
    <glyph glyph-name="exclamdown" unicode="&#xa1;" horiz-adv-x="514" 
d="M403 825h-213l31 232h213zM246 -330h-211l184 1018h117z" />
    <glyph glyph-name="cent" unicode="&#xa2;" horiz-adv-x="1093" 
d="M573 338q86 0 149 50.5t130 152.5l141 -43q-52 -102 -132.5 -173t-182.5 -100l-33 -225h-129l29 207q-212 0 -322 151t-76 394q34 244 184 398t361 155l25 176h131l-27 -195q179 -54 236 -266l-160 -41q-23 45 -35.5 68t-33 52t-39 42t-45.5 23t-60 10
q-140 0 -237.5 -115t-122.5 -303q-26 -188 41.5 -303t207.5 -115z" />
    <glyph glyph-name="sterling" unicode="&#xa3;" horiz-adv-x="1220" 
d="M-43 0l23 156h71q77 -2 138.5 70.5t80.5 205.5q15 77 15 273h-199l16 116h177l-7 174q-6 105 16.5 190.5t66 143.5t105 97.5t131 57t146.5 17.5q135 0 236 -63.5t131 -180.5l-150 -51q-46 140 -200 140q-107 0 -187 -67.5t-92 -178.5q-4 -30 -4 -68.5t1.5 -64.5
t5.5 -75.5t5 -68.5h322l-21 -116l-301 -2q0 -160 -14 -240q-23 -188 -139 -307h321q100 0 167.5 39t107.5 127l157 -43q-63 -138 -174 -209.5t-260 -71.5h-692z" />
    <glyph glyph-name="currency" unicode="&#xa4;" horiz-adv-x="1077" 
d="M520 358q-119 0 -196 68q-17 9 -31 -10l-117 -107l-80 97l135 124q-61 97 -41 224q19 114 86 209q16 12 9 22l-97 111l93 82l98 -115q114 65 229 65t195 -67q12 -4 31 10l112 105l82 -99l-135 -119q61 -97 43 -223q-15 -114 -86 -209q-16 -8 -6 -18l94 -113l-92 -82
l-94 115q-120 -70 -232 -70zM526 498q103 0 185 76.5t96 179.5q14 96 -44 166.5t-155 70.5q-104 0 -187 -76.5t-95 -179.5q-12 -97 45 -167t155 -70z" />
    <glyph glyph-name="yen" unicode="&#xa5;" horiz-adv-x="1206" 
d="M1327 1481l-567 -791h274l-16 -115h-301l-25 -182h299l-14 -114h-301l-39 -279h-203l39 276h-303l16 115h303l25 182h-303l16 115h269l-351 793h222l284 -684l477 684h199z" />
    <glyph glyph-name="brokenbar" unicode="&#xa6;" horiz-adv-x="542" 
d="M387 872h-137l110 818h138zM223 -330h-137l111 819h139z" />
    <glyph glyph-name="section" unicode="&#xa7;" horiz-adv-x="966" 
d="M678 403q84 -54 121.5 -117t25.5 -147q-18 -127 -130.5 -205.5t-286.5 -78.5q-144 0 -251 67.5t-143 175.5l107 52q40 -76 114 -123t177 -47q99 0 168 42.5t79 112.5q7 54 -29 99.5t-138 89.5l-158 65q-130 55 -182 129t-37 178q10 87 72 154.5t157 107.5
q-97 57 -129.5 121.5t-21.5 147.5q15 119 124.5 196.5t272.5 77.5q127 0 221.5 -62t132.5 -153l-104 -55q-95 143 -242 143q-102 0 -167 -40.5t-73 -106.5q-5 -48 22.5 -87t106.5 -75l156 -68q146 -64 204.5 -144.5t43.5 -190.5q-13 -91 -68.5 -152.5t-144.5 -106.5z
M528 481q66 -6 127.5 40.5t73.5 113.5t-11.5 115t-111.5 86l-114 51q-77 -8 -142.5 -59.5t-77.5 -116.5q-8 -58 16.5 -96t112.5 -78z" />
    <glyph glyph-name="dieresis" unicode="&#xa8;" horiz-adv-x="528" 
d="M334 1481l-31 -224h-172l31 224h172zM627 1481l-29 -224h-172l31 224h170z" />
    <glyph glyph-name="copyright" unicode="&#xa9;" horiz-adv-x="1624" 
d="M741 -20q-151 0 -280 61t-214 164t-124 245.5t-17 299.5q20 153 96 292.5t187 239.5t253.5 159.5t291.5 59.5q150 0 279 -61.5t214.5 -165t125 -246t18.5 -297.5q-28 -206 -149.5 -379t-302 -272.5t-378.5 -99.5zM743 104q169 0 319 79t253 227.5t129 339.5
q19 139 -12.5 258t-101.5 200t-173 126.5t-225 45.5q-171 0 -322 -81t-252.5 -230.5t-126.5 -337.5q-26 -187 34.5 -331t185.5 -220t292 -76zM895 1174q114 0 187.5 -64t107.5 -164l-125 -31q-59 144 -166 144q-106 0 -183.5 -87.5t-97.5 -234.5q-19 -143 33 -224t156 -81
q139 0 237 158l107 -43q-62 -98 -153 -163t-205 -65q-169 0 -260.5 121t-65.5 312q25 186 145.5 304t282.5 118z" />
    <glyph glyph-name="ordfeminine" unicode="&#xaa;" horiz-adv-x="823" 
d="M369 811q-102 0 -154 52t-41 141q24 189 346 213l115 10l6 49q20 127 -119 127q-56 0 -97 -23t-79 -75l-115 36q91 156 295 156q131 0 189.5 -60.5t46.5 -166.5l-62 -449h-108v80q-61 -48 -112 -69t-111 -21zM408 901q62 0 128 47.5t72 98.5l15 98l-82 -6
q-230 -21 -242 -146q-5 -42 24 -67t85 -25z" />
    <glyph glyph-name="guillemotleft" unicode="&#xab;" horiz-adv-x="899" 
d="M238 504l145 -361h-90l-213 377l307 379h111zM586 504l145 -361h-90l-215 377l309 379h111z" />
    <glyph glyph-name="logicalnot" unicode="&#xac;" horiz-adv-x="1110" 
d="M1016 815l-6 -41h2l-56 -391h-147l39 291h-698l20 139z" />
    <glyph glyph-name="uni00AD" unicode="&#xad;" horiz-adv-x="747" 
d="M657 600l-20 -141l-500 -2l19 141z" />
    <glyph glyph-name="registered" unicode="&#xae;" horiz-adv-x="1075" 
d="M541 549q-193 0 -308.5 138.5t-89.5 336.5q28 197 181.5 337t343.5 140q125 0 222.5 -64t144 -174t28.5 -239q-28 -197 -181 -336t-341 -139zM551 641q162 0 277 104.5t141 278.5q23 172 -64.5 278.5t-249.5 106.5q-163 0 -277.5 -106t-137.5 -279q-25 -174 61 -278.5
t250 -104.5zM395 784l64 473h205q76 0 113 -31t28 -89q-10 -93 -113 -125l58 -228h-91l-47 217h-104l-29 -217h-84zM518 1069h111q82 0 90 59q3 29 -14.5 45.5t-65.5 16.5h-107z" />
    <glyph glyph-name="macron" unicode="&#xaf;" horiz-adv-x="647" 
d="M743 1452l-18 -129h-586l17 129h587z" />
    <glyph glyph-name="degree" unicode="&#xb0;" horiz-adv-x="927" 
d="M889 1382q-19 -136 -115.5 -222.5t-226.5 -86.5q-138 0 -215.5 93t-57.5 237q19 136 115 222.5t227 86.5q137 0 215 -93t58 -237zM766 1401q11 84 -30.5 136t-123.5 52q-88 0 -149 -58.5t-72 -150.5q-11 -87 30 -138.5t124 -51.5q86 0 147.5 58.5t73.5 152.5z" />
    <glyph glyph-name="plusminus" unicode="&#xb1;" horiz-adv-x="1112" 
d="M682 969h356l-20 -140h-356l-50 -366h-137l49 366h-354l20 140h355l49 368h137zM76 123l18 141h848l-18 -139z" />
    <glyph glyph-name="uni00B2" unicode="&#xb2;" horiz-adv-x="761" 
d="M76 786l14 99l328 293q122 103 170 162.5t57 125.5q11 82 -36 123t-117 41q-146 0 -238 -131l-78 51q133 181 338 181q127 0 196.5 -71t51.5 -194q-10 -79 -59.5 -145.5t-172.5 -177.5l-282 -256h446l-14 -101h-604z" />
    <glyph glyph-name="uni00B3" unicode="&#xb3;" horiz-adv-x="772" 
d="M240 1595q54 62 139 99t174 37q134 0 209 -67t63 -171q-21 -147 -202 -211q89 -26 135 -88t33 -150q-15 -118 -123 -194t-260 -76q-194 0 -297 148l92 63q47 -62 99.5 -88.5t125.5 -26.5q101 0 166 47t74 123q13 85 -45.5 133t-151.5 50h-121l12 96l101 2q92 0 161 48
t78 118q8 64 -37 105.5t-124 41.5q-70 0 -125 -25.5t-111 -80.5z" />
    <glyph glyph-name="acute" unicode="&#xb4;" horiz-adv-x="573" 
d="M635 1507l29 -143l-510 -156l-23 95z" />
    <glyph glyph-name="uni00B5" unicode="&#xb5;" horiz-adv-x="1155" 
d="M43 -330l190 1387h177l-103 -762q-10 -74 37.5 -125t122.5 -51q81 0 158.5 45.5t167.5 130.5l106 762h180l-147 -1057h-170l22 164q-106 -92 -179.5 -132t-151.5 -46q-125 -7 -181 49l-51 -365h-178z" />
    <glyph glyph-name="paragraph" unicode="&#xb6;" horiz-adv-x="1110" 
d="M1081 1370h-116l-211 -1540h-117l207 1540h-96l-211 -1540h-119l106 782q-186 4 -284 125.5t-74 304.5q12 86 51 164t102 140t155.5 98.5t201.5 36.5h422z" />
    <glyph glyph-name="periodcentered" unicode="&#xb7;" horiz-adv-x="430" 
d="M367 854l-31 -219h-223l30 219h224z" />
    <glyph glyph-name="cedilla" unicode="&#xb8;" horiz-adv-x="456" 
d="M311 -272q-10 -69 -74.5 -108.5t-152.5 -39.5q-114 0 -184 64l34 57q55 -41 125 -41q56 0 89.5 23t39.5 63q4 41 -28.5 59.5t-112.5 20.5q-25 0 -18 18l94 166h96l-61 -123q90 -6 125 -50.5t28 -108.5z" />
    <glyph glyph-name="uni00B9" unicode="&#xb9;" horiz-adv-x="602" 
d="M215 778l107 797l-183 -64l11 88l231 111h74l-125 -932h-115z" />
    <glyph glyph-name="ordmasculine" unicode="&#xba;" horiz-adv-x="808" 
d="M528 1499q146 0 219.5 -98t53.5 -258q-22 -148 -115 -239t-235 -91q-144 0 -216.5 97.5t-50.5 250.5q20 152 115 245t229 93zM530 1403q-89 0 -145.5 -68t-71.5 -186q-15 -117 19.5 -179.5t116.5 -62.5q90 0 147 68.5t74 191.5q15 111 -21 173.5t-119 62.5z" />
    <glyph glyph-name="guillemotright" unicode="&#xbb;" horiz-adv-x="901" 
d="M305 522l-147 377h92l213 -395l-305 -361h-109zM651 522l-147 377h94l213 -395l-305 -361h-109z" />
    <glyph glyph-name="onequarter" unicode="&#xbc;" horiz-adv-x="1904" 
d="M186 565l107 797l-182 -64l10 88l231 111h74l-125 -932h-115zM1495 1497l-1167 -1505l-129 2l1167 1503h129zM1602 932h114l-82 -590h140l-13 -94h-139l-33 -248h-112l34 248h-419l14 100zM1206 342h316l59 449z" />
    <glyph glyph-name="onehalf" unicode="&#xbd;" horiz-adv-x="1845" 
d="M186 565l107 797l-182 -64l10 88l231 111h74l-125 -932h-115zM1495 1497l-1167 -1505l-129 2l1167 1503h129zM1051 0l14 98l328 293q122 104 170 164t57 125q10 82 -37 123t-117 41q-145 0 -237 -131l-80 51q135 180 340 180q127 0 196 -70t52 -194q-12 -79 -62 -146
t-172 -178l-282 -256h446l-12 -100h-604z" />
    <glyph glyph-name="threequarters" unicode="&#xbe;" horiz-adv-x="2097" 
d="M209 1380q54 62 139 99t174 37q134 0 209.5 -67t63.5 -171q-21 -147 -203 -211q89 -26 135 -88t33 -150q-15 -118 -123 -194t-260 -76q-194 0 -297 148l92 63q47 -62 99.5 -88.5t125.5 -26.5q101 0 166 47t74 123q13 85 -45.5 133t-151.5 50h-121l13 96l100 2
q92 0 161.5 48t78.5 118q8 63 -37.5 105t-124.5 42q-70 0 -125 -25.5t-111 -80.5zM1688 1497l-1168 -1505l-129 2l1168 1503h129zM1794 932h115l-82 -590h139l-12 -94h-139l-33 -248h-113l35 248h-420l14 100zM1399 342h315l60 449z" />
    <glyph glyph-name="questiondown" unicode="&#xbf;" horiz-adv-x="1034" 
d="M467 825l33 232h213l-35 -232h-211zM891 -61q-80 -137 -213 -213t-293 -76q-206 0 -310.5 102t-82.5 266q9 66 38 121t69 95t87.5 77t94.5 74.5t87.5 78.5t70 99t38.5 127h152q-10 -78 -39 -144t-67.5 -113t-83 -88t-88.5 -77.5t-81.5 -73.5t-64 -85t-33.5 -103
q-12 -98 48 -156.5t171 -58.5q99 0 197.5 59t138.5 142z" />
    <glyph glyph-name="Agrave" unicode="&#xc0;" horiz-adv-x="1406" 
d="M657 1927l459 -209l-45 -84l-475 154zM12 0l719 1481h201l315 -1481h-180l-84 412h-590l-200 -412h-181zM461 578h495l-147 722z" />
    <glyph glyph-name="Aacute" unicode="&#xc1;" horiz-adv-x="1406" 
d="M1116 1931l29 -143l-510 -156l-23 94zM12 0l719 1481h201l315 -1481h-180l-84 412h-590l-200 -412h-181zM461 578h495l-147 722z" />
    <glyph glyph-name="Acircumflex" unicode="&#xc2;" horiz-adv-x="1406" 
d="M1008 1677l-119 140l-170 -140h-170l276 234h127l213 -234h-157zM12 0l719 1481h201l315 -1481h-180l-84 412h-590l-200 -412h-181zM461 578h495l-147 722z" />
    <glyph glyph-name="Atilde" unicode="&#xc3;" horiz-adv-x="1406" 
d="M1182 1772q-81 -48 -172 -48q-56 0 -128 27t-112 27q-32 0 -56.5 -9.5t-50 -26t-40.5 -22.5l-27 113q88 59 164 59q53 0 132.5 -27.5t119.5 -27.5q30 0 55.5 9t52.5 24.5t43 21.5zM12 0l719 1481h201l315 -1481h-180l-84 412h-590l-200 -412h-181zM461 578h495l-147 722z
" />
    <glyph glyph-name="Adieresis" unicode="&#xc4;" horiz-adv-x="1406" 
d="M838 1905l-31 -224h-172l31 224h172zM1130 1905l-28 -224h-172l31 224h169zM12 0l719 1481h201l315 -1481h-180l-84 412h-590l-200 -412h-181zM461 578h495l-147 722z" />
    <glyph glyph-name="Aring" unicode="&#xc5;" horiz-adv-x="1406" 
d="M1090 1806q-13 -88 -77 -144t-149 -56q-88 0 -139.5 64t-38.5 159q9 81 73.5 136.5t145.5 55.5q89 0 142.5 -62.5t42.5 -152.5zM991 1823q6 45 -18.5 72.5t-67.5 27.5q-45 0 -84 -34.5t-45 -84.5q-5 -41 20.5 -71.5t65.5 -30.5q47 0 85 36.5t44 84.5zM12 0l719 1481h201
l315 -1481h-180l-84 412h-590l-200 -412h-181zM461 578h495l-147 722z" />
    <glyph glyph-name="AE" unicode="&#xc6;" horiz-adv-x="2027" 
d="M1839 158l-20 -158h-910l60 416h-486l-278 -416h-193l998 1481h985l-25 -158h-680l-65 -498h508l-23 -155h-508l-67 -512h704zM991 578l101 757l-514 -757h413z" />
    <glyph glyph-name="Ccedilla" unicode="&#xc7;" horiz-adv-x="1384" 
d="M844 1343q-196 0 -323 -151.5t-169 -450.5q-38 -299 48 -451.5t292 -152.5q130 0 232.5 80t148.5 215l178 -24q-46 -178 -193.5 -297t-355.5 -129l-47 -95q91 -6 126 -50.5t28 -108.5q-10 -69 -74.5 -108.5t-152.5 -39.5q-115 0 -185 64l33 57q59 -41 127 -41q56 0 89 23
t38 63q6 41 -26.5 59.5t-112.5 20.5q-12 0 -17 5t-2 13l76 138q-255 22 -371 222.5t-73 538.5q50 356 234 557t466 201q225 0 357 -126.5t126 -315.5l-184 -19q-3 138 -82.5 220.5t-230.5 82.5z" />
    <glyph glyph-name="Egrave" unicode="&#xc8;" horiz-adv-x="1255" 
d="M612 1927l459 -209l-45 -84l-475 154zM129 0l201 1481h897l-23 -162h-719l-65 -494h645l-21 -157h-647l-67 -504l737 -2l-20 -162h-918z" />
    <glyph glyph-name="Eacute" unicode="&#xc9;" horiz-adv-x="1255" 
d="M1071 1931l29 -143l-510 -156l-23 94zM129 0l201 1481h897l-23 -162h-719l-65 -494h645l-21 -157h-647l-67 -504l737 -2l-20 -162h-918z" />
    <glyph glyph-name="Ecircumflex" unicode="&#xca;" horiz-adv-x="1255" 
d="M963 1677l-119 140l-170 -140h-170l276 234h127l213 -234h-157zM129 0l201 1481h897l-23 -162h-719l-65 -494h645l-21 -157h-647l-67 -504l737 -2l-20 -162h-918z" />
    <glyph glyph-name="Edieresis" unicode="&#xcb;" horiz-adv-x="1255" 
d="M791 1905l-31 -224h-172l30 224h173zM1083 1905l-28 -224h-172l30 224h170zM129 0l201 1481h897l-23 -162h-719l-65 -494h645l-21 -157h-647l-67 -504l737 -2l-20 -162h-918z" />
    <glyph glyph-name="Igrave" unicode="&#xcc;" horiz-adv-x="575" 
d="M240 1927l458 -209l-45 -84l-475 154zM330 1481h176l-201 -1481h-176z" />
    <glyph glyph-name="Iacute" unicode="&#xcd;" horiz-adv-x="575" 
d="M700 1931l29 -143l-512 -156l-22 94zM330 1481h176l-199 -1481h-178z" />
    <glyph glyph-name="Icircumflex" unicode="&#xce;" horiz-adv-x="573" 
d="M594 1677l-121 140l-170 -140h-170l279 234h125l213 -234h-156zM332 1481h176l-201 -1481h-176z" />
    <glyph glyph-name="Idieresis" unicode="&#xcf;" horiz-adv-x="577" 
d="M420 1905l-31 -224h-172l31 224h172zM713 1905l-29 -224h-172l31 224h170zM330 1481h178l-201 -1481h-176z" />
    <glyph glyph-name="Eth" unicode="&#xd0;" horiz-adv-x="1370" 
d="M639 1479q386 -6 539.5 -187.5t105.5 -543.5q-103 -748 -864 -748h-307l90 668h-111l19 145h110l90 668q207 0 328 -2zM1098 743q12 109 8 195t-31 150t-67.5 109t-102 73t-134.5 40.5t-165 12.5h-133l-67 -510h358l-16 -145h-363l-68 -512h123q139 0 247.5 31.5t194 100
t140 182.5t76.5 273z" />
    <glyph glyph-name="Ntilde" unicode="&#xd1;" horiz-adv-x="1507" 
d="M1243 1772q-77 -48 -170 -48q-57 0 -129.5 27t-112.5 27q-32 0 -56.5 -9.5t-50 -26t-38.5 -22.5l-29 113q43 29 80.5 44t85.5 15q52 0 131.5 -27.5t118.5 -27.5q30 0 56 9t53 24.5t43 21.5zM1260 1481h178l-201 -1481h-158l-612 1180l-160 -1180h-178l201 1481h168
l606 -1166z" />
    <glyph glyph-name="Ograve" unicode="&#xd2;" horiz-adv-x="1488" 
d="M678 1927l459 -209l-45 -84l-476 154zM670 -20q-289 0 -425 197.5t-89 557.5q51 362 243.5 564t479.5 202q285 0 423 -201.5t89 -562.5q-51 -360 -242 -558.5t-479 -198.5zM694 137q204 0 333 147.5t169 450.5q40 306 -48 457t-290 151q-204 0 -335 -151t-173 -457
q-39 -303 50.5 -450.5t293.5 -147.5z" />
    <glyph glyph-name="Oacute" unicode="&#xd3;" horiz-adv-x="1488" 
d="M1137 1931l28 -143l-512 -156l-22 94zM670 -20q-289 0 -425 197.5t-89 557.5q51 362 243.5 564t479.5 202q285 0 423 -201.5t89 -562.5q-51 -360 -242 -558.5t-479 -198.5zM694 137q204 0 333 147.5t169 450.5q40 306 -48 457t-290 151q-204 0 -335 -151t-173 -457
q-39 -303 50.5 -450.5t293.5 -147.5z" />
    <glyph glyph-name="Ocircumflex" unicode="&#xd4;" horiz-adv-x="1488" 
d="M1028 1677l-121 140l-168 -140h-170l277 234h125l215 -234h-158zM670 -20q-289 0 -425 197.5t-89 557.5q51 362 243.5 564t479.5 202q285 0 423 -201.5t89 -562.5q-51 -360 -242 -558.5t-479 -198.5zM694 137q204 0 333 147.5t169 450.5q40 306 -48 457t-290 151
q-204 0 -335 -151t-173 -457q-39 -303 50.5 -450.5t293.5 -147.5z" />
    <glyph glyph-name="Otilde" unicode="&#xd5;" horiz-adv-x="1488" 
d="M1202 1772q-81 -48 -172 -48q-56 0 -129 27t-113 27q-31 0 -55.5 -9.5t-50.5 -26t-39 -22.5l-29 113q43 29 80.5 44t85.5 15q52 0 131.5 -27.5t118.5 -27.5q30 0 56 9t53 24.5t43 21.5zM670 -20q-289 0 -425 197.5t-89 557.5q51 362 243.5 564t479.5 202
q285 0 423 -201.5t89 -562.5q-51 -360 -242 -558.5t-479 -198.5zM694 137q204 0 333 147.5t169 450.5q40 306 -48 457t-290 151q-204 0 -335 -151t-173 -457q-39 -303 50.5 -450.5t293.5 -147.5z" />
    <glyph glyph-name="Odieresis" unicode="&#xd6;" horiz-adv-x="1488" 
d="M856 1905l-31 -224h-172l31 224h172zM1149 1905l-29 -224h-172l31 224h170zM670 -20q-289 0 -425 197.5t-89 557.5q51 362 243.5 564t479.5 202q285 0 423 -201.5t89 -562.5q-51 -360 -242 -558.5t-479 -198.5zM694 137q204 0 333 147.5t169 450.5q40 306 -48 457
t-290 151q-204 0 -335 -151t-173 -457q-39 -303 50.5 -450.5t293.5 -147.5z" />
    <glyph glyph-name="multiply" unicode="&#xd7;" horiz-adv-x="1081" 
d="M1020 1059l-356 -322l268 -321l-107 -92l-266 319l-352 -319l-90 106l352 320l-266 321l104 94l266 -319l355 319z" />
    <glyph glyph-name="Oslash" unicode="&#xd8;" horiz-adv-x="1447" 
d="M72 -29l-92 105l200 190q-84 192 -45 477q49 360 238.5 559t474.5 199q267 0 405 -180l181 184l92 -104l-203 -195q83 -190 41 -479q-47 -355 -235.5 -551t-473.5 -196q-269 0 -405 174zM354 422l764 776q-74 148 -276 148q-402 0 -490 -592q-26 -191 2 -332zM664 135
q202 0 323 146.5t164 447.5q26 190 -4 324l-764 -774q79 -144 281 -144z" />
    <glyph glyph-name="Ugrave" unicode="&#xd9;" horiz-adv-x="1429" 
d="M662 1927l458 -209l-47 -84l-473 154zM1239 506q-36 -260 -180 -393t-412 -133q-272 0 -377 136.5t-69 411.5l129 953h184l-133 -983q-26 -179 48.5 -270t238.5 -91q166 0 266.5 90t126.5 271l131 983h178z" />
    <glyph glyph-name="Uacute" unicode="&#xda;" horiz-adv-x="1429" 
d="M1120 1931l29 -143l-512 -156l-23 94zM1239 506q-36 -260 -180 -393t-412 -133q-272 0 -377 136.5t-69 411.5l129 953h184l-133 -983q-26 -179 48.5 -270t238.5 -91q166 0 266.5 90t126.5 271l131 983h178z" />
    <glyph glyph-name="Ucircumflex" unicode="&#xdb;" horiz-adv-x="1429" 
d="M1012 1677l-121 140l-168 -140h-170l276 234h125l215 -234h-157zM1239 506q-36 -260 -180 -393t-412 -133q-272 0 -377 136.5t-69 411.5l129 953h184l-133 -983q-26 -179 48.5 -270t238.5 -91q166 0 266.5 90t126.5 271l131 983h178z" />
    <glyph glyph-name="Udieresis" unicode="&#xdc;" horiz-adv-x="1429" 
d="M840 1905l-31 -224h-172l31 224h172zM1133 1905l-29 -224h-172l31 224h170zM1239 506q-36 -260 -180 -393t-412 -133q-272 0 -377 136.5t-69 411.5l129 953h184l-133 -983q-26 -179 48.5 -270t238.5 -91q166 0 266.5 90t126.5 271l131 983h178z" />
    <glyph glyph-name="Yacute" unicode="&#xdd;" horiz-adv-x="1181" 
d="M1010 1931l28 -143l-510 -156l-22 94zM1296 1481l-598 -850l-86 -631h-176l86 633l-372 848h188l295 -690l473 690h190z" />
    <glyph glyph-name="Thorn" unicode="&#xde;" horiz-adv-x="1329" 
d="M1294 758q-30 -211 -180.5 -315.5t-382.5 -104.5h-354l-45 -338h-203l201 1481h202l-43 -307h324q116 0 209.5 -25.5t160 -75.5t96 -130.5t15.5 -184.5zM1090 778q18 127 -60.5 183.5t-241.5 56.5h-319l-70 -526h324q154 0 251.5 71.5t115.5 214.5z" />
    <glyph glyph-name="germandbls" unicode="&#xdf;" horiz-adv-x="1222" 
d="M758 1481q177 0 254.5 -84t58.5 -209q-6 -44 -23 -80.5t-37 -61t-58.5 -50.5t-66.5 -40.5t-81 -40.5q-76 -38 -101.5 -59t-31.5 -59q-4 -30 12.5 -44t77.5 -42q60 -21 94.5 -35.5t89.5 -48.5t83.5 -71t46.5 -99t7 -138q-23 -162 -140.5 -250.5t-285.5 -88.5
q-78 0 -149.5 22.5t-114.5 60.5l66 99q91 -53 190 -53q110 0 184 56.5t87 156.5q6 40 -3.5 73t-24.5 53t-49.5 41t-58 31t-71.5 29q-45 17 -74.5 32.5t-61 42.5t-44 67.5t-5.5 92.5q10 69 54 119t135 105q92 49 122 75q59 50 68 119q9 70 -33.5 109t-132.5 39
q-120 0 -200.5 -75.5t-98.5 -213.5l-143 -1061h-176l123 903h-135l20 133h131q27 200 156.5 322.5t339.5 122.5z" />
    <glyph glyph-name="agrave" unicode="&#xe0;" horiz-adv-x="1124" 
d="M455 1503l458 -209l-47 -84l-473 154zM367 -20q-153 0 -234 81t-61 224q23 173 150.5 254t395.5 96l187 14l10 76q12 104 -41.5 164.5t-159.5 60.5q-179 0 -303 -172l-139 35q73 122 193.5 193t273.5 71q194 0 281 -90t65 -250l-98 -737h-152l10 164q-153 -184 -378 -184
zM436 111q106 0 210 73t116 162l26 195l-155 -13q-193 -14 -281.5 -61.5t-105.5 -165.5q-13 -89 40 -139.5t150 -50.5z" />
    <glyph glyph-name="aacute" unicode="&#xe1;" horiz-adv-x="1124" 
d="M911 1507l29 -143l-510 -156l-22 95zM367 -20q-153 0 -234 81t-61 224q23 173 150.5 254t395.5 96l187 14l10 76q12 104 -41.5 164.5t-159.5 60.5q-179 0 -303 -172l-139 35q73 122 193.5 193t273.5 71q194 0 281 -90t65 -250l-98 -737h-152l10 164q-153 -184 -378 -184z
M436 111q106 0 210 73t116 162l26 195l-155 -13q-193 -14 -281.5 -61.5t-105.5 -165.5q-13 -89 40 -139.5t150 -50.5z" />
    <glyph glyph-name="acircumflex" unicode="&#xe2;" horiz-adv-x="1124" 
d="M805 1253l-121 140l-170 -140h-170l279 234h125l213 -234h-156zM367 -20q-153 0 -234 81t-61 224q23 173 150.5 254t395.5 96l187 14l10 76q12 104 -41.5 164.5t-159.5 60.5q-179 0 -303 -172l-139 35q73 122 193.5 193t273.5 71q194 0 281 -90t65 -250l-98 -737h-152
l10 164q-153 -184 -378 -184zM436 111q106 0 210 73t116 162l26 195l-155 -13q-193 -14 -281.5 -61.5t-105.5 -165.5q-13 -89 40 -139.5t150 -50.5z" />
    <glyph glyph-name="atilde" unicode="&#xe3;" horiz-adv-x="1124" 
d="M977 1348q-81 -48 -172 -48q-55 0 -127 27t-113 27q-32 0 -56.5 -9.5t-50 -26t-40.5 -22.5l-27 113q88 59 164 59q53 0 132.5 -27.5t119.5 -27.5q30 0 55.5 9t52.5 24.5t43 21.5zM367 -20q-153 0 -234 81t-61 224q23 173 150.5 254t395.5 96l187 14l10 76
q12 104 -41.5 164.5t-159.5 60.5q-179 0 -303 -172l-139 35q73 122 193.5 193t273.5 71q194 0 281 -90t65 -250l-98 -737h-152l10 164q-153 -184 -378 -184zM436 111q106 0 210 73t116 162l26 195l-155 -13q-193 -14 -281.5 -61.5t-105.5 -165.5q-13 -89 40 -139.5
t150 -50.5z" />
    <glyph glyph-name="adieresis" unicode="&#xe4;" horiz-adv-x="1124" 
d="M633 1481l-31 -224h-172l31 224h172zM926 1481l-29 -224h-172l31 224h170zM367 -20q-153 0 -234 81t-61 224q23 173 150.5 254t395.5 96l187 14l10 76q12 104 -41.5 164.5t-159.5 60.5q-179 0 -303 -172l-139 35q73 122 193.5 193t273.5 71q194 0 281 -90t65 -250
l-98 -737h-152l10 164q-153 -184 -378 -184zM436 111q106 0 210 73t116 162l26 195l-155 -13q-193 -14 -281.5 -61.5t-105.5 -165.5q-13 -89 40 -139.5t150 -50.5z" />
    <glyph glyph-name="aring" unicode="&#xe5;" horiz-adv-x="1124" 
d="M885 1382q-13 -88 -77 -144t-149 -56q-88 0 -139.5 64t-38.5 159q10 81 74.5 136.5t146.5 55.5q88 0 141 -62t42 -153zM786 1399q6 45 -17.5 72.5t-68.5 27.5q-46 0 -84.5 -34t-44.5 -85q-4 -41 22 -71.5t64 -30.5q47 0 85 36.5t44 84.5zM367 -20q-153 0 -234 81t-61 224
q23 173 150.5 254t395.5 96l187 14l10 76q12 104 -41.5 164.5t-159.5 60.5q-179 0 -303 -172l-139 35q73 122 193.5 193t273.5 71q194 0 281 -90t65 -250l-98 -737h-152l10 164q-153 -184 -378 -184zM436 111q106 0 210 73t116 162l26 195l-155 -13q-193 -14 -281.5 -61.5
t-105.5 -165.5q-13 -89 40 -139.5t150 -50.5z" />
    <glyph glyph-name="ae" unicode="&#xe6;" horiz-adv-x="1857" 
d="M961 489q-11 -96 20 -182t96.5 -139t149.5 -53q59 0 108.5 14t90 42t68.5 55t62 67l125 -70q-178 -243 -477 -243q-243 0 -370 221q-4 1 -10 -4t-7 -13q-44 -43 -82.5 -73.5t-94.5 -63.5t-125.5 -50t-149.5 -17q-156 0 -233 82.5t-58 222.5q42 307 534 344l203 16l10 82
q17 108 -39 165.5t-166 57.5q-158 0 -292 -174l-154 55q156 246 467 246q274 0 321 -188q142 188 381 188q215 0 325 -154.5t71 -430.5zM1335 952q-133 0 -233.5 -96.5t-120.5 -253.5h604q17 143 -55 246.5t-195 103.5zM793 530l-160 -12q-168 -14 -269 -75t-114 -164
q-11 -82 36.5 -129.5t143.5 -43.5q127 6 226.5 76t111.5 166z" />
    <glyph glyph-name="ccedilla" unicode="&#xe7;" horiz-adv-x="1101" 
d="M528 111q60 0 111 27t87 67.5t81 107.5l143 -43q-63 -122 -166.5 -198.5t-234.5 -89.5l-47 -95q90 -6 125 -50.5t28 -108.5q-10 -69 -74.5 -108.5t-152.5 -39.5q-114 0 -184 64l32 57q59 -41 127 -41q56 0 89 23t38 63q6 41 -26.5 59.5t-112.5 20.5q-25 0 -18 18l76 138
q-188 19 -283.5 167t-63.5 375q34 245 186 399t363 154q148 0 237 -77.5t124 -206.5l-160 -41q-26 54 -43 83t-42.5 58t-56 41t-71.5 12q-140 0 -237.5 -115t-122.5 -303q-25 -189 42 -303t207 -114z" />
    <glyph glyph-name="egrave" unicode="&#xe8;" horiz-adv-x="1136" 
d="M467 1503l459 -209l-47 -84l-473 154zM276 477q-23 -159 44 -261.5t215 -102.5q183 0 284 163l142 -40q-72 -126 -187.5 -191t-255.5 -65q-218 0 -334.5 144.5t-83.5 393.5q36 254 182.5 406.5t364.5 152.5q213 0 313 -142t66 -386l-12 -72h-738zM295 612h567
q21 152 -38 245t-195 93q-73 0 -134 -28.5t-101 -77t-65 -107.5t-34 -125z" />
    <glyph glyph-name="eacute" unicode="&#xe9;" horiz-adv-x="1136" 
d="M924 1507l30 -143l-512 -156l-22 95zM276 477q-23 -159 44 -261.5t215 -102.5q183 0 284 163l142 -40q-72 -126 -187.5 -191t-255.5 -65q-218 0 -334.5 144.5t-83.5 393.5q36 254 182.5 406.5t364.5 152.5q213 0 313 -142t66 -386l-12 -72h-738zM295 612h567
q21 152 -38 245t-195 93q-73 0 -134 -28.5t-101 -77t-65 -107.5t-34 -125z" />
    <glyph glyph-name="ecircumflex" unicode="&#xea;" horiz-adv-x="1136" 
d="M817 1253l-121 140l-170 -140h-170l279 234h125l213 -234h-156zM276 477q-23 -159 44 -261.5t215 -102.5q183 0 284 163l142 -40q-72 -126 -187.5 -191t-255.5 -65q-218 0 -334.5 144.5t-83.5 393.5q36 254 182.5 406.5t364.5 152.5q213 0 313 -142t66 -386l-12 -72h-738
zM295 612h567q21 152 -38 245t-195 93q-73 0 -134 -28.5t-101 -77t-65 -107.5t-34 -125z" />
    <glyph glyph-name="edieresis" unicode="&#xeb;" horiz-adv-x="1136" 
d="M645 1481l-31 -224h-172l31 224h172zM938 1481l-29 -224h-172l31 224h170zM276 477q-23 -159 44 -261.5t215 -102.5q183 0 284 163l142 -40q-72 -126 -187.5 -191t-255.5 -65q-218 0 -334.5 144.5t-83.5 393.5q36 254 182.5 406.5t364.5 152.5q213 0 313 -142t66 -386
l-12 -72h-738zM295 612h567q21 152 -38 245t-195 93q-73 0 -134 -28.5t-101 -77t-65 -107.5t-34 -125z" />
    <glyph glyph-name="igrave" unicode="&#xec;" horiz-adv-x="497" 
d="M139 1503l459 -209l-45 -84l-475 154zM406 1057l-144 -1057h-178l143 1057h179z" />
    <glyph glyph-name="iacute" unicode="&#xed;" horiz-adv-x="491" 
d="M600 1507l29 -143l-512 -156l-23 95zM410 1057l-146 -1057h-178l145 1057h179z" />
    <glyph glyph-name="icircumflex" unicode="&#xee;" horiz-adv-x="491" 
d="M502 1253l-121 140l-170 -140h-170l278 234h125l213 -234h-155zM418 1057l-146 -1057h-178l146 1057h178z" />
    <glyph glyph-name="idieresis" unicode="&#xef;" horiz-adv-x="503" 
d="M326 1481l-31 -224h-172l31 224h172zM618 1481l-28 -224h-172l31 224h169zM414 1057l-146 -1057h-178l146 1057h178z" />
    <glyph glyph-name="eth" unicode="&#xf0;" horiz-adv-x="1169" 
d="M1073 516q-33 -242 -184 -389t-375 -147q-144 0 -247.5 68.5t-149 189.5t-25.5 274q31 230 185 378t360 148q140 0 223 -86q-63 186 -221 308l-317 -179l-43 82l284 152q-100 59 -207 108l109 76q132 -43 240 -113l210 121l39 -88l-172 -88q366 -287 291 -815zM522 113
q140 0 244 113.5t127 289.5q23 174 -46 283.5t-202 109.5q-139 0 -244.5 -115.5t-130.5 -293.5q-22 -171 48 -279t204 -108z" />
    <glyph glyph-name="ntilde" unicode="&#xf1;" horiz-adv-x="1159" 
d="M1020 1348q-81 -48 -172 -48q-56 0 -128.5 27t-111.5 27q-32 0 -57 -9.5t-51 -26t-39 -22.5l-29 113q46 30 82 44.5t84 14.5q52 0 132 -27.5t120 -27.5q29 0 54 9t52 24.5t43 21.5zM90 0l143 1057h170l-22 -172q113 101 202.5 146.5t192.5 45.5q147 0 218 -82.5
t50 -220.5l-104 -774h-176l98 735q14 96 -30.5 149.5t-141.5 53.5q-80 0 -152 -37.5t-167 -120.5l-105 -780h-176z" />
    <glyph glyph-name="ograve" unicode="&#xf2;" horiz-adv-x="1130" 
d="M469 1503l457 -209l-45 -84l-475 154zM489 -20q-217 0 -323 150t-72 392q32 248 183 401.5t366 153.5q216 0 321 -153t72 -400q-33 -242 -181.5 -393t-365.5 -151zM512 109q142 0 231.5 119t114.5 302q16 119 -2 211.5t-77.5 149.5t-155.5 57q-97 0 -172 -57.5t-118 -150
t-59 -210.5t2 -211t78 -151.5t158 -58.5z" />
    <glyph glyph-name="oacute" unicode="&#xf3;" horiz-adv-x="1130" 
d="M926 1507l28 -143l-512 -156l-22 95zM489 -20q-217 0 -323 150t-72 392q32 248 183 401.5t366 153.5q216 0 321 -153t72 -400q-33 -242 -181.5 -393t-365.5 -151zM512 109q142 0 231.5 119t114.5 302q16 119 -2 211.5t-77.5 149.5t-155.5 57q-97 0 -172 -57.5t-118 -150
t-59 -210.5t2 -211t78 -151.5t158 -58.5z" />
    <glyph glyph-name="ocircumflex" unicode="&#xf4;" horiz-adv-x="1130" 
d="M817 1253l-121 140l-168 -140h-170l277 234h125l215 -234h-158zM489 -20q-217 0 -323 150t-72 392q32 248 183 401.5t366 153.5q216 0 321 -153t72 -400q-33 -242 -181.5 -393t-365.5 -151zM512 109q142 0 231.5 119t114.5 302q16 119 -2 211.5t-77.5 149.5t-155.5 57
q-97 0 -172 -57.5t-118 -150t-59 -210.5t2 -211t78 -151.5t158 -58.5z" />
    <glyph glyph-name="otilde" unicode="&#xf5;" horiz-adv-x="1130" 
d="M991 1348q-81 -48 -172 -48q-56 0 -128 27t-111 27q-32 0 -57 -9.5t-51.5 -26t-39.5 -22.5l-26 113q44 30 79.5 44.5t83.5 14.5q53 0 132.5 -27.5t119.5 -27.5q29 0 54.5 9t53 24.5t42.5 21.5zM489 -20q-217 0 -323 150t-72 392q32 248 183 401.5t366 153.5
q216 0 321 -153t72 -400q-33 -242 -181.5 -393t-365.5 -151zM512 109q142 0 231.5 119t114.5 302q16 119 -2 211.5t-77.5 149.5t-155.5 57q-97 0 -172 -57.5t-118 -150t-59 -210.5t2 -211t78 -151.5t158 -58.5z" />
    <glyph glyph-name="odieresis" unicode="&#xf6;" horiz-adv-x="1130" 
d="M645 1481l-31 -224h-172l31 224h172zM938 1481l-29 -224h-172l31 224h170zM489 -20q-217 0 -323 150t-72 392q32 248 183 401.5t366 153.5q216 0 321 -153t72 -400q-33 -242 -181.5 -393t-365.5 -151zM512 109q142 0 231.5 119t114.5 302q16 119 -2 211.5t-77.5 149.5
t-155.5 57q-97 0 -172 -57.5t-118 -150t-59 -210.5t2 -211t78 -151.5t158 -58.5z" />
    <glyph glyph-name="divide" unicode="&#xf7;" horiz-adv-x="1110" 
d="M760 1210l-31 -221h-225l31 221h225zM1016 815l-21 -141h-845l20 139zM664 498l-31 -222h-225l30 222h226z" />
    <glyph glyph-name="oslash" unicode="&#xf8;" horiz-adv-x="1153" 
d="M1167 981l-176 -156q45 -122 23 -301q-33 -242 -181.5 -393t-365.5 -151q-191 0 -297 118l-125 -110l-70 86l134 116q-64 140 -37 332q32 248 183 401.5t366 153.5q212 0 319 -151l158 139zM252 530q-16 -119 2 -211l557 492q-60 137 -211 137q-97 0 -172 -58
t-117.5 -150t-58.5 -210zM836 530q11 77 4 160l-545 -481q67 -100 194 -100q142 0 232 119t115 302z" />
    <glyph glyph-name="ugrave" unicode="&#xf9;" horiz-adv-x="1157" 
d="M459 1503l459 -209l-46 -84l-475 154zM410 -18q-147 2 -223.5 85t-57.5 222l104 770h177l-101 -735q-14 -99 28.5 -153t141.5 -54q85 0 153.5 36.5t166.5 122.5l106 783h178l-147 -1057h-139l6 166q-111 -97 -204 -142t-189 -44z" />
    <glyph glyph-name="uacute" unicode="&#xfa;" horiz-adv-x="1157" 
d="M915 1507l29 -143l-510 -156l-22 95zM410 -18q-147 2 -223.5 85t-57.5 222l104 770h177l-101 -735q-14 -99 28.5 -153t141.5 -54q85 0 153.5 36.5t166.5 122.5l106 783h178l-147 -1057h-139l6 166q-111 -97 -204 -142t-189 -44z" />
    <glyph glyph-name="ucircumflex" unicode="&#xfb;" horiz-adv-x="1157" 
d="M809 1253l-119 140l-170 -140h-170l277 234h127l213 -234h-158zM410 -18q-147 2 -223.5 85t-57.5 222l104 770h177l-101 -735q-14 -99 28.5 -153t141.5 -54q85 0 153.5 36.5t166.5 122.5l106 783h178l-147 -1057h-139l6 166q-111 -97 -204 -142t-189 -44z" />
    <glyph glyph-name="udieresis" unicode="&#xfc;" horiz-adv-x="1157" 
d="M637 1481l-31 -224h-172l31 224h172zM930 1481l-29 -224h-172l31 224h170zM410 -18q-147 2 -223.5 85t-57.5 222l104 770h177l-101 -735q-14 -99 28.5 -153t141.5 -54q85 0 153.5 36.5t166.5 122.5l106 783h178l-147 -1057h-139l6 166q-111 -97 -204 -142t-189 -44z" />
    <glyph glyph-name="yacute" unicode="&#xfd;" horiz-adv-x="1069" 
d="M907 1507l31 -143l-512 -156l-23 95zM143 -338q-53 0 -91 6t-50 12l-12 7l18 118l107 -4q52 -1 92 8.5t65 29.5t39 38t27 43l51 103l-260 1034h178l193 -828l415 828h172l-583 -1143q-75 -140 -162 -196t-199 -56z" />
    <glyph glyph-name="thorn" unicode="&#xfe;" horiz-adv-x="1175" 
d="M47 -330l246 1811h176l-78 -555q1 1 22 19.5t29 24.5l32 24t39.5 26t43 21t52 19.5t57 11.5t65.5 5q188 0 287.5 -140t62.5 -402q-35 -263 -172 -409t-334 -146q-174 0 -292 137l-58 -447h-178zM526 106q149 0 247.5 119t129.5 326q28 203 -39.5 301t-195.5 98
q-114 0 -202 -73t-99 -156l-70 -490q100 -125 229 -125z" />
    <glyph glyph-name="ydieresis" unicode="&#xff;" horiz-adv-x="1069" 
d="M627 1481l-29 -224h-174l33 224h170zM922 1481l-29 -224h-174l33 224h170zM143 -338q-53 0 -91 6t-50 12l-12 7l18 118l107 -4q52 -1 92 8.5t65 29.5t39 38t27 43l51 103l-260 1034h178l193 -828l415 828h172l-583 -1143q-75 -140 -162 -196t-199 -56z" />
    <glyph glyph-name="Amacron" unicode="&#x100;" horiz-adv-x="1406" 
d="M1188 1876l-19 -129h-585l16 129h588zM12 0l719 1481h201l315 -1481h-180l-84 412h-590l-200 -412h-181zM461 578h495l-147 722z" />
    <glyph glyph-name="amacron" unicode="&#x101;" horiz-adv-x="1124" 
d="M983 1452l-18 -129h-586l18 129h586zM367 -20q-153 0 -234 81t-61 224q23 173 150.5 254t395.5 96l187 14l10 76q12 104 -41.5 164.5t-159.5 60.5q-179 0 -303 -172l-139 35q73 122 193.5 193t273.5 71q194 0 281 -90t65 -250l-98 -737h-152l10 164q-153 -184 -378 -184z
M436 111q106 0 210 73t116 162l26 195l-155 -13q-193 -14 -281.5 -61.5t-105.5 -165.5q-13 -89 40 -139.5t150 -50.5z" />
    <glyph glyph-name="Abreve" unicode="&#x102;" horiz-adv-x="1406" 
d="M1192 1903q-40 -91 -128.5 -155.5t-203.5 -64.5q-118 0 -189 60t-79 160h123q1 -2 9 -14l11 -16.5t11 -15.5t13.5 -16t15.5 -13.5t19 -13t20.5 -9.5t25 -7t28.5 -2q101 0 187 107h137zM12 0l719 1481h201l315 -1481h-180l-84 412h-590l-200 -412h-181zM461 578h495
l-147 722z" />
    <glyph glyph-name="abreve" unicode="&#x103;" horiz-adv-x="1124" 
d="M987 1479q-42 -91 -130 -155t-202 -64q-118 0 -189 59.5t-79 159.5h123q1 -1 9.5 -14t10.5 -16.5t11 -15.5t14 -16t15 -13.5t19 -13.5t20.5 -9t24.5 -7t28 -2q104 0 186 107h139zM367 -20q-153 0 -234 81t-61 224q23 173 150.5 254t395.5 96l187 14l10 76
q12 104 -41.5 164.5t-159.5 60.5q-179 0 -303 -172l-139 35q73 122 193.5 193t273.5 71q194 0 281 -90t65 -250l-98 -737h-152l10 164q-153 -184 -378 -184zM436 111q106 0 210 73t116 162l26 195l-155 -13q-193 -14 -281.5 -61.5t-105.5 -165.5q-13 -89 40 -139.5
t150 -50.5z" />
    <glyph glyph-name="Aogonek" unicode="&#x104;" horiz-adv-x="1406" 
d="M1124 -246q17 0 34.5 2.5t29 5t28.5 9t23 9t22 10t17 7.5l-16 -108q-91 -31 -179 -31q-98 0 -144.5 46t-35.5 126q6 54 45 95t127 75h-8l-84 412h-590l-200 -412h-181l719 1481h201l315 -1477l10 -2q-106 -44 -155 -84.5t-55 -93.5q-5 -35 13.5 -52.5t63.5 -17.5z
M461 578h495l-147 722z" />
    <glyph glyph-name="aogonek" unicode="&#x105;" horiz-adv-x="1132" 
d="M639 1077q194 0 281 -90t65 -250l-98 -731h2h-2v-6h-13q-100 -42 -145 -80.5t-51 -89.5q-5 -36 14 -53t64 -17q68 0 151 43l-14 -110q-91 -31 -180 -31q-97 0 -144.5 46.5t-36.5 125.5q10 59 55 102.5t148 79.5l10 148q-153 -184 -378 -184q-153 0 -234 81t-61 224
q23 173 150.5 254t395.5 96l187 14l10 76q12 104 -41.5 164.5t-159.5 60.5q-179 0 -303 -172l-139 35q73 122 193.5 193t273.5 71zM436 111q106 0 210 73t116 162l26 195l-155 -13q-193 -14 -281.5 -61.5t-105.5 -165.5q-13 -89 40 -139.5t150 -50.5z" />
    <glyph glyph-name="Cacute" unicode="&#x106;" horiz-adv-x="1384" 
d="M1139 1931l28 -143l-512 -156l-22 94zM858 1501q225 0 357 -126.5t126 -315.5l-184 -19q-3 138 -82.5 220.5t-230.5 82.5q-196 0 -323 -151.5t-169 -450.5q-38 -299 48 -451.5t292 -152.5q130 0 232.5 80t148.5 215l178 -24q-47 -187 -206 -307.5t-383 -120.5
q-286 0 -418 203t-86 560q50 356 234 557t466 201z" />
    <glyph glyph-name="cacute" unicode="&#x107;" horiz-adv-x="1101" 
d="M926 1507l28 -143l-512 -156l-22 95zM651 1077q148 0 237 -77.5t124 -206.5l-160 -41q-26 54 -43 83t-42.5 58t-56 41t-71.5 12q-140 0 -237.5 -115t-122.5 -303q-25 -189 42 -303t207 -114q60 0 111 27t87 67.5t81 107.5l143 -43q-70 -134 -185.5 -212t-264.5 -78
q-212 0 -322 150.5t-76 393.5q34 245 186 399t363 154z" />
    <glyph glyph-name="Ccircumflex" unicode="&#x108;" horiz-adv-x="1384" 
d="M1030 1677l-121 140l-168 -140h-170l277 234h125l215 -234h-158zM858 1501q225 0 357 -126.5t126 -315.5l-184 -19q-3 138 -82.5 220.5t-230.5 82.5q-196 0 -323 -151.5t-169 -450.5q-38 -299 48 -451.5t292 -152.5q130 0 232.5 80t148.5 215l178 -24
q-47 -187 -206 -307.5t-383 -120.5q-286 0 -418 203t-86 560q50 356 234 557t466 201z" />
    <glyph glyph-name="ccircumflex" unicode="&#x109;" horiz-adv-x="1101" 
d="M817 1253l-121 140l-168 -140h-170l277 234h125l215 -234h-158zM651 1077q148 0 237 -77.5t124 -206.5l-160 -41q-26 54 -43 83t-42.5 58t-56 41t-71.5 12q-140 0 -237.5 -115t-122.5 -303q-25 -189 42 -303t207 -114q60 0 111 27t87 67.5t81 107.5l143 -43
q-70 -134 -185.5 -212t-264.5 -78q-212 0 -322 150.5t-76 393.5q34 245 186 399t363 154z" />
    <glyph glyph-name="Cdotaccent" unicode="&#x10a;" horiz-adv-x="1384" 
d="M1016 1905l-31 -240h-190l32 240h189zM858 1501q225 0 357 -126.5t126 -315.5l-184 -19q-3 138 -82.5 220.5t-230.5 82.5q-196 0 -323 -151.5t-169 -450.5q-38 -299 48 -451.5t292 -152.5q130 0 232.5 80t148.5 215l178 -24q-47 -187 -206 -307.5t-383 -120.5
q-286 0 -418 203t-86 560q50 356 234 557t466 201z" />
    <glyph glyph-name="cdotaccent" unicode="&#x10b;" horiz-adv-x="1101" 
d="M803 1481l-31 -240h-190l32 240h189zM651 1077q148 0 237 -77.5t124 -206.5l-160 -41q-26 54 -43 83t-42.5 58t-56 41t-71.5 12q-140 0 -237.5 -115t-122.5 -303q-25 -189 42 -303t207 -114q60 0 111 27t87 67.5t81 107.5l143 -43q-70 -134 -185.5 -212t-264.5 -78
q-212 0 -322 150.5t-76 393.5q34 245 186 399t363 154z" />
    <glyph glyph-name="Ccaron" unicode="&#x10c;" horiz-adv-x="1384" 
d="M1051 1905h182l-275 -234h-124l-220 234h148l131 -136zM858 1501q225 0 357 -126.5t126 -315.5l-184 -19q-3 138 -82.5 220.5t-230.5 82.5q-196 0 -323 -151.5t-169 -450.5q-38 -299 48 -451.5t292 -152.5q130 0 232.5 80t148.5 215l178 -24q-47 -187 -206 -307.5
t-383 -120.5q-286 0 -418 203t-86 560q50 356 234 557t466 201z" />
    <glyph glyph-name="ccaron" unicode="&#x10d;" horiz-adv-x="1101" 
d="M838 1481h182l-272 -234h-127l-220 234h148l131 -135zM651 1077q148 0 237 -77.5t124 -206.5l-160 -41q-26 54 -43 83t-42.5 58t-56 41t-71.5 12q-140 0 -237.5 -115t-122.5 -303q-25 -189 42 -303t207 -114q60 0 111 27t87 67.5t81 107.5l143 -43q-70 -134 -185.5 -212
t-264.5 -78q-212 0 -322 150.5t-76 393.5q34 245 186 399t363 154z" />
    <glyph glyph-name="Dcaron" unicode="&#x10e;" horiz-adv-x="1388" 
d="M1001 1905h181l-273 -234h-127l-219 234h148l131 -136zM330 1481q206 0 325 -2q387 -6 540 -187.5t105 -543.5q-100 -748 -864 -748h-307zM492 1323l-158 -1167h123q139 0 247.5 31.5t194 100t140 182.5t75.5 273q22 162 -0.5 275t-88.5 179.5t-163.5 96t-236.5 29.5
h-133z" />
    <glyph glyph-name="dcaron" unicode="&#x10f;" horiz-adv-x="1243" 
d="M451 -20q-198 0 -291.5 139.5t-57.5 396.5q33 257 166 409t336 152q176 0 279 -145l80 588h178l-205 -1520h-137l4 164q-22 -28 -49 -54t-71.5 -58.5t-105 -52t-126.5 -19.5zM1079 952l103 189l-49 8l28 199h148l-29 -211l-100 -185h-101zM510 113q111 0 198 83t103 191
l51 379q-71 178 -233 178q-135 0 -227 -107t-119 -313q-28 -209 35 -310t192 -101z" />
    <glyph glyph-name="Dcroat" unicode="&#x110;" horiz-adv-x="1370" 
d="M639 1479q386 -6 539.5 -187.5t105.5 -543.5q-103 -748 -864 -748h-307l90 668h-111l19 145h110l90 668q207 0 328 -2zM1098 743q12 109 8 195t-31 150t-67.5 109t-102 73t-134.5 40.5t-165 12.5h-133l-67 -510h358l-16 -145h-363l-68 -512h123q139 0 247.5 31.5t194 100
t140 182.5t76.5 273z" />
    <glyph glyph-name="dcroat" unicode="&#x111;" horiz-adv-x="1275" 
d="M1327 1337l-14 -114h-213l-164 -1223h-137l4 164q-22 -28 -49 -54t-71.5 -58.5t-105 -52t-126.5 -19.5q-198 0 -291.5 139.5t-57.5 396.5q33 257 166 409t336 152q176 0 279 -145l39 291h-220l17 114h219l25 183h178l-25 -183h211zM811 387l51 379q-71 178 -233 178
q-135 0 -227 -107t-119 -313q-28 -209 35 -310t192 -101q111 0 198 83t103 191z" />
    <glyph glyph-name="Emacron" unicode="&#x112;" horiz-adv-x="1255" 
d="M1143 1876l-19 -129h-585l16 129h588zM129 0l201 1481h897l-23 -162h-719l-65 -494h645l-21 -157h-647l-67 -504l737 -2l-20 -162h-918z" />
    <glyph glyph-name="emacron" unicode="&#x113;" horiz-adv-x="1136" 
d="M995 1452l-18 -129h-584l17 129h585zM276 477q-23 -159 44 -261.5t215 -102.5q183 0 284 163l142 -40q-72 -126 -187.5 -191t-255.5 -65q-218 0 -334.5 144.5t-83.5 393.5q36 254 182.5 406.5t364.5 152.5q213 0 313 -142t66 -386l-12 -72h-738zM295 612h567
q21 152 -38 245t-195 93q-73 0 -134 -28.5t-101 -77t-65 -107.5t-34 -125z" />
    <glyph glyph-name="Ebreve" unicode="&#x114;" horiz-adv-x="1255" 
d="M1145 1903q-40 -91 -128.5 -155.5t-203.5 -64.5q-118 0 -189 60t-79 160h123q1 -2 9 -14l11 -16.5t11 -15.5t13.5 -16t15.5 -13.5t19 -13t20.5 -9.5t25 -7t28.5 -2q101 0 187 107h137zM129 0l201 1481h897l-23 -162h-719l-65 -494h645l-21 -157h-647l-67 -504l737 -2
l-20 -162h-918z" />
    <glyph glyph-name="ebreve" unicode="&#x115;" horiz-adv-x="1136" 
d="M999 1479q-40 -91 -128 -155t-203 -64q-118 0 -189.5 59.5t-79.5 159.5h123q1 -2 8 -12.5t9.5 -14.5t10 -14t12 -14.5l13 -13t15.5 -13t17 -10t20 -8.5t23 -5t26 -2q102 0 184 107h139zM276 477q-23 -159 44 -261.5t215 -102.5q183 0 284 163l142 -40
q-72 -126 -187.5 -191t-255.5 -65q-218 0 -334.5 144.5t-83.5 393.5q36 254 182.5 406.5t364.5 152.5q213 0 313 -142t66 -386l-12 -72h-738zM295 612h567q21 152 -38 245t-195 93q-73 0 -134 -28.5t-101 -77t-65 -107.5t-34 -125z" />
    <glyph glyph-name="Edotaccent" unicode="&#x116;" horiz-adv-x="1255" 
d="M948 1905l-30 -240h-193l33 240h190zM129 0l201 1481h897l-23 -162h-719l-65 -494h645l-21 -157h-647l-67 -504l737 -2l-20 -162h-918z" />
    <glyph glyph-name="edotaccent" unicode="&#x117;" horiz-adv-x="1136" 
d="M803 1481l-33 -240h-190l32 240h191zM276 477q-23 -159 44 -261.5t215 -102.5q183 0 284 163l142 -40q-72 -126 -187.5 -191t-255.5 -65q-218 0 -334.5 144.5t-83.5 393.5q36 254 182.5 406.5t364.5 152.5q213 0 313 -142t66 -386l-12 -72h-738zM295 612h567
q21 152 -38 245t-195 93q-73 0 -134 -28.5t-101 -77t-65 -107.5t-34 -125z" />
    <glyph glyph-name="Eogonek" unicode="&#x118;" horiz-adv-x="1253" 
d="M1204 1319h-719l-65 -494h645l-21 -157h-647l-67 -504l737 -2l-20 -160h6q-107 -44 -156 -84.5t-55 -93.5q-5 -34 14 -52t64 -18q73 0 151 43l-14 -108q-79 -31 -178 -31q-98 0 -145 46t-36 124q6 56 45 97t127 75h-741l201 1481h897z" />
    <glyph glyph-name="eogonek" unicode="&#x119;" horiz-adv-x="1136" 
d="M647 1077q213 0 313 -142t66 -386l-12 -72h-738q-23 -159 44 -261.5t215 -102.5q183 0 284 163l142 -40q-84 -148 -230 -213h6q-106 -44 -155.5 -85t-55.5 -94q-5 -34 14 -51.5t64 -17.5q17 0 34 2.5t29.5 5.5t28 8.5t22.5 9t21 10t17 7.5l-15 -109q-91 -31 -180 -31
q-97 0 -144 46.5t-36 125.5q13 82 92 132q-198 15 -301.5 158t-71.5 378q36 254 182.5 406.5t364.5 152.5zM862 612q21 152 -38 245t-195 93q-73 0 -134 -28.5t-101 -77t-65 -107.5t-34 -125h567z" />
    <glyph glyph-name="Ecaron" unicode="&#x11a;" horiz-adv-x="1255" 
d="M985 1905h180l-272 -234h-127l-219 234h147l131 -136zM129 0l201 1481h897l-23 -162h-719l-65 -494h645l-21 -157h-647l-67 -504l737 -2l-20 -162h-918z" />
    <glyph glyph-name="ecaron" unicode="&#x11b;" horiz-adv-x="1136" 
d="M838 1481h180l-273 -234h-124l-220 234h146l133 -135zM276 477q-23 -159 44 -261.5t215 -102.5q183 0 284 163l142 -40q-72 -126 -187.5 -191t-255.5 -65q-218 0 -334.5 144.5t-83.5 393.5q36 254 182.5 406.5t364.5 152.5q213 0 313 -142t66 -386l-12 -72h-738zM295 612
h567q21 152 -38 245t-195 93q-73 0 -134 -28.5t-101 -77t-65 -107.5t-34 -125z" />
    <glyph glyph-name="Gcircumflex" unicode="&#x11c;" horiz-adv-x="1474" 
d="M1028 1677l-121 140l-170 -140h-170l279 234h125l213 -234h-156zM657 -20q-279 0 -413 202t-88 553q51 358 243.5 562t472.5 204q104 0 194 -36t151 -95.5t96 -138t35 -162.5l-195 -29q-6 132 -88.5 216.5t-214.5 84.5q-197 0 -330 -154.5t-172 -441.5
q-40 -302 53.5 -452t288.5 -150q87 0 162 32.5t125.5 85t83 112.5t45.5 121l22 137h-348l19 131h532l-104 -762h-133l30 229q-78 -111 -194 -180t-273 -69z" />
    <glyph glyph-name="gcircumflex" unicode="&#x11d;" horiz-adv-x="1206" 
d="M827 1253l-120 140l-168 -140h-170l276 234h125l215 -234h-158zM453 -350q-244 0 -365 75t-102 205q17 132 209 222q27 9 4 22q-85 43 -74 121q6 51 57.5 91t141.5 60q-92 53 -128 124.5t-24 168.5q21 157 154 245.5t333 88.5q176 0 273 -84q12 -12 51 8q37 16 128 52.5
t106 42.5l-25 -168q-23 -4 -139 -25q-32 -6 -39 -13.5t-2 -27.5q18 -61 10 -119q-20 -143 -141.5 -237t-327.5 -94q-43 0 -57 2q-187 -5 -199 -74q-3 -30 36.5 -42t149.5 -20q22 -2 55.5 -4t82.5 -5t84 -5q166 -10 238 -85t56 -200q-22 -153 -164 -239t-382 -86zM573 524
q124 0 194.5 55t84.5 158q15 105 -42 164.5t-177 59.5q-119 0 -195 -60.5t-90 -163.5q-12 -102 46 -157.5t179 -55.5zM500 -231q153 0 232 44t89 136q11 69 -29 108.5t-139 46.5l-284 19q-60 5 -127.5 -47.5t-77.5 -124.5q-12 -91 73.5 -136.5t262.5 -45.5z" />
    <glyph glyph-name="Gbreve" unicode="&#x11e;" horiz-adv-x="1474" 
d="M1210 1903q-40 -92 -128 -156t-203 -64q-118 0 -189.5 60t-79.5 160h123q1 -2 8 -12.5t9.5 -14.5t10 -14t12 -14.5l13 -13t15.5 -13t17 -10t20 -8.5t23 -5t26 -2q102 0 184 107h139zM657 -20q-279 0 -413 202t-88 553q51 358 243.5 562t472.5 204q104 0 194 -36
t151 -95.5t96 -138t35 -162.5l-195 -29q-6 132 -88.5 216.5t-214.5 84.5q-197 0 -330 -154.5t-172 -441.5q-40 -302 53.5 -452t288.5 -150q87 0 162 32.5t125.5 85t83 112.5t45.5 121l22 137h-348l19 131h532l-104 -762h-133l30 229q-78 -111 -194 -180t-273 -69z" />
    <glyph glyph-name="gbreve" unicode="&#x11f;" horiz-adv-x="1206" 
d="M1010 1479q-40 -91 -128 -155t-204 -64q-118 0 -188 59.5t-78 159.5h123q34 -55 57 -74q38 -33 94 -33q100 0 186 107h138zM453 -350q-244 0 -365 75t-102 205q17 132 209 222q27 9 4 22q-85 43 -74 121q6 51 57.5 91t141.5 60q-92 53 -128 124.5t-24 168.5
q21 157 154 245.5t333 88.5q176 0 273 -84q12 -12 51 8q37 16 128 52.5t106 42.5l-25 -168q-23 -4 -139 -25q-32 -6 -39 -13.5t-2 -27.5q18 -61 10 -119q-20 -143 -141.5 -237t-327.5 -94q-43 0 -57 2q-187 -5 -199 -74q-3 -30 36.5 -42t149.5 -20q22 -2 55.5 -4t82.5 -5
t84 -5q166 -10 238 -85t56 -200q-22 -153 -164 -239t-382 -86zM573 524q124 0 194.5 55t84.5 158q15 105 -42 164.5t-177 59.5q-119 0 -195 -60.5t-90 -163.5q-12 -102 46 -157.5t179 -55.5zM500 -231q153 0 232 44t89 136q11 69 -29 108.5t-139 46.5l-284 19
q-60 5 -127.5 -47.5t-77.5 -124.5q-12 -91 73.5 -136.5t262.5 -45.5z" />
    <glyph glyph-name="Gdotaccent" unicode="&#x120;" horiz-adv-x="1474" 
d="M1014 1905l-33 -240h-190l32 240h191zM657 -20q-279 0 -413 202t-88 553q51 358 243.5 562t472.5 204q104 0 194 -36t151 -95.5t96 -138t35 -162.5l-195 -29q-6 132 -88.5 216.5t-214.5 84.5q-197 0 -330 -154.5t-172 -441.5q-40 -302 53.5 -452t288.5 -150
q87 0 162 32.5t125.5 85t83 112.5t45.5 121l22 137h-348l19 131h532l-104 -762h-133l30 229q-78 -111 -194 -180t-273 -69z" />
    <glyph glyph-name="gdotaccent" unicode="&#x121;" horiz-adv-x="1206" 
d="M813 1481l-31 -240h-190l33 240h188zM453 -350q-244 0 -365 75t-102 205q17 132 209 222q27 9 4 22q-85 43 -74 121q6 51 57.5 91t141.5 60q-92 53 -128 124.5t-24 168.5q21 157 154 245.5t333 88.5q176 0 273 -84q12 -12 51 8q37 16 128 52.5t106 42.5l-25 -168
q-23 -4 -139 -25q-32 -6 -39 -13.5t-2 -27.5q18 -61 10 -119q-20 -143 -141.5 -237t-327.5 -94q-43 0 -57 2q-187 -5 -199 -74q-3 -30 36.5 -42t149.5 -20q22 -2 55.5 -4t82.5 -5t84 -5q166 -10 238 -85t56 -200q-22 -153 -164 -239t-382 -86zM573 524q124 0 194.5 55
t84.5 158q15 105 -42 164.5t-177 59.5q-119 0 -195 -60.5t-90 -163.5q-12 -102 46 -157.5t179 -55.5zM500 -231q153 0 232 44t89 136q11 69 -29 108.5t-139 46.5l-284 19q-60 5 -127.5 -47.5t-77.5 -124.5q-12 -91 73.5 -136.5t262.5 -45.5z" />
    <glyph glyph-name="uni0122" unicode="&#x122;" horiz-adv-x="1474" 
d="M657 -20q-279 0 -413 202t-88 553q51 358 243.5 562t472.5 204q104 0 194 -36t151 -95.5t96 -138t35 -162.5l-195 -29q-6 132 -88.5 216.5t-214.5 84.5q-197 0 -330 -154.5t-172 -441.5q-40 -302 53.5 -452t288.5 -150q87 0 162 32.5t125.5 85t83 112.5t45.5 121l22 137
h-348l19 131h532l-104 -762h-133l30 229q-78 -111 -194 -180t-273 -69zM514 -477l107 155h-74l24 179h156l-25 -187l-116 -147h-72z" />
    <glyph glyph-name="uni0123" unicode="&#x123;" horiz-adv-x="1206" 
d="M657 1241l25 186l117 148h71l-108 -156h76l-25 -178h-156zM453 -350q-244 0 -365 75t-102 205q17 132 209 222q27 9 4 22q-85 43 -74 121q6 51 57.5 91t141.5 60q-92 53 -128 124.5t-24 168.5q21 157 154 245.5t333 88.5q176 0 273 -84q12 -12 51 8q37 16 128 52.5
t106 42.5l-25 -168q-23 -4 -139 -25q-32 -6 -39 -13.5t-2 -27.5q18 -61 10 -119q-20 -143 -141.5 -237t-327.5 -94q-43 0 -57 2q-187 -5 -199 -74q-3 -30 36.5 -42t149.5 -20q22 -2 55.5 -4t82.5 -5t84 -5q166 -10 238 -85t56 -200q-22 -153 -164 -239t-382 -86zM573 524
q124 0 194.5 55t84.5 158q15 105 -42 164.5t-177 59.5q-119 0 -195 -60.5t-90 -163.5q-12 -102 46 -157.5t179 -55.5zM500 -231q153 0 232 44t89 136q11 69 -29 108.5t-139 46.5l-284 19q-60 5 -127.5 -47.5t-77.5 -124.5q-12 -91 73.5 -136.5t262.5 -45.5z" />
    <glyph glyph-name="Hcircumflex" unicode="&#x124;" horiz-adv-x="1427" 
d="M1010 1677l-119 140l-170 -140h-170l276 234h127l213 -234h-157zM1071 686h-672l-92 -686h-178l201 1481h176l-84 -635h674l84 635h178l-201 -1481h-178z" />
    <glyph glyph-name="hcircumflex" unicode="&#x125;" horiz-adv-x="1163" 
d="M92 0l207 1520h170l-86 -637q112 102 204.5 148t192.5 46q150 0 219 -81.5t48 -223.5l-105 -772h-176l98 735q14 97 -27 150t-139 53q-79 0 -147.5 -35.5t-177.5 -122.5l-103 -780h-178zM965 1253l-121 140l-170 -140h-170l278 234h125l213 -234h-155z" />
    <glyph glyph-name="Hbar" unicode="&#x126;" horiz-adv-x="1441" 
d="M1524 1257l-17 -118h-252l-155 -1139h-176l92 686h-672l-94 -686h-176l153 1139h-123l13 118h127l30 224h177l-31 -224h674l30 224h179l-31 -224h252zM1038 846l39 293h-674l-38 -293h673z" />
    <glyph glyph-name="hbar" unicode="&#x127;" horiz-adv-x="1110" 
d="M729 1077q150 0 218.5 -81.5t47.5 -223.5l-104 -772h-176l100 735q14 97 -27.5 150t-138.5 53q-79 0 -147.5 -35.5t-177.5 -122.5l-105 -780h-178l166 1223h-68l15 114h69l25 183h170l-25 -183h371l-16 -114h-371l-45 -340q111 102 204.5 148t192.5 46z" />
    <glyph glyph-name="Itilde" unicode="&#x128;" horiz-adv-x="563" 
d="M764 1772q-81 -48 -172 -48q-56 0 -128.5 27t-111.5 27q-32 0 -57 -9.5t-51 -26t-39 -22.5l-27 113q44 30 80 44.5t84 14.5q53 0 132.5 -27.5t119.5 -27.5q29 0 54.5 9t52.5 24.5t42 21.5zM328 1481h176l-201 -1481h-176z" />
    <glyph glyph-name="itilde" unicode="&#x129;" horiz-adv-x="501" 
d="M670 1348q-81 -48 -172 -48q-56 0 -128 27t-112 27q-32 0 -56.5 -9.5t-50 -26t-40.5 -22.5l-27 113q88 59 164 59q53 0 132.5 -27.5t119.5 -27.5q30 0 55.5 9t52.5 24.5t43 21.5zM414 1057l-146 -1057h-178l146 1057h178z" />
    <glyph glyph-name="Imacron" unicode="&#x12a;" horiz-adv-x="559" 
d="M768 1876l-18 -129h-584l16 129h586zM326 1481h178l-201 -1481h-176z" />
    <glyph glyph-name="imacron" unicode="&#x12b;" horiz-adv-x="497" 
d="M672 1452l-19 -129h-583l16 129h586zM412 1057l-146 -1057h-178l145 1057h179z" />
    <glyph glyph-name="Ibreve" unicode="&#x12c;" horiz-adv-x="581" 
d="M780 1903q-40 -92 -128 -156t-203 -64q-118 0 -189.5 60t-79.5 160h123q1 -2 8 -12.5t9.5 -14.5t10 -14t12 -14.5l13 -13t15.5 -13t17 -10t20 -8.5t23 -5t26 -2q102 0 184 107h139zM336 1481h176l-201 -1481h-176z" />
    <glyph glyph-name="ibreve" unicode="&#x12d;" horiz-adv-x="499" 
d="M688 1479q-40 -91 -128 -155t-204 -64q-118 0 -189 59.5t-79 159.5h123q1 -2 8 -12.5t9.5 -14.5t10 -14t12 -14.5l13 -13t15.5 -13t17 -10t20 -8.5t23 -5t26 -2q102 0 184 107h139zM422 1057l-146 -1057h-176l144 1057h178z" />
    <glyph glyph-name="Iogonek" unicode="&#x12e;" horiz-adv-x="563" 
d="M74 -180q-5 -36 14 -53t64 -17q70 0 153 43l-14 -108q-79 -31 -180 -31q-98 0 -145 46t-36 124q8 57 48.5 99t134.5 77h-2l200 1481h176l-198 -1481h-31l29 -4q-108 -42 -157.5 -82.5t-55.5 -93.5z" />
    <glyph glyph-name="iogonek" unicode="&#x12f;" horiz-adv-x="501" 
d="M281 1481h188l-31 -240h-190zM246 0q-102 -42 -149.5 -81.5t-53.5 -90.5q-5 -36 14 -53t64 -17q70 0 153 43l-16 -110q-86 -31 -178 -31q-98 0 -144.5 46t-35.5 126q6 56 46 97t132 75l145 1053h178l-145 -1057h-10z" />
    <glyph glyph-name="Idotaccent" unicode="&#x130;" horiz-adv-x="575" 
d="M578 1905l-31 -240h-193l33 240h191zM330 1481h176l-199 -1481h-178z" />
    <glyph glyph-name="dotlessi" unicode="&#x131;" horiz-adv-x="512" 
d="M420 1057l-146 -1057h-178l146 1057h178z" />
    <glyph glyph-name="Jcircumflex" unicode="&#x134;" horiz-adv-x="743" 
d="M760 1677l-121 140l-168 -140h-170l277 234h124l216 -234h-158zM555 344q-26 -185 -104 -274.5t-248 -89.5q-112 0 -226 47l41 172q3 -1 36 -16.5t62 -23t64 -7.5q97 0 141.5 54.5t63.5 188.5l147 1086h177z" />
    <glyph glyph-name="jcircumflex" unicode="&#x135;" horiz-adv-x="473" 
d="M477 1253l-121 140l-170 -140h-170l279 234h125l213 -234h-156zM260 -57q-21 -150 -90 -216.5t-219 -66.5q-50 0 -83 6t-40 12l-8 7l16 118l107 7q69 4 101.5 41.5t41.5 113.5l150 1092h178z" />
    <glyph glyph-name="uni0136" unicode="&#x136;" horiz-adv-x="1359" 
d="M1219 0h-205l-344 764l-293 -299l-64 -465h-184l201 1481h184l-104 -774l751 774h217l-559 -582zM463 -477l106 155h-75l26 179h154l-23 -187l-116 -147h-72z" />
    <glyph glyph-name="uni0137" unicode="&#x137;" horiz-adv-x="1128" 
d="M985 0h-186l-250 543l-240 -228l-39 -315h-178l207 1520h176l-133 -985l553 522h205l-420 -402zM348 -477l107 155h-76l27 179h153l-22 -187l-117 -147h-72z" />
    <glyph glyph-name="kgreenlandic" unicode="&#x138;" horiz-adv-x="1140" 
d="M997 0h-196l-230 549l-264 -240l-41 -309h-178l145 1057h177l-74 -543l571 543h211l-413 -379z" />
    <glyph glyph-name="Lacute" unicode="&#x139;" horiz-adv-x="1120" 
d="M688 1931l29 -143l-510 -156l-25 94zM324 1481h182l-178 -1317h678l-23 -164h-860z" />
    <glyph glyph-name="lacute" unicode="&#x13a;" horiz-adv-x="608" 
d="M668 2013l28 -145l-510 -154l-24 94zM344 -6q-62 0 -107 15t-68 41.5t-36 62.5t-12 77t6 86l170 1244h174l-166 -1225q-22 -158 92 -168h56l-17 -117q-53 -16 -92 -16z" />
    <glyph glyph-name="uni013B" unicode="&#x13b;" horiz-adv-x="1128" 
d="M330 1481h182l-176 -1317h676l-23 -164h-860zM401 -477l105 155h-74l27 179h153l-22 -187l-117 -147h-72z" />
    <glyph glyph-name="uni013C" unicode="&#x13c;" horiz-adv-x="622" 
d="M344 -6q-62 0 -107 15t-68 41.5t-36 62.5t-12 77t6 86l168 1244h176l-166 -1225q-25 -158 92 -168h56l-17 -117q-53 -16 -92 -16zM23 -477l106 155h-76l27 179h153l-22 -187l-117 -147h-71z" />
    <glyph glyph-name="Lcaron" unicode="&#x13d;" horiz-adv-x="1128" 
d="M330 1481h182l-176 -1317h676l-23 -164h-860zM786 1085l103 189l-49 8l28 199h148l-29 -211l-100 -185h-101z" />
    <glyph glyph-name="lcaron" unicode="&#x13e;" horiz-adv-x="659" 
d="M346 -6q-62 0 -107 15t-68.5 41.5t-36 62.5t-10.5 77t7 86l168 1244h174l-166 -1225q-22 -158 92 -168h58l-19 -117q-53 -16 -92 -16zM518 1112l103 188l-50 9l27 198h150l-29 -211l-101 -184h-100z" />
    <glyph glyph-name="Ldot" unicode="&#x13f;" horiz-adv-x="1136" 
d="M330 1481h182l-176 -1317h676l-23 -164h-860zM1038 915l-28 -221h-224l31 221h221z" />
    <glyph glyph-name="ldot" unicode="&#x140;" horiz-adv-x="622" 
d="M346 -6q-62 0 -107 15t-68.5 41.5t-36 62.5t-10.5 77t7 86l168 1244h174l-166 -1225q-22 -158 92 -168h58l-19 -117q-53 -16 -92 -16zM668 694l-29 -219h-223l30 219h222z" />
    <glyph glyph-name="Lslash" unicode="&#x141;" horiz-adv-x="1073" 
d="M281 164h677l-22 -164h-860l88 645l-105 -29l23 158l102 27l92 680h183l-86 -631l395 102l-23 -151l-393 -107z" />
    <glyph glyph-name="lslash" unicode="&#x142;" horiz-adv-x="536" 
d="M367 604l-43 -309q-22 -158 92 -168h57l-18 -117q-50 -16 -90 -16q-62 0 -107 15t-68.5 41.5t-36.5 62.5t-12 77t6 86l25 181l-172 -133l25 178l170 129l120 889h174l-100 -742l203 154l-23 -170z" />
    <glyph glyph-name="Nacute" unicode="&#x143;" horiz-adv-x="1507" 
d="M1178 1931l30 -143l-512 -156l-22 94zM1260 1481h178l-201 -1481h-158l-612 1180l-160 -1180h-178l201 1481h168l606 -1166z" />
    <glyph glyph-name="nacute" unicode="&#x144;" horiz-adv-x="1159" 
d="M954 1507l29 -143l-512 -156l-22 95zM90 0l143 1057h170l-22 -172q113 101 202.5 146.5t192.5 45.5q147 0 218 -82.5t50 -220.5l-104 -774h-176l98 735q14 96 -30.5 149.5t-141.5 53.5q-80 0 -152 -37.5t-167 -120.5l-105 -780h-176z" />
    <glyph glyph-name="uni0145" unicode="&#x145;" horiz-adv-x="1507" 
d="M1260 1481h178l-201 -1481h-158l-612 1180l-160 -1180h-178l201 1481h168l606 -1166zM502 -477l106 155h-76l27 179h154l-23 -187l-117 -147h-71z" />
    <glyph glyph-name="uni0146" unicode="&#x146;" horiz-adv-x="1159" 
d="M90 0l143 1057h170l-22 -172q113 101 202.5 146.5t192.5 45.5q147 0 218 -82.5t50 -220.5l-104 -774h-176l98 735q14 96 -30.5 149.5t-141.5 53.5q-80 0 -152 -37.5t-167 -120.5l-105 -780h-176zM373 -477l106 155h-76l27 179h154l-23 -187l-117 -147h-71z" />
    <glyph glyph-name="Ncaron" unicode="&#x147;" horiz-adv-x="1507" 
d="M1092 1905h180l-273 -234h-125l-219 234h146l133 -136zM1260 1481h178l-201 -1481h-158l-612 1180l-160 -1180h-178l201 1481h168l606 -1166z" />
    <glyph glyph-name="ncaron" unicode="&#x148;" horiz-adv-x="1159" 
d="M866 1481h183l-275 -234h-125l-219 234h148l131 -135zM90 0l143 1057h170l-22 -172q113 101 202.5 146.5t192.5 45.5q147 0 218 -82.5t50 -220.5l-104 -774h-176l98 735q14 96 -30.5 149.5t-141.5 53.5q-80 0 -152 -37.5t-167 -120.5l-105 -780h-176z" />
    <glyph glyph-name="Eng" unicode="&#x14a;" horiz-adv-x="1499" 
d="M1430 1481l-207 -1520q-22 -158 -105 -234.5t-241 -76.5q-120 0 -218 43l35 141q89 -29 166 -29q79 0 122 42t56 137l11 77l-590 1092l-156 -1153h-174l203 1481h170l606 -1119l152 1119h170z" />
    <glyph glyph-name="eng" unicode="&#x14b;" horiz-adv-x="1175" 
d="M770 1077q146 0 221 -84.5t56 -222.5l-113 -813q-19 -145 -98 -221t-209 -76q-45 0 -75.5 6t-37.5 12l-8 5l18 118l101 9q63 4 94 41t39 112l104 760q14 104 -25.5 160.5t-134.5 56.5q-76 0 -154.5 -43t-172.5 -123l-107 -774h-178l146 1057h170l-21 -148
q121 93 207.5 130.5t177.5 37.5z" />
    <glyph glyph-name="Omacron" unicode="&#x14c;" horiz-adv-x="1488" 
d="M1206 1876l-18 -129h-584l17 129h585zM670 -20q-289 0 -425 197.5t-89 557.5q51 362 243.5 564t479.5 202q285 0 423 -201.5t89 -562.5q-51 -360 -242 -558.5t-479 -198.5zM694 137q204 0 333 147.5t169 450.5q40 306 -48 457t-290 151q-204 0 -335 -151t-173 -457
q-39 -303 50.5 -450.5t293.5 -147.5z" />
    <glyph glyph-name="omacron" unicode="&#x14d;" horiz-adv-x="1130" 
d="M995 1452l-18 -129h-584l17 129h585zM489 -20q-217 0 -323 150t-72 392q32 248 183 401.5t366 153.5q216 0 321 -153t72 -400q-33 -242 -181.5 -393t-365.5 -151zM512 109q142 0 231.5 119t114.5 302q16 119 -2 211.5t-77.5 149.5t-155.5 57q-97 0 -172 -57.5t-118 -150
t-59 -210.5t2 -211t78 -151.5t158 -58.5z" />
    <glyph glyph-name="Obreve" unicode="&#x14e;" horiz-adv-x="1488" 
d="M1210 1903q-40 -92 -128 -156t-203 -64q-118 0 -189.5 60t-79.5 160h123q1 -2 8 -12.5t9.5 -14.5t10 -14t12 -14.5l13 -13t15.5 -13t17 -10t20 -8.5t23 -5t26 -2q102 0 184 107h139zM670 -20q-289 0 -425 197.5t-89 557.5q51 362 243.5 564t479.5 202q285 0 423 -201.5
t89 -562.5q-51 -360 -242 -558.5t-479 -198.5zM694 137q204 0 333 147.5t169 450.5q40 306 -48 457t-290 151q-204 0 -335 -151t-173 -457q-39 -303 50.5 -450.5t293.5 -147.5z" />
    <glyph glyph-name="obreve" unicode="&#x14f;" horiz-adv-x="1130" 
d="M999 1479q-40 -91 -128 -155t-203 -64q-118 0 -189.5 59.5t-79.5 159.5h123q1 -2 8 -12.5t9.5 -14.5t10 -14t12 -14.5l13 -13t15.5 -13t17 -10t20 -8.5t23 -5t26 -2q100 0 186 107h137zM489 -20q-217 0 -323 150t-72 392q32 248 183 401.5t366 153.5q216 0 321 -153
t72 -400q-33 -242 -181.5 -393t-365.5 -151zM512 109q142 0 231.5 119t114.5 302q16 119 -2 211.5t-77.5 149.5t-155.5 57q-97 0 -172 -57.5t-118 -150t-59 -210.5t2 -211t78 -151.5t158 -58.5z" />
    <glyph glyph-name="Ohungarumlaut" unicode="&#x150;" horiz-adv-x="1488" 
d="M907 1929l82 -119l-323 -241l-60 80zM1229 1929l80 -119l-324 -241l-57 80zM670 -20q-289 0 -425 197.5t-89 557.5q51 362 243.5 564t479.5 202q285 0 423 -201.5t89 -562.5q-51 -360 -242 -558.5t-479 -198.5zM694 137q204 0 333 147.5t169 450.5q40 306 -48 457
t-290 151q-204 0 -335 -151t-173 -457q-39 -303 50.5 -450.5t293.5 -147.5z" />
    <glyph glyph-name="ohungarumlaut" unicode="&#x151;" horiz-adv-x="1130" 
d="M696 1505l82 -119l-323 -241l-58 80zM1018 1505l80 -119l-324 -241l-57 80zM489 -20q-217 0 -323 150t-72 392q32 248 183 401.5t366 153.5q216 0 321 -153t72 -400q-33 -242 -181.5 -393t-365.5 -151zM512 109q142 0 231.5 119t114.5 302q16 119 -2 211.5t-77.5 149.5
t-155.5 57q-97 0 -172 -57.5t-118 -150t-59 -210.5t2 -211t78 -151.5t158 -58.5z" />
    <glyph glyph-name="OE" unicode="&#x152;" horiz-adv-x="2224" 
d="M2034 158l-19 -158h-880l-5 190q-162 -210 -446 -210q-296 0 -435.5 200.5t-90.5 562.5q49 361 241 559.5t486 198.5q281 0 389 -217l51 197h864l-22 -158h-707l-67 -498h522l-25 -155h-518l-67 -512h729zM688 135q204 0 325.5 149.5t160.5 458.5q43 309 -33.5 457
t-274.5 148q-417 0 -499 -623q-40 -303 39 -446.5t282 -143.5z" />
    <glyph glyph-name="oe" unicode="&#x153;" horiz-adv-x="1964" 
d="M516 -20q-223 0 -338.5 152t-81.5 400q32 245 187 395t370 150q129 0 221 -59.5t134 -165.5q16 -19 36 14q71 99 175.5 155t222.5 56q219 0 326.5 -155.5t72.5 -429.5h-774q-19 -160 60 -268.5t208 -108.5q190 0 328 178l127 -70q-98 -129 -212.5 -186t-264.5 -57
q-125 0 -218.5 58t-136.5 159q-18 23 -36 -21q-76 -93 -181 -144.5t-225 -51.5zM1448 950q-135 0 -236.5 -98t-121.5 -250l593 4q10 91 -14 169t-82 126.5t-139 48.5zM522 113q147 0 247.5 114t125.5 310q28 191 -39 300t-207 109q-145 0 -247 -115.5t-128 -312.5
q-26 -190 40.5 -297.5t207.5 -107.5z" />
    <glyph glyph-name="Racute" unicode="&#x154;" horiz-adv-x="1355" 
d="M1067 1931l29 -143l-512 -156l-23 94zM1145 0h-184l-179 643h-389l-86 -643h-178l201 1481h551q228 0 331 -105t78 -297q-41 -298 -334 -403zM729 795q165 0 262 68.5t117 203.5q17 130 -52.5 197t-211.5 67h-357l-71 -536h313z" />
    <glyph glyph-name="racute" unicode="&#x155;" horiz-adv-x="772" 
d="M780 1507l29 -143l-512 -156l-23 95zM90 0l143 1057h168l-28 -221q65 104 179.5 172.5t227.5 68.5l-24 -172q-150 9 -270 -76t-134 -190l-84 -639h-178z" />
    <glyph glyph-name="uni0156" unicode="&#x156;" horiz-adv-x="1355" 
d="M1145 0h-184l-179 643h-389l-86 -643h-178l201 1481h551q228 0 331 -105t78 -297q-41 -298 -334 -403zM729 795q165 0 262 68.5t117 203.5q17 130 -52.5 197t-211.5 67h-357l-71 -536h313zM457 -477l104 155h-74l25 179h156l-25 -187l-115 -147h-71z" />
    <glyph glyph-name="uni0157" unicode="&#x157;" horiz-adv-x="763" 
d="M82 0l143 1057h168l-28 -221q65 104 179.5 172.5t225.5 68.5l-22 -172q-150 9 -270 -76t-134 -190l-84 -639h-178zM35 -477l106 155h-75l26 179h154l-23 -187l-117 -147h-71z" />
    <glyph glyph-name="Rcaron" unicode="&#x158;" horiz-adv-x="1355" 
d="M979 1905h182l-274 -234h-125l-219 234h147l131 -136zM1145 0h-184l-179 643h-389l-86 -643h-178l201 1481h551q228 0 331 -105t78 -297q-41 -298 -334 -403zM729 795q165 0 262 68.5t117 203.5q17 130 -52.5 197t-211.5 67h-357l-71 -536h313z" />
    <glyph glyph-name="rcaron" unicode="&#x159;" horiz-adv-x="768" 
d="M680 1481h182l-274 -234h-125l-219 234h147l131 -135zM78 0l143 1057h168l-29 -221q65 104 180 172.5t228 68.5l-25 -172q-100 6 -191.5 -33.5t-147 -102.5t-64.5 -130l-84 -639h-178z" />
    <glyph glyph-name="Sacute" unicode="&#x15a;" horiz-adv-x="1320" 
d="M1071 1931l29 -143l-510 -156l-23 94zM590 -20q-182 0 -311.5 71.5t-192.5 208.5l147 94q46 -77 89 -119.5t111.5 -67t168.5 -24.5q340 0 371 232q10 78 -26.5 135.5t-149.5 103.5l-285 105q-285 107 -252 366q25 187 176 301.5t373 114.5q152 0 265.5 -58.5
t180.5 -168.5l-143 -98q-53 79 -129 123t-195 44q-141 0 -231.5 -63t-105.5 -174q-19 -158 174 -229l272 -95q161 -59 224 -154t44 -233q-26 -195 -179.5 -305t-395.5 -110z" />
    <glyph glyph-name="sacute" unicode="&#x15b;" horiz-adv-x="1071" 
d="M920 1507l28 -143l-512 -156l-22 95zM463 -20q-156 0 -266.5 67.5t-145.5 175.5l129 68q35 -80 113 -128t188 -48q93 0 181 48t98 111q8 56 -31.5 95.5t-136.5 68.5l-176 54q-138 39 -196 104.5t-46 161.5q19 142 143 230.5t304 88.5q137 0 231 -55.5t137 -151.5
l-127 -65q-31 65 -100 102t-166 37t-173 -47.5t-85 -114.5q-6 -45 26.5 -78.5t129.5 -66.5l219 -72q237 -69 215 -272q-20 -140 -151 -226.5t-314 -86.5z" />
    <glyph glyph-name="Scircumflex" unicode="&#x15c;" horiz-adv-x="1320" 
d="M965 1677l-121 140l-170 -140h-170l278 234h125l213 -234h-155zM590 -20q-182 0 -311.5 71.5t-192.5 208.5l147 94q46 -77 89 -119.5t111.5 -67t168.5 -24.5q340 0 371 232q10 78 -26.5 135.5t-149.5 103.5l-285 105q-285 107 -252 366q25 187 176 301.5t373 114.5
q152 0 265.5 -58.5t180.5 -168.5l-143 -98q-53 79 -129 123t-195 44q-141 0 -231.5 -63t-105.5 -174q-19 -158 174 -229l272 -95q161 -59 224 -154t44 -233q-26 -195 -179.5 -305t-395.5 -110z" />
    <glyph glyph-name="scircumflex" unicode="&#x15d;" horiz-adv-x="1071" 
d="M817 1253l-119 140l-170 -140h-170l277 234h127l213 -234h-158zM463 -20q-156 0 -266.5 67.5t-145.5 175.5l129 68q35 -80 113 -128t188 -48q93 0 181 48t98 111q8 56 -31.5 95.5t-136.5 68.5l-176 54q-138 39 -196 104.5t-46 161.5q19 142 143 230.5t304 88.5
q137 0 231 -55.5t137 -151.5l-127 -65q-31 65 -100 102t-166 37t-173 -47.5t-85 -114.5q-6 -45 26.5 -78.5t129.5 -66.5l219 -72q237 -69 215 -272q-20 -140 -151 -226.5t-314 -86.5z" />
    <glyph glyph-name="Scedilla" unicode="&#x15e;" horiz-adv-x="1320" 
d="M897 782q161 -59 224 -154t44 -233q-25 -187 -168 -296.5t-370 -118.5l-45 -93q89 -6 124.5 -51t26.5 -108q-10 -69 -74 -108.5t-151 -39.5q-116 0 -186 64l34 57q59 -41 127 -41q55 0 88 23t39 63q6 41 -26.5 59.5t-112.5 20.5q-13 0 -17.5 5t-2.5 13l77 138
q-159 11 -272 81.5t-170 196.5l147 94q46 -77 89 -119.5t111.5 -67t168.5 -24.5q340 0 371 232q10 78 -26.5 135.5t-149.5 103.5l-285 105q-285 107 -252 366q25 187 176 301.5t373 114.5q152 0 265.5 -58.5t180.5 -168.5l-143 -98q-53 79 -129 123t-195 44
q-141 0 -231.5 -63t-105.5 -174q-19 -158 174 -229z" />
    <glyph glyph-name="scedilla" unicode="&#x15f;" horiz-adv-x="1071" 
d="M713 565q237 -69 215 -272q-20 -140 -151 -226.5t-314 -86.5h-8l-49 -99q90 -6 125 -51t28 -109q-10 -69 -74 -108t-153 -39q-115 0 -185 64l35 57q55 -41 125 -41q56 0 89.5 23t39.5 63q4 41 -28.5 59.5t-112.5 20.5q-12 0 -17 5t-2 13l84 150q-118 20 -199.5 83
t-109.5 152l129 68q35 -80 113 -128t188 -48q93 0 181 48t98 111q8 56 -31.5 95.5t-136.5 68.5l-176 54q-138 39 -196 104.5t-46 161.5q19 142 143 230.5t304 88.5q137 0 231 -55.5t137 -151.5l-127 -65q-31 65 -100 102t-166 37t-173 -47.5t-85 -114.5q-6 -45 26.5 -78.5
t129.5 -66.5z" />
    <glyph glyph-name="Scaron" unicode="&#x160;" horiz-adv-x="1320" 
d="M985 1905h180l-272 -234h-125l-219 234h145l133 -136zM590 -20q-182 0 -311.5 71.5t-192.5 208.5l147 94q46 -77 89 -119.5t111.5 -67t168.5 -24.5q340 0 371 232q10 78 -26.5 135.5t-149.5 103.5l-285 105q-285 107 -252 366q25 187 176 301.5t373 114.5
q152 0 265.5 -58.5t180.5 -168.5l-143 -98q-53 79 -129 123t-195 44q-141 0 -231.5 -63t-105.5 -174q-19 -158 174 -229l272 -95q161 -59 224 -154t44 -233q-26 -195 -179.5 -305t-395.5 -110z" />
    <glyph glyph-name="scaron" unicode="&#x161;" horiz-adv-x="1071" 
d="M834 1481h180l-273 -234h-127l-219 234h148l131 -135zM463 -20q-156 0 -266.5 67.5t-145.5 175.5l129 68q35 -80 113 -128t188 -48q93 0 181 48t98 111q8 56 -31.5 95.5t-136.5 68.5l-176 54q-138 39 -196 104.5t-46 161.5q19 142 143 230.5t304 88.5q137 0 231 -55.5
t137 -151.5l-127 -65q-31 65 -100 102t-166 37t-173 -47.5t-85 -114.5q-6 -45 26.5 -78.5t129.5 -66.5l219 -72q237 -69 215 -272q-20 -140 -151 -226.5t-314 -86.5z" />
    <glyph glyph-name="uni0162" unicode="&#x162;" horiz-adv-x="1140" 
d="M166 1481h1077l-22 -168h-437l-178 -1313h-31l-55 -113q90 -6 125.5 -51t26.5 -108q-10 -69 -74.5 -108.5t-151.5 -39.5q-116 0 -186 64l35 57q59 -41 127 -41q55 0 88 23t39 63q6 41 -26.5 59.5t-112.5 20.5q-13 0 -18 5t-3 13l88 156h-47l176 1313h-465z" />
    <glyph glyph-name="uni0163" unicode="&#x163;" horiz-adv-x="804" 
d="M526 926l-88 -660q-10 -81 10 -110t70 -29h152l-17 -115q-45 -18 -151 -18l-51 -107q91 -6 125.5 -50.5t25.5 -108.5q-10 -69 -74 -108.5t-151 -39.5q-117 0 -187 64l35 57q59 -41 127 -41q55 0 88 23t39 63q6 41 -26.5 59.5t-112.5 20.5q-25 0 -18 18l86 156
q-99 17 -131.5 78.5t-18.5 175.5l92 672h-192l18 131h195l69 350h152l-47 -350h243l-18 -131h-244z" />
    <glyph glyph-name="Tcaron" unicode="&#x164;" horiz-adv-x="1140" 
d="M915 1905h181l-273 -234h-125l-219 234h148l131 -136zM141 1313l25 168h1077l-22 -168h-437l-178 -1313h-176l176 1313h-465z" />
    <glyph glyph-name="tcaron" unicode="&#x165;" horiz-adv-x="788" 
d="M696 1149l103 188l-49 9l28 198h148l-29 -211l-100 -184h-101zM770 926h-244l-88 -660q-10 -81 10 -110t70 -29h152l-17 -115q-49 -18 -161 -18q-151 0 -201.5 63t-32.5 197l92 672h-192l18 131h195l69 350h152l-47 -350h243z" />
    <glyph glyph-name="Tbar" unicode="&#x166;" horiz-adv-x="1140" 
d="M1221 1313h-437l-67 -498h348l-21 -145h-348l-90 -670h-176l90 670h-223l18 145h224l67 498h-465l25 168h1077z" />
    <glyph glyph-name="tbar" unicode="&#x167;" horiz-adv-x="794" 
d="M774 926h-246l-36 -283h167l-16 -115h-166l-35 -262q-11 -81 9 -110t71 -29h152l-19 -115q-45 -18 -159 -18q-151 0 -201.5 63t-32.5 197l37 274h-186l14 115h186l39 283h-192l20 131h195l67 350h152l-47 -350h246z" />
    <glyph glyph-name="Utilde" unicode="&#x168;" horiz-adv-x="1429" 
d="M1184 1772q-81 -48 -172 -48q-56 0 -128 27t-112 27q-32 0 -56.5 -9.5t-50 -26t-40.5 -22.5l-27 113q88 59 164 59q53 0 132.5 -27.5t119.5 -27.5q30 0 55.5 9t52.5 24.5t43 21.5zM1239 506q-36 -260 -180 -393t-412 -133q-272 0 -377 136.5t-69 411.5l129 953h184
l-133 -983q-26 -179 48.5 -270t238.5 -91q166 0 266.5 90t126.5 271l131 983h178z" />
    <glyph glyph-name="utilde" unicode="&#x169;" horiz-adv-x="1157" 
d="M981 1348q-81 -48 -172 -48q-55 0 -127 27t-113 27q-32 0 -56.5 -9.5t-50 -26t-40.5 -22.5l-27 113q88 59 164 59q53 0 132.5 -27.5t119.5 -27.5q30 0 56 9t53 24.5t43 21.5zM410 -18q-147 2 -223.5 85t-57.5 222l104 770h177l-101 -735q-14 -99 28.5 -153t141.5 -54
q85 0 153.5 36.5t166.5 122.5l106 783h178l-147 -1057h-139l6 166q-111 -97 -204 -142t-189 -44z" />
    <glyph glyph-name="Umacron" unicode="&#x16a;" horiz-adv-x="1429" 
d="M1190 1876l-19 -129h-585l16 129h588zM1239 506q-36 -260 -180 -393t-412 -133q-272 0 -377 136.5t-69 411.5l129 953h184l-133 -983q-26 -179 48.5 -270t238.5 -91q166 0 266.5 90t126.5 271l131 983h178z" />
    <glyph glyph-name="umacron" unicode="&#x16b;" horiz-adv-x="1157" 
d="M987 1452l-18 -129h-586l16 129h588zM410 -18q-147 2 -223.5 85t-57.5 222l104 770h177l-101 -735q-14 -99 28.5 -153t141.5 -54q85 0 153.5 36.5t166.5 122.5l106 783h178l-147 -1057h-139l6 166q-111 -97 -204 -142t-189 -44z" />
    <glyph glyph-name="Ubreve" unicode="&#x16c;" horiz-adv-x="1429" 
d="M1194 1903q-40 -91 -128.5 -155.5t-203.5 -64.5q-118 0 -189 60t-79 160h123q1 -2 9 -14l11 -16.5t11 -15.5t13.5 -16t15.5 -13.5t19 -13t20.5 -9.5t25 -7t28.5 -2q101 0 187 107h137zM1239 506q-36 -260 -180 -393t-412 -133q-272 0 -377 136.5t-69 411.5l129 953h184
l-133 -983q-26 -179 48.5 -270t238.5 -91q166 0 266.5 90t126.5 271l131 983h178z" />
    <glyph glyph-name="ubreve" unicode="&#x16d;" horiz-adv-x="1157" 
d="M991 1479q-40 -91 -128 -155t-204 -64q-118 0 -189 59.5t-79 159.5h123q1 -2 8 -12.5t9.5 -14.5t10 -14t12 -14.5l13 -13t15.5 -13t17 -10t20 -8.5t23 -5t26 -2q100 0 186 107h137zM410 -18q-147 2 -223.5 85t-57.5 222l104 770h177l-101 -735q-14 -99 28.5 -153
t141.5 -54q85 0 153.5 36.5t166.5 122.5l106 783h178l-147 -1057h-139l6 166q-111 -97 -204 -142t-189 -44z" />
    <glyph glyph-name="Uring" unicode="&#x16e;" horiz-adv-x="1429" 
d="M1092 1806q-13 -88 -77 -144t-149 -56q-88 0 -139.5 64t-38.5 159q9 81 73.5 136.5t145.5 55.5q89 0 142.5 -62.5t42.5 -152.5zM993 1823q6 45 -18.5 72.5t-67.5 27.5q-45 0 -84 -34.5t-45 -84.5q-5 -41 20.5 -71.5t65.5 -30.5q47 0 85 36.5t44 84.5zM1239 506
q-36 -260 -180 -393t-412 -133q-272 0 -377 136.5t-69 411.5l129 953h184l-133 -983q-26 -179 48.5 -270t238.5 -91q166 0 266.5 90t126.5 271l131 983h178z" />
    <glyph glyph-name="uring" unicode="&#x16f;" horiz-adv-x="1157" 
d="M889 1382q-13 -88 -76.5 -144t-148.5 -56q-88 0 -140 64t-39 159q9 81 74 136.5t146 55.5q89 0 142 -62.5t42 -152.5zM791 1399q6 45 -18.5 72.5t-67.5 27.5q-46 0 -85 -34.5t-45 -84.5q-5 -41 21 -71.5t66 -30.5q47 0 85 36.5t44 84.5zM410 -18q-147 2 -223.5 85
t-57.5 222l104 770h177l-101 -735q-14 -99 28.5 -153t141.5 -54q85 0 153.5 36.5t166.5 122.5l106 783h178l-147 -1057h-139l6 166q-111 -97 -204 -142t-189 -44z" />
    <glyph glyph-name="Uhungarumlaut" unicode="&#x170;" horiz-adv-x="1429" 
d="M891 1929l82 -119l-326 -241l-57 80zM1210 1929l82 -119l-323 -241l-60 80zM1239 506q-36 -260 -180 -393t-412 -133q-272 0 -377 136.5t-69 411.5l129 953h184l-133 -983q-26 -179 48.5 -270t238.5 -91q166 0 266.5 90t126.5 271l131 983h178z" />
    <glyph glyph-name="uhungarumlaut" unicode="&#x171;" horiz-adv-x="1157" 
d="M688 1505l82 -119l-326 -241l-57 80zM1008 1505l82 -119l-324 -241l-59 80zM410 -18q-147 2 -223.5 85t-57.5 222l104 770h177l-101 -735q-14 -99 28.5 -153t141.5 -54q85 0 153.5 36.5t166.5 122.5l106 783h178l-147 -1057h-139l6 166q-111 -97 -204 -142t-189 -44z" />
    <glyph glyph-name="Uogonek" unicode="&#x172;" horiz-adv-x="1429" 
d="M1192 1481h178l-131 -975q-64 -454 -455 -516q-91 -40 -133.5 -78.5t-48.5 -87.5q-5 -34 14 -52t64 -18q17 0 34.5 2.5t29 5t28.5 9t23 9t22 10t17 7.5l-17 -108q-91 -31 -178 -31q-98 0 -144.5 46t-35.5 126q14 97 129 152q-238 15 -330 151t-57 395l129 953h184
l-133 -983q-26 -179 48.5 -270t238.5 -91q166 0 266.5 90t126.5 271z" />
    <glyph glyph-name="uogonek" unicode="&#x173;" horiz-adv-x="1159" 
d="M719 -174q-5 -36 13.5 -53t64.5 -17q68 0 151 43l-14 -110q-91 -31 -180 -31q-97 0 -144.5 46.5t-36.5 125.5q10 63 59 107.5t165 80.5l6 150q-111 -97 -204 -142t-189 -44q-147 2 -223.5 85t-57.5 222l104 770h177l-101 -735q-14 -99 28.5 -153t141.5 -54
q85 0 153.5 36.5t166.5 122.5l106 783h178l-147 -1057h-6q-107 -44 -156 -83.5t-55 -92.5z" />
    <glyph glyph-name="Wcircumflex" unicode="&#x174;" horiz-adv-x="1892" 
d="M1251 1677l-118 140l-170 -140h-170l276 234h127l213 -234h-158zM1974 1481l-616 -1481h-166l-160 1163l-475 -1163h-162l-211 1481h178l160 -1198l486 1198h139l162 -1198l487 1198h178z" />
    <glyph glyph-name="wcircumflex" unicode="&#x175;" horiz-adv-x="1581" 
d="M1036 1253l-118 140l-170 -140h-170l276 234h127l213 -234h-158zM1585 1057l-459 -1057h-161l-136 795l-337 -795h-166l-183 1057h172l134 -826l352 826h137l139 -824l346 824h162z" />
    <glyph glyph-name="Ycircumflex" unicode="&#x176;" horiz-adv-x="1181" 
d="M901 1677l-119 140l-170 -140h-170l277 234h127l213 -234h-158zM1296 1481l-598 -850l-86 -631h-176l86 633l-372 848h188l295 -690l473 690h190z" />
    <glyph glyph-name="ycircumflex" unicode="&#x177;" horiz-adv-x="1069" 
d="M801 1253l-121 140l-170 -140h-170l278 234h125l213 -234h-155zM143 -338q-53 0 -91 6t-50 12l-12 7l18 118l107 -4q52 -1 92 8.5t65 29.5t39 38t27 43l51 103l-260 1034h178l193 -828l415 828h172l-583 -1143q-75 -140 -162 -196t-199 -56z" />
    <glyph glyph-name="Ydieresis" unicode="&#x178;" horiz-adv-x="1181" 
d="M729 1905l-29 -224h-174l33 224h170zM1024 1905l-31 -224h-172l31 224h172zM1296 1481l-598 -850l-86 -631h-176l86 633l-372 848h188l295 -690l473 690h190z" />
    <glyph glyph-name="Zacute" unicode="&#x179;" horiz-adv-x="1245" 
d="M1051 1931l28 -143l-510 -156l-22 94zM35 0l12 100l950 1223h-751l20 158h1002l-13 -97l-960 -1226h790l-20 -158h-1030z" />
    <glyph glyph-name="zacute" unicode="&#x17a;" horiz-adv-x="983" 
d="M862 1507l29 -143l-510 -156l-23 95zM12 0l17 113l700 821h-549l19 123h759l-16 -115l-698 -817h598l-15 -125h-815z" />
    <glyph glyph-name="Zdotaccent" unicode="&#x17b;" horiz-adv-x="1245" 
d="M928 1905l-31 -240h-192l32 240h191zM35 0l12 100l950 1223h-751l20 158h1002l-13 -97l-960 -1226h790l-20 -158h-1030z" />
    <glyph glyph-name="zdotaccent" unicode="&#x17c;" horiz-adv-x="983" 
d="M741 1481l-30 -240h-193l33 240h190zM12 0l17 113l700 821h-549l19 123h759l-16 -115l-698 -817h598l-15 -125h-815z" />
    <glyph glyph-name="Zcaron" unicode="&#x17d;" horiz-adv-x="1245" 
d="M965 1905h180l-273 -234h-127l-219 234h148l131 -136zM35 0l12 100l950 1223h-751l20 158h1002l-13 -97l-960 -1226h790l-20 -158h-1030z" />
    <glyph glyph-name="zcaron" unicode="&#x17e;" horiz-adv-x="983" 
d="M778 1481h180l-272 -234h-127l-219 234h147l131 -135zM12 0l17 113l700 821h-549l19 123h759l-16 -115l-698 -817h598l-15 -125h-815z" />
    <glyph glyph-name="uni018F" unicode="&#x18f;" horiz-adv-x="1484" 
d="M1176 786q7 49 10 96t-0.5 103t-14.5 103.5t-35 94t-59 78.5t-90 52t-125 20q-76 0 -140.5 -21.5t-106 -51t-80 -75.5t-57.5 -79.5t-42.5 -79t-32.5 -59.5l-176 84q4 7 13 22q26 44 42.5 70.5t53.5 77t69.5 83t84.5 74t105 65.5t124 41t149 17q98 0 179 -23.5t138 -65
t99 -100t66.5 -125t36 -144t11 -154.5t-11.5 -158q-20 -150 -76 -283t-143 -238.5t-214 -167.5t-277 -62q-111 0 -199 28.5t-147.5 80.5t-100.5 125.5t-58 163t-20.5 193t13.5 215.5h1012zM1155 645l-790 -4q-10 -61 -7.5 -122t11 -117.5t33.5 -105t60.5 -84.5t91 -56.5
t126.5 -20.5q90 0 163.5 29t124.5 76t89.5 114.5t61 138t36.5 152.5z" />
    <glyph glyph-name="florin" unicode="&#x192;" horiz-adv-x="884" 
d="M817 1057l-41 -131h-250l-307 -1006q-37 -127 -118 -194.5t-203 -67.5h-172l36 129h113q68 2 108 40.5t66 127.5l295 971h-164l43 131h164l51 170q77 254 322 254h194l-39 -129h-143q-52 0 -99 -43t-67 -109l-43 -143h254z" />
    <glyph glyph-name="Ohorn" unicode="&#x1a0;" horiz-adv-x="1413" 
d="M1171 1425q138 -86 195.5 -261.5t24.5 -426.5q-51 -360 -242 -558.5t-479 -198.5q-289 0 -425 197.5t-89 557.5q51 362 243.5 564t479.5 202q75 0 135 -14v4q108 0 160 121h139q-43 -126 -142 -187zM1196 735q40 306 -48 457t-290 151q-204 0 -335 -151t-173 -457
q-39 -303 50.5 -450.5t293.5 -147.5t333 147.5t169 450.5z" />
    <glyph glyph-name="ohorn" unicode="&#x1a1;" horiz-adv-x="1136" 
d="M915 981q78 -72 109.5 -190t11.5 -267q-33 -242 -181.5 -393t-365.5 -151t-323 150t-72 392q32 248 183 401.5t366 153.5q75 0 143 -22q93 10 144 121h137q-46 -134 -152 -195zM858 530q16 119 -2 211.5t-77.5 149.5t-155.5 57q-97 0 -172 -57.5t-118 -150t-59 -210.5
t2 -211t78 -151.5t158 -58.5q142 0 231.5 119t114.5 302z" />
    <glyph glyph-name="Uhorn" unicode="&#x1af;" horiz-adv-x="1368" 
d="M1642 1614q-32 -96 -105.5 -161.5t-180.5 -72.5l-117 -874q-36 -260 -180 -393t-412 -133q-272 0 -377 136.5t-69 411.5l129 953h184l-133 -983q-26 -179 48.5 -270t238.5 -91q166 0 266.5 90t126.5 271l131 983h149l2 12q108 0 160 121h139z" />
    <glyph glyph-name="uhorn" unicode="&#x1b0;" horiz-adv-x="1155" 
d="M1296 1176q-28 -82 -85.5 -141.5t-141.5 -80.5l-133 -952h-139l6 166q-111 -97 -204 -142t-189 -44q-147 2 -223.5 85t-57.5 222l104 770h177l-101 -735q-14 -99 28.5 -153t141.5 -54q85 0 153.5 36.5t166.5 122.5l106 783h131q76 17 123 117h137z" />
    <glyph glyph-name="uni01EA" unicode="&#x1ea;" horiz-adv-x="1488" 
d="M879 1501q285 0 423 -201.5t89 -562.5q-44 -311 -194.5 -503t-379.5 -240q-99 -42 -144.5 -81.5t-51.5 -90.5q-5 -35 13 -52.5t64 -17.5q17 0 34 2.5t29.5 5.5t28 8.5t22.5 9t21 10t17 7.5l-14 -108q-91 -31 -181 -31q-97 0 -144 46.5t-36 125.5q17 99 135 154
q-260 22 -379 217t-75 536q51 362 243.5 564t479.5 202zM1196 735q40 306 -48 457t-290 151q-204 0 -335 -151t-173 -457q-39 -303 50.5 -450.5t293.5 -147.5t333 147.5t169 450.5z" />
    <glyph glyph-name="uni01EB" unicode="&#x1eb;" horiz-adv-x="1130" 
d="M643 1077q216 0 321 -153t72 -400q-26 -194 -129.5 -332.5t-259.5 -187.5l10 -2q-108 -44 -157.5 -84.5t-55.5 -93.5q-5 -34 14 -52t64 -18q71 0 154 43l-17 -108q-76 -31 -178 -31q-98 0 -144.5 46t-35.5 124q6 49 35.5 86t95.5 68q-189 22 -279.5 169t-58.5 371
q32 248 183 401.5t366 153.5zM858 530q16 119 -2 211.5t-77.5 149.5t-155.5 57q-97 0 -172 -57.5t-118 -150t-59 -210.5t2 -211t78 -151.5t158 -58.5q142 0 231.5 119t114.5 302z" />
    <glyph glyph-name="Aringacute" unicode="&#x1fa;" horiz-adv-x="1347" 
d="M922 1436l278 -1436h-207l-80 416h-542l-195 -416h-182l676 1444q-64 64 -52 166q7 71 62 123t127 61l47 129h143l-84 -143q54 -24 82 -76t19 -117q-15 -96 -92 -151zM705 1585q-4 -41 22 -71.5t64 -30.5q47 0 86 36.5t45 84.5q4 45 -19.5 72.5t-66.5 27.5
q-46 0 -85.5 -34t-45.5 -85zM434 578h457l-131 702z" />
    <glyph glyph-name="aringacute" unicode="&#x1fb;" horiz-adv-x="1124" 
d="M430 1208l-22 95l73 30q-6 35 0 72q10 81 74.5 136.5t146.5 55.5q57 0 101.5 -29t66.5 -77l41 16l29 -143l-63 -21q-23 -72 -83 -116.5t-135 -44.5q-81 0 -133 55zM571 1380v-12l209 86q-19 45 -80 45q-46 0 -84.5 -34t-44.5 -85zM657 1278q35 0 62 18zM639 1077
q194 0 281 -90t65 -250l-98 -737h-152l10 164q-153 -184 -378 -184q-153 0 -234 81t-61 224q23 173 150.5 254t395.5 96l187 14l10 76q12 104 -41.5 164.5t-159.5 60.5q-179 0 -303 -172l-139 35q73 122 193.5 193t273.5 71zM762 346l26 195l-155 -13q-193 -14 -281.5 -61.5
t-105.5 -165.5q-13 -89 40 -139.5t150 -50.5q106 0 210 73t116 162z" />
    <glyph glyph-name="AEacute" unicode="&#x1fc;" horiz-adv-x="2027" 
d="M1761 1931l29 -143l-510 -156l-23 94zM1839 158l-20 -158h-910l60 416h-486l-278 -416h-193l998 1481h985l-25 -158h-680l-65 -498h508l-23 -155h-508l-67 -512h704zM991 578l101 757l-514 -757h413z" />
    <glyph glyph-name="aeacute" unicode="&#x1fd;" horiz-adv-x="1857" 
d="M1257 1507l31 -143l-512 -156l-22 95zM961 489q-11 -96 20 -182t96.5 -139t149.5 -53q59 0 108.5 14t90 42t68.5 55t62 67l125 -70q-178 -243 -477 -243q-243 0 -370 221q-4 1 -10 -4t-7 -13q-44 -43 -82.5 -73.5t-94.5 -63.5t-125.5 -50t-149.5 -17q-156 0 -233 82.5
t-58 222.5q42 307 534 344l203 16l10 82q17 108 -39 165.5t-166 57.5q-158 0 -292 -174l-154 55q156 246 467 246q274 0 321 -188q142 188 381 188q215 0 325 -154.5t71 -430.5zM1335 952q-133 0 -233.5 -96.5t-120.5 -253.5h604q17 143 -55 246.5t-195 103.5zM793 530
l-160 -12q-168 -14 -269 -75t-114 -164q-11 -82 36.5 -129.5t143.5 -43.5q127 6 226.5 76t111.5 166z" />
    <glyph glyph-name="Oslashacute" unicode="&#x1fe;" horiz-adv-x="1447" 
d="M1128 1931l29 -143l-512 -156l-22 94zM72 -29l-92 105l200 190q-84 192 -45 477q49 360 238.5 559t474.5 199q267 0 405 -180l181 184l92 -104l-203 -195q83 -190 41 -479q-47 -355 -235.5 -551t-473.5 -196q-269 0 -405 174zM354 422l764 776q-74 148 -276 148
q-402 0 -490 -592q-26 -191 2 -332zM664 135q202 0 323 146.5t164 447.5q26 190 -4 324l-764 -774q79 -144 281 -144z" />
    <glyph glyph-name="oslashacute" unicode="&#x1ff;" horiz-adv-x="1153" 
d="M944 1364l-512 -156l-22 95l503 204zM1167 981l-176 -156q45 -122 23 -301q-33 -242 -181.5 -393t-365.5 -151q-191 0 -297 118l-125 -110l-70 86l134 116q-64 140 -37 332q32 248 183 401.5t366 153.5q212 0 319 -151l158 139zM252 530q-16 -119 2 -211l557 492
q-60 137 -211 137q-97 0 -172 -58t-117.5 -150t-58.5 -210zM836 530q11 77 4 160l-545 -481q67 -100 194 -100q142 0 232 119t115 302z" />
    <glyph glyph-name="uni0200" unicode="&#x200;" horiz-adv-x="1406" 
d="M569 1931l234 -295l-60 -65l-272 256zM889 1931l233 -295l-61 -65l-275 256zM12 0l719 1481h201l315 -1481h-180l-84 412h-590l-200 -412h-181zM461 578h495l-147 722z" />
    <glyph glyph-name="uni0201" unicode="&#x201;" horiz-adv-x="1124" 
d="M367 1507l233 -295l-61 -65l-273 256zM686 1507l232 -295l-62 -65l-272 256zM367 -20q-153 0 -234 81t-61 224q23 173 150.5 254t395.5 96l187 14l10 76q12 104 -41.5 164.5t-159.5 60.5q-179 0 -303 -172l-139 35q73 122 193.5 193t273.5 71q194 0 281 -90t65 -250
l-98 -737h-152l10 164q-153 -184 -378 -184zM436 111q106 0 210 73t116 162l26 195l-155 -13q-193 -14 -281.5 -61.5t-105.5 -165.5q-13 -89 40 -139.5t150 -50.5z" />
    <glyph glyph-name="uni0202" unicode="&#x202;" horiz-adv-x="1406" 
d="M555 1686q39 93 123 156t199 63q117 0 190.5 -60.5t85.5 -158.5h-125q-15 25 -23.5 37t-27.5 31.5t-43.5 28.5t-56.5 9q-114 0 -185 -106h-137zM12 0l719 1481h201l315 -1481h-180l-84 412h-590l-200 -412h-181zM461 578h495l-147 722z" />
    <glyph glyph-name="uni0203" unicode="&#x203;" horiz-adv-x="1130" 
d="M358 1262q39 93 123 156t199 63q117 0 190.5 -60.5t85.5 -158.5h-125q-13 23 -22 36.5t-27.5 32.5t-43.5 28t-58 9q-60 0 -106.5 -30t-75.5 -76h-140zM367 -20q-153 0 -234 81t-61 224q23 173 150.5 254t395.5 96l187 14l10 76q12 104 -41.5 164.5t-159.5 60.5
q-179 0 -303 -172l-139 35q73 122 193.5 193t273.5 71q194 0 281 -90t65 -250l-98 -737h-152l10 164q-153 -184 -378 -184zM436 111q106 0 210 73t116 162l26 195l-155 -13q-193 -14 -281.5 -61.5t-105.5 -165.5q-13 -89 40 -139.5t150 -50.5z" />
    <glyph glyph-name="uni0204" unicode="&#x204;" horiz-adv-x="1255" 
d="M524 1931l234 -295l-60 -65l-272 256zM844 1931l233 -295l-61 -65l-275 256zM129 0l201 1481h897l-23 -162h-719l-65 -494h645l-21 -157h-647l-67 -504l737 -2l-20 -162h-918z" />
    <glyph glyph-name="uni0205" unicode="&#x205;" horiz-adv-x="1136" 
d="M379 1507l233 -295l-61 -65l-272 256zM698 1507l232 -295l-60 -65l-274 256zM276 477q-23 -159 44 -261.5t215 -102.5q183 0 284 163l142 -40q-72 -126 -187.5 -191t-255.5 -65q-218 0 -334.5 144.5t-83.5 393.5q36 254 182.5 406.5t364.5 152.5q213 0 313 -142t66 -386
l-12 -72h-738zM295 612h567q21 152 -38 245t-195 93q-73 0 -134 -28.5t-101 -77t-65 -107.5t-34 -125z" />
    <glyph glyph-name="uni0206" unicode="&#x206;" horiz-adv-x="1255" 
d="M510 1686q39 93 122.5 156t198.5 63q117 0 191 -60.5t86 -158.5h-125q-15 24 -23.5 36.5t-27.5 32t-44 28.5t-57 9q-113 0 -184 -106h-137zM129 0l201 1481h897l-23 -162h-719l-65 -494h645l-21 -157h-647l-67 -504l737 -2l-20 -162h-918z" />
    <glyph glyph-name="uni0207" unicode="&#x207;" horiz-adv-x="1136" 
d="M371 1262q39 93 123 156t198 63q118 0 191.5 -60.5t85.5 -158.5h-125q-13 23 -22.5 36.5t-27.5 32.5t-43.5 28t-58.5 9q-60 0 -106.5 -30t-75.5 -76h-139zM276 477q-23 -159 44 -261.5t215 -102.5q183 0 284 163l142 -40q-72 -126 -187.5 -191t-255.5 -65
q-218 0 -334.5 144.5t-83.5 393.5q36 254 182.5 406.5t364.5 152.5q213 0 313 -142t66 -386l-12 -72h-738zM295 612h567q21 152 -38 245t-195 93q-73 0 -134 -28.5t-101 -77t-65 -107.5t-34 -125z" />
    <glyph glyph-name="uni0208" unicode="&#x208;" horiz-adv-x="579" 
d="M156 1931l233 -295l-59 -65l-275 256zM475 1931l234 -295l-62 -65l-274 256zM332 1481h176l-199 -1481h-176z" />
    <glyph glyph-name="uni0209" unicode="&#x209;" horiz-adv-x="491" 
d="M47 1507l234 -295l-60 -65l-272 256zM367 1507l233 -295l-61 -65l-273 256zM403 1057l-145 -1057h-178l145 1057h178z" />
    <glyph glyph-name="uni020A" unicode="&#x20a;" horiz-adv-x="581" 
d="M141 1686q39 93 123.5 156t200.5 63q117 0 190.5 -60.5t85.5 -158.5h-125q-15 25 -23.5 37t-27.5 31.5t-43.5 28.5t-56.5 9q-113 0 -184 -106h-140zM334 1481h176l-199 -1481h-178z" />
    <glyph glyph-name="uni020B" unicode="&#x20b;" horiz-adv-x="499" 
d="M68 1262q39 93 123 156t200 63q117 0 191 -60.5t86 -158.5h-125q-15 24 -23.5 36.5t-27.5 32t-44 28.5t-57 9q-117 0 -184 -106h-139zM432 1057l-145 -1057h-178l145 1057h178z" />
    <glyph glyph-name="uni020C" unicode="&#x20c;" horiz-adv-x="1488" 
d="M590 1931l233 -295l-59 -65l-275 256zM909 1931l234 -295l-62 -65l-274 256zM670 -20q-289 0 -425 197.5t-89 557.5q51 362 243.5 564t479.5 202q285 0 423 -201.5t89 -562.5q-51 -360 -242 -558.5t-479 -198.5zM694 137q204 0 333 147.5t169 450.5q40 306 -48 457
t-290 151q-204 0 -335 -151t-173 -457q-39 -303 50.5 -450.5t293.5 -147.5z" />
    <glyph glyph-name="uni020D" unicode="&#x20d;" horiz-adv-x="1130" 
d="M379 1507l233 -295l-59 -65l-272 256zM698 1507l234 -295l-62 -65l-274 256zM489 -20q-217 0 -323 150t-72 392q32 248 183 401.5t366 153.5q216 0 321 -153t72 -400q-33 -242 -181.5 -393t-365.5 -151zM512 109q142 0 231.5 119t114.5 302q16 119 -2 211.5t-77.5 149.5
t-155.5 57q-97 0 -172 -57.5t-118 -150t-59 -210.5t2 -211t78 -151.5t158 -58.5z" />
    <glyph glyph-name="uni020E" unicode="&#x20e;" horiz-adv-x="1488" 
d="M582 1686q39 93 123 156t200 63q117 0 191 -60.5t86 -158.5h-125q-15 24 -23.5 36.5t-27.5 32t-44 28.5t-57 9q-117 0 -184 -106h-139zM670 -20q-289 0 -425 197.5t-89 557.5q51 362 243.5 564t479.5 202q285 0 423 -201.5t89 -562.5q-51 -360 -242 -558.5t-479 -198.5z
M694 137q204 0 333 147.5t169 450.5q40 306 -48 457t-290 151q-204 0 -335 -151t-173 -457q-39 -303 50.5 -450.5t293.5 -147.5z" />
    <glyph glyph-name="uni020F" unicode="&#x20f;" horiz-adv-x="1130" 
d="M373 1262q39 93 122.5 156t198.5 63q117 0 191 -60.5t86 -158.5h-125q-15 24 -23.5 36.5t-27.5 32t-44 28.5t-57 9q-113 0 -184 -106h-137zM489 -20q-217 0 -323 150t-72 392q32 248 183 401.5t366 153.5q216 0 321 -153t72 -400q-33 -242 -181.5 -393t-365.5 -151z
M512 109q142 0 231.5 119t114.5 302q16 119 -2 211.5t-77.5 149.5t-155.5 57q-97 0 -172 -57.5t-118 -150t-59 -210.5t2 -211t78 -151.5t158 -58.5z" />
    <glyph glyph-name="uni0210" unicode="&#x210;" horiz-adv-x="1355" 
d="M520 1931l234 -295l-60 -65l-274 256zM840 1931l233 -295l-61 -65l-275 256zM1145 0h-184l-179 643h-389l-86 -643h-178l201 1481h551q228 0 331 -105t78 -297q-41 -298 -334 -403zM729 795q165 0 262 68.5t117 203.5q17 130 -52.5 197t-211.5 67h-357l-71 -536h313z" />
    <glyph glyph-name="uni0211" unicode="&#x211;" horiz-adv-x="768" 
d="M221 1507l234 -295l-62 -65l-272 256zM541 1507l231 -295l-59 -65l-275 256zM78 0l143 1057h168l-29 -221q65 104 179.5 172.5t226.5 68.5l-23 -172q-100 6 -191.5 -33.5t-147 -102.5t-64.5 -130l-84 -639h-178z" />
    <glyph glyph-name="uni0212" unicode="&#x212;" horiz-adv-x="1355" 
d="M512 1686q39 93 123.5 156t200.5 63q117 0 190.5 -60.5t85.5 -158.5h-125q-15 25 -23.5 37t-27.5 31.5t-43.5 28.5t-56.5 9q-114 0 -185 -106h-139zM1145 0h-184l-179 643h-389l-86 -643h-178l201 1481h551q228 0 331 -105t78 -297q-41 -298 -334 -403zM729 795
q165 0 262 68.5t117 203.5q17 130 -52.5 197t-211.5 67h-357l-71 -536h313z" />
    <glyph glyph-name="uni0213" unicode="&#x213;" horiz-adv-x="811" 
d="M252 1262q39 93 122.5 156t198.5 63q117 0 191 -60.5t86 -158.5h-125q-17 30 -31 49t-46.5 38t-74.5 19q-113 0 -184 -106h-137zM117 0l143 1057h168l-31 -221q65 103 180.5 172t227.5 69l-23 -172q-150 9 -269.5 -76t-135.5 -190l-84 -639h-176z" />
    <glyph glyph-name="uni0214" unicode="&#x214;" horiz-adv-x="1429" 
d="M573 1931l234 -295l-59 -65l-273 256zM893 1931l233 -295l-61 -65l-274 256zM1239 506q-36 -260 -180 -393t-412 -133q-272 0 -377 136.5t-69 411.5l129 953h184l-133 -983q-26 -179 48.5 -270t238.5 -91q166 0 266.5 90t126.5 271l131 983h178z" />
    <glyph glyph-name="uni0215" unicode="&#x215;" horiz-adv-x="1157" 
d="M369 1507l233 -295l-61 -65l-273 256zM688 1507l232 -295l-60 -65l-274 256zM408 -18q-145 2 -222.5 85t-58.5 222l104 770h177l-101 -735q-14 -99 28.5 -153t143.5 -54q84 0 152 36.5t166 122.5l106 783h178l-145 -1057h-139l4 166q-111 -97 -204 -142t-189 -44z" />
    <glyph glyph-name="uni0216" unicode="&#x216;" horiz-adv-x="1429" 
d="M565 1686q39 93 123 156t199 63q117 0 190.5 -60.5t85.5 -158.5h-125q-13 23 -22 36.5t-27.5 32.5t-43.5 28t-58 9q-60 0 -106.5 -30t-75.5 -76h-140zM1239 506q-36 -260 -180 -393t-412 -133q-272 0 -377 136.5t-69 411.5l129 953h184l-133 -983q-26 -179 48.5 -270
t238.5 -91q166 0 266.5 90t126.5 271l131 983h178z" />
    <glyph glyph-name="uni0217" unicode="&#x217;" horiz-adv-x="1157" 
d="M356 1262q39 93 123 156t199 63q117 0 190.5 -60.5t85.5 -158.5h-125q-15 25 -23.5 37t-27.5 31.5t-43.5 28.5t-56.5 9q-113 0 -184 -106h-138zM410 -18q-147 2 -223.5 85t-57.5 222l104 770h177l-101 -735q-14 -99 28.5 -153t141.5 -54q85 0 153.5 36.5t166.5 122.5
l106 783h178l-147 -1057h-139l6 166q-111 -97 -204 -142t-189 -44z" />
    <glyph glyph-name="uni0218" unicode="&#x218;" horiz-adv-x="1320" 
d="M590 -20q-182 0 -311.5 71.5t-192.5 208.5l147 94q46 -77 89 -119.5t111.5 -67t168.5 -24.5q340 0 371 232q10 78 -26.5 135.5t-149.5 103.5l-285 105q-285 107 -252 366q25 187 176 301.5t373 114.5q152 0 265.5 -58.5t180.5 -168.5l-143 -98q-53 79 -129 123t-195 44
q-141 0 -231.5 -63t-105.5 -174q-19 -158 174 -229l272 -95q161 -59 224 -154t44 -233q-26 -195 -179.5 -305t-395.5 -110zM438 -477l105 155h-74l27 179h153l-22 -187l-117 -147h-72z" />
    <glyph glyph-name="uni0219" unicode="&#x219;" horiz-adv-x="1071" 
d="M463 -20q-156 0 -266.5 67.5t-145.5 175.5l129 68q35 -80 113 -128t188 -48q93 0 181 48t98 111q8 56 -31.5 95.5t-136.5 68.5l-176 54q-138 39 -196 104.5t-46 161.5q19 142 143 230.5t304 88.5q137 0 231 -55.5t137 -151.5l-127 -65q-31 65 -100 102t-166 37
t-173 -47.5t-85 -114.5q-6 -45 26.5 -78.5t129.5 -66.5l219 -72q237 -69 215 -272q-20 -140 -151 -226.5t-314 -86.5zM262 -483l107 155h-74l24 178h156l-24 -186l-117 -147h-72z" />
    <glyph glyph-name="uni021A" unicode="&#x21a;" horiz-adv-x="1140" 
d="M141 1313l25 168h1077l-22 -168h-437l-178 -1313h-176l176 1313h-465zM377 -477l106 155h-75l26 179h154l-23 -187l-116 -147h-72z" />
    <glyph glyph-name="uni021B" unicode="&#x21b;" horiz-adv-x="835" 
d="M770 926h-244l-88 -660q-10 -81 10 -110t70 -29h152l-17 -115q-49 -18 -161 -18q-151 0 -201.5 63t-32.5 197l92 672h-192l18 131h195l69 350h152l-47 -350h243zM307 -477l107 155h-74l25 179h155l-24 -187l-117 -147h-72z" />
    <glyph glyph-name="uni0237" unicode="&#x237;" horiz-adv-x="495" 
d="M246 -57q-22 -151 -90.5 -217t-218.5 -66q-50 0 -83 6t-41 12l-8 7l17 118l104 7q70 4 102.5 41.5t43.5 113.5l147 1092h180z" />
    <glyph glyph-name="uni0259" unicode="&#x259;" horiz-adv-x="1136" 
d="M860 582q23 159 -43.5 261.5t-214.5 102.5q-184 0 -285 -164l-141 41q72 126 187 191t255 65q218 0 334.5 -144.5t83.5 -393.5q-36 -254 -182.5 -406.5t-364.5 -152.5q-212 0 -312 142t-66 386l12 72h737zM842 449h-568q-21 -152 38.5 -246t195.5 -94q73 0 134 28.5
t101 77.5t65 108t34 126z" />
    <glyph glyph-name="uni02BC" unicode="&#x2bc;" horiz-adv-x="313" 
d="M127 932l111 274l-54 6l37 269h148l-35 -264l-117 -285h-90z" />
    <glyph glyph-name="circumflex" unicode="&#x2c6;" horiz-adv-x="647" 
d="M571 1253l-118 140l-170 -140h-170l276 234h127l213 -234h-158z" />
    <glyph glyph-name="caron" unicode="&#x2c7;" horiz-adv-x="647" 
d="M580 1481h180l-273 -234h-127l-219 234h148l131 -135z" />
    <glyph glyph-name="breve" unicode="&#x2d8;" horiz-adv-x="655" 
d="M758 1479q-40 -91 -128 -155t-204 -64q-118 0 -189 59.5t-79 159.5h123q1 -2 9 -14l11 -16.5t11 -15.5t13.5 -16t15.5 -13.5t19 -13t20.5 -9.5t25 -7t28.5 -2q101 0 187 107h137z" />
    <glyph glyph-name="dotaccent" unicode="&#x2d9;" horiz-adv-x="251" 
d="M350 1481l-31 -240h-192l33 240h190z" />
    <glyph glyph-name="ring" unicode="&#x2da;" horiz-adv-x="464" 
d="M553 1376q-13 -88 -76.5 -144t-148.5 -56q-88 0 -139.5 64t-38.5 159q9 81 73.5 136.5t145.5 55.5q89 0 142 -62.5t42 -152.5zM455 1393q6 45 -18.5 72.5t-67.5 27.5q-45 0 -84 -34.5t-45 -84.5q-5 -41 20.5 -71.5t65.5 -30.5q47 0 85 36.5t44 84.5z" />
    <glyph glyph-name="ogonek" unicode="&#x2db;" horiz-adv-x="440" 
d="M-70 -168q8 62 58 107t168 81l129 -16q-107 -44 -156 -84.5t-55 -93.5q-5 -34 14 -52t64 -18q17 0 34 2.5t29.5 5.5t28.5 8.5t23 8.5t21.5 10t16.5 8l-16 -108q-91 -31 -178 -31q-98 0 -145 46.5t-36 125.5z" />
    <glyph glyph-name="tilde" unicode="&#x2dc;" horiz-adv-x="686" 
d="M754 1348q-81 -48 -172 -48q-56 0 -128 27t-112 27q-32 0 -56.5 -9.5t-50 -26t-40.5 -22.5l-27 113q88 59 164 59q53 0 132.5 -27.5t119.5 -27.5q30 0 55.5 9t52.5 24.5t43 21.5z" />
    <glyph glyph-name="hungarumlaut" unicode="&#x2dd;" horiz-adv-x="792" 
d="M453 1505l82 -119l-326 -241l-57 80zM772 1505l82 -119l-324 -241l-59 80z" />
    <glyph glyph-name="gravecomb" unicode="&#x300;" 
d="M-379 1503l459 -209l-45 -84l-475 154z" />
    <glyph glyph-name="acutecomb" unicode="&#x301;" 
d="M63 1507l29 -143l-512 -156l-22 95z" />
    <glyph glyph-name="uni0302" unicode="&#x302;" 
d="M-76 1253l-119 140l-170 -140h-170l277 234h127l213 -234h-158z" />
    <glyph glyph-name="tildecomb" unicode="&#x303;" 
d="M68 1348q-81 -48 -172 -48q-56 0 -128 27t-112 27q-32 0 -57 -9.5t-51 -26t-40 -22.5l-26 113q88 59 164 59q53 0 132.5 -27.5t119.5 -27.5q30 0 55.5 9t52.5 24.5t43 21.5z" />
    <glyph glyph-name="uni0304" unicode="&#x304;" 
d="M96 1452l-18 -129h-586l16 129h588z" />
    <glyph glyph-name="uni0306" unicode="&#x306;" 
d="M102 1479q-40 -91 -128 -155t-203 -64q-118 0 -189.5 59.5t-79.5 159.5h123q1 -2 8 -12.5t9.5 -14.5t10 -14t12 -14.5l13 -13t15.5 -13t17 -10t20 -8.5t23 -5t26 -2q100 0 186 107h137z" />
    <glyph glyph-name="uni0307" unicode="&#x307;" 
d="M98 1481l-30 -240h-193l33 240h190z" />
    <glyph glyph-name="uni0308" unicode="&#x308;" 
d="M-195 1481l-30 -224h-172l30 224h172zM98 1481l-28 -224h-172l30 224h170z" />
    <glyph glyph-name="hookabovecomb" unicode="&#x309;" 
d="M-627 1487l31 -92q66 47 115 47q32 0 49.5 -13t13.5 -45q-3 -19 -20.5 -41t-35 -37.5t-61.5 -52.5l48 -73q7 6 29 26.5t29.5 27.5t25 24.5t24.5 26t19.5 24.5t17.5 27t10.5 26t7.5 29q10 68 -29 108.5t-112 40.5q-71 0 -162 -53z" />
    <glyph glyph-name="uni030A" unicode="&#x30a;" 
d="M88 1376q-13 -88 -76.5 -144t-148.5 -56q-88 0 -139.5 64t-38.5 159q9 81 73.5 136.5t145.5 55.5q89 0 142 -62.5t42 -152.5zM-10 1393q6 45 -18.5 72.5t-67.5 27.5q-45 0 -84 -34.5t-45 -84.5q-5 -41 20.5 -71.5t65.5 -30.5q47 0 85 36.5t44 84.5z" />
    <glyph glyph-name="uni030B" unicode="&#x30b;" 
d="M-340 1505l82 -119l-326 -241l-57 80zM-20 1505l81 -119l-323 -241l-60 80z" />
    <glyph glyph-name="uni030C" unicode="&#x30c;" 
d="M-68 1481h181l-273 -234h-127l-219 234h148l131 -135z" />
    <glyph glyph-name="uni030F" unicode="&#x30f;" 
d="M-510 1507l234 -295l-60 -65l-272 256zM-190 1507l233 -295l-61 -65l-275 256z" />
    <glyph glyph-name="uni0311" unicode="&#x311;" 
d="M-487 1262q39 93 122.5 156t198.5 63q117 0 191 -60.5t86 -158.5h-125q-15 24 -23.5 36.5t-27.5 32t-44 28.5t-57 9q-113 0 -184 -106h-137z" />
    <glyph glyph-name="uni031B" unicode="&#x31b;" 
d="M-285 1178q-32 -100 -111.5 -166t-195.5 -66l8 111q110 0 162 121h137z" />
    <glyph glyph-name="dotbelowcomb" unicode="&#x323;" 
d="M-125 -109l-29 -221h-163l34 221h158z" />
    <glyph glyph-name="uni0326" unicode="&#x326;" 
d="M-342 -477l106 155h-75l26 179h156l-25 -187l-116 -147h-72z" />
    <glyph glyph-name="uni0327" unicode="&#x327;" 
d="M-145 -272q-10 -69 -74.5 -108.5t-153.5 -39.5q-114 0 -184 64l35 57q55 -41 125 -41q56 0 89.5 23t39.5 63q4 41 -29 59.5t-113 20.5q-25 0 -18 18l94 166h96l-61 -123q91 -6 126 -50.5t28 -108.5z" />
    <glyph glyph-name="uni0328" unicode="&#x328;" 
d="M-510 -168q8 62 57.5 107t167.5 81l129 -16q-107 -44 -156 -84.5t-55 -93.5q-5 -34 14 -52t64 -18q17 0 34.5 2.5t29 5t28.5 9t23 9t22 10t17 7.5l-17 -108q-91 -31 -178 -31q-98 0 -144.5 46t-35.5 126z" />
    <glyph glyph-name="pi" unicode="&#x3c0;" horiz-adv-x="1306" 
d="M1300 926h-227l-125 -926h-172l123 926h-424q-37 -253 -102.5 -515t-130.5 -411h-172q71 180 137.5 429t99.5 486q2 5 -1 8t-11 3h-184l18 131h1188z" />
    <glyph glyph-name="uni1E0C" unicode="&#x1e0c;" horiz-adv-x="1413" 
d="M330 1481q206 0 325 -2q387 -6 540 -187.5t105 -543.5q-100 -748 -864 -748h-307zM492 1323l-158 -1167h123q139 0 247.5 31.5t194 100t140 182.5t75.5 273q22 162 -0.5 275t-88.5 179.5t-163.5 96t-236.5 29.5h-133zM614 -109l-26 -221h-164l33 221h157z" />
    <glyph glyph-name="uni1E0D" unicode="&#x1e0d;" horiz-adv-x="1153" 
d="M451 -20q-198 0 -291.5 139.5t-57.5 396.5q33 257 166 409t336 152q176 0 279 -145l80 588h178l-205 -1520h-137l4 164q-22 -28 -49 -54t-71.5 -58.5t-105 -52t-126.5 -19.5zM510 113q111 0 198 83t103 191l51 379q-71 178 -233 178q-135 0 -227 -107t-119 -313
q-28 -209 35 -310t192 -101zM573 -109l-26 -221h-164l33 221h157z" />
    <glyph glyph-name="uni1E24" unicode="&#x1e24;" horiz-adv-x="1427" 
d="M1071 686h-672l-92 -686h-178l201 1481h176l-84 -635h674l84 635h178l-201 -1481h-178zM705 -109l-29 -221h-164l35 221h158z" />
    <glyph glyph-name="uni1E25" unicode="&#x1e25;" horiz-adv-x="1161" 
d="M92 0l207 1520h170l-86 -637q112 102 204.5 148t192.5 46q150 0 219 -81.5t48 -223.5l-105 -772h-176l98 735q14 97 -27 150t-139 53q-79 0 -147.5 -35.5t-177.5 -122.5l-103 -780h-178zM602 -109l-27 -221h-163l32 221h158z" />
    <glyph glyph-name="uni1E44" unicode="&#x1e44;" horiz-adv-x="1507" 
d="M1057 1905l-33 -240h-190l32 240h191zM1260 1481h178l-201 -1481h-158l-612 1180l-160 -1180h-178l201 1481h168l606 -1166z" />
    <glyph glyph-name="uni1E45" unicode="&#x1e45;" horiz-adv-x="1159" 
d="M831 1481l-30 -240h-193l35 240h188zM90 0l143 1057h170l-22 -172q113 101 202.5 146.5t192.5 45.5q147 0 218 -82.5t50 -220.5l-104 -774h-176l98 735q14 96 -30.5 149.5t-141.5 53.5q-80 0 -152 -37.5t-167 -120.5l-105 -780h-176z" />
    <glyph glyph-name="uni1E5A" unicode="&#x1e5a;" horiz-adv-x="1355" 
d="M1145 0h-184l-179 643h-389l-86 -643h-178l201 1481h551q228 0 331 -105t78 -297q-41 -298 -334 -403zM729 795q165 0 262 68.5t117 203.5q17 130 -52.5 197t-211.5 67h-357l-71 -536h313zM670 -109l-29 -221h-162l33 221h158z" />
    <glyph glyph-name="uni1E5B" unicode="&#x1e5b;" horiz-adv-x="765" 
d="M84 0l143 1057h168l-30 -221q67 104 181.5 172.5t225.5 68.5l-22 -172q-150 9 -270 -76t-136 -190l-82 -639h-178zM250 -109l-29 -221h-162l33 221h158z" />
    <glyph glyph-name="uni1E62" unicode="&#x1e62;" horiz-adv-x="1320" 
d="M590 -20q-182 0 -311.5 71.5t-192.5 208.5l147 94q46 -77 89 -119.5t111.5 -67t168.5 -24.5q340 0 371 232q10 78 -26.5 135.5t-149.5 103.5l-285 105q-285 107 -252 366q25 187 176 301.5t373 114.5q152 0 265.5 -58.5t180.5 -168.5l-143 -98q-53 79 -129 123t-195 44
q-141 0 -231.5 -63t-105.5 -174q-19 -158 174 -229l272 -95q161 -59 224 -154t44 -233q-26 -195 -179.5 -305t-395.5 -110zM651 -109l-26 -221h-164l33 221h157z" />
    <glyph glyph-name="uni1E63" unicode="&#x1e63;" horiz-adv-x="1071" 
d="M463 -20q-156 0 -266.5 67.5t-145.5 175.5l129 68q35 -80 113 -128t188 -48q93 0 181 48t98 111q8 56 -31.5 95.5t-136.5 68.5l-176 54q-138 39 -196 104.5t-46 161.5q19 142 143 230.5t304 88.5q137 0 231 -55.5t137 -151.5l-127 -65q-31 65 -100 102t-166 37
t-173 -47.5t-85 -114.5q-6 -45 26.5 -78.5t129.5 -66.5l219 -72q237 -69 215 -272q-20 -140 -151 -226.5t-314 -86.5zM479 -115l-28 -221h-164l35 221h157z" />
    <glyph glyph-name="uni1E6C" unicode="&#x1e6c;" horiz-adv-x="1140" 
d="M141 1313l25 168h1077l-22 -168h-437l-178 -1313h-176l176 1313h-465zM590 -109l-27 -221h-164l33 221h158z" />
    <glyph glyph-name="uni1E6D" unicode="&#x1e6d;" horiz-adv-x="835" 
d="M770 926h-244l-88 -660q-10 -81 10 -110t70 -29h152l-17 -115q-49 -18 -161 -18q-151 0 -201.5 63t-32.5 197l92 672h-192l18 131h195l69 350h152l-47 -350h243zM522 -109l-28 -221h-164l35 221h157z" />
    <glyph glyph-name="Wgrave" unicode="&#x1e80;" horiz-adv-x="1892" 
d="M903 1927l459 -209l-47 -84l-473 154zM1974 1481l-616 -1481h-166l-160 1163l-475 -1163h-162l-211 1481h178l160 -1198l486 1198h139l162 -1198l487 1198h178z" />
    <glyph glyph-name="wgrave" unicode="&#x1e81;" horiz-adv-x="1581" 
d="M686 1503l459 -209l-45 -84l-475 154zM1585 1057l-459 -1057h-161l-136 795l-337 -795h-166l-183 1057h172l134 -826l352 826h137l139 -824l346 824h162z" />
    <glyph glyph-name="Wacute" unicode="&#x1e82;" horiz-adv-x="1892" 
d="M1360 1931l29 -143l-510 -156l-23 94zM1974 1481l-616 -1481h-166l-160 1163l-475 -1163h-162l-211 1481h178l160 -1198l486 1198h139l162 -1198l487 1198h178z" />
    <glyph glyph-name="wacute" unicode="&#x1e83;" horiz-adv-x="1581" 
d="M1143 1507l28 -143l-509 -156l-23 95zM1585 1057l-459 -1057h-161l-136 795l-337 -795h-166l-183 1057h172l134 -826l352 826h137l139 -824l346 824h162z" />
    <glyph glyph-name="Wdieresis" unicode="&#x1e84;" horiz-adv-x="1892" 
d="M1081 1905l-30 -224h-172l30 224h172zM1374 1905l-28 -224h-172l30 224h170zM1974 1481l-616 -1481h-166l-160 1163l-475 -1163h-162l-211 1481h178l160 -1198l486 1198h139l162 -1198l487 1198h178z" />
    <glyph glyph-name="wdieresis" unicode="&#x1e85;" horiz-adv-x="1581" 
d="M864 1481l-30 -224h-172l30 224h172zM1157 1481l-29 -224h-172l31 224h170zM1585 1057l-459 -1057h-161l-136 795l-337 -795h-166l-183 1057h172l134 -826l352 826h137l139 -824l346 824h162z" />
    <glyph glyph-name="uni1E92" unicode="&#x1e92;" horiz-adv-x="1245" 
d="M35 0l12 100l950 1223h-751l20 158h1002l-13 -97l-960 -1226h790l-20 -158h-1030zM633 -109l-29 -221h-164l35 221h158z" />
    <glyph glyph-name="uni1E93" unicode="&#x1e93;" horiz-adv-x="952" 
d="M12 0l17 113l700 821h-549l19 123h759l-16 -115l-698 -817h598l-15 -125h-815zM489 -109l-26 -221h-164l33 221h157z" />
    <glyph glyph-name="uni1EA0" unicode="&#x1ea0;" horiz-adv-x="1318" 
d="M12 0l719 1481h201l315 -1481h-180l-84 412h-590l-200 -412h-181zM461 578h495l-147 722zM709 -109l-29 -221h-162l33 221h158z" />
    <glyph glyph-name="uni1EA1" unicode="&#x1ea1;" horiz-adv-x="1069" 
d="M354 -20q-152 0 -232.5 81t-60.5 224q23 174 150.5 254.5t394.5 95.5l187 14l10 76q13 104 -41 164.5t-160 60.5q-176 0 -303 -172l-137 35q72 121 193 192.5t274 71.5q192 0 279.5 -90t66.5 -250l-101 -737h-149l8 164q-153 -184 -379 -184zM424 111q108 0 212 73
t116 162l24 195l-153 -13q-194 -14 -283.5 -62t-103.5 -165q-13 -89 39 -139.5t149 -50.5zM492 -109l-27 -221h-164l33 221h158z" />
    <glyph glyph-name="uni1EA2" unicode="&#x1ea2;" horiz-adv-x="1406" 
d="M715 1911l30 -92q66 47 115 47q33 0 50.5 -13.5t13.5 -44.5q-3 -19 -20.5 -41t-35 -37.5t-61.5 -52.5l47 -73q6 6 32.5 30t34 31.5l27.5 27.5t27.5 30.5t19 27.5t16.5 32.5t7 31.5q10 68 -29 108.5t-112 40.5q-71 0 -162 -53zM12 0l719 1481h201l315 -1481h-180l-84 412
h-590l-200 -412h-181zM461 578h495l-147 722z" />
    <glyph glyph-name="uni1EA3" unicode="&#x1ea3;" horiz-adv-x="1132" 
d="M506 1487l31 -92q66 47 112 47q34 0 52 -13t14 -45q-6 -27 -32 -54t-87 -77l49 -73q6 6 32.5 30t34 31.5l27.5 27.5t27.5 30.5t19 27.5t16.5 32.5t7 31.5q10 68 -29 108.5t-112 40.5q-71 0 -162 -53zM367 -20q-153 0 -234 81t-61 224q23 173 150.5 254t395.5 96l187 14
l10 76q12 104 -41.5 164.5t-159.5 60.5q-179 0 -303 -172l-139 35q73 122 193.5 193t273.5 71q194 0 281 -90t65 -250l-98 -737h-152l10 164q-153 -184 -378 -184zM436 111q106 0 210 73t116 162l26 195l-155 -13q-193 -14 -281.5 -61.5t-105.5 -165.5q-13 -89 40 -139.5
t150 -50.5z" />
    <glyph glyph-name="uni1EA4" unicode="&#x1ea4;" horiz-adv-x="1406" 
d="M1157 2236l29 -143l-512 -154l-23 95zM1010 1677l-121 140l-168 -140h-170l276 234h125l215 -234h-157zM12 0l719 1481h201l315 -1481h-180l-84 412h-590l-200 -412h-181zM461 578h495l-147 722z" />
    <glyph glyph-name="uni1EA5" unicode="&#x1ea5;" horiz-adv-x="1132" 
d="M950 1812l29 -143l-510 -153l-23 94zM805 1253l-121 140l-170 -140h-170l279 234h125l213 -234h-156zM367 -20q-153 0 -234 81t-61 224q23 173 150.5 254t395.5 96l187 14l10 76q12 104 -41.5 164.5t-159.5 60.5q-179 0 -303 -172l-139 35q73 122 193.5 193t273.5 71
q194 0 281 -90t65 -250l-98 -737h-152l10 164q-153 -184 -378 -184zM436 111q106 0 210 73t116 162l26 195l-155 -13q-193 -14 -281.5 -61.5t-105.5 -165.5q-13 -89 40 -139.5t150 -50.5z" />
    <glyph glyph-name="uni1EA6" unicode="&#x1ea6;" horiz-adv-x="1406" 
d="M698 2232l457 -207l-45 -86l-473 156zM1010 1677l-121 140l-170 -140h-170l276 234h127l213 -234h-155zM12 0l719 1481h201l315 -1481h-180l-84 412h-590l-200 -412h-181zM461 578h495l-147 722z" />
    <glyph glyph-name="uni1EA7" unicode="&#x1ea7;" horiz-adv-x="1132" 
d="M494 1808l458 -206l-47 -86l-473 155zM805 1253l-121 140l-170 -140h-170l279 234h125l213 -234h-156zM367 -20q-153 0 -234 81t-61 224q23 173 150.5 254t395.5 96l187 14l10 76q12 104 -41.5 164.5t-159.5 60.5q-179 0 -303 -172l-139 35q73 122 193.5 193t273.5 71
q194 0 281 -90t65 -250l-98 -737h-152l10 164q-153 -184 -378 -184zM436 111q106 0 210 73t116 162l26 195l-155 -13q-193 -14 -281.5 -61.5t-105.5 -165.5q-13 -89 40 -139.5t150 -50.5z" />
    <glyph glyph-name="uni1EA8" unicode="&#x1ea8;" horiz-adv-x="1406" 
d="M1044 2101l31 -90q68 45 113 45q35 0 52 -12t13 -43q-4 -27 -30.5 -55.5t-85.5 -75.5l47 -76q10 10 38 36t38.5 36t30.5 32t28.5 36t17.5 34t11 39q10 67 -29.5 107t-112.5 40q-77 0 -162 -53zM1010 1677l-121 140l-170 -140h-170l278 234h125l213 -234h-155zM12 0
l719 1481h201l315 -1481h-180l-84 412h-590l-200 -412h-181zM461 578h495l-147 722z" />
    <glyph glyph-name="uni1EA9" unicode="&#x1ea9;" horiz-adv-x="1132" 
d="M844 1677l30 -90q68 45 113 45q35 0 52.5 -12t13.5 -43q-6 -27 -33.5 -56t-85.5 -75l49 -76q10 10 38 36t38.5 36t30.5 32t28.5 36t17.5 34t11 39q10 67 -29 107.5t-112 40.5q-75 0 -162 -54zM805 1253l-121 140l-170 -140h-170l279 234h125l213 -234h-156zM367 -20
q-153 0 -234 81t-61 224q23 173 150.5 254t395.5 96l187 14l10 76q12 104 -41.5 164.5t-159.5 60.5q-179 0 -303 -172l-139 35q73 122 193.5 193t273.5 71q194 0 281 -90t65 -250l-98 -737h-152l10 164q-153 -184 -378 -184zM436 111q106 0 210 73t116 162l26 195l-155 -13
q-193 -14 -281.5 -61.5t-105.5 -165.5q-13 -89 40 -139.5t150 -50.5z" />
    <glyph glyph-name="uni1EAA" unicode="&#x1eaa;" horiz-adv-x="1406" 
d="M1221 2079q-80 -47 -172 -47q-55 0 -127 26.5t-113 26.5q-32 0 -56.5 -9t-50.5 -25.5t-40 -22.5l-27 110q84 60 166 60q52 0 131.5 -27t118.5 -27q40 0 92.5 26t58.5 28zM1010 1677l-121 140l-170 -140h-170l278 234h125l213 -234h-155zM12 0l719 1481h201l315 -1481
h-180l-84 412h-590l-200 -412h-181zM461 578h495l-147 722z" />
    <glyph glyph-name="uni1EAB" unicode="&#x1eab;" horiz-adv-x="1132" 
d="M1016 1655q-80 -47 -172 -47q-55 0 -127 26.5t-113 26.5q-32 0 -56.5 -9t-50.5 -25.5t-40 -22.5l-27 110q84 60 166 60q52 0 131.5 -27t118.5 -27q40 0 92.5 26t58.5 28zM805 1253l-121 140l-170 -140h-170l279 234h125l213 -234h-156zM367 -20q-153 0 -234 81t-61 224
q23 173 150.5 254t395.5 96l187 14l10 76q12 104 -41.5 164.5t-159.5 60.5q-179 0 -303 -172l-139 35q73 122 193.5 193t273.5 71q194 0 281 -90t65 -250l-98 -737h-152l10 164q-153 -184 -378 -184zM436 111q106 0 210 73t116 162l26 195l-155 -13q-193 -14 -281.5 -61.5
t-105.5 -165.5q-13 -89 40 -139.5t150 -50.5z" />
    <glyph glyph-name="uni1EAC" unicode="&#x1eac;" horiz-adv-x="1318" 
d="M1010 1677l-121 140l-170 -140h-170l278 234h125l213 -234h-155zM12 0l719 1481h201l315 -1481h-180l-84 412h-590l-200 -412h-181zM461 578h495l-147 722zM709 -109l-29 -221h-162l33 221h158z" />
    <glyph glyph-name="uni1EAD" unicode="&#x1ead;" horiz-adv-x="1069" 
d="M805 1253l-121 140l-170 -140h-170l279 234h125l213 -234h-156zM367 -20q-153 0 -234 81t-61 224q23 173 150.5 254t395.5 96l187 14l10 76q12 104 -41.5 164.5t-159.5 60.5q-179 0 -303 -172l-139 35q73 122 193.5 193t273.5 71q194 0 281 -90t65 -250l-98 -737h-152
l10 164q-153 -184 -378 -184zM436 111q106 0 210 73t116 162l26 195l-155 -13q-193 -14 -281.5 -61.5t-105.5 -165.5q-13 -89 40 -139.5t150 -50.5zM492 -109l-27 -221h-164l33 221h158z" />
    <glyph glyph-name="uni1EAE" unicode="&#x1eae;" horiz-adv-x="1406" 
d="M1153 2269l29 -143l-510 -156l-23 94zM1192 1903q-40 -91 -128.5 -155.5t-203.5 -64.5q-118 0 -189 60t-79 160h123q1 -2 9 -14l11 -16.5t11 -15.5t13.5 -16t15.5 -13.5t19 -13t20.5 -9.5t25 -7t28.5 -2q103 0 185 107h139zM12 0l719 1481h201l315 -1481h-180l-84 412
h-590l-200 -412h-181zM461 578h495l-147 722z" />
    <glyph glyph-name="uni1EAF" unicode="&#x1eaf;" horiz-adv-x="1132" 
d="M948 1845l31 -143l-512 -156l-23 94zM987 1479q-42 -91 -130 -155t-202 -64q-118 0 -189 59.5t-79 159.5h123q1 -1 9.5 -14t10.5 -16.5t11 -15.5t14 -16t15 -13.5t19 -13.5t20.5 -9t24.5 -7t28 -2q104 0 186 107h139zM367 -20q-153 0 -234 81t-61 224q23 173 150.5 254
t395.5 96l187 14l10 76q12 104 -41.5 164.5t-159.5 60.5q-179 0 -303 -172l-139 35q73 122 193.5 193t273.5 71q194 0 281 -90t65 -250l-98 -737h-152l10 164q-153 -184 -378 -184zM436 111q106 0 210 73t116 162l26 195l-155 -13q-193 -14 -281.5 -61.5t-105.5 -165.5
q-13 -89 40 -139.5t150 -50.5z" />
    <glyph glyph-name="uni1EB0" unicode="&#x1eb0;" horiz-adv-x="1406" 
d="M696 2265l457 -209l-45 -84l-475 154zM1192 1903q-40 -91 -128.5 -155.5t-203.5 -64.5q-118 0 -189 60t-79 160h123q1 -2 9 -14l11 -16.5t11 -15.5t13.5 -16t15.5 -13.5t19 -13t20.5 -9.5t25 -7t28.5 -2q103 0 185 107h139zM12 0l719 1481h201l315 -1481h-180l-84 412
h-590l-200 -412h-181zM461 578h495l-147 722z" />
    <glyph glyph-name="uni1EB1" unicode="&#x1eb1;" horiz-adv-x="1132" 
d="M492 1841l458 -209l-45 -84l-475 154zM987 1479q-42 -91 -130 -155t-202 -64q-118 0 -189 59.5t-79 159.5h123q1 -1 9.5 -14t10.5 -16.5t11 -15.5t14 -16t15 -13.5t19 -13.5t20.5 -9t24.5 -7t28 -2q104 0 186 107h139zM367 -20q-153 0 -234 81t-61 224q23 173 150.5 254
t395.5 96l187 14l10 76q12 104 -41.5 164.5t-159.5 60.5q-179 0 -303 -172l-139 35q73 122 193.5 193t273.5 71q194 0 281 -90t65 -250l-98 -737h-152l10 164q-153 -184 -378 -184zM436 111q106 0 210 73t116 162l26 195l-155 -13q-193 -14 -281.5 -61.5t-105.5 -165.5
q-13 -89 40 -139.5t150 -50.5z" />
    <glyph glyph-name="uni1EB2" unicode="&#x1eb2;" horiz-adv-x="1406" 
d="M735 2204l31 -90q68 45 113 45q73 0 65 -58q-6 -26 -33 -54.5t-86 -76.5l49 -74q6 6 32.5 30t34 31.5l27.5 27.5t27.5 30.5t19 27.5t16.5 32.5t7 31.5q10 68 -30 109t-113 41q-75 0 -160 -53zM1192 1903q-40 -91 -128.5 -155.5t-203.5 -64.5q-118 0 -189 60t-79 160h123
q1 -2 9 -14l11 -16.5t11 -15.5t13.5 -16t15.5 -13.5t19 -13t20.5 -9.5t25 -7t28.5 -2q103 0 185 107h139zM12 0l719 1481h201l315 -1481h-180l-84 412h-590l-200 -412h-181zM461 578h495l-147 722z" />
    <glyph glyph-name="uni1EB3" unicode="&#x1eb3;" horiz-adv-x="1132" 
d="M543 1825l30 -90q68 45 115 45q72 0 64 -58q-3 -19 -20.5 -41t-35 -37.5t-61.5 -52.5l47 -73q91 82 115 111q43 51 49 100q10 68 -29 108.5t-112 40.5q-71 0 -162 -53zM987 1479q-42 -91 -130 -155t-202 -64q-118 0 -189 59.5t-79 159.5h123q1 -1 9.5 -14t10.5 -16.5
t11 -15.5t14 -16t15 -13.5t19 -13.5t20.5 -9t24.5 -7t28 -2q104 0 186 107h139zM367 -20q-153 0 -234 81t-61 224q23 173 150.5 254t395.5 96l187 14l10 76q12 104 -41.5 164.5t-159.5 60.5q-179 0 -303 -172l-139 35q73 122 193.5 193t273.5 71q194 0 281 -90t65 -250
l-98 -737h-152l10 164q-153 -184 -378 -184zM436 111q106 0 210 73t116 162l26 195l-155 -13q-193 -14 -281.5 -61.5t-105.5 -165.5q-13 -89 40 -139.5t150 -50.5z" />
    <glyph glyph-name="uni1EB4" unicode="&#x1eb4;" horiz-adv-x="1406" 
d="M1219 2109q-80 -47 -172 -47q-55 0 -127 27t-113 27q-32 0 -57 -9.5t-51 -26t-40 -22.5l-26 113q43 29 80.5 44t85.5 15q52 0 131.5 -27.5t118.5 -27.5q40 0 92 26.5t59 28.5zM1192 1903q-40 -91 -128.5 -155.5t-203.5 -64.5q-118 0 -189 60t-79 160h123q1 -2 9 -14
l11 -16.5t11 -15.5t13.5 -16t15.5 -13.5t19 -13t20.5 -9.5t25 -7t28.5 -2q103 0 185 107h139zM12 0l719 1481h201l315 -1481h-180l-84 412h-590l-200 -412h-181zM461 578h495l-147 722z" />
    <glyph glyph-name="uni1EB5" unicode="&#x1eb5;" horiz-adv-x="1132" 
d="M1014 1686q-77 -48 -170 -48q-56 0 -129 27t-113 27q-32 0 -56.5 -9.5t-50 -26t-38.5 -22.5l-29 113q43 29 80.5 44t85.5 15q52 0 131.5 -27.5t118.5 -27.5q40 0 92 26.5t59 28.5zM987 1479q-42 -91 -130 -155t-202 -64q-118 0 -189 59.5t-79 159.5h123q1 -1 9.5 -14
t10.5 -16.5t11 -15.5t14 -16t15 -13.5t19 -13.5t20.5 -9t24.5 -7t28 -2q104 0 186 107h139zM367 -20q-153 0 -234 81t-61 224q23 173 150.5 254t395.5 96l187 14l10 76q12 104 -41.5 164.5t-159.5 60.5q-179 0 -303 -172l-139 35q73 122 193.5 193t273.5 71q194 0 281 -90
t65 -250l-98 -737h-152l10 164q-153 -184 -378 -184zM436 111q106 0 210 73t116 162l26 195l-155 -13q-193 -14 -281.5 -61.5t-105.5 -165.5q-13 -89 40 -139.5t150 -50.5z" />
    <glyph glyph-name="uni1EB6" unicode="&#x1eb6;" horiz-adv-x="1318" 
d="M1192 1903q-40 -91 -129 -155.5t-203 -64.5q-118 0 -189 60t-79 160h123l10 -15q10 -16 12.5 -19.5t13 -17t16.5 -18t18.5 -14t23 -13t26 -7t31.5 -3.5q105 0 187 107h139zM12 0l719 1481h201l315 -1481h-180l-84 412h-590l-200 -412h-181zM461 578h495l-147 722z
M709 -109l-29 -221h-162l33 221h158z" />
    <glyph glyph-name="uni1EB7" unicode="&#x1eb7;" horiz-adv-x="1069" 
d="M987 1479q-42 -91 -130 -155t-202 -64q-118 0 -189 59.5t-79 159.5h123q1 -1 9.5 -14t10.5 -16.5t11 -15.5t14 -16t15 -13.5t19 -13.5t20.5 -9t24.5 -7t28 -2q104 0 186 107h139zM367 -20q-153 0 -234 81t-61 224q23 173 150.5 254t395.5 96l187 14l10 76
q12 104 -41.5 164.5t-159.5 60.5q-179 0 -303 -172l-139 35q73 122 193.5 193t273.5 71q194 0 281 -90t65 -250l-98 -737h-152l10 164q-153 -184 -378 -184zM436 111q106 0 210 73t116 162l26 195l-155 -13q-193 -14 -281.5 -61.5t-105.5 -165.5q-13 -89 40 -139.5
t150 -50.5zM492 -109l-27 -221h-164l33 221h158z" />
    <glyph glyph-name="uni1EB8" unicode="&#x1eb8;" horiz-adv-x="1255" 
d="M129 0l201 1481h897l-23 -162h-719l-65 -494h645l-21 -157h-647l-67 -504l737 -2l-20 -162h-918zM684 -109l-29 -221h-163l34 221h158z" />
    <glyph glyph-name="uni1EB9" unicode="&#x1eb9;" horiz-adv-x="1136" 
d="M276 477q-23 -159 44 -261.5t215 -102.5q183 0 284 163l142 -40q-72 -126 -187.5 -191t-255.5 -65q-218 0 -334.5 144.5t-83.5 393.5q36 254 182.5 406.5t364.5 152.5q213 0 313 -142t66 -386l-12 -72h-738zM295 612h567q21 152 -38 245t-195 93q-73 0 -134 -28.5
t-101 -77t-65 -107.5t-34 -125zM561 -109l-29 -221h-163l34 221h158z" />
    <glyph glyph-name="uni1EBA" unicode="&#x1eba;" horiz-adv-x="1255" 
d="M668 1911l30 -92q66 47 115 47q33 0 50.5 -13.5t13.5 -44.5q-3 -19 -20.5 -41t-35 -37.5t-61.5 -52.5l47 -73q6 6 32.5 30t34 31.5l27.5 27.5t27.5 30.5t19 27.5t16.5 32.5t7 31.5q10 68 -29.5 108.5t-112.5 40.5q-70 0 -161 -53zM129 0l201 1481h897l-23 -162h-719
l-65 -494h645l-21 -157h-647l-67 -504l737 -2l-20 -162h-918z" />
    <glyph glyph-name="uni1EBB" unicode="&#x1ebb;" horiz-adv-x="1142" 
d="M518 1487l31 -92q66 47 115 47q32 0 49.5 -13t13.5 -45q-3 -19 -20.5 -41t-35 -37.5t-61.5 -52.5l47 -73q6 6 32.5 30t34 31.5l27.5 27.5t27.5 30.5t19 27.5t16.5 32.5t7 31.5q10 68 -29 108.5t-112 40.5q-71 0 -162 -53zM276 477q-23 -159 44 -261.5t215 -102.5
q183 0 284 163l142 -40q-72 -126 -187.5 -191t-255.5 -65q-218 0 -334.5 144.5t-83.5 393.5q36 254 182.5 406.5t364.5 152.5q213 0 313 -142t66 -386l-12 -72h-738zM295 612h567q21 152 -38 245t-195 93q-73 0 -134 -28.5t-101 -77t-65 -107.5t-34 -125z" />
    <glyph glyph-name="uni1EBC" unicode="&#x1ebc;" horiz-adv-x="1255" 
d="M1137 1772q-81 -48 -172 -48q-55 0 -127 27t-113 27q-32 0 -56.5 -9.5t-50 -26t-40.5 -22.5l-27 113q88 59 164 59q53 0 132.5 -27.5t119.5 -27.5q30 0 55.5 9t52.5 24.5t43 21.5zM129 0l201 1481h897l-23 -162h-719l-65 -494h645l-21 -157h-647l-67 -504l737 -2
l-20 -162h-918z" />
    <glyph glyph-name="uni1EBD" unicode="&#x1ebd;" horiz-adv-x="1136" 
d="M989 1348q-77 -48 -170 -48q-57 0 -129 27t-112 27q-32 0 -57 -9.5t-50.5 -26t-38.5 -22.5l-29 113q43 29 80.5 44t85.5 15q52 0 131.5 -27.5t118.5 -27.5q30 0 56 9t53 24.5t43 21.5zM276 477q-23 -159 44 -261.5t215 -102.5q183 0 284 163l142 -40
q-72 -126 -187.5 -191t-255.5 -65q-218 0 -334.5 144.5t-83.5 393.5q36 254 182.5 406.5t364.5 152.5q213 0 313 -142t66 -386l-12 -72h-738zM295 612h567q21 152 -38 245t-195 93q-73 0 -134 -28.5t-101 -77t-65 -107.5t-34 -125z" />
    <glyph glyph-name="uni1EBE" unicode="&#x1ebe;" horiz-adv-x="1255" 
d="M1110 2236l29 -143l-512 -154l-23 95zM963 1677l-121 140l-168 -140h-170l276 234h125l215 -234h-157zM129 0l201 1481h897l-23 -162h-719l-65 -494h645l-21 -157h-647l-67 -504l737 -2l-20 -162h-918z" />
    <glyph glyph-name="uni1EBF" unicode="&#x1ebf;" horiz-adv-x="1142" 
d="M963 1812l30 -143l-512 -153l-22 94zM817 1253l-121 140l-170 -140h-170l279 234h125l213 -234h-156zM276 477q-23 -159 44 -261.5t215 -102.5q183 0 284 163l142 -40q-72 -126 -187.5 -191t-255.5 -65q-218 0 -334.5 144.5t-83.5 393.5q36 254 182.5 406.5t364.5 152.5
q213 0 313 -142t66 -386l-12 -72h-738zM295 612h567q21 152 -38 245t-195 93q-73 0 -134 -28.5t-101 -77t-65 -107.5t-34 -125z" />
    <glyph glyph-name="uni1EC0" unicode="&#x1ec0;" horiz-adv-x="1255" 
d="M653 2232l457 -207l-45 -86l-473 156zM965 1677l-121 140l-170 -140h-170l276 234h127l213 -234h-155zM129 0l201 1481h897l-23 -162h-719l-65 -494h645l-21 -157h-647l-67 -504l737 -2l-20 -162h-918z" />
    <glyph glyph-name="uni1EC1" unicode="&#x1ec1;" horiz-adv-x="1142" 
d="M506 1808l459 -206l-45 -86l-476 155zM817 1253l-121 140l-170 -140h-170l279 234h125l213 -234h-156zM276 477q-23 -159 44 -261.5t215 -102.5q183 0 284 163l142 -40q-72 -126 -187.5 -191t-255.5 -65q-218 0 -334.5 144.5t-83.5 393.5q36 254 182.5 406.5t364.5 152.5
q213 0 313 -142t66 -386l-12 -72h-738zM295 612h567q21 152 -38 245t-195 93q-73 0 -134 -28.5t-101 -77t-65 -107.5t-34 -125z" />
    <glyph glyph-name="uni1EC2" unicode="&#x1ec2;" horiz-adv-x="1255" 
d="M999 2101l31 -90q68 45 113 45q35 0 52 -12t13 -43q-4 -27 -30.5 -55.5t-85.5 -75.5l47 -76q10 10 38 36t38.5 36t30.5 32t28.5 36t17.5 34t11 39q10 67 -29.5 107t-112.5 40q-77 0 -162 -53zM965 1677l-121 140l-170 -140h-170l278 234h125l213 -234h-155zM129 0
l201 1481h897l-23 -162h-719l-65 -494h645l-21 -157h-647l-67 -504l737 -2l-20 -162h-918z" />
    <glyph glyph-name="uni1EC3" unicode="&#x1ec3;" horiz-adv-x="1142" 
d="M856 1677l31 -90q68 45 114 45q33 0 50.5 -12t13.5 -43q-4 -27 -31 -55t-86 -76l47 -76q10 10 38 36t38.5 36t30.5 32t28.5 36t17.5 34t11 39q10 67 -29 107.5t-112 40.5q-75 0 -162 -54zM817 1253l-121 140l-170 -140h-170l279 234h125l213 -234h-156zM276 477
q-23 -159 44 -261.5t215 -102.5q183 0 284 163l142 -40q-72 -126 -187.5 -191t-255.5 -65q-218 0 -334.5 144.5t-83.5 393.5q36 254 182.5 406.5t364.5 152.5q213 0 313 -142t66 -386l-12 -72h-738zM295 612h567q21 152 -38 245t-195 93q-73 0 -134 -28.5t-101 -77
t-65 -107.5t-34 -125z" />
    <glyph glyph-name="uni1EC4" unicode="&#x1ec4;" horiz-adv-x="1255" 
d="M1176 2079q-80 -47 -172 -47q-56 0 -128 26.5t-112 26.5q-32 0 -57 -9t-51 -25.5t-40 -22.5l-26 110q84 60 166 60q52 0 131.5 -27t118.5 -27q40 0 92.5 26t58.5 28zM965 1677l-121 140l-170 -140h-170l278 234h125l213 -234h-155zM129 0l201 1481h897l-23 -162h-719
l-65 -494h645l-21 -157h-647l-67 -504l737 -2l-20 -162h-918z" />
    <glyph glyph-name="uni1EC5" unicode="&#x1ec5;" horiz-adv-x="1142" 
d="M1028 1655q-76 -47 -170 -47q-56 0 -128.5 26.5t-113.5 26.5q-32 0 -56.5 -9t-50 -25.5t-38.5 -22.5l-29 110q84 60 166 60q52 0 131.5 -27t118.5 -27q30 0 56 9.5t52.5 24t43.5 20.5zM817 1253l-121 140l-170 -140h-170l279 234h125l213 -234h-156zM276 477
q-23 -159 44 -261.5t215 -102.5q183 0 284 163l142 -40q-72 -126 -187.5 -191t-255.5 -65q-218 0 -334.5 144.5t-83.5 393.5q36 254 182.5 406.5t364.5 152.5q213 0 313 -142t66 -386l-12 -72h-738zM295 612h567q21 152 -38 245t-195 93q-73 0 -134 -28.5t-101 -77
t-65 -107.5t-34 -125z" />
    <glyph glyph-name="uni1EC6" unicode="&#x1ec6;" horiz-adv-x="1255" 
d="M963 1677l-119 140l-170 -140h-170l276 234h127l213 -234h-157zM129 0l201 1481h897l-23 -162h-719l-65 -494h645l-21 -157h-647l-67 -504l737 -2l-20 -162h-918zM684 -109l-29 -221h-163l34 221h158z" />
    <glyph glyph-name="uni1EC7" unicode="&#x1ec7;" horiz-adv-x="1142" 
d="M817 1253l-121 140l-170 -140h-170l279 234h125l213 -234h-156zM276 477q-23 -159 44 -261.5t215 -102.5q183 0 284 163l142 -40q-72 -126 -187.5 -191t-255.5 -65q-218 0 -334.5 144.5t-83.5 393.5q36 254 182.5 406.5t364.5 152.5q213 0 313 -142t66 -386l-12 -72h-738
zM295 612h567q21 152 -38 245t-195 93q-73 0 -134 -28.5t-101 -77t-65 -107.5t-34 -125zM561 -109l-29 -221h-163l34 221h158z" />
    <glyph glyph-name="uni1EC8" unicode="&#x1ec8;" horiz-adv-x="575" 
d="M297 1911l31 -92q66 47 114 47q33 0 50.5 -13.5t13.5 -44.5q-3 -19 -20.5 -41t-35 -37.5t-61.5 -52.5l47 -73q6 6 32.5 30t34 31.5l27.5 27.5t27.5 30.5t19 27.5t16.5 32.5t7 31.5q10 68 -29 108.5t-112 40.5q-71 0 -162 -53zM330 1481h176l-199 -1481h-178z" />
    <glyph glyph-name="uni1EC9" unicode="&#x1ec9;" horiz-adv-x="520" 
d="M205 1487l31 -92q66 47 112 47q34 0 52 -13t12 -45q-3 -19 -20.5 -41t-35 -37.5t-61.5 -52.5l47 -73q5 4 24 21.5t24 22t21.5 19.5t21.5 21t18 19.5t17.5 21t13.5 20t12.5 22t7.5 21t6 23.5q9 68 -30.5 108.5t-112.5 40.5t-160 -53zM420 1057l-146 -1057h-178l146 1057
h178z" />
    <glyph glyph-name="uni1ECA" unicode="&#x1eca;" horiz-adv-x="575" 
d="M330 1481h176l-199 -1481h-178zM289 -109l-29 -221h-164l35 221h158z" />
    <glyph glyph-name="uni1ECB" unicode="&#x1ecb;" horiz-adv-x="540" 
d="M498 1520l-35 -238h-189l33 238h191zM426 1057l-143 -1057h-177l146 1057h174zM266 -109l-26 -221h-164l33 221h157z" />
    <glyph glyph-name="uni1ECC" unicode="&#x1ecc;" horiz-adv-x="1488" 
d="M670 -20q-289 0 -425 197.5t-89 557.5q51 362 243.5 564t479.5 202q285 0 423 -201.5t89 -562.5q-51 -360 -242 -558.5t-479 -198.5zM694 137q204 0 333 147.5t169 450.5q40 306 -48 457t-290 151q-204 0 -335 -151t-173 -457q-39 -303 50.5 -450.5t293.5 -147.5z
M725 -109l-27 -221h-163l32 221h158z" />
    <glyph glyph-name="uni1ECD" unicode="&#x1ecd;" horiz-adv-x="1130" 
d="M489 -20q-217 0 -323 150t-72 392q32 248 183 401.5t366 153.5q216 0 321 -153t72 -400q-33 -242 -181.5 -393t-365.5 -151zM512 109q142 0 231.5 119t114.5 302q16 119 -2 211.5t-77.5 149.5t-155.5 57q-97 0 -172 -57.5t-118 -150t-59 -210.5t2 -211t78 -151.5
t158 -58.5zM563 -109l-26 -221h-164l33 221h157z" />
    <glyph glyph-name="uni1ECE" unicode="&#x1ece;" horiz-adv-x="1441" 
d="M727 1911l31 -92q66 47 112 47q34 0 52 -13t12 -45q-3 -19 -20.5 -41t-35 -37.5t-61.5 -52.5l47 -73q5 4 24 21.5t24 22t21.5 19.5t21.5 21t18 19.5t17.5 21t13.5 20t12.5 22t7.5 21t6 23.5q9 68 -30.5 108.5t-112.5 40.5t-160 -53zM670 -20q-289 0 -425 197.5t-89 557.5
q51 362 243.5 564t479.5 202q285 0 423 -201.5t89 -562.5q-51 -360 -242 -558.5t-479 -198.5zM694 137q204 0 333 147.5t169 450.5q40 306 -48 457t-290 151q-204 0 -335 -151t-173 -457q-39 -303 50.5 -450.5t293.5 -147.5z" />
    <glyph glyph-name="uni1ECF" unicode="&#x1ecf;" horiz-adv-x="1142" 
d="M520 1487l31 -92q66 47 113 47q34 0 51.5 -13t11.5 -45q-3 -19 -20.5 -41t-35 -37.5t-61.5 -52.5l47 -73q5 4 24 21.5t24 22t21.5 19.5t21.5 21t18 19.5t17.5 21t13.5 20t12.5 22t7.5 21t6 23.5q9 68 -30.5 108.5t-112.5 40.5t-160 -53zM489 -20q-217 0 -323 150t-72 392
q32 248 183 401.5t366 153.5q216 0 321 -153t72 -400q-33 -242 -181.5 -393t-365.5 -151zM512 109q142 0 231.5 119t114.5 302q16 119 -2 211.5t-77.5 149.5t-155.5 57q-97 0 -172 -57.5t-118 -150t-59 -210.5t2 -211t78 -151.5t158 -58.5z" />
    <glyph glyph-name="uni1ED0" unicode="&#x1ed0;" horiz-adv-x="1441" 
d="M1171 2236l29 -143l-512 -154l-22 95zM1024 1677l-121 140l-168 -140h-170l277 234h125l215 -234h-158zM670 -20q-289 0 -425 197.5t-89 557.5q51 362 243.5 564t479.5 202q285 0 423 -201.5t89 -562.5q-51 -360 -242 -558.5t-479 -198.5zM694 137q204 0 333 147.5
t169 450.5q40 306 -48 457t-290 151q-204 0 -335 -151t-173 -457q-39 -303 50.5 -450.5t293.5 -147.5z" />
    <glyph glyph-name="uni1ED1" unicode="&#x1ed1;" horiz-adv-x="1142" 
d="M965 1812l28 -143l-512 -153l-22 94zM817 1253l-121 140l-168 -140h-170l277 234h125l215 -234h-158zM489 -20q-217 0 -323 150t-72 392q32 248 183 401.5t366 153.5q216 0 321 -153t72 -400q-33 -242 -181.5 -393t-365.5 -151zM512 109q142 0 231.5 119t114.5 302
q16 119 -2 211.5t-77.5 149.5t-155.5 57q-97 0 -172 -57.5t-118 -150t-59 -210.5t2 -211t78 -151.5t158 -58.5z" />
    <glyph glyph-name="uni1ED2" unicode="&#x1ed2;" horiz-adv-x="1441" 
d="M715 2232l456 -207l-45 -86l-475 156zM1024 1677l-121 140l-168 -140h-170l277 234h125l215 -234h-158zM670 -20q-289 0 -425 197.5t-89 557.5q51 362 243.5 564t479.5 202q285 0 423 -201.5t89 -562.5q-51 -360 -242 -558.5t-479 -198.5zM694 137q204 0 333 147.5
t169 450.5q40 306 -48 457t-290 151q-204 0 -335 -151t-173 -457q-39 -303 50.5 -450.5t293.5 -147.5z" />
    <glyph glyph-name="uni1ED3" unicode="&#x1ed3;" horiz-adv-x="1142" 
d="M508 1808l457 -206l-45 -86l-476 155zM817 1253l-121 140l-168 -140h-170l277 234h125l215 -234h-158zM489 -20q-217 0 -323 150t-72 392q32 248 183 401.5t366 153.5q216 0 321 -153t72 -400q-33 -242 -181.5 -393t-365.5 -151zM512 109q142 0 231.5 119t114.5 302
q16 119 -2 211.5t-77.5 149.5t-155.5 57q-97 0 -172 -57.5t-118 -150t-59 -210.5t2 -211t78 -151.5t158 -58.5z" />
    <glyph glyph-name="uni1ED4" unicode="&#x1ed4;" horiz-adv-x="1441" 
d="M1061 2101l29 -90q72 45 114 45q35 0 52.5 -12t11.5 -43q-4 -27 -31 -55t-86 -76l47 -76q7 7 33.5 31t34 31.5t27.5 27t27.5 30.5t19 28t16.5 32.5t8 32.5q9 67 -30.5 107t-112.5 40q-78 0 -160 -53zM1024 1677l-121 140l-168 -140h-170l277 234h125l215 -234h-158z
M670 -20q-289 0 -425 197.5t-89 557.5q51 362 243.5 564t479.5 202q285 0 423 -201.5t89 -562.5q-51 -360 -242 -558.5t-479 -198.5zM694 137q204 0 333 147.5t169 450.5q40 306 -48 457t-290 151q-204 0 -335 -151t-173 -457q-39 -303 50.5 -450.5t293.5 -147.5z" />
    <glyph glyph-name="uni1ED5" unicode="&#x1ed5;" horiz-adv-x="1142" 
d="M858 1677l31 -90q68 45 112 45q35 0 52.5 -12t11.5 -43q-4 -27 -31 -55t-86 -76l47 -76q7 7 33.5 31t34 31.5t27.5 27t27.5 30.5t19 28t16.5 32.5t8 32.5q9 67 -30.5 107.5t-112.5 40.5q-77 0 -160 -54zM817 1253l-121 140l-168 -140h-170l277 234h125l215 -234h-158z
M489 -20q-217 0 -323 150t-72 392q32 248 183 401.5t366 153.5q216 0 321 -153t72 -400q-33 -242 -181.5 -393t-365.5 -151zM512 109q142 0 231.5 119t114.5 302q16 119 -2 211.5t-77.5 149.5t-155.5 57q-97 0 -172 -57.5t-118 -150t-59 -210.5t2 -211t78 -151.5t158 -58.5z
" />
    <glyph glyph-name="uni1ED6" unicode="&#x1ed6;" horiz-adv-x="1441" 
d="M1237 2079q-80 -47 -172 -47q-56 0 -128.5 26.5t-111.5 26.5q-32 0 -57 -9t-51 -25.5t-39 -22.5l-27 110q42 30 79 45t85 15q53 0 132.5 -27t119.5 -27q39 0 93 26.5t57 27.5zM1024 1677l-121 140l-168 -140h-170l277 234h125l215 -234h-158zM670 -20q-289 0 -425 197.5
t-89 557.5q51 362 243.5 564t479.5 202q285 0 423 -201.5t89 -562.5q-51 -360 -242 -558.5t-479 -198.5zM694 137q204 0 333 147.5t169 450.5q40 306 -48 457t-290 151q-204 0 -335 -151t-173 -457q-39 -303 50.5 -450.5t293.5 -147.5z" />
    <glyph glyph-name="uni1ED7" unicode="&#x1ed7;" horiz-adv-x="1142" 
d="M1030 1655q-80 -47 -172 -47q-56 0 -128.5 26.5t-111.5 26.5q-32 0 -57 -9t-51 -25.5t-39 -22.5l-27 110q42 30 79 45t85 15q53 0 132.5 -27t119.5 -27q39 0 93 26.5t57 27.5zM817 1253l-121 140l-168 -140h-170l277 234h125l215 -234h-158zM489 -20q-217 0 -323 150
t-72 392q32 248 183 401.5t366 153.5q216 0 321 -153t72 -400q-33 -242 -181.5 -393t-365.5 -151zM512 109q142 0 231.5 119t114.5 302q16 119 -2 211.5t-77.5 149.5t-155.5 57q-97 0 -172 -57.5t-118 -150t-59 -210.5t2 -211t78 -151.5t158 -58.5z" />
    <glyph glyph-name="uni1ED8" unicode="&#x1ed8;" horiz-adv-x="1441" 
d="M1024 1677l-121 140l-168 -140h-170l277 234h125l215 -234h-158zM670 -20q-289 0 -425 197.5t-89 557.5q51 362 243.5 564t479.5 202q285 0 423 -201.5t89 -562.5q-51 -360 -242 -558.5t-479 -198.5zM694 137q204 0 333 147.5t169 450.5q40 306 -48 457t-290 151
q-204 0 -335 -151t-173 -457q-39 -303 50.5 -450.5t293.5 -147.5zM721 -109l-27 -221h-164l33 221h158z" />
    <glyph glyph-name="uni1ED9" unicode="&#x1ed9;" horiz-adv-x="1142" 
d="M817 1253l-121 140l-168 -140h-170l277 234h125l215 -234h-158zM489 -20q-217 0 -323 150t-72 392q32 248 183 401.5t366 153.5q216 0 321 -153t72 -400q-33 -242 -181.5 -393t-365.5 -151zM512 109q142 0 231.5 119t114.5 302q16 119 -2 211.5t-77.5 149.5t-155.5 57
q-97 0 -172 -57.5t-118 -150t-59 -210.5t2 -211t78 -151.5t158 -58.5zM563 -109l-26 -221h-164l33 221h157z" />
    <glyph glyph-name="uni1EDA" unicode="&#x1eda;" horiz-adv-x="1413" 
d="M1190 1788l-512 -156l-23 94l506 205zM1171 1425q138 -86 195.5 -261.5t24.5 -426.5q-51 -360 -242 -558.5t-479 -198.5q-289 0 -425 197.5t-89 557.5q51 362 243.5 564t479.5 202q75 0 135 -14v4q108 0 160 121h139q-43 -126 -142 -187zM1196 735q40 306 -48 457
t-290 151q-204 0 -335 -151t-173 -457q-39 -303 50.5 -450.5t293.5 -147.5t333 147.5t169 450.5z" />
    <glyph glyph-name="uni1EDB" unicode="&#x1edb;" horiz-adv-x="1136" 
d="M952 1364l-512 -156l-22 95l504 204zM915 981q78 -72 109.5 -190t11.5 -267q-33 -242 -181.5 -393t-365.5 -151t-323 150t-72 392q32 248 183 401.5t366 153.5q75 0 143 -22q93 10 144 121h137q-46 -134 -152 -195zM858 530q16 119 -2 211.5t-77.5 149.5t-155.5 57
q-97 0 -172 -57.5t-118 -150t-59 -210.5t2 -211t78 -151.5t158 -58.5q142 0 231.5 119t114.5 302z" />
    <glyph glyph-name="uni1EDC" unicode="&#x1edc;" horiz-adv-x="1413" 
d="M1161 1718l-45 -84l-475 154l64 139zM1171 1425q138 -86 195.5 -261.5t24.5 -426.5q-51 -360 -242 -558.5t-479 -198.5q-289 0 -425 197.5t-89 557.5q51 362 243.5 564t479.5 202q75 0 135 -14v4q108 0 160 121h139q-43 -126 -142 -187zM1196 735q40 306 -48 457
t-290 151q-204 0 -335 -151t-173 -457q-39 -303 50.5 -450.5t293.5 -147.5t333 147.5t169 450.5z" />
    <glyph glyph-name="uni1EDD" unicode="&#x1edd;" horiz-adv-x="1136" 
d="M924 1294l-45 -84l-476 154l62 139zM915 981q78 -72 109.5 -190t11.5 -267q-33 -242 -181.5 -393t-365.5 -151t-323 150t-72 392q32 248 183 401.5t366 153.5q75 0 143 -22q93 10 144 121h137q-46 -134 -152 -195zM858 530q16 119 -2 211.5t-77.5 149.5t-155.5 57
q-97 0 -172 -57.5t-118 -150t-59 -210.5t2 -211t78 -151.5t158 -58.5q142 0 231.5 119t114.5 302z" />
    <glyph glyph-name="uni1EDE" unicode="&#x1ede;" horiz-adv-x="1413" 
d="M899 1866q-47 0 -113 -47l-30 92q91 53 159 53q73 0 113 -40.5t31 -108.5q-2 -13 -5.5 -25t-10.5 -25t-13 -22.5t-18 -23.5t-19 -22t-23.5 -23t-23.5 -22t-26.5 -24.5t-26.5 -23.5l-47 73q44 37 61.5 52.5t35 37.5t20.5 41q6 32 -12 45t-52 13zM1171 1425
q138 -86 195.5 -261.5t24.5 -426.5q-51 -360 -242 -558.5t-479 -198.5q-289 0 -425 197.5t-89 557.5q51 362 243.5 564t479.5 202q75 0 135 -14v4q108 0 160 121h139q-43 -126 -142 -187zM1196 735q40 306 -48 457t-290 151q-204 0 -335 -151t-173 -457
q-39 -303 50.5 -450.5t293.5 -147.5t333 147.5t169 450.5z" />
    <glyph glyph-name="uni1EDF" unicode="&#x1edf;" horiz-adv-x="1136" 
d="M662 1442q-49 0 -115 -47l-31 92q91 53 162 53q73 0 112 -40.5t29 -108.5q-4 -34 -27.5 -69.5t-47.5 -59.5t-71 -66q-12 -10 -18 -16l-47 73q44 37 61.5 52.5t35 37.5t20.5 41q8 58 -63 58zM915 981q78 -72 109.5 -190t11.5 -267q-33 -242 -181.5 -393t-365.5 -151
t-323 150t-72 392q32 248 183 401.5t366 153.5q75 0 143 -22q93 10 144 121h137q-46 -134 -152 -195zM858 530q16 119 -2 211.5t-77.5 149.5t-155.5 57q-97 0 -172 -57.5t-118 -150t-59 -210.5t2 -211t78 -151.5t158 -58.5q142 0 231.5 119t114.5 302z" />
    <glyph glyph-name="uni1EE0" unicode="&#x1ee0;" horiz-adv-x="1413" 
d="M815 1778q-32 0 -56.5 -9.5t-50 -26t-40.5 -22.5l-27 113q88 59 164 59q53 0 132.5 -27.5t119.5 -27.5q29 0 54.5 9t52.5 24.5t42 21.5l21 -120q-81 -48 -172 -48q-56 0 -128.5 27t-111.5 27zM1171 1425q138 -86 195.5 -261.5t24.5 -426.5q-51 -360 -242 -558.5
t-479 -198.5q-289 0 -425 197.5t-89 557.5q51 362 243.5 564t479.5 202q75 0 135 -14v4q108 0 160 121h139q-43 -126 -142 -187zM1196 735q40 306 -48 457t-290 151q-204 0 -335 -151t-173 -457q-39 -303 50.5 -450.5t293.5 -147.5t333 147.5t169 450.5z" />
    <glyph glyph-name="uni1EE1" unicode="&#x1ee1;" horiz-adv-x="1136" 
d="M575 1354q-32 0 -56.5 -9.5t-50 -26t-38.5 -22.5l-29 113q43 29 80.5 44t85.5 15q52 0 131.5 -27.5t118.5 -27.5q30 0 56 9t53 24.5t43 21.5l18 -120q-77 -48 -170 -48q-55 0 -128 27t-114 27zM915 981q78 -72 109.5 -190t11.5 -267q-33 -242 -181.5 -393t-365.5 -151
t-323 150t-72 392q32 248 183 401.5t366 153.5q75 0 143 -22q93 10 144 121h137q-46 -134 -152 -195zM858 530q16 119 -2 211.5t-77.5 149.5t-155.5 57q-97 0 -172 -57.5t-118 -150t-59 -210.5t2 -211t78 -151.5t158 -58.5q142 0 231.5 119t114.5 302z" />
    <glyph glyph-name="uni1EE2" unicode="&#x1ee2;" horiz-adv-x="1413" 
d="M1171 1425q138 -86 195.5 -261.5t24.5 -426.5q-51 -360 -242 -558.5t-479 -198.5q-289 0 -425 197.5t-89 557.5q51 362 243.5 564t479.5 202q75 0 135 -14v4q108 0 160 121h139q-43 -126 -142 -187zM1196 735q40 306 -48 457t-290 151q-204 0 -335 -151t-173 -457
q-39 -303 50.5 -450.5t293.5 -147.5t333 147.5t169 450.5zM532 -330l33 221h158l-27 -221h-164z" />
    <glyph glyph-name="uni1EE3" unicode="&#x1ee3;" horiz-adv-x="1136" 
d="M915 981q78 -72 109.5 -190t11.5 -267q-33 -242 -181.5 -393t-365.5 -151t-323 150t-72 392q32 248 183 401.5t366 153.5q75 0 143 -22q93 10 144 121h137q-46 -134 -152 -195zM858 530q16 119 -2 211.5t-77.5 149.5t-155.5 57q-97 0 -172 -57.5t-118 -150t-59 -210.5
t2 -211t78 -151.5t158 -58.5q142 0 231.5 119t114.5 302zM377 -330l33 221h157l-26 -221h-164z" />
    <glyph glyph-name="uni1EE4" unicode="&#x1ee4;" horiz-adv-x="1388" 
d="M1239 506q-36 -260 -180 -393t-412 -133q-272 0 -377 136.5t-69 411.5l129 953h184l-133 -983q-26 -179 48.5 -270t238.5 -91q166 0 266.5 90t126.5 271l131 983h178zM680 -109l-29 -221h-162l33 221h158z" />
    <glyph glyph-name="uni1EE5" unicode="&#x1ee5;" horiz-adv-x="1157" 
d="M410 -18q-147 2 -223.5 85t-57.5 222l104 770h177l-101 -735q-14 -99 28.5 -153t141.5 -54q85 0 153.5 36.5t166.5 122.5l106 783h178l-147 -1057h-139l6 166q-111 -97 -204 -142t-189 -44zM578 -109l-29 -221h-164l35 221h158z" />
    <glyph glyph-name="uni1EE6" unicode="&#x1ee6;" horiz-adv-x="1429" 
d="M713 1911l30 -92q66 47 113 47q34 0 52 -13t14 -45q-6 -27 -32 -54t-87 -77l49 -73q6 6 32.5 30t34 31.5l27.5 27.5t27.5 30.5t19 27.5t16.5 32.5t7 31.5q10 68 -30 108.5t-112 40.5q-70 0 -161 -53zM1239 506q-36 -260 -180 -393t-412 -133q-272 0 -377 136.5t-69 411.5
l129 953h184l-133 -983q-26 -179 48.5 -270t238.5 -91q166 0 266.5 90t126.5 271l131 983h178z" />
    <glyph glyph-name="uni1EE7" unicode="&#x1ee7;" horiz-adv-x="1157" 
d="M514 1487l31 -92q66 47 114 47q33 0 50.5 -13.5t13.5 -44.5q-3 -19 -20.5 -41t-35 -37.5t-61.5 -52.5l47 -73q6 6 32.5 30t34 31.5l27.5 27.5t27.5 30.5t19 27.5t16.5 32.5t7 31.5q10 68 -29 108.5t-112 40.5q-71 0 -162 -53zM410 -18q-147 2 -223.5 85t-57.5 222
l104 770h177l-101 -735q-14 -99 28.5 -153t141.5 -54q85 0 153.5 36.5t166.5 122.5l106 783h178l-147 -1057h-139l6 166q-111 -97 -204 -142t-189 -44z" />
    <glyph glyph-name="uni1EE8" unicode="&#x1ee8;" horiz-adv-x="1368" 
d="M1143 1788l-512 -156l-23 94l506 205zM1642 1614q-32 -96 -105.5 -161.5t-180.5 -72.5l-117 -874q-36 -260 -180 -393t-412 -133q-272 0 -377 136.5t-69 411.5l129 953h184l-133 -983q-26 -179 48.5 -270t238.5 -91q166 0 266.5 90t126.5 271l131 983h149l2 12
q108 0 160 121h139z" />
    <glyph glyph-name="uni1EE9" unicode="&#x1ee9;" horiz-adv-x="1155" 
d="M948 1364l-512 -156l-22 95l506 204zM1296 1176q-28 -82 -85.5 -141.5t-141.5 -80.5l-133 -952h-139l6 166q-111 -97 -204 -142t-189 -44q-147 2 -223.5 85t-57.5 222l104 770h177l-101 -735q-14 -99 28.5 -153t141.5 -54q85 0 153.5 36.5t166.5 122.5l106 783h131
q76 17 123 117h137z" />
    <glyph glyph-name="uni1EEA" unicode="&#x1eea;" horiz-adv-x="1368" 
d="M1114 1718l-45 -84l-475 154l63 139zM1642 1614q-32 -96 -105.5 -161.5t-180.5 -72.5l-117 -874q-36 -260 -180 -393t-412 -133q-272 0 -377 136.5t-69 411.5l129 953h184l-133 -983q-26 -179 48.5 -270t238.5 -91q166 0 266.5 90t126.5 271l131 983h149l2 12
q108 0 160 121h139z" />
    <glyph glyph-name="uni1EEB" unicode="&#x1eeb;" horiz-adv-x="1155" 
d="M920 1294l-48 -84l-473 154l62 139zM1296 1176q-28 -82 -85.5 -141.5t-141.5 -80.5l-133 -952h-139l6 166q-111 -97 -204 -142t-189 -44q-147 2 -223.5 85t-57.5 222l104 770h177l-101 -735q-14 -99 28.5 -153t141.5 -54q85 0 153.5 36.5t166.5 122.5l106 783h131
q76 17 123 117h137z" />
    <glyph glyph-name="uni1EEC" unicode="&#x1eec;" horiz-adv-x="1368" 
d="M852 1866q-47 0 -113 -47l-30 92q87 53 159 53q73 0 113 -40.5t31 -108.5q-2 -12 -6 -23.5t-7.5 -21t-12.5 -22t-13.5 -20t-17.5 -21t-18 -19.5t-21.5 -21t-21.5 -19.5t-24 -22t-24 -21.5l-47 73q43 36 61 52.5t35 38t20 40.5q6 32 -11.5 45t-51.5 13zM1642 1614
q-32 -96 -105.5 -161.5t-180.5 -72.5l-117 -874q-36 -260 -180 -393t-412 -133q-272 0 -377 136.5t-69 411.5l129 953h184l-133 -983q-26 -179 48.5 -270t238.5 -91q166 0 266.5 90t126.5 271l131 983h149l2 12q108 0 160 121h139z" />
    <glyph glyph-name="uni1EED" unicode="&#x1eed;" horiz-adv-x="1155" 
d="M662 1442q-49 0 -115 -47l-31 92q91 53 162 53q73 0 112 -40.5t29 -108.5q-4 -34 -27.5 -69.5t-47.5 -59.5t-71 -66q-12 -10 -18 -16l-47 73q44 37 61.5 52.5t35 37.5t20.5 41q8 58 -63 58zM1296 1176q-28 -82 -85.5 -141.5t-141.5 -80.5l-133 -952h-139l6 166
q-111 -97 -204 -142t-189 -44q-147 2 -223.5 85t-57.5 222l104 770h177l-101 -735q-14 -99 28.5 -153t141.5 -54q85 0 153.5 36.5t166.5 122.5l106 783h131q76 17 123 117h137z" />
    <glyph glyph-name="uni1EEE" unicode="&#x1eee;" horiz-adv-x="1368" 
d="M768 1778q-32 0 -57 -9.5t-51 -26t-39 -22.5l-27 113q44 30 80 44.5t84 14.5q53 0 132.5 -27.5t119.5 -27.5q29 0 54.5 9t52.5 24.5t42 21.5l21 -120q-81 -48 -172 -48q-56 0 -128.5 27t-111.5 27zM1642 1614q-32 -96 -105.5 -161.5t-180.5 -72.5l-117 -874
q-36 -260 -180 -393t-412 -133q-272 0 -377 136.5t-69 411.5l129 953h184l-133 -983q-26 -179 48.5 -270t238.5 -91q166 0 266.5 90t126.5 271l131 983h149l2 12q108 0 160 121h139z" />
    <glyph glyph-name="uni1EEF" unicode="&#x1eef;" horiz-adv-x="1155" 
d="M571 1354q-32 0 -56.5 -9.5t-50 -26t-40.5 -22.5l-27 113q43 29 80.5 44t85.5 15q52 0 131.5 -27.5t118.5 -27.5q30 0 56 9t53 24.5t43 21.5l18 -120q-81 -48 -172 -48q-55 0 -127 27t-113 27zM1296 1176q-28 -82 -85.5 -141.5t-141.5 -80.5l-133 -952h-139l6 166
q-111 -97 -204 -142t-189 -44q-147 2 -223.5 85t-57.5 222l104 770h177l-101 -735q-14 -99 28.5 -153t141.5 -54q85 0 153.5 36.5t166.5 122.5l106 783h131q76 17 123 117h137z" />
    <glyph glyph-name="uni1EF0" unicode="&#x1ef0;" horiz-adv-x="1368" 
d="M1642 1614q-32 -96 -105.5 -161.5t-180.5 -72.5l-117 -874q-36 -260 -180 -393t-412 -133q-272 0 -377 136.5t-69 411.5l129 953h184l-133 -983q-26 -179 48.5 -270t238.5 -91q166 0 266.5 90t126.5 271l131 983h149l2 12q108 0 160 121h139zM502 -330l33 221h157
l-28 -221h-162z" />
    <glyph glyph-name="uni1EF1" unicode="&#x1ef1;" horiz-adv-x="1155" 
d="M1296 1176q-28 -82 -85.5 -141.5t-141.5 -80.5l-133 -952h-139l6 166q-111 -97 -204 -142t-189 -44q-147 2 -223.5 85t-57.5 222l104 770h177l-101 -735q-14 -99 28.5 -153t141.5 -54q85 0 153.5 36.5t166.5 122.5l106 783h131q76 17 123 117h137zM373 -330l33 221h157
l-26 -221h-164z" />
    <glyph glyph-name="Ygrave" unicode="&#x1ef2;" horiz-adv-x="1181" 
d="M553 1927l457 -209l-45 -84l-476 154zM1296 1481l-598 -850l-86 -631h-176l86 633l-372 848h188l295 -690l473 690h190z" />
    <glyph glyph-name="ygrave" unicode="&#x1ef3;" horiz-adv-x="1069" 
d="M451 1503l456 -209l-45 -84l-475 154zM143 -338q-53 0 -91 6t-50 12l-12 7l18 118l107 -4q52 -1 92 8.5t65 29.5t39 38t27 43l51 103l-260 1034h178l193 -828l415 828h172l-583 -1143q-75 -140 -162 -196t-199 -56z" />
    <glyph glyph-name="uni1EF4" unicode="&#x1ef4;" horiz-adv-x="1167" 
d="M1296 1481l-598 -850l-86 -631h-176l86 633l-372 848h188l295 -690l473 690h190zM465 -109l-27 -221h-164l33 221h158z" />
    <glyph glyph-name="uni1EF5" unicode="&#x1ef5;" horiz-adv-x="1015" 
d="M133 -338q-54 0 -92 6t-49 12l-12 7l16 118l106 -4q52 -1 92 8.5t65 29.5t39.5 38t27.5 43l51 103l-258 1034h178l192 -828l416 828h172l-585 -1143q-74 -140 -160.5 -196t-198.5 -56zM770 -109l-29 -221h-163l34 221h158z" />
    <glyph glyph-name="uni1EF6" unicode="&#x1ef6;" horiz-adv-x="1173" 
d="M604 1911l31 -92q66 47 113 47q73 0 65 -58q-4 -19 -22 -41t-35.5 -37.5t-61.5 -52.5l49 -73q6 6 32.5 30t34 31.5l27.5 27.5t27.5 30.5t19 27.5t16.5 32.5t7 31.5q10 68 -30 108.5t-113 40.5q-69 0 -160 -53zM1296 1481l-598 -850l-86 -631h-176l86 633l-372 848h188
l295 -690l473 690h190z" />
    <glyph glyph-name="uni1EF7" unicode="&#x1ef7;" horiz-adv-x="1081" 
d="M506 1487l31 -92q66 47 112 47q34 0 52 -13t14 -45q-6 -27 -32 -54t-87 -77l49 -73q6 6 32.5 30t34 31.5l27.5 27.5t27.5 30.5t19 27.5t16.5 32.5t7 31.5q10 68 -29 108.5t-112 40.5q-71 0 -162 -53zM143 -338q-53 0 -91 6t-50 12l-12 7l18 118l107 -4q52 -1 92 8.5
t65 29.5t39 38t27 43l51 103l-260 1034h178l193 -828l415 828h172l-583 -1143q-75 -140 -162 -196t-199 -56z" />
    <glyph glyph-name="uni1EF8" unicode="&#x1ef8;" horiz-adv-x="1181" 
d="M1075 1772q-81 -48 -172 -48q-55 0 -127 27t-112 27q-32 0 -57 -9.5t-51 -26t-40 -22.5l-27 113q88 59 164 59q53 0 132.5 -27.5t119.5 -27.5q29 0 55 9t53.5 24.5t43.5 21.5zM1296 1481l-598 -850l-86 -631h-176l86 633l-372 848h188l295 -690l473 690h190z" />
    <glyph glyph-name="uni1EF9" unicode="&#x1ef9;" horiz-adv-x="1069" 
d="M973 1348q-81 -48 -172 -48q-55 0 -127 27t-113 27q-32 0 -56.5 -9.5t-50 -26t-40.5 -22.5l-27 113q88 59 164 59q53 0 132.5 -27.5t119.5 -27.5q30 0 55.5 9t52.5 24.5t43 21.5zM143 -338q-53 0 -91 6t-50 12l-12 7l18 118l107 -4q52 -1 92 8.5t65 29.5t39 38t27 43
l51 103l-260 1034h178l193 -828l415 828h172l-583 -1143q-75 -140 -162 -196t-199 -56z" />
    <glyph glyph-name="endash" unicode="&#x2013;" horiz-adv-x="1114" 
d="M985 586l-20 -142l-848 -2l20 142z" />
    <glyph glyph-name="emdash" unicode="&#x2014;" horiz-adv-x="1734" 
d="M1606 586l-19 -142l-1470 -2l20 142z" />
    <glyph glyph-name="quoteleft" unicode="&#x2018;" horiz-adv-x="483" 
d="M504 1546l-144 -250l82 -4l-28 -221h-224l25 191l205 284h84z" />
    <glyph glyph-name="quoteright" unicode="&#x2019;" horiz-adv-x="432" 
d="M168 1006l143 249l-82 5l29 221h223l-24 -191l-205 -284h-84z" />
    <glyph glyph-name="quotesinglbase" unicode="&#x201a;" horiz-adv-x="462" 
d="M-14 -254l147 250l-88 6l31 219h225l-27 -184l-211 -291h-77z" />
    <glyph glyph-name="quotedblleft" unicode="&#x201c;" horiz-adv-x="825" 
d="M184 1006l29 190l205 285h84l-144 -250l82 -4l-30 -221h-226zM537 1006l24 190l207 285h84l-143 -250l82 -4l-31 -221h-223z" />
    <glyph glyph-name="quotedblright" unicode="&#x201d;" horiz-adv-x="841" 
d="M168 1006l143 249l-82 5l29 221h223l-24 -191l-205 -284h-84zM518 1006l144 249l-84 5l30 221h226l-27 -191l-207 -284h-82z" />
    <glyph glyph-name="quotedblbase" unicode="&#x201e;" horiz-adv-x="937" 
d="M2 -254l182 250l-86 6l60 219h225l-51 -184l-252 -291h-78zM371 -254l184 250l-88 6l59 219h228l-54 -184l-251 -291h-78z" />
    <glyph glyph-name="dagger" unicode="&#x2020;" horiz-adv-x="897" 
d="M924 967l-25 -170l-352 26l-121 -1153h-186l194 1151l-366 -26l24 172l352 -25l41 539h189l-101 -537z" />
    <glyph glyph-name="daggerdbl" unicode="&#x2021;" horiz-adv-x="901" 
d="M545 811l-66 -494l361 27l-25 -172l-348 25l-41 -527h-186l98 525l-354 -25l22 172l356 -27l68 494l-364 -29l24 172l352 -24l43 553h189l-103 -551l351 24l-25 -172z" />
    <glyph glyph-name="bullet" unicode="&#x2022;" horiz-adv-x="641" 
d="M328 557q-82 0 -131.5 60t-38.5 145q10 76 72 130t137 54q82 0 131 -60t37 -143q-11 -78 -71 -132t-136 -54z" />
    <glyph glyph-name="ellipsis" unicode="&#x2026;" horiz-adv-x="1540" 
d="M303 233l-31 -233h-213l33 233h211zM852 233l-31 -233h-215l33 233h213zM1399 233l-31 -233h-213l33 233h211z" />
    <glyph glyph-name="perthousand" unicode="&#x2030;" horiz-adv-x="2594" 
d="M580 1503q150 0 229.5 -119.5t52.5 -314.5q-24 -189 -130.5 -300.5t-250.5 -111.5q-152 0 -233 118.5t-55 314.5q26 188 134 300.5t253 112.5zM1612 1497l-1168 -1505l-129 2l1168 1503h129zM477 760q98 0 165.5 89.5t86.5 237.5q21 143 -19 228.5t-132 85.5
q-94 0 -162.5 -93t-89.5 -241q-18 -140 21.5 -223.5t129.5 -83.5zM1378 825q151 0 231 -118.5t54 -313.5q-26 -189 -132 -301t-251 -112q-151 0 -232 118.5t-55 315.5q27 187 134.5 299t250.5 112zM2169 825q150 0 230.5 -119t54.5 -313q-27 -189 -133.5 -301t-249.5 -112
q-153 0 -233.5 118.5t-53.5 315.5q26 186 134 298.5t251 112.5zM1278 82q94 0 163 91.5t91 238.5q18 139 -23.5 226t-130.5 87q-93 0 -163 -95t-89 -239q-18 -137 23 -223t129 -86zM2068 82q94 0 162.5 91.5t89.5 238.5q19 138 -22 225.5t-129 87.5q-93 0 -163 -95t-89 -239
q-19 -137 21.5 -223t129.5 -86z" />
    <glyph glyph-name="guilsinglleft" unicode="&#x2039;" horiz-adv-x="552" 
d="M238 504l145 -361h-90l-213 377l307 379h111z" />
    <glyph glyph-name="guilsinglright" unicode="&#x203a;" horiz-adv-x="555" 
d="M307 522l-147 377h92l213 -395l-305 -361h-109z" />
    <glyph glyph-name="fraction" unicode="&#x2044;" horiz-adv-x="481" 
d="M913 1497l-1167 -1505l-131 2l1169 1503h129z" />
    <glyph glyph-name="uni2070" unicode="&#x2070;" horiz-adv-x="817" 
d="M537 1729q150 0 226 -127t46 -355q-32 -225 -141.5 -350t-261.5 -125q-151 0 -227 124.5t-46 350.5q32 226 143 354t261 128zM422 870q213 0 262 377q28 195 -15.5 290t-144.5 95t-171 -95t-97 -290q-25 -193 19.5 -285t146.5 -92z" />
    <glyph glyph-name="uni2074" unicode="&#x2074;" horiz-adv-x="819" 
d="M627 1710h112l-80 -590h140l-15 -94h-137l-35 -248h-110l35 248h-420l12 100zM229 1120h318l59 449z" />
    <glyph glyph-name="uni2075" unicode="&#x2075;" horiz-adv-x="786" 
d="M305 1710h541l-19 -100h-440l-65 -307q63 33 112 49t111 16q130 0 205.5 -72.5t56.5 -212.5q-20 -148 -127 -232.5t-262 -84.5q-99 0 -179.5 38.5t-127.5 108.5l90 66q52 -62 97 -90.5t118 -28.5q112 0 184 61t84 158q13 93 -37 143t-139 50q-38 0 -79 -12.5t-65 -24
t-67 -35.5q-13 -5 -13.5 -5t-9.5 7l-69 43z" />
    <glyph glyph-name="uni2076" unicode="&#x2076;" horiz-adv-x="804" 
d="M561 1733q88 0 146.5 -41t83.5 -101l-103 -43q-24 43 -55 64.5t-82 21.5q-119 0 -198.5 -95.5t-96.5 -264.5q96 43 145.5 57.5t104.5 14.5q137 0 205 -76t53 -197q-19 -131 -120 -214t-236 -83q-162 0 -236 123t-43 342q31 229 146 360.5t286 131.5zM477 1253
q-48 0 -108.5 -16.5t-98.5 -40.5q-15 -9 -21 -19.5t-9 -33.5q-9 -64 5.5 -124t60 -104.5t116.5 -44.5q82 0 144 57t73 140q12 79 -32.5 132.5t-129.5 53.5z" />
    <glyph glyph-name="uni2077" unicode="&#x2077;" horiz-adv-x="718" 
d="M225 1710h633l-16 -117q-142 -169 -280.5 -418t-176.5 -397h-123q47 160 169.5 393t295.5 439h-514z" />
    <glyph glyph-name="uni2078" unicode="&#x2078;" horiz-adv-x="788" 
d="M537 1731q133 0 205 -71t57 -185q-6 -47 -28.5 -87.5t-52 -65t-50 -37.5t-35.5 -19q1 -1 25.5 -13.5t36.5 -20t34.5 -28t33 -41.5t16.5 -55t1 -74q-17 -120 -120 -190t-259 -70q-152 0 -231 64t-64 180q10 68 59.5 129.5t141.5 101.5q-12 5 -24 11.5t-33 24t-35 39
t-22.5 58t-2.5 78.5q15 115 113 193t234 78zM524 1636q-80 0 -141.5 -47t-71.5 -119q-12 -112 103 -139l116 -31q36 -10 93.5 49.5t66.5 125.5q9 72 -35.5 116.5t-130.5 44.5zM422 866q98 0 161 44.5t74 119.5q6 57 -18.5 92t-87.5 52l-148 38q-39 10 -106 -46t-78 -134
t41.5 -122t161.5 -44z" />
    <glyph glyph-name="uni2079" unicode="&#x2079;" horiz-adv-x="804" 
d="M365 776q-92 0 -151.5 41t-86.5 101l102 43q49 -89 148 -89q124 0 200.5 107.5t94.5 320.5q-39 -68 -105 -102.5t-147 -34.5q-137 0 -205.5 76.5t-50.5 196.5q17 131 118 214t236 83q159 0 233.5 -123t43.5 -342q-31 -230 -145.5 -361t-284.5 -131zM449 1255
q81 0 148.5 48.5t76.5 117.5q-1 107 -44.5 162t-123.5 55q-82 0 -145.5 -56.5t-75.5 -139.5q-11 -81 34 -134t130 -53z" />
    <glyph glyph-name="colonmonetary" unicode="&#x20a1;" horiz-adv-x="1177" 
d="M684 1157q-140 0 -237.5 -115t-122.5 -303q-26 -188 41.5 -302.5t207.5 -114.5q86 0 149 50t130 152l141 -43q-95 -189 -270 -258l-90 -223l-121 2l78 191q-21 -3 -45 -3q-16 0 -66 5l-78 -195l-118 2l86 223q-129 56 -188.5 191t-33.5 319q32 231 168.5 381.5
t331.5 169.5l76 193l119 2l-76 -197q51 -8 98 -31l90 226l121 2l-114 -297q67 -70 96 -180l-160 -41q-28 56 -44 83t-42 57.5t-56 42t-71 11.5z" />
    <glyph glyph-name="franc" unicode="&#x20a3;" horiz-adv-x="1206" 
d="M1212 1323h-727l-69 -522h612l-22 -154h-613l-35 -256h324l-14 -115h-324l-37 -276h-203l37 274h-186l18 117h185l149 1090h928z" />
    <glyph glyph-name="lira" unicode="&#x20a4;" horiz-adv-x="1220" 
d="M1083 281q-63 -138 -174 -209.5t-260 -71.5h-692l23 156h71q73 -2 133 69t82 207q6 16 13 78q0 4 -7 4h-6h-213l13 115h215l-7 184h-180l15 115h165l-2 67q0 135 37 235.5t102.5 158t146.5 85t179 27.5q131 0 237.5 -69t129.5 -175l-150 -51q-50 140 -200 140
q-107 0 -185.5 -66.5t-93.5 -177.5q-4 -18 -4 -164q0 -10 16 -10h320l-16 -115h-316l4 -184h287l-16 -115h-275q-15 -100 -54.5 -196t-103.5 -160h334q100 0 167.5 39t107.5 127z" />
    <glyph glyph-name="uni20A6" unicode="&#x20a6;" horiz-adv-x="1456" 
d="M1483 895h-176l-35 -260h176l-14 -111h-179l-69 -524h-160l-272 524h-428l-72 -524h-176l72 524h-130l13 109h131l35 260h-131l16 108h129l66 480h167l248 -480l449 3l65 477h176l-63 -477h176zM414 1180l-25 -179h117zM1094 635l34 260l-376 -2l133 -258h209zM340 633
h356l-135 260h-186zM1051 315l28 209h-137z" />
    <glyph glyph-name="uni20A9" unicode="&#x20a9;" horiz-adv-x="2103" 
d="M2136 969h-354l-84 -203h411l-16 -117h-444l-271 -649h-166l-90 649h-280l-264 -649h-164l-92 649h-234l18 115h199l-29 205h-143l17 114h110l-55 398h178l53 -398h432l160 398h139l54 -396h434l162 396h178l-164 -396h321zM1053 1163l-33 -80h43zM451 969l28 -205h258
l84 205h-370zM891 764h217l-29 205h-106zM1526 766l82 203h-371l27 -203h262zM543 283l149 366h-198zM1329 283l150 366h-199z" />
    <glyph glyph-name="dong" unicode="&#x20ab;" horiz-adv-x="1003" 
d="M1081 1350l-12 -97h-121l-133 -983h-149l14 107l-16 -15q-16 -14 -21 -17.5t-22 -17t-27 -19t-28.5 -16.5t-35 -16t-37 -11t-43.5 -8.5t-47 -2.5q-157 0 -240.5 116t-53.5 330q28 202 145 327.5t274 125.5q68 0 124.5 -25t113.5 -94l29 219h-263l15 97h262l16 129h154
l-18 -129h120zM694 555l56 385q-72 92 -183 92q-114 0 -195 -94.5t-104 -251.5q-21 -160 33.5 -238.5t157.5 -78.5q88 0 157.5 59t77.5 127zM57 0l17 104h723l-15 -104h-725z" />
    <glyph glyph-name="Euro" unicode="&#x20ac;" horiz-adv-x="1193" 
d="M870 1346q-155 0 -265.5 -96t-170.5 -285h389l-16 -115l-404 -2q-9 -41 -20 -117q-8 -69 -10 -94l407 2l-16 -115l-393 -2q6 -189 91.5 -285t242.5 -96q138 0 260 105l92 -129q-178 -137 -381 -137q-229 0 -361.5 143t-146.5 399h-184l16 115h168q4 77 10 115q3 22 17 96
h-164l12 115h180q80 256 247 397t392 141q105 0 197 -42.5t153 -115.5l-120 -98q-108 101 -222 101z" />
    <glyph glyph-name="uni20B9" unicode="&#x20b9;" horiz-adv-x="1155" 
d="M1245 1483l-16 -111h-277q80 -77 86 -203h164l-14 -110h-162q-54 -243 -317 -336q-8 0 -14.5 -7t-6.5 -14l170 -702h-215l-147 692h-447l19 144h374q157 0 248.5 53t124.5 170h-715l15 108l714 2q0 195 -266 195h-426l19 117z" />
    <glyph glyph-name="uni20BA" unicode="&#x20ba;" horiz-adv-x="1124" 
d="M920 510l167 -43q-102 -222 -271 -344.5t-404 -122.5h-246l61 453l-149 -54l-31 121l201 72l24 192l-163 -59l-29 123l213 76l76 557h198l-63 -482l276 101l29 -123l-324 -117l-26 -192l291 102l30 -123l-340 -121l-49 -368h88q274 3 441 352z" />
    <glyph glyph-name="uni2113" unicode="&#x2113;" horiz-adv-x="993" 
d="M369 438l-2 -35q-23 -155 9.5 -216.5t123.5 -61.5q83 0 153 47l-186 -192q-55 0 -99.5 13t-73 33.5t-49.5 51t-31.5 59t-17 64.5t-8 61t-2.5 55.5t-2 40.5q-2 1 -3 0t-3.5 -5t-3.5 -5l-102 -63l-41 118l172 117l69 514q31 232 141.5 349.5t264.5 117.5q142 0 204.5 -92.5
t41.5 -237.5q-9 -62 -32.5 -125t-51.5 -114t-77 -112t-85 -100.5t-101.5 -100t-101 -91t-106.5 -90.5zM444 989l-45 -354q51 40 97.5 83t99 102t92.5 117.5t71 130t40 140.5q24 166 -113 166q-92 0 -153 -89.5t-89 -295.5zM778 303l4 4zM774 297q-61 -81 -121 -125l125 131z
" />
    <glyph glyph-name="uni2116" unicode="&#x2116;" horiz-adv-x="2289" 
d="M2009 1499q145 0 217.5 -98t52.5 -258q-21 -147 -114.5 -238.5t-233.5 -91.5q-145 0 -217 97t-51 251q22 152 116.5 245t229.5 93zM1260 1481h178l-201 -1481h-158l-612 1180l-160 -1180h-178l201 1481h168l606 -1166zM2011 1403q-89 0 -145.5 -68t-71.5 -186
q-17 -117 17 -179.5t118 -62.5q90 0 147 68.5t74 191.5q14 111 -21 173.5t-118 62.5z" />
    <glyph glyph-name="uni2117" unicode="&#x2117;" horiz-adv-x="1624" 
d="M741 -20q-151 0 -280 61t-214 164t-124 245.5t-17 299.5q20 153 96 292.5t187 239.5t253.5 159.5t291.5 59.5q150 0 279 -61.5t214.5 -165t125 -246t18.5 -297.5q-28 -206 -149.5 -379t-302 -272.5t-378.5 -99.5zM743 104q169 0 319 79t253 227.5t129 339.5
q19 139 -12.5 258t-101.5 200t-173 126.5t-225 45.5q-171 0 -322 -81t-252.5 -230.5t-126.5 -337.5q-26 -187 34.5 -331t185.5 -220t292 -76zM522 340l111 793h297q130 0 201.5 -59t58.5 -175q-18 -122 -99.5 -185t-205.5 -63h-191l-43 -311h-129zM707 754h180q65 0 114 40
t58 103q10 73 -29.5 103t-111.5 30h-173z" />
    <glyph glyph-name="uni2120" unicode="&#x2120;" horiz-adv-x="1875" 
d="M342 -12q-115 0 -196 44t-119 130l92 59q43 -72 91 -102.5t138 -30.5q98 0 160 35t72 110q7 49 -16.5 86t-94.5 66l-178 66q-90 32 -128.5 92t-29.5 135q17 118 111.5 189t232.5 71q193 0 279 -141l-90 -62q-69 105 -201 105q-88 0 -145 -40t-66 -110q-10 -98 108 -141
l170 -60q193 -69 168 -241q-17 -122 -112.5 -191t-245.5 -69zM827 0l125 926h152l168 -774l383 774h151l-127 -926h-114l102 752l-362 -752h-107l-158 743l-100 -743h-113z" />
    <glyph glyph-name="trademark" unicode="&#x2122;" horiz-adv-x="1810" 
d="M61 821l15 105h674l-15 -105h-272l-113 -821h-110l112 821h-291zM760 0l127 926h151l168 -774l383 774h152l-127 -926h-115l103 752l-363 -752h-106l-158 743l-101 -743h-114z" />
    <glyph glyph-name="uni2126" unicode="&#x2126;" horiz-adv-x="1490" 
d="M864 1346q-136 0 -246 -76t-175.5 -201.5t-86.5 -282.5q-8 -55 -7.5 -107.5t6.5 -96t19 -86t27 -75.5t35.5 -67.5t38.5 -58t41 -50.5t39.5 -42.5l36.5 -36.5q36 -22 29 -57l-15 -109h-506l23 160h319q-105 85 -165 170q-157 219 -115 499q18 131 75.5 251t146 214.5
t215 150.5t271.5 56q100 0 186 -27t147 -75t107.5 -113.5t69.5 -142t32 -161t-5 -169.5q-9 -67 -29.5 -132t-45 -116t-59.5 -102t-63.5 -85.5t-66.5 -72.5t-59.5 -57t-52 -43.5t-34.5 -28.5q-26 -15 -2 -16h273l-23 -160h-506l25 162q388 255 442 647q17 110 1.5 207.5
t-55 171t-114 116t-174.5 42.5z" />
    <glyph glyph-name="estimated" unicode="&#x212e;" horiz-adv-x="1624" 
d="M1393 303q-132 -148 -301.5 -235.5t-350.5 -87.5q-151 0 -280 61t-214 164t-124 245.5t-17 299.5q20 153 96 292.5t187 239.5t253.5 159.5t291.5 59.5q148 0 276.5 -59.5t215 -159.5t127.5 -237.5t22 -286.5q-1 -12 -6 -15.5t-17 -3.5h-1073l-80 -583q132 -103 338 -103
q149 0 294 70.5t245 179.5h117zM940 1421q-197 0 -358 -98q-24 -9 -31 -37l-62 -467h701l70 520q-141 82 -320 82z" />
    <glyph glyph-name="uni2153" unicode="&#x2153;" horiz-adv-x="1855" 
d="M186 565l107 797l-182 -64l10 88l231 111h74l-125 -932h-115zM1495 1497l-1167 -1505l-129 2l1167 1503h129zM1212 803q52 62 138 98.5t174 36.5q135 0 210.5 -67t61.5 -171q-21 -148 -201 -211q89 -25 134.5 -86.5t33.5 -150.5q-17 -119 -124 -194.5t-259 -75.5
q-195 0 -297 147l93 64q45 -62 98.5 -88.5t126.5 -26.5q101 0 165.5 47t73.5 123q13 84 -45.5 132t-150.5 50h-123l14 96l101 2q92 0 161 48t78 118q8 64 -37.5 106t-124.5 42q-69 0 -123.5 -26t-111.5 -81z" />
    <glyph glyph-name="uni2154" unicode="&#x2154;" horiz-adv-x="2017" 
d="M45 571l14 99l328 293q122 103 170 162.5t57 125.5q11 82 -36 123t-117 41q-146 0 -238 -131l-78 51q133 181 338 181q127 0 196.5 -71t51.5 -194q-10 -79 -59.5 -145.5t-171.5 -177.5l-283 -256h447l-15 -101h-604zM1657 1497l-1168 -1505l-129 2l1168 1503h129z
M1374 803q52 62 138 98.5t174 36.5q135 0 210.5 -67t61.5 -171q-21 -148 -201 -211q89 -25 134.5 -86.5t33.5 -150.5q-17 -119 -124 -194.5t-259 -75.5q-195 0 -297 147l92 64q45 -62 98.5 -88.5t127.5 -26.5q101 0 165.5 47t73.5 123q13 84 -45.5 132t-150.5 50h-123l14 96
l100 2q92 0 161.5 48t78.5 118q8 64 -37.5 106t-126.5 42q-68 0 -122.5 -26t-110.5 -81z" />
    <glyph glyph-name="oneeighth" unicode="&#x215b;" horiz-adv-x="1873" 
d="M186 565l107 797l-182 -64l10 88l231 111h74l-125 -932h-115zM1495 1497l-1167 -1505l-129 2l1167 1503h129zM1507 936q133 0 206.5 -71t58.5 -185q-6 -47 -28.5 -87.5t-52 -65t-50 -37.5t-35.5 -19l26 -13t36.5 -20t34.5 -28t32.5 -41t16.5 -55t1 -74
q-17 -119 -120.5 -189.5t-258.5 -70.5q-153 0 -232.5 64t-62.5 179q8 67 58 129t141 103q-12 5 -23.5 11t-32.5 24t-35 39.5t-22.5 58t-3.5 78.5q17 116 114 193t232 77zM1497 842q-82 0 -142.5 -47t-70.5 -119q-16 -112 102 -139l117 -31q36 -10 93.5 49t66.5 125
q9 72 -35.5 117t-130.5 45zM1395 72q97 0 161 44.5t74 119.5q6 57 -19.5 91.5t-88.5 51.5l-148 39q-24 6 -63.5 -15t-75.5 -66.5t-43 -98.5q-11 -78 41.5 -122t161.5 -44z" />
    <glyph glyph-name="threeeighths" unicode="&#x215c;" horiz-adv-x="2066" 
d="M209 1380q54 62 139 99t174 37q134 0 209.5 -67t63.5 -171q-21 -147 -203 -211q89 -26 135 -88t33 -150q-15 -118 -123 -194t-260 -76q-194 0 -297 148l92 63q47 -62 99.5 -88.5t125.5 -26.5q101 0 166 47t74 123q13 85 -45.5 133t-151.5 50h-121l13 96l100 2
q92 0 161.5 48t78.5 118q8 63 -37.5 105t-124.5 42q-70 0 -125 -25.5t-111 -80.5zM1688 1497l-1168 -1505l-129 2l1168 1503h129zM1700 936q133 0 206 -71t58 -185q-6 -47 -28.5 -87.5t-52 -65t-50 -37.5t-35.5 -19q3 -2 25 -13.5t35.5 -19.5t35 -28t32.5 -41t18 -55t2 -74
q-17 -119 -120.5 -189.5t-258.5 -70.5q-153 0 -232.5 64t-62.5 179q8 67 57.5 129t140.5 103q-12 5 -23 11.5t-32 24t-35 39t-22.5 58t-3.5 78.5q18 116 114 193t232 77zM1690 842q-82 0 -142.5 -47t-70.5 -119q-8 -54 17.5 -90t82.5 -49l119 -31q36 -10 93 49t66 125
q9 72 -35 117t-130 45zM1587 72q97 0 161.5 44.5t74.5 119.5q6 56 -19.5 91t-89.5 52l-147 39q-24 6 -64 -15t-76 -67t-43 -98q-11 -78 41.5 -122t161.5 -44z" />
    <glyph glyph-name="fiveeighths" unicode="&#x215d;" horiz-adv-x="2068" 
d="M276 1497h541l-20 -100h-441l-63 -307q63 33 111.5 49t109.5 16q132 0 207.5 -72.5t56.5 -212.5q-21 -148 -127.5 -232.5t-261.5 -84.5q-100 0 -180 38.5t-127 108.5l90 66q52 -62 97 -90.5t118 -28.5q112 0 184 61t84 158q12 93 -37.5 143t-138.5 50q-38 0 -79 -12
t-67 -25t-65 -35q-6 -3 -7.5 -4t-4 -1t-3 0.5t-3 2.5t-4.5 4l-70 43zM1690 1497l-1168 -1505l-129 2l1168 1503h129zM1702 936q133 0 206 -71t58 -185q-6 -47 -28.5 -87.5t-52 -65t-50 -37.5t-35.5 -19q3 -2 25 -13.5t35.5 -19.5t35 -28t32.5 -41t18 -55t2 -74
q-17 -119 -120.5 -189.5t-258.5 -70.5q-153 0 -232.5 64t-62.5 179q8 67 58 129t141 103q-12 5 -23.5 11t-32.5 24t-35 39.5t-22.5 58t-3.5 78.5q18 116 114 193t232 77zM1692 842q-82 0 -142.5 -47t-70.5 -119q-8 -54 17.5 -90t82.5 -49l119 -31q36 -10 93.5 49t66.5 125
q9 72 -35.5 117t-130.5 45zM1589 72q97 0 161.5 44.5t74.5 119.5q6 56 -19.5 91t-89.5 52l-147 39q-24 6 -64 -15t-76 -67t-43 -98q-11 -78 41.5 -122t161.5 -44z" />
    <glyph glyph-name="seveneighths" unicode="&#x215e;" horiz-adv-x="1996" 
d="M1618 1497l-1167 -1505l-129 2l1167 1503h129zM195 1495h632l-16 -117q-142 -169 -280.5 -418t-176.5 -397h-123q47 160 169.5 393t295.5 439h-514zM1630 936q133 0 206 -71t58 -185q-6 -47 -28.5 -87.5t-52 -65t-49.5 -37.5t-35 -19q3 -2 25 -13.5t35.5 -19.5t34.5 -28
t32 -41t18 -55t2 -74q-17 -119 -120.5 -189.5t-258.5 -70.5q-153 0 -232.5 64t-62.5 179q8 67 58 129t141 103q-12 5 -23.5 11t-32.5 24t-35 39.5t-22.5 58t-3.5 78.5q18 116 114 193t232 77zM1620 842q-82 0 -142.5 -47t-70.5 -119q-8 -54 17.5 -90t82.5 -49l119 -31
q36 -10 93.5 49t66.5 125q9 72 -35.5 117t-130.5 45zM1518 72q97 0 161 44.5t74 119.5q6 57 -19.5 91.5t-88.5 51.5l-148 39q-24 6 -63.5 -15t-75.5 -66.5t-43 -98.5q-11 -78 41.5 -122t161.5 -44z" />
    <glyph glyph-name="partialdiff" unicode="&#x2202;" horiz-adv-x="1163" 
d="M317 1247l-47 129q57 53 165 89t222 36q252 0 370 -196.5t65 -573.5q-46 -356 -203 -553.5t-400 -197.5q-208 0 -318.5 137.5t-82.5 347.5q27 198 167 318t357 120q67 0 120 -15.5t83 -34t78 -56.5q18 -8 26.5 -0.5t10.5 22.5q33 252 -48.5 392.5t-273.5 140.5
q-48 0 -88.5 -8t-82 -28t-59 -30.5t-61.5 -38.5zM485 123h2q131 0 242.5 124.5t155.5 321.5q6 30 7 41.5t-5 30.5q-36 52 -114 87.5t-161 35.5q-134 0 -232 -94t-118 -236q-19 -133 45.5 -222t177.5 -89z" />
    <glyph glyph-name="emptyset" unicode="&#x2205;" horiz-adv-x="1146" 
d="M1106 1092l-131 -113q56 -113 39 -244q-15 -113 -83 -209.5t-169 -152.5t-211 -56q-142 0 -246 97l-147 -125l-68 84l148 125q-66 115 -48 256q25 173 159.5 294t303.5 121q159 0 258 -104l131 111zM289 735q-13 -102 24 -174l521 438q-71 68 -181 68q-131 0 -237.5 -98
t-126.5 -234zM915 754q12 88 -18 159l-516 -436q69 -57 170 -57q132 0 239.5 98.5t124.5 235.5z" />
    <glyph glyph-name="uni2206" unicode="&#x2206;" horiz-adv-x="1280" 
d="M-4 0l27 166l645 1317l200 -2l291 -1340l-18 -141h-1145zM207 158h764l-230 1120z" />
    <glyph glyph-name="product" unicode="&#x220f;" horiz-adv-x="1292" 
d="M1389 1481l-23 -158h-197l-180 -1323h-188l180 1323h-451l-178 -1323h-190l180 1323h-197l23 158h1221z" />
    <glyph glyph-name="summation" unicode="&#x2211;" horiz-adv-x="1044" 
d="M918 0h-938l20 129l508 616l-318 613l19 123h872l-20 -154h-639l311 -582l-489 -587h694z" />
    <glyph glyph-name="minus" unicode="&#x2212;" horiz-adv-x="1107" 
d="M1016 815l-21 -141h-845l20 139z" />
    <glyph glyph-name="radical" unicode="&#x221a;" horiz-adv-x="1255" 
d="M1415 1688l-786 -2018h-185l-204 922l-154 -57l-33 118l309 115l191 -905l702 1825h160z" />
    <glyph glyph-name="infinity" unicode="&#x221e;" horiz-adv-x="1445" 
d="M1346 555v-2q-21 -155 -122 -244.5t-231 -89.5q-51 0 -91 14t-73 45t-53 57.5t-51 74.5q-12 6 -16.5 3t-18.5 -20q-2 -1 -42 -38.5t-72.5 -62t-92 -49t-118.5 -24.5q-128 0 -206 95t-57 245q18 144 119 232t240 88q42 0 77.5 -9.5t59.5 -22.5t49 -39t40 -46.5t40 -56.5
q11 -9 19 -9t14 5.5t16 19.5q43 39 62.5 55.5t63 46.5t88 43t95.5 13q133 0 207 -89t54 -235zM381 354h6q61 0 126.5 47.5t113.5 108.5q23 25 25.5 38.5t-11.5 45.5q-82 158 -195 158q-83 0 -143 -58.5t-72 -148.5q-10 -85 32.5 -138t117.5 -53zM1073 752h-2
q-44 0 -92.5 -28.5t-78.5 -58t-75 -79.5q-38 -33 -20 -82q90 -150 211 -150q77 0 132 64t66 145q11 77 -27.5 133t-113.5 56z" />
    <glyph glyph-name="integral" unicode="&#x222b;" horiz-adv-x="866" 
d="M408 1305q27 198 123 300.5t241 102.5q82 0 129.5 -16t93.5 -54l-57 -133q-80 35 -156 35q-77 0 -132.5 -57t-69.5 -174q-28 -209 -47 -636.5t-44 -615.5q-27 -199 -123.5 -303t-238.5 -104q-79 0 -125.5 15.5t-95.5 51.5l59 138q81 -37 156 -37q74 0 128 57.5t68 175.5
q29 212 47.5 639.5t43.5 614.5z" />
    <glyph glyph-name="approxequal" unicode="&#x2248;" horiz-adv-x="1140" 
d="M1063 915q-43 -53 -110.5 -85.5t-149.5 -32.5q-52 0 -101 16.5t-81.5 35.5t-77.5 35.5t-88 16.5q-125 0 -232 -119l-47 119q76 63 137.5 95t139.5 32q51 0 101 -16.5t83.5 -36.5t78.5 -36.5t87 -16.5q70 0 119.5 31.5t93.5 84.5zM1010 512q-44 -53 -112.5 -86t-149.5 -33
q-54 0 -104.5 16.5t-83 36t-76.5 36t-87 16.5q-122 0 -229 -119l-47 121q77 62 138 93.5t136 31.5q52 0 102.5 -16.5t84.5 -37t79.5 -37t88.5 -16.5q119 0 211 117z" />
    <glyph glyph-name="notequal" unicode="&#x2260;" horiz-adv-x="1171" 
d="M1038 870h-247l-175 -311h379l-20 -139l-436 -2l-166 -293h-117l168 293h-297l20 139h355l178 313h-492l19 140l553 2l158 276h108l-156 -276h187z" />
    <glyph glyph-name="lessequal" unicode="&#x2264;" horiz-adv-x="1099" 
d="M963 635l-21 -162l-784 336l22 166l877 340l-25 -178l-651 -248zM922 258l-21 -139l-848 2l19 139z" />
    <glyph glyph-name="greaterequal" unicode="&#x2265;" horiz-adv-x="1103" 
d="M158 641l651 248l-584 254l23 168l782 -340l-22 -168l-873 -336zM100 258l846 2l-18 -139l-848 -2z" />
    <glyph glyph-name="lozenge" unicode="&#x25ca;" horiz-adv-x="970" 
d="M492 0h-140l-223 748l424 733h139l226 -748zM608 1335l-325 -598l155 -592l326 600z" />
    <glyph glyph-name="i.loclTRK" horiz-adv-x="514" 
d="M489 1481l-32 -240h-191l33 240h190zM420 1057l-146 -1057h-176l144 1057h178z" />
    <glyph glyph-name="g.001" horiz-adv-x="1171" 
d="M940 76q-14 -102 -52 -179t-87.5 -123t-115 -75t-126.5 -39t-131 -10q-139 0 -240.5 55t-158.5 135l94 80q46 -62 122 -100t167 -39q145 -2 239 64.5t111 195.5l20 127q-43 -66 -134.5 -118t-201.5 -52q-167 0 -266.5 109t-99.5 313q0 99 21 193.5t64.5 178.5t104 147.5
t145 100.5t181.5 37q85 0 162 -40t121 -126l22 146h174zM807 367l57 430q-29 69 -92 110t-135 41q-94 0 -170 -49.5t-120.5 -128.5t-67.5 -168.5t-23 -179.5q0 -148 69.5 -222.5t180.5 -74.5q110 0 200.5 78.5t100.5 163.5z" />
    <glyph glyph-name="l.ss01" horiz-adv-x="579" 
d="M131 0l205 1520h178l-205 -1520h-178z" />
    <glyph glyph-name="one.osf" horiz-adv-x="782" 
d="M285 0l170 1268l-291 -101l20 138l365 176h119l-201 -1481h-182z" />
    <glyph glyph-name="two.osf" horiz-adv-x="1161" 
d="M20 0l23 158l522 465q196 168 272 262t89 198q9 67 -9 118.5t-55 81t-82.5 44t-97.5 14.5q-235 0 -377 -208l-127 79q216 289 539 289q202 0 312 -112t83 -308q-18 -125 -97.5 -232.5t-273.5 -283.5l-448 -405h708l-20 -160h-961z" />
    <glyph glyph-name="three.osf" horiz-adv-x="1245" 
d="M252 1294q82 97 219 155t277 58q214 0 333 -106t99 -271q-33 -235 -322 -333q142 -42 215 -141t53 -238q-26 -189 -197.5 -310.5t-410.5 -121.5q-309 0 -473 237l145 101q74 -99 158 -141t201 -42q162 0 265 74.5t118 196.5q10 68 -11.5 123.5t-67 90.5t-106 54
t-129.5 20l-194 2l20 150l162 4q147 2 256.5 77.5t122.5 188.5q14 99 -59 166.5t-199 67.5q-110 0 -197 -42t-176 -130z" />
    <glyph glyph-name="four.osf" horiz-adv-x="1236" 
d="M885 1481h180l-127 -936h221l-22 -152h-219l-54 -393h-178l55 393h-667l20 160zM254 545h504l94 712z" />
    <glyph glyph-name="five.osf" horiz-adv-x="1288" 
d="M369 1481h860l-33 -158h-698l-105 -487q72 35 112 52t107.5 33.5t135.5 16.5q99 0 180.5 -27.5t140.5 -81t85.5 -142t10.5 -202.5q-32 -235 -202 -370t-414 -135q-159 0 -287.5 61t-204.5 174l146 104q79 -98 152 -143t190 -45q177 0 291 96.5t135 251.5
q19 148 -60 226.5t-219 78.5q-61 0 -127 -19.5t-104.5 -38.5t-106.5 -56q-9 -5 -14 -6t-7 -0.5t-6.5 4t-9.5 6.5l-110 67z" />
    <glyph glyph-name="six.osf" horiz-adv-x="1243" 
d="M811 1499q141 0 234 -65t131 -160l-162 -66q-38 68 -88.5 103t-130.5 35q-189 0 -315 -152.5t-152 -421.5q152 69 230.5 92t166.5 23q217 0 326 -122.5t84 -313.5q-29 -207 -191 -338t-377 -131q-257 0 -374 194.5t-70 542.5q50 365 232.5 572.5t455.5 207.5zM676 739
q-73 0 -169.5 -26.5t-158.5 -63.5q-23 -15 -33 -32.5t-14 -53.5q-9 -47 -4.5 -97t14.5 -98t34.5 -91.5t57 -76.5t80.5 -52t105 -19q130 0 230.5 90.5t117.5 224.5q19 127 -52.5 211t-207.5 84z" />
    <glyph glyph-name="seven.osf" horiz-adv-x="1146" 
d="M209 1481h1003l-26 -187q-226 -270 -445.5 -665.5t-277.5 -628.5h-199q33 112 94.5 257.5t152 322t220 374t273.5 369.5h-818z" />
    <glyph glyph-name="eight.osf" horiz-adv-x="1241" 
d="M750 1501q212 0 327 -113t90 -296q-8 -60 -35 -114.5t-57.5 -88.5t-70 -64t-61 -42t-40.5 -21q7 -4 26 -13q45 -22 73 -40.5t70 -60t59 -106.5t6 -149q-26 -189 -190 -301t-410 -112q-242 0 -369 102t-102 285q14 109 93 206.5t224 161.5q-19 8 -37 18t-51.5 38.5
t-55.5 63t-35.5 92t-4.5 124.5q27 183 181 306.5t370 123.5zM731 1352q-129 0 -225 -75t-115 -190q-21 -176 162 -223l188 -47q36 -9 92 30t104.5 108.5t57.5 138.5q14 116 -57 187t-207 71zM567 129q155 0 256.5 69.5t118.5 188.5q11 90 -29.5 146t-140.5 83l-235 62
q-27 8 -72.5 -12t-90.5 -57t-82 -96t-46 -122q-19 -124 64.5 -193t256.5 -69z" />
    <glyph glyph-name="nine.osf" horiz-adv-x="1236" 
d="M483 -18q-146 0 -240.5 64.5t-136.5 160.5l162 65q38 -67 93 -102t143 -35q196 0 318 171t151 507q-63 -108 -168 -162.5t-236 -54.5q-216 0 -323 121t-82 313q18 137 99 244.5t202.5 166t261.5 58.5q254 0 370.5 -194.5t69.5 -542.5q-49 -365 -231.5 -572.5
t-452.5 -207.5zM616 741q131 0 237.5 76.5t123.5 188.5q-4 171 -72 258.5t-196 87.5q-129 0 -230.5 -91t-120.5 -223q-18 -128 53.5 -212.5t204.5 -84.5z" />
    <glyph glyph-name="zero.tf" horiz-adv-x="1388" 
d="M840 1501q237 0 358.5 -202t73.5 -562q-50 -359 -225.5 -557t-415.5 -198q-239 0 -360.5 198t-73.5 555q26 182 86.5 327.5t145.5 241t190 146.5t221 51zM655 135q162 0 270.5 146.5t149.5 455.5q43 311 -27 461t-231 150q-159 0 -270 -150.5t-154 -460.5
q-41 -307 29.5 -454.5t232.5 -147.5z" />
    <glyph glyph-name="one.tf" horiz-adv-x="1552" 
d="M915 174h414v-174h-1032v174h428v1108l-414 -160v168l492 193h112v-1309z" />
    <glyph glyph-name="two.tf" horiz-adv-x="1398" 
d="M174 0l23 158l522 465q133 114 202 184t109 137t49 139q9 67 -9 118.5t-55 81t-82.5 44t-96.5 14.5q-235 0 -377 -208l-127 79q216 289 538 289q202 0 312.5 -112t81.5 -308q-17 -125 -96 -232.5t-273 -283.5l-449 -405h709l-20 -160h-961z" />
    <glyph glyph-name="three.tf" horiz-adv-x="1366" 
d="M340 1286q82 98 219 156.5t277 58.5q215 0 334.5 -106.5t97.5 -270.5q-33 -234 -320 -336q141 -41 213.5 -139t52.5 -239q-26 -188 -196.5 -309t-411.5 -121q-309 0 -473 235l146 102q74 -98 158.5 -140t201.5 -42q162 0 264 73.5t117 194.5q11 68 -11 124t-67 91.5
t-106 54.5t-129 19l-193 2l21 152l159 2q148 3 257 78t124 188q12 100 -61 168t-197 68q-111 0 -197.5 -42t-177.5 -130z" />
    <glyph glyph-name="four.tf" horiz-adv-x="1386" 
d="M991 1481h180l-129 -936h224l-23 -152h-219l-53 -393h-178l53 393h-666l21 160zM360 545h504l94 712z" />
    <glyph glyph-name="five.tf" horiz-adv-x="1384" 
d="M444 1481h861l-31 -158h-701l-102 -487q72 35 111.5 52t107 33.5t135.5 16.5q99 0 180.5 -27.5t141 -81t86 -142t10.5 -202.5q-32 -235 -202 -370t-416 -135q-158 0 -286 61t-204 174l146 104q39 -48 69.5 -78t71 -57.5t89.5 -40t110 -12.5q178 0 292.5 96.5t135.5 251.5
q19 148 -60 226.5t-221 78.5q-60 0 -125.5 -19.5t-104 -38.5t-106.5 -56q-9 -4 -14.5 -5.5t-7 -1t-7 4.5t-8.5 6l-110 67z" />
    <glyph glyph-name="six.tf" horiz-adv-x="1404" 
d="M903 1499q141 0 233 -64.5t132 -160.5l-162 -66q-38 68 -89 103t-132 35q-188 0 -313.5 -152.5t-153.5 -421.5q154 69 232.5 92t164.5 23q219 0 328 -122.5t82 -313.5q-19 -137 -100.5 -244.5t-203.5 -166t-262 -58.5q-257 0 -374 194.5t-70 542.5q50 365 232.5 572.5
t455.5 207.5zM768 739q-74 0 -170 -26.5t-158 -63.5q-24 -15 -33.5 -31.5t-15.5 -54.5q-8 -47 -3.5 -97t14.5 -98t34.5 -91.5t57 -76.5t80.5 -52t106 -19q130 0 229.5 90.5t118.5 224.5q19 126 -53 210.5t-207 84.5z" />
    <glyph glyph-name="seven.tf" horiz-adv-x="1411" 
d="M262 1481h1088v-187q-190 -271 -357 -666.5t-192 -627.5h-207q17 111 59 255t108 318t168.5 369.5t223.5 368.5h-891v170z" />
    <glyph glyph-name="eight.tf" horiz-adv-x="1388" 
d="M842 1501q212 0 328 -113t90 -296q-8 -60 -35 -114t-58 -89t-69.5 -64.5t-61 -42t-41.5 -20.5q7 -4 24 -12q46 -22 74.5 -40.5t71.5 -59.5t60 -106.5t6 -150.5q-28 -190 -191.5 -301.5t-410.5 -111.5q-242 0 -368.5 102t-100.5 285q14 109 93 206.5t224 161.5
q-19 8 -37 18t-51.5 38.5t-55.5 63t-35.5 92t-4.5 124.5q25 183 179 306.5t370 123.5zM825 1352q-129 0 -226 -75t-114 -190q-21 -176 162 -223l187 -47q36 -9 92.5 30t104 108.5t56.5 138.5q15 116 -55.5 187t-206.5 71zM662 129q155 0 256 70t116 188q11 91 -29 146.5
t-141 82.5l-233 62q-27 8 -72.5 -12t-91 -57t-82.5 -96t-45 -122q-19 -124 64.5 -193t257.5 -69z" />
    <glyph glyph-name="nine.tf" horiz-adv-x="1398" 
d="M584 -18q-146 0 -240.5 64.5t-136.5 160.5l162 65q38 -68 92.5 -102.5t142.5 -34.5q196 0 318 171t149 507q-62 -108 -166 -162.5t-235 -54.5q-217 0 -325 121t-81 313q18 137 98.5 244.5t202 166t262.5 58.5q254 0 371 -194.5t70 -542.5q-51 -365 -232.5 -572.5
t-451.5 -207.5zM717 741q131 0 237 76.5t121 188.5q-3 171 -70.5 258.5t-195.5 87.5q-130 0 -230.5 -90.5t-119.5 -223.5q-18 -128 53.5 -212.5t204.5 -84.5z" />
    <glyph glyph-name="zero.subs" horiz-adv-x="819" 
d="M379 596q150 0 226 -126.5t46 -354.5q-32 -225 -141.5 -350t-261.5 -125q-151 0 -227 124.5t-46 350.5q31 226 142.5 353.5t261.5 127.5zM264 -262q213 0 262 377q28 196 -15 290.5t-144 94.5t-171.5 -95t-97.5 -290q-25 -193 19.5 -285t146.5 -92z" />
    <glyph glyph-name="one.subs" horiz-adv-x="604" 
d="M59 -338l107 797l-182 -64l10 88l231 111h74l-125 -932h-115z" />
    <glyph glyph-name="two.subs" horiz-adv-x="761" 
d="M-82 -338l14 98l328 293q122 102 170 162.5t57 126.5q11 82 -36 123t-117 41q-146 0 -238 -131l-78 51q132 180 338 180q128 0 197 -70.5t51 -193.5q-10 -79 -59.5 -146.5t-171.5 -177.5l-283 -256h447l-15 -100h-604z" />
    <glyph glyph-name="three.subs" horiz-adv-x="772" 
d="M80 465q53 62 138.5 98.5t174.5 36.5q134 0 209.5 -67t63.5 -171q-20 -146 -203 -210q89 -26 135 -88t33 -150q-15 -118 -123 -194t-260 -76q-195 0 -297 147l92 64q47 -62 99.5 -88.5t125.5 -26.5q101 0 166 47t74 123q13 85 -45.5 132.5t-151.5 49.5h-121l13 96l100 2
q92 0 161.5 48t78.5 118q8 64 -37.5 106t-124.5 42q-69 0 -124.5 -26t-111.5 -81z" />
    <glyph glyph-name="four.subs" horiz-adv-x="819" 
d="M469 594h113l-80 -590h139l-14 -94h-138l-34 -248h-111l35 248h-420l12 100zM72 4h317l60 449z" />
    <glyph glyph-name="five.subs" horiz-adv-x="786" 
d="M147 588h541l-18 -101h-441l-65 -307q43 22 69.5 33.5t68.5 22t85 10.5q130 0 205.5 -72.5t56.5 -212.5q-20 -148 -127 -232.5t-262 -84.5q-99 0 -179.5 38.5t-127.5 108.5l90 66q52 -62 97 -90.5t118 -28.5q112 0 184 61t84 158q13 93 -37 143t-139 50q-38 0 -79 -12.5
t-65 -24t-67 -35.5q-6 -3 -7.5 -4t-4 -1t-3 0.5t-3 2.5t-4.5 4l-70 43z" />
    <glyph glyph-name="six.subs" horiz-adv-x="804" 
d="M401 596q88 0 146.5 -41t83.5 -100l-103 -43q-24 43 -55 64.5t-82 21.5q-119 0 -198.5 -96t-96.5 -265q96 43 145.5 57.5t104.5 14.5q137 0 205 -76t53 -196q-19 -131 -120 -214t-236 -83q-162 0 -236 122.5t-43 341.5q31 229 146 360.5t286 131.5zM317 117
q-48 0 -108 -17t-98 -41q-15 -9 -21.5 -19.5t-9.5 -33.5q-6 -46 1 -93t27.5 -87.5t60 -66t93.5 -25.5q82 0 144 56.5t73 139.5q12 80 -32.5 133.5t-129.5 53.5z" />
    <glyph glyph-name="seven.subs" horiz-adv-x="718" 
d="M70 594h630l-16 -117q-142 -171 -281 -420t-174 -395h-125q47 158 170 391.5t295 440.5h-514z" />
    <glyph glyph-name="eight.subs" horiz-adv-x="788" 
d="M377 600q133 0 205 -71t57 -185q-6 -47 -28.5 -87.5t-52 -65t-50 -37.5t-35.5 -19l26 -13t36.5 -20t34.5 -28t33 -41t17 -55t1 -74q-17 -120 -120 -190t-259 -70q-152 0 -231 63.5t-64 179.5q10 68 59.5 130t140.5 102q-16 6 -32.5 17t-41.5 35t-37 65.5t-5 93.5
q15 115 112.5 192.5t233.5 77.5zM365 506q-80 0 -141.5 -47t-71.5 -119q-12 -112 102 -139l117 -31q36 -10 93 49t66 125q9 72 -35 117t-130 45zM262 -264q98 0 161.5 44.5t74.5 119.5q6 57 -19 91.5t-88 51.5l-147 39q-24 6 -64 -15t-77 -66.5t-44 -98.5q-11 -78 41.5 -122
t161.5 -44z" />
    <glyph glyph-name="nine.subs" horiz-adv-x="804" 
d="M205 -360q-92 0 -151.5 40.5t-86.5 100.5l103 43q48 -88 147 -88q124 0 200.5 107.5t94.5 320.5q-39 -68 -105 -102.5t-147 -34.5q-137 0 -205.5 76t-50.5 196q17 131 118 214t236 83q159 0 233.5 -123t43.5 -342q-31 -230 -145.5 -360.5t-284.5 -130.5zM289 119
q81 0 148.5 48.5t76.5 117.5q-1 107 -44.5 162t-123.5 55q-82 0 -145.5 -57t-75.5 -140q-11 -81 34 -133.5t130 -52.5z" />
    <glyph glyph-name="zero.dnom" horiz-adv-x="819" 
d="M426 934q150 0 226 -126.5t46 -354.5q-32 -225 -142 -350.5t-261 -125.5q-150 0 -226 125t-46 351q32 226 142.5 353.5t260.5 127.5zM311 76q213 0 262 377q28 196 -15 290.5t-144 94.5t-171.5 -95t-97.5 -290q-25 -193 19.5 -285t146.5 -92z" />
    <glyph glyph-name="one.dnom" horiz-adv-x="602" 
d="M106 0l107 797l-182 -64l10 88l231 111h74l-125 -932h-115z" />
    <glyph glyph-name="two.dnom" horiz-adv-x="761" 
d="M-35 0l15 98l327 293q122 103 170.5 163t57.5 126q11 82 -36.5 123t-117.5 41q-146 0 -238 -131l-77 51q132 180 337 180q128 0 197 -70.5t51 -193.5q-10 -79 -59.5 -146.5t-171.5 -177.5l-283 -256h447l-15 -100h-604z" />
    <glyph glyph-name="three.dnom" horiz-adv-x="770" 
d="M127 803q53 62 138.5 98.5t174.5 36.5q134 0 209.5 -67t63.5 -171q-21 -147 -203 -211q89 -26 135 -87.5t33 -149.5q-15 -118 -123 -194t-260 -76q-195 0 -297 147l92 64q47 -62 99.5 -88.5t125.5 -26.5q101 0 166 47t74 123q13 85 -45.5 132.5t-151.5 49.5h-120l12 96
l100 2q92 0 161.5 48t78.5 118q8 64 -37.5 106t-124.5 42q-69 0 -123.5 -26t-111.5 -81z" />
    <glyph glyph-name="four.dnom" horiz-adv-x="819" 
d="M518 932h113l-80 -590h139l-14 -94h-137l-35 -248h-111l33 248h-420l14 100zM121 342h317l60 449z" />
    <glyph glyph-name="five.dnom" horiz-adv-x="786" 
d="M195 926h540l-18 -101h-441l-65 -307q43 22 69.5 33.5t68.5 22t85 10.5q130 0 205.5 -72.5t56.5 -212.5q-20 -148 -127 -232.5t-262 -84.5q-99 0 -179.5 38.5t-127.5 108.5l90 66q52 -62 97 -90.5t118 -28.5q112 0 184 61t84 158q13 93 -37 142.5t-139 49.5
q-38 0 -79 -12t-66 -24t-66 -35q-6 -3 -7.5 -4t-4 -1t-3 0.5t-3 2.5t-4.5 4l-70 43z" />
    <glyph glyph-name="six.dnom" horiz-adv-x="806" 
d="M451 934q88 0 146 -41t83 -100l-102 -43q-25 43 -57 64.5t-83 21.5q-118 0 -197 -96t-96 -265q94 43 144.5 57.5t105.5 14.5q137 0 205 -76t53 -197q-19 -130 -120.5 -213.5t-235.5 -83.5q-161 0 -235.5 123t-45.5 342q31 229 147 360.5t288 131.5zM365 455
q-46 0 -107 -17t-100 -41q-14 -9 -20 -19.5t-9 -33.5q-6 -46 1 -93t27.5 -87.5t59.5 -66t92 -25.5q83 0 145.5 56.5t73.5 139.5q12 79 -33 133t-130 54z" />
    <glyph glyph-name="seven.dnom" horiz-adv-x="718" 
d="M117 932h631l-17 -117q-142 -171 -281 -420t-174 -395h-124q47 159 169.5 391.5t294.5 439.5h-514z" />
    <glyph glyph-name="eight.dnom" horiz-adv-x="788" 
d="M424 936q133 0 205 -71t57 -185q-6 -47 -28.5 -87.5t-52 -65t-50 -37.5t-35.5 -19l26 -13t36.5 -20t34.5 -28t33 -41t17 -55t1 -74q-17 -120 -120 -190t-259 -70q-152 0 -231 63.5t-64 179.5q10 68 60 130t141 102q-12 5 -24 11.5t-33 24t-35 39t-22.5 58t-2.5 78.5
q15 115 112.5 192.5t233.5 77.5zM412 842q-80 0 -141.5 -47t-71.5 -119q-12 -112 102 -139l117 -31q36 -10 93.5 49t66.5 125q9 72 -35.5 117t-130.5 45zM309 72q98 0 161.5 44.5t74.5 119.5q6 57 -19 91.5t-88 51.5l-147 39q-24 6 -64 -15t-77 -66.5t-44 -98.5
q-11 -78 41.5 -122t161.5 -44z" />
    <glyph glyph-name="nine.dnom" horiz-adv-x="802" 
d="M252 -23q-92 0 -151.5 41t-86.5 101l103 43q48 -88 147 -88q124 0 200.5 107.5t94.5 320.5q-39 -68 -105 -102.5t-147 -34.5q-137 0 -205.5 76t-50.5 196q17 130 118.5 213.5t236.5 83.5q159 0 233 -123t43 -342q-31 -230 -145.5 -361t-284.5 -131zM336 457
q81 0 148.5 48.5t76.5 117.5q-1 107 -44.5 162t-123.5 55q-82 0 -145.5 -57t-75.5 -140q-11 -81 34 -133.5t130 -52.5z" />
    </font>
</defs>
</svg>
