<?xml version="1.0" standalone="no"?>
<!DOCTYPE svg PUBLIC "-//W3C//DTD SVG 1.1//EN" "http://www.w3.org/Graphics/SVG/1.1/DTD/svg11.dtd" >
<svg xmlns="http://www.w3.org/2000/svg" xmlns:xlink="http://www.w3.org/1999/xlink" version="1.1">
<metadata>
Created by FontForge 20201107 at Thu Jun 12 13:50:20 2025
 By 
copyright missing
</metadata>
<defs>
<font id="PublicSans-Light" horiz-adv-x="1179" >
  <font-face 
    font-family="Public Sans Light"
    font-weight="300"
    font-stretch="normal"
    units-per-em="2048"
    panose-1="0 0 4 0 0 0 0 0 0 0"
    ascent="1597"
    descent="-451"
    x-height="1059"
    cap-height="1481"
    bbox="-725 -475 2566 2019"
    underline-thickness="102"
    underline-position="-204"
    unicode-range="U+000D-FB02"
  />
<missing-glyph horiz-adv-x="1419" 
d="M1186 1692q35 0 35 -43v-1921q0 -31 -15.5 -44.5t-50.5 -13.5h-893q-31 0 -43 11.5t-12 37.5v1926q0 47 39 47h940zM1118 1556q0 15 -9 25t-22 10h-704l735 -1708v1673zM311 -188q0 -21 10 -31t35 -10h686l-731 1695v-1654z" />
    <glyph glyph-name="fi" unicode="fi" horiz-adv-x="1337" 
d="M1161 1522v-228h-164v228h164zM731 1059v-113h-268v-946h-150v946h-233v113h233v168q0 254 246 254h182v-111h-163q-65 0 -91 -36t-26 -111v-164h270zM1155 1059v-1059h-151v1059h151z" />
    <glyph glyph-name="fl" unicode="fl" horiz-adv-x="1431" 
d="M1233 -12q-70 0 -119.5 21.5t-75 62t-36.5 87t-11 105.5v1258h148v-1248q0 -84 32 -126.5t86 -45.5h62v-100q-51 -14 -86 -14zM731 1059v-113h-268v-946h-150v946h-233v113h233v168q0 254 246 254h182v-111h-163q-65 0 -91 -36t-26 -111v-164h270z" />
    <glyph glyph-name="f_f.liga" unicode="ff" horiz-adv-x="1617" 
d="M1520 1059v-113h-271v-946h-149v946h-236v113h236v168q0 254 246 254h184v-111h-164q-66 0 -92.5 -35.5t-26.5 -111.5v-164h273zM727 1059v-113h-270v-946h-150v946h-235v113h235v160q0 251 244 251h184v-110h-164q-65 0 -90.5 -35.5t-25.5 -112.5v-153h272z" />
    <glyph glyph-name="colon_one_eight_F_colon.liga" unicode="&#x3a;&#x31;&#x38;F&#x3a;" horiz-adv-x="1574" 
d="M33 1559h1511q23 0 23 -25v-1507q0 -12 -7 -19.5t-16 -7.5h-1511q-23 0 -23 27v1507q0 25 23 25zM762 479q72 0 124 52t52 124q0 91 -76 144q53 50 53 119q0 63 -45 108t-108 45q-67 0 -111.5 -44.5t-44.5 -108.5q0 -63 56 -119q-76 -51 -76 -144q0 -72 51.5 -124
t124.5 -52zM500 498v557q0 10 -8 10h-140q-6 0 -6 -10v-54q0 -8 6 -8h76v-495q0 -9 6 -9h58q8 0 8 9zM1255 1001v54q0 10 -8 10h-215q-8 0 -8 -10v-557q0 -9 8 -9h53q13 0 13 9v254h125q6 0 6 8v51q0 10 -6 10h-125v172h149q8 0 8 8zM762 836q-36 0 -61 23t-25 59
q0 35 25 59t61 24q35 0 59.5 -24t24.5 -59q0 -36 -24 -59t-60 -23zM762 760q44 0 74 -30.5t30 -74.5q0 -43 -30 -73.5t-74 -30.5q-43 0 -74 30.5t-31 73.5q0 44 31 74.5t74 30.5z" />
    <glyph glyph-name="colon_f_l_a_g_two_colon.liga" unicode="&#x3a;flag&#x32;&#x3a;" horiz-adv-x="2363" 
d="M90 1559h2183v-1557h-2183v1557zM2146 1321v109h-1095v-109h1095zM283 1198h129v121h-129v-121zM766 1198h125v121h-125v-121zM526 1079h125v119h-125v-119zM1051 1081h1095v113h-1095v-113zM287 958h125v121h-125v-121zM891 1079h-125v-121h125v121zM651 958h-125v-118
h125v118zM1051 842h1095v112h-1095v-112zM412 840h-125v-121h125v121zM891 840h-125v-121h125v121zM1051 602h1095v113h-1095v-113zM2146 475h-1931v-113h1931v113zM217 129h1929v107h-1929v-107z" />
    <glyph glyph-name="colon_f_l_a_g_colon.liga" unicode="&#x3a;flag&#x3a;" horiz-adv-x="2363" 
d="M90 1559h2183v-1557h-2183v1557zM2154 1438h-1945v-838h1945v119h-1105v121h1105v118h-1105v121h1105v119h-1105v121h1105v119zM449 1319v-121h-119v121h119zM928 1319v-121h-119v121h119zM688 1198v-119h-119v119h119zM449 1079v-121h-119v121h119zM928 1079v-121h-119
v121h119zM688 958v-118h-119v118h119zM449 840v-121h-119v121h119zM928 840v-121h-119v121h119zM2154 479h-1945v-119h1945v119zM209 121h1945v119h-1945v-119z" />
    <glyph glyph-name=".notdef" horiz-adv-x="1419" 
d="M1186 1692q35 0 35 -43v-1921q0 -31 -15.5 -44.5t-50.5 -13.5h-893q-31 0 -43 11.5t-12 37.5v1926q0 47 39 47h940zM1118 1556q0 15 -9 25t-22 10h-704l735 -1708v1673zM311 -188q0 -21 10 -31t35 -10h686l-731 1695v-1654z" />
    <glyph glyph-name="uni0000" horiz-adv-x="63" 
 />
    <glyph glyph-name="nonmarkingreturn" horiz-adv-x="682" 
 />
    <glyph glyph-name="CR" unicode="&#xd;" horiz-adv-x="485" 
 />
    <glyph glyph-name="space" unicode=" " horiz-adv-x="509" 
 />
    <glyph glyph-name="exclam" unicode="!" horiz-adv-x="505" 
d="M342 1481l-39 -1135h-104l-39 1135h182zM344 209v-209h-188v209h188z" />
    <glyph glyph-name="quotedbl" unicode="&#x22;" horiz-adv-x="825" 
d="M373 1481l-56 -445h-94l-51 445h201zM705 1481l-56 -445h-94l-51 445h201z" />
    <glyph glyph-name="numbersign" unicode="#" horiz-adv-x="1226" 
d="M1141 907h-236l-47 -319h217v-101h-233l-74 -489l-102 14l73 475h-311l-76 -489l-100 14l72 475h-242v101h258l47 319h-240v101h256l72 475l103 -13l-72 -462h311l74 475l100 -13l-69 -462h219v-101zM754 588l49 319h-311l-50 -319h312z" />
    <glyph glyph-name="dollar" unicode="$" horiz-adv-x="1337" 
d="M1204 375q0 -158 -123.5 -266t-324.5 -127v-203h-146v205q-197 15 -323.5 114.5t-153.5 268.5l158 14q35 -132 138 -200t257 -68q142 0 250 72.5t108 187.5q0 103 -60 167.5t-191 102.5l-261 72q-171 46 -261.5 133.5t-90.5 226.5q-2 170 120.5 285.5t324.5 134.5v211
h145v-211q180 -21 290 -135.5t118 -269.5l-154 -13q-49 289 -330 289q-90 0 -168 -29.5t-131 -94.5t-53 -155q0 -85 59.5 -135.5t216.5 -97.5l250 -76q336 -100 336 -403z" />
    <glyph glyph-name="percent" unicode="%" horiz-adv-x="1841" 
d="M465 1503q150 0 244 -114t94 -310t-93.5 -309t-244.5 -113q-152 0 -247 113t-95 309t95.5 310t246.5 114zM1513 1497l-995 -1505h-110l999 1505h106zM463 745q103 0 163 91.5t60 242.5t-60 243.5t-163 92.5t-163 -93t-60 -243t60 -242t163 -92zM1376 827
q150 0 244 -114.5t94 -309.5q0 -196 -93.5 -309.5t-244.5 -113.5q-152 0 -248 113.5t-96 309.5q0 195 96 309.5t248 114.5zM1374 70q100 0 161.5 93.5t61.5 237.5q0 147 -62 241.5t-161 94.5q-100 0 -161.5 -94.5t-61.5 -241.5q0 -144 61.5 -237.5t161.5 -93.5z" />
    <glyph glyph-name="ampersand" unicode="&#x26;" horiz-adv-x="1400" 
d="M606 1503q161 0 275 -86.5t114 -226.5q0 -40 -14 -81.5t-49.5 -94.5t-111 -112.5t-183.5 -115.5l358 -419q46 57 90.5 166t51.5 249h143q-14 -152 -67 -270.5t-142 -237.5l236 -274h-177l-151 172q-208 -182 -455 -182q-206 0 -321 104.5t-115 278.5q0 140 83.5 246
t260.5 200q-94 99 -140 186t-46 181q0 135 101 226t259 91zM610 1393q-99 -1 -156 -59.5t-57 -139.5q0 -76 43 -151.5t92 -129.5l33 -36q167 95 228 166t61 145q0 55 -21 96t-57 64t-77.5 34t-88.5 11zM510 725q-122 -68 -191.5 -157.5t-66.5 -194.5q3 -116 89 -187t212 -71
q93 0 185.5 41t164.5 110z" />
    <glyph glyph-name="quotesingle" unicode="'" horiz-adv-x="512" 
d="M356 1481l-55 -445h-92l-53 445h200z" />
    <glyph glyph-name="parenleft" unicode="(" horiz-adv-x="606" 
d="M551 1481q-111 -210 -176.5 -446t-65.5 -468q0 -426 221 -897h-98q-137 234 -205.5 443.5t-68.5 455.5q0 244 79 479t214 433h100z" />
    <glyph glyph-name="parenright" unicode=")" horiz-adv-x="622" 
d="M37 1481h100q135 -198 214 -433t79 -479q0 -246 -68.5 -455.5t-205.5 -443.5h-101q224 471 224 897q0 232 -65.5 468t-176.5 446z" />
    <glyph glyph-name="asterisk" unicode="*" horiz-adv-x="761" 
d="M545 834l-156 249l-162 -258l-96 66l188 235l-258 74l35 100l248 -96l-18 277h120l-16 -277l250 105l31 -99l-252 -82l182 -225z" />
    <glyph glyph-name="plus" unicode="+" horiz-adv-x="1126" 
d="M987 805v-121h-364v-367h-121v365h-367v121h367v368h121v-366h364z" />
    <glyph glyph-name="comma" unicode="," horiz-adv-x="471" 
d="M88 -246l113 244l-84 2v205h213v-176l-162 -275h-80z" />
    <glyph glyph-name="hyphen" unicode="-" horiz-adv-x="782" 
d="M643 592v-123l-506 -2v123z" />
    <glyph glyph-name="period" unicode="." horiz-adv-x="444" 
d="M313 211v-211h-188v211h188z" />
    <glyph glyph-name="slash" unicode="/" horiz-adv-x="700" 
d="M31 -94l512 1575h125l-512 -1575h-125z" />
    <glyph glyph-name="zero" unicode="0" horiz-adv-x="1302" 
d="M651 1501q117 0 215.5 -48.5t172 -142t114.5 -240.5t41 -333q0 -185 -41 -331t-114 -238t-171.5 -140t-216.5 -48q-119 0 -217 47.5t-171 139.5t-113.5 236.5t-40.5 329.5q0 188 41 335.5t114.5 241.5t171.5 142.5t215 48.5zM653 115q177 0 276 152t99 470
q0 320 -101 475.5t-276 155.5q-174 0 -275.5 -156t-101.5 -475q0 -316 101.5 -469t277.5 -153z" />
    <glyph glyph-name="one" unicode="1" horiz-adv-x="782" 
d="M375 0v1298l-295 -106v119l342 170h108v-1481h-155z" />
    <glyph glyph-name="two" unicode="2" horiz-adv-x="1173" 
d="M96 0v141l482 475q173 168 240 267.5t67 206.5q0 72 -28 127t-74.5 86t-98.5 46t-106 15q-110 0 -205 -50.5t-152 -158.5l-131 45q65 147 191.5 224t304.5 77q201 0 328.5 -109t127.5 -302q-1 -127 -70.5 -237.5t-252.5 -295.5l-420 -420h758v-137h-961z" />
    <glyph glyph-name="three" unicode="3" horiz-adv-x="1288" 
d="M145 1237q36 88 114.5 149t174.5 88t203 27q217 0 355 -106.5t138 -266.5q0 -239 -288 -340q157 -42 245.5 -141t88.5 -239q0 -186 -154.5 -307t-405.5 -121q-187 0 -312.5 60.5t-207.5 207.5l133 45q136 -180 387 -180q181 0 286.5 80.5t105.5 207.5q0 95 -57 167
t-143.5 106.5t-186.5 34.5h-201v131l168 2q161 0 270 79.5t109 198.5q0 107 -94.5 178.5t-235.5 71.5q-246 0 -361 -180z" />
    <glyph glyph-name="four" unicode="4" horiz-adv-x="1273" 
d="M795 1481h155v-946h234v-140h-234v-395h-149v395h-699v150zM260 535h535v720z" />
    <glyph glyph-name="five" unicode="5" horiz-adv-x="1323" 
d="M250 1481h874l-12 -133h-727l-43 -525q54 29 82 42.5t77 33t98 27.5t106 8q99 0 186 -27t156 -79.5t109 -141t40 -201.5q0 -156 -73 -271.5t-199.5 -174.5t-290.5 -59q-154 0 -289.5 58t-232.5 167l110 92q98 -97 182 -141.5t209 -44.5q195 0 307.5 102t112.5 266
q0 159 -100 241.5t-252 82.5q-67 0 -138.5 -21.5t-109.5 -41t-106 -58.5q-6 -4 -9 -5.5t-6.5 -1.5t-4.5 0.5t-5.5 3.5l-7.5 5l-103 59z" />
    <glyph glyph-name="six" unicode="6" horiz-adv-x="1251" 
d="M690 1513q166 0 280.5 -74t155.5 -194l-122 -51q-29 46 -54 75.5t-62 58t-85.5 42.5t-110.5 14q-213 0 -323 -196t-93 -565q38 125 149 198.5t253 73.5q111 0 200.5 -34.5t147 -95t88.5 -141t31 -173.5q0 -207 -140 -332t-356 -125q-256 0 -400.5 195t-144.5 544
q0 366 155 573t431 207zM664 766q-149 0 -254 -78t-105 -207q31 -177 119 -267.5t227 -90.5q143 0 237.5 90t94.5 229q0 137 -87 230.5t-232 93.5z" />
    <glyph glyph-name="seven" unicode="7" horiz-adv-x="1177" 
d="M80 1481h1020v-154q-198 -280 -374.5 -687.5t-209.5 -639.5h-170q21 114 67.5 263.5t117 328.5t176 379.5t227.5 376.5h-854v133z" />
    <glyph glyph-name="eight" unicode="8" horiz-adv-x="1273" 
d="M635 1501q215 0 347 -112t132 -295q0 -62 -21.5 -118t-48.5 -90.5t-65.5 -66.5t-57.5 -43t-40 -22l32 -12q32 -13 45 -19t47 -25t52.5 -35.5t45.5 -46t41 -60t25 -74.5t11 -93q0 -187 -151 -298t-400 -111q-247 0 -390 102.5t-143 284.5q0 50 14.5 99.5t46 99.5t87.5 96
t131 81q-22 8 -42.5 17.5t-59.5 37.5t-66.5 62t-49.5 91t-22 124q0 182 141 304t359 122zM635 1372q-142 0 -239 -80.5t-97 -201.5q0 -94 54.5 -154.5t160.5 -83.5l211 -49q39 -8 95 33t99.5 115t43.5 147q0 124 -89 199t-239 75zM637 109q172 0 274.5 75t102.5 201
q0 96 -53 155t-166 87l-269 63q-23 6 -58.5 -5.5t-72.5 -39t-70 -65t-54 -89.5t-21 -106q0 -130 100.5 -203t286.5 -73z" />
    <glyph glyph-name="nine" unicode="9" horiz-adv-x="1251" 
d="M555 -20q-165 0 -280 75.5t-158 196.5l127 47q27 -44 51.5 -73.5t61 -58t85 -42.5t109.5 -14q216 0 329.5 192.5t98.5 573.5q-35 -128 -147 -204.5t-259 -76.5t-256 60.5t-163 162t-54 228.5q0 206 140 330t356 124q256 0 400.5 -194.5t144.5 -544.5q0 -374 -154 -578
t-432 -204zM582 727q147 0 252.5 82t105.5 203q-30 179 -118 269.5t-226 90.5q-143 0 -236.5 -90t-93.5 -229q0 -135 86 -230.5t230 -95.5z" />
    <glyph glyph-name="colon" unicode=":" horiz-adv-x="444" 
d="M313 1010v-211h-188v211h188zM313 215v-209h-188v209h188z" />
    <glyph glyph-name="semicolon" unicode=";" horiz-adv-x="493" 
d="M127 797v213h190v-213h-190zM100 -283l111 283h-76v209h191v-184l-158 -308h-68z" />
    <glyph glyph-name="less" unicode="&#x3c;" horiz-adv-x="1114" 
d="M958 455v-144l-833 326v145l836 334v-149l-648 -256z" />
    <glyph glyph-name="equal" unicode="=" horiz-adv-x="1126" 
d="M987 1004v-121l-852 -2v123h852zM987 555v-121l-852 -2v121z" />
    <glyph glyph-name="greater" unicode="&#x3e;" horiz-adv-x="1114" 
d="M150 455l647 256l-647 256v149l835 -334v-145l-835 -326v144z" />
    <glyph glyph-name="question" unicode="?" horiz-adv-x="1069" 
d="M63 1221q65 131 191 205.5t283 74.5q201 0 321.5 -98.5t120.5 -259.5q0 -71 -22.5 -135.5t-59 -114.5t-80.5 -98l-88 -96t-80.5 -98t-59 -114.5t-22.5 -136.5h-135q0 80 21.5 151.5t56 126t76.5 104.5t83.5 97t76 93t56 101.5t21.5 115.5q0 110 -78 174.5t-208 64.5
q-106 0 -204 -59t-132 -145zM594 209v-209h-188v209h188z" />
    <glyph glyph-name="at" unicode="@" horiz-adv-x="1685" 
d="M1343 -72q-200 -153 -466 -153q-177 0 -324 58.5t-244 160t-150 237t-53 289.5q0 161 58.5 307t161.5 254.5t253.5 173t325.5 64.5q106 0 205.5 -23t190.5 -74t159 -124t108 -180.5t40 -237.5q0 -228 -109.5 -373t-275.5 -145q-77 0 -120 26t-56 82q-7 22 -25 2
q-103 -139 -279 -139q-116 0 -197 98t-81 254q0 194 109 328.5t274 134.5q156 0 233 -131q1 -2 3.5 -2.5t5.5 2t4 8.5l18 72h113l-76 -461q-15 -88 5.5 -125t76.5 -37q105 0 178.5 108.5t73.5 285.5q0 113 -34 206t-90.5 154t-132.5 103t-156.5 60.5t-166.5 18.5
q-156 0 -285 -55.5t-213 -150t-130 -220t-46 -266.5q0 -133 44 -248t126.5 -201.5t212 -136t291.5 -49.5q66 0 119 9t100.5 30.5t76.5 39t79 52.5zM600 494q0 -113 44.5 -178.5t123.5 -65.5q98 0 176 85t96 204q19 139 -37.5 215.5t-146.5 76.5q-113 0 -184.5 -97.5
t-71.5 -239.5z" />
    <glyph glyph-name="A" unicode="A" horiz-adv-x="1447" 
d="M98 0l539 1481h176l539 -1481h-156l-154 428h-632l-158 -428h-154zM451 571h546l-270 760z" />
    <glyph glyph-name="B" unicode="B" horiz-adv-x="1368" 
d="M207 0v1481h455q262 0 400 -98.5t138 -286.5q0 -126 -64.5 -209.5t-215.5 -132.5q317 -63 317 -357q0 -198 -143 -297.5t-420 -99.5h-467zM356 815h336q68 0 127.5 12t115 40t88 81.5t32.5 128.5q0 137 -105 206t-286 69h-308v-537zM356 131h312q208 0 312.5 64.5
t104.5 201.5q0 75 -30.5 131.5t-85 89t-124 48.5t-153.5 16h-336v-551z" />
    <glyph glyph-name="C" unicode="C" horiz-adv-x="1419" 
d="M741 1501q228 0 380 -125t173 -309l-159 -10q-29 142 -129 225.5t-265 83.5q-216 0 -328 -157.5t-112 -469.5q0 -308 113.5 -466t339.5 -158q141 0 242 81t132 220l158 -19q-21 -179 -168 -298t-364 -119q-294 0 -456.5 201.5t-162.5 559.5t159 559t447 201z" />
    <glyph glyph-name="D" unicode="D" horiz-adv-x="1413" 
d="M207 1481q2 0 54 -0.5t126 -1t129 -0.5q402 -4 586 -184.5t184 -544.5q0 -378 -194.5 -564t-597.5 -186h-287v1481zM362 1348v-1213h127q157 0 272.5 32.5t199 103.5t125.5 189.5t42 284.5q0 169 -41.5 287t-124.5 187t-195.5 99t-266.5 30h-138z" />
    <glyph glyph-name="E" unicode="E" horiz-adv-x="1273" 
d="M207 0v1481h903v-135h-754v-531h688v-135h-688v-541l777 -2v-137h-926z" />
    <glyph glyph-name="F" unicode="F" horiz-adv-x="1189" 
d="M207 1481h893l-2 -135h-736v-533h670v-135h-670v-678h-155v1481z" />
    <glyph glyph-name="G" unicode="G" horiz-adv-x="1501" 
d="M750 -20q-287 0 -451 201t-164 554q0 360 168 563t453 203q137 0 258.5 -59.5t196 -158.5t83.5 -212l-164 -14q-24 132 -127.5 219.5t-248.5 87.5q-214 0 -335.5 -160.5t-121.5 -455.5q0 -311 122 -471t339 -160q96 0 175.5 36.5t127.5 94.5t74 123.5t28 128.5l4 147
h-379v115l533 -2v-760h-119v238q-67 -116 -178.5 -187t-273.5 -71z" />
    <glyph glyph-name="H" unicode="H" horiz-adv-x="1441" 
d="M1094 700h-738v-700h-149v1481h149v-645h738v645h149v-1481h-149v700z" />
    <glyph glyph-name="I" unicode="I" horiz-adv-x="555" 
d="M207 1481h149v-1481h-149v1481z" />
    <glyph glyph-name="J" unicode="J" horiz-adv-x="778" 
d="M580 326q0 -174 -64.5 -260t-228.5 -86q-71 0 -136 17.5t-98 33.5l17 147q7 -3 33 -15.5t42.5 -18.5t47 -12.5t61.5 -6.5q97 0 135.5 55.5t38.5 190.5v1110h152v-1155z" />
    <glyph glyph-name="K" unicode="K" horiz-adv-x="1372" 
d="M1296 0h-176l-487 788l-271 -307v-481h-155v1481h155v-799l709 799h184l-505 -580z" />
    <glyph glyph-name="L" unicode="L" horiz-adv-x="1150" 
d="M207 1481h155v-1340h721v-141h-876v1481z" />
    <glyph glyph-name="M" unicode="M" horiz-adv-x="1781" 
d="M207 0v1481h201l485 -1284l493 1284h197v-1481h-156v1221l-456 -1221h-156l-453 1208v-1208h-155z" />
    <glyph glyph-name="N" unicode="N" horiz-adv-x="1517" 
d="M1167 1481h152v-1481h-133l-830 1223v-1223h-149v1481h139l821 -1213v1213z" />
    <glyph glyph-name="O" unicode="O" horiz-adv-x="1523" 
d="M764 -20q-296 0 -462.5 196.5t-166.5 556.5q0 367 168 567.5t461 200.5q292 0 458.5 -200.5t166.5 -563.5q0 -361 -166 -559t-459 -198zM766 115q223 0 340 153.5t117 466.5q0 318 -117.5 474.5t-341.5 156.5t-343.5 -157.5t-119.5 -473.5q0 -311 120 -465.5t345 -154.5z
" />
    <glyph glyph-name="P" unicode="P" horiz-adv-x="1306" 
d="M207 0v1481h485q159 0 280.5 -51.5t192 -157t70.5 -252.5q0 -219 -143.5 -342t-378.5 -123h-351v-555h-155zM362 688h349q168 0 271 91t103 249q0 157 -104.5 239.5t-282.5 82.5h-336v-662z" />
    <glyph glyph-name="Q" unicode="Q" horiz-adv-x="1497" 
d="M109 737q0 366 167 565t461 199q293 0 459 -198.5t166 -565.5q0 -244 -72.5 -410t-230.5 -261q39 -88 115 -132t174 -49v-131q-291 0 -435 246q-94 -20 -176 -20q-293 0 -460.5 195.5t-167.5 561.5zM274 733q0 -312 118.5 -465t344.5 -153q461 0 461 622
q0 312 -117.5 470.5t-343.5 158.5t-344.5 -159.5t-118.5 -473.5z" />
    <glyph glyph-name="R" unicode="R" horiz-adv-x="1384" 
d="M1233 0h-162l-280 662h-435v-662h-149v1481h555q231 0 352 -101t121 -290q0 -87 -26 -157.5t-71.5 -117t-94.5 -76.5t-107 -49zM698 793q381 0 381 284q0 139 -84.5 207t-244.5 68h-394v-559h342z" />
    <glyph glyph-name="S" unicode="S" horiz-adv-x="1413" 
d="M711 -20q-143 0 -265 43t-207.5 132.5t-105.5 211.5l158 14q30 -130 146 -201t272 -71q174 0 285.5 72.5t111.5 191.5q0 106 -67 176.5t-199 101.5l-308 74q-173 40 -262.5 124.5t-89.5 225.5q-2 186 144.5 305t377.5 119q124 0 224 -33.5t164.5 -91.5t102 -130
t46.5 -154l-154 -13q-12 77 -47 134.5t-88 90.5t-115 48.5t-135 15.5q-90 0 -169.5 -29.5t-134 -95t-54.5 -154.5q0 -87 61 -140.5t215 -92.5l297 -74q99 -23 170 -66t108.5 -99.5t54 -115t16.5 -124.5q0 -169 -148 -282t-405 -113z" />
    <glyph glyph-name="T" unicode="T" horiz-adv-x="1165" 
d="M35 1339v142h1095v-142h-456v-1339h-152v1339h-487z" />
    <glyph glyph-name="U" unicode="U" horiz-adv-x="1454" 
d="M1253 492q0 -512 -524 -512q-271 0 -396.5 133t-125.5 403v965h158v-996q0 -184 92 -278t272 -94q183 0 278 93t95 279v996h151v-989z" />
    <glyph glyph-name="V" unicode="V" horiz-adv-x="1298" 
d="M1268 1481l-529 -1481h-188l-518 1481h149l463 -1313l473 1313h150z" />
    <glyph glyph-name="W" unicode="W" horiz-adv-x="1953" 
d="M1898 1481l-430 -1481h-153l-340 1212l-348 -1212h-148l-422 1481h154l346 -1252l356 1252h123l353 -1252l356 1252h153z" />
    <glyph glyph-name="X" unicode="X" horiz-adv-x="1316" 
d="M1260 0h-189l-422 633l-420 -633h-172l506 758l-485 723h190l389 -592l394 592h170l-478 -711z" />
    <glyph glyph-name="Y" unicode="Y" horiz-adv-x="1189" 
d="M1169 1481l-497 -848v-633h-150v635l-502 846h166l412 -711l408 711h163z" />
    <glyph glyph-name="Z" unicode="Z" horiz-adv-x="1263" 
d="M113 0v90l833 1258h-805v133h1012v-86l-840 -1260h838v-135h-1038z" />
    <glyph glyph-name="bracketleft" unicode="[" horiz-adv-x="602" 
d="M201 1481h350v-105h-211l-2 -1601h211v-105h-346z" />
    <glyph glyph-name="backslash" unicode="\" horiz-adv-x="700" 
d="M537 -94l-508 1575h125l510 -1575h-127z" />
    <glyph glyph-name="bracketright" unicode="]" horiz-adv-x="632" 
d="M389 1481v-1811h-348v105h213l-2 1601h-213v105h350z" />
    <glyph glyph-name="asciicircum" unicode="^" horiz-adv-x="970" 
d="M729 266l-248 627l-250 -623h-127l299 736q28 70 76 72t78 -72l303 -740h-131z" />
    <glyph glyph-name="underscore" unicode="_" horiz-adv-x="1048" 
d="M909 -102v-125h-774v123z" />
    <glyph glyph-name="grave" unicode="`" horiz-adv-x="583" 
d="M63 1499l494 -194l-29 -84l-505 153z" />
    <glyph glyph-name="a" unicode="a" horiz-adv-x="1157" 
d="M463 -20q-157 0 -251.5 80.5t-94.5 220.5q0 178 120.5 262t389.5 90l209 6v90q0 109 -73.5 171.5t-193.5 62.5q-103 0 -177.5 -51.5t-92.5 -145.5h-139q8 134 121.5 223.5t296.5 89.5q191 0 297 -91.5t106 -250.5v-737h-131l-10 197q-61 -119 -156 -168t-221 -49zM504 94
q76 0 153 36t127.5 95t51.5 121v191l-174 -5q-210 -3 -303 -58t-93 -179q0 -94 65.5 -147.5t172.5 -53.5z" />
    <glyph glyph-name="b" unicode="b" horiz-adv-x="1204" 
d="M643 -20q-69 0 -131 19.5t-103 49.5t-67 57.5t-39 51.5l-16 -158h-117v1522h149v-607q14 21 41 45.5t70.5 53t107.5 47t134 18.5q108 0 191 -42t134 -117t77 -173t26 -215q0 -256 -120.5 -404t-336.5 -148zM614 100q147 0 238.5 109t91.5 326q0 201 -82 311t-233 110
q-100 0 -182 -51t-128 -139v-371q0 -124 89.5 -209.5t205.5 -85.5z" />
    <glyph glyph-name="c" unicode="c" horiz-adv-x="1118" 
d="M590 1079q158 0 273.5 -88.5t140.5 -247.5l-138 -4q-28 106 -99.5 160.5t-168.5 54.5q-156 0 -247 -116t-91 -310q0 -197 90.5 -313.5t247.5 -116.5q101 0 173.5 57t94.5 156h138q-28 -162 -142.5 -246.5t-271.5 -84.5q-217 0 -347 150t-130 394q0 247 130 401t347 154z
" />
    <glyph glyph-name="d" unicode="d" 
d="M549 -20q-202 0 -319 139t-117 397q0 257 117 410t329 153q173 0 315 -133v576h150v-1522h-121l-10 203q-99 -223 -344 -223zM578 100q62 0 118 24.5t94.5 63.5t61 88t22.5 97v418q-114 165 -284 165q-153 0 -239.5 -111.5t-86.5 -322.5q0 -210 86.5 -316t227.5 -106z
" />
    <glyph glyph-name="e" unicode="e" horiz-adv-x="1150" 
d="M266 494q0 -111 34.5 -197.5t111.5 -140.5t186 -54q108 0 181 50.5t104 146.5h145q-38 -158 -154.5 -238.5t-273.5 -80.5q-220 0 -353.5 143.5t-133.5 396.5q0 257 125.5 408t347.5 151q215 0 332.5 -137.5t117.5 -382.5v-65h-770zM268 604h623q0 158 -78 256t-227 98
q-80 0 -143 -31t-100.5 -82t-56.5 -113t-18 -128z" />
    <glyph glyph-name="f" unicode="f" horiz-adv-x="817" 
d="M731 1059v-113h-268v-946h-150v946h-233v113h233v168q0 254 246 254h182v-111h-163q-65 0 -91 -36t-26 -111v-164h270z" />
    <glyph glyph-name="g" unicode="g" horiz-adv-x="1249" 
d="M592 -350q-245 0 -377.5 75.5t-132.5 208.5q0 54 28.5 101t59 69.5t70 46t41.5 25.5q-1 0 -23.5 13.5t-30 19.5t-22.5 21t-21 32t-6 39q0 48 45.5 87.5t130.5 60.5q-101 53 -145.5 122.5t-44.5 167.5q0 157 120.5 246.5t323.5 89.5q180 0 303 -94q12 5 69.5 29
t111.5 46.5t75 30.5v-155l-186 -37q15 -32 27 -78t12 -78q0 -142 -109.5 -235.5t-318.5 -93.5l-49 2q-116 -3 -167.5 -26t-51.5 -56q0 -30 43.5 -43t162.5 -21l234 -14q169 -10 251.5 -83.5t82.5 -197.5q0 -152 -132 -236.5t-374 -84.5zM596 516q137 0 207.5 57t70.5 166
q0 111 -71.5 172.5t-206.5 61.5q-134 0 -208.5 -62.5t-74.5 -171.5q0 -107 74 -165t209 -58zM621 -246q327 0 327 199q0 75 -48 116.5t-157 47.5l-317 20q-61 5 -128 -51.5t-67 -134.5q0 -96 100.5 -146.5t289.5 -50.5z" />
    <glyph glyph-name="h" unicode="h" 
d="M170 0v1522h145v-615q43 74 131 121t209 47q158 0 263.5 -86t105.5 -221v-768h-150v733q0 101 -68.5 158t-184.5 57q-129 0 -215.5 -59t-86.5 -170v-719h-149z" />
    <glyph glyph-name="i" unicode="i" horiz-adv-x="520" 
d="M344 1522v-228h-164v228h164zM338 1059v-1059h-152v1059h152z" />
    <glyph glyph-name="j" unicode="j" horiz-adv-x="528" 
d="M358 1522v-228h-165v228h165zM350 -68q0 -143 -59.5 -207.5t-208.5 -64.5q-33 0 -58.5 2.5t-38.5 6t-21.5 6.5t-10.5 5l-2 3v98l112 4q75 5 105.5 39.5t30.5 116.5v1118h151v-1127z" />
    <glyph glyph-name="k" unicode="k" horiz-adv-x="1144" 
d="M1067 0h-166l-346 559l-236 -242v-317h-149v1522h149v-1030l543 567h174l-381 -397z" />
    <glyph glyph-name="l" unicode="l" horiz-adv-x="614" 
d="M416 -12q-70 0 -119.5 21.5t-75 62t-36.5 87t-11 105.5v1258h148v-1248q0 -84 32 -126.5t86 -45.5h62v-100q-51 -14 -86 -14z" />
    <glyph glyph-name="m" unicode="m" horiz-adv-x="1822" 
d="M170 0v1059h143v-152q45 76 128 124t198 48q118 0 206.5 -43t127.5 -127q50 81 135 125.5t197 44.5q54 0 101.5 -9t96.5 -35t84 -67t57.5 -110.5t22.5 -159.5v-698h-149v688q0 78 -19 132t-55 83t-78.5 41t-97.5 12t-102 -12.5t-87.5 -39t-64 -75t-23.5 -114.5v-715h-147
v754q0 97 -71.5 149.5t-180.5 52.5q-46 0 -92.5 -13t-87.5 -39t-67 -71.5t-26 -103.5v-729h-149z" />
    <glyph glyph-name="n" unicode="n" 
d="M170 0v1059h143v-152q46 76 133 122t209 46q161 0 266 -100t105 -283v-692h-152v680q0 129 -68 198.5t-185 69.5q-128 0 -215 -58.5t-87 -168.5v-721h-149z" />
    <glyph glyph-name="o" unicode="o" horiz-adv-x="1155" 
d="M578 -20q-222 0 -348 148t-126 394q0 250 128 403.5t348 153.5t345.5 -153t125.5 -400t-126 -396.5t-347 -149.5zM582 102q158 0 238.5 116.5t80.5 309.5q0 194 -81.5 311t-239.5 117q-159 0 -242.5 -118t-83.5 -310q0 -191 84 -308.5t244 -117.5z" />
    <glyph glyph-name="p" unicode="p" horiz-adv-x="1202" 
d="M170 -330v1389h147v-150q19 23 33 38.5t46.5 43t65.5 44.5t83.5 30.5t105.5 13.5q197 0 322 -138t125 -396q0 -262 -130.5 -413.5t-342.5 -151.5q-186 0 -306 163v-473h-149zM606 100q152 0 249 117.5t97 321.5q0 104 -27.5 185.5t-75 131t-106.5 75t-127 25.5
q-124 0 -210.5 -81.5t-86.5 -172.5v-442q127 -160 287 -160z" />
    <glyph glyph-name="q" unicode="q" horiz-adv-x="1198" 
d="M1042 -330h-149v432q-77 -65 -151 -93.5t-162 -28.5q-212 0 -339.5 151t-127.5 414q0 131 34.5 234t95.5 168t141.5 98.5t174.5 33.5q32 0 61.5 -3.5t55.5 -12t47.5 -16t43 -21t35.5 -22t32 -25t24.5 -22.5t22 -22t16.5 -17v141h145v-1389zM612 94q157 0 281 187v405
q0 106 -84 191.5t-209 85.5q-68 0 -126.5 -25.5t-105 -75.5t-73.5 -132.5t-27 -188.5q0 -206 96 -326.5t248 -120.5z" />
    <glyph glyph-name="r" unicode="r" horiz-adv-x="784" 
d="M170 0v1059h141v-213q57 100 169 166.5t225 66.5v-145q-99 4 -189.5 -37.5t-143.5 -107t-53 -132.5v-657h-149z" />
    <glyph glyph-name="s" unicode="s" horiz-adv-x="1060" 
d="M541 -20q-169 0 -293 84t-144 231h140q25 -101 102.5 -150t194.5 -49q120 0 192 49t72 136q0 62 -41.5 99t-126.5 60l-225 62q-132 33 -201.5 96t-69.5 172q0 97 57.5 169t146.5 106t194 34q170 0 274 -87.5t107 -207.5h-140q-12 85 -78.5 132t-164.5 47q-43 0 -85 -9.5
t-81.5 -29t-63.5 -57.5t-24 -89q0 -61 44.5 -96.5t137.5 -58.5l225 -62q93 -24 151.5 -70t79.5 -95.5t21 -108.5q0 -144 -116 -225.5t-285 -81.5z" />
    <glyph glyph-name="t" unicode="t" horiz-adv-x="804" 
d="M678 946h-242v-684q0 -90 27 -121.5t84 -31.5h141v-97q-43 -16 -145 -16q-144 0 -200 60.5t-56 193.5v696h-172v113h176l12 305h133v-305h242v-113z" />
    <glyph glyph-name="u" unicode="u" 
d="M567 -18q-55 1 -109 12.5t-106.5 39.5t-92.5 68.5t-64.5 103.5t-24.5 140v717h149v-705q0 -70 25.5 -122t67 -80t87 -41t93.5 -13q116 0 198.5 71.5t83.5 199.5v690h152l-2 -1061h-123l-10 215q-17 -84 -68.5 -139t-115.5 -76t-140 -20z" />
    <glyph glyph-name="v" unicode="v" horiz-adv-x="1032" 
d="M971 1059l-375 -1059h-158l-377 1059h146l299 -875h20l303 875h142z" />
    <glyph glyph-name="w" unicode="w" horiz-adv-x="1630" 
d="M1548 1059l-311 -1059h-168l-256 831l-242 -831h-168l-321 1059h143l256 -871h19l256 871h118l267 -869h18l246 869h143z" />
    <glyph glyph-name="x" unicode="x" horiz-adv-x="1144" 
d="M1067 0h-168l-328 440l-325 -440h-168l407 549l-376 510h167l295 -400l297 400h168l-379 -510z" />
    <glyph glyph-name="y" unicode="y" horiz-adv-x="1087" 
d="M256 -338q-52 0 -89.5 6t-48.5 12l-12 5v98l111 -2q53 -1 91.5 9t62.5 29.5t37 38.5t24 46l43 114l-414 1041h154l334 -864l330 864h145l-451 -1165q-52 -126 -129.5 -179t-187.5 -53z" />
    <glyph glyph-name="z" unicode="z" horiz-adv-x="999" 
d="M94 0v102l629 848h-586v109h762v-105l-627 -845h639v-109h-817z" />
    <glyph glyph-name="braceleft" unicode="{" horiz-adv-x="632" 
d="M250 1282q0 91 67 145t179 54h86v-105h-68q-72 0 -99.5 -24.5t-27.5 -79.5v-447q-1 -110 -57.5 -170.5t-139.5 -68.5q-8 -1 -11.5 -4t-0.5 -6.5t12 -4.5q84 -7 140 -64t57 -173v-451q0 -59 28 -83.5t101 -24.5h66v-105h-84q-117 0 -182.5 55.5t-65.5 147.5v453
q0 80 -61 141t-171 61v101q114 1 173 58.5t59 152.5v442z" />
    <glyph glyph-name="bar" unicode="|" horiz-adv-x="528" 
d="M330 -330h-121l-2 2022h123v-2022z" />
    <glyph glyph-name="braceright" unicode="}" horiz-adv-x="657" 
d="M373 1282v-442q0 -95 58.5 -152.5t172.5 -58.5v-101q-109 0 -170 -61t-61 -141v-453q0 -92 -66 -147.5t-184 -55.5h-82v105h65q73 0 101.5 25t28.5 83v451q0 116 56 173t140 64q9 1 12 4.5t-0.5 6.5t-11.5 4q-84 8 -140 68.5t-56 170.5v447q0 55 -28 79.5t-99 24.5h-68
v105h86q112 0 179 -54t67 -145z" />
    <glyph glyph-name="asciitilde" unicode="~" horiz-adv-x="1142" 
d="M1012 762q-34 -52 -97.5 -85.5t-148.5 -33.5q-54 0 -107 15.5t-89 34.5t-85 34.5t-96 15.5q-70 0 -121 -28.5t-98 -77.5l-43 92q63 61 120.5 93t139.5 32q63 0 128.5 -25.5t129 -51t121.5 -25.5q117 0 201 104z" />
    <glyph glyph-name="uni00A0" unicode="&#xa0;" horiz-adv-x="475" 
 />
    <glyph glyph-name="exclamdown" unicode="&#xa1;" horiz-adv-x="505" 
d="M344 850h-186v209h186v-209zM344 -330h-184l39 1041h104z" />
    <glyph glyph-name="cent" unicode="&#xa2;" horiz-adv-x="1107" 
d="M614 326q101 0 175 57.5t94 155.5h137q-27 -152 -129 -236.5t-246 -93.5v-209h-119v213q-183 28 -289 173.5t-106 365.5q0 223 106 371t289 177v181h119v-176q146 -11 248.5 -98t126.5 -236l-137 -4q-28 106 -100 160.5t-169 54.5q-156 0 -247 -116t-91 -310
q0 -196 91 -313t247 -117z" />
    <glyph glyph-name="sterling" unicode="&#xa3;" horiz-adv-x="1241" 
d="M33 0v131h80q82 0 135 77.5t53 229.5q0 103 -25 271h-206v104h188l-35 164q-27 122 -4 219.5t82.5 165t144 103.5t181.5 36q136 0 247 -65t150 -160l-135 -51q-36 71 -93.5 106t-150.5 35q-117 0 -193.5 -66t-76.5 -182q0 -142 53 -303h340v-104h-326q24 -150 17 -244
q-4 -219 -119 -334h385q110 0 175 38t101 130l129 -37q-92 -264 -397 -264h-700z" />
    <glyph glyph-name="currency" unicode="&#xa4;" horiz-adv-x="1083" 
d="M539 373q-116 0 -207 63q-17 10 -29 -2l-104 -108l-80 84l117 114q-68 100 -68 221q0 117 61 205q8 14 -2 27l-106 106l80 80l118 -121q94 72 218 72q118 0 204 -63q16 -9 27 2l109 110l77 -82l-118 -118q69 -101 69 -218q0 -119 -61 -204q-7 -14 2 -25l110 -104l-79 -82
l-119 119q-102 -76 -219 -76zM541 496q104 0 175.5 74t71.5 175q0 100 -71.5 175t-175.5 75q-105 0 -177.5 -75t-72.5 -175q0 -101 72 -175t178 -74z" />
    <glyph glyph-name="yen" unicode="&#xa5;" horiz-adv-x="1222" 
d="M1202 1481l-481 -795h297v-102h-316v-191h316v-104h-316v-289h-170v289h-315v102h315v191h-315v102h277l-474 797h195l412 -709l413 709h162z" />
    <glyph glyph-name="brokenbar" unicode="&#xa6;" horiz-adv-x="528" 
d="M330 877h-121l-2 815h123v-815zM330 -330h-121l-2 815h123v-815z" />
    <glyph glyph-name="section" unicode="&#xa7;" horiz-adv-x="989" 
d="M512 -143q-140 0 -258 65.5t-172 171.5l102 58q50 -82 136 -132.5t194 -50.5q107 0 174.5 42.5t67.5 117.5q0 59 -47 107.5t-164 95.5l-183 71q-133 50 -193 121t-60 168q0 92 56 160.5t150 105.5q-116 60 -159 124t-43 143q0 120 102.5 198t269.5 78q124 0 226 -58
t159 -145l-106 -57q-114 148 -268 148q-112 0 -176 -41.5t-64 -110.5q0 -51 39.5 -95t134.5 -83l174 -70q154 -64 223.5 -142.5t69.5 -182.5q0 -167 -188 -261q96 -55 144 -117.5t48 -144.5q0 -124 -107 -204t-282 -80zM559 469q79 -6 140 47t59 127q-2 71 -40.5 119
t-142.5 90l-118 45q-87 -6 -150 -62t-63 -124q0 -61 38 -102t148 -85z" />
    <glyph glyph-name="dieresis" unicode="&#xa8;" horiz-adv-x="491" 
d="M180 1481v-215h-151v215h151zM459 1481v-215h-152v215h152z" />
    <glyph glyph-name="copyright" unicode="&#xa9;" horiz-adv-x="1677" 
d="M838 -20q-208 0 -383 101t-277 276.5t-102 383.5q0 154 60 294.5t162 242.5t243.5 162.5t296.5 60.5q154 0 294.5 -60.5t242 -162.5t162 -242.5t60.5 -294.5q0 -156 -60 -297.5t-162 -242.5t-242.5 -161t-294.5 -60zM838 92q129 0 246 46.5t204.5 129.5t139 206t51.5 267
q0 142 -51.5 265t-139 206.5t-204.5 131t-246 47.5q-178 0 -324 -80.5t-232.5 -230t-86.5 -339.5q0 -145 50.5 -267.5t137.5 -205.5t204.5 -129.5t250.5 -46.5zM842 1176q209 0 332 -215l-117 -37q-85 147 -209 147q-114 0 -185 -87.5t-71 -233.5q0 -151 71.5 -239.5
t186.5 -88.5q150 0 237 160l91 -39q-53 -99 -138 -162.5t-198 -63.5q-172 0 -279.5 118t-107.5 310q0 190 109 310.5t278 120.5z" />
    <glyph glyph-name="ordfeminine" unicode="&#xaa;" horiz-adv-x="874" 
d="M340 811q-104 0 -163.5 49t-59.5 135q0 95 84 151t243 68l125 13v49q0 135 -159 135q-61 0 -103 -22.5t-76 -79.5l-98 30q77 158 285 158q128 -1 194 -60t66 -165v-236q0 -88 8 -135l12 -78h-114l-17 92q-57 -55 -109 -79.5t-118 -24.5zM375 893q82 0 141 53q53 47 53 90
v113l-102 -6q-236 -18 -236 -144q0 -49 39.5 -77.5t104.5 -28.5z" />
    <glyph glyph-name="guillemotleft" unicode="&#xab;" horiz-adv-x="903" 
d="M225 514l219 -367h-88l-278 367l278 383h90zM578 514l217 -367h-88l-277 367l279 383h90z" />
    <glyph glyph-name="logicalnot" unicode="&#xac;" horiz-adv-x="1126" 
d="M135 803l852 2v-410h-127l-2 289l-723 -2v121z" />
    <glyph glyph-name="uni00AD" unicode="&#xad;" horiz-adv-x="759" 
d="M657 592v-123l-505 -2v123z" />
    <glyph glyph-name="registered" unicode="&#xae;" horiz-adv-x="1107" 
d="M553 549q-199 0 -338 138.5t-139 336.5t139 337.5t338 139.5q97 0 184.5 -37.5t151.5 -101.5t101.5 -152.5t37.5 -185.5t-37.5 -185t-101.5 -151.5t-151.5 -101t-184.5 -37.5zM553 635q172 0 278.5 106t106.5 283q0 176 -107 283.5t-278 107.5q-174 0 -280.5 -107
t-106.5 -284t106.5 -283t280.5 -106zM373 784v473h211q76 0 116.5 -30t40.5 -88q0 -90 -100 -127l90 -228h-84l-82 222h-114v-222h-78zM451 1071h120q88 0 88 59q0 64 -94 64h-114v-123z" />
    <glyph glyph-name="macron" unicode="&#xaf;" horiz-adv-x="632" 
d="M600 1450v-113h-571v113h571z" />
    <glyph glyph-name="degree" unicode="&#xb0;" horiz-adv-x="946" 
d="M784 1399q0 -136 -89 -225t-224 -89q-136 0 -224.5 88.5t-88.5 225.5q0 138 88 226.5t225 88.5q135 0 224 -89t89 -226zM668 1397q0 94 -54 151.5t-147 57.5q-90 0 -145.5 -58t-53.5 -151q2 -94 56 -151.5t145 -57.5t145 58t54 151z" />
    <glyph glyph-name="plusminus" unicode="&#xb1;" horiz-adv-x="1126" 
d="M623 956h364v-120h-364v-367h-121v365h-367v120h367v369h121v-367zM135 137v119l852 2v-121h-852z" />
    <glyph glyph-name="uni00B2" unicode="&#xb2;" horiz-adv-x="778" 
d="M43 786v88l303 300q108 105 150.5 168t42.5 131q0 86 -59 129t-134 43q-69 0 -129 -32.5t-96 -99.5l-82 29q40 92 119.5 140.5t191.5 48.5q127 0 207.5 -68.5t79.5 -189.5q0 -80 -44 -150.5t-159 -185.5l-264 -265h477v-86h-604z" />
    <glyph glyph-name="uni00B3" unicode="&#xb3;" horiz-adv-x="808" 
d="M94 1565q34 82 119 124t190 42q137 0 224.5 -66.5t87.5 -167.5q0 -152 -183 -215q99 -27 155 -89.5t56 -150.5q0 -117 -97 -192.5t-255 -75.5q-118 0 -197 38t-131 130l84 29q83 -113 244 -113q113 0 179.5 50t66.5 130q0 89 -72.5 141t-171.5 54h-125v82h105
q101 2 169 52t68 124q0 68 -59 113t-148 45q-153 0 -227 -113z" />
    <glyph glyph-name="acute" unicode="&#xb4;" horiz-adv-x="583" 
d="M516 1499l41 -125l-506 -153l-26 84z" />
    <glyph glyph-name="paragraph" unicode="&#xb6;" horiz-adv-x="1124" 
d="M969 1384h-123v-1554h-105v1554h-98v-1554h-104v778q-132 3 -232.5 61.5t-151.5 153t-51 207.5q0 88 29.5 167.5t86 143.5t147.5 102t204 38h398v-97z" />
    <glyph glyph-name="periodcentered" unicode="&#xb7;" horiz-adv-x="413" 
d="M309 848v-203h-211v203h211z" />
    <glyph glyph-name="cedilla" unicode="&#xb8;" horiz-adv-x="450" 
d="M418 -262q0 -72 -60.5 -113t-152.5 -41q-109 0 -178 49l26 72q61 -47 135 -47q113 0 113 78q0 46 -38 68.5t-122 23.5q-16 0 -10 12l74 170h88l-49 -125q93 -6 133.5 -47t40.5 -100z" />
    <glyph glyph-name="uni00B9" unicode="&#xb9;" horiz-adv-x="608" 
d="M195 778v817l-187 -67v76l215 106h70v-932h-98z" />
    <glyph glyph-name="ordmasculine" unicode="&#xba;" horiz-adv-x="839" 
d="M418 1499q145 0 231 -95t86 -251q0 -152 -84.5 -246t-232.5 -94q-147 0 -230.5 94t-83.5 246q0 155 86.5 250.5t227.5 95.5zM418 1411q-95 0 -145 -67t-50 -185q0 -123 50 -191.5t145 -68.5q97 0 147.5 68.5t50.5 191.5q0 118 -51 185t-147 67z" />
    <glyph glyph-name="guillemotright" unicode="&#xbb;" horiz-adv-x="901" 
d="M322 514l-222 383h88l279 -383l-277 -367h-86zM674 514l-221 383h88l278 -383l-276 -367h-88z" />
    <glyph glyph-name="onequarter" unicode="&#xbc;" horiz-adv-x="1968" 
d="M195 565v817l-187 -67v76l215 106h70v-932h-98zM1413 1497l-995 -1505h-109l1000 1505h104zM1618 932h96v-596h148v-86h-148v-250h-94v250h-438v92zM1280 336h338v452z" />
    <glyph glyph-name="onehalf" unicode="&#xbd;" horiz-adv-x="1902" 
d="M195 565v817l-187 -67v76l215 106h70v-932h-98zM1413 1497l-995 -1505h-109l1000 1505h104zM1169 0v88l304 299q108 105 150 168t42 131q0 86 -58.5 129t-133.5 43q-69 0 -129.5 -32t-96.5 -99l-82 29q40 92 119.5 140t192.5 48q127 0 207 -68.5t79 -189.5
q0 -81 -43.5 -151t-158.5 -185l-265 -264h478v-86h-605z" />
    <glyph glyph-name="threequarters" unicode="&#xbe;" horiz-adv-x="2166" 
d="M94 1350q34 82 119 124t190 42q137 0 224.5 -66.5t87.5 -167.5q0 -152 -183 -215q99 -27 155 -89.5t56 -150.5q0 -117 -97 -192.5t-255 -75.5q-118 0 -197 38t-131 130l84 29q83 -113 244 -113q113 0 179.5 50t66.5 130q0 89 -72.5 141t-171.5 54h-125v82h105
q101 2 169 52t68 124q0 68 -59 113t-148 45q-153 0 -227 -113zM1614 1497l-996 -1505h-108l999 1505h105zM1817 932h96v-596h147v-86h-147v-250h-94v250h-439v92zM1479 336h338v452z" />
    <glyph glyph-name="questiondown" unicode="&#xbf;" horiz-adv-x="1050" 
d="M451 850v209h190v-209h-190zM983 -68q-66 -132 -191.5 -207t-283.5 -75q-206 0 -324 99t-118 261q0 68 23 126t59 99.5t80.5 80.5t88.5 78t80 82.5t59 104t23 132.5h133q0 -81 -21.5 -148.5t-56 -115.5t-76 -89.5t-82.5 -79t-75.5 -75t-56 -86.5t-21.5 -105
q0 -109 78 -174t207 -65q106 0 204 59.5t132 145.5z" />
    <glyph glyph-name="Agrave" unicode="&#xc0;" horiz-adv-x="1447" 
d="M477 1921l494 -195l-29 -84l-506 154zM98 0l539 1481h176l539 -1481h-156l-154 428h-632l-158 -428h-154zM451 571h546l-270 760z" />
    <glyph glyph-name="Aacute" unicode="&#xc1;" horiz-adv-x="1447" 
d="M956 1921l41 -125l-505 -154l-27 84zM98 0l539 1481h176l539 -1481h-156l-154 428h-632l-158 -428h-154zM451 571h546l-270 760z" />
    <glyph glyph-name="Acircumflex" unicode="&#xc2;" horiz-adv-x="1447" 
d="M877 1688l-146 131l-158 -131h-147l252 219h110l248 -219h-159zM98 0l539 1481h176l539 -1481h-156l-154 428h-632l-158 -428h-154zM451 571h546l-270 760z" />
    <glyph glyph-name="Atilde" unicode="&#xc3;" horiz-adv-x="1447" 
d="M1006 1782q-61 -45 -148 -45q-55 0 -130.5 26.5t-117.5 26.5q-21 0 -39.5 -5t-28 -9.5t-27.5 -15t-23 -13.5q-10 -7 -16.5 -5t-10.5 15l-19 49q-5 13 7 25q26 19 43 29.5t45.5 20t60.5 9.5q49 0 131.5 -27.5t126.5 -27.5q48 0 113 37q20 14 28 -8l19 -58q6 -14 -14 -24z
M98 0l539 1481h176l539 -1481h-156l-154 428h-632l-158 -428h-154zM451 571h546l-270 760z" />
    <glyph glyph-name="Adieresis" unicode="&#xc4;" horiz-adv-x="1447" 
d="M666 1903v-215h-152v215h152zM944 1903v-215h-151v215h151zM98 0l539 1481h176l539 -1481h-156l-154 428h-632l-158 -428h-154zM451 571h546l-270 760z" />
    <glyph glyph-name="Aring" unicode="&#xc5;" horiz-adv-x="1447" 
d="M938 1815q0 -87 -60 -146t-147 -59t-147 60t-60 149q0 83 61 141.5t146 58.5q87 0 147 -59t60 -145zM840 1815q0 49 -32 80.5t-79 31.5q-46 0 -79.5 -32t-33.5 -80q0 -44 34.5 -79.5t78.5 -35.5q45 0 78 35t33 80zM98 0l539 1481h176l539 -1481h-156l-154 428h-632
l-158 -428h-154zM451 571h546l-270 760z" />
    <glyph glyph-name="AE" unicode="&#xc6;" horiz-adv-x="2056" 
d="M1917 133v-133h-905v434h-516l-244 -434h-154l828 1481h964l-2 -133h-706v-535h540v-131h-540v-549h735zM1012 571v795l-455 -795h455z" />
    <glyph glyph-name="Ccedilla" unicode="&#xc7;" horiz-adv-x="1419" 
d="M754 115q141 0 242 81t132 220l158 -19q-19 -170 -155 -287.5t-340 -129.5l-37 -95q93 -6 133.5 -47t40.5 -100q0 -72 -60.5 -113t-152.5 -41q-109 0 -178 49l26 72q61 -47 135 -47q113 0 113 78q0 46 -38 68.5t-122 23.5q-16 0 -10 12l61 142q-271 19 -419 218t-148 541
q0 358 159 559t447 201q228 0 380 -125t173 -309l-159 -10q-29 142 -129 225.5t-265 83.5q-216 0 -328 -157.5t-112 -469.5q0 -308 113.5 -466t339.5 -158z" />
    <glyph glyph-name="Egrave" unicode="&#xc8;" horiz-adv-x="1273" 
d="M428 1921l494 -195l-29 -84l-506 154zM207 0v1481h903v-135h-754v-531h688v-135h-688v-541l777 -2v-137h-926z" />
    <glyph glyph-name="Eacute" unicode="&#xc9;" horiz-adv-x="1273" 
d="M907 1921l41 -125l-506 -154l-26 84zM207 0v1481h903v-135h-754v-531h688v-135h-688v-541l777 -2v-137h-926z" />
    <glyph glyph-name="Ecircumflex" unicode="&#xca;" horiz-adv-x="1273" 
d="M827 1688l-145 131l-158 -131h-147l252 219h110l248 -219h-160zM207 0v1481h903v-135h-754v-531h688v-135h-688v-541l777 -2v-137h-926z" />
    <glyph glyph-name="Edieresis" unicode="&#xcb;" horiz-adv-x="1273" 
d="M616 1903v-215h-151v215h151zM895 1903v-215h-152v215h152zM207 0v1481h903v-135h-754v-531h688v-135h-688v-541l777 -2v-137h-926z" />
    <glyph glyph-name="Igrave" unicode="&#xcc;" horiz-adv-x="555" 
d="M35 1921l493 -195l-28 -84l-506 154zM207 1481h149v-1481h-149v1481z" />
    <glyph glyph-name="Iacute" unicode="&#xcd;" horiz-adv-x="555" 
d="M514 1921l41 -125l-506 -154l-26 84zM207 1481h149v-1481h-149v1481z" />
    <glyph glyph-name="Icircumflex" unicode="&#xce;" horiz-adv-x="555" 
d="M434 1688l-145 131l-158 -131h-147l252 219h110l248 -219h-160zM207 1481h149v-1481h-149v1481z" />
    <glyph glyph-name="Idieresis" unicode="&#xcf;" horiz-adv-x="555" 
d="M225 1903v-215h-151v215h151zM504 1903v-215h-152v215h152zM207 1481h149v-1481h-149v1481z" />
    <glyph glyph-name="Eth" unicode="&#xd0;" horiz-adv-x="1435" 
d="M537 1479q404 -4 588 -184.5t184 -544.5q0 -378 -195.5 -564t-599.5 -186h-285v678h-129q-16 0 -21 6t-5 21v75q0 25 18 25h137v676q2 0 54 -0.5t126 -1t128 -0.5zM512 135q157 0 272.5 32.5t199 103.5t125.5 189.5t42 284.5q0 169 -41.5 287t-125 187t-196 99t-266.5 30
h-137v-543h328q16 0 16 -21v-75q0 -17 -7 -24t-26 -7h-311v-543h127z" />
    <glyph glyph-name="Ntilde" unicode="&#xd1;" horiz-adv-x="1517" 
d="M1059 1782q-61 -45 -148 -45q-55 0 -130 26.5t-117 26.5q-21 0 -40 -5t-28 -9t-27.5 -15t-23.5 -14q-10 -7 -16.5 -5t-10.5 15l-18 49q-5 14 6 25q26 19 43 29.5t45.5 20t60.5 9.5q49 0 131.5 -27.5t126.5 -27.5q48 0 113 37q21 15 29 -8l18 -58q6 -14 -14 -24z
M1167 1481h152v-1481h-133l-830 1223v-1223h-149v1481h139l821 -1213v1213z" />
    <glyph glyph-name="Ograve" unicode="&#xd2;" horiz-adv-x="1523" 
d="M512 1921l494 -195l-29 -84l-506 154zM764 -20q-296 0 -462.5 196.5t-166.5 556.5q0 367 168 567.5t461 200.5q292 0 458.5 -200.5t166.5 -563.5q0 -361 -166 -559t-459 -198zM766 115q223 0 340 153.5t117 466.5q0 318 -117.5 474.5t-341.5 156.5t-343.5 -157.5
t-119.5 -473.5q0 -311 120 -465.5t345 -154.5z" />
    <glyph glyph-name="Oacute" unicode="&#xd3;" horiz-adv-x="1523" 
d="M991 1921l41 -125l-506 -154l-26 84zM764 -20q-296 0 -462.5 196.5t-166.5 556.5q0 367 168 567.5t461 200.5q292 0 458.5 -200.5t166.5 -563.5q0 -361 -166 -559t-459 -198zM766 115q223 0 340 153.5t117 466.5q0 318 -117.5 474.5t-341.5 156.5t-343.5 -157.5
t-119.5 -473.5q0 -311 120 -465.5t345 -154.5z" />
    <glyph glyph-name="Ocircumflex" unicode="&#xd4;" horiz-adv-x="1523" 
d="M911 1688l-145 131l-158 -131h-147l252 219h110l248 -219h-160zM764 -20q-296 0 -462.5 196.5t-166.5 556.5q0 367 168 567.5t461 200.5q292 0 458.5 -200.5t166.5 -563.5q0 -361 -166 -559t-459 -198zM766 115q223 0 340 153.5t117 466.5q0 318 -117.5 474.5
t-341.5 156.5t-343.5 -157.5t-119.5 -473.5q0 -311 120 -465.5t345 -154.5z" />
    <glyph glyph-name="Otilde" unicode="&#xd5;" horiz-adv-x="1523" 
d="M1040 1782q-61 -45 -147 -45q-55 0 -130.5 26.5t-117.5 26.5q-21 0 -40 -5t-28 -9t-27.5 -15t-23.5 -14q-10 -7 -16 -5t-10 15l-19 49q-5 14 6 25q25 19 42.5 30t46.5 20t61 9q49 0 131.5 -27.5t126.5 -27.5q48 0 113 37q20 14 28 -8l19 -58q5 -14 -15 -24zM764 -20
q-296 0 -462.5 196.5t-166.5 556.5q0 367 168 567.5t461 200.5q292 0 458.5 -200.5t166.5 -563.5q0 -361 -166 -559t-459 -198zM766 115q223 0 340 153.5t117 466.5q0 318 -117.5 474.5t-341.5 156.5t-343.5 -157.5t-119.5 -473.5q0 -311 120 -465.5t345 -154.5z" />
    <glyph glyph-name="Odieresis" unicode="&#xd6;" horiz-adv-x="1523" 
d="M700 1903v-215h-151v215h151zM979 1903v-215h-152v215h152zM764 -20q-296 0 -462.5 196.5t-166.5 556.5q0 367 168 567.5t461 200.5q292 0 458.5 -200.5t166.5 -563.5q0 -361 -166 -559t-459 -198zM766 115q223 0 340 153.5t117 466.5q0 318 -117.5 474.5t-341.5 156.5
t-343.5 -157.5t-119.5 -473.5q0 -311 120 -465.5t345 -154.5z" />
    <glyph glyph-name="multiply" unicode="&#xd7;" horiz-adv-x="1089" 
d="M952 422l-88 -88l-323 323l-322 -323l-86 88l322 321l-324 324l86 84l324 -322l323 326l86 -86l-323 -326z" />
    <glyph glyph-name="Oslash" unicode="&#xd8;" horiz-adv-x="1468" 
d="M1413 1434q17 -14 2 -29l-166 -186q111 -190 111 -482q0 -361 -167 -559t-460 -198q-281 0 -438 174l-141 -156q-21 -27 -48 -2l-45 43q-21 21 -8 37l162 182q-109 180 -109 475q0 367 167 567.5t460 200.5q275 0 441 -178l145 162q18 21 33 6zM289 735q0 -211 57 -340
l719 815q-109 156 -332 156q-222 0 -333 -156t-111 -475zM1176 735q0 208 -60 346l-717 -813q112 -153 336 -153q223 0 332 152t109 468z" />
    <glyph glyph-name="Ugrave" unicode="&#xd9;" horiz-adv-x="1454" 
d="M471 1921l494 -195l-29 -84l-506 154zM1253 492q0 -512 -524 -512q-271 0 -396.5 133t-125.5 403v965h158v-996q0 -184 92 -278t272 -94q183 0 278 93t95 279v996h151v-989z" />
    <glyph glyph-name="Uacute" unicode="&#xda;" horiz-adv-x="1454" 
d="M950 1921l41 -125l-506 -154l-26 84zM1253 492q0 -512 -524 -512q-271 0 -396.5 133t-125.5 403v965h158v-996q0 -184 92 -278t272 -94q183 0 278 93t95 279v996h151v-989z" />
    <glyph glyph-name="Ucircumflex" unicode="&#xdb;" horiz-adv-x="1454" 
d="M870 1688l-145 131l-158 -131h-147l252 219h110l248 -219h-160zM1253 492q0 -512 -524 -512q-271 0 -396.5 133t-125.5 403v965h158v-996q0 -184 92 -278t272 -94q183 0 278 93t95 279v996h151v-989z" />
    <glyph glyph-name="Udieresis" unicode="&#xdc;" horiz-adv-x="1454" 
d="M662 1903v-215h-152v215h152zM940 1903v-215h-152v215h152zM1253 492q0 -512 -524 -512q-271 0 -396.5 133t-125.5 403v965h158v-996q0 -184 92 -278t272 -94q183 0 278 93t95 279v996h151v-989z" />
    <glyph glyph-name="Yacute" unicode="&#xdd;" horiz-adv-x="1189" 
d="M825 1921l41 -125l-506 -154l-26 84zM1169 1481l-497 -848v-633h-150v635l-502 846h166l412 -711l408 711h163z" />
    <glyph glyph-name="Thorn" unicode="&#xde;" horiz-adv-x="1343" 
d="M1274 770q0 -109 -39 -191.5t-110 -133.5t-165.5 -76t-211.5 -25h-369v-344h-172v1481h172v-312h346q163 0 283.5 -41t193 -132.5t72.5 -225.5zM1098 772q0 266 -379 266h-340v-561h352q173 0 270 72t97 223z" />
    <glyph glyph-name="germandbls" unicode="&#xdf;" horiz-adv-x="1239" 
d="M647 1481q90 0 157 -23t105.5 -63t57 -88t18.5 -103q0 -38 -7.5 -70t-26 -58t-35.5 -44t-50.5 -38.5t-54.5 -31.5t-63 -32q-80 -42 -106 -65t-26 -62q0 -38 25.5 -55t101.5 -41q9 -3 27 -10q33 -12 51 -19t52 -21.5t54 -26t49 -30.5t47 -37.5t38.5 -44.5t32 -53.5
t19 -63.5t7.5 -75q0 -163 -111.5 -254.5t-281.5 -91.5q-76 0 -154 19t-129 52l60 105q53 -32 99.5 -48t109.5 -16q123 0 193.5 58t70.5 161q0 38 -9.5 69t-30 55t-41.5 41.5t-57 34t-61 26t-69 24.5q-29 10 -45 16t-43 18t-42 22t-34.5 27.5t-30 36t-18 44t-7.5 55.5
q0 72 43 122t140 104q8 5 33.5 20t36 22t30.5 21.5t29 26t20.5 28.5t16 37t4.5 43q0 75 -55.5 119.5t-155.5 44.5q-127 0 -203 -77t-76 -222v-1069h-147v930h-144v114h142q2 198 119 317.5t325 119.5z" />
    <glyph glyph-name="agrave" unicode="&#xe0;" horiz-adv-x="1157" 
d="M324 1499l493 -194l-29 -84l-505 153zM463 -20q-157 0 -251.5 80.5t-94.5 220.5q0 178 120.5 262t389.5 90l209 6v90q0 109 -73.5 171.5t-193.5 62.5q-103 0 -177.5 -51.5t-92.5 -145.5h-139q8 134 121.5 223.5t296.5 89.5q191 0 297 -91.5t106 -250.5v-737h-131l-10 197
q-61 -119 -156 -168t-221 -49zM504 94q76 0 153 36t127.5 95t51.5 121v191l-174 -5q-210 -3 -303 -58t-93 -179q0 -94 65.5 -147.5t172.5 -53.5z" />
    <glyph glyph-name="aacute" unicode="&#xe1;" horiz-adv-x="1157" 
d="M803 1499l41 -125l-506 -153l-27 84zM463 -20q-157 0 -251.5 80.5t-94.5 220.5q0 178 120.5 262t389.5 90l209 6v90q0 109 -73.5 171.5t-193.5 62.5q-103 0 -177.5 -51.5t-92.5 -145.5h-139q8 134 121.5 223.5t296.5 89.5q191 0 297 -91.5t106 -250.5v-737h-131l-10 197
q-61 -119 -156 -168t-221 -49zM504 94q76 0 153 36t127.5 95t51.5 121v191l-174 -5q-210 -3 -303 -58t-93 -179q0 -94 65.5 -147.5t172.5 -53.5z" />
    <glyph glyph-name="acircumflex" unicode="&#xe2;" horiz-adv-x="1157" 
d="M723 1266l-145 131l-158 -131h-148l252 219h111l248 -219h-160zM463 -20q-157 0 -251.5 80.5t-94.5 220.5q0 178 120.5 262t389.5 90l209 6v90q0 109 -73.5 171.5t-193.5 62.5q-103 0 -177.5 -51.5t-92.5 -145.5h-139q8 134 121.5 223.5t296.5 89.5q191 0 297 -91.5
t106 -250.5v-737h-131l-10 197q-61 -119 -156 -168t-221 -49zM504 94q76 0 153 36t127.5 95t51.5 121v191l-174 -5q-210 -3 -303 -58t-93 -179q0 -94 65.5 -147.5t172.5 -53.5z" />
    <glyph glyph-name="atilde" unicode="&#xe3;" horiz-adv-x="1157" 
d="M854 1360q-61 -45 -147 -45q-55 0 -130.5 26.5t-117.5 26.5q-21 0 -40 -5t-28 -9t-27.5 -15t-23.5 -14q-10 -7 -16.5 -5t-10.5 15l-18 49q-5 14 6 25q25 19 42.5 30t46.5 20t61 9q49 0 131.5 -27.5t126.5 -27.5q47 0 112 37q21 15 29 -8l18 -58q6 -14 -14 -24zM463 -20
q-157 0 -251.5 80.5t-94.5 220.5q0 178 120.5 262t389.5 90l209 6v90q0 109 -73.5 171.5t-193.5 62.5q-103 0 -177.5 -51.5t-92.5 -145.5h-139q8 134 121.5 223.5t296.5 89.5q191 0 297 -91.5t106 -250.5v-737h-131l-10 197q-61 -119 -156 -168t-221 -49zM504 94
q76 0 153 36t127.5 95t51.5 121v191l-174 -5q-210 -3 -303 -58t-93 -179q0 -94 65.5 -147.5t172.5 -53.5z" />
    <glyph glyph-name="adieresis" unicode="&#xe4;" horiz-adv-x="1157" 
d="M514 1481v-215h-152v215h152zM793 1481v-215h-152v215h152zM463 -20q-157 0 -251.5 80.5t-94.5 220.5q0 178 120.5 262t389.5 90l209 6v90q0 109 -73.5 171.5t-193.5 62.5q-103 0 -177.5 -51.5t-92.5 -145.5h-139q8 134 121.5 223.5t296.5 89.5q191 0 297 -91.5
t106 -250.5v-737h-131l-10 197q-61 -119 -156 -168t-221 -49zM504 94q76 0 153 36t127.5 95t51.5 121v191l-174 -5q-210 -3 -303 -58t-93 -179q0 -94 65.5 -147.5t172.5 -53.5z" />
    <glyph glyph-name="aring" unicode="&#xe5;" horiz-adv-x="1157" 
d="M786 1393q0 -87 -59.5 -146t-146.5 -59t-147 60t-60 149q0 83 61 141.5t146 58.5q86 0 146 -59t60 -145zM688 1393q0 49 -32 80.5t-78 31.5t-79.5 -32t-33.5 -80q0 -44 34.5 -79.5t78.5 -35.5q45 0 77.5 35t32.5 80zM463 -20q-157 0 -251.5 80.5t-94.5 220.5
q0 178 120.5 262t389.5 90l209 6v90q0 109 -73.5 171.5t-193.5 62.5q-103 0 -177.5 -51.5t-92.5 -145.5h-139q8 134 121.5 223.5t296.5 89.5q191 0 297 -91.5t106 -250.5v-737h-131l-10 197q-61 -119 -156 -168t-221 -49zM504 94q76 0 153 36t127.5 95t51.5 121v191l-174 -5
q-210 -3 -303 -58t-93 -179q0 -94 65.5 -147.5t172.5 -53.5z" />
    <glyph glyph-name="ae" unicode="&#xe6;" horiz-adv-x="1916" 
d="M979 496q0 -99 47 -191t130.5 -150.5t180.5 -58.5q66 0 119 15t94 46t66.5 57.5t56.5 68.5l103 -58q-67 -117 -184 -181t-271 -64q-64 0 -122.5 15t-99 36t-79 53.5t-61 57.5t-46.5 57q-7 7 -14 0q-39 -46 -72 -76.5t-87.5 -67.5t-127 -56t-159.5 -19q-157 0 -246.5 79
t-89.5 215q0 153 125 242.5t374 108.5l222 16v84q0 114 -69 178t-198 64q-178 0 -303 -183l-123 47q65 120 177 184t264 64q282 0 356 -205q60 101 158 153t225 52q216 0 346.5 -153.5t130.5 -427.5zM1325 967q-146 0 -243 -101t-97 -266l666 -2q0 152 -91.5 260.5
t-234.5 108.5zM838 539l-185 -13q-383 -30 -383 -241q0 -91 62.5 -144t171.5 -49q138 6 236 80t98 174v193z" />
    <glyph glyph-name="ccedilla" unicode="&#xe7;" horiz-adv-x="1124" 
d="M598 98q101 0 173.5 57t94.5 156h138q-27 -152 -129.5 -236t-247.5 -93l-37 -97q92 -6 133 -47.5t41 -99.5q0 -72 -61 -113t-152 -41q-109 0 -180 49l28 72q57 -47 136 -47q112 0 112 78q0 46 -38.5 68.5t-121.5 23.5q-16 0 -10 12l62 142q-196 19 -311 166t-115 376
q0 247 130 401t347 154q158 0 273.5 -88.5t140.5 -247.5l-138 -4q-28 106 -99.5 160.5t-168.5 54.5q-156 0 -247 -116t-91 -310q0 -197 90.5 -313.5t247.5 -116.5z" />
    <glyph glyph-name="egrave" unicode="&#xe8;" horiz-adv-x="1161" 
d="M332 1499l493 -194l-26 -84l-508 153zM266 494q0 -111 34.5 -197.5t111.5 -140.5t186 -54q108 0 181 50.5t104 146.5h145q-38 -158 -154.5 -238.5t-273.5 -80.5q-220 0 -353.5 143.5t-133.5 396.5q0 257 125.5 408t347.5 151q215 0 332.5 -137.5t117.5 -382.5v-65h-770z
M268 604h623q0 158 -78 256t-227 98q-80 0 -143 -31t-100.5 -82t-56.5 -113t-18 -128z" />
    <glyph glyph-name="eacute" unicode="&#xe9;" horiz-adv-x="1161" 
d="M813 1499l41 -125l-506 -153l-29 84zM266 494q0 -111 34.5 -197.5t111.5 -140.5t186 -54q108 0 181 50.5t104 146.5h145q-38 -158 -154.5 -238.5t-273.5 -80.5q-220 0 -353.5 143.5t-133.5 396.5q0 257 125.5 408t347.5 151q215 0 332.5 -137.5t117.5 -382.5v-65h-770z
M268 604h623q0 158 -78 256t-227 98q-80 0 -143 -31t-100.5 -82t-56.5 -113t-18 -128z" />
    <glyph glyph-name="ecircumflex" unicode="&#xea;" horiz-adv-x="1161" 
d="M733 1266l-147 131l-156 -131h-149l251 219h111l248 -219h-158zM266 494q0 -111 34.5 -197.5t111.5 -140.5t186 -54q108 0 181 50.5t104 146.5h145q-38 -158 -154.5 -238.5t-273.5 -80.5q-220 0 -353.5 143.5t-133.5 396.5q0 257 125.5 408t347.5 151q215 0 332.5 -137.5
t117.5 -382.5v-65h-770zM268 604h623q0 158 -78 256t-227 98q-80 0 -143 -31t-100.5 -82t-56.5 -113t-18 -128z" />
    <glyph glyph-name="edieresis" unicode="&#xeb;" horiz-adv-x="1161" 
d="M522 1481v-215h-151v215h151zM801 1481v-215h-152v215h152zM266 494q0 -111 34.5 -197.5t111.5 -140.5t186 -54q108 0 181 50.5t104 146.5h145q-38 -158 -154.5 -238.5t-273.5 -80.5q-220 0 -353.5 143.5t-133.5 396.5q0 257 125.5 408t347.5 151q215 0 332.5 -137.5
t117.5 -382.5v-65h-770zM268 604h623q0 158 -78 256t-227 98q-80 0 -143 -31t-100.5 -82t-56.5 -113t-18 -128z" />
    <glyph glyph-name="igrave" unicode="&#xec;" horiz-adv-x="505" 
d="M0 1499l494 -194l-29 -84l-506 153zM330 1059v-1059h-150v1059h150z" />
    <glyph glyph-name="iacute" unicode="&#xed;" horiz-adv-x="505" 
d="M479 1499l41 -125l-506 -153l-26 84zM330 1059v-1059h-150v1059h150z" />
    <glyph glyph-name="icircumflex" unicode="&#xee;" horiz-adv-x="505" 
d="M399 1266l-145 131l-158 -131h-147l252 219h110l248 -219h-160zM330 1059v-1059h-150v1059h150z" />
    <glyph glyph-name="idieresis" unicode="&#xef;" horiz-adv-x="505" 
d="M190 1481v-215h-151v215h151zM469 1481v-215h-152v215h152zM330 1059v-1059h-150v1059h150z" />
    <glyph glyph-name="eth" unicode="&#xf0;" horiz-adv-x="1210" 
d="M1106 522q0 -244 -136 -393t-368 -149q-221 0 -359.5 147t-138.5 377q0 233 137.5 383.5t348.5 150.5q171 0 270 -104q-88 196 -293 336l-321 -183l-45 72l286 160q-94 55 -235 108l102 76q134 -46 254 -114l213 116l39 -73l-170 -97q416 -284 416 -813zM608 94
q151 0 247.5 117t96.5 297q0 181 -97.5 299.5t-248.5 118.5q-152 0 -250 -118.5t-98 -299.5q0 -179 98.5 -296.5t251.5 -117.5z" />
    <glyph glyph-name="ntilde" unicode="&#xf1;" 
d="M889 1360q-61 -45 -148 -45q-55 0 -130 26.5t-117 26.5q-21 0 -40 -5t-28 -9t-27.5 -15t-23.5 -14q-10 -7 -16.5 -5t-10.5 15l-18 49q-5 14 6 25q26 19 43 29.5t45.5 20t60.5 9.5q49 0 131.5 -27.5t126.5 -27.5q48 0 113 37q21 15 29 -8l18 -58q6 -14 -14 -24zM170 0
v1059h143v-152q46 76 133 122t209 46q161 0 266 -100t105 -283v-692h-152v680q0 129 -68 198.5t-185 69.5q-128 0 -215 -58.5t-87 -168.5v-721h-149z" />
    <glyph glyph-name="ograve" unicode="&#xf2;" horiz-adv-x="1155" 
d="M328 1499l493 -194l-28 -84l-506 153zM578 -20q-222 0 -348 148t-126 394q0 250 128 403.5t348 153.5t345.5 -153t125.5 -400t-126 -396.5t-347 -149.5zM582 102q158 0 238.5 116.5t80.5 309.5q0 194 -81.5 311t-239.5 117q-159 0 -242.5 -118t-83.5 -310
q0 -191 84 -308.5t244 -117.5z" />
    <glyph glyph-name="oacute" unicode="&#xf3;" horiz-adv-x="1155" 
d="M807 1499l41 -125l-506 -153l-27 84zM578 -20q-222 0 -348 148t-126 394q0 250 128 403.5t348 153.5t345.5 -153t125.5 -400t-126 -396.5t-347 -149.5zM582 102q158 0 238.5 116.5t80.5 309.5q0 194 -81.5 311t-239.5 117q-159 0 -242.5 -118t-83.5 -310
q0 -191 84 -308.5t244 -117.5z" />
    <glyph glyph-name="ocircumflex" unicode="&#xf4;" horiz-adv-x="1155" 
d="M727 1266l-145 131l-158 -131h-148l252 219h111l248 -219h-160zM578 -20q-222 0 -348 148t-126 394q0 250 128 403.5t348 153.5t345.5 -153t125.5 -400t-126 -396.5t-347 -149.5zM582 102q158 0 238.5 116.5t80.5 309.5q0 194 -81.5 311t-239.5 117q-159 0 -242.5 -118
t-83.5 -310q0 -191 84 -308.5t244 -117.5z" />
    <glyph glyph-name="otilde" unicode="&#xf5;" horiz-adv-x="1155" 
d="M856 1360q-61 -45 -147 -45q-55 0 -130.5 26.5t-117.5 26.5q-21 0 -40 -5t-28 -9t-27.5 -15t-23.5 -14q-10 -7 -16.5 -5t-10.5 15l-18 49q-5 14 6 25q25 19 42.5 30t46.5 20t61 9q49 0 131.5 -27.5t126.5 -27.5q47 0 112 37q21 15 29 -8l18 -58q6 -14 -14 -24zM578 -20
q-222 0 -348 148t-126 394q0 250 128 403.5t348 153.5t345.5 -153t125.5 -400t-126 -396.5t-347 -149.5zM582 102q158 0 238.5 116.5t80.5 309.5q0 194 -81.5 311t-239.5 117q-159 0 -242.5 -118t-83.5 -310q0 -191 84 -308.5t244 -117.5z" />
    <glyph glyph-name="odieresis" unicode="&#xf6;" horiz-adv-x="1155" 
d="M518 1481v-215h-151v215h151zM797 1481v-215h-152v215h152zM578 -20q-222 0 -348 148t-126 394q0 250 128 403.5t348 153.5t345.5 -153t125.5 -400t-126 -396.5t-347 -149.5zM582 102q158 0 238.5 116.5t80.5 309.5q0 194 -81.5 311t-239.5 117q-159 0 -242.5 -118
t-83.5 -310q0 -191 84 -308.5t244 -117.5z" />
    <glyph glyph-name="divide" unicode="&#xf7;" horiz-adv-x="1126" 
d="M668 1192v-205h-211v205h211zM987 805v-121l-852 -2v121zM668 502v-203h-211v203h211z" />
    <glyph glyph-name="oslash" unicode="&#xf8;" horiz-adv-x="1189" 
d="M1143 993l-148 -143q74 -142 74 -324q0 -247 -126 -396.5t-347 -149.5q-220 0 -346 145l-139 -135l-70 71l152 148q-72 132 -72 313q0 250 128 403.5t349 153.5q212 0 340 -147l135 133zM270 528q0 -123 33 -211l535 519q-81 120 -240 120q-160 0 -244 -118t-84 -310z
M918 528q0 125 -33 215l-533 -520q84 -121 246 -121q159 0 239.5 116t80.5 310z" />
    <glyph glyph-name="ugrave" unicode="&#xf9;" 
d="M324 1499l493 -194l-29 -84l-505 153zM567 -18q-55 1 -109 12.5t-106.5 39.5t-92.5 68.5t-64.5 103.5t-24.5 140v717h149v-705q0 -70 25.5 -122t67 -80t87 -41t93.5 -13q116 0 198.5 71.5t83.5 199.5v690h152l-2 -1061h-123l-10 215q-17 -84 -68.5 -139t-115.5 -76
t-140 -20z" />
    <glyph glyph-name="uacute" unicode="&#xfa;" 
d="M803 1499l41 -125l-506 -153l-27 84zM567 -18q-55 1 -109 12.5t-106.5 39.5t-92.5 68.5t-64.5 103.5t-24.5 140v717h149v-705q0 -70 25.5 -122t67 -80t87 -41t93.5 -13q116 0 198.5 71.5t83.5 199.5v690h152l-2 -1061h-123l-10 215q-17 -84 -68.5 -139t-115.5 -76
t-140 -20z" />
    <glyph glyph-name="ucircumflex" unicode="&#xfb;" 
d="M723 1266l-145 131l-158 -131h-148l252 219h111l248 -219h-160zM567 -18q-55 1 -109 12.5t-106.5 39.5t-92.5 68.5t-64.5 103.5t-24.5 140v717h149v-705q0 -70 25.5 -122t67 -80t87 -41t93.5 -13q116 0 198.5 71.5t83.5 199.5v690h152l-2 -1061h-123l-10 215
q-17 -84 -68.5 -139t-115.5 -76t-140 -20z" />
    <glyph glyph-name="udieresis" unicode="&#xfc;" 
d="M512 1481v-215h-152v215h152zM791 1481v-215h-152v215h152zM567 -18q-55 1 -109 12.5t-106.5 39.5t-92.5 68.5t-64.5 103.5t-24.5 140v717h149v-705q0 -70 25.5 -122t67 -80t87 -41t93.5 -13q116 0 198.5 71.5t83.5 199.5v690h152l-2 -1061h-123l-10 215
q-17 -84 -68.5 -139t-115.5 -76t-140 -20z" />
    <glyph glyph-name="yacute" unicode="&#xfd;" horiz-adv-x="1087" 
d="M782 1499l41 -125l-506 -153l-26 84zM256 -338q-52 0 -89.5 6t-48.5 12l-12 5v98l111 -2q53 -1 91.5 9t62.5 29.5t37 38.5t24 46l43 114l-414 1041h154l334 -864l330 864h145l-451 -1165q-52 -126 -129.5 -179t-187.5 -53z" />
    <glyph glyph-name="thorn" unicode="&#xfe;" horiz-adv-x="1202" 
d="M317 1481v-572q51 58 78 81q108 89 260 89q196 0 319.5 -137.5t123.5 -396.5q0 -263 -126 -414t-337 -151q-162 0 -287 100q-17 15 -23 12.5t-6 -24.5v-398h-149v1811h147zM319 227q135 -135 281 -135q155 0 249.5 117.5t94.5 331.5q0 212 -94.5 319t-239.5 107
q-122 0 -206.5 -77t-84.5 -163v-500z" />
    <glyph glyph-name="ydieresis" unicode="&#xff;" horiz-adv-x="1087" 
d="M494 1481v-215h-152v215h152zM772 1481v-215h-151v215h151zM256 -338q-52 0 -89.5 6t-48.5 12l-12 5v98l111 -2q53 -1 91.5 9t62.5 29.5t37 38.5t24 46l43 114l-414 1041h154l334 -864l330 864h145l-451 -1165q-52 -126 -129.5 -179t-187.5 -53z" />
    <glyph glyph-name="Amacron" unicode="&#x100;" horiz-adv-x="1447" 
d="M1016 1872v-113h-572v113h572zM98 0l539 1481h176l539 -1481h-156l-154 428h-632l-158 -428h-154zM451 571h546l-270 760z" />
    <glyph glyph-name="amacron" unicode="&#x101;" horiz-adv-x="1157" 
d="M862 1450v-113h-571v113h571zM463 -20q-157 0 -251.5 80.5t-94.5 220.5q0 178 120.5 262t389.5 90l209 6v90q0 109 -73.5 171.5t-193.5 62.5q-103 0 -177.5 -51.5t-92.5 -145.5h-139q8 134 121.5 223.5t296.5 89.5q191 0 297 -91.5t106 -250.5v-737h-131l-10 197
q-61 -119 -156 -168t-221 -49zM504 94q76 0 153 36t127.5 95t51.5 121v191l-174 -5q-210 -3 -303 -58t-93 -179q0 -94 65.5 -147.5t172.5 -53.5z" />
    <glyph glyph-name="Abreve" unicode="&#x102;" horiz-adv-x="1447" 
d="M1024 1903q-25 -83 -102.5 -145t-192.5 -62t-191 59.5t-98 147.5h123q13 -20 23 -33t30 -32.5t49 -29.5t64 -10q107 0 170 105h125zM98 0l539 1481h176l539 -1481h-156l-154 428h-632l-158 -428h-154zM451 571h546l-270 760z" />
    <glyph glyph-name="abreve" unicode="&#x103;" horiz-adv-x="1157" 
d="M872 1481q-25 -83 -102 -145t-192 -62t-191 59.5t-98 147.5h123q13 -20 23 -33t30 -32.5t49 -29.5t64 -10q107 0 170 105h124zM463 -20q-157 0 -251.5 80.5t-94.5 220.5q0 178 120.5 262t389.5 90l209 6v90q0 109 -73.5 171.5t-193.5 62.5q-103 0 -177.5 -51.5
t-92.5 -145.5h-139q8 134 121.5 223.5t296.5 89.5q191 0 297 -91.5t106 -250.5v-737h-131l-10 197q-61 -119 -156 -168t-221 -49zM504 94q76 0 153 36t127.5 95t51.5 121v191l-174 -5q-210 -3 -303 -58t-93 -179q0 -94 65.5 -147.5t172.5 -53.5z" />
    <glyph glyph-name="Aogonek" unicode="&#x104;" horiz-adv-x="1447" 
d="M1386 -223q19 11 19 -10v-54q0 -15 -12 -20q-64 -33 -170 -33q-96 0 -145.5 43t-49.5 117q0 59 38 103t130 79l-154 426h-632l-158 -428h-154l539 1481h176l537 -1477h4q-2 0 -2 -2v-2h-9q-99 -44 -142.5 -83t-43.5 -89q0 -78 103 -78q64 0 126 27zM451 571h546l-270 760
z" />
    <glyph glyph-name="aogonek" unicode="&#x105;" horiz-adv-x="1157" 
d="M1010 -217q18 10 18 -10v-54q0 -15 -12 -20q-64 -33 -170 -33q-96 0 -145.5 43t-49.5 117q0 64 44.5 111t154.5 83l-10 177q-61 -119 -156 -168t-221 -49q-157 0 -251.5 80.5t-94.5 220.5q0 178 120.5 262t389.5 90l209 6v90q0 109 -73.5 171.5t-193.5 62.5
q-103 0 -177.5 -51.5t-92.5 -145.5h-139q8 134 121.5 223.5t296.5 89.5q191 0 297 -91.5t106 -250.5v-737h-27q-93 -42 -133.5 -80t-40.5 -86q0 -78 103 -78q65 0 127 27zM836 346v191l-174 -5q-210 -3 -303 -58t-93 -179q0 -94 65.5 -147.5t172.5 -53.5q76 0 153 36
t127.5 95t51.5 121z" />
    <glyph glyph-name="Cacute" unicode="&#x106;" horiz-adv-x="1419" 
d="M979 1921l41 -125l-506 -154l-27 84zM741 1501q228 0 380 -125t173 -309l-159 -10q-29 142 -129 225.5t-265 83.5q-216 0 -328 -157.5t-112 -469.5q0 -308 113.5 -466t339.5 -158q141 0 242 81t132 220l158 -19q-21 -179 -168 -298t-364 -119q-294 0 -456.5 201.5
t-162.5 559.5t159 559t447 201z" />
    <glyph glyph-name="cacute" unicode="&#x107;" horiz-adv-x="1124" 
d="M813 1499l41 -125l-506 -153l-29 84zM590 1079q158 0 273.5 -88.5t140.5 -247.5l-138 -4q-28 106 -99.5 160.5t-168.5 54.5q-156 0 -247 -116t-91 -310q0 -197 90.5 -313.5t247.5 -116.5q101 0 173.5 57t94.5 156h138q-28 -162 -142.5 -246.5t-271.5 -84.5
q-217 0 -347 150t-130 394q0 247 130 401t347 154z" />
    <glyph glyph-name="Ccircumflex" unicode="&#x108;" horiz-adv-x="1419" 
d="M899 1688l-145 131l-158 -131h-147l251 219h111l248 -219h-160zM741 1501q228 0 380 -125t173 -309l-159 -10q-29 142 -129 225.5t-265 83.5q-216 0 -328 -157.5t-112 -469.5q0 -308 113.5 -466t339.5 -158q141 0 242 81t132 220l158 -19q-21 -179 -168 -298t-364 -119
q-294 0 -456.5 201.5t-162.5 559.5t159 559t447 201z" />
    <glyph glyph-name="ccircumflex" unicode="&#x109;" horiz-adv-x="1124" 
d="M733 1266l-145 131l-158 -131h-149l254 219h108l248 -219h-158zM590 1079q158 0 273.5 -88.5t140.5 -247.5l-138 -4q-28 106 -99.5 160.5t-168.5 54.5q-156 0 -247 -116t-91 -310q0 -197 90.5 -313.5t247.5 -116.5q101 0 173.5 57t94.5 156h138q-28 -162 -142.5 -246.5
t-271.5 -84.5q-217 0 -347 150t-130 394q0 247 130 401t347 154z" />
    <glyph glyph-name="Cdotaccent" unicode="&#x10a;" horiz-adv-x="1419" 
d="M836 1903v-226h-164v226h164zM741 1501q228 0 380 -125t173 -309l-159 -10q-29 142 -129 225.5t-265 83.5q-216 0 -328 -157.5t-112 -469.5q0 -308 113.5 -466t339.5 -158q141 0 242 81t132 220l158 -19q-21 -179 -168 -298t-364 -119q-294 0 -456.5 201.5t-162.5 559.5
t159 559t447 201z" />
    <glyph glyph-name="cdotaccent" unicode="&#x10b;" horiz-adv-x="1124" 
d="M670 1481v-226h-164v226h164zM590 1079q158 0 273.5 -88.5t140.5 -247.5l-138 -4q-28 106 -99.5 160.5t-168.5 54.5q-156 0 -247 -116t-91 -310q0 -197 90.5 -313.5t247.5 -116.5q101 0 173.5 57t94.5 156h138q-28 -162 -142.5 -246.5t-271.5 -84.5q-217 0 -347 150
t-130 394q0 247 130 401t347 154z" />
    <glyph glyph-name="Ccaron" unicode="&#x10c;" horiz-adv-x="1419" 
d="M899 1903h160l-248 -222h-111l-254 222h150l158 -134zM741 1501q228 0 380 -125t173 -309l-159 -10q-29 142 -129 225.5t-265 83.5q-216 0 -328 -157.5t-112 -469.5q0 -308 113.5 -466t339.5 -158q141 0 242 81t132 220l158 -19q-21 -179 -168 -298t-364 -119
q-294 0 -456.5 201.5t-162.5 559.5t159 559t447 201z" />
    <glyph glyph-name="ccaron" unicode="&#x10d;" horiz-adv-x="1124" 
d="M733 1481h158l-246 -221h-113l-251 221h149l158 -133zM590 1079q158 0 273.5 -88.5t140.5 -247.5l-138 -4q-28 106 -99.5 160.5t-168.5 54.5q-156 0 -247 -116t-91 -310q0 -197 90.5 -313.5t247.5 -116.5q101 0 173.5 57t94.5 156h138q-28 -162 -142.5 -246.5
t-271.5 -84.5q-217 0 -347 150t-130 394q0 247 130 401t347 154z" />
    <glyph glyph-name="Dcaron" unicode="&#x10e;" horiz-adv-x="1413" 
d="M831 1903h160l-248 -222h-110l-254 222h149l158 -134zM207 1481q2 0 54 -0.5t126 -1t129 -0.5q402 -4 586 -184.5t184 -544.5q0 -378 -194.5 -564t-597.5 -186h-287v1481zM362 1348v-1213h127q157 0 272.5 32.5t199 103.5t125.5 189.5t42 284.5q0 169 -41.5 287
t-124.5 187t-195.5 99t-266.5 30h-138z" />
    <glyph glyph-name="dcaron" unicode="&#x10f;" 
d="M549 -20q-202 0 -319 139t-117 397q0 257 117 410t329 153q173 0 315 -133v576h150v-1522h-121l-10 203q-99 -223 -344 -223zM1096 1010q-7 0 -11.5 5.5t-1.5 10.5l60 143q5 12 3.5 17t-11.5 8l-13 2q-12 2 -16 5t-4 13v158q0 17 14 17h111q14 0 14 -15v-178q0 -4 -2 -7
l-2 -3l-68 -160q-5 -16 -34 -16h-39zM578 100q62 0 118 24.5t94.5 63.5t61 88t22.5 97v418q-114 165 -284 165q-153 0 -239.5 -111.5t-86.5 -322.5q0 -210 86.5 -316t227.5 -106z" />
    <glyph glyph-name="Dcroat" unicode="&#x110;" horiz-adv-x="1435" 
d="M537 1479q404 -4 588 -184.5t184 -544.5q0 -378 -195.5 -564t-599.5 -186h-285v678h-129q-16 0 -21 6t-5 21v75q0 25 18 25h137v676q2 0 54 -0.5t126 -1t128 -0.5zM512 135q157 0 272.5 32.5t199 103.5t125.5 189.5t42 284.5q0 169 -41.5 287t-125 187t-196 99t-266.5 30
h-137v-543h328q16 0 16 -21v-75q0 -17 -7 -24t-26 -7h-311v-543h127z" />
    <glyph glyph-name="dcroat" unicode="&#x111;" horiz-adv-x="1220" 
d="M1159 1331v-100h-135v-1231h-121l-10 203q-99 -223 -344 -223q-202 0 -319 139t-117 397q0 257 117 410t329 153q173 0 315 -133v285h-327v100h327v191h150v-191h135zM874 373v418q-114 165 -284 165q-153 0 -239.5 -111.5t-86.5 -322.5q0 -210 86.5 -316t227.5 -106
q62 0 118 24.5t94.5 63.5t61 88t22.5 97z" />
    <glyph glyph-name="Emacron" unicode="&#x112;" horiz-adv-x="1273" 
d="M967 1872v-113h-572v113h572zM207 0v1481h903v-135h-754v-531h688v-135h-688v-541l777 -2v-137h-926z" />
    <glyph glyph-name="emacron" unicode="&#x113;" horiz-adv-x="1161" 
d="M872 1450v-113h-571v113h571zM266 494q0 -111 34.5 -197.5t111.5 -140.5t186 -54q108 0 181 50.5t104 146.5h145q-38 -158 -154.5 -238.5t-273.5 -80.5q-220 0 -353.5 143.5t-133.5 396.5q0 257 125.5 408t347.5 151q215 0 332.5 -137.5t117.5 -382.5v-65h-770zM268 604
h623q0 158 -78 256t-227 98q-80 0 -143 -31t-100.5 -82t-56.5 -113t-18 -128z" />
    <glyph glyph-name="Ebreve" unicode="&#x114;" horiz-adv-x="1273" 
d="M975 1903q-25 -83 -102.5 -145t-192.5 -62t-191 59.5t-98 147.5h123q13 -20 23 -33t30 -32.5t49 -29.5t64 -10q107 0 170 105h125zM207 0v1481h903v-135h-754v-531h688v-135h-688v-541l777 -2v-137h-926z" />
    <glyph glyph-name="ebreve" unicode="&#x115;" horiz-adv-x="1161" 
d="M883 1481q-26 -83 -104 -145t-193 -62t-190.5 59.5t-98.5 147.5h123q13 -20 23 -33t30 -32.5t49 -29.5t64 -10q107 0 170 105h127zM266 494q0 -111 34.5 -197.5t111.5 -140.5t186 -54q108 0 181 50.5t104 146.5h145q-38 -158 -154.5 -238.5t-273.5 -80.5
q-220 0 -353.5 143.5t-133.5 396.5q0 257 125.5 408t347.5 151q215 0 332.5 -137.5t117.5 -382.5v-65h-770zM268 604h623q0 158 -78 256t-227 98q-80 0 -143 -31t-100.5 -82t-56.5 -113t-18 -128z" />
    <glyph glyph-name="Edotaccent" unicode="&#x116;" horiz-adv-x="1273" 
d="M764 1903v-226h-164v226h164zM207 0v1481h903v-135h-754v-531h688v-135h-688v-541l777 -2v-137h-926z" />
    <glyph glyph-name="edotaccent" unicode="&#x117;" horiz-adv-x="1161" 
d="M670 1481v-226h-164v226h164zM266 494q0 -111 34.5 -197.5t111.5 -140.5t186 -54q108 0 181 50.5t104 146.5h145q-38 -158 -154.5 -238.5t-273.5 -80.5q-220 0 -353.5 143.5t-133.5 396.5q0 257 125.5 408t347.5 151q215 0 332.5 -137.5t117.5 -382.5v-65h-770zM268 604
h623q0 158 -78 256t-227 98q-80 0 -143 -31t-100.5 -82t-56.5 -113t-18 -128z" />
    <glyph glyph-name="Eogonek" unicode="&#x118;" horiz-adv-x="1273" 
d="M1169 -225q19 11 19 -11v-53q0 -15 -12 -20q-64 -33 -170 -33q-96 0 -145.5 43t-49.5 117q0 59 37.5 103t128.5 79h-770v1481h903v-135h-754v-531h688v-135h-688v-541l777 -2v-135h4q-1 0 -2 -1t-2 -1q-104 -46 -148.5 -84.5t-44.5 -89.5q0 -39 24 -58.5t78 -19.5
q65 0 127 27z" />
    <glyph glyph-name="eogonek" unicode="&#x119;" horiz-adv-x="1161" 
d="M1036 559v-65h-770q0 -111 34.5 -197.5t111.5 -140.5t186 -54q108 0 181 50.5t104 146.5h145q-47 -195 -219 -276h2q-105 -45 -151 -85.5t-46 -91.5q0 -77 101 -77q75 0 127 26q20 11 20 -10v-53q0 -15 -12 -21q-64 -33 -170 -33q-96 0 -145.5 43t-49.5 117q0 90 84 142
q-208 11 -332 153.5t-124 386.5q0 257 125.5 408t347.5 151q215 0 332.5 -137.5t117.5 -382.5zM268 604h623q0 158 -78 256t-227 98q-80 0 -143 -31t-100.5 -82t-56.5 -113t-18 -128z" />
    <glyph glyph-name="Ecaron" unicode="&#x11a;" horiz-adv-x="1273" 
d="M827 1903h160l-248 -222h-110l-254 222h149l158 -134zM207 0v1481h903v-135h-754v-531h688v-135h-688v-541l777 -2v-137h-926z" />
    <glyph glyph-name="ecaron" unicode="&#x11b;" horiz-adv-x="1161" 
d="M733 1481h158l-248 -221h-111l-251 221h149l156 -133zM266 494q0 -111 34.5 -197.5t111.5 -140.5t186 -54q108 0 181 50.5t104 146.5h145q-38 -158 -154.5 -238.5t-273.5 -80.5q-220 0 -353.5 143.5t-133.5 396.5q0 257 125.5 408t347.5 151q215 0 332.5 -137.5
t117.5 -382.5v-65h-770zM268 604h623q0 158 -78 256t-227 98q-80 0 -143 -31t-100.5 -82t-56.5 -113t-18 -128z" />
    <glyph glyph-name="Gcircumflex" unicode="&#x11c;" horiz-adv-x="1501" 
d="M897 1688l-145 131l-158 -131h-148l252 219h111l248 -219h-160zM750 -20q-287 0 -451 201t-164 554q0 360 168 563t453 203q137 0 258.5 -59.5t196 -158.5t83.5 -212l-164 -14q-24 132 -127.5 219.5t-248.5 87.5q-214 0 -335.5 -160.5t-121.5 -455.5q0 -311 122 -471
t339 -160q96 0 175.5 36.5t127.5 94.5t74 123.5t28 128.5l4 147h-379v115l533 -2v-760h-119v238q-67 -116 -178.5 -187t-273.5 -71z" />
    <glyph glyph-name="gcircumflex" unicode="&#x11d;" horiz-adv-x="1249" 
d="M750 1266l-146 131l-158 -131h-147l252 219h111l247 -219h-159zM592 -350q-245 0 -377.5 75.5t-132.5 208.5q0 54 28.5 101t59 69.5t70 46t41.5 25.5q-1 0 -23.5 13.5t-30 19.5t-22.5 21t-21 32t-6 39q0 48 45.5 87.5t130.5 60.5q-101 53 -145.5 122.5t-44.5 167.5
q0 157 120.5 246.5t323.5 89.5q180 0 303 -94q12 5 69.5 29t111.5 46.5t75 30.5v-155l-186 -37q15 -32 27 -78t12 -78q0 -142 -109.5 -235.5t-318.5 -93.5l-49 2q-116 -3 -167.5 -26t-51.5 -56q0 -30 43.5 -43t162.5 -21l234 -14q169 -10 251.5 -83.5t82.5 -197.5
q0 -152 -132 -236.5t-374 -84.5zM596 516q137 0 207.5 57t70.5 166q0 111 -71.5 172.5t-206.5 61.5q-134 0 -208.5 -62.5t-74.5 -171.5q0 -107 74 -165t209 -58zM621 -246q327 0 327 199q0 75 -48 116.5t-157 47.5l-317 20q-61 5 -128 -51.5t-67 -134.5q0 -96 100.5 -146.5
t289.5 -50.5z" />
    <glyph glyph-name="Gbreve" unicode="&#x11e;" horiz-adv-x="1501" 
d="M1047 1903q-25 -83 -102.5 -145t-192.5 -62t-191 59.5t-98 147.5h123q13 -20 23 -33t30 -32.5t49 -29.5t64 -10q107 0 170 105h125zM750 -20q-287 0 -451 201t-164 554q0 360 168 563t453 203q137 0 258.5 -59.5t196 -158.5t83.5 -212l-164 -14q-24 132 -127.5 219.5
t-248.5 87.5q-214 0 -335.5 -160.5t-121.5 -455.5q0 -311 122 -471t339 -160q96 0 175.5 36.5t127.5 94.5t74 123.5t28 128.5l4 147h-379v115l533 -2v-760h-119v238q-67 -116 -178.5 -187t-273.5 -71z" />
    <glyph glyph-name="gbreve" unicode="&#x11f;" horiz-adv-x="1249" 
d="M899 1481q-25 -83 -102.5 -145t-192.5 -62t-191 59.5t-98 147.5h123q13 -20 23 -33t30 -32.5t49 -29.5t64 -10q107 0 170 105h125zM592 -350q-245 0 -377.5 75.5t-132.5 208.5q0 54 28.5 101t59 69.5t70 46t41.5 25.5q-1 0 -23.5 13.5t-30 19.5t-22.5 21t-21 32t-6 39
q0 48 45.5 87.5t130.5 60.5q-101 53 -145.5 122.5t-44.5 167.5q0 157 120.5 246.5t323.5 89.5q180 0 303 -94q12 5 69.5 29t111.5 46.5t75 30.5v-155l-186 -37q15 -32 27 -78t12 -78q0 -142 -109.5 -235.5t-318.5 -93.5l-49 2q-116 -3 -167.5 -26t-51.5 -56q0 -30 43.5 -43
t162.5 -21l234 -14q169 -10 251.5 -83.5t82.5 -197.5q0 -152 -132 -236.5t-374 -84.5zM596 516q137 0 207.5 57t70.5 166q0 111 -71.5 172.5t-206.5 61.5q-134 0 -208.5 -62.5t-74.5 -171.5q0 -107 74 -165t209 -58zM621 -246q327 0 327 199q0 75 -48 116.5t-157 47.5
l-317 20q-61 5 -128 -51.5t-67 -134.5q0 -96 100.5 -146.5t289.5 -50.5z" />
    <glyph glyph-name="Gdotaccent" unicode="&#x120;" horiz-adv-x="1501" 
d="M834 1903v-226h-164v226h164zM750 -20q-287 0 -451 201t-164 554q0 360 168 563t453 203q137 0 258.5 -59.5t196 -158.5t83.5 -212l-164 -14q-24 132 -127.5 219.5t-248.5 87.5q-214 0 -335.5 -160.5t-121.5 -455.5q0 -311 122 -471t339 -160q96 0 175.5 36.5t127.5 94.5
t74 123.5t28 128.5l4 147h-379v115l533 -2v-760h-119v238q-67 -116 -178.5 -187t-273.5 -71z" />
    <glyph glyph-name="gdotaccent" unicode="&#x121;" horiz-adv-x="1249" 
d="M686 1481v-226h-164v226h164zM592 -350q-245 0 -377.5 75.5t-132.5 208.5q0 54 28.5 101t59 69.5t70 46t41.5 25.5q-1 0 -23.5 13.5t-30 19.5t-22.5 21t-21 32t-6 39q0 48 45.5 87.5t130.5 60.5q-101 53 -145.5 122.5t-44.5 167.5q0 157 120.5 246.5t323.5 89.5
q180 0 303 -94q12 5 69.5 29t111.5 46.5t75 30.5v-155l-186 -37q15 -32 27 -78t12 -78q0 -142 -109.5 -235.5t-318.5 -93.5l-49 2q-116 -3 -167.5 -26t-51.5 -56q0 -30 43.5 -43t162.5 -21l234 -14q169 -10 251.5 -83.5t82.5 -197.5q0 -152 -132 -236.5t-374 -84.5zM596 516
q137 0 207.5 57t70.5 166q0 111 -71.5 172.5t-206.5 61.5q-134 0 -208.5 -62.5t-74.5 -171.5q0 -107 74 -165t209 -58zM621 -246q327 0 327 199q0 75 -48 116.5t-157 47.5l-317 20q-61 5 -128 -51.5t-67 -134.5q0 -96 100.5 -146.5t289.5 -50.5z" />
    <glyph glyph-name="uni0122" unicode="&#x122;" horiz-adv-x="1501" 
d="M750 -20q-287 0 -451 201t-164 554q0 360 168 563t453 203q137 0 258.5 -59.5t196 -158.5t83.5 -212l-164 -14q-24 132 -127.5 219.5t-248.5 87.5q-214 0 -335.5 -160.5t-121.5 -455.5q0 -311 122 -471t339 -160q96 0 175.5 36.5t127.5 94.5t74 123.5t28 128.5l4 147
h-379v115l533 -2v-760h-119v238q-67 -116 -178.5 -187t-273.5 -71zM698 -475q-7 0 -11 7t-1 13l53 105q7 10 4 18t-14 8h-16q-21 0 -21 23v131q0 20 17 20h112q17 0 17 -18v-156q0 -3 -2 -8.5t-2 -7.5l-72 -119q-9 -16 -37 -16h-27z" />
    <glyph glyph-name="uni0123" unicode="&#x123;" horiz-adv-x="1249" 
d="M487 1247v185l84 141h80l-82 -152h66v-174h-148zM592 -350q-245 0 -377.5 75.5t-132.5 208.5q0 54 28.5 101t59 69.5t70 46t41.5 25.5q-1 0 -23.5 13.5t-30 19.5t-22.5 21t-21 32t-6 39q0 48 45.5 87.5t130.5 60.5q-101 53 -145.5 122.5t-44.5 167.5q0 157 120.5 246.5
t323.5 89.5q180 0 303 -94q12 5 69.5 29t111.5 46.5t75 30.5v-155l-186 -37q15 -32 27 -78t12 -78q0 -142 -109.5 -235.5t-318.5 -93.5l-49 2q-116 -3 -167.5 -26t-51.5 -56q0 -30 43.5 -43t162.5 -21l234 -14q169 -10 251.5 -83.5t82.5 -197.5q0 -152 -132 -236.5
t-374 -84.5zM596 516q137 0 207.5 57t70.5 166q0 111 -71.5 172.5t-206.5 61.5q-134 0 -208.5 -62.5t-74.5 -171.5q0 -107 74 -165t209 -58zM621 -246q327 0 327 199q0 75 -48 116.5t-157 47.5l-317 20q-61 5 -128 -51.5t-67 -134.5q0 -96 100.5 -146.5t289.5 -50.5z" />
    <glyph glyph-name="Hcircumflex" unicode="&#x124;" horiz-adv-x="1441" 
d="M870 1688l-145 131l-158 -131h-147l252 219h110l248 -219h-160zM1094 700h-738v-700h-149v1481h149v-645h738v645h149v-1481h-149v700z" />
    <glyph glyph-name="hcircumflex" unicode="&#x125;" 
d="M170 0v1522h145v-615q43 74 131 121t209 47q158 0 263.5 -86t105.5 -221v-768h-150v733q0 101 -68.5 158t-184.5 57q-129 0 -215.5 -59t-86.5 -170v-719h-149zM856 1266l-145 131l-158 -131h-147l251 219h111l248 -219h-160z" />
    <glyph glyph-name="Hbar" unicode="&#x126;" horiz-adv-x="1472" 
d="M1436 1253q16 0 16 -22v-60q0 -15 -7.5 -20.5t-25.5 -5.5h-153v-1145h-150v700h-737v-700h-150v1145h-188q-25 0 -25 24v60q0 24 19 24h194v228h150v-228h737v228h150v-228h170zM1116 836v309h-737v-309h737z" />
    <glyph glyph-name="hbar" unicode="&#x127;" horiz-adv-x="1202" 
d="M678 1075q157 0 263 -86t106 -221v-768h-150v733q0 101 -69 158t-187 57q-129 0 -215 -59t-86 -170v-719h-150v1231h-147v100h147v191h146v-191h321v-100h-321v-324q43 74 131 121t211 47z" />
    <glyph glyph-name="Itilde" unicode="&#x128;" horiz-adv-x="555" 
d="M563 1782q-61 -45 -147 -45q-55 0 -130.5 26.5t-117.5 26.5q-21 0 -40 -5t-28 -9t-27.5 -15t-23.5 -14q-10 -7 -16 -5t-10 15l-19 49q-5 14 6 25q25 19 42.5 30t46.5 20t61 9q49 0 131.5 -27.5t126.5 -27.5q47 0 112 37q21 15 29 -8l19 -58q6 -14 -15 -24zM207 1481h149
v-1481h-149v1481z" />
    <glyph glyph-name="itilde" unicode="&#x129;" horiz-adv-x="505" 
d="M530 1360q-61 -45 -147 -45q-55 0 -130.5 26.5t-117.5 26.5q-21 0 -40 -5t-28 -9t-27.5 -15t-23.5 -14q-10 -7 -16 -5t-10 15l-19 49q-5 14 6 25q25 19 42.5 30t46.5 20t61 9q49 0 131.5 -27.5t126.5 -27.5q48 0 113 37q20 14 28 -8l19 -58q5 -14 -15 -24zM330 1059
v-1059h-150v1059h150z" />
    <glyph glyph-name="Imacron" unicode="&#x12a;" horiz-adv-x="555" 
d="M573 1872v-113h-571v113h571zM207 1481h149v-1481h-149v1481z" />
    <glyph glyph-name="imacron" unicode="&#x12b;" horiz-adv-x="505" 
d="M541 1450v-113h-572v113h572zM330 1059v-1059h-150v1059h150z" />
    <glyph glyph-name="Ibreve" unicode="&#x12c;" horiz-adv-x="555" 
d="M584 1903q-25 -83 -102.5 -145t-192.5 -62t-191 59.5t-98 147.5h123q13 -20 23 -33t30 -32.5t49 -29.5t64 -10q107 0 170 105h125zM207 1481h149v-1481h-149v1481z" />
    <glyph glyph-name="ibreve" unicode="&#x12d;" horiz-adv-x="505" 
d="M549 1481q-25 -83 -102.5 -145t-192.5 -62t-191 59.5t-98 147.5h123q13 -20 23 -33t30 -32.5t49 -29.5t64 -10q107 0 170 105h125zM330 1059v-1059h-150v1059h150z" />
    <glyph glyph-name="Iogonek" unicode="&#x12e;" horiz-adv-x="555" 
d="M385 -227q18 10 18 -11v-53q0 -15 -12 -20q-64 -33 -170 -33q-96 0 -145 43t-49 117q0 60 41 105.5t139 82.5v1477h149v-1481h-4q-105 -45 -150.5 -85t-45.5 -91q0 -39 24 -58.5t78 -19.5q65 0 127 27z" />
    <glyph glyph-name="iogonek" unicode="&#x12f;" horiz-adv-x="505" 
d="M338 1481v-226h-164v226h164zM354 -219q19 11 19 -10v-54q0 -15 -13 -20q-64 -33 -170 -33q-96 0 -145 43t-49 117q0 62 41.5 107.5t142.5 80.5v1047h150v-1059h-27q-95 -42 -136.5 -80.5t-41.5 -87.5q0 -39 24 -58.5t78 -19.5q65 0 127 27z" />
    <glyph glyph-name="Idotaccent" unicode="&#x130;" horiz-adv-x="555" 
d="M371 1903v-226h-164v226h164zM207 1481h149v-1481h-149v1481z" />
    <glyph glyph-name="dotlessi" unicode="&#x131;" horiz-adv-x="505" 
d="M330 1059v-1059h-150v1059h150z" />
    <glyph glyph-name="IJ" unicode="&#x132;" horiz-adv-x="1335" 
d="M207 1481h149v-1481h-149v1481zM1135 326q0 -174 -64.5 -260t-228.5 -86q-71 0 -136 17.5t-98 33.5l17 147q7 -3 33 -15.5t42.5 -18.5t47 -12.5t61.5 -6.5q97 0 135.5 55.5t38.5 190.5v1110h152v-1155z" />
    <glyph glyph-name="ij" unicode="&#x133;" horiz-adv-x="1040" 
d="M354 1522v-228h-164v228h164zM881 1522v-228h-166v228h166zM348 1059v-1059h-149v1059h149zM872 -68q0 -143 -59.5 -207.5t-208.5 -64.5q-51 0 -84 6t-40 12l-7 5v98l113 4q75 5 106 39.5t31 116.5v1118h149v-1127z" />
    <glyph glyph-name="Jcircumflex" unicode="&#x134;" horiz-adv-x="778" 
d="M631 1688l-146 131l-157 -131h-148l252 219h111l248 -219h-160zM580 326q0 -174 -64.5 -260t-228.5 -86q-71 0 -136 17.5t-98 33.5l17 147q7 -3 33 -15.5t42.5 -18.5t47 -12.5t61.5 -6.5q97 0 135.5 55.5t38.5 190.5v1110h152v-1155z" />
    <glyph glyph-name="jcircumflex" unicode="&#x135;" horiz-adv-x="497" 
d="M391 1266l-145 131l-158 -131h-147l252 219h110l248 -219h-160zM322 -68q0 -143 -59.5 -207.5t-207.5 -64.5q-56 0 -86 3t-38.5 7.5t-8.5 12.5v98l113 4q74 5 105.5 40t31.5 116v1118h150v-1127z" />
    <glyph glyph-name="uni0136" unicode="&#x136;" horiz-adv-x="1372" 
d="M1296 0h-176l-487 788l-271 -307v-481h-155v1481h155v-799l709 799h184l-505 -580zM631 -475q-7 0 -11.5 7t-1.5 13l54 105q7 10 4 18t-14 8h-17q-20 0 -20 23v131q0 20 16 20h113q16 0 16 -18v-156q0 -3 -2 -8.5t-2 -7.5l-72 -119q-9 -16 -37 -16h-26z" />
    <glyph glyph-name="uni0137" unicode="&#x137;" horiz-adv-x="1144" 
d="M1067 0h-166l-346 559l-236 -242v-317h-149v1522h149v-1030l543 567h174l-381 -397zM504 -475q-7 0 -11 7t-1 13l53 105q7 10 4 18t-14 8h-17q-20 0 -20 23v131q0 20 16 20h113q16 0 16 -18v-156q0 -3 -2 -8.5t-2 -7.5l-72 -119q-9 -16 -37 -16h-26z" />
    <glyph glyph-name="kgreenlandic" unicode="&#x138;" horiz-adv-x="1159" 
d="M1079 0h-178l-334 567l-248 -250v-317h-149v1059h149v-572l551 572h174l-370 -375z" />
    <glyph glyph-name="Lacute" unicode="&#x139;" horiz-adv-x="1150" 
d="M512 1921l41 -125l-506 -154l-27 84zM207 1481h155v-1340h721v-141h-876v1481z" />
    <glyph glyph-name="lacute" unicode="&#x13a;" horiz-adv-x="622" 
d="M477 2003l41 -125l-508 -156l-26 84zM416 -12q-70 0 -119.5 21.5t-75 62t-36.5 87t-11 105.5v1258h148v-1248q0 -84 32 -126.5t86 -45.5h62v-100q-51 -14 -86 -14z" />
    <glyph glyph-name="uni013B" unicode="&#x13b;" horiz-adv-x="1150" 
d="M207 1481h155v-1340h721v-141h-876v1481zM573 -475q-7 0 -11 7t-1 13l53 105q7 10 4 18t-14 8h-16q-21 0 -21 23v131q0 20 17 20h112q17 0 17 -18v-156q0 -3 -2 -8.5t-2 -7.5l-72 -119q-9 -16 -37 -16h-27z" />
    <glyph glyph-name="uni013C" unicode="&#x13c;" horiz-adv-x="622" 
d="M416 -12q-70 0 -119.5 21.5t-75 62t-36.5 87t-11 105.5v1258h148v-1248q0 -84 32 -126.5t86 -45.5h62v-100q-51 -14 -86 -14zM182 -475q-8 0 -11 7t1 13l53 105q6 10 2.5 18t-14.5 8h-16q-21 0 -21 23v131q0 20 17 20h112q17 0 17 -18v-156q0 -6 -5 -16l-69 -119
q-11 -16 -37 -16h-29z" />
    <glyph glyph-name="Lcaron" unicode="&#x13d;" horiz-adv-x="1150" 
d="M207 1481h155v-1340h721v-141h-876v1481zM745 1102q-7 0 -11 5.5t-1 10.5l60 144q5 12 3 16.5t-12 7.5l-12 2q-12 2 -16 5.5t-4 13.5v157q0 17 14 17h111q14 0 14 -15v-178q0 -4 -2 -7l-2 -3l-68 -160q-5 -16 -35 -16h-39z" />
    <glyph glyph-name="lcaron" unicode="&#x13e;" horiz-adv-x="614" 
d="M416 -12q-70 0 -119.5 21.5t-75 62t-36.5 87t-11 105.5v1258h148v-1248q0 -84 32 -126.5t86 -45.5h62v-100q-51 -14 -86 -14zM449 1120q-7 0 -11.5 6t-1.5 11l60 143q5 12 3 17t-12 8l-12 2q-12 2 -16 5t-4 13v158q0 16 14 16h111q14 0 14 -14v-178q0 -3 -2 -7l-2 -4
l-68 -159q-6 -17 -35 -17h-38z" />
    <glyph glyph-name="Ldot" unicode="&#x13f;" horiz-adv-x="1181" 
d="M207 1481h155v-1340h721v-141h-876v1481zM1071 903v-201h-209v201h209z" />
    <glyph glyph-name="ldot" unicode="&#x140;" horiz-adv-x="675" 
d="M416 -12q-70 0 -119.5 21.5t-75 62t-36.5 87t-11 105.5v1258h148v-1248q0 -84 32 -126.5t86 -45.5h62v-100q-51 -14 -86 -14zM702 688v-201h-208v201h208z" />
    <glyph glyph-name="Lslash" unicode="&#x141;" horiz-adv-x="1165" 
d="M377 141h719v-141h-877v672l-141 -37q-23 -6 -23 14v90q0 18 17 25l147 39v678h158v-637l311 80q23 3 23 -17v-86q0 -18 -19 -24l-315 -84v-572z" />
    <glyph glyph-name="lslash" unicode="&#x142;" horiz-adv-x="538" 
d="M496 102h59v-100q-51 -14 -84 -14q-57 0 -100.5 15t-70 39.5t-43 61t-22.5 75t-6 85.5v248l-204 -176v143l204 174v869h148v-742l160 135v-139l-160 -137v-365q0 -84 32.5 -126.5t86.5 -45.5z" />
    <glyph glyph-name="Nacute" unicode="&#x143;" horiz-adv-x="1517" 
d="M1010 1921l41 -125l-506 -154l-27 84zM1167 1481h152v-1481h-133l-830 1223v-1223h-149v1481h139l821 -1213v1213z" />
    <glyph glyph-name="nacute" unicode="&#x144;" 
d="M840 1499l41 -125l-506 -153l-27 84zM170 0v1059h143v-152q46 76 133 122t209 46q161 0 266 -100t105 -283v-692h-152v680q0 129 -68 198.5t-185 69.5q-128 0 -215 -58.5t-87 -168.5v-721h-149z" />
    <glyph glyph-name="uni0145" unicode="&#x145;" horiz-adv-x="1517" 
d="M1167 1481h152v-1481h-133l-830 1223v-1223h-149v1481h139l821 -1213v1213zM662 -475q-7 0 -11.5 7t-1.5 13l53 105q7 10 4 18t-14 8h-16q-21 0 -21 23v131q0 20 17 20h112q17 0 17 -18v-156q0 -3 -2 -8.5t-2 -7.5l-72 -119q-9 -16 -37 -16h-26z" />
    <glyph glyph-name="uni0146" unicode="&#x146;" 
d="M170 0v1059h143v-152q46 76 133 122t209 46q161 0 266 -100t105 -283v-692h-152v680q0 129 -68 198.5t-185 69.5q-128 0 -215 -58.5t-87 -168.5v-721h-149zM539 -475q-7 0 -11.5 7t-1.5 13l54 105q7 10 3.5 18t-14.5 8h-16q-21 0 -21 23v131q0 20 17 20h113q16 0 16 -18
v-156q0 -3 -2 -8.5t-2 -7.5l-72 -119q-9 -16 -37 -16h-26z" />
    <glyph glyph-name="Ncaron" unicode="&#x147;" horiz-adv-x="1517" 
d="M930 1903h160l-248 -222h-111l-254 222h150l157 -134zM1167 1481h152v-1481h-133l-830 1223v-1223h-149v1481h139l821 -1213v1213z" />
    <glyph glyph-name="ncaron" unicode="&#x148;" 
d="M760 1481h160l-248 -221h-111l-254 221h150l157 -133zM170 0v1059h143v-152q46 76 133 122t209 46q161 0 266 -100t105 -283v-692h-152v680q0 129 -68 198.5t-185 69.5q-128 0 -215 -58.5t-87 -168.5v-721h-149z" />
    <glyph glyph-name="napostrophe" unicode="&#x149;" horiz-adv-x="1273" 
d="M84 938q-7 0 -10.5 5.5t-1.5 12.5l61 234q8 24 -6 27h-12q-21 0 -21 18v229q0 17 15 17h110q12 0 12 -15v-249q0 -9 -2 -11l-69 -250q-6 -18 -33 -18h-43zM264 0v1059h144v-152q46 76 132.5 122t207.5 46q162 0 266 -99.5t104 -283.5v-692h-149v680q0 128 -68 198
t-186 70q-128 0 -214.5 -58.5t-86.5 -168.5v-721h-150z" />
    <glyph glyph-name="Eng" unicode="&#x14a;" horiz-adv-x="1515" 
d="M1296 1481q21 0 21 -23v-1509q0 -149 -72 -224t-229 -75q-95 0 -182 28q-21 9 -21 35l8 88q3 22 25 17q82 -25 135 -25q82 0 124 41.5t42 140.5v86l-772 1106q-6 10 -10.5 12.5t-6.5 -1t-2 -11.5v-1142q0 -25 -26 -25h-97q-26 0 -26 25v1431q0 15 5 20t19 5h103
q25 0 37 -17l770 -1114q11 -14 19.5 -10.5t8.5 16.5v1102q0 23 23 23h104z" />
    <glyph glyph-name="eng" unicode="&#x14b;" horiz-adv-x="1196" 
d="M758 -340q-49 0 -76 3t-34 7t-7 11v98l98 4q73 2 105.5 38t32.5 118v794q0 105 -53.5 165t-168.5 60q-155 0 -336 -170v-788h-149v1059h143v-162q122 102 208 142t184 40q149 0 235 -83t86 -218v-829q0 -138 -68 -213.5t-200 -75.5z" />
    <glyph glyph-name="Omacron" unicode="&#x14c;" horiz-adv-x="1523" 
d="M1051 1872v-113h-572v113h572zM764 -20q-296 0 -462.5 196.5t-166.5 556.5q0 367 168 567.5t461 200.5q292 0 458.5 -200.5t166.5 -563.5q0 -361 -166 -559t-459 -198zM766 115q223 0 340 153.5t117 466.5q0 318 -117.5 474.5t-341.5 156.5t-343.5 -157.5t-119.5 -473.5
q0 -311 120 -465.5t345 -154.5z" />
    <glyph glyph-name="omacron" unicode="&#x14d;" horiz-adv-x="1155" 
d="M866 1450v-113h-571v113h571zM578 -20q-222 0 -348 148t-126 394q0 250 128 403.5t348 153.5t345.5 -153t125.5 -400t-126 -396.5t-347 -149.5zM582 102q158 0 238.5 116.5t80.5 309.5q0 194 -81.5 311t-239.5 117q-159 0 -242.5 -118t-83.5 -310q0 -191 84 -308.5
t244 -117.5z" />
    <glyph glyph-name="Obreve" unicode="&#x14e;" horiz-adv-x="1523" 
d="M1059 1903q-25 -83 -102.5 -145t-192.5 -62t-191 59.5t-98 147.5h123q13 -20 23 -33t30 -32.5t49 -29.5t64 -10q107 0 170 105h125zM764 -20q-296 0 -462.5 196.5t-166.5 556.5q0 367 168 567.5t461 200.5q292 0 458.5 -200.5t166.5 -563.5q0 -361 -166 -559t-459 -198z
M766 115q223 0 340 153.5t117 466.5q0 318 -117.5 474.5t-341.5 156.5t-343.5 -157.5t-119.5 -473.5q0 -311 120 -465.5t345 -154.5z" />
    <glyph glyph-name="obreve" unicode="&#x14f;" horiz-adv-x="1155" 
d="M877 1481q-25 -83 -102.5 -145t-192.5 -62t-191 59.5t-98 147.5h123q13 -20 23 -33t30 -32.5t49 -29.5t64 -10q107 0 170 105h125zM578 -20q-222 0 -348 148t-126 394q0 250 128 403.5t348 153.5t345.5 -153t125.5 -400t-126 -396.5t-347 -149.5zM582 102
q158 0 238.5 116.5t80.5 309.5q0 194 -81.5 311t-239.5 117q-159 0 -242.5 -118t-83.5 -310q0 -191 84 -308.5t244 -117.5z" />
    <glyph glyph-name="Ohungarumlaut" unicode="&#x150;" horiz-adv-x="1523" 
d="M786 1911l56 -68q10 -10 9.5 -18.5t-13.5 -18.5l-256 -217q-23 -16 -33 2l-29 35q-7 7 -7 15.5t5 11.5l244 260q14 11 24 -2zM1102 1911l57 -68q15 -21 -6 -37l-256 -217q-23 -16 -33 2l-28 35q-7 8 -6 16t6 11l243 260q16 12 23 -2zM764 -20q-296 0 -462.5 196.5
t-166.5 556.5q0 367 168 567.5t461 200.5q292 0 458.5 -200.5t166.5 -563.5q0 -361 -166 -559t-459 -198zM766 115q223 0 340 153.5t117 466.5q0 318 -117.5 474.5t-341.5 156.5t-343.5 -157.5t-119.5 -473.5q0 -311 120 -465.5t345 -154.5z" />
    <glyph glyph-name="ohungarumlaut" unicode="&#x151;" horiz-adv-x="1155" 
d="M604 1489l55 -68q10 -10 9.5 -18.5t-13.5 -18.5l-256 -217q-22 -16 -32 2l-29 35q-7 7 -7 15.5t5 11.5l244 260q14 11 24 -2zM920 1489l57 -68q15 -21 -6 -37l-256 -217q-23 -16 -33 2l-29 35q-7 8 -6 16t6 11l244 260q16 12 23 -2zM578 -20q-222 0 -348 148t-126 394
q0 250 128 403.5t348 153.5t345.5 -153t125.5 -400t-126 -396.5t-347 -149.5zM582 102q158 0 238.5 116.5t80.5 309.5q0 194 -81.5 311t-239.5 117q-159 0 -242.5 -118t-83.5 -310q0 -191 84 -308.5t244 -117.5z" />
    <glyph glyph-name="OE" unicode="&#x152;" horiz-adv-x="2289" 
d="M2150 133v-133h-901l-22 219q-142 -239 -459 -239q-298 0 -465.5 196.5t-167.5 556.5q0 367 169.5 567.5t469.5 200.5q314 0 453 -241l26 221h869v-133h-740v-535h555v-131h-555v-549h768zM766 113q223 0 331.5 152.5t108.5 469.5q0 321 -110 477t-332 156
q-449 0 -449 -633q0 -622 451 -622z" />
    <glyph glyph-name="oe" unicode="&#x153;" horiz-adv-x="2037" 
d="M604 -20q-225 0 -362.5 149.5t-137.5 392.5q0 249 139.5 403t362.5 154q135 0 241 -62.5t165 -174.5q17 -26 32 0q59 111 163.5 174t234.5 63q224 0 352.5 -155t128.5 -426h-819q0 -168 104 -284t252 -116q215 0 332 185l104 -58q-79 -128 -187 -186.5t-259 -58.5
q-134 0 -240 59t-168 166q-16 31 -36 -6q-62 -104 -166 -161.5t-236 -57.5zM1450 965q-150 0 -246.5 -102.5t-95.5 -262.5l666 -2q0 152 -90 259.5t-234 107.5zM608 96q159 0 251.5 116t92.5 314q0 200 -94.5 318.5t-251.5 118.5q-159 0 -253.5 -118.5t-94.5 -318.5
q0 -198 95 -314t255 -116z" />
    <glyph glyph-name="Racute" unicode="&#x154;" horiz-adv-x="1384" 
d="M893 1921l41 -125l-506 -154l-27 84zM1233 0h-162l-280 662h-435v-662h-149v1481h555q231 0 352 -101t121 -290q0 -87 -26 -157.5t-71.5 -117t-94.5 -76.5t-107 -49zM698 793q381 0 381 284q0 139 -84.5 207t-244.5 68h-394v-559h342z" />
    <glyph glyph-name="racute" unicode="&#x155;" horiz-adv-x="784" 
d="M653 1499l41 -125l-506 -153l-26 84zM170 0v1059h141v-213q57 100 169 166.5t225 66.5v-145q-99 4 -189.5 -37.5t-143.5 -107t-53 -132.5v-657h-149z" />
    <glyph glyph-name="uni0156" unicode="&#x156;" horiz-adv-x="1384" 
d="M1233 0h-162l-280 662h-435v-662h-149v1481h555q231 0 352 -101t121 -290q0 -87 -26 -157.5t-71.5 -117t-94.5 -76.5t-107 -49zM698 793q381 0 381 284q0 139 -84.5 207t-244.5 68h-394v-559h342zM623 -475q-7 0 -11.5 7t-1.5 13l54 105q7 10 3.5 18t-14.5 8h-16
q-21 0 -21 23v131q0 20 17 20h112q17 0 17 -18v-156q0 -3 -2 -8.5t-2 -7.5l-72 -119q-9 -16 -37 -16h-26z" />
    <glyph glyph-name="uni0157" unicode="&#x157;" horiz-adv-x="784" 
d="M170 0v1059h141v-213q57 100 169 166.5t225 66.5v-145q-99 4 -189.5 -37.5t-143.5 -107t-53 -132.5v-657h-149zM188 -475q-7 0 -11 7t-1 13l53 105q7 10 4 18t-14 8h-16q-21 0 -21 23v131q0 20 17 20h112q17 0 17 -18v-156q0 -3 -2 -8.5t-2 -7.5l-72 -119q-9 -16 -37 -16
h-27z" />
    <glyph glyph-name="Rcaron" unicode="&#x158;" horiz-adv-x="1384" 
d="M813 1903h160l-248 -222h-111l-254 222h150l158 -134zM1233 0h-162l-280 662h-435v-662h-149v1481h555q231 0 352 -101t121 -290q0 -87 -26 -157.5t-71.5 -117t-94.5 -76.5t-107 -49zM698 793q381 0 381 284q0 139 -84.5 207t-244.5 68h-394v-559h342z" />
    <glyph glyph-name="rcaron" unicode="&#x159;" horiz-adv-x="784" 
d="M573 1481h160l-248 -221h-110l-254 221h149l158 -133zM170 0v1059h141v-213q57 100 169 166.5t225 66.5v-145q-99 4 -189.5 -37.5t-143.5 -107t-53 -132.5v-657h-149z" />
    <glyph glyph-name="Sacute" unicode="&#x15a;" horiz-adv-x="1413" 
d="M924 1921l41 -125l-506 -154l-27 84zM711 -20q-143 0 -265 43t-207.5 132.5t-105.5 211.5l158 14q30 -130 146 -201t272 -71q174 0 285.5 72.5t111.5 191.5q0 106 -67 176.5t-199 101.5l-308 74q-173 40 -262.5 124.5t-89.5 225.5q-2 186 144.5 305t377.5 119
q124 0 224 -33.5t164.5 -91.5t102 -130t46.5 -154l-154 -13q-12 77 -47 134.5t-88 90.5t-115 48.5t-135 15.5q-90 0 -169.5 -29.5t-134 -95t-54.5 -154.5q0 -87 61 -140.5t215 -92.5l297 -74q99 -23 170 -66t108.5 -99.5t54 -115t16.5 -124.5q0 -169 -148 -282t-405 -113z
" />
    <glyph glyph-name="sacute" unicode="&#x15b;" horiz-adv-x="1060" 
d="M731 1499l41 -125l-506 -153l-26 84zM541 -20q-169 0 -293 84t-144 231h140q25 -101 102.5 -150t194.5 -49q120 0 192 49t72 136q0 62 -41.5 99t-126.5 60l-225 62q-132 33 -201.5 96t-69.5 172q0 97 57.5 169t146.5 106t194 34q170 0 274 -87.5t107 -207.5h-140
q-12 85 -78.5 132t-164.5 47q-43 0 -85 -9.5t-81.5 -29t-63.5 -57.5t-24 -89q0 -61 44.5 -96.5t137.5 -58.5l225 -62q93 -24 151.5 -70t79.5 -95.5t21 -108.5q0 -144 -116 -225.5t-285 -81.5z" />
    <glyph glyph-name="Scircumflex" unicode="&#x15c;" horiz-adv-x="1413" 
d="M844 1688l-146 131l-157 -131h-148l252 219h111l248 -219h-160zM711 -20q-143 0 -265 43t-207.5 132.5t-105.5 211.5l158 14q30 -130 146 -201t272 -71q174 0 285.5 72.5t111.5 191.5q0 106 -67 176.5t-199 101.5l-308 74q-173 40 -262.5 124.5t-89.5 225.5
q-2 186 144.5 305t377.5 119q124 0 224 -33.5t164.5 -91.5t102 -130t46.5 -154l-154 -13q-12 77 -47 134.5t-88 90.5t-115 48.5t-135 15.5q-90 0 -169.5 -29.5t-134 -95t-54.5 -154.5q0 -87 61 -140.5t215 -92.5l297 -74q99 -23 170 -66t108.5 -99.5t54 -115t16.5 -124.5
q0 -169 -148 -282t-405 -113z" />
    <glyph glyph-name="scircumflex" unicode="&#x15d;" horiz-adv-x="1060" 
d="M651 1266l-145 131l-158 -131h-147l252 219h110l248 -219h-160zM541 -20q-169 0 -293 84t-144 231h140q25 -101 102.5 -150t194.5 -49q120 0 192 49t72 136q0 62 -41.5 99t-126.5 60l-225 62q-132 33 -201.5 96t-69.5 172q0 97 57.5 169t146.5 106t194 34
q170 0 274 -87.5t107 -207.5h-140q-12 85 -78.5 132t-164.5 47q-43 0 -85 -9.5t-81.5 -29t-63.5 -57.5t-24 -89q0 -61 44.5 -96.5t137.5 -58.5l225 -62q93 -24 151.5 -70t79.5 -95.5t21 -108.5q0 -144 -116 -225.5t-285 -81.5z" />
    <glyph glyph-name="Scedilla" unicode="&#x15e;" horiz-adv-x="1413" 
d="M1264 375q0 -168 -144 -280t-395 -115l-37 -95q93 -6 133.5 -47t40.5 -100q0 -72 -60.5 -113t-152.5 -41q-109 0 -178 49l27 72q61 -47 135 -47q112 0 112 78q0 46 -37.5 68.5t-121.5 23.5q-17 0 -11 12l62 144q-196 16 -336.5 116.5t-167.5 266.5l158 14
q30 -130 146 -201t272 -71q174 0 285.5 72.5t111.5 191.5q0 106 -67 176.5t-199 101.5l-308 74q-173 40 -262.5 124.5t-89.5 225.5q-2 186 144.5 305t377.5 119q124 0 224 -33.5t164.5 -91.5t102 -130t46.5 -154l-154 -13q-12 77 -47 134.5t-88 90.5t-115 48.5t-135 15.5
q-90 0 -169.5 -29.5t-134 -95t-54.5 -154.5q0 -87 61 -140.5t215 -92.5l297 -74q99 -23 170 -66t108.5 -99.5t54 -115t16.5 -124.5z" />
    <glyph glyph-name="scedilla" unicode="&#x15f;" horiz-adv-x="1060" 
d="M942 287q0 -141 -111.5 -222.5t-275.5 -84.5l-37 -95q93 -6 133.5 -47t40.5 -100q0 -72 -60.5 -113t-152.5 -41q-109 0 -178 49l27 72q61 -47 135 -47q112 0 112 78q0 46 -37.5 68.5t-121.5 23.5q-16 0 -10 12l61 144q-144 18 -244.5 99.5t-118.5 211.5h140
q25 -101 102.5 -150t194.5 -49q120 0 192 49t72 136q0 62 -41.5 99t-126.5 60l-225 62q-132 33 -201.5 96t-69.5 172q0 97 57.5 169t146.5 106t194 34q170 0 274 -87.5t107 -207.5h-140q-12 85 -78.5 132t-164.5 47q-43 0 -85 -9.5t-81.5 -29t-63.5 -57.5t-24 -89
q0 -61 44.5 -96.5t137.5 -58.5l225 -62q93 -24 151.5 -70t79.5 -95.5t21 -108.5z" />
    <glyph glyph-name="Scaron" unicode="&#x160;" horiz-adv-x="1413" 
d="M844 1903h160l-248 -222h-111l-254 222h150l157 -134zM711 -20q-143 0 -265 43t-207.5 132.5t-105.5 211.5l158 14q30 -130 146 -201t272 -71q174 0 285.5 72.5t111.5 191.5q0 106 -67 176.5t-199 101.5l-308 74q-173 40 -262.5 124.5t-89.5 225.5q-2 186 144.5 305
t377.5 119q124 0 224 -33.5t164.5 -91.5t102 -130t46.5 -154l-154 -13q-12 77 -47 134.5t-88 90.5t-115 48.5t-135 15.5q-90 0 -169.5 -29.5t-134 -95t-54.5 -154.5q0 -87 61 -140.5t215 -92.5l297 -74q99 -23 170 -66t108.5 -99.5t54 -115t16.5 -124.5q0 -169 -148 -282
t-405 -113z" />
    <glyph glyph-name="scaron" unicode="&#x161;" horiz-adv-x="1060" 
d="M651 1481h160l-248 -221h-110l-254 221h149l158 -133zM541 -20q-169 0 -293 84t-144 231h140q25 -101 102.5 -150t194.5 -49q120 0 192 49t72 136q0 62 -41.5 99t-126.5 60l-225 62q-132 33 -201.5 96t-69.5 172q0 97 57.5 169t146.5 106t194 34q170 0 274 -87.5
t107 -207.5h-140q-12 85 -78.5 132t-164.5 47q-43 0 -85 -9.5t-81.5 -29t-63.5 -57.5t-24 -89q0 -61 44.5 -96.5t137.5 -58.5l225 -62q93 -24 151.5 -70t79.5 -95.5t21 -108.5q0 -144 -116 -225.5t-285 -81.5z" />
    <glyph glyph-name="uni0162" unicode="&#x162;" horiz-adv-x="1165" 
d="M674 0h-25l-45 -115q93 -6 133.5 -47t40.5 -100q0 -72 -60.5 -113t-152.5 -41q-109 0 -178 49l27 72q61 -47 135 -47q113 0 113 78q0 46 -38 68.5t-122 23.5q-16 0 -10 12l69 160h-39v1339h-487v142h1095v-142h-456v-1339z" />
    <glyph glyph-name="uni0163" unicode="&#x163;" horiz-adv-x="804" 
d="M545 -115q93 -6 133.5 -47t40.5 -100q0 -72 -60.5 -113t-152.5 -41q-109 0 -178 49l26 72q61 -47 135 -47q113 0 113 78q0 46 -38 68.5t-122 23.5q-16 0 -10 12l68 158q-119 7 -166 67.5t-47 184.5v696h-172v113h176l12 305h133v-305h242v-113h-242v-684q0 -90 27 -121.5
t84 -31.5h141v-97q-27 -11 -100 -14z" />
    <glyph glyph-name="Tcaron" unicode="&#x164;" horiz-adv-x="1165" 
d="M750 1903h159l-247 -222h-111l-254 222h149l158 -134zM35 1339v142h1095v-142h-456v-1339h-152v1339h-487z" />
    <glyph glyph-name="tcaron" unicode="&#x165;" horiz-adv-x="804" 
d="M651 1155q-7 0 -11 5.5t-1 10.5l59 144q5 12 3.5 16.5t-11.5 7.5l-12 2q-12 2 -16.5 5.5t-4.5 13.5v158q0 16 15 16h110q15 0 15 -14v-179q0 -3 -2 -6t-2 -4l-68 -160q-5 -16 -35 -16h-39zM678 946h-242v-684q0 -90 27 -121.5t84 -31.5h141v-97q-43 -16 -145 -16
q-144 0 -200 60.5t-56 193.5v696h-172v113h176l12 305h133v-305h242v-113z" />
    <glyph glyph-name="Tbar" unicode="&#x166;" horiz-adv-x="1165" 
d="M1130 1339h-456v-528h348v-127h-348v-684h-152v684h-262v127h262v528h-487v142h1095v-142z" />
    <glyph glyph-name="tbar" unicode="&#x167;" horiz-adv-x="761" 
d="M567 109h142v-97q-43 -16 -148 -16q-143 0 -198.5 60.5t-55.5 193.5v289h-209v100h209v307h-172v113h176l13 305h133v-305h241v-113h-241v-307h159v-100h-159v-277q0 -90 26.5 -121.5t83.5 -31.5z" />
    <glyph glyph-name="Utilde" unicode="&#x168;" horiz-adv-x="1454" 
d="M1001 1782q-61 -45 -147 -45q-55 0 -130.5 26.5t-117.5 26.5q-21 0 -40 -5t-28 -9t-27.5 -15t-23.5 -14q-10 -7 -16 -5t-10 15l-19 49q-5 13 7 25q26 19 43 29.5t45.5 20t60.5 9.5q49 0 131.5 -27.5t126.5 -27.5q48 0 113 37q20 14 28 -8l19 -58q6 -14 -15 -24zM1253 492
q0 -512 -524 -512q-271 0 -396.5 133t-125.5 403v965h158v-996q0 -184 92 -278t272 -94q183 0 278 93t95 279v996h151v-989z" />
    <glyph glyph-name="utilde" unicode="&#x169;" 
d="M852 1360q-61 -45 -147 -45q-55 0 -130.5 26.5t-117.5 26.5q-21 0 -40 -5t-28 -9t-27.5 -15t-23.5 -14q-10 -7 -16.5 -5t-10.5 15l-18 49q-5 14 6 25q25 19 42.5 30t46.5 20t61 9q49 0 131.5 -27.5t126.5 -27.5q47 0 112 37q21 15 29 -8l18 -58q6 -14 -14 -24zM567 -18
q-55 1 -109 12.5t-106.5 39.5t-92.5 68.5t-64.5 103.5t-24.5 140v717h149v-705q0 -70 25.5 -122t67 -80t87 -41t93.5 -13q116 0 198.5 71.5t83.5 199.5v690h152l-2 -1061h-123l-10 215q-17 -84 -68.5 -139t-115.5 -76t-140 -20z" />
    <glyph glyph-name="Umacron" unicode="&#x16a;" horiz-adv-x="1454" 
d="M1012 1872v-113h-572v113h572zM1253 492q0 -512 -524 -512q-271 0 -396.5 133t-125.5 403v965h158v-996q0 -184 92 -278t272 -94q183 0 278 93t95 279v996h151v-989z" />
    <glyph glyph-name="umacron" unicode="&#x16b;" 
d="M862 1450v-113h-571v113h571zM567 -18q-55 1 -109 12.5t-106.5 39.5t-92.5 68.5t-64.5 103.5t-24.5 140v717h149v-705q0 -70 25.5 -122t67 -80t87 -41t93.5 -13q116 0 198.5 71.5t83.5 199.5v690h152l-2 -1061h-123l-10 215q-17 -84 -68.5 -139t-115.5 -76t-140 -20z" />
    <glyph glyph-name="Ubreve" unicode="&#x16c;" horiz-adv-x="1454" 
d="M1020 1903q-25 -83 -102.5 -145t-192.5 -62t-191 59.5t-98 147.5h123q13 -20 23 -33t30 -32.5t49 -29.5t64 -10q107 0 170 105h125zM1253 492q0 -512 -524 -512q-271 0 -396.5 133t-125.5 403v965h158v-996q0 -184 92 -278t272 -94q183 0 278 93t95 279v996h151v-989z
" />
    <glyph glyph-name="ubreve" unicode="&#x16d;" 
d="M870 1481q-25 -83 -102.5 -145t-192.5 -62t-190.5 59.5t-97.5 147.5h123q13 -21 22.5 -33.5t30 -32t49 -29.5t63.5 -10q107 0 170 105h125zM567 -18q-55 1 -109 12.5t-106.5 39.5t-92.5 68.5t-64.5 103.5t-24.5 140v717h149v-705q0 -70 25.5 -122t67 -80t87 -41t93.5 -13
q116 0 198.5 71.5t83.5 199.5v690h152l-2 -1061h-123l-10 215q-17 -84 -68.5 -139t-115.5 -76t-140 -20z" />
    <glyph glyph-name="Uring" unicode="&#x16e;" horiz-adv-x="1454" 
d="M934 1815q0 -87 -60 -146t-147 -59t-147 60t-60 149q0 83 61 141.5t146 58.5q87 0 147 -59t60 -145zM836 1815q0 49 -32 80.5t-79 31.5q-46 0 -79.5 -32t-33.5 -80q0 -44 34.5 -79.5t78.5 -35.5q45 0 78 35t33 80zM1253 492q0 -512 -524 -512q-271 0 -396.5 133
t-125.5 403v965h158v-996q0 -184 92 -278t272 -94q183 0 278 93t95 279v996h151v-989z" />
    <glyph glyph-name="uring" unicode="&#x16f;" 
d="M784 1393q0 -87 -59.5 -146t-146.5 -59t-147 60t-60 149q0 83 61 141.5t146 58.5q86 0 146 -59t60 -145zM686 1393q0 49 -32 80.5t-79 31.5q-45 0 -78.5 -32t-33.5 -80q0 -45 34 -80t78 -35q45 0 78 35t33 80zM567 -18q-55 1 -109 12.5t-106.5 39.5t-92.5 68.5
t-64.5 103.5t-24.5 140v717h149v-705q0 -70 25.5 -122t67 -80t87 -41t93.5 -13q116 0 198.5 71.5t83.5 199.5v690h152l-2 -1061h-123l-10 215q-17 -84 -68.5 -139t-115.5 -76t-140 -20z" />
    <glyph glyph-name="Uhungarumlaut" unicode="&#x170;" horiz-adv-x="1454" 
d="M748 1911l55 -68q10 -10 9.5 -18.5t-13.5 -18.5l-256 -217q-23 -16 -33 2l-29 35q-7 7 -7 15.5t5 11.5l244 260q15 11 25 -2zM1063 1911l57 -68q15 -21 -6 -37l-256 -217q-23 -16 -33 2l-28 35q-7 8 -6 16t6 11l243 260q16 12 23 -2zM1253 492q0 -512 -524 -512
q-271 0 -396.5 133t-125.5 403v965h158v-996q0 -184 92 -278t272 -94q183 0 278 93t95 279v996h151v-989z" />
    <glyph glyph-name="uhungarumlaut" unicode="&#x171;" 
d="M598 1489l55 -68q10 -10 9.5 -18.5t-13.5 -18.5l-256 -217q-23 -16 -33 2l-28 35q-7 7 -7 15.5t5 11.5l243 260q15 11 25 -2zM913 1489l58 -68q15 -21 -6 -37l-256 -217q-23 -16 -33 2l-29 35q-7 8 -6 16t6 11l244 260q15 11 22 -2zM567 -18q-55 1 -109 12.5t-106.5 39.5
t-92.5 68.5t-64.5 103.5t-24.5 140v717h149v-705q0 -70 25.5 -122t67 -80t87 -41t93.5 -13q116 0 198.5 71.5t83.5 199.5v690h152l-2 -1061h-123l-10 215q-17 -84 -68.5 -139t-115.5 -76t-140 -20z" />
    <glyph glyph-name="Uogonek" unicode="&#x172;" horiz-adv-x="1454" 
d="M1102 1481h151v-989q0 -439 -387 -502q-90 -41 -129 -78t-39 -86q0 -78 103 -78q65 0 127 27q18 10 18 -11v-53q0 -15 -12 -20q-64 -33 -170 -33q-96 0 -145.5 43t-49.5 117q0 102 121 162q-250 10 -366.5 143t-116.5 393v965h158v-996q0 -184 92 -278t272 -94
q183 0 278 93t95 279v996z" />
    <glyph glyph-name="uogonek" unicode="&#x173;" 
d="M1047 -223q18 10 18 -10v-54q0 -15 -12 -20q-64 -33 -170 -33q-96 0 -145.5 43t-49.5 117q0 65 48 113.5t165 84.5l-10 199q-17 -84 -68.5 -139t-115.5 -76t-140 -20q-55 1 -109 12.5t-106.5 39.5t-92.5 68.5t-64.5 103.5t-24.5 140v717h149v-705q0 -70 25.5 -122t67 -80
t87 -41t93.5 -13q116 0 198.5 71.5t83.5 199.5v690h152l-2 -1061h-14q-104 -46 -148.5 -84.5t-44.5 -89.5q0 -78 103 -78q65 0 127 27z" />
    <glyph glyph-name="Wcircumflex" unicode="&#x174;" horiz-adv-x="1953" 
d="M1130 1688l-145 131l-158 -131h-147l252 219h110l248 -219h-160zM1898 1481l-430 -1481h-153l-340 1212l-348 -1212h-148l-422 1481h154l346 -1252l356 1252h123l353 -1252l356 1252h153z" />
    <glyph glyph-name="wcircumflex" unicode="&#x175;" horiz-adv-x="1630" 
d="M969 1266l-146 131l-157 -131h-148l252 219h111l247 -219h-159zM1548 1059l-311 -1059h-168l-256 831l-242 -831h-168l-321 1059h143l256 -871h19l256 871h118l267 -869h18l246 869h143z" />
    <glyph glyph-name="Ycircumflex" unicode="&#x176;" horiz-adv-x="1189" 
d="M745 1688l-145 131l-158 -131h-147l252 219h110l248 -219h-160zM1169 1481l-497 -848v-633h-150v635l-502 846h166l412 -711l408 711h163z" />
    <glyph glyph-name="ycircumflex" unicode="&#x177;" horiz-adv-x="1087" 
d="M702 1266l-145 131l-158 -131h-147l252 219h110l248 -219h-160zM256 -338q-52 0 -89.5 6t-48.5 12l-12 5v98l111 -2q53 -1 91.5 9t62.5 29.5t37 38.5t24 46l43 114l-414 1041h154l334 -864l330 864h145l-451 -1165q-52 -126 -129.5 -179t-187.5 -53z" />
    <glyph glyph-name="Ydieresis" unicode="&#x178;" horiz-adv-x="1189" 
d="M537 1903v-215h-152v215h152zM815 1903v-215h-151v215h151zM1169 1481l-497 -848v-633h-150v635l-502 846h166l412 -711l408 711h163z" />
    <glyph glyph-name="Zacute" unicode="&#x179;" horiz-adv-x="1263" 
d="M879 1921l41 -125l-506 -154l-27 84zM113 0v90l833 1258h-805v133h1012v-86l-840 -1260h838v-135h-1038z" />
    <glyph glyph-name="zacute" unicode="&#x17a;" horiz-adv-x="999" 
d="M758 1499l41 -125l-506 -153l-27 84zM94 0v102l629 848h-586v109h762v-105l-627 -845h639v-109h-817z" />
    <glyph glyph-name="Zdotaccent" unicode="&#x17b;" horiz-adv-x="1263" 
d="M735 1903v-226h-164v226h164zM113 0v90l833 1258h-805v133h1012v-86l-840 -1260h838v-135h-1038z" />
    <glyph glyph-name="zdotaccent" unicode="&#x17c;" horiz-adv-x="999" 
d="M614 1481v-226h-163v226h163zM94 0v102l629 848h-586v109h762v-105l-627 -845h639v-109h-817z" />
    <glyph glyph-name="Zcaron" unicode="&#x17d;" horiz-adv-x="1263" 
d="M797 1903h159l-247 -222h-111l-254 222h150l157 -134zM113 0v90l833 1258h-805v133h1012v-86l-840 -1260h838v-135h-1038z" />
    <glyph glyph-name="zcaron" unicode="&#x17e;" horiz-adv-x="999" 
d="M678 1481h160l-248 -221h-111l-254 221h150l157 -133zM94 0v102l629 848h-586v109h762v-105l-627 -845h639v-109h-817z" />
    <glyph glyph-name="uni018F" unicode="&#x18f;" horiz-adv-x="1521" 
d="M1200 797q0 50 -4 97.5t-16 105t-31.5 106.5t-53.5 96.5t-78.5 81t-110 54t-144.5 20.5q-84 0 -152 -23t-109 -55t-74.5 -79t-48.5 -82t-31.5 -78.5t-22.5 -55.5q-6 -8 -25 0l-119 49q-13 4 -4 29q48 107 67 140q170 298 519 298q141 0 251.5 -46.5t179 -120.5
t113.5 -176.5t62.5 -205.5t17.5 -215q0 -119 -22 -227.5t-71.5 -206t-121 -168.5t-177 -113t-234.5 -42q-136 0 -243.5 40.5t-178.5 110t-117 168t-66 209.5t-20 240q0 11 1 16t6 9.5t16 4.5h1026q16 0 16 19zM1200 651l-854 2q-22 0 -22 -18q0 -79 12.5 -150t44 -140
t79.5 -119t125 -80.5t175 -30.5q420 0 440 536z" />
    <glyph glyph-name="florin" unicode="&#x192;" horiz-adv-x="897" 
d="M743 1059l-20 -113h-270l-179 -1024q-49 -262 -292 -262h-152l16 109l117 2q74 2 110.5 38.5t53.5 127.5l176 1009h-172l21 113h170l30 168q22 124 96.5 189t194.5 65h182l-18 -111h-154q-58 0 -100.5 -42t-54.5 -111l-29 -158h274z" />
    <glyph glyph-name="uni01C4" unicode="&#x1c4;" horiz-adv-x="2676" 
d="M2212 1903h158l-248 -222h-111l-254 222h152l155 -134zM207 1481q2 0 54 -0.5t126 -1t129 -0.5q402 -4 586 -184.5t184 -544.5q0 -378 -194.5 -564t-597.5 -186h-287v1481zM1526 0v90l833 1258h-805v133h1012v-86l-840 -1260h838v-135h-1038zM362 1348v-1213h127
q157 0 272.5 32.5t199 103.5t125.5 189.5t42 284.5q0 169 -41.5 287t-124.5 187t-195.5 99t-266.5 30h-138z" />
    <glyph glyph-name="uni01C5" unicode="&#x1c5;" horiz-adv-x="2412" 
d="M207 1481q2 0 54 -0.5t126 -1t129 -0.5q402 -4 586 -184.5t184 -544.5q0 -378 -194.5 -564t-597.5 -186h-287v1481zM2091 1481h158l-248 -221h-111l-252 221h150l156 -133zM362 1348v-1213h127q157 0 272.5 32.5t199 103.5t125.5 189.5t42 284.5q0 169 -41.5 287
t-124.5 187t-195.5 99t-266.5 30h-138zM1507 0v102l629 848h-586v109h762v-105l-626 -845h638v-109h-817z" />
    <glyph glyph-name="uni01C6" unicode="&#x1c6;" horiz-adv-x="2179" 
d="M549 -20q-202 0 -319 139t-117 397q0 257 117 410t329 153q173 0 315 -133v576h150v-1522h-121l-10 203q-99 -223 -344 -223zM1858 1481h157l-248 -221h-110l-252 221h149l156 -133zM1274 0v102l629 848h-586v109h762v-105l-627 -845h639v-109h-817zM578 100
q62 0 118 24.5t94.5 63.5t61 88t22.5 97v418q-114 165 -284 165q-153 0 -239.5 -111.5t-86.5 -322.5q0 -210 86.5 -316t227.5 -106z" />
    <glyph glyph-name="uni01C7" unicode="&#x1c7;" horiz-adv-x="1996" 
d="M207 1481h155v-1340h721v-141h-876v1481zM1796 326q0 -174 -64.5 -260t-228.5 -86q-71 0 -135.5 17.5t-97.5 33.5l16 147q7 -3 33 -15.5t42.5 -18.5t47 -12.5t61.5 -6.5q97 0 136 55.5t39 190.5v1110h151v-1155z" />
    <glyph glyph-name="uni01C8" unicode="&#x1c8;" horiz-adv-x="1681" 
d="M1509 1522v-228h-166v228h166zM207 1481h155v-1340h721v-141h-876v1481zM1501 -68q0 -143 -59.5 -207.5t-208.5 -64.5q-52 0 -84.5 6t-39.5 12l-7 5v98l112 4q75 5 105.5 39.5t30.5 116.5v1118h151v-1127z" />
    <glyph glyph-name="uni01C9" unicode="&#x1c9;" horiz-adv-x="1136" 
d="M428 -12q-71 0 -120.5 21.5t-75.5 62t-37 86.5t-11 106v1258h150v-1248q0 -84 32 -126.5t87 -45.5h59v-100q-51 -14 -84 -14zM975 1522v-228h-166v228h166zM967 -68q0 -143 -59 -207.5t-208 -64.5q-33 0 -58.5 2.5t-38.5 6t-21.5 6.5t-10.5 5l-2 3v98l113 4q75 4 105 39
t30 117v1118h150v-1127z" />
    <glyph glyph-name="uni01CA" unicode="&#x1ca;" horiz-adv-x="2301" 
d="M1167 1481h152v-1481h-133l-830 1223v-1223h-149v1481h139l821 -1213v1213zM2095 326q0 -174 -64 -260t-227 -86q-120 0 -235 51l16 147q6 -3 33 -15.5t43.5 -18.5t47.5 -12.5t63 -6.5q97 0 135.5 55.5t38.5 190.5v1110h149v-1155z" />
    <glyph glyph-name="uni01CB" unicode="&#x1cb;" horiz-adv-x="2045" 
d="M1876 1522v-228h-166v228h166zM1167 1481h152v-1481h-133l-830 1223v-1223h-149v1481h139l821 -1213v1213zM1868 -68q0 -143 -60 -207.5t-209 -64.5q-52 0 -84.5 6t-39.5 12l-7 5v98l113 4q75 4 105 39t30 117v1118h152v-1127z" />
    <glyph glyph-name="uni01CC" unicode="&#x1cc;" horiz-adv-x="1695" 
d="M1534 1522v-228h-166v228h166zM180 0v1059h144v-152q48 76 134 122t208 46q161 0 265.5 -100t104.5 -283v-692h-149v680q0 128 -68 198t-186 70q-130 0 -216.5 -58.5t-86.5 -168.5v-721h-150zM1526 -68q0 -143 -58.5 -207.5t-207.5 -64.5q-52 0 -85 6t-40 12l-7 5v98
l113 4q75 4 105 39t30 117v1118h150v-1127z" />
    <glyph glyph-name="uni01EA" unicode="&#x1ea;" horiz-adv-x="1523" 
d="M920 -4q-98 -44 -140.5 -82t-42.5 -88q0 -78 103 -78q65 0 127 27q18 10 18 -11v-53q0 -15 -12 -20q-64 -33 -170 -33q-96 0 -145.5 43t-49.5 117q0 102 121 162q-280 12 -437 208t-157 545q0 367 168 567.5t461 200.5q292 0 458.5 -200.5t166.5 -563.5q0 -309 -123 -500
t-346 -241zM301 735q0 -311 120 -465.5t345 -154.5q223 0 340 153.5t117 466.5q0 318 -117.5 474.5t-341.5 156.5t-343.5 -157.5t-119.5 -473.5z" />
    <glyph glyph-name="uni01EB" unicode="&#x1eb;" horiz-adv-x="1155" 
d="M723 0q-103 -46 -147 -84.5t-44 -89.5q0 -78 103 -78q65 0 127 27q18 10 18 -11v-53q0 -15 -12 -20q-64 -33 -170 -33q-96 0 -145.5 43t-49.5 117q0 104 123 164q-199 19 -310.5 164.5t-111.5 375.5q0 250 128 403.5t348 153.5t345.5 -153t125.5 -400q0 -201 -86 -341
t-242 -185zM254 528q0 -191 84 -308.5t244 -117.5q158 0 238.5 116.5t80.5 309.5q0 194 -81.5 311t-239.5 117q-159 0 -242.5 -118t-83.5 -310z" />
    <glyph glyph-name="uni01F1" unicode="&#x1f1;" horiz-adv-x="2676" 
d="M207 1481q2 0 54 -0.5t126 -1t129 -0.5q402 -4 586 -184.5t184 -544.5q0 -378 -194.5 -564t-597.5 -186h-287v1481zM1526 0v90l833 1258h-805v133h1012v-86l-840 -1260h838v-135h-1038zM362 1348v-1213h127q157 0 272.5 32.5t199 103.5t125.5 189.5t42 284.5
q0 169 -41.5 287t-124.5 187t-195.5 99t-266.5 30h-138z" />
    <glyph glyph-name="uni01F2" unicode="&#x1f2;" horiz-adv-x="2412" 
d="M207 1481q2 0 54 -0.5t126 -1t129 -0.5q402 -4 586 -184.5t184 -544.5q0 -378 -194.5 -564t-597.5 -186h-287v1481zM362 1348v-1213h127q157 0 272.5 32.5t199 103.5t125.5 189.5t42 284.5q0 169 -41.5 287t-124.5 187t-195.5 99t-266.5 30h-138zM1507 0v102l629 848
h-586v109h762v-105l-626 -845h638v-109h-817z" />
    <glyph glyph-name="uni01F3" unicode="&#x1f3;" horiz-adv-x="2179" 
d="M549 -20q-202 0 -319 139t-117 397q0 257 117 410t329 153q173 0 315 -133v576h150v-1522h-121l-10 203q-99 -223 -344 -223zM1274 0v102l629 848h-586v109h762v-105l-627 -845h639v-109h-817zM578 100q62 0 118 24.5t94.5 63.5t61 88t22.5 97v418q-114 165 -284 165
q-153 0 -239.5 -111.5t-86.5 -322.5q0 -210 86.5 -316t227.5 -106z" />
    <glyph glyph-name="uni01F4" unicode="&#x1f4;" horiz-adv-x="1501" 
d="M977 1921l41 -125l-506 -154l-27 84zM750 -20q-287 0 -451 201t-164 554q0 360 168 563t453 203q137 0 258.5 -59.5t196 -158.5t83.5 -212l-164 -14q-24 132 -127.5 219.5t-248.5 87.5q-214 0 -335.5 -160.5t-121.5 -455.5q0 -311 122 -471t339 -160q96 0 175.5 36.5
t127.5 94.5t74 123.5t28 128.5l4 147h-379v115l533 -2v-760h-119v238q-67 -116 -178.5 -187t-273.5 -71z" />
    <glyph glyph-name="uni01F5" unicode="&#x1f5;" horiz-adv-x="1265" 
d="M842 1499l41 -125l-508 -153l-27 84zM602 -350q-245 0 -377.5 75.5t-132.5 208.5q0 54 28.5 101t59 69.5t70 46t41.5 25.5q-1 0 -23.5 13.5t-30 19.5t-22.5 21t-21 32t-6 39q0 48 46.5 87.5t132.5 60.5q-103 53 -148 122.5t-45 167.5q0 157 120.5 246.5t323.5 89.5
q99 0 170.5 -23t135.5 -71q136 59 254 106v-155l-187 -37q15 -32 27 -78t12 -78q0 -142 -109.5 -235.5t-318.5 -93.5q-6 0 -23 1t-24 1q-118 -3 -169.5 -26t-51.5 -56q0 -30 44.5 -43t164.5 -21q31 -2 115.5 -7t117.5 -7q167 -10 249.5 -83.5t82.5 -197.5
q0 -152 -132 -236.5t-374 -84.5zM606 516q139 0 210 57t71 166q0 111 -72.5 172.5t-208.5 61.5q-133 0 -207.5 -62.5t-74.5 -171.5q0 -107 73.5 -165t208.5 -58zM631 -246q330 0 330 199q0 153 -205 164l-318 20q-61 5 -127.5 -51.5t-66.5 -134.5q0 -96 99.5 -146.5
t287.5 -50.5z" />
    <glyph glyph-name="Aringacute" unicode="&#x1fa;" horiz-adv-x="1361" 
d="M799 1434l487 -1432h-178l-147 434h-590l-148 -434h-151l493 1428q-90 61 -90 174q0 73 49.5 127t124.5 65l29 129h131l-59 -139q59 -21 96 -71.5t37 -115.5q0 -104 -84 -165zM676 1710q-44 0 -78.5 -32.5t-34.5 -80.5q0 -44 35 -79t78 -35q46 0 79 34.5t33 79.5
q0 49 -32 81t-80 32zM410 571h512l-254 750z" />
    <glyph glyph-name="aringacute" unicode="&#x1fb;" horiz-adv-x="1157" 
d="M338 1221l-27 84l72 28q-10 30 -10 64q0 83 61 141.5t146 58.5q61 0 110 -30t76 -82l37 14l41 -125l-62 -18q-12 -74 -69 -121t-133 -47q-90 0 -148 61zM465 1393q0 -11 4 -27l205 82q-29 57 -96 57q-46 0 -79.5 -32t-33.5 -80zM578 1278q51 0 84 41l-117 -35
q15 -6 33 -6zM578 1079q191 0 297 -91.5t106 -250.5v-737h-131l-10 197q-61 -119 -156 -168t-221 -49q-157 0 -251.5 80.5t-94.5 220.5q0 178 120.5 262t389.5 90l209 6v90q0 109 -73.5 171.5t-193.5 62.5q-103 0 -177.5 -51.5t-92.5 -145.5h-139q8 134 121.5 223.5
t296.5 89.5zM836 346v191l-174 -5q-210 -3 -303 -58t-93 -179q0 -94 65.5 -147.5t172.5 -53.5q76 0 153 36t127.5 95t51.5 121z" />
    <glyph glyph-name="AEacute" unicode="&#x1fc;" horiz-adv-x="2056" 
d="M1620 1921l41 -125l-506 -154l-27 84zM1917 133v-133h-905v434h-516l-244 -434h-154l828 1481h964l-2 -133h-706v-535h540v-131h-540v-549h735zM1012 571v795l-455 -795h455z" />
    <glyph glyph-name="aeacute" unicode="&#x1fd;" horiz-adv-x="1925" 
d="M1167 1499l41 -125l-508 -153l-26 84zM979 496q0 -99 47 -191t130.5 -150.5t180.5 -58.5q66 0 119 15t94 46t66.5 57.5t56.5 68.5l103 -58q-67 -117 -184 -181t-271 -64q-64 0 -122.5 15t-99 36t-79 53.5t-61 57.5t-46.5 57q-7 7 -14 0q-39 -46 -72 -76.5t-87.5 -67.5
t-127 -56t-159.5 -19q-157 0 -246.5 79t-89.5 215q0 153 125 242.5t374 108.5l222 16v84q0 114 -69 178t-198 64q-178 0 -303 -183l-123 47q65 120 177 184t264 64q282 0 356 -205q60 101 158 153t225 52q216 0 346.5 -153.5t130.5 -427.5zM1325 967q-146 0 -243 -101
t-97 -266l666 -2q0 152 -91.5 260.5t-234.5 108.5zM838 539l-185 -13q-383 -30 -383 -241q0 -91 62.5 -144t171.5 -49q138 6 236 80t98 174v193z" />
    <glyph glyph-name="Oslashacute" unicode="&#x1fe;" horiz-adv-x="1468" 
d="M958 1921l41 -125l-505 -154l-27 84zM1413 1434q17 -14 2 -29l-166 -186q111 -190 111 -482q0 -361 -167 -559t-460 -198q-281 0 -438 174l-141 -156q-21 -27 -48 -2l-45 43q-21 21 -8 37l162 182q-109 180 -109 475q0 367 167 567.5t460 200.5q275 0 441 -178l145 162
q18 21 33 6zM289 735q0 -211 57 -340l719 815q-109 156 -332 156q-222 0 -333 -156t-111 -475zM1176 735q0 208 -60 346l-717 -813q112 -153 336 -153q223 0 332 152t109 468z" />
    <glyph glyph-name="oslashacute" unicode="&#x1ff;" horiz-adv-x="1189" 
d="M860 1374l-506 -153l-26 84l491 194zM1143 993l-148 -143q74 -142 74 -324q0 -247 -126 -396.5t-347 -149.5q-220 0 -346 145l-139 -135l-70 71l152 148q-72 132 -72 313q0 250 128 403.5t349 153.5q212 0 340 -147l135 133zM270 528q0 -123 33 -211l535 519
q-81 120 -240 120q-160 0 -244 -118t-84 -310zM918 528q0 125 -33 215l-533 -520q84 -121 246 -121q159 0 239.5 116t80.5 310z" />
    <glyph glyph-name="uni0200" unicode="&#x200;" horiz-adv-x="1447" 
d="M393 1925l269 -283l-54 -67l-299 248zM707 1925l270 -283l-55 -67l-299 248zM98 0l539 1481h176l539 -1481h-156l-154 428h-632l-158 -428h-154zM451 571h546l-270 760z" />
    <glyph glyph-name="uni0201" unicode="&#x201;" horiz-adv-x="1157" 
d="M242 1503l268 -282l-53 -68l-299 248zM555 1503l270 -282l-55 -68l-299 248zM463 -20q-157 0 -251.5 80.5t-94.5 220.5q0 178 120.5 262t389.5 90l209 6v90q0 109 -73.5 171.5t-193.5 62.5q-103 0 -177.5 -51.5t-92.5 -145.5h-139q8 134 121.5 223.5t296.5 89.5
q191 0 297 -91.5t106 -250.5v-737h-131l-10 197q-61 -119 -156 -168t-221 -49zM504 94q76 0 153 36t127.5 95t51.5 121v191l-174 -5q-210 -3 -303 -58t-93 -179q0 -94 65.5 -147.5t172.5 -53.5z" />
    <glyph glyph-name="uni0202" unicode="&#x202;" horiz-adv-x="1447" 
d="M1036 1780h-125q-67 104 -170 104q-35 0 -63.5 -10t-50 -29.5t-30.5 -31t-24 -33.5h-120q22 88 97 147.5t191 59.5q115 0 192.5 -62t102.5 -145zM98 0l539 1481h176l539 -1481h-156l-154 428h-632l-158 -428h-154zM451 571h546l-270 760z" />
    <glyph glyph-name="uni0203" unicode="&#x203;" horiz-adv-x="1157" 
d="M885 1358h-125q-67 104 -170 104q-35 0 -63.5 -10t-50 -29.5t-30.5 -31t-24 -33.5h-121q22 88 97.5 147.5t191.5 59.5q115 0 192.5 -62t102.5 -145zM463 -20q-157 0 -251.5 80.5t-94.5 220.5q0 178 120.5 262t389.5 90l209 6v90q0 109 -73.5 171.5t-193.5 62.5
q-103 0 -177.5 -51.5t-92.5 -145.5h-139q8 134 121.5 223.5t296.5 89.5q191 0 297 -91.5t106 -250.5v-737h-131l-10 197q-61 -119 -156 -168t-221 -49zM504 94q76 0 153 36t127.5 95t51.5 121v191l-174 -5q-210 -3 -303 -58t-93 -179q0 -94 65.5 -147.5t172.5 -53.5z" />
    <glyph glyph-name="uni0204" unicode="&#x204;" horiz-adv-x="1273" 
d="M344 1925l268 -283l-53 -67l-299 248zM657 1925l271 -283l-56 -67l-299 248zM207 0v1481h903v-135h-754v-531h688v-135h-688v-541l777 -2v-137h-926z" />
    <glyph glyph-name="uni0205" unicode="&#x205;" horiz-adv-x="1161" 
d="M250 1503l268 -282l-53 -68l-299 248zM565 1503l269 -282l-56 -68l-297 248zM266 494q0 -111 34.5 -197.5t111.5 -140.5t186 -54q108 0 181 50.5t104 146.5h145q-38 -158 -154.5 -238.5t-273.5 -80.5q-220 0 -353.5 143.5t-133.5 396.5q0 257 125.5 408t347.5 151
q215 0 332.5 -137.5t117.5 -382.5v-65h-770zM268 604h623q0 158 -78 256t-227 98q-80 0 -143 -31t-100.5 -82t-56.5 -113t-18 -128z" />
    <glyph glyph-name="uni0206" unicode="&#x206;" horiz-adv-x="1273" 
d="M987 1780h-125q-67 104 -170 104q-35 0 -63.5 -10t-50 -29.5t-30.5 -31t-24 -33.5h-121q22 88 97.5 147.5t191.5 59.5q115 0 192.5 -62t102.5 -145zM207 0v1481h903v-135h-754v-531h688v-135h-688v-541l777 -2v-137h-926z" />
    <glyph glyph-name="uni0207" unicode="&#x207;" horiz-adv-x="1161" 
d="M893 1358h-125q-67 104 -170 104q-35 0 -63.5 -10t-50 -29.5t-30.5 -31t-24 -33.5h-121q22 88 98 147.5t191 59.5t192.5 -62t102.5 -145zM266 494q0 -111 34.5 -197.5t111.5 -140.5t186 -54q108 0 181 50.5t104 146.5h145q-38 -158 -154.5 -238.5t-273.5 -80.5
q-220 0 -353.5 143.5t-133.5 396.5q0 257 125.5 408t347.5 151q215 0 332.5 -137.5t117.5 -382.5v-65h-770zM268 604h623q0 158 -78 256t-227 98q-80 0 -143 -31t-100.5 -82t-56.5 -113t-18 -128z" />
    <glyph glyph-name="uni0208" unicode="&#x208;" horiz-adv-x="555" 
d="M-47 1925l268 -283l-53 -67l-299 248zM266 1925l271 -283l-56 -67l-299 248zM207 1481h149v-1481h-149v1481z" />
    <glyph glyph-name="uni0209" unicode="&#x209;" horiz-adv-x="505" 
d="M-82 1503l268 -282l-53 -68l-299 248zM231 1503l271 -282l-56 -68l-299 248zM330 1059v-1059h-150v1059h150z" />
    <glyph glyph-name="uni020A" unicode="&#x20a;" horiz-adv-x="555" 
d="M596 1780h-125q-67 104 -170 104q-35 0 -63.5 -10t-50 -29.5t-30.5 -31t-24 -33.5h-121q22 88 97.5 147.5t191.5 59.5q115 0 192.5 -62t102.5 -145zM207 1481h149v-1481h-149v1481z" />
    <glyph glyph-name="uni020B" unicode="&#x20b;" horiz-adv-x="505" 
d="M561 1358h-125q-67 104 -170 104q-35 0 -63.5 -10t-50 -29.5t-30.5 -31t-24 -33.5h-121q22 88 97.5 147.5t191.5 59.5q115 0 192.5 -62t102.5 -145zM330 1059v-1059h-150v1059h150z" />
    <glyph glyph-name="uni020C" unicode="&#x20c;" horiz-adv-x="1523" 
d="M430 1925l268 -283l-53 -67l-299 248zM743 1925l271 -283l-56 -67l-299 248zM764 -20q-296 0 -462.5 196.5t-166.5 556.5q0 367 168 567.5t461 200.5q292 0 458.5 -200.5t166.5 -563.5q0 -361 -166 -559t-459 -198zM766 115q223 0 340 153.5t117 466.5
q0 318 -117.5 474.5t-341.5 156.5t-343.5 -157.5t-119.5 -473.5q0 -311 120 -465.5t345 -154.5z" />
    <glyph glyph-name="uni020D" unicode="&#x20d;" horiz-adv-x="1155" 
d="M246 1503l268 -282l-53 -68l-299 248zM559 1503l270 -282l-55 -68l-299 248zM578 -20q-222 0 -348 148t-126 394q0 250 128 403.5t348 153.5t345.5 -153t125.5 -400t-126 -396.5t-347 -149.5zM582 102q158 0 238.5 116.5t80.5 309.5q0 194 -81.5 311t-239.5 117
q-159 0 -242.5 -118t-83.5 -310q0 -191 84 -308.5t244 -117.5z" />
    <glyph glyph-name="uni020E" unicode="&#x20e;" horiz-adv-x="1523" 
d="M1071 1780h-125q-67 104 -170 104q-35 0 -63.5 -10t-50 -29.5t-30.5 -31t-24 -33.5h-121q22 88 97.5 147.5t191.5 59.5q115 0 192.5 -62t102.5 -145zM764 -20q-296 0 -462.5 196.5t-166.5 556.5q0 367 168 567.5t461 200.5q292 0 458.5 -200.5t166.5 -563.5
q0 -361 -166 -559t-459 -198zM766 115q223 0 340 153.5t117 466.5q0 318 -117.5 474.5t-341.5 156.5t-343.5 -157.5t-119.5 -473.5q0 -311 120 -465.5t345 -154.5z" />
    <glyph glyph-name="uni020F" unicode="&#x20f;" horiz-adv-x="1155" 
d="M887 1358h-125q-67 104 -170 104q-35 0 -63.5 -10t-50 -29.5t-30.5 -31t-24 -33.5h-121q22 88 97.5 147.5t191.5 59.5q115 0 192.5 -62t102.5 -145zM578 -20q-222 0 -348 148t-126 394q0 250 128 403.5t348 153.5t345.5 -153t125.5 -400t-126 -396.5t-347 -149.5z
M582 102q158 0 238.5 116.5t80.5 309.5q0 194 -81.5 311t-239.5 117q-159 0 -242.5 -118t-83.5 -310q0 -191 84 -308.5t244 -117.5z" />
    <glyph glyph-name="uni0210" unicode="&#x210;" horiz-adv-x="1384" 
d="M332 1925l268 -283l-53 -67l-299 248zM645 1925l270 -283l-55 -67l-299 248zM1233 0h-162l-280 662h-435v-662h-149v1481h555q231 0 352 -101t121 -290q0 -87 -26 -157.5t-71.5 -117t-94.5 -76.5t-107 -49zM698 793q381 0 381 284q0 139 -84.5 207t-244.5 68h-394v-559
h342z" />
    <glyph glyph-name="uni0211" unicode="&#x211;" horiz-adv-x="784" 
d="M90 1503l268 -282l-53 -68l-299 248zM403 1503l271 -282l-56 -68l-299 248zM170 0v1059h141v-213q57 100 169 166.5t225 66.5v-145q-99 4 -189.5 -37.5t-143.5 -107t-53 -132.5v-657h-149z" />
    <glyph glyph-name="uni0212" unicode="&#x212;" horiz-adv-x="1384" 
d="M973 1780h-125q-67 104 -170 104q-35 0 -63.5 -10t-50 -29.5t-30.5 -31t-24 -33.5h-121q22 88 97.5 147.5t191.5 59.5q115 0 192.5 -62t102.5 -145zM1233 0h-162l-280 662h-435v-662h-149v1481h555q231 0 352 -101t121 -290q0 -87 -26 -157.5t-71.5 -117t-94.5 -76.5
t-107 -49zM698 793q381 0 381 284q0 139 -84.5 207t-244.5 68h-394v-559h342z" />
    <glyph glyph-name="uni0213" unicode="&#x213;" horiz-adv-x="784" 
d="M733 1358h-125q-67 104 -170 104q-35 0 -63.5 -10t-50 -29.5t-30.5 -31t-24 -33.5h-120q22 88 97 147.5t191 59.5q115 0 192.5 -62t102.5 -145zM170 0v1059h141v-213q57 100 169 166.5t225 66.5v-145q-99 4 -189.5 -37.5t-143.5 -107t-53 -132.5v-657h-149z" />
    <glyph glyph-name="uni0214" unicode="&#x214;" horiz-adv-x="1454" 
d="M389 1925l268 -283l-53 -67l-299 248zM702 1925l271 -283l-55 -67l-300 248zM1253 492q0 -512 -524 -512q-271 0 -396.5 133t-125.5 403v965h158v-996q0 -184 92 -278t272 -94q183 0 278 93t95 279v996h151v-989z" />
    <glyph glyph-name="uni0215" unicode="&#x215;" 
d="M240 1503l268 -282l-53 -68l-299 248zM553 1503l270 -282l-55 -68l-299 248zM567 -18q-55 1 -109 12.5t-106.5 39.5t-92.5 68.5t-64.5 103.5t-24.5 140v717h149v-705q0 -70 25.5 -122t67 -80t87 -41t93.5 -13q116 0 198.5 71.5t83.5 199.5v690h152l-2 -1061h-123l-10 215
q-17 -84 -68.5 -139t-115.5 -76t-140 -20z" />
    <glyph glyph-name="uni0216" unicode="&#x216;" horiz-adv-x="1454" 
d="M1032 1780h-125q-67 104 -170 104q-35 0 -63.5 -10t-50 -29.5t-30.5 -31t-24 -33.5h-120q22 88 97 147.5t191 59.5q115 0 192.5 -62t102.5 -145zM1253 492q0 -512 -524 -512q-271 0 -396.5 133t-125.5 403v965h158v-996q0 -184 92 -278t272 -94q183 0 278 93t95 279v996
h151v-989z" />
    <glyph glyph-name="uni0217" unicode="&#x217;" 
d="M883 1358h-125q-67 104 -170 104q-35 0 -63.5 -10t-50 -29.5t-30.5 -31t-24 -33.5h-121q22 88 97.5 147.5t191.5 59.5q115 0 192.5 -62t102.5 -145zM567 -18q-55 1 -109 12.5t-106.5 39.5t-92.5 68.5t-64.5 103.5t-24.5 140v717h149v-705q0 -70 25.5 -122t67 -80t87 -41
t93.5 -13q116 0 198.5 71.5t83.5 199.5v690h152l-2 -1061h-123l-10 215q-17 -84 -68.5 -139t-115.5 -76t-140 -20z" />
    <glyph glyph-name="uni0218" unicode="&#x218;" horiz-adv-x="1413" 
d="M711 -20q-143 0 -265 43t-207.5 132.5t-105.5 211.5l158 14q30 -130 146 -201t272 -71q174 0 285.5 72.5t111.5 191.5q0 106 -67 176.5t-199 101.5l-308 74q-173 40 -262.5 124.5t-89.5 225.5q-2 186 144.5 305t377.5 119q124 0 224 -33.5t164.5 -91.5t102 -130
t46.5 -154l-154 -13q-12 77 -47 134.5t-88 90.5t-115 48.5t-135 15.5q-90 0 -169.5 -29.5t-134 -95t-54.5 -154.5q0 -87 61 -140.5t215 -92.5l297 -74q99 -23 170 -66t108.5 -99.5t54 -115t16.5 -124.5q0 -169 -148 -282t-405 -113zM629 -475q-7 0 -11.5 7t-1.5 13l54 105
q7 10 3.5 18t-14.5 8h-16q-20 0 -20 23v131q0 20 16 20h113q16 0 16 -18v-156q0 -3 -2 -8.5t-2 -7.5l-72 -119q-9 -16 -37 -16h-26z" />
    <glyph glyph-name="uni0219" unicode="&#x219;" horiz-adv-x="1060" 
d="M541 -20q-169 0 -293 84t-144 231h140q25 -101 102.5 -150t194.5 -49q120 0 192 49t72 136q0 62 -41.5 99t-126.5 60l-225 62q-132 33 -201.5 96t-69.5 172q0 97 57.5 169t146.5 106t194 34q170 0 274 -87.5t107 -207.5h-140q-12 85 -78.5 132t-164.5 47q-43 0 -85 -9.5
t-81.5 -29t-63.5 -57.5t-24 -89q0 -61 44.5 -96.5t137.5 -58.5l225 -62q93 -24 151.5 -70t79.5 -95.5t21 -108.5q0 -144 -116 -225.5t-285 -81.5zM457 -475q-7 0 -11.5 7t-1.5 13l54 105q7 10 3.5 18t-14.5 8h-16q-20 0 -20 23v131q0 20 16 20h113q16 0 16 -18v-156
q0 -3 -2 -8.5t-2 -7.5l-72 -119q-9 -16 -37 -16h-26z" />
    <glyph glyph-name="uni021A" unicode="&#x21a;" horiz-adv-x="1165" 
d="M35 1339v142h1095v-142h-456v-1339h-152v1339h-487zM543 -475q-7 0 -11.5 7t-1.5 13l54 105q7 10 3.5 18t-14.5 8h-16q-20 0 -20 23v131q0 20 16 20h113q16 0 16 -18v-156q0 -3 -2 -8.5t-2 -7.5l-72 -119q-9 -16 -37 -16h-26z" />
    <glyph glyph-name="uni021B" unicode="&#x21b;" horiz-adv-x="804" 
d="M678 946h-242v-684q0 -90 27 -121.5t84 -31.5h141v-97q-43 -16 -145 -16q-144 0 -200 60.5t-56 193.5v696h-172v113h176l12 305h133v-305h242v-113zM483 -475q-7 0 -11 7t-1 13l53 105q7 10 4 18t-14 8h-16q-21 0 -21 23v131q0 20 17 20h112q17 0 17 -18v-156
q0 -3 -2.5 -8.5t-2.5 -7.5l-71 -119q-9 -16 -37 -16h-27z" />
    <glyph glyph-name="uni0237" unicode="&#x237;" horiz-adv-x="497" 
d="M322 -68q0 -143 -59.5 -207.5t-207.5 -64.5q-56 0 -86 3t-38.5 7.5t-8.5 12.5v98l113 4q74 5 105.5 40t31.5 116v1118h150v-1127z" />
    <glyph glyph-name="uni0259" unicode="&#x259;" horiz-adv-x="1153" 
d="M885 565q1 110 -34 197t-111 140.5t-185 53.5q-221 0 -287 -196h-143q38 158 154.5 238.5t273.5 80.5q219 0 352 -143.5t133 -396.5q0 -257 -125.5 -408t-347.5 -151q-214 0 -332 138t-118 382v65h770zM885 455h-623q0 -159 77.5 -257t227.5 -98q79 0 142 31t100.5 82.5
t57 113.5t18.5 128z" />
    <glyph glyph-name="uni02BC" unicode="&#x2bc;" horiz-adv-x="307" 
d="M84 938q-7 0 -10.5 5.5t-1.5 12.5l61 234q8 24 -6 27h-12q-21 0 -21 18v229q0 17 15 17h110q12 0 12 -15v-249q0 -9 -2 -11l-69 -250q-6 -18 -33 -18h-43z" />
    <glyph glyph-name="circumflex" unicode="&#x2c6;" horiz-adv-x="641" 
d="M463 1266l-146 131l-157 -131h-148l252 219h111l248 -219h-160z" />
    <glyph glyph-name="caron" unicode="&#x2c7;" horiz-adv-x="641" 
d="M463 1481h160l-248 -221h-111l-254 221h150l157 -133z" />
    <glyph glyph-name="breve" unicode="&#x2d8;" horiz-adv-x="641" 
d="M610 1481q-25 -83 -102.5 -145t-192.5 -62t-190.5 59.5t-97.5 147.5h123q13 -21 22.5 -33.5t30 -32t49 -29.5t63.5 -10q107 0 170 105h125z" />
    <glyph glyph-name="dotaccent" unicode="&#x2d9;" horiz-adv-x="225" 
d="M193 1481v-226h-164v226h164z" />
    <glyph glyph-name="ring" unicode="&#x2da;" horiz-adv-x="473" 
d="M442 1389q0 -87 -59.5 -146t-146.5 -59t-147 60t-60 149q0 83 61 141.5t146 58.5q86 0 146 -59t60 -145zM344 1389q0 49 -32 80.5t-79 31.5q-45 0 -78.5 -32t-33.5 -80q0 -45 34 -80t78 -35q45 0 78 35t33 80z" />
    <glyph glyph-name="ogonek" unicode="&#x2db;" horiz-adv-x="438" 
d="M29 -178q0 65 48 113.5t165 84.5l112 -14q-105 -45 -150.5 -85t-45.5 -91q0 -39 24 -58.5t78 -19.5q65 0 127 27q19 11 19 -10v-54q0 -15 -13 -20q-64 -33 -170 -33q-96 0 -145 43t-49 117z" />
    <glyph glyph-name="tilde" unicode="&#x2dc;" horiz-adv-x="661" 
d="M602 1360q-61 -45 -147 -45q-55 0 -130.5 26.5t-117.5 26.5q-21 0 -40 -5t-28 -9t-27.5 -15t-23.5 -14q-10 -7 -16.5 -5t-10.5 15l-18 49q-5 14 6 25q25 19 42.5 30t46.5 20t61 9q49 0 131.5 -27.5t126.5 -27.5q47 0 112 37q21 15 29 -8l18 -58q6 -14 -14 -24z" />
    <glyph glyph-name="hungarumlaut" unicode="&#x2dd;" horiz-adv-x="774" 
d="M332 1489l55 -68q10 -10 9.5 -18.5t-13.5 -18.5l-256 -217q-23 -16 -33 2l-28 35q-7 7 -7.5 15.5t4.5 11.5l244 260q15 11 25 -2zM647 1489l58 -68q8 -10 7 -18.5t-14 -18.5l-256 -217q-22 -16 -32 2l-29 35q-7 8 -6 16t6 11l244 260q15 11 22 -2z" />
    <glyph glyph-name="gravecomb" unicode="&#x300;" horiz-adv-x="0" 
d="M-520 1499l493 -194l-28 -84l-506 153z" />
    <glyph glyph-name="acutecomb" unicode="&#x301;" horiz-adv-x="0" 
d="M-68 1499l41 -125l-505 -153l-27 84z" />
    <glyph glyph-name="uni0302" unicode="&#x302;" horiz-adv-x="0" 
d="M-178 1266l-146 131l-157 -131h-148l252 219h111l248 -219h-160z" />
    <glyph glyph-name="tildecomb" unicode="&#x303;" horiz-adv-x="0" 
d="M-59 1360q-61 -45 -148 -45q-55 0 -130.5 26.5t-117.5 26.5q-21 0 -39.5 -5t-28 -9.5t-27.5 -15t-23 -13.5q-10 -7 -16.5 -5t-10.5 15l-18 49q-5 14 6 25q26 19 43 29.5t45.5 20t60.5 9.5q49 0 131.5 -27.5t126.5 -27.5q48 0 113 37q21 15 29 -8l18 -58q6 -14 -14 -24z
" />
    <glyph glyph-name="uni0304" unicode="&#x304;" horiz-adv-x="0" 
d="M-33 1450v-113h-571v113h571z" />
    <glyph glyph-name="uni0306" unicode="&#x306;" horiz-adv-x="0" 
d="M-31 1481q-25 -83 -102.5 -145t-192.5 -62t-190.5 59.5t-97.5 147.5h122q13 -20 23 -33t30 -32.5t49 -29.5t64 -10q107 0 170 105h125z" />
    <glyph glyph-name="uni0307" unicode="&#x307;" horiz-adv-x="0" 
d="M-33 1481v-226h-164v226h164z" />
    <glyph glyph-name="uni0308" unicode="&#x308;" horiz-adv-x="0" 
d="M-311 1481v-215h-152v215h152zM-33 1481v-215h-151v215h151z" />
    <glyph glyph-name="uni030A" unicode="&#x30a;" horiz-adv-x="0" 
d="M-31 1389q0 -87 -60 -146t-147 -59t-146.5 60t-59.5 149q0 83 60.5 141.5t145.5 58.5q87 0 147 -59t60 -145zM-129 1389q0 49 -32 80.5t-79 31.5q-45 0 -78.5 -32t-33.5 -80q0 -45 34 -80t78 -35q45 0 78 35t33 80z" />
    <glyph glyph-name="uni030B" unicode="&#x30b;" horiz-adv-x="0" 
d="M-442 1489l55 -68q10 -10 9.5 -18.5t-13.5 -18.5l-256 -217q-23 -16 -33 2l-29 35q-7 7 -7 15.5t5 11.5l244 260q15 11 25 -2zM-127 1489l57 -68q15 -21 -6 -37l-256 -217q-23 -16 -33 2l-28 35q-7 8 -6 16t6 11l243 260q16 12 23 -2z" />
    <glyph glyph-name="uni030C" unicode="&#x30c;" horiz-adv-x="0" 
d="M-178 1481h160l-248 -221h-111l-254 221h150l157 -133z" />
    <glyph glyph-name="uni030F" unicode="&#x30f;" horiz-adv-x="0" 
d="M-641 1503l268 -282l-53 -68l-299 248zM-328 1503l271 -282l-56 -68l-299 248z" />
    <glyph glyph-name="uni0311" unicode="&#x311;" horiz-adv-x="0" 
d="M10 1358h-125q-67 104 -170 104q-35 0 -63.5 -10t-50 -29.5t-30.5 -31t-24 -33.5h-120q22 88 97 147.5t191 59.5q115 0 192.5 -62t102.5 -145z" />
    <glyph glyph-name="dotbelowcomb" unicode="&#x323;" horiz-adv-x="0" 
d="M-31 -137v-164q0 -17 -6.5 -23t-21.5 -6h-93q-14 0 -19 5.5t-5 19.5v168q0 14 4 19t14 5h107q20 0 20 -24z" />
    <glyph glyph-name="uni0326" unicode="&#x326;" horiz-adv-x="0" 
d="M-172 -475q-7 0 -11 7t-1 13l53 105q7 10 4 18t-14 8h-17q-20 0 -20 23v131q0 20 16 20h113q16 0 16 -18v-156q0 -3 -2 -8.5t-2 -7.5l-72 -119q-9 -16 -36 -16h-27z" />
    <glyph glyph-name="uni0327" unicode="&#x327;" horiz-adv-x="0" 
d="M-33 -262q0 -72 -60.5 -113t-152.5 -41q-109 0 -178 49l27 72q61 -47 135 -47q112 0 112 78q0 46 -37.5 68.5t-121.5 23.5q-16 0 -10 12l73 170h88l-49 -125q93 -6 133.5 -47t40.5 -100z" />
    <glyph glyph-name="uni0328" unicode="&#x328;" horiz-adv-x="0" 
d="M-410 -178q0 65 48 113.5t165 84.5l113 -14q-106 -45 -151.5 -85t-45.5 -91q0 -78 103 -78q65 0 127 27q18 10 18 -10v-54q0 -15 -12 -20q-64 -33 -170 -33q-96 0 -145.5 43t-49.5 117z" />
    <glyph glyph-name="uni0394" unicode="&#x394;" horiz-adv-x="1318" 
d="M78 0v129l495 1354l172 -2l494 -1348v-133h-1161zM238 135h837l-418 1176z" />
    <glyph glyph-name="uni03A9" unicode="&#x3a9;" horiz-adv-x="1552" 
d="M774 1366q-90 0 -167 -30t-132 -82.5t-93.5 -124t-57.5 -155t-19 -175.5q0 -102 27 -195.5t63.5 -157.5t93 -126.5t94.5 -95t89 -70.5q26 -20 26 -56v-98h-503v137h325q-80 62 -95 75q-285 246 -292 590v17q0 134 43 255.5t121.5 217t202.5 152.5t274 57q151 0 274.5 -58
t202 -154t120.5 -217t42 -251q0 -82 -16.5 -159t-46 -139.5t-61 -113t-72.5 -95t-67.5 -70.5t-60 -53.5t-36.5 -30.5q-11 -9 -8 -16t16 -7h293v-137h-508v131q37 26 67 49.5t72.5 62.5t75.5 77.5t68.5 93t58.5 111t38 128.5t15 148q0 114 -29.5 214.5t-86 179.5t-147 125
t-204.5 46z" />
    <glyph glyph-name="uni03BC" unicode="&#x3bc;" horiz-adv-x="1173" 
d="M535 100q153 0 333 183v776h150v-1059h-144v164q-111 -94 -189 -135t-161 -45q-132 -3 -205 65v-379h-149v1389h149v-766q0 -79 63 -136t153 -57z" />
    <glyph glyph-name="pi" unicode="&#x3c0;" horiz-adv-x="1341" 
d="M1278 946h-244v-946h-145l-2 946h-475q0 -266 -35 -530.5t-86 -415.5h-135q48 182 80 431.5t32 494.5q0 20 -16 20h-193v113h1219v-113z" />
    <glyph glyph-name="uni1E0C" unicode="&#x1e0c;" horiz-adv-x="1429" 
d="M207 1481q2 0 54 -0.5t126 -1t129 -0.5q402 -4 586 -184.5t184 -544.5q0 -378 -194.5 -564t-597.5 -186h-287v1481zM362 1348v-1213h127q157 0 272.5 32.5t199 103.5t125.5 189.5t42 284.5q0 169 -41.5 287t-124.5 187t-195.5 99t-266.5 30h-138zM786 -137v-164
q0 -17 -5.5 -23t-22.5 -6h-92q-13 0 -18 5.5t-5 19.5v168q0 24 19 24h106q10 0 14 -5t4 -19z" />
    <glyph glyph-name="uni1E0D" unicode="&#x1e0d;" 
d="M549 -20q-202 0 -319 139t-117 397q0 257 117 410t329 153q173 0 315 -133v576h150v-1522h-121l-10 203q-99 -223 -344 -223zM578 100q62 0 118 24.5t94.5 63.5t61 88t22.5 97v418q-114 165 -284 165q-153 0 -239.5 -111.5t-86.5 -322.5q0 -210 86.5 -316t227.5 -106z
M668 -137v-164q0 -17 -6.5 -23t-22.5 -6h-92q-15 0 -20 5.5t-5 19.5v168q0 24 19 24h106q21 0 21 -24z" />
    <glyph glyph-name="uni1E24" unicode="&#x1e24;" horiz-adv-x="1441" 
d="M1094 700h-738v-700h-149v1481h149v-645h738v645h149v-1481h-149v700zM797 -137v-164q0 -17 -6.5 -23t-22.5 -6h-92q-15 0 -20 5.5t-5 19.5v168q0 24 19 24h106q21 0 21 -24z" />
    <glyph glyph-name="uni1E25" unicode="&#x1e25;" 
d="M170 0v1522h145v-615q43 74 131 121t209 47q158 0 263.5 -86t105.5 -221v-768h-150v733q0 101 -68.5 158t-184.5 57q-129 0 -215.5 -59t-86.5 -170v-719h-149zM688 -137v-164q0 -17 -6.5 -23t-22.5 -6h-92q-14 0 -19 5.5t-5 19.5v168q0 14 4 19t14 5h107q20 0 20 -24z
" />
    <glyph glyph-name="uni1E44" unicode="&#x1e44;" horiz-adv-x="1517" 
d="M866 1903v-226h-164v226h164zM1167 1481h152v-1481h-133l-830 1223v-1223h-149v1481h139l821 -1213v1213z" />
    <glyph glyph-name="uni1E45" unicode="&#x1e45;" 
d="M696 1481v-226h-164v226h164zM170 0v1059h143v-152q46 76 133 122t209 46q161 0 266 -100t105 -283v-692h-152v680q0 129 -68 198.5t-185 69.5q-128 0 -215 -58.5t-87 -168.5v-721h-149z" />
    <glyph glyph-name="uni1E5A" unicode="&#x1e5a;" horiz-adv-x="1384" 
d="M1233 0h-162l-280 662h-435v-662h-149v1481h555q231 0 352 -101t121 -290q0 -87 -26 -157.5t-71.5 -117t-94.5 -76.5t-107 -49zM698 793q381 0 381 284q0 139 -84.5 207t-244.5 68h-394v-559h342zM756 -137v-164q0 -17 -6.5 -23t-22.5 -6h-92q-15 0 -20 5.5t-5 19.5v168
q0 24 19 24h106q21 0 21 -24z" />
    <glyph glyph-name="uni1E5B" unicode="&#x1e5b;" horiz-adv-x="784" 
d="M170 0v1059h141v-213q57 100 169 166.5t225 66.5v-145q-99 4 -189.5 -37.5t-143.5 -107t-53 -132.5v-657h-149zM322 -137v-164q0 -17 -6.5 -23t-22.5 -6h-92q-15 0 -20 5.5t-5 19.5v168q0 24 19 24h106q21 0 21 -24z" />
    <glyph glyph-name="uni1E62" unicode="&#x1e62;" horiz-adv-x="1413" 
d="M711 -20q-143 0 -265 43t-207.5 132.5t-105.5 211.5l158 14q30 -130 146 -201t272 -71q174 0 285.5 72.5t111.5 191.5q0 106 -67 176.5t-199 101.5l-308 74q-173 40 -262.5 124.5t-89.5 225.5q-2 186 144.5 305t377.5 119q124 0 224 -33.5t164.5 -91.5t102 -130
t46.5 -154l-154 -13q-12 77 -47 134.5t-88 90.5t-115 48.5t-135 15.5q-90 0 -169.5 -29.5t-134 -95t-54.5 -154.5q0 -87 61 -140.5t215 -92.5l297 -74q99 -23 170 -66t108.5 -99.5t54 -115t16.5 -124.5q0 -169 -148 -282t-405 -113zM762 -137v-164q0 -17 -6.5 -23t-22.5 -6
h-92q-15 0 -20 5.5t-5 19.5v168q0 24 19 24h106q21 0 21 -24z" />
    <glyph glyph-name="uni1E63" unicode="&#x1e63;" horiz-adv-x="1060" 
d="M541 -20q-169 0 -293 84t-144 231h140q25 -101 102.5 -150t194.5 -49q120 0 192 49t72 136q0 62 -41.5 99t-126.5 60l-225 62q-132 33 -201.5 96t-69.5 172q0 97 57.5 169t146.5 106t194 34q170 0 274 -87.5t107 -207.5h-140q-12 85 -78.5 132t-164.5 47q-43 0 -85 -9.5
t-81.5 -29t-63.5 -57.5t-24 -89q0 -61 44.5 -96.5t137.5 -58.5l225 -62q93 -24 151.5 -70t79.5 -95.5t21 -108.5q0 -144 -116 -225.5t-285 -81.5zM592 -137v-164q0 -17 -6.5 -23t-22.5 -6h-92q-15 0 -20 5.5t-5 19.5v168q0 24 19 24h106q21 0 21 -24z" />
    <glyph glyph-name="uni1E6C" unicode="&#x1e6c;" horiz-adv-x="1165" 
d="M35 1339v142h1095v-142h-456v-1339h-152v1339h-487zM678 -137v-164q0 -17 -6.5 -23t-22.5 -6h-92q-15 0 -20 5.5t-5 19.5v168q0 24 19 24h106q21 0 21 -24z" />
    <glyph glyph-name="uni1E6D" unicode="&#x1e6d;" horiz-adv-x="804" 
d="M678 946h-242v-684q0 -90 27 -121.5t84 -31.5h141v-97q-43 -16 -145 -16q-144 0 -200 60.5t-56 193.5v696h-172v113h176l12 305h133v-305h242v-113zM618 -137v-164q0 -17 -6.5 -23t-21.5 -6h-92q-15 0 -20 5.5t-5 19.5v168q0 24 19 24h106q20 0 20 -24z" />
    <glyph glyph-name="Wgrave" unicode="&#x1e80;" horiz-adv-x="1953" 
d="M731 1921l494 -195l-29 -84l-506 154zM1898 1481l-430 -1481h-153l-340 1212l-348 -1212h-148l-422 1481h154l346 -1252l356 1252h123l353 -1252l356 1252h153z" />
    <glyph glyph-name="wgrave" unicode="&#x1e81;" horiz-adv-x="1630" 
d="M569 1499l494 -194l-29 -84l-506 153zM1548 1059l-311 -1059h-168l-256 831l-242 -831h-168l-321 1059h143l256 -871h19l256 871h118l267 -869h18l246 869h143z" />
    <glyph glyph-name="Wacute" unicode="&#x1e82;" horiz-adv-x="1953" 
d="M1210 1921l41 -125l-506 -154l-26 84zM1898 1481l-430 -1481h-153l-340 1212l-348 -1212h-148l-422 1481h154l346 -1252l356 1252h123l353 -1252l356 1252h153z" />
    <glyph glyph-name="wacute" unicode="&#x1e83;" horiz-adv-x="1630" 
d="M1049 1499l41 -125l-506 -153l-27 84zM1548 1059l-311 -1059h-168l-256 831l-242 -831h-168l-321 1059h143l256 -871h19l256 871h118l267 -869h18l246 869h143z" />
    <glyph glyph-name="Wdieresis" unicode="&#x1e84;" horiz-adv-x="1953" 
d="M922 1903v-215h-152v215h152zM1200 1903v-215h-151v215h151zM1898 1481l-430 -1481h-153l-340 1212l-348 -1212h-148l-422 1481h154l346 -1252l356 1252h123l353 -1252l356 1252h153z" />
    <glyph glyph-name="wdieresis" unicode="&#x1e85;" horiz-adv-x="1630" 
d="M758 1481v-215h-152v215h152zM1036 1481v-215h-151v215h151zM1548 1059l-311 -1059h-168l-256 831l-242 -831h-168l-321 1059h143l256 -871h19l256 871h118l267 -869h18l246 869h143z" />
    <glyph glyph-name="uni1E92" unicode="&#x1e92;" horiz-adv-x="1263" 
d="M113 0v90l833 1258h-805v133h1012v-86l-840 -1260h838v-135h-1038zM727 -137v-164q0 -17 -6.5 -23t-22.5 -6h-92q-14 0 -19 5.5t-5 19.5v168q0 14 4 19t14 5h107q20 0 20 -24z" />
    <glyph glyph-name="uni1E93" unicode="&#x1e93;" horiz-adv-x="954" 
d="M100 0v102l629 848h-586v109h762v-105l-626 -845h639v-109h-818zM580 -137v-164q0 -17 -6 -23t-21 -6h-92q-15 0 -20 5.5t-5 19.5v168q0 24 19 24h106q19 0 19 -24z" />
    <glyph glyph-name="uni1EB8" unicode="&#x1eb8;" horiz-adv-x="1273" 
d="M207 0v1481h903v-135h-754v-531h688v-135h-688v-541l777 -2v-137h-926zM784 -137v-164q0 -17 -6.5 -23t-21.5 -6h-92q-15 0 -20 5.5t-5 19.5v168q0 14 4 19t14 5h107q20 0 20 -24z" />
    <glyph glyph-name="uni1EB9" unicode="&#x1eb9;" horiz-adv-x="1161" 
d="M266 494q0 -111 34.5 -197.5t111.5 -140.5t186 -54q108 0 181 50.5t104 146.5h145q-38 -158 -154.5 -238.5t-273.5 -80.5q-220 0 -353.5 143.5t-133.5 396.5q0 257 125.5 408t347.5 151q215 0 332.5 -137.5t117.5 -382.5v-65h-770zM268 604h623q0 158 -78 256t-227 98
q-80 0 -143 -31t-100.5 -82t-56.5 -113t-18 -128zM647 -137v-164q0 -17 -6.5 -23t-22.5 -6h-92q-14 0 -19 5.5t-5 19.5v168q0 14 4 19t14 5h107q20 0 20 -24z" />
    <glyph glyph-name="uni1EBC" unicode="&#x1ebc;" horiz-adv-x="1273" 
d="M956 1782q-61 -45 -147 -45q-55 0 -130.5 26.5t-117.5 26.5q-21 0 -40 -5t-28 -9t-27.5 -15t-23.5 -14q-10 -7 -16 -5t-10 15l-19 49q-5 14 6 25q25 19 42.5 30t46.5 20t61 9q49 0 131.5 -27.5t126.5 -27.5q48 0 113 37q20 14 28 -8l19 -58q5 -14 -15 -24zM207 0v1481
h903v-135h-754v-531h688v-135h-688v-541l777 -2v-137h-926z" />
    <glyph glyph-name="uni1EBD" unicode="&#x1ebd;" horiz-adv-x="1161" 
d="M862 1360q-65 -45 -147 -45q-55 0 -130.5 26.5t-117.5 26.5q-17 0 -31.5 -2.5t-28 -8t-20.5 -9t-21 -12.5t-18 -11q-10 -7 -16 -5t-10 15l-19 49q-5 14 6 25q25 19 42.5 30t46.5 20t61 9q49 0 131.5 -27.5t126.5 -27.5q22 0 43 6t32 11.5t35 19.5q23 14 31 -8l19 -58
q5 -14 -15 -24zM266 494q0 -111 34.5 -197.5t111.5 -140.5t186 -54q108 0 181 50.5t104 146.5h145q-38 -158 -154.5 -238.5t-273.5 -80.5q-220 0 -353.5 143.5t-133.5 396.5q0 257 125.5 408t347.5 151q215 0 332.5 -137.5t117.5 -382.5v-65h-770zM268 604h623
q0 158 -78 256t-227 98q-80 0 -143 -31t-100.5 -82t-56.5 -113t-18 -128z" />
    <glyph glyph-name="uni1ECA" unicode="&#x1eca;" horiz-adv-x="555" 
d="M207 1481h149v-1481h-149v1481zM362 -137v-164q0 -17 -6.5 -23t-21.5 -6h-92q-15 0 -20 5.5t-5 19.5v168q0 24 19 24h106q20 0 20 -24z" />
    <glyph glyph-name="uni1ECB" unicode="&#x1ecb;" horiz-adv-x="561" 
d="M344 1522v-228h-164v228h164zM338 1059v-1059h-152v1059h152zM383 -137v-164q0 -17 -6 -23t-21 -6h-92q-14 0 -19 5.5t-5 19.5v168q0 14 4 19t14 5h107q10 0 14 -5t4 -19z" />
    <glyph glyph-name="uni1ECC" unicode="&#x1ecc;" horiz-adv-x="1523" 
d="M764 -20q-296 0 -462.5 196.5t-166.5 556.5q0 367 168 567.5t461 200.5q292 0 458.5 -200.5t166.5 -563.5q0 -361 -166 -559t-459 -198zM766 115q223 0 340 153.5t117 466.5q0 318 -117.5 474.5t-341.5 156.5t-343.5 -157.5t-119.5 -473.5q0 -311 120 -465.5t345 -154.5z
M840 -137v-164q0 -17 -6.5 -23t-22.5 -6h-92q-15 0 -20 5.5t-5 19.5v168q0 24 19 24h106q21 0 21 -24z" />
    <glyph glyph-name="uni1ECD" unicode="&#x1ecd;" horiz-adv-x="1155" 
d="M578 -20q-222 0 -348 148t-126 394q0 250 128 403.5t348 153.5t345.5 -153t125.5 -400t-126 -396.5t-347 -149.5zM582 102q158 0 238.5 116.5t80.5 309.5q0 194 -81.5 311t-239.5 117q-159 0 -242.5 -118t-83.5 -310q0 -191 84 -308.5t244 -117.5zM649 -137v-164
q0 -17 -6.5 -23t-21.5 -6h-93q-14 0 -19 5.5t-5 19.5v168q0 14 4 19t14 5h107q20 0 20 -24z" />
    <glyph glyph-name="uni1EE4" unicode="&#x1ee4;" horiz-adv-x="1409" 
d="M1260 492q0 -512 -525 -512q-271 0 -396.5 133t-125.5 403v965h158v-996q0 -184 92 -278t272 -94q183 0 278 93t95 279v996h152v-989zM793 -137v-164q0 -17 -6 -23t-23 -6h-92q-15 0 -20 5.5t-5 19.5v168q0 24 19 24h108q19 0 19 -24z" />
    <glyph glyph-name="uni1EE5" unicode="&#x1ee5;" 
d="M567 -18q-55 1 -109 12.5t-106.5 39.5t-92.5 68.5t-64.5 103.5t-24.5 140v717h149v-705q0 -70 25.5 -122t67 -80t87 -41t93.5 -13q116 0 198.5 71.5t83.5 199.5v690h152l-2 -1061h-123l-10 215q-17 -84 -68.5 -139t-115.5 -76t-140 -20zM668 -137v-164q0 -17 -6.5 -23
t-22.5 -6h-92q-15 0 -20 5.5t-5 19.5v168q0 24 19 24h106q21 0 21 -24z" />
    <glyph glyph-name="Ygrave" unicode="&#x1ef2;" horiz-adv-x="1189" 
d="M346 1921l494 -195l-29 -84l-506 154zM1169 1481l-497 -848v-633h-150v635l-502 846h166l412 -711l408 711h163z" />
    <glyph glyph-name="ygrave" unicode="&#x1ef3;" horiz-adv-x="1087" 
d="M303 1499l494 -194l-29 -84l-506 153zM256 -338q-52 0 -89.5 6t-48.5 12l-12 5v98l111 -2q53 -1 91.5 9t62.5 29.5t37 38.5t24 46l43 114l-414 1041h154l334 -864l330 864h145l-451 -1165q-52 -126 -129.5 -179t-187.5 -53z" />
    <glyph glyph-name="uni1EF8" unicode="&#x1ef8;" horiz-adv-x="1189" 
d="M874 1782q-61 -45 -147 -45q-55 0 -130.5 26.5t-117.5 26.5q-21 0 -40 -5t-28 -9t-27.5 -15t-23.5 -14q-10 -7 -16 -5t-10 15l-19 49q-5 13 7 25q26 19 43 29.5t45.5 20t60.5 9.5q49 0 131.5 -27.5t126.5 -27.5q48 0 113 37q20 14 28 -8l19 -58q5 -14 -15 -24zM1169 1481
l-497 -848v-633h-150v635l-502 846h166l412 -711l408 711h163z" />
    <glyph glyph-name="uni1EF9" unicode="&#x1ef9;" horiz-adv-x="1087" 
d="M834 1360q-61 -45 -148 -45q-55 0 -130.5 26.5t-117.5 26.5q-21 0 -40 -5t-28 -9t-27.5 -15t-23.5 -14q-10 -7 -16 -5t-10 15l-19 49q-5 13 7 25q26 19 43 29.5t45.5 20t60.5 9.5q49 0 131.5 -27.5t126.5 -27.5q48 0 113 37q20 14 28 -8l19 -58q6 -14 -14 -24zM256 -338
q-52 0 -89.5 6t-48.5 12l-12 5v98l111 -2q53 -1 91.5 9t62.5 29.5t37 38.5t24 46l43 114l-414 1041h154l334 -864l330 864h145l-451 -1165q-52 -126 -129.5 -179t-187.5 -53z" />
    <glyph glyph-name="endash" unicode="&#x2013;" horiz-adv-x="1128" 
d="M989 578v-123l-854 -2v122z" />
    <glyph glyph-name="emdash" unicode="&#x2014;" horiz-adv-x="1771" 
d="M1632 578v-123l-1497 -2v122z" />
    <glyph glyph-name="quoteleft" unicode="&#x2018;" horiz-adv-x="483" 
d="M358 1546l-112 -246l82 -2v-202h-211v176l162 274h79z" />
    <glyph glyph-name="quoteright" unicode="&#x2019;" horiz-adv-x="428" 
d="M104 1030l111 246l-82 4v201h213v-176l-162 -275h-80z" />
    <glyph glyph-name="quotesinglbase" unicode="&#x201a;" horiz-adv-x="460" 
d="M98 -246l111 244l-82 4v203h213v-176l-162 -275h-80z" />
    <glyph glyph-name="quotedblleft" unicode="&#x201c;" horiz-adv-x="815" 
d="M125 1030v178l162 273h80l-113 -244l82 -2v-205h-211zM465 1030v178l162 273h80l-113 -244l84 -2v-205h-213z" />
    <glyph glyph-name="quotedblright" unicode="&#x201d;" horiz-adv-x="827" 
d="M104 1030l111 246l-82 4v201h213v-176l-162 -275h-80zM442 1030l115 246l-84 4v201h211v-176l-162 -275h-80z" />
    <glyph glyph-name="quotedblbase" unicode="&#x201e;" horiz-adv-x="845" 
d="M113 -246l112 244l-82 4v203h211v-176l-161 -275h-80zM461 -246l112 244l-81 4v203h210v-176l-161 -275h-80z" />
    <glyph glyph-name="dagger" unicode="&#x2020;" horiz-adv-x="897" 
d="M868 954v-145l-370 20l32 -1159h-163l28 1159l-370 -20v145l364 -18l-24 545h165l-24 -545z" />
    <glyph glyph-name="daggerdbl" unicode="&#x2021;" horiz-adv-x="897" 
d="M498 821v-510l370 25v-150l-364 21l26 -537h-165l24 537l-364 -21v150l370 -25v510l-370 -22v147l364 -18l-24 553h165l-24 -553l362 18v-147z" />
    <glyph glyph-name="bullet" unicode="&#x2022;" horiz-adv-x="638" 
d="M315 573q-75 0 -127.5 53t-52.5 128q0 74 52.5 127t127.5 53q73 0 126 -53t53 -127q0 -75 -52.5 -128t-126.5 -53z" />
    <glyph glyph-name="ellipsis" unicode="&#x2026;" horiz-adv-x="1482" 
d="M330 211v-211h-191v211h191zM854 211v-211h-188v211h188zM1378 211v-211h-188v211h188z" />
    <glyph glyph-name="perthousand" unicode="&#x2030;" horiz-adv-x="2652" 
d="M465 1503q150 0 244 -114t94 -310t-93.5 -309t-244.5 -113q-152 0 -247 113t-95 309t95.5 310t246.5 114zM1513 1497l-995 -1505h-110l999 1505h106zM463 745q103 0 163 91.5t60 242.5t-60 243.5t-163 92.5t-163 -93t-60 -243t60 -242t163 -92zM1376 827
q150 0 244 -114.5t94 -309.5q0 -196 -93.5 -309.5t-244.5 -113.5q-152 0 -248 113.5t-96 309.5q0 195 96 309.5t248 114.5zM2185 827q150 0 245 -114.5t95 -309.5q0 -196 -94 -309.5t-246 -113.5t-247 113.5t-95 309.5q0 195 95.5 309.5t246.5 114.5zM1374 70
q100 0 161.5 93.5t61.5 237.5q0 147 -62 241.5t-161 94.5q-100 0 -161.5 -94.5t-61.5 -241.5q0 -144 61.5 -237.5t161.5 -93.5zM2183 70q100 0 161.5 93.5t61.5 237.5q0 148 -61.5 242t-161.5 94q-99 0 -161 -95t-62 -241q0 -144 62 -237.5t161 -93.5z" />
    <glyph glyph-name="guilsinglleft" unicode="&#x2039;" horiz-adv-x="550" 
d="M225 514l219 -367h-88l-278 367l278 383h90z" />
    <glyph glyph-name="guilsinglright" unicode="&#x203a;" horiz-adv-x="552" 
d="M324 514l-222 383h88l279 -383l-276 -367h-89z" />
    <glyph glyph-name="fraction" unicode="&#x2044;" horiz-adv-x="516" 
d="M805 1497l-995 -1505h-109l999 1505h105z" />
    <glyph glyph-name="uni2070" unicode="&#x2070;" horiz-adv-x="841" 
d="M383 1729q152 0 246 -124t94 -358q0 -230 -94 -352.5t-248 -122.5t-247 121.5t-93 351.5q0 233 95 358.5t247 125.5zM383 856q111 0 173 95.5t62 295.5q0 203 -63 300.5t-172 97.5q-110 0 -174 -98t-64 -300q0 -198 63.5 -294.5t174.5 -96.5z" />
    <glyph glyph-name="uni2074" unicode="&#x2074;" horiz-adv-x="841" 
d="M492 1710h96v-596h147v-86h-147v-250h-94v250h-439v92zM154 1114h338v453z" />
    <glyph glyph-name="uni2075" unicode="&#x2075;" horiz-adv-x="813" 
d="M152 1710h550l-8 -84h-456l-27 -330q41 23 68 35.5t70 23.5t89 11q63 0 117.5 -16.5t98 -50t69 -89t25.5 -127.5q0 -148 -99 -232.5t-256 -84.5q-96 0 -182 36.5t-145 104.5l67 58q63 -62 115.5 -89.5t132.5 -27.5q122 0 192 64t70 167q0 101 -62 153t-157 52
q-99 0 -223 -78q-5 -3 -8 -4t-4 -0.5t-4.5 2.5t-6.5 4l-63 37z" />
    <glyph glyph-name="uni2076" unicode="&#x2076;" horiz-adv-x="817" 
d="M403 1741q105 0 177 -47t100 -123l-78 -31q-39 60 -80.5 89.5t-115.5 29.5q-133 0 -202.5 -123.5t-60.5 -355.5q24 79 94.5 125.5t159.5 46.5q138 0 215.5 -79.5t77.5 -201.5q0 -130 -87.5 -208.5t-223.5 -78.5q-160 0 -251 122.5t-91 342.5q0 231 96.5 361.5
t269.5 130.5zM387 1270q-94 0 -159.5 -48t-65.5 -130q41 -226 217 -226q91 0 150 56t59 145q0 86 -55 144.5t-146 58.5z" />
    <glyph glyph-name="uni2077" unicode="&#x2077;" horiz-adv-x="739" 
d="M68 1710h643v-96q-126 -177 -237 -433t-132 -403h-106q30 162 126 399.5t242 448.5h-536v84z" />
    <glyph glyph-name="uni2078" unicode="&#x2078;" horiz-adv-x="813" 
d="M383 1731q136 0 218.5 -70.5t82.5 -185.5q0 -39 -13 -74t-30.5 -57t-40.5 -41.5t-36 -27t-25 -13.5q3 -1 23.5 -9.5t33 -15.5t35 -20.5t37 -30t29.5 -38.5t22.5 -52.5t7.5 -65.5q0 -117 -95.5 -186.5t-252.5 -69.5q-155 0 -244.5 64.5t-89.5 179.5q0 67 42 129.5
t134 105.5q-13 5 -27 11.5t-38 23.5t-41.5 38.5t-31 58t-13.5 79.5q0 114 88 190.5t225 76.5zM385 1651q-90 0 -150.5 -52t-60.5 -129q0 -120 135 -147l131 -33q40 -8 95 55t55 132q0 77 -56 125.5t-149 48.5zM385 854q107 0 172.5 48t65.5 126q0 118 -140 154l-168 39
q-26 6 -66.5 -16.5t-74 -71.5t-33.5 -105q0 -82 64 -128t180 -46z" />
    <glyph glyph-name="uni2079" unicode="&#x2079;" horiz-adv-x="817" 
d="M328 776q-103 0 -175.5 47.5t-99.5 122.5l80 31q35 -57 78 -88t115 -31q136 0 207 121t61 360q-22 -81 -91.5 -128.5t-162.5 -47.5q-138 0 -217.5 80t-79.5 203q0 130 87.5 208.5t223.5 78.5q160 0 251 -122.5t91 -342.5q0 -234 -97 -363t-271 -129zM346 1247
q91 0 158 51t67 127q-40 226 -217 226q-91 0 -150 -56t-59 -143q0 -86 55 -145.5t146 -59.5z" />
    <glyph glyph-name="colonmonetary" unicode="&#x20a1;" horiz-adv-x="1191" 
d="M616 309q101 0 175 57.5t94 155.5h137q-25 -142 -116 -224.5t-222 -100.5l-53 -197l-109 2l51 191q-59 3 -112 18l-55 -211l-109 2l65 254q-109 66 -169 190.5t-60 288.5q0 211 95 356t261 185l54 205h108l-49 -191h6q50 0 105 -10l57 201h107l-64 -236
q83 -41 137.5 -115t71.5 -176l-137 -4q-28 106 -100 160.5t-169 54.5q-156 0 -246.5 -115.5t-90.5 -310.5q0 -196 90.5 -313t246.5 -117z" />
    <glyph glyph-name="franc" unicode="&#x20a3;" horiz-adv-x="1243" 
d="M1128 1348h-763v-557h665v-134h-665v-270h344v-102h-344v-285h-172v283h-193v104h193v1094h937z" />
    <glyph glyph-name="lira" unicode="&#x20a4;" horiz-adv-x="1241" 
d="M1130 264q-45 -131 -147 -197.5t-250 -66.5h-700v131h80q78 0 130.5 75t55.5 220q2 16 -2 80q-3 10 -16 10h-222v105h224l-35 196h-189v105h172l-8 55q-19 116 -5 203.5t48 148.5t91 99t124 55.5t146 17.5q131 0 245 -64.5t152 -160.5l-135 -51q-71 141 -244 141
q-117 0 -193.5 -66t-76.5 -182q0 -35 22 -178q3 -18 23 -18h338v-103l-340 -2l31 -196h309v-103h-301q5 -103 -25 -210t-92 -175h385q109 0 175.5 39t100.5 129z" />
    <glyph glyph-name="uni20A6" unicode="&#x20a6;" horiz-adv-x="1480" 
d="M1458 893h-110v-256h110v-98h-110v-539h-134l-364 539l-463 -2v-537h-151v537h-218v100h218v254h-218v100h218v490h139l332 -490h491v490h150v-490h110v-98zM387 1223v-232h156zM1198 637v256h-424l174 -256h250zM387 637h397l-174 254h-223v-254zM1198 268v271h-182z
" />
    <glyph glyph-name="uni20A9" unicode="&#x20a9;" horiz-adv-x="2091" 
d="M2064 946h-268l-63 -217h331v-102h-362l-180 -627h-154l-176 627l-334 -2l-178 -625h-148l-178 625h-317v102h289l-62 217h-227v103h196l-122 434h153l121 -434h459l123 434h123l122 -432h463l123 432h152l-125 -432h239v-103zM1026 1212l-47 -165l94 2zM1583 729l64 217
h-406l59 -217h283zM887 727l276 2l-61 217l-152 -2zM412 944l61 -217h279l61 217h-401zM1442 229l112 398h-225zM610 229l113 396h-221z" />
    <glyph glyph-name="dong" unicode="&#x20ab;" horiz-adv-x="1026" 
d="M862 1348h127v-91h-127v-989h-127v125l-13 -15q-14 -16 -19 -20.5t-20.5 -19.5t-25.5 -21.5t-28.5 -19t-35.5 -18.5t-39 -13.5t-47 -10.5t-52 -3q-160 0 -263.5 114t-103.5 322t107.5 336.5t277.5 128.5q79 0 131 -24.5t103 -69.5q10 -7 15 -8t7 3.5t2 16.5v186h-285v91
h285v131h131v-131zM727 549v393q-102 102 -223 102q-122 0 -196.5 -91.5t-74.5 -258.5q0 -168 75 -253t190 -85q96 0 162.5 61t66.5 132zM133 0v94h737v-94h-737z" />
    <glyph glyph-name="Euro" unicode="&#x20ac;" horiz-adv-x="1204" 
d="M1036 211l86 -102q-160 -129 -356 -129q-242 0 -398 144t-200 406h-186v103h174q-4 70 -4 108q0 39 4 113h-174v102h188q44 259 198 402t390 143q200 0 356 -133l-104 -102q-119 100 -242 100q-171 0 -279 -103.5t-145 -306.5l428 2v-102l-440 -2q-4 -70 -4 -115
q0 -36 4 -106l440 2v-105h-428q37 -203 148 -307t292 -104q138 0 252 92z" />
    <glyph glyph-name="uni20B9" unicode="&#x20b9;" horiz-adv-x="1159" 
d="M1118 1483v-99h-287q103 -80 121 -217h166v-98h-166q-7 -71 -35 -129.5t-70.5 -97.5t-88.5 -64.5t-99 -42.5q-13 -3 -6 -18l271 -717h-187l-256 705h-465v122h381q180 0 271 57t104 185l-752 -2v98l750 2q-27 209 -321 209h-433v105z" />
    <glyph glyph-name="uni20BA" unicode="&#x20ba;" horiz-adv-x="1105" 
d="M936 494l143 -33q-72 -220 -225 -340.5t-377 -120.5h-241v459l-152 -56l-37 109l189 68v211l-160 -58l-37 109l197 71v568h172v-504l286 104l41 -108l-327 -119v-211l294 107l41 -109l-335 -121v-387h108q145 2 248 88.5t172 272.5z" />
    <glyph glyph-name="uni2113" unicode="&#x2113;" horiz-adv-x="993" 
d="M365 410q0 -169 45 -237.5t145 -68.5q71 0 129 33l-145 -157q-75 0 -132 24t-88 57.5t-53 82t-29 84.5t-13.5 78.5t-8.5 51.5q-2 11 -12 4l-97 -69l-51 98l158 117v532q0 226 96.5 343.5t249.5 117.5q135 0 206 -87t71 -228q0 -62 -15.5 -124.5t-38.5 -115.5t-64 -112.5
t-75.5 -102.5t-90 -100t-92 -91.5t-95.5 -88.5v-41zM365 997v-397q356 312 356 608q0 86 -40.5 132t-115.5 46q-99 0 -149.5 -88.5t-50.5 -300.5zM684 137l137 150l-12 -17q-69 -99 -125 -133z" />
    <glyph glyph-name="uni2116" unicode="&#x2116;" horiz-adv-x="2355" 
d="M1935 1499q145 0 231.5 -95t86.5 -251q0 -152 -85 -246t-233 -94q-146 0 -229.5 94t-83.5 246q0 155 86 250.5t227 95.5zM1167 1481h152v-1481h-133l-830 1223v-1223h-149v1481h139l821 -1213v1213zM1935 1411q-95 0 -144.5 -67t-49.5 -185q0 -124 49.5 -192t144.5 -68
q97 0 148 68.5t51 191.5q0 118 -51 185t-148 67z" />
    <glyph glyph-name="uni2117" unicode="&#x2117;" horiz-adv-x="1677" 
d="M838 -20q-208 0 -383 101t-277 276.5t-102 383.5q0 154 60 294.5t162 242.5t243.5 162.5t296.5 60.5q154 0 294.5 -60.5t242 -162.5t162 -242.5t60.5 -294.5q0 -156 -60 -297.5t-162 -242.5t-242.5 -161t-294.5 -60zM838 92q129 0 246 46.5t204.5 129.5t139 206t51.5 267
q0 142 -51.5 265t-139 206.5t-204.5 131t-246 47.5q-178 0 -324 -80.5t-232.5 -230t-86.5 -339.5q0 -145 50.5 -267.5t137.5 -205.5t204.5 -129.5t250.5 -46.5zM1169 915q0 -124 -77.5 -188.5t-206.5 -64.5h-197v-324h-115v797h301q135 0 215 -54.5t80 -165.5zM1051 899
q0 141 -181 141h-182v-286h191q76 0 124 37t48 108z" />
    <glyph glyph-name="uni2120" unicode="&#x2120;" horiz-adv-x="2000" 
d="M444 -12q-139 0 -240.5 63.5t-119.5 177.5l98 9q18 -82 90.5 -126t171.5 -44q107 0 176.5 45t69.5 118q0 137 -166 177l-192 45q-107 26 -163 78.5t-56 140.5q-2 117 89 191.5t236 74.5q152 0 238.5 -74t97.5 -182l-94 -8q-16 94 -81.5 137t-160.5 43q-88 0 -156.5 -46
t-68.5 -128q0 -55 38 -88.5t136 -59.5l184 -45q63 -14 107.5 -41t68 -63t34 -72.5t10.5 -77.5q0 -105 -93 -175t-254 -70zM1012 0v926h125l305 -803l307 803h123v-926h-96v762l-287 -762h-96l-283 756v-756h-98z" />
    <glyph glyph-name="trademark" unicode="&#x2122;" horiz-adv-x="1847" 
d="M20 838v88h687v-88h-287v-838h-92v838h-308zM856 0v926h125l305 -803l307 803h123v-926h-96v762l-287 -762h-96l-283 756v-756h-98z" />
    <glyph glyph-name="uni2153" unicode="&#x2153;" horiz-adv-x="1933" 
d="M195 565v817l-187 -67v76l215 106h70v-932h-98zM1413 1497l-995 -1505h-109l1000 1505h104zM1221 772q34 82 119 124t190 42q137 0 224 -66t87 -167q0 -153 -182 -216q99 -27 155 -89t56 -150q0 -117 -97 -192.5t-255 -75.5q-118 0 -197 38t-131 130l84 28
q82 -112 244 -112q113 0 179 50t66 130q0 89 -72 140.5t-171 53.5h-125v82h104q101 2 169.5 52t68.5 124q0 68 -59 113t-148 45q-153 0 -227 -113z" />
    <glyph glyph-name="uni2154" unicode="&#x2154;" horiz-adv-x="2103" 
d="M43 571v88l303 299q108 105 150.5 168t42.5 131q0 86 -59 129.5t-134 43.5q-69 0 -129 -32.5t-96 -99.5l-82 29q40 92 119.5 140.5t191.5 48.5q127 0 207.5 -69t79.5 -190q0 -80 -44 -150t-159 -185l-264 -265h477v-86h-604zM1583 1497l-995 -1505h-109l1000 1505h104z
M1389 772q34 82 119 124t190 42q137 0 224 -66t87 -167q0 -153 -182 -216q99 -27 155 -89t56 -150q0 -117 -97 -192.5t-255 -75.5q-118 0 -197 38t-131 130l84 28q82 -112 244 -112q113 0 179 50t66 130q0 89 -72 140.5t-171 53.5h-125v82h104q101 2 169.5 52t68.5 124
q0 68 -59 113t-148 45q-154 0 -228 -113z" />
    <glyph glyph-name="oneeighth" unicode="&#x215b;" horiz-adv-x="1937" 
d="M195 565v817l-187 -67v76l215 106h70v-932h-98zM1413 1497l-995 -1505h-109l1000 1505h104zM1509 936q136 0 218.5 -71t82.5 -185q0 -39 -13 -74t-30.5 -57t-40.5 -41.5t-36 -27t-25 -13.5q3 -1 23.5 -9.5t33 -15.5t35 -20t37 -29.5t29.5 -38.5t22.5 -52.5t7.5 -65.5
q0 -117 -95.5 -186.5t-252.5 -69.5q-155 0 -244.5 64t-89.5 179q0 67 42.5 130t134.5 106q-13 5 -27 11.5t-38.5 23.5t-42 38.5t-31 58t-13.5 79.5q0 114 88 190t225 76zM1511 856q-91 0 -151 -51.5t-60 -128.5q0 -121 136 -148l131 -32q40 -8 94.5 54.5t54.5 131.5
q0 77 -56 125.5t-149 48.5zM1511 59q107 0 172.5 48t65.5 126q0 118 -139 154l-168 39q-26 6 -66.5 -16.5t-74 -71.5t-33.5 -105q0 -82 63.5 -128t179.5 -46z" />
    <glyph glyph-name="threeeighths" unicode="&#x215c;" horiz-adv-x="2138" 
d="M94 1350q34 82 119 124t190 42q137 0 224.5 -66.5t87.5 -167.5q0 -152 -183 -215q99 -27 155 -89.5t56 -150.5q0 -117 -97 -192.5t-255 -75.5q-118 0 -197 38t-131 130l84 29q83 -113 244 -113q113 0 179.5 50t66.5 130q0 89 -72.5 141t-171.5 54h-125v82h105
q101 2 169 52t68 124q0 68 -59 113t-148 45q-153 0 -227 -113zM1614 1497l-996 -1505h-108l999 1505h105zM1708 936q136 0 218.5 -71t82.5 -185q0 -39 -13 -74t-30.5 -57t-40.5 -41.5t-36 -27t-25 -13.5q3 -1 23.5 -9.5t33 -15.5t35 -20t37 -29.5t29.5 -38.5t22.5 -52.5
t7.5 -65.5q0 -117 -95.5 -186.5t-252.5 -69.5q-155 0 -244.5 64t-89.5 179q0 67 42 130t134 106q-13 5 -27 11.5t-38 23.5t-41.5 38.5t-31 58t-13.5 79.5q0 114 88 190t225 76zM1710 856q-90 0 -150.5 -51.5t-60.5 -128.5q0 -121 135 -148l131 -32q40 -8 95 54.5t55 131.5
q0 77 -56 125.5t-149 48.5zM1710 59q107 0 172.5 48t65.5 126q0 118 -140 154l-168 39q-26 6 -66.5 -16.5t-74 -71.5t-33.5 -105q0 -82 64 -128t180 -46z" />
    <glyph glyph-name="fiveeighths" unicode="&#x215d;" horiz-adv-x="2142" 
d="M152 1497h550l-8 -84h-456l-27 -330q41 23 68 35.5t70 23.5t89 11q63 0 117.5 -16.5t98 -50t69 -89t25.5 -127.5q0 -148 -99 -232.5t-256 -84.5q-96 0 -182 36.5t-145 104.5l67 58q63 -62 115.5 -89.5t132.5 -27.5q122 0 192 64t70 167q0 101 -62 153t-157 52
q-99 0 -223 -78q-5 -3 -8 -4t-4 -0.5t-4.5 2.5t-6.5 4l-63 37zM1618 1497l-995 -1505h-109l999 1505h105zM1712 936q136 0 218.5 -71t82.5 -185q0 -39 -13 -74t-30.5 -57t-40.5 -41.5t-36 -27t-25 -13.5q3 -1 23.5 -9.5t33 -15.5t35 -20t37 -29.5t29.5 -38.5t22.5 -52.5
t7.5 -65.5q0 -117 -95.5 -186.5t-252.5 -69.5q-155 0 -244.5 64t-89.5 179q0 67 42 130t134 106q-13 5 -27 11.5t-38 23.5t-41.5 38.5t-31 58t-13.5 79.5q0 114 88 190t225 76zM1714 856q-90 0 -150.5 -51.5t-60.5 -128.5q0 -121 135 -148l131 -32q40 -8 95 54.5t55 131.5
q0 77 -56 125.5t-149 48.5zM1714 59q107 0 172.5 48t65.5 126q0 118 -140 154l-167 39q-26 6 -66.5 -16.5t-74.5 -71.5t-34 -105q0 -82 64 -128t180 -46z" />
    <glyph glyph-name="seveneighths" unicode="&#x215e;" horiz-adv-x="2068" 
d="M1544 1497l-995 -1505h-109l1000 1505h104zM68 1495h643v-96q-126 -177 -237 -433t-132 -403h-106q30 162 126 399.5t242 448.5h-536v84zM1640 936q136 0 219 -71t83 -185q0 -39 -13 -74t-30.5 -57t-41 -41.5t-36.5 -27t-25 -13.5q3 -2 23.5 -10t33.5 -15t35 -20
t36.5 -29.5t30 -38.5t23 -52.5t7.5 -65.5q0 -117 -96 -186.5t-253 -69.5q-155 0 -244 64t-89 179q0 67 42 130t134 106q-13 5 -27 11.5t-38.5 23.5t-42 38.5t-31 58t-13.5 79.5q0 114 88 190t225 76zM1642 856q-90 0 -150 -51.5t-60 -128.5q0 -121 135 -148l131 -32
q40 -8 94.5 54.5t54.5 131.5q0 77 -56 125.5t-149 48.5zM1642 59q107 0 172.5 48t65.5 126q0 118 -139 154l-168 39q-26 6 -66.5 -16.5t-74 -71.5t-33.5 -105q0 -82 63.5 -128t179.5 -46z" />
    <glyph glyph-name="partialdiff" unicode="&#x2202;" horiz-adv-x="1198" 
d="M221 1270l-49 96q53 58 160.5 96.5t222.5 38.5q253 0 395 -192t142 -564q0 -364 -134.5 -564.5t-382.5 -200.5q-208 0 -339.5 134.5t-131.5 336.5t131.5 322t360.5 120q100 0 163.5 -23t147.5 -77q29 -14 29 6q0 276 -109 423.5t-315 147.5q-63 0 -120 -16t-89 -33.5
t-82 -50.5zM561 106h2q142 0 244.5 126.5t122.5 330.5q3 32 0.5 46t-12.5 26q-46 56 -140 95.5t-188 39.5q-144 0 -237 -92.5t-93 -235.5q0 -141 88 -238.5t213 -97.5z" />
    <glyph glyph-name="emptyset" unicode="&#x2205;" 
d="M1053 1094l-121 -111q76 -110 76 -238q0 -173 -123 -295t-295 -122q-148 0 -266 94l-134 -123l-69 70l135 125q-84 111 -84 251q0 172 122.5 294t295.5 122q159 0 278 -106l119 108zM266 745q0 -102 60 -188l475 434q-91 78 -211 78q-134 0 -229 -95.5t-95 -228.5z
M915 745q0 96 -51 175l-471 -435q87 -65 197 -65q135 0 230 95t95 230z" />
    <glyph glyph-name="product" unicode="&#x220f;" horiz-adv-x="1314" 
d="M1276 1481v-135h-211v-1346h-160v1346h-499v-1346h-162v1346h-209v135h1241z" />
    <glyph glyph-name="summation" unicode="&#x2211;" horiz-adv-x="1056" 
d="M1004 0h-949v104l445 635l-416 629v113h883v-131h-674l397 -598l-432 -617h746v-135z" />
    <glyph glyph-name="minus" unicode="&#x2212;" horiz-adv-x="1126" 
d="M987 805v-121l-852 -2v121z" />
    <glyph glyph-name="uni2219" unicode="&#x2219;" horiz-adv-x="638" 
d="M315 637q-47 0 -80.5 34t-33.5 83q0 47 33.5 79.5t80.5 32.5q48 0 81.5 -32.5t33.5 -79.5q0 -49 -33.5 -83t-81.5 -34z" />
    <glyph glyph-name="radical" unicode="&#x221a;" horiz-adv-x="1273" 
d="M1270 1690l-529 -2020h-163l-349 944l-151 -59l-39 104l287 107l327 -928l482 1852h135z" />
    <glyph glyph-name="infinity" unicode="&#x221e;" horiz-adv-x="1458" 
d="M1354 559v-2q0 -151 -91.5 -240.5t-224.5 -89.5q-40 0 -76.5 10.5t-62 23.5t-57.5 41.5t-48.5 47t-50.5 56.5q-10 11 -14.5 12t-17.5 -12q-3 -3 -22 -25t-33.5 -37.5t-43.5 -39.5t-57 -39t-68 -26.5t-81 -11.5q-127 0 -216.5 90t-89.5 232q0 145 91.5 233t234.5 88
q51 0 91.5 -11t77.5 -37.5t59 -47.5t63 -65q15 -15 23 -15t22 15q25 28 41 44.5t46.5 41.5t57.5 39t66.5 25t81.5 11q130 0 214.5 -84.5t84.5 -226.5zM412 348h6q65 0 126.5 46.5t104.5 107.5q20 27 19 40t-23 46q-54 83 -110 125.5t-125 42.5q-83 0 -136 -56t-53 -145
q0 -90 55.5 -148.5t135.5 -58.5zM1051 756h-2q-47 0 -94 -27t-76 -56.5t-68 -76.5q-35 -43 0 -82q117 -166 246 -166q81 0 127.5 62.5t46.5 142.5q0 83 -50 143t-130 60z" />
    <glyph glyph-name="integral" unicode="&#x222b;" horiz-adv-x="892" 
d="M322 1321q0 188 86 288.5t227 100.5q82 0 130 -12t101 -45l-39 -140q-52 29 -89.5 40.5t-86.5 11.5q-79 0 -129.5 -56t-50.5 -170q0 -217 44 -657.5t44 -638.5q0 -189 -84.5 -291t-220.5 -102q-83 0 -130 11.5t-101 45.5l40 137q88 -49 175 -49q77 0 126.5 56t49.5 169
q0 219 -46 659t-46 642z" />
    <glyph glyph-name="approxequal" unicode="&#x2248;" horiz-adv-x="1142" 
d="M1012 926q-34 -50 -97.5 -83.5t-148.5 -33.5q-64 0 -128 24.5t-126.5 49t-122.5 24.5q-71 0 -122 -28t-97 -76l-43 92q63 61 120.5 93t139.5 32q63 0 128.5 -25.5t129 -51t121.5 -25.5q117 0 201 104zM1012 528q-34 -50 -97.5 -83t-148.5 -33q-54 0 -107 15.5t-89 34.5
t-85 34.5t-96 15.5q-119 0 -217 -106l-45 94q64 59 121 90t139 31q50 0 103 -16t91 -34.5t88.5 -34.5t96.5 -16q115 0 201 103z" />
    <glyph glyph-name="notequal" unicode="&#x2260;" horiz-adv-x="1191" 
d="M1001 883h-327l-146 -330l473 2v-121l-526 -2l-131 -293h-98l131 293h-230v121h285l146 330l-431 -2v123h486l123 274h94l-123 -274h274v-121z" />
    <glyph glyph-name="lessequal" unicode="&#x2264;" horiz-adv-x="1112" 
d="M963 633v-148l-834 330v146l836 331v-149l-648 -256zM971 254v-121l-854 2v121z" />
    <glyph glyph-name="greaterequal" unicode="&#x2265;" horiz-adv-x="1112" 
d="M143 633l648 254l-650 256v149l836 -331v-146l-834 -330v148zM137 254l854 2v-121l-854 -2v121z" />
    <glyph glyph-name="lozenge" unicode="&#x25ca;" horiz-adv-x="964" 
d="M549 0h-133l-322 739l334 742h131l322 -738zM489 1356l-251 -606l251 -625l252 614z" />
    <glyph glyph-name="i.loclTRK" horiz-adv-x="505" 
d="M338 1481v-226h-164v226h164zM330 1059v-1059h-150v1059h150z" />
    <glyph glyph-name="p.001" horiz-adv-x="1222" 
d="M190 -330v1389h148v-150q2 2 16.5 18.5t21.5 23t24.5 23.5t31 26t35 23.5t43 22.5t48 16.5t57 12.5t63.5 4q196 0 319 -137.5t123 -396.5q0 -263 -126 -414t-337 -151q-89 0 -163 28.5t-154 97.5v-436h-150zM621 94q155 0 250.5 117.5t95.5 329.5q0 108 -27 191.5
t-74 132.5t-105.5 73.5t-125.5 24.5q-126 0 -210.5 -82.5t-84.5 -186.5v-426q122 -174 281 -174z" />
    <glyph glyph-name="q.001" horiz-adv-x="1198" 
d="M1042 -330h-149v436q-80 -69 -154 -97.5t-161 -28.5q-213 0 -339 151t-126 414q0 259 123 396.5t319 137.5q37 0 72 -5.5t61 -13.5t53 -22.5t44 -25t38 -29t29.5 -27t25 -26.5t19.5 -21v150h145v-1389zM612 94q162 0 281 174v426q0 105 -84 187t-211 82q-67 0 -125 -24.5
t-105 -73.5t-73.5 -132.5t-26.5 -191.5q0 -211 95 -329t249 -118z" />
    <glyph glyph-name="l.ss01" horiz-adv-x="563" 
d="M207 0v1522h149v-1522h-149z" />
    <glyph glyph-name="zero.osf" horiz-adv-x="1302" 
d="M651 1501q117 0 215.5 -48.5t172 -142t114.5 -240.5t41 -333q0 -185 -41 -331t-114 -238t-171.5 -140t-216.5 -48q-119 0 -217 47.5t-171 139.5t-113.5 236.5t-40.5 329.5q0 188 41 335.5t114.5 241.5t171.5 142.5t215 48.5zM653 115q177 0 276 152t99 470
q0 320 -101 475.5t-276 155.5q-174 0 -275.5 -156t-101.5 -475q0 -316 101.5 -469t277.5 -153z" />
    <glyph glyph-name="one.osf" horiz-adv-x="782" 
d="M375 0v1298l-295 -106v119l342 170h108v-1481h-155z" />
    <glyph glyph-name="two.osf" horiz-adv-x="1173" 
d="M96 0v141l482 475q173 168 240 267.5t67 206.5q0 72 -28 127t-74.5 86t-98.5 46t-106 15q-110 0 -205 -50.5t-152 -158.5l-131 45q65 147 191.5 224t304.5 77q201 0 328.5 -109t127.5 -302q-1 -127 -70.5 -237.5t-252.5 -295.5l-420 -420h758v-137h-961z" />
    <glyph glyph-name="three.osf" horiz-adv-x="1288" 
d="M145 1245q36 88 114.5 149t174.5 88t203 27q217 0 355 -106t138 -266q0 -239 -288 -340q157 -43 245.5 -142.5t88.5 -238.5q0 -186 -154.5 -307t-405.5 -121q-187 0 -312.5 60.5t-207.5 207.5l133 45q136 -180 387 -180q181 0 286.5 81t105.5 208q0 72 -33 131.5
t-87.5 97t-123.5 58t-143 20.5h-201v131l168 2q161 0 270 79.5t109 198.5q0 107 -94.5 178.5t-235.5 71.5q-244 0 -361 -180z" />
    <glyph glyph-name="four.osf" horiz-adv-x="1273" 
d="M795 1481h155v-946h234v-140h-234v-395h-149v395h-699v150zM260 535h535v720z" />
    <glyph glyph-name="five.osf" horiz-adv-x="1323" 
d="M250 1481h874l-12 -133h-727l-43 -525q54 29 82 42.5t77 33t98 27.5t106 8q99 0 186 -27t156 -79.5t109 -141t40 -201.5q0 -156 -73 -271.5t-199.5 -174.5t-290.5 -59q-154 0 -289.5 58t-232.5 167l110 92q98 -97 182 -141.5t209 -44.5q195 0 307.5 102t112.5 266
q0 159 -100 241.5t-252 82.5q-67 0 -138.5 -21.5t-109.5 -41t-106 -58.5q-6 -4 -9 -5.5t-6.5 -1.5t-4.5 0.5t-5.5 3.5l-7.5 5l-103 59z" />
    <glyph glyph-name="six.osf" horiz-adv-x="1251" 
d="M690 1513q166 0 280.5 -74t155.5 -194l-122 -51q-29 46 -54 75.5t-62 58t-85.5 42.5t-110.5 14q-213 0 -323 -196t-93 -565q38 125 149 198.5t253 73.5q111 0 200.5 -34.5t147 -95t88.5 -141t31 -173.5q0 -207 -140 -332t-356 -125q-256 0 -400.5 195t-144.5 544
q0 366 155 573t431 207zM664 766q-149 0 -254 -78t-105 -207q31 -177 119 -267.5t227 -90.5q143 0 237.5 90t94.5 229q0 137 -87 230.5t-232 93.5z" />
    <glyph glyph-name="seven.osf" horiz-adv-x="1177" 
d="M80 1481h1020v-154q-198 -280 -374.5 -687.5t-209.5 -639.5h-170q21 114 67.5 263.5t117 328.5t176 379.5t227.5 376.5h-854v133z" />
    <glyph glyph-name="eight.osf" horiz-adv-x="1273" 
d="M635 1501q215 0 347 -112t132 -295q0 -62 -21.5 -118t-48.5 -90.5t-65.5 -66.5t-57.5 -43t-40 -22l32 -12q32 -13 45 -19t47 -25t52.5 -35.5t45.5 -46t41 -60t25 -74.5t11 -93q0 -187 -151 -298t-400 -111q-247 0 -390 102.5t-143 284.5q0 50 14.5 99.5t46 99.5t87.5 96
t131 81q-22 8 -42.5 17.5t-59.5 37.5t-66.5 62t-49.5 91t-22 124q0 182 141 304t359 122zM635 1372q-142 0 -239 -80.5t-97 -201.5q0 -94 54.5 -154.5t160.5 -83.5l211 -49q39 -8 95 33t99.5 115t43.5 147q0 124 -89 199t-239 75zM637 109q172 0 274.5 75t102.5 201
q0 96 -53 155t-166 87l-269 63q-23 6 -58.5 -5.5t-72.5 -39t-70 -65t-54 -89.5t-21 -106q0 -130 100.5 -203t286.5 -73z" />
    <glyph glyph-name="nine.osf" horiz-adv-x="1251" 
d="M555 -20q-165 0 -280 75.5t-158 196.5l127 47q27 -44 51.5 -73.5t61 -58t85 -42.5t109.5 -14q216 0 329.5 192.5t98.5 573.5q-35 -128 -147 -204.5t-259 -76.5t-256 60.5t-163 162t-54 228.5q0 206 140 330t356 124q256 0 400.5 -194.5t144.5 -544.5q0 -374 -154 -578
t-432 -204zM582 727q147 0 252.5 82t105.5 203q-30 179 -118 269.5t-226 90.5q-143 0 -236.5 -90t-93.5 -229q0 -135 86 -230.5t230 -95.5z" />
    <glyph glyph-name="zero.tf" horiz-adv-x="1427" 
d="M731 1501q117 0 215.5 -48.5t172 -142t114.5 -240.5t41 -333q0 -185 -41 -331t-115 -238t-172.5 -140t-216.5 -48t-216 47.5t-171 139.5t-113.5 236.5t-40.5 329.5q0 188 41 335.5t114.5 241.5t172 142.5t215.5 48.5zM731 115q177 0 277 152t100 470q0 320 -101.5 475.5
t-275.5 155.5q-175 0 -277 -156t-102 -475q0 -316 101.5 -469t277.5 -153z" />
    <glyph glyph-name="one.tf" horiz-adv-x="1427" 
d="M829 147h451v-147h-1069v147h457v1170l-437 -176v147l492 195h106v-1336z" />
    <glyph glyph-name="two.tf" horiz-adv-x="1427" 
d="M266 0v141l482 475q173 166 240 266t67 208q0 72 -28 127t-74.5 86t-98.5 46t-106 15q-110 0 -205 -50.5t-152 -158.5l-131 45q65 147 191.5 224t304.5 77q201 0 328.5 -109t127.5 -302q-1 -127 -70.5 -237.5t-252.5 -295.5l-420 -420h758v-137h-961z" />
    <glyph glyph-name="three.tf" horiz-adv-x="1427" 
d="M250 1237q36 88 114 149t173 88t202 27q217 0 355.5 -106.5t138.5 -266.5q0 -239 -289 -340q157 -42 245.5 -141t88.5 -239q0 -186 -154 -307t-405 -121q-187 0 -312.5 60.5t-207.5 207.5l135 45q133 -180 385 -180q181 0 287 80.5t106 207.5q0 95 -57.5 167
t-144.5 106.5t-187 34.5h-201v131l168 2q161 0 270 79.5t109 198.5q0 107 -94.5 178.5t-235.5 71.5q-245 0 -360 -180z" />
    <glyph glyph-name="four.tf" horiz-adv-x="1427" 
d="M911 1481h156v-946h231v-140h-231v-395h-152v395h-698v150zM375 535h536v720z" />
    <glyph glyph-name="five.tf" horiz-adv-x="1427" 
d="M338 1481h874l-10 -133h-729l-43 -525q54 29 82 42.5t77.5 33t99 27.5t106.5 8q99 0 185 -27t155 -79.5t109 -141t40 -201.5q0 -156 -72.5 -271.5t-198.5 -174.5t-290 -59q-155 0 -290.5 58t-233.5 167l110 92q98 -97 182 -141.5t209 -44.5q195 0 307.5 102t112.5 266
q0 159 -99 241.5t-251 82.5q-68 0 -139.5 -21.5t-110.5 -41.5t-104 -58l-11 -5.5t-6.5 -1.5t-4 0.5t-5 3.5t-8.5 5l-102 59z" />
    <glyph glyph-name="six.tf" horiz-adv-x="1427" 
d="M793 1513q166 0 280.5 -74t155.5 -194l-123 -51q-58 94 -125.5 142t-185.5 48q-213 0 -322 -195.5t-94 -565.5q38 126 149 199t254 73q218 0 341.5 -126t123.5 -318q0 -207 -139.5 -332t-355.5 -125q-254 0 -398.5 195t-144.5 544q0 366 154 573t430 207zM766 766
q-149 0 -253.5 -78t-104.5 -207q32 -178 119.5 -268t226.5 -90q143 0 237 90t94 229q0 137 -87 230.5t-232 93.5z" />
    <glyph glyph-name="seven.tf" horiz-adv-x="1427" 
d="M135 1481h1116v-154q-198 -280 -374 -687t-209 -640h-179q22 114 68.5 262t117.5 325.5t176.5 376t227.5 373.5h-944v144z" />
    <glyph glyph-name="eight.tf" horiz-adv-x="1427" 
d="M737 1501q215 0 347.5 -112t132.5 -295q0 -62 -21.5 -118t-48 -90.5t-65 -66t-57.5 -43t-40 -22.5q5 -2 28 -11t37.5 -15.5t41.5 -20t45.5 -28.5t42.5 -35.5t40.5 -46t31.5 -56t22.5 -69.5t7.5 -83q0 -187 -151 -298t-400 -111q-247 0 -388.5 102.5t-141.5 284.5
q0 107 66 208t210 168q-21 8 -42 18t-59.5 37.5t-65.5 61.5t-48.5 91t-21.5 124q0 182 140 304t357 122zM739 1372q-143 0 -239.5 -80.5t-96.5 -201.5q0 -191 215 -238l209 -49q39 -8 95 33t99.5 115t43.5 147q0 124 -88.5 199t-237.5 75zM739 109q172 0 274.5 75t102.5 201
q0 96 -52.5 155.5t-166.5 86.5l-268 63q-23 6 -58.5 -5.5t-73 -39t-70.5 -65t-54 -89.5t-21 -106q0 -130 101 -203t286 -73z" />
    <glyph glyph-name="nine.tf" horiz-adv-x="1427" 
d="M670 -20q-166 0 -281 75.5t-158 196.5l127 47q27 -43 52 -73t61 -58.5t85 -42.5t110 -14q216 0 329.5 192.5t98.5 573.5q-35 -128 -147 -204.5t-259 -76.5t-256 60.5t-163 162t-54 228.5q0 206 140 330t356 124q256 0 400 -194.5t144 -544.5q0 -374 -153.5 -578
t-431.5 -204zM696 727q147 0 253 82t106 203q-30 179 -118 269.5t-226 90.5q-145 0 -237.5 -89.5t-92.5 -229.5q0 -135 85.5 -230.5t229.5 -95.5z" />
    <glyph glyph-name="zero.subs" horiz-adv-x="841" 
d="M383 596q152 0 246 -124t94 -357q0 -230 -94 -352.5t-248 -122.5t-247 121.5t-93 351.5q0 233 95 358t247 125zM383 -276q111 0 173 95.5t62 295.5q0 203 -62.5 300t-172.5 97t-174 -97.5t-64 -299.5q0 -198 63.5 -294.5t174.5 -96.5z" />
    <glyph glyph-name="one.subs" horiz-adv-x="608" 
d="M195 -338v817l-187 -67v75l215 107h70v-932h-98z" />
    <glyph glyph-name="two.subs" horiz-adv-x="778" 
d="M43 -338v88l303 299q108 105 150.5 168t42.5 131q0 86 -59 129t-134 43q-69 0 -129 -32t-96 -99l-82 29q81 188 311 188q127 0 207.5 -68.5t79.5 -189.5q0 -80 -44 -150.5t-159 -185.5l-264 -264h477v-86h-604z" />
    <glyph glyph-name="three.subs" horiz-adv-x="808" 
d="M94 434q34 82 119 124t190 42q137 0 224.5 -66t87.5 -167q0 -152 -183 -215q99 -27 155 -89.5t56 -150.5q0 -117 -97 -192.5t-255 -75.5q-118 0 -197 38t-131 130l84 28q82 -112 244 -112q113 0 179.5 50t66.5 130q0 89 -72.5 140.5t-171.5 53.5h-125v82h105
q101 2 169 52t68 124q0 68 -59 113t-148 45q-154 0 -227 -112z" />
    <glyph glyph-name="four.subs" horiz-adv-x="841" 
d="M492 594h96v-596h147v-86h-147v-250h-94v250h-439v92zM154 -2h338v453z" />
    <glyph glyph-name="five.subs" horiz-adv-x="813" 
d="M152 588h550l-8 -84h-456l-27 -330q41 23 68 35.5t70 23.5t89 11q63 0 117.5 -16.5t98 -50t69 -89t25.5 -127.5q0 -148 -99 -232.5t-256 -84.5q-96 0 -182 36.5t-145 104.5l67 57q63 -61 115.5 -88.5t132.5 -27.5q122 0 192 64t70 167q0 101 -62 153t-157 52
q-99 0 -223 -78q-5 -3 -8 -4t-4 -0.5t-4.5 2.5t-6.5 4l-63 37z" />
    <glyph glyph-name="six.subs" horiz-adv-x="817" 
d="M403 604q105 0 177 -47t100 -123l-78 -31q-39 60 -80.5 89.5t-115.5 29.5q-133 0 -202.5 -123.5t-60.5 -355.5q24 79 94.5 125.5t159.5 46.5q138 0 215.5 -79.5t77.5 -201.5q0 -130 -87.5 -208t-223.5 -78q-160 0 -251 122.5t-91 342.5q0 231 96.5 361t269.5 130z
M387 133q-94 0 -159.5 -48t-65.5 -130q40 -225 217 -225q91 0 150 55.5t59 144.5q0 86 -55 144.5t-146 58.5z" />
    <glyph glyph-name="seven.subs" horiz-adv-x="739" 
d="M68 594h643v-96q-126 -177 -237 -433t-132 -403h-106q30 162 126 399.5t242 448.5h-536v84z" />
    <glyph glyph-name="eight.subs" horiz-adv-x="813" 
d="M383 600q136 0 218.5 -70.5t82.5 -185.5q0 -39 -13 -74t-30.5 -57t-40.5 -41.5t-36 -27t-25 -13.5q3 -1 23.5 -9.5t33 -15.5t35 -20t37 -29.5t29.5 -38.5t22.5 -52.5t7.5 -65.5q0 -117 -95.5 -186.5t-252.5 -69.5q-155 0 -244.5 64t-89.5 179q0 67 42 130t134 106
q-13 5 -27 11.5t-38 23.5t-41.5 38.5t-31 58t-13.5 79.5q0 114 88 190t225 76zM385 520q-91 0 -151 -51.5t-60 -128.5q0 -120 135 -147l131 -33q40 -8 95 54.5t55 131.5q0 77 -56 125.5t-149 48.5zM385 -276q107 0 172.5 48t65.5 126q0 117 -140 153l-168 39
q-26 6 -66.5 -16.5t-74 -71t-33.5 -104.5q0 -82 64 -128t180 -46z" />
    <glyph glyph-name="nine.subs" horiz-adv-x="817" 
d="M328 -360q-103 0 -175.5 47.5t-99.5 122.5l80 30q35 -57 78 -88t115 -31q136 0 207 121.5t61 360.5q-22 -81 -91.5 -128.5t-162.5 -47.5q-138 0 -217.5 79.5t-79.5 202.5q0 130 87.5 208.5t223.5 78.5q160 0 251 -122.5t91 -342.5q0 -234 -97 -362.5t-271 -128.5z
M346 111q91 0 158 51t67 127q-40 225 -217 225q-91 0 -150 -56t-59 -143q0 -86 55 -145t146 -59z" />
    <glyph glyph-name="zero.dnom" horiz-adv-x="841" 
d="M383 934q152 0 246 -124t94 -357q0 -230 -94 -353t-248 -123q-153 0 -246.5 122t-93.5 352q0 233 95 358t247 125zM383 61q110 0 172.5 96t62.5 296q0 203 -62.5 300t-172.5 97t-174 -97.5t-64 -299.5q0 -198 63.5 -295t174.5 -97z" />
    <glyph glyph-name="one.dnom" horiz-adv-x="608" 
d="M195 0v817l-187 -67v75l215 107h70v-932h-98z" />
    <glyph glyph-name="two.dnom" horiz-adv-x="778" 
d="M43 0v88l303 299q108 105 150.5 168t42.5 131q0 86 -59 129t-134 43q-69 0 -129 -32t-96 -99l-82 29q81 188 311 188q127 0 207.5 -68.5t79.5 -189.5q0 -80 -44 -150.5t-159 -185.5l-264 -264h477v-86h-604z" />
    <glyph glyph-name="three.dnom" horiz-adv-x="808" 
d="M94 772q34 82 119 124t190 42q137 0 224.5 -66t87.5 -167q0 -153 -183 -216q99 -27 155 -89t56 -150q0 -117 -97 -192.5t-255 -75.5q-118 0 -197 38t-131 130l84 28q82 -112 244 -112q113 0 179.5 50t66.5 130q0 89 -72.5 140.5t-171.5 53.5h-125v82h105q101 2 169 52
t68 124q0 68 -59 113t-148 45q-153 0 -227 -113z" />
    <glyph glyph-name="four.dnom" horiz-adv-x="841" 
d="M492 932h96v-596h147v-86h-147v-250h-94v250h-439v92zM154 336h338v452z" />
    <glyph glyph-name="five.dnom" horiz-adv-x="813" 
d="M152 926h550l-8 -84h-456l-27 -330q41 23 68 35.5t70 23.5t89 11q63 0 117.5 -16.5t98 -50t69 -89t25.5 -127.5q0 -148 -99 -232.5t-256 -84.5q-96 0 -182 36.5t-145 104.5l67 57q63 -62 115.5 -89.5t132.5 -27.5q122 0 192 64.5t70 167.5q0 101 -62 153t-157 52
q-99 0 -223 -78q-5 -3 -8 -4t-4 -0.5t-4.5 2.5t-6.5 4l-63 37z" />
    <glyph glyph-name="six.dnom" horiz-adv-x="817" 
d="M403 942q105 0 177 -47t100 -123l-78 -31q-39 60 -80.5 89.5t-115.5 29.5q-133 0 -202.5 -123.5t-60.5 -355.5q24 79 94.5 125.5t159.5 46.5q138 0 215.5 -79.5t77.5 -201.5q0 -130 -87.5 -208t-223.5 -78q-160 0 -251 122.5t-91 342.5q0 231 96.5 361t269.5 130z
M387 471q-94 0 -159.5 -48t-65.5 -130q40 -225 217 -225q91 0 150 55.5t59 144.5q0 86 -55 144.5t-146 58.5z" />
    <glyph glyph-name="seven.dnom" horiz-adv-x="739" 
d="M68 932h643v-96q-126 -177 -237 -433t-132 -403h-106q30 162 126 399.5t242 448.5h-536v84z" />
    <glyph glyph-name="eight.dnom" horiz-adv-x="813" 
d="M383 936q136 0 218.5 -71t82.5 -185q0 -39 -13 -74t-30.5 -57t-40.5 -41.5t-36 -27t-25 -13.5q3 -1 23.5 -9.5t33 -15.5t35 -20t37 -29.5t29.5 -38.5t22.5 -52.5t7.5 -65.5q0 -117 -95.5 -186.5t-252.5 -69.5q-155 0 -244.5 64t-89.5 179q0 67 42 130t134 106
q-13 5 -27 11.5t-38 23.5t-41.5 38.5t-31 58t-13.5 79.5q0 114 88 190t225 76zM385 856q-91 0 -151 -51.5t-60 -128.5q0 -121 135 -148l131 -32q40 -8 95 54.5t55 131.5q0 77 -56 125.5t-149 48.5zM385 59q107 0 172.5 48t65.5 126q0 118 -140 154l-168 39
q-26 6 -66.5 -16.5t-74 -71.5t-33.5 -105q0 -82 64 -128t180 -46z" />
    <glyph glyph-name="nine.dnom" horiz-adv-x="817" 
d="M328 -23q-103 0 -175.5 47.5t-99.5 122.5l80 31q35 -57 78 -88t115 -31q136 0 207 121.5t61 360.5q-22 -81 -91.5 -128.5t-162.5 -47.5q-138 0 -217.5 79.5t-79.5 202.5q0 130 87.5 208.5t223.5 78.5q160 0 251 -122.5t91 -342.5q0 -234 -97 -363t-271 -129zM346 449
q91 0 158 51t67 127q-40 225 -217 225q-91 0 -150 -56t-59 -143q0 -86 55 -145t146 -59z" />
    <glyph glyph-name="zero.numr" horiz-adv-x="841" 
d="M383 1516q152 0 246 -124t94 -358q0 -230 -94 -352.5t-248 -122.5t-247 121.5t-93 351.5q0 233 95 358.5t247 125.5zM383 643q111 0 173 95.5t62 295.5q0 203 -63 300.5t-172 97.5q-110 0 -174 -98t-64 -300q0 -198 63.5 -294.5t174.5 -96.5z" />
    <glyph glyph-name="one.numr" horiz-adv-x="608" 
d="M195 565v817l-187 -67v76l215 106h70v-932h-98z" />
    <glyph glyph-name="two.numr" horiz-adv-x="778" 
d="M43 571v88l303 299q108 105 150.5 168t42.5 131q0 86 -59 129.5t-134 43.5q-69 0 -129 -32.5t-96 -99.5l-82 29q40 92 119.5 140.5t191.5 48.5q127 0 207.5 -69t79.5 -190q0 -80 -44 -150t-159 -185l-264 -265h477v-86h-604z" />
    <glyph glyph-name="three.numr" horiz-adv-x="808" 
d="M94 1350q34 82 119 124t190 42q137 0 224.5 -66.5t87.5 -167.5q0 -152 -183 -215q99 -27 155 -89.5t56 -150.5q0 -117 -97 -192.5t-255 -75.5q-118 0 -197 38t-131 130l84 29q83 -113 244 -113q113 0 179.5 50t66.5 130q0 89 -72.5 141t-171.5 54h-125v82h105
q101 2 169 52t68 124q0 68 -59 113t-148 45q-153 0 -227 -113z" />
    <glyph glyph-name="four.numr" horiz-adv-x="841" 
d="M492 1497h96v-596h147v-86h-147v-250h-94v250h-439v92zM154 901h338v453z" />
    <glyph glyph-name="five.numr" horiz-adv-x="813" 
d="M152 1497h550l-8 -84h-456l-27 -330q41 23 68 35.5t70 23.5t89 11q63 0 117.5 -16.5t98 -50t69 -89t25.5 -127.5q0 -148 -99 -232.5t-256 -84.5q-96 0 -182 36.5t-145 104.5l67 58q63 -62 115.5 -89.5t132.5 -27.5q122 0 192 64t70 167q0 101 -62 153t-157 52
q-99 0 -223 -78q-5 -3 -8 -4t-4 -0.5t-4.5 2.5t-6.5 4l-63 37z" />
    <glyph glyph-name="six.numr" horiz-adv-x="817" 
d="M403 1526q105 0 177 -47t100 -123l-78 -31q-39 60 -80.5 89.5t-115.5 29.5q-133 0 -202.5 -123.5t-60.5 -355.5q24 79 94.5 125.5t159.5 46.5q138 0 215.5 -79.5t77.5 -201.5q0 -130 -87.5 -208.5t-223.5 -78.5q-160 0 -251 122.5t-91 342.5q0 231 96.5 361.5
t269.5 130.5zM387 1055q-94 0 -159.5 -48t-65.5 -130q41 -226 217 -226q91 0 150 56t59 145q0 86 -55 144.5t-146 58.5z" />
    <glyph glyph-name="seven.numr" horiz-adv-x="739" 
d="M68 1495h643v-96q-126 -177 -237 -433t-132 -403h-106q30 162 126 399.5t242 448.5h-536v84z" />
    <glyph glyph-name="eight.numr" horiz-adv-x="813" 
d="M383 1516q136 0 218.5 -71t82.5 -185q0 -39 -13 -74t-30.5 -57t-40.5 -41.5t-36 -27t-25 -13.5q3 -1 23.5 -9.5t33 -15.5t35 -20.5t37 -30t29.5 -38.5t22.5 -52.5t7.5 -65.5q0 -117 -95.5 -186.5t-252.5 -69.5q-155 0 -244.5 64.5t-89.5 179.5q0 67 42 129.5t134 105.5
q-13 5 -27 11.5t-38 23.5t-41.5 38.5t-31 58t-13.5 79.5q0 114 88 190.5t225 76.5zM385 1436q-90 0 -150.5 -52t-60.5 -129q0 -120 135 -147l131 -33q40 -8 95 55t55 132q0 77 -56 125.5t-149 48.5zM385 639q107 0 172.5 48t65.5 126q0 118 -140 154l-168 39
q-26 6 -66.5 -16.5t-74 -71.5t-33.5 -105q0 -82 64 -128t180 -46z" />
    <glyph glyph-name="nine.numr" horiz-adv-x="817" 
d="M328 561q-103 0 -175.5 47.5t-99.5 122.5l80 31q35 -57 78 -88t115 -31q136 0 207 121t61 360q-22 -81 -91.5 -128.5t-162.5 -47.5q-138 0 -217.5 80t-79.5 203q0 130 87.5 208.5t223.5 78.5q160 0 251 -122.5t91 -342.5q0 -234 -97 -363t-271 -129zM346 1032
q91 0 158 51t67 127q-40 226 -217 226q-91 0 -150 -56t-59 -143q0 -86 55 -145.5t146 -59.5z" />
    <glyph glyph-name="period.tf" horiz-adv-x="595" 
d="M420 211v-211h-189v211h189z" />
    <glyph glyph-name="comma.tf" horiz-adv-x="595" 
d="M205 -246l112 244l-84 2v205h213v-176l-161 -275h-80z" />
    <glyph glyph-name="bullet.uc" horiz-adv-x="638" 
d="M315 573q-75 0 -127.5 53t-52.5 128q0 74 52.5 127t127.5 53q73 0 126 -53t53 -127q0 -75 -52.5 -128t-126.5 -53z" />
    <glyph glyph-name="caroncomb.alt" horiz-adv-x="0" 
d="M-188 1102q-7 0 -11.5 5.5t-1.5 10.5l60 144q5 12 3 16.5t-12 7.5l-12 2q-12 2 -16 5.5t-4 13.5v157q0 17 14 17h111q14 0 14 -15v-178q0 -4 -2 -7l-2 -3l-68 -160q-5 -16 -35 -16h-38z" />
    </font>
</defs>
</svg>
