<?xml version="1.0" standalone="no"?>
<!DOCTYPE svg PUBLIC "-//W3C//DTD SVG 1.1//EN" "http://www.w3.org/Graphics/SVG/1.1/DTD/svg11.dtd" >
<svg xmlns="http://www.w3.org/2000/svg" xmlns:xlink="http://www.w3.org/1999/xlink" version="1.1">
<metadata>
Created by FontForge 20201107 at Thu Jun 12 13:50:21 2025
 By 
copyright missing
</metadata>
<defs>
<font id="PublicSans-LightItalic" horiz-adv-x="1118" >
  <font-face 
    font-family="Public Sans Light"
    font-weight="300"
    font-style="italic"
    font-stretch="normal"
    units-per-em="2048"
    panose-1="0 0 4 0 0 0 0 0 0 0"
    ascent="1597"
    descent="-451"
    x-height="1057"
    cap-height="1481"
    bbox="-758 -479 2421.98 2257"
    underline-thickness="102"
    underline-position="-204"
    slope="-8"
    unicode-range="U+000D-FB02"
  />
<missing-glyph horiz-adv-x="1392" 
d="M367 1690h974l-272 -2020h-975zM997 -119l230 1710h-707zM436 1464l-229 -1693h704z" />
    <glyph glyph-name="fi" unicode="fi" horiz-adv-x="1296" 
d="M1264 1520l-35 -226h-160l31 226h164zM778 1057l-16 -113h-256l-127 -944h-148l127 944h-225l17 113h225l22 170q36 254 271 254h178l-17 -111h-153q-65 0 -95 -36t-38 -111l-25 -166h260zM1190 1057l-141 -1057h-148l146 1057h143z" />
    <glyph glyph-name="fl" unicode="fl" horiz-adv-x="1386" 
d="M1120 -4q-69 0 -114 22t-63.5 59.5t-24.5 88t4 106.5l168 1248h145l-166 -1237q-13 -85 13 -127.5t77 -44.5l60 -2l-17 -99q-51 -14 -82 -14zM778 1057l-16 -113h-256l-127 -944h-148l127 944h-225l17 113h225l22 170q36 254 271 254h178l-17 -111h-153q-65 0 -95 -36
t-38 -111l-25 -166h260z" />
    <glyph glyph-name="colon_one_eight_F_colon.liga" unicode="&#x3a;&#x31;&#x38;F&#x3a;" horiz-adv-x="1720" 
d="M170 1556h1448q24 0 24 -24v-1505q0 -12 -6.5 -19.5t-17.5 -7.5h-1448q-23 0 -23 27v1505q0 24 23 24zM870 479q69 0 118.5 52t49.5 124q0 94 -71 144q51 48 51 116q0 64 -44 109t-104 45q-64 0 -106.5 -44.5t-42.5 -109.5q0 -66 53 -116q-74 -50 -74 -144q0 -72 50 -124
t120 -52zM618 498v555q0 10 -8 10h-133q-8 0 -8 -10v-52q0 -10 8 -10h70v-493q0 -9 8 -9h55q8 0 8 9zM1343 1001v52q0 10 -8 10h-205q-8 0 -8 -10v-555q0 -9 8 -9h50q12 0 12 9v252h119q8 0 8 8v53q0 8 -8 8h-119v172h143q8 0 8 10zM870 834q-35 0 -58.5 23t-23.5 58
q0 37 23.5 61.5t58.5 24.5q33 0 56.5 -25t23.5 -61q0 -35 -23.5 -58t-56.5 -23zM870 760q42 0 71.5 -30.5t29.5 -74.5t-29.5 -74t-71.5 -30t-71 30t-29 74t29.5 74.5t70.5 30.5z" />
    <glyph glyph-name="colon_f_l_a_g_two_colon.liga" unicode="&#x3a;flag&#x32;&#x3a;" horiz-adv-x="2486" 
d="M229 1556h2098v-1554h-2098v1554zM2204 1321v109h-1053v-109h1053zM416 1198h123v119h-123v-119zM879 1198h118v119h-118v-119zM649 1077h119v121h-119v-121zM1151 1081h1053v113h-1053v-113zM420 958h119v119h-119v-119zM997 1077h-118v-119h118v119zM768 958h-119v-120
h119v120zM1151 842h1053v112h-1053v-112zM539 838h-119v-119h119v119zM997 838h-118v-119h118v119zM1151 602h1053v113h-1053v-113zM2204 475h-1854v-113h1854v113zM352 129h1852v107h-1852v-107z" />
    <glyph glyph-name="colon_f_l_a_g_colon.liga" unicode="&#x3a;flag&#x3a;" horiz-adv-x="2486" 
d="M229 1556h2098v-1554h-2098v1554zM2212 1436h-1866v-838h1866v121h-1063v119h1063v120h-1063v119h1063v121h-1063v119h1063v119zM575 1317v-119h-116v119h116zM1034 1317v-119h-114v119h114zM803 1198v-121h-113v121h113zM575 1077v-119h-116v119h116zM1034 1077v-119
h-114v119h114zM803 958v-120h-113v120h113zM575 838v-119h-116v119h116zM1034 838v-119h-114v119h114zM2212 479h-1866v-121h1866v121zM346 119h1866v121h-1866v-121z" />
    <glyph glyph-name=".notdef" horiz-adv-x="1392" 
d="M367 1690h974l-272 -2020h-975zM997 -119l230 1710h-707zM436 1464l-229 -1693h704z" />
    <glyph glyph-name="uni0000" horiz-adv-x="16" 
 />
    <glyph glyph-name="nonmarkingreturn" horiz-adv-x="682" 
 />
    <glyph glyph-name="CR" unicode="&#xd;" horiz-adv-x="428" 
 />
    <glyph glyph-name="space" unicode=" " horiz-adv-x="491" 
 />
    <glyph glyph-name="exclam" unicode="!" horiz-adv-x="495" 
d="M463 1481l-195 -1135h-100l113 1135h182zM291 209l-29 -209h-184l28 209h185z" />
    <glyph glyph-name="quotedbl" unicode="&#x22;" horiz-adv-x="811" 
d="M489 1481l-112 -445h-92l10 445h194zM821 1481l-112 -445h-93l11 445h194z" />
    <glyph glyph-name="numbersign" unicode="#" horiz-adv-x="1177" 
d="M1149 905h-227l-88 -317h206l-10 -101h-225l-139 -489l-97 14l133 475h-294l-138 -489l-100 14l133 475h-229l12 101h246l90 317h-227l12 101h242l135 477l100 -17l-129 -460h293l135 477l98 -17l-131 -460h211zM731 588l90 317h-295l-90 -317h295z" />
    <glyph glyph-name="dollar" unicode="$" horiz-adv-x="1169" 
d="M1059 352q-25 -165 -152 -266.5t-321 -101.5l-23 -162h-110l22 162q-175 3 -277 65.5t-173 194.5l98 75q68 -106 149.5 -156t221.5 -54l73 565q-228 86 -309.5 181.5t-58.5 248.5q22 165 161 278t318 113l16 137h115l-23 -141q222 -27 363 -205l-94 -80
q-55 76 -123.5 113t-163.5 45l-74 -561l82 -35q317 -131 283 -416zM588 827l71 537q-144 -10 -224 -84.5t-95 -181.5q-11 -76 29.5 -131.5t146.5 -110.5zM602 113q125 1 212 71.5t99 175.5q15 96 -40 161t-199 124z" />
    <glyph glyph-name="percent" unicode="%" horiz-adv-x="1777" 
d="M578 1503q147 0 223.5 -117t50.5 -315q-26 -193 -130.5 -304.5t-246.5 -111.5q-149 0 -226.5 116.5t-51.5 315.5q27 192 133 304t248 112zM1563 1497l-1162 -1505h-114l1163 1505h113zM473 745q101 0 173 94t93 246q21 148 -23 238t-141 90q-100 0 -172 -95.5t-94 -248.5
q-19 -145 24 -234.5t140 -89.5zM1360 825q148 0 225 -115.5t51 -312.5q-27 -195 -130.5 -306t-245.5 -111q-149 0 -226 116.5t-51 315.5q26 191 130.5 302t246.5 111zM1260 70q97 0 169.5 95.5t94.5 244.5q19 144 -26 235.5t-138 91.5q-97 0 -171 -97t-93 -245
q-19 -142 26 -233.5t138 -91.5z" />
    <glyph glyph-name="ampersand" unicode="&#x26;" horiz-adv-x="1357" 
d="M776 1503q153 0 242 -81.5t69 -217.5q-6 -52 -30.5 -102.5t-72 -106t-129 -110.5t-191.5 -103l276 -409q51 56 107 162t79 245h150q-33 -150 -99.5 -266t-168.5 -240l186 -274h-180l-121 172q-224 -182 -463 -182q-197 0 -295 105t-74 278q20 140 114.5 246t277.5 200
q-79 105 -106.5 168.5t-16.5 145.5q20 159 147.5 264.5t298.5 105.5zM764 1393q-113 -1 -189.5 -75.5t-89.5 -178.5q-6 -41 4 -77t24 -58t50 -72l37 -55q176 82 256.5 159.5t91.5 165.5q11 92 -41.5 141.5t-142.5 49.5zM524 717q-130 -63 -210.5 -150.5t-92.5 -193.5
q-10 -116 62 -187t190 -71q90 0 184.5 41t171.5 110z" />
    <glyph glyph-name="quotesingle" unicode="'" horiz-adv-x="499" 
d="M481 1481l-114 -445h-91l9 445h196z" />
    <glyph glyph-name="parenleft" unicode="(" horiz-adv-x="587" 
d="M309 -330q-105 232 -144 444.5t-3 463.5q31 235 135.5 467.5t257.5 435.5h113q-138 -215 -234.5 -451.5t-128.5 -470.5q-59 -410 88 -889h-84z" />
    <glyph glyph-name="parenright" unicode=")" horiz-adv-x="602" 
d="M-82 -330q300 470 365 922q57 420 -90 889h83q105 -230 145 -443.5t5 -462.5q-32 -238 -137 -471t-258 -434h-113z" />
    <glyph glyph-name="asterisk" unicode="*" horiz-adv-x="735" 
d="M578 834l-117 249l-193 -258l-86 72l211 231l-241 76l49 94l227 -98l23 281h114l-53 -279l252 109l20 -101l-258 -86l148 -227z" />
    <glyph glyph-name="plus" unicode="+" horiz-adv-x="1087" 
d="M991 805l-16 -121h-350l-50 -367h-120l49 365h-350l18 121h350l49 366h119l-49 -364h350z" />
    <glyph glyph-name="comma" unicode="," horiz-adv-x="456" 
d="M-25 -246l142 244l-80 2l26 205h207l-24 -176l-191 -275h-80z" />
    <glyph glyph-name="hyphen" unicode="-" horiz-adv-x="759" 
d="M631 592l-19 -123l-487 -2l16 123z" />
    <glyph glyph-name="period" unicode="." horiz-adv-x="434" 
d="M260 211l-27 -211h-186l31 211h182z" />
    <glyph glyph-name="slash" unicode="/" horiz-adv-x="671" 
d="M-59 -92l706 1573h127l-704 -1573h-129z" />
    <glyph glyph-name="zero" unicode="0" horiz-adv-x="1257" 
d="M762 1501q112 0 200 -49t146 -145.5t78 -239.5t-4 -330q-25 -183 -84 -328t-142 -238t-185 -142t-216 -49q-233 0 -351 196t-69 557q50 365 222.5 566.5t404.5 201.5zM578 115q168 0 282.5 152t157.5 470q43 320 -32 475.5t-243 155.5q-166 0 -283.5 -156.5
t-160.5 -474.5q-43 -316 33.5 -469t245.5 -153z" />
    <glyph glyph-name="one" unicode="1" horiz-adv-x="770" 
d="M293 0l174 1298l-295 -108l16 121l351 170h106l-199 -1481h-153z" />
    <glyph glyph-name="two" unicode="2" horiz-adv-x="1136" 
d="M25 0l20 141l524 475q190 167 268.5 266.5t92.5 207.5q9 72 -10.5 127t-59.5 86t-87 46t-99 15q-239 0 -383 -209l-107 74q205 272 518 272q193 0 300.5 -109.5t80.5 -301.5q-18 -127 -98.5 -237.5t-279.5 -295.5l-461 -420h727l-19 -137h-927z" />
    <glyph glyph-name="three" unicode="3" horiz-adv-x="1226" 
d="M254 1290q82 97 214 154t265 57q209 0 326 -106.5t96 -268.5q-33 -236 -324 -338q146 -44 218 -143t51 -239q-25 -185 -189 -305.5t-405 -120.5q-297 0 -459 225l125 88q72 -96 158.5 -138t204.5 -42q170 0 277.5 79t125.5 207q15 97 -30.5 168.5t-124 105t-175.5 34.5
l-192 2l18 129l158 2q155 2 270.5 81.5t130.5 198.5q14 106 -63.5 178t-210.5 72q-112 0 -200.5 -43t-176.5 -131z" />
    <glyph glyph-name="four" unicode="4" horiz-adv-x="1224" 
d="M893 1481h151l-129 -946h224l-19 -132h-221l-55 -403h-146l54 403h-668l18 142zM238 535h528l98 747z" />
    <glyph glyph-name="five" unicode="5" horiz-adv-x="1273" 
d="M369 1481h839l-26 -135h-701l-110 -523q56 29 84 42.5t77.5 33t98 27.5t102.5 8q76 0 142.5 -16.5t122 -52t92 -87t51.5 -127t2 -166.5q-32 -235 -200 -370t-408 -135q-149 0 -272.5 58t-199.5 167l119 92q82 -97 156 -141.5t192 -44.5q187 0 308 101.5t143 266.5
q22 158 -61.5 241t-229.5 83q-65 0 -135 -21.5t-110 -42t-109 -59.5q-9 -5 -14 -6t-6.5 -0.5t-5.5 4.5t-7 6l-92 57z" />
    <glyph glyph-name="six" unicode="6" horiz-adv-x="1224" 
d="M805 1501q130 0 216.5 -58.5t131.5 -148.5l-135 -61q-40 66 -92.5 100.5t-134.5 34.5q-197 0 -330.5 -161t-163.5 -445q153 71 235.5 95t174.5 24q217 0 323 -121.5t80 -313.5q-29 -204 -186.5 -335t-364.5 -131q-250 0 -364.5 195.5t-65.5 545.5q47 363 227 571.5
t449 208.5zM672 754q-77 0 -178 -28t-170 -67q-25 -18 -35.5 -35.5t-14.5 -54.5q-11 -76 1 -154t46 -148t101 -114t158 -44q137 0 242 96.5t124 236.5q19 132 -56 222t-218 90z" />
    <glyph glyph-name="seven" unicode="7" horiz-adv-x="1132" 
d="M213 1481h981l-23 -156q-228 -279 -451.5 -686t-285.5 -639h-166q36 114 100 263.5t155.5 328.5t220.5 379t270 375h-821z" />
    <glyph glyph-name="eight" unicode="8" horiz-adv-x="1226" 
d="M741 1501q207 0 319 -112t87 -295q-8 -62 -36 -118t-59 -91t-71 -66.5t-60.5 -43.5t-39.5 -21q6 -3 22.5 -10.5t29 -13.5t33 -17t35 -22.5t34 -29t31.5 -35.5t26.5 -44t18.5 -53.5t8.5 -64t-3.5 -75.5q-26 -187 -186.5 -298t-399.5 -111q-238 0 -361 102.5t-97 284.5
q13 107 90.5 207.5t226.5 166.5q-21 9 -39 18.5t-51.5 38t-55 62t-34.5 91t-4 124.5q25 182 175.5 304t360.5 122zM725 1372q-136 0 -238.5 -80t-121.5 -202q-21 -191 174 -240l194 -47q36 -9 95 32t110.5 115t60.5 148q17 123 -57 198.5t-217 75.5zM557 109q163 0 270.5 75
t124.5 201q12 96 -30.5 155t-145.5 87l-250 63q-27 7 -73.5 -14t-94.5 -60.5t-87 -102t-48 -128.5q-19 -130 67.5 -203t266.5 -73z" />
    <glyph glyph-name="nine" unicode="9" horiz-adv-x="1216" 
d="M471 -20q-137 0 -226 58t-136 148l135 62q39 -66 97 -100.5t148 -34.5q205 0 334 181t160 544q-62 -117 -170.5 -177.5t-245.5 -60.5q-214 0 -319 121t-80 313q18 136 97 243.5t197 165.5t253 58q248 0 361.5 -195t66.5 -546q-51 -365 -229 -572.5t-443 -207.5zM602 727
q138 0 249.5 81.5t129.5 203.5q-7 178 -79 269t-204 91q-136 0 -242.5 -96t-125.5 -236q-19 -133 55.5 -223t216.5 -90z" />
    <glyph glyph-name="colon" unicode=":" horiz-adv-x="440" 
d="M373 1008l-29 -209h-184l28 209h185zM264 215l-24 -209h-185l25 209h184z" />
    <glyph glyph-name="semicolon" unicode=";" horiz-adv-x="485" 
d="M160 797l28 211h185l-29 -211h-184zM-18 -283l151 283h-72l29 209h184l-28 -193l-187 -299h-77z" />
    <glyph glyph-name="less" unicode="&#x3c;" horiz-adv-x="1077" 
d="M913 453l-18 -142l-758 326l21 147l846 332l-19 -153l-657 -252z" />
    <glyph glyph-name="equal" unicode="=" horiz-adv-x="1091" 
d="M1022 1001l-16 -120h-824l17 120h823zM961 555l-17 -121l-823 -2l18 121z" />
    <glyph glyph-name="greater" unicode="&#x3e;" horiz-adv-x="1079" 
d="M139 457l656 254l-588 256l20 145l758 -332l-18 -145l-848 -330z" />
    <glyph glyph-name="question" unicode="?" horiz-adv-x="1034" 
d="M156 1223q79 130 209.5 204t281.5 74q197 0 301 -101.5t84 -266.5q-10 -70 -40 -133t-72 -112t-90.5 -96t-97 -95t-90.5 -97.5t-72 -114t-40 -135.5h-131q11 80 41 151.5t70.5 126.5t87 106t93 98t85.5 93.5t67 103t36 116.5q15 107 -49 170t-185 63q-102 0 -205.5 -60.5
t-144.5 -146.5zM539 209l-31 -209h-184l30 209h185z" />
    <glyph glyph-name="at" unicode="@" horiz-adv-x="1619" 
d="M1212 -80q-211 -145 -464 -145q-171 0 -305 59.5t-214.5 162t-114 239.5t-12.5 292q21 160 96.5 304t188.5 252t266 171.5t320 63.5q102 0 195 -23.5t174 -75t136.5 -126t80 -183.5t6.5 -241q-29 -224 -151.5 -366t-280.5 -142q-78 0 -114.5 30t-47.5 99
q-63 -82 -135.5 -120t-167.5 -38q-112 0 -179 100.5t-47 260.5q27 191 147 322.5t279 131.5q152 0 213 -147l39 94h111l-137 -465q-26 -86 -14 -121t65 -35q105 0 190.5 113.5t110.5 286.5q15 112 -5 203.5t-65 152t-111.5 101.5t-140.5 59t-155 18q-151 0 -283.5 -55.5
t-227 -151.5t-156 -222t-81.5 -269q-18 -132 8.5 -245t93.5 -198.5t183 -134.5t270 -49q84 0 156 20.5t113.5 44.5t107.5 70zM573 485q-15 -110 16.5 -172.5t104.5 -62.5q98 0 187 86.5t123 208.5q36 135 -7.5 210.5t-124.5 75.5q-112 0 -196 -100t-103 -246z" />
    <glyph glyph-name="A" unicode="A" horiz-adv-x="1394" 
d="M20 0l719 1481h172l316 -1481h-152l-88 428h-606l-209 -428h-152zM440 571h525l-160 758z" />
    <glyph glyph-name="B" unicode="B" horiz-adv-x="1329" 
d="M137 0l201 1481h436q253 0 373.5 -98.5t95.5 -286.5q-18 -126 -91.5 -209.5t-225.5 -134.5q297 -59 258 -355q-55 -397 -596 -397h-451zM395 815h320q66 0 124.5 12t115 40t95 81.5t48.5 128.5q18 135 -73.5 204t-262.5 69h-295zM303 131h297q198 0 307 64.5t129 201.5
q10 75 -12 131.5t-70 89t-112.5 48.5t-145.5 16h-319z" />
    <glyph glyph-name="C" unicode="C" horiz-adv-x="1366" 
d="M848 1501q219 0 348 -124.5t123 -305.5l-154 -16q-5 141 -88 226t-241 85q-206 0 -337 -158t-175 -469q-40 -307 49.5 -465.5t306.5 -158.5q135 0 241 80.5t156 220.5l148 -25q-45 -178 -203.5 -294.5t-368.5 -116.5q-281 0 -409 201t-82 560q50 357 230 558.5t456 201.5
z" />
    <glyph glyph-name="D" unicode="D" horiz-adv-x="1370" 
d="M338 1481q2 0 52 -0.5t121 -1t124 -0.5q387 -6 539 -185.5t104 -545.5q-51 -377 -263 -562.5t-599 -185.5h-279zM473 1346l-162 -1211h119q304 0 476.5 142t215.5 466q15 99 10.5 179t-20 142.5t-49.5 109.5t-77 80t-103 53.5t-128 29.5t-151 9h-131z" />
    <glyph glyph-name="E" unicode="E" horiz-adv-x="1241" 
d="M137 0l201 1481h868l-18 -138h-721l-72 -528h656l-17 -135h-657l-72 -541l744 -2l-19 -137h-893z" />
    <glyph glyph-name="F" unicode="F" horiz-adv-x="1150" 
d="M338 1481h858l-20 -138h-705l-70 -530h641l-16 -135h-643l-92 -678h-154z" />
    <glyph glyph-name="G" unicode="G" horiz-adv-x="1456" 
d="M651 -20q-276 0 -405.5 200.5t-83.5 554.5q49 359 237 562.5t461 203.5q99 0 186.5 -35t147.5 -93t95 -135t34 -159l-162 -26q-8 135 -94.5 223t-224.5 88q-204 0 -343 -162t-180 -457q-42 -309 54.5 -468.5t302.5 -159.5q75 0 142.5 24t116.5 62.5t87.5 89t61 102
t32.5 103.5l23 147h-361l17 115l512 -2l-103 -758h-117l31 238q-78 -115 -195 -186.5t-272 -71.5z" />
    <glyph glyph-name="H" unicode="H" horiz-adv-x="1413" 
d="M1081 698h-702l-94 -698h-148l201 1481h145l-86 -645h705l86 645h147l-200 -1481h-146z" />
    <glyph glyph-name="I" unicode="I" horiz-adv-x="561" 
d="M338 1481h145l-198 -1481h-148z" />
    <glyph glyph-name="J" unicode="J" horiz-adv-x="755" 
d="M528 326q-23 -174 -97 -260t-232 -86q-113 0 -219 51l38 147q4 -2 21.5 -12t28.5 -15t30 -12t40.5 -10.5t45.5 -3.5q96 0 141 55.5t64 190.5l150 1110h145z" />
    <glyph glyph-name="K" unicode="K" horiz-adv-x="1335" 
d="M1190 0h-172l-359 782l-303 -307l-65 -475h-154l201 1481h151l-106 -799l784 799h185l-570 -584z" />
    <glyph glyph-name="L" unicode="L" horiz-adv-x="1120" 
d="M338 1481h151l-178 -1340h688l-18 -141h-844z" />
    <glyph glyph-name="M" unicode="M" horiz-adv-x="1740" 
d="M137 0l201 1481h197l288 -1284l645 1284h195l-201 -1481h-151l164 1221l-601 -1221h-153l-268 1206l-162 -1206h-154z" />
    <glyph glyph-name="N" unicode="N" horiz-adv-x="1486" 
d="M1262 1481h145l-199 -1481h-129l-630 1221l-164 -1221h-148l201 1481h137l623 -1213z" />
    <glyph glyph-name="O" unicode="O" horiz-adv-x="1472" 
d="M662 -20q-283 0 -416 196.5t-84 556.5q49 366 236.5 567t469.5 201q281 0 415 -200.5t85 -563.5q-51 -362 -237 -559.5t-469 -197.5zM684 115q215 0 348 153.5t174 466.5q42 317 -49.5 474t-304.5 157q-214 0 -349 -157.5t-179 -473.5q-41 -312 52.5 -466t307.5 -154z
" />
    <glyph glyph-name="P" unicode="P" horiz-adv-x="1261" 
d="M137 0l201 1481h467q238 0 365 -107t98 -325q-19 -143 -97 -241t-195 -144t-267 -46h-334l-84 -618h-154zM391 752h334q165 0 270 76.5t125 230.5q22 154 -64 221.5t-261 67.5h-324z" />
    <glyph glyph-name="Q" unicode="Q" horiz-adv-x="1443" 
d="M135 737q49 366 235.5 565t469.5 199t416.5 -199.5t84.5 -564.5q-35 -243 -128 -409.5t-257 -261.5q54 -171 256 -181l-18 -131q-280 0 -387 246q-90 -20 -172 -20q-282 0 -416 195.5t-84 561.5zM295 733q-77 -618 360 -618q214 0 348.5 153.5t176.5 468.5
q41 312 -50.5 470.5t-306.5 158.5t-349.5 -159.5t-178.5 -473.5z" />
    <glyph glyph-name="R" unicode="R" horiz-adv-x="1339" 
d="M1124 0h-155l-181 662h-413l-90 -662h-148l201 1481h534q222 0 324 -101.5t76 -289.5q-11 -87 -45 -157.5t-83.5 -117t-100.5 -76.5t-109 -49zM717 793q364 0 403 284q18 137 -53.5 205t-224.5 68h-375l-74 -557h324z" />
    <glyph glyph-name="S" unicode="S" horiz-adv-x="1300" 
d="M580 -20q-359 0 -488 276l127 82q46 -79 89.5 -123t113 -69t170.5 -25q106 0 185 23.5t133 80.5t65 146q12 83 -27.5 145t-159.5 111l-280 108q-144 56 -201 148.5t-41 208.5q25 187 171 298t362 111q288 0 432 -221l-123 -88q-111 172 -330 172q-147 0 -242 -67.5
t-112 -188.5q-19 -167 182 -244l264 -94q160 -60 223 -155t42 -230q-25 -190 -173.5 -297.5t-381.5 -107.5z" />
    <glyph glyph-name="T" unicode="T" 
d="M145 1337l21 144h1055l-19 -144h-438l-180 -1337h-148l180 1337h-471z" />
    <glyph glyph-name="U" unicode="U" horiz-adv-x="1415" 
d="M1212 492q-69 -512 -573 -512q-261 0 -363.5 133t-66.5 403l129 965h154l-134 -996q-26 -185 50 -278.5t249 -93.5q355 0 410 372l131 996h148z" />
    <glyph glyph-name="V" unicode="V" horiz-adv-x="1245" 
d="M1352 1481l-709 -1481h-182l-299 1481h149l267 -1313l628 1313h146z" />
    <glyph glyph-name="W" unicode="W" horiz-adv-x="1873" 
d="M1954 1481l-611 -1481h-149l-164 1212l-493 -1212h-144l-207 1481h150l166 -1252l506 1252h120l170 -1252l506 1252h150z" />
    <glyph glyph-name="X" unicode="X" horiz-adv-x="1265" 
d="M1139 0h-187l-315 633l-487 -633h-170l585 756l-366 725h186l293 -594l455 594h167l-552 -711z" />
    <glyph glyph-name="Y" unicode="Y" horiz-adv-x="1142" 
d="M1257 1481l-591 -848l-86 -633h-146l86 635l-368 846h155l303 -713l488 713h159z" />
    <glyph glyph-name="Z" unicode="Z" horiz-adv-x="1218" 
d="M37 0l12 90l965 1256h-768l18 135h973l-10 -86l-977 -1260h803l-19 -135h-997z" />
    <glyph glyph-name="bracketleft" unicode="[" horiz-adv-x="591" 
d="M90 -330l242 1811h336l-13 -105h-202l-220 -1601h203l-12 -105h-334z" />
    <glyph glyph-name="backslash" unicode="\" horiz-adv-x="675" 
d="M438 -92l-280 1573h116l281 -1573h-117z" />
    <glyph glyph-name="bracketright" unicode="]" horiz-adv-x="622" 
d="M-70 -330l13 105h204l220 1601h-205l14 105h332l-240 -1811h-338z" />
    <glyph glyph-name="asciicircum" unicode="^" horiz-adv-x="940" 
d="M672 266l-154 623l-319 -621h-133l391 742q23 45 53 61t55.5 -2.5t36.5 -67.5l193 -735h-123z" />
    <glyph glyph-name="underscore" unicode="_" horiz-adv-x="1015" 
d="M788 -102l-16 -125h-743l14 123z" />
    <glyph glyph-name="grave" unicode="`" horiz-adv-x="561" 
d="M195 1501l450 -205l-43 -75l-465 157z" />
    <glyph glyph-name="a" unicode="a" 
d="M369 -20q-151 0 -230 80.5t-59 220.5q23 173 145.5 251t388.5 97l201 16l10 80q15 110 -43 176t-170 66q-181 0 -319 -181l-115 37q76 116 193.5 185t263.5 69q184 0 270 -90t64 -250l-99 -737h-127l13 164q-163 -184 -387 -184zM424 94q115 0 226.5 78.5t123.5 173.5
l27 201l-168 -12q-209 -18 -300 -68.5t-108 -173.5q-15 -92 41 -145.5t158 -53.5z" />
    <glyph glyph-name="b" unicode="b" horiz-adv-x="1167" 
d="M555 -20q-67 0 -122.5 20.5t-90.5 52t-55 59.5t-31 54l-39 -166h-117l205 1520h148l-82 -605q19 22 47 45t73.5 52t108.5 47t131 18q103 0 177.5 -42.5t112 -116t51 -173t-4.5 -213.5q-34 -256 -170 -404t-342 -148zM543 94q67 0 126 26.5t109.5 78.5t86 138t50.5 198
q28 203 -35.5 314.5t-209.5 111.5q-94 0 -178 -50t-142 -137l-51 -391q-17 -120 58.5 -204.5t185.5 -84.5z" />
    <glyph glyph-name="c" unicode="c" horiz-adv-x="1095" 
d="M647 1077q261 0 350 -266l-131 -43q-59 109 -103.5 152t-123.5 43q-149 0 -252.5 -120t-128.5 -315q-28 -196 43 -315t221 -119q90 0 156.5 50.5t138.5 156.5l117 -45q-75 -131 -185.5 -203.5t-252.5 -72.5q-208 0 -313.5 150t-71.5 394q32 246 179.5 399.5t356.5 153.5z
" />
    <glyph glyph-name="d" unicode="d" horiz-adv-x="1140" 
d="M453 -20q-194 0 -287 138t-57 396q34 258 167.5 410.5t335.5 152.5q88 0 155.5 -33t125.5 -106l80 582h147l-205 -1520h-116l8 162q-22 -27 -48.5 -52t-71.5 -57.5t-106 -52.5t-128 -20zM502 94q116 0 209.5 87.5t107.5 191.5l55 418q-83 170 -247 170
q-145 0 -242.5 -113.5t-124.5 -325.5q-29 -214 39 -321t203 -107z" />
    <glyph glyph-name="e" unicode="e" horiz-adv-x="1126" 
d="M254 485q-23 -169 47 -279t227 -110q100 0 170.5 44t124.5 128l119 -39q-70 -123 -181.5 -186t-246.5 -63q-214 0 -327 144t-78 394q34 257 177 408t357 151q206 0 303.5 -140t63.5 -382l-13 -70h-743zM272 604h600q23 162 -39.5 261.5t-207.5 99.5q-78 0 -142.5 -31
t-107 -83t-68.5 -115t-35 -132z" />
    <glyph glyph-name="f" unicode="f" horiz-adv-x="784" 
d="M778 1057l-16 -113h-256l-127 -944h-148l127 944h-225l17 113h225l22 170q36 254 271 254h178l-17 -111h-153q-65 0 -95 -36t-38 -111l-25 -166h260z" />
    <glyph glyph-name="g" unicode="g" horiz-adv-x="1196" 
d="M446 -350q-236 0 -353.5 76t-98.5 208q21 140 209 230q26 13 4 22q-79 42 -70 115q8 49 56.5 88t132.5 60q-91 53 -125.5 122.5t-20.5 167.5q20 156 148.5 245t324.5 89q176 0 271 -86q9 -9 45 4q63 29 227 94l-22 -153q-27 -5 -140 -25q-33 -7 -39.5 -14.5t0.5 -26.5
q0 -2 3 -14t5 -22t4 -25t1.5 -32t-2.5 -34q-20 -143 -137.5 -236t-319.5 -93q-6 0 -23 1t-24 1q-207 -5 -219 -82q-3 -31 36.5 -43.5t153.5 -20.5q23 -2 55.5 -4t81.5 -5t84 -5q159 -10 229 -84t54 -197q-20 -151 -159.5 -236t-371.5 -85zM567 514q131 0 206.5 57.5
t90.5 165.5q17 111 -44 173.5t-191 62.5q-127 0 -207.5 -63.5t-95.5 -172.5q-14 -106 49 -164.5t192 -58.5zM487 -244q319 0 342 197q9 75 -32 116.5t-144 47.5l-297 20q-59 5 -130.5 -51.5t-82.5 -134.5q-13 -96 75.5 -145.5t268.5 -49.5z" />
    <glyph glyph-name="h" unicode="h" horiz-adv-x="1148" 
d="M100 0l205 1520h141l-86 -631q121 99 211.5 143.5t188.5 44.5q151 0 219 -80.5t49 -220.5l-104 -776h-148l101 741q15 102 -29 158.5t-148 56.5q-84 0 -157.5 -37t-190.5 -128l-104 -791h-148z" />
    <glyph glyph-name="i" unicode="i" horiz-adv-x="514" 
d="M479 1520l-35 -226h-159l30 226h164zM406 1057l-142 -1057h-147l145 1057h144z" />
    <glyph glyph-name="j" unicode="j" horiz-adv-x="501" 
d="M471 1520l-31 -226h-161l30 226h162zM250 -68q-19 -143 -85.5 -207.5t-211.5 -64.5q-49 0 -80 6t-37 12l-6 5l14 98l107 4q74 5 108 40t43 116l152 1116h145z" />
    <glyph glyph-name="k" unicode="k" horiz-adv-x="1114" 
d="M965 0h-158l-258 563l-260 -246l-41 -317h-148l205 1520h148l-138 -1012l582 549h178l-416 -395z" />
    <glyph glyph-name="l" unicode="l" horiz-adv-x="604" 
d="M336 -4q-69 0 -114 22t-64 59.5t-25 88t4 106.5l168 1248h146l-166 -1237q-13 -85 13 -127.5t77 -44.5l59 -2l-16 -99q-51 -14 -82 -14z" />
    <glyph glyph-name="m" unicode="m" horiz-adv-x="1763" 
d="M98 0l142 1057h141l-23 -168q109 100 199 144t186 44q110 0 174 -52.5t76 -143.5q139 117 223.5 156.5t176.5 39.5q136 0 201.5 -81t47.5 -220l-104 -776h-147l102 739q12 103 -30 160t-138 57q-144 0 -301 -145q-29 -32 -33 -59l-100 -752h-146l99 739q14 103 -28 160
t-138 57q-81 0 -154 -38.5t-174 -126.5l-104 -791h-148z" />
    <glyph glyph-name="n" unicode="n" horiz-adv-x="1146" 
d="M98 0l142 1057h141l-23 -168q122 100 210.5 144t189.5 44q148 0 217.5 -81.5t50.5 -217.5l-104 -778h-148l100 741q14 102 -31 158.5t-149 56.5q-85 0 -161.5 -38t-182.5 -125l-104 -793h-148z" />
    <glyph glyph-name="o" unicode="o" 
d="M483 -20q-213 0 -315 148.5t-68 393.5q33 248 179 401.5t358 153.5q211 0 312.5 -152.5t68.5 -398.5q-31 -246 -175.5 -396t-359.5 -150zM506 92q149 0 243.5 121t118.5 315q27 194 -36 315.5t-214 121.5q-101 0 -180 -58.5t-125 -155.5t-63 -223q-17 -125 3.5 -221.5
t85 -155.5t167.5 -59z" />
    <glyph glyph-name="p" unicode="p" horiz-adv-x="1161" 
d="M53 -330l187 1387h143l-21 -154q26 29 49 50.5t68 54t105.5 51t128.5 18.5q188 0 287.5 -137.5t62.5 -394.5q-35 -263 -176 -414t-344 -151q-179 0 -285 135l-57 -445h-148zM524 94q147 0 253.5 118t135.5 329q13 112 0 191.5t-52.5 130.5t-91.5 74.5t-116 23.5
q-121 0 -211 -81t-106 -186l-55 -426q89 -174 243 -174z" />
    <glyph glyph-name="q" unicode="q" horiz-adv-x="1161" 
d="M889 -330h-148l60 436q-86 -69 -161 -97.5t-161 -28.5q-203 0 -302.5 151t-63.5 414q18 130 64 232.5t112 167.5t147 98.5t172 33.5q64 0 116.5 -16.5t86 -43.5t54.5 -50.5t39 -48.5q5 -8 7 -11l19 150h145zM530 94q156 0 291 174l60 426q13 104 -56.5 185.5t-189.5 81.5
q-137 0 -240.5 -104.5t-132.5 -315.5t46 -329t222 -118z" />
    <glyph glyph-name="r" unicode="r" horiz-adv-x="757" 
d="M98 0l142 1057h139l-29 -211q66 98 183.5 164.5t224.5 66.5l-19 -145q-143 7 -268 -81.5t-139 -193.5l-86 -657h-148z" />
    <glyph glyph-name="s" unicode="s" horiz-adv-x="1060" 
d="M457 -20q-151 0 -259.5 66.5t-142.5 174.5l111 60q36 -86 115 -135.5t192 -49.5q99 0 192 53.5t103 122.5q8 60 -31.5 102t-140.5 75l-180 55q-136 41 -192 105t-42 155q17 140 137.5 226.5t292.5 86.5q132 0 225.5 -54t137.5 -149l-109 -59q-35 69 -105 108.5t-169 39.5
q-102 0 -181.5 -53t-88.5 -124q-8 -49 23.5 -85.5t131.5 -69.5l228 -78q228 -72 204 -266q-20 -135 -148 -221t-304 -86z" />
    <glyph glyph-name="t" unicode="t" horiz-adv-x="825" 
d="M756 944h-246l-90 -682q-11 -90 9.5 -121.5t74.5 -31.5h149l-14 -97q-43 -16 -156 -16q-138 0 -184.5 60t-28.5 194l95 694h-195l16 113h197l61 354h129l-47 -354h246z" />
    <glyph glyph-name="u" unicode="u" horiz-adv-x="1146" 
d="M414 -18q-147 1 -221.5 84t-57.5 219l105 776h147l-100 -742q-15 -105 29 -163t149 -58q87 0 158.5 38t185.5 130l106 795h148l-143 -1059h-119l10 164q-121 -98 -211.5 -141.5t-185.5 -42.5z" />
    <glyph glyph-name="v" unicode="v" horiz-adv-x="1073" 
d="M1083 1057l-551 -1057h-126l-271 1057h152l217 -867l444 867h135z" />
    <glyph glyph-name="w" unicode="w" horiz-adv-x="1572" 
d="M1569 1057l-451 -1057h-145l-142 831l-352 -831h-149l-178 1057h145l139 -869l369 869h119l147 -867l363 867h135z" />
    <glyph glyph-name="x" unicode="x" horiz-adv-x="1099" 
d="M952 0h-164l-253 440l-371 -440h-164l465 549l-293 508h164l229 -398l336 398h164l-432 -508z" />
    <glyph glyph-name="y" unicode="y" horiz-adv-x="1052" 
d="M137 -338q-51 0 -87.5 6t-47.5 12l-10 5l14 98l109 -2q94 -1 143 32.5t78 90.5l57 114l-258 1039h150l202 -862l435 862h141l-590 -1163q-68 -126 -149.5 -179t-186.5 -53z" />
    <glyph glyph-name="z" unicode="z" horiz-adv-x="964" 
d="M16 0l15 102l717 848h-562l15 107h733l-12 -105l-717 -843h614l-14 -109h-789z" />
    <glyph glyph-name="braceleft" unicode="{" horiz-adv-x="612" 
d="M369 -330q-113 0 -172 57.5t-47 149.5l61 453q12 80 -37.5 139t-157.5 59l13 101q110 1 174.5 60t77.5 153l61 442q10 92 80.5 144.5t179.5 52.5h86l-14 -105h-60q-70 0 -103.5 -27.5t-39.5 -82.5l-59 -447q-16 -110 -76 -168.5t-139 -66.5q-16 0 -19 -8q-1 -3 4 -5h2
q81 -7 128.5 -66t33.5 -175l-76 -555h189l-17 -105h-73z" />
    <glyph glyph-name="bar" unicode="|" horiz-adv-x="538" 
d="M213 -330h-119l273 2020h120z" />
    <glyph glyph-name="braceright" unicode="}" horiz-adv-x="634" 
d="M-68 -330l13 105h61q69 0 102.5 27.5t41.5 82.5l59 447q16 110 76 168.5t139 66.5q17 2 19 10q-1 2 -5 3q-82 7 -130 66t-34 175l76 555h-188l16 105h74q113 0 171.5 -57t47.5 -150l-63 -453q-10 -79 38.5 -137.5t155.5 -58.5l-12 -103q-109 -1 -173 -60t-77 -153
l-59 -442q-13 -92 -84 -144.5t-179 -52.5h-86z" />
    <glyph glyph-name="asciitilde" unicode="~" horiz-adv-x="1107" 
d="M1010 750q-37 -46 -101 -76.5t-145 -30.5q-53 0 -102.5 15.5t-81.5 33.5t-76.5 33.5t-87.5 15.5q-121 0 -223 -110l-41 108q50 38 80 57.5t80 37.5t102 18q63 0 123.5 -25t117 -50t109.5 -25q119 0 207 108z" />
    <glyph glyph-name="uni00A0" unicode="&#xa0;" horiz-adv-x="428" 
 />
    <glyph glyph-name="exclamdown" unicode="&#xa1;" horiz-adv-x="497" 
d="M385 848h-184l28 209h185zM223 -330h-178l178 1041h99z" />
    <glyph glyph-name="cent" unicode="&#xa2;" horiz-adv-x="1077" 
d="M563 322q90 0 156.5 50.5t138.5 155.5l117 -45q-120 -209 -316 -260l-30 -223h-113l29 207h-8q-208 0 -313.5 150.5t-71.5 394.5q32 246 179.5 399.5t356.5 153.5h2l25 176h114l-26 -193q165 -46 235 -250l-131 -43q-59 109 -104 152t-125 43q-148 0 -251.5 -119.5
t-129.5 -314.5q-26 -197 45 -315.5t221 -118.5z" />
    <glyph glyph-name="sterling" unicode="&#xa3;" horiz-adv-x="1196" 
d="M-45 0l18 131h74q78 0 140 78.5t83 222.5q15 75 15 277h-197l14 104h179l-11 168q-8 108 13 196.5t63.5 148t103.5 99.5t129.5 58t145.5 18q131 0 226.5 -59t123.5 -170l-125 -47q-49 141 -215 141q-114 0 -198 -70t-97 -188q-5 -33 -5.5 -76t1 -66t7 -81.5t6.5 -69.5
h327l-18 -104l-309 -2q0 -157 -13 -246q-13 -112 -48 -189.5t-93 -140.5h342q103 0 173 40t112 128l131 -41q-126 -260 -418 -260h-680z" />
    <glyph glyph-name="currency" unicode="&#xa4;" horiz-adv-x="1050" 
d="M508 373q-118 0 -191 67q-18 6 -28 -10l-113 -104l-72 88l132 118q-61 97 -41 220q19 116 84 204q17 14 8 23l-92 108l81 74l95 -114q112 67 225 67q109 0 186 -67q16 -5 31 10l113 104l73 -88l-133 -119q59 -96 41 -219q-15 -110 -84 -200q-17 -12 -6 -23l92 -109
l-82 -73l-94 114q-110 -71 -225 -71zM516 496q101 0 183 76.5t96 179.5q12 98 -45 169.5t-154 71.5q-104 0 -186.5 -77t-96.5 -181q-12 -97 46 -168t157 -71z" />
    <glyph glyph-name="yen" unicode="&#xa5;" horiz-adv-x="1173" 
d="M1290 1481l-567 -797h278l-14 -102h-301l-27 -189h302l-15 -104h-301l-39 -289h-168l39 289h-303l14 102h304l26 189h-303l12 104h273l-350 797h184l295 -709l495 709h166z" />
    <glyph glyph-name="brokenbar" unicode="&#xa6;" horiz-adv-x="538" 
d="M375 877h-117l109 813h120zM213 -330h-119l111 815h121z" />
    <glyph glyph-name="section" unicode="&#xa7;" horiz-adv-x="950" 
d="M657 399q84 -56 122.5 -119t27.5 -147q-15 -121 -127 -198.5t-279 -77.5q-135 0 -240.5 67t-142.5 174l95 49q39 -81 115 -129.5t180 -48.5q103 0 175.5 45.5t82.5 120.5q8 57 -29.5 105t-144.5 92l-164 69q-122 54 -172 127t-35 172q10 87 74 155.5t159 107.5
q-102 58 -135.5 123t-21.5 147q15 116 122.5 192t264.5 76q122 0 213 -60.5t131 -150.5l-90 -49q-96 148 -246 148q-108 0 -177 -43.5t-77 -114.5q-5 -50 24 -92t115 -82l158 -70q140 -62 196.5 -143t42.5 -189q-14 -92 -70.5 -152.5t-146.5 -103.5zM520 469q72 -6 137.5 45
t77.5 123q10 71 -14.5 120.5t-116.5 90.5l-115 49q-84 -8 -153.5 -63t-79.5 -125q-8 -60 18.5 -101t118.5 -82z" />
    <glyph glyph-name="dieresis" unicode="&#xa8;" horiz-adv-x="473" 
d="M307 1481l-28 -215h-150l31 215h147zM575 1481l-26 -215h-150l29 215h147z" />
    <glyph glyph-name="copyright" unicode="&#xa9;" horiz-adv-x="1611" 
d="M735 -20q-120 0 -227.5 38.5t-188 109.5t-136 165.5t-76 211.5t-3.5 243q27 205 147 378t300.5 274t378.5 101q119 0 225.5 -39t187.5 -110t136.5 -165.5t77.5 -212t6 -241.5q-28 -206 -149 -379.5t-301.5 -273.5t-377.5 -100zM739 92q169 0 321 80t257 231.5t131 344.5
q19 141 -13.5 262.5t-104 204t-176 129.5t-226.5 47q-172 0 -325 -82t-257 -233.5t-129 -342.5q-19 -143 12 -264.5t102 -203.5t176.5 -127.5t231.5 -45.5zM889 1176q203 0 291 -220l-109 -32q-62 147 -176 147q-112 0 -194.5 -91t-102.5 -241q-19 -146 37 -232.5t164 -86.5
q72 0 135 44t110 118l93 -43q-63 -97 -153 -159.5t-198 -62.5q-166 0 -255.5 121t-63.5 314q25 187 144 305.5t278 118.5z" />
    <glyph glyph-name="ordfeminine" unicode="&#xaa;" horiz-adv-x="827" 
d="M375 811q-102 0 -154 51t-41 139q27 186 340 213l123 11l8 51q18 135 -131 135q-58 0 -100.5 -23.5t-81.5 -78.5l-98 34q91 154 288 154q126 -1 183 -61.5t43 -167.5l-62 -447h-90l-2 84q-59 -50 -111.5 -72t-113.5 -22zM408 893q65 0 134.5 51t75.5 103l15 102l-92 -8
q-235 -21 -250 -150q-6 -45 25 -71.5t92 -26.5z" />
    <glyph glyph-name="guillemotleft" unicode="&#xab;" horiz-adv-x="870" 
d="M213 504l158 -357h-76l-221 371l313 379h96zM553 504l156 -357h-78l-219 371l315 379h94z" />
    <glyph glyph-name="logicalnot" unicode="&#xac;" horiz-adv-x="1089" 
d="M991 805l-4 -33l-51 -377h-125l37 289l-694 -2l18 121z" />
    <glyph glyph-name="uni00AD" unicode="&#xad;" horiz-adv-x="735" 
d="M641 592l-18 -123l-488 -2l17 123z" />
    <glyph glyph-name="registered" unicode="&#xae;" horiz-adv-x="1062" 
d="M537 549q-127 0 -224 63.5t-143 172.5t-29 239q18 129 94 239t189.5 174t237.5 64q125 0 222 -64t143.5 -174t29.5 -239q-28 -198 -180 -336.5t-340 -138.5zM547 635q164 0 280.5 106t141.5 283q25 176 -64.5 283.5t-253.5 107.5q-166 0 -282.5 -107.5t-139.5 -283.5
q-25 -177 63 -283t255 -106zM395 784l62 473h202q73 0 109 -31t29 -89q-11 -87 -115 -125l57 -228h-82l-47 222h-110l-31 -222h-74zM510 1069h113q86 0 94 61q3 30 -14.5 47t-67.5 17h-113z" />
    <glyph glyph-name="macron" unicode="&#xaf;" horiz-adv-x="610" 
d="M709 1448l-17 -113h-553l15 113h555z" />
    <glyph glyph-name="degree" unicode="&#xb0;" horiz-adv-x="917" 
d="M879 1391q-17 -134 -113 -220t-223 -86q-134 0 -208.5 90.5t-55.5 231.5q19 135 112.5 220t222.5 85q133 0 208.5 -90.5t56.5 -230.5zM768 1405q12 89 -30.5 144t-127.5 55q-90 0 -153 -60.5t-74 -154.5q-11 -90 32 -145.5t128 -55.5q89 0 151 60.5t74 156.5z" />
    <glyph glyph-name="plusminus" unicode="&#xb1;" horiz-adv-x="1091" 
d="M659 954h355l-19 -118h-352l-49 -367h-117l49 365h-352l16 120h353l49 367h117zM82 137l16 119l820 2l-15 -121h-821z" />
    <glyph glyph-name="uni00B2" unicode="&#xb2;" horiz-adv-x="753" 
d="M78 786l12 88l330 300q118 103 167.5 167t59.5 132q10 86 -40.5 129t-121.5 43q-149 0 -241 -132l-66 48q129 170 326 170q122 0 188.5 -69t48.5 -189q-10 -81 -61 -151t-176 -185l-289 -265h457l-13 -86h-581z" />
    <glyph glyph-name="uni00B3" unicode="&#xb3;" horiz-adv-x="768" 
d="M242 1597q52 61 135 97.5t166 36.5q132 0 205 -66.5t61 -169.5q-20 -149 -203 -213q90 -27 135 -89.5t33 -150.5q-15 -117 -119 -192.5t-256 -75.5q-183 0 -286 141l77 56q44 -61 99 -87t129 -26q107 0 175 49.5t79 130.5q13 90 -50 141.5t-159 51.5h-119l10 82l101 2
q96 0 169.5 51t82.5 125q9 67 -39.5 112.5t-132.5 45.5q-70 0 -126 -27.5t-112 -81.5z" />
    <glyph glyph-name="acute" unicode="&#xb4;" horiz-adv-x="555" 
d="M627 1505l26 -127l-503 -157l-21 84z" />
    <glyph glyph-name="uni00B5" unicode="&#xb5;" horiz-adv-x="1140" 
d="M51 -330l189 1387h147l-104 -768q-10 -78 41 -133.5t131 -55.5q85 0 167.5 48t180.5 139l106 770h150l-146 -1057h-141l23 162q-115 -94 -192 -134t-157 -44q-133 -3 -194 63l-53 -377h-148z" />
    <glyph glyph-name="paragraph" unicode="&#xb6;" horiz-adv-x="1083" 
d="M1053 1384h-117l-213 -1554h-100l208 1554h-90l-213 -1554h-102l106 780q-126 2 -214.5 61t-125 155t-20.5 212q12 86 51 164.5t101 141t154 100t200 37.5h387z" />
    <glyph glyph-name="periodcentered" unicode="&#xb7;" horiz-adv-x="401" 
d="M342 846l-27 -201h-202l26 201h203z" />
    <glyph glyph-name="cedilla" unicode="&#xb8;" horiz-adv-x="432" 
d="M291 -270q-10 -69 -72.5 -107.5t-148.5 -38.5q-104 0 -172 62l32 53q48 -41 121 -41q56 0 89.5 23t39.5 63q6 44 -26.5 63t-110.5 21q-11 0 -15 5t-1 11l92 166h86l-62 -125q88 -6 121.5 -49.5t26.5 -105.5z" />
    <glyph glyph-name="uni00B9" unicode="&#xb9;" horiz-adv-x="595" 
d="M217 778l111 817l-187 -67l11 76l221 106h65l-125 -932h-96z" />
    <glyph glyph-name="ordmasculine" unicode="&#xba;" horiz-adv-x="811" 
d="M530 1499q143 0 214.5 -98t52.5 -258q-22 -148 -114 -239t-232 -91q-142 0 -213 96.5t-50 249.5q22 153 115.5 246.5t226.5 93.5zM530 1411q-92 0 -152 -70.5t-75 -191.5q-15 -119 22 -184.5t126 -65.5q94 0 153.5 70.5t77.5 195.5q14 115 -24.5 180.5t-127.5 65.5z" />
    <glyph glyph-name="guillemotright" unicode="&#xbb;" horiz-adv-x="872" 
d="M311 520l-159 377h81l218 -393l-312 -357h-92zM647 520l-158 377h80l222 -393l-312 -357h-94z" />
    <glyph glyph-name="onequarter" unicode="&#xbc;" horiz-adv-x="1884" 
d="M188 565l111 817l-186 -67l10 76l221 106h66l-125 -932h-97zM1475 1497l-1162 -1505h-116l1163 1505h115zM1593 932h97l-82 -596h139l-10 -82h-140l-34 -254h-93l35 254h-422l13 88zM1182 336h331l62 471z" />
    <glyph glyph-name="onehalf" unicode="&#xbd;" horiz-adv-x="1826" 
d="M188 565l111 817l-186 -67l10 76l221 106h66l-125 -932h-97zM1475 1497l-1162 -1505h-116l1163 1505h115zM1040 0l13 88l327 299q120 105 169.5 168t58.5 131q11 86 -39 129t-123 43q-149 0 -240 -131l-65 47q129 170 323 170q122 0 190 -69t50 -189
q-10 -80 -61.5 -150.5t-176.5 -185.5l-288 -264h456l-12 -86h-582z" />
    <glyph glyph-name="threequarters" unicode="&#xbe;" horiz-adv-x="2076" 
d="M211 1382q52 61 135 97.5t166 36.5q132 0 205 -66.5t61 -169.5q-20 -149 -203 -213q90 -27 135 -89.5t33 -150.5q-15 -117 -118.5 -192.5t-255.5 -75.5q-184 0 -287 141l78 56q45 -61 99 -87t128 -26q107 0 175 49.5t79 130.5q13 90 -50 141.5t-159 51.5h-119l11 82
l100 2q96 0 169.5 51t82.5 125q9 67 -39.5 112.5t-132.5 45.5q-70 0 -126 -27.5t-112 -81.5zM1665 1497l-1161 -1505h-115l1163 1505h113zM1786 932h94l-80 -596h139l-12 -82h-137l-35 -254h-92l35 254h-422l12 88zM1372 336h334l61 471z" />
    <glyph glyph-name="questiondown" unicode="&#xbf;" horiz-adv-x="1013" 
d="M473 848l29 209h184l-31 -209h-182zM866 -72q-78 -130 -209 -204t-284 -74q-198 0 -301 101.5t-82 266.5q9 66 38.5 122.5t70.5 97t88.5 78.5t95 77.5t88.5 82.5t70.5 103t39.5 132h129q-10 -80 -40 -147.5t-69 -115t-85 -89.5t-91 -80t-83.5 -76.5t-66 -88.5t-34.5 -108
q-12 -105 52.5 -168t183.5 -63q103 0 206.5 60.5t143.5 144.5z" />
    <glyph glyph-name="Agrave" unicode="&#xc0;" horiz-adv-x="1394" 
d="M649 1925l451 -205l-43 -75l-465 157zM20 0l719 1481h172l316 -1481h-152l-88 428h-606l-209 -428h-152zM440 571h525l-160 758z" />
    <glyph glyph-name="Aacute" unicode="&#xc1;" horiz-adv-x="1394" 
d="M1106 1929l27 -127l-504 -157l-21 84zM20 0l719 1481h172l316 -1481h-152l-88 428h-606l-209 -428h-152zM440 571h525l-160 758z" />
    <glyph glyph-name="Acircumflex" unicode="&#xc2;" horiz-adv-x="1394" 
d="M999 1688l-120 133l-170 -133h-154l270 221h107l211 -221h-144zM20 0l719 1481h172l316 -1481h-152l-88 428h-606l-209 -428h-152zM440 571h525l-160 758z" />
    <glyph glyph-name="Atilde" unicode="&#xc3;" horiz-adv-x="1394" 
d="M1159 1782q-80 -43 -164 -43q-55 0 -123 24.5t-106 24.5q-32 0 -56.5 -9t-48 -24t-36.5 -20l-27 96q80 57 158 57q50 0 126 -26.5t115 -26.5q28 0 52 9t49 23t41 19zM20 0l719 1481h172l316 -1481h-152l-88 428h-606l-209 -428h-152zM440 571h525l-160 758z" />
    <glyph glyph-name="Adieresis" unicode="&#xc4;" horiz-adv-x="1394" 
d="M827 1905l-28 -215h-150l31 215h147zM1096 1905l-27 -215h-149l28 215h148zM20 0l719 1481h172l316 -1481h-152l-88 428h-606l-209 -428h-152zM440 571h525l-160 758z" />
    <glyph glyph-name="Aring" unicode="&#xc5;" horiz-adv-x="1394" 
d="M1075 1808q-12 -86 -74.5 -141t-146.5 -55q-86 0 -136 62.5t-38 154.5q9 79 73.5 134.5t143.5 55.5q86 0 137.5 -61t40.5 -150zM981 1823q7 47 -17 75.5t-69 28.5q-46 0 -85 -34.5t-46 -86.5q-4 -41 22.5 -72.5t65.5 -31.5q48 0 85.5 36t43.5 85zM20 0l719 1481h172
l316 -1481h-152l-88 428h-606l-209 -428h-152zM440 571h525l-160 758z" />
    <glyph glyph-name="AE" unicode="&#xc6;" horiz-adv-x="1988" 
d="M1794 133l-16 -133h-875l62 434h-490l-293 -434h-162l1000 1481h932l-21 -133h-680l-69 -535h520l-21 -133h-518l-69 -547h700zM983 571l104 783l-532 -783h428z" />
    <glyph glyph-name="Ccedilla" unicode="&#xc7;" horiz-adv-x="1366" 
d="M836 1366q-206 0 -337 -158t-175 -469q-40 -307 49.5 -465.5t306.5 -158.5q135 0 241 80.5t156 220.5l148 -25q-43 -170 -191 -285.5t-346 -125.5l-45 -95q87 -6 120.5 -49.5t24.5 -105.5q-10 -69 -72 -107.5t-149 -38.5q-104 0 -172 62l33 53q48 -41 121 -41
q56 0 89.5 23t39.5 63q6 44 -26 63t-111 21q-11 0 -15 4.5t-2 11.5l76 138q-254 20 -368 219t-70 540q50 357 230 558.5t456 201.5q219 0 348 -124.5t123 -305.5l-154 -16q-5 141 -88 226t-241 85z" />
    <glyph glyph-name="Egrave" unicode="&#xc8;" horiz-adv-x="1241" 
d="M608 1925l451 -205l-43 -75l-465 157zM137 0l201 1481h868l-18 -138h-721l-72 -528h656l-17 -135h-657l-72 -541l744 -2l-19 -137h-893z" />
    <glyph glyph-name="Eacute" unicode="&#xc9;" horiz-adv-x="1241" 
d="M1067 1929l27 -127l-504 -157l-21 84zM137 0l201 1481h868l-18 -138h-721l-72 -528h656l-17 -135h-657l-72 -541l744 -2l-19 -137h-893z" />
    <glyph glyph-name="Ecircumflex" unicode="&#xca;" horiz-adv-x="1241" 
d="M961 1688l-121 133l-170 -133h-154l270 221h107l211 -221h-143zM137 0l201 1481h868l-18 -138h-721l-72 -528h656l-17 -135h-657l-72 -541l744 -2l-19 -137h-893z" />
    <glyph glyph-name="Edieresis" unicode="&#xcb;" horiz-adv-x="1241" 
d="M786 1905l-28 -215h-150l31 215h147zM1055 1905l-27 -215h-149l28 215h148zM137 0l201 1481h868l-18 -138h-721l-72 -528h656l-17 -135h-657l-72 -541l744 -2l-19 -137h-893z" />
    <glyph glyph-name="Igrave" unicode="&#xcc;" horiz-adv-x="561" 
d="M231 1925l453 -205l-43 -75l-465 157zM336 1481h147l-198 -1481h-148z" />
    <glyph glyph-name="Iacute" unicode="&#xcd;" horiz-adv-x="561" 
d="M692 1929l25 -127l-502 -157l-22 84zM338 1481h145l-198 -1481h-148z" />
    <glyph glyph-name="Icircumflex" unicode="&#xce;" horiz-adv-x="561" 
d="M588 1688l-123 133l-168 -133h-156l273 221h104l213 -221h-143zM338 1481h145l-198 -1481h-146z" />
    <glyph glyph-name="Idieresis" unicode="&#xcf;" horiz-adv-x="563" 
d="M414 1905l-29 -215h-149l28 215h150zM682 1905l-29 -215h-149l31 215h147zM338 1481h145l-198 -1481h-146z" />
    <glyph glyph-name="Eth" unicode="&#xd0;" horiz-adv-x="1347" 
d="M612 1479q387 -6 539 -186t102 -545q-51 -377 -263 -562.5t-599 -185.5h-276l90 678h-111l15 127h114l90 676q2 0 52.5 -0.5t122 -1t124.5 -0.5zM1098 743q15 99 10.5 179t-20 142.5t-49.5 109.5t-77 80t-103 53.5t-128 29.5t-151 9h-131l-72 -541h364l-14 -127h-369
l-71 -543h121q302 0 474.5 142t215.5 466z" />
    <glyph glyph-name="Ntilde" unicode="&#xd1;" horiz-adv-x="1486" 
d="M1223 1782q-80 -43 -164 -43q-55 0 -124 24.5t-108 24.5q-31 0 -55.5 -9t-47.5 -24t-36 -20l-26 96q77 57 157 57q50 0 126 -26.5t116 -26.5q37 0 86.5 24.5t54.5 26.5zM1262 1481h145l-199 -1481h-129l-630 1221l-164 -1221h-148l201 1481h137l623 -1213z" />
    <glyph glyph-name="Ograve" unicode="&#xd2;" horiz-adv-x="1472" 
d="M668 1925l450 -205l-43 -75l-465 157zM662 -20q-283 0 -416 196.5t-84 556.5q49 366 236.5 567t469.5 201q281 0 415 -200.5t85 -563.5q-51 -362 -237 -559.5t-469 -197.5zM684 115q215 0 348 153.5t174 466.5q42 317 -49.5 474t-304.5 157q-214 0 -349 -157.5
t-179 -473.5q-41 -312 52.5 -466t307.5 -154z" />
    <glyph glyph-name="Oacute" unicode="&#xd3;" horiz-adv-x="1472" 
d="M1124 1929l27 -127l-504 -157l-20 84zM662 -20q-283 0 -416 196.5t-84 556.5q49 366 236.5 567t469.5 201q281 0 415 -200.5t85 -563.5q-51 -362 -237 -559.5t-469 -197.5zM684 115q215 0 348 153.5t174 466.5q42 317 -49.5 474t-304.5 157q-214 0 -349 -157.5
t-179 -473.5q-41 -312 52.5 -466t307.5 -154z" />
    <glyph glyph-name="Ocircumflex" unicode="&#xd4;" horiz-adv-x="1472" 
d="M1020 1688l-123 133l-168 -133h-156l273 221h106l211 -221h-143zM662 -20q-283 0 -416 196.5t-84 556.5q49 366 236.5 567t469.5 201q281 0 415 -200.5t85 -563.5q-51 -362 -237 -559.5t-469 -197.5zM684 115q215 0 348 153.5t174 466.5q42 317 -49.5 474t-304.5 157
q-214 0 -349 -157.5t-179 -473.5q-41 -312 52.5 -466t307.5 -154z" />
    <glyph glyph-name="Otilde" unicode="&#xd5;" horiz-adv-x="1472" 
d="M1178 1782q-75 -43 -164 -43q-55 0 -123.5 24.5t-106.5 24.5q-31 0 -56 -9t-48.5 -24t-36.5 -20l-25 96q77 57 156 57q51 0 127 -26.5t115 -26.5q28 0 52 9t49.5 23t41.5 19zM662 -20q-283 0 -416 196.5t-84 556.5q49 366 236.5 567t469.5 201q281 0 415 -200.5
t85 -563.5q-51 -362 -237 -559.5t-469 -197.5zM684 115q215 0 348 153.5t174 466.5q42 317 -49.5 474t-304.5 157q-214 0 -349 -157.5t-179 -473.5q-41 -312 52.5 -466t307.5 -154z" />
    <glyph glyph-name="Odieresis" unicode="&#xd6;" horiz-adv-x="1472" 
d="M846 1905l-29 -215h-149l30 215h148zM1114 1905l-27 -215h-149l29 215h147zM662 -20q-283 0 -416 196.5t-84 556.5q49 366 236.5 567t469.5 201q281 0 415 -200.5t85 -563.5q-51 -362 -237 -559.5t-469 -197.5zM684 115q215 0 348 153.5t174 466.5q42 317 -49.5 474
t-304.5 157q-214 0 -349 -157.5t-179 -473.5q-41 -312 52.5 -466t307.5 -154z" />
    <glyph glyph-name="multiply" unicode="&#xd7;" horiz-adv-x="1056" 
d="M993 1061l-354 -324l266 -321l-90 -82l-266 321l-354 -321l-76 94l352 322l-266 321l88 82l268 -322l352 322z" />
    <glyph glyph-name="Oslash" unicode="&#xd8;" horiz-adv-x="1417" 
d="M61 -29l-84 95l201 194q-85 194 -43 481q49 363 234 561.5t465 198.5q268 0 399 -182l182 186l84 -94l-205 -199q86 -188 43 -483q-47 -358 -232 -553.5t-466 -195.5q-266 0 -399 178zM322 391l800 823q-82 152 -295 152q-422 0 -512 -618q-30 -215 7 -357zM649 115
q212 0 339 152.5t171 465.5q28 218 -8 350l-799 -819q83 -149 297 -149z" />
    <glyph glyph-name="Ugrave" unicode="&#xd9;" horiz-adv-x="1415" 
d="M655 1925l451 -205l-43 -75l-465 157zM1212 492q-69 -512 -573 -512q-261 0 -363.5 133t-66.5 403l129 965h154l-134 -996q-26 -185 50 -278.5t249 -93.5q355 0 410 372l131 996h148z" />
    <glyph glyph-name="Uacute" unicode="&#xda;" horiz-adv-x="1415" 
d="M1114 1929l25 -127l-502 -157l-23 84zM1212 492q-69 -512 -573 -512q-261 0 -363.5 133t-66.5 403l129 965h154l-134 -996q-26 -185 50 -278.5t249 -93.5q355 0 410 372l131 996h148z" />
    <glyph glyph-name="Ucircumflex" unicode="&#xdb;" horiz-adv-x="1415" 
d="M1008 1688l-121 133l-170 -133h-154l271 221h106l211 -221h-143zM1212 492q-69 -512 -573 -512q-261 0 -363.5 133t-66.5 403l129 965h154l-134 -996q-26 -185 50 -278.5t249 -93.5q355 0 410 372l131 996h148z" />
    <glyph glyph-name="Udieresis" unicode="&#xdc;" horiz-adv-x="1415" 
d="M836 1905l-29 -215h-150l29 215h150zM1104 1905l-29 -215h-149l30 215h148zM1212 492q-69 -512 -573 -512q-261 0 -363.5 133t-66.5 403l129 965h154l-134 -996q-26 -185 50 -278.5t249 -93.5q355 0 410 372l131 996h148z" />
    <glyph glyph-name="Yacute" unicode="&#xdd;" horiz-adv-x="1142" 
d="M983 1929l27 -127l-504 -157l-21 84zM1257 1481l-591 -848l-86 -633h-146l86 635l-368 846h155l303 -713l488 713h159z" />
    <glyph glyph-name="Thorn" unicode="&#xde;" horiz-adv-x="1302" 
d="M1268 762q-30 -211 -179 -314.5t-380 -103.5h-359l-45 -344h-168l201 1481h168l-43 -314h330q116 0 207.5 -24t157 -72.5t95 -127t15.5 -181.5zM1098 780q18 136 -66 196t-258 60h-328l-75 -559h334q165 0 268.5 74.5t124.5 228.5z" />
    <glyph glyph-name="germandbls" unicode="&#xdf;" horiz-adv-x="1196" 
d="M745 1481q87 0 150.5 -24t96.5 -65.5t45.5 -91t4.5 -106.5q-4 -32 -14.5 -60t-22 -49t-34 -41.5t-38.5 -33.5t-47.5 -30.5t-49.5 -26.5t-56 -27q-83 -43 -111 -66.5t-34 -64.5q-4 -35 15.5 -52t86.5 -45q132 -46 192 -88q147 -102 122 -293q-22 -161 -139 -249t-279 -88
q-74 0 -147 22t-117 59l59 86q92 -55 197 -55q119 0 196 60t92 167q7 54 -5.5 93t-52 68.5t-68 43t-93.5 38.5q-1 1 -2 1q-44 16 -72 29.5t-59.5 39t-44 65t-6.5 91.5q10 70 56 120t143 104q4 2 25.5 13t27 14t24.5 14t25 16t21.5 16.5t21.5 19.5t16.5 21t15.5 25t10 27
t7 32q11 73 -35 114.5t-139 41.5q-123 0 -208 -78.5t-105 -224.5l-144 -1063h-145l127 930h-139l18 112h133q27 199 153.5 319t325.5 120z" />
    <glyph glyph-name="agrave" unicode="&#xe0;" 
d="M444 1501l453 -205l-43 -75l-465 157zM369 -20q-151 0 -230 80.5t-59 220.5q23 173 145.5 251t388.5 97l201 16l10 80q15 110 -43 176t-170 66q-181 0 -319 -181l-115 37q76 116 193.5 185t263.5 69q184 0 270 -90t64 -250l-99 -737h-127l13 164q-163 -184 -387 -184z
M424 94q115 0 226.5 78.5t123.5 173.5l27 201l-168 -12q-209 -18 -300 -68.5t-108 -173.5q-15 -92 41 -145.5t158 -53.5z" />
    <glyph glyph-name="aacute" unicode="&#xe1;" 
d="M903 1505l27 -127l-504 -157l-20 84zM369 -20q-151 0 -230 80.5t-59 220.5q23 173 145.5 251t388.5 97l201 16l10 80q15 110 -43 176t-170 66q-181 0 -319 -181l-115 37q76 116 193.5 185t263.5 69q184 0 270 -90t64 -250l-99 -737h-127l13 164q-163 -184 -387 -184z
M424 94q115 0 226.5 78.5t123.5 173.5l27 201l-168 -12q-209 -18 -300 -68.5t-108 -173.5q-15 -92 41 -145.5t158 -53.5z" />
    <glyph glyph-name="acircumflex" unicode="&#xe2;" 
d="M799 1264l-123 133l-168 -133h-156l273 221h104l213 -221h-143zM369 -20q-151 0 -230 80.5t-59 220.5q23 173 145.5 251t388.5 97l201 16l10 80q15 110 -43 176t-170 66q-181 0 -319 -181l-115 37q76 116 193.5 185t263.5 69q184 0 270 -90t64 -250l-99 -737h-127l13 164
q-163 -184 -387 -184zM424 94q115 0 226.5 78.5t123.5 173.5l27 201l-168 -12q-209 -18 -300 -68.5t-108 -173.5q-15 -92 41 -145.5t158 -53.5z" />
    <glyph glyph-name="atilde" unicode="&#xe3;" 
d="M956 1358q-75 -43 -163 -43q-55 0 -123.5 24.5t-106.5 24.5q-31 0 -56 -9t-48.5 -24t-36.5 -20l-25 96q77 57 156 57q51 0 127 -26.5t115 -26.5q28 0 52 9t49.5 23t41.5 19zM369 -20q-151 0 -230 80.5t-59 220.5q23 173 145.5 251t388.5 97l201 16l10 80q15 110 -43 176
t-170 66q-181 0 -319 -181l-115 37q76 116 193.5 185t263.5 69q184 0 270 -90t64 -250l-99 -737h-127l13 164q-163 -184 -387 -184zM424 94q115 0 226.5 78.5t123.5 173.5l27 201l-168 -12q-209 -18 -300 -68.5t-108 -173.5q-15 -92 41 -145.5t158 -53.5z" />
    <glyph glyph-name="adieresis" unicode="&#xe4;" 
d="M625 1481l-29 -215h-150l31 215h148zM893 1481l-27 -215h-149l28 215h148zM369 -20q-151 0 -230 80.5t-59 220.5q23 173 145.5 251t388.5 97l201 16l10 80q15 110 -43 176t-170 66q-181 0 -319 -181l-115 37q76 116 193.5 185t263.5 69q184 0 270 -90t64 -250l-99 -737
h-127l13 164q-163 -184 -387 -184zM424 94q115 0 226.5 78.5t123.5 173.5l27 201l-168 -12q-209 -18 -300 -68.5t-108 -173.5q-15 -92 41 -145.5t158 -53.5z" />
    <glyph glyph-name="aring" unicode="&#xe5;" 
d="M872 1386q-12 -86 -74 -142t-145 -56q-87 0 -137 62.5t-37 154.5q9 81 72.5 135.5t142.5 54.5q88 0 139 -60.5t39 -148.5zM780 1399q7 47 -18 75.5t-70 28.5q-46 0 -84.5 -34t-44.5 -85q-4 -43 22 -73.5t66 -30.5q48 0 85.5 36t43.5 83zM369 -20q-151 0 -230 80.5
t-59 220.5q23 173 145.5 251t388.5 97l201 16l10 80q15 110 -43 176t-170 66q-181 0 -319 -181l-115 37q76 116 193.5 185t263.5 69q184 0 270 -90t64 -250l-99 -737h-127l13 164q-163 -184 -387 -184zM424 94q115 0 226.5 78.5t123.5 173.5l27 201l-168 -12
q-209 -18 -300 -68.5t-108 -173.5q-15 -92 41 -145.5t158 -53.5z" />
    <glyph glyph-name="ae" unicode="&#xe6;" horiz-adv-x="1853" 
d="M940 494q-11 -99 22 -190.5t102.5 -149.5t156.5 -58q63 0 116 15.5t95 45.5t69.5 57.5t61.5 68.5l104 -66q-78 -113 -199 -175t-266 -62q-63 0 -118 15t-91.5 37t-69 54.5t-51 59t-36.5 59.5q-3 3 -8 -1.5t-7 -10.5q-45 -45 -80.5 -74.5t-93 -65.5t-128 -54.5
t-152.5 -18.5q-153 0 -229.5 82t-57.5 221q45 303 522 342l219 18l10 84q17 115 -41 177.5t-178 62.5q-164 0 -307 -183l-127 54q76 116 191.5 177.5t263.5 61.5q274 0 315 -203q142 203 393 203q208 0 314.5 -153.5t70.5 -427.5zM1335 967q-140 0 -248 -103t-129 -268h641
q19 154 -57 262.5t-207 108.5zM805 539l-174 -13q-183 -15 -286 -78.5t-116 -171.5q-12 -88 38 -138t153 -46q136 6 241.5 81t118.5 177z" />
    <glyph glyph-name="ccedilla" unicode="&#xe7;" horiz-adv-x="1095" 
d="M522 94q90 0 156.5 50.5t138.5 156.5l117 -45q-68 -121 -168 -192.5t-227 -81.5l-47 -97q88 -6 121 -49.5t26 -105.5q-10 -69 -72.5 -107.5t-148.5 -38.5q-104 0 -172 62l33 53q48 -41 120 -41q56 0 89.5 23t39.5 63q6 44 -26.5 63t-110.5 21q-11 0 -15.5 4.5t-2.5 11.5
l78 138q-187 17 -279.5 165t-60.5 377q32 246 179.5 399.5t356.5 153.5q261 0 350 -266l-131 -43q-59 109 -103.5 152t-123.5 43q-149 0 -252.5 -120t-128.5 -315q-28 -196 43 -315t221 -119z" />
    <glyph glyph-name="egrave" unicode="&#xe8;" horiz-adv-x="1126" 
d="M461 1501l450 -205l-43 -75l-465 157zM254 485q-23 -169 47 -279t227 -110q100 0 170.5 44t124.5 128l119 -39q-70 -123 -181.5 -186t-246.5 -63q-214 0 -327 144t-78 394q34 257 177 408t357 151q206 0 303.5 -140t63.5 -382l-13 -70h-743zM272 604h600
q23 162 -39.5 261.5t-207.5 99.5q-78 0 -142.5 -31t-107 -83t-68.5 -115t-35 -132z" />
    <glyph glyph-name="eacute" unicode="&#xe9;" horiz-adv-x="1126" 
d="M918 1505l26 -127l-504 -157l-20 84zM254 485q-23 -169 47 -279t227 -110q100 0 170.5 44t124.5 128l119 -39q-70 -123 -181.5 -186t-246.5 -63q-214 0 -327 144t-78 394q34 257 177 408t357 151q206 0 303.5 -140t63.5 -382l-13 -70h-743zM272 604h600
q23 162 -39.5 261.5t-207.5 99.5q-78 0 -142.5 -31t-107 -83t-68.5 -115t-35 -132z" />
    <glyph glyph-name="ecircumflex" unicode="&#xea;" horiz-adv-x="1126" 
d="M813 1264l-123 133l-168 -133h-155l272 221h106l211 -221h-143zM254 485q-23 -169 47 -279t227 -110q100 0 170.5 44t124.5 128l119 -39q-70 -123 -181.5 -186t-246.5 -63q-214 0 -327 144t-78 394q34 257 177 408t357 151q206 0 303.5 -140t63.5 -382l-13 -70h-743z
M272 604h600q23 162 -39.5 261.5t-207.5 99.5q-78 0 -142.5 -31t-107 -83t-68.5 -115t-35 -132z" />
    <glyph glyph-name="edieresis" unicode="&#xeb;" horiz-adv-x="1126" 
d="M639 1481l-29 -215h-149l31 215h147zM907 1481l-26 -215h-150l29 215h147zM254 485q-23 -169 47 -279t227 -110q100 0 170.5 44t124.5 128l119 -39q-70 -123 -181.5 -186t-246.5 -63q-214 0 -327 144t-78 394q34 257 177 408t357 151q206 0 303.5 -140t63.5 -382l-13 -70
h-743zM272 604h600q23 162 -39.5 261.5t-207.5 99.5q-78 0 -142.5 -31t-107 -83t-68.5 -115t-35 -132z" />
    <glyph glyph-name="igrave" unicode="&#xec;" horiz-adv-x="483" 
d="M131 1501l451 -205l-43 -75l-463 157zM385 1057l-143 -1057h-148l144 1057h147z" />
    <glyph glyph-name="iacute" unicode="&#xed;" horiz-adv-x="477" 
d="M592 1505l24 -127l-503 -157l-21 84zM389 1057l-145 -1057h-148l144 1057h149z" />
    <glyph glyph-name="icircumflex" unicode="&#xee;" horiz-adv-x="479" 
d="M496 1264l-123 133l-168 -133h-156l273 221h104l213 -221h-143zM397 1057l-143 -1057h-150l146 1057h147z" />
    <glyph glyph-name="idieresis" unicode="&#xef;" horiz-adv-x="489" 
d="M317 1481l-28 -215h-150l31 215h147zM586 1481l-27 -215h-149l28 215h148zM393 1057l-143 -1057h-150l146 1057h147z" />
    <glyph glyph-name="eth" unicode="&#xf0;" horiz-adv-x="1163" 
d="M1061 512q-31 -239 -180 -385.5t-371 -146.5q-216 0 -330 148.5t-82 381.5q31 230 181.5 379t353.5 149q155 0 250 -102q-62 200 -236 334l-330 -185l-38 76l299 160q-78 48 -211 113l96 65q125 -42 235 -115l215 123l35 -82l-178 -92q363 -286 291 -821zM518 94
q148 0 259 119.5t134 300.5q23 179 -52 295.5t-216 116.5q-147 0 -259.5 -122t-135.5 -304q-23 -176 52.5 -291t217.5 -115z" />
    <glyph glyph-name="ntilde" unicode="&#xf1;" horiz-adv-x="1146" 
d="M999 1358q-75 -43 -163 -43q-54 0 -123 24.5t-107 24.5q-31 0 -55.5 -9t-48 -24t-37.5 -20l-25 96q77 57 158 57q50 0 126 -26.5t116 -26.5q28 0 51.5 9t48.5 22.5t41 19.5zM98 0l142 1057h141l-23 -168q122 100 210.5 144t189.5 44q148 0 217.5 -81.5t50.5 -217.5
l-104 -778h-148l100 741q14 102 -31 158.5t-149 56.5q-85 0 -161.5 -38t-182.5 -125l-104 -793h-148z" />
    <glyph glyph-name="ograve" unicode="&#xf2;" 
d="M461 1501l450 -205l-43 -75l-462 157zM483 -20q-213 0 -315 148.5t-68 393.5q33 248 179 401.5t358 153.5q211 0 312.5 -152.5t68.5 -398.5q-31 -246 -175.5 -396t-359.5 -150zM506 92q149 0 243.5 121t118.5 315q27 194 -36 315.5t-214 121.5q-101 0 -180 -58.5
t-125 -155.5t-63 -223q-17 -125 3.5 -221.5t85 -155.5t167.5 -59z" />
    <glyph glyph-name="oacute" unicode="&#xf3;" 
d="M920 1505l24 -127l-502 -157l-22 84zM483 -20q-213 0 -315 148.5t-68 393.5q33 248 179 401.5t358 153.5q211 0 312.5 -152.5t68.5 -398.5q-31 -246 -175.5 -396t-359.5 -150zM506 92q149 0 243.5 121t118.5 315q27 194 -36 315.5t-214 121.5q-101 0 -180 -58.5
t-125 -155.5t-63 -223q-17 -125 3.5 -221.5t85 -155.5t167.5 -59z" />
    <glyph glyph-name="ocircumflex" unicode="&#xf4;" 
d="M813 1264l-121 133l-170 -133h-153l270 221h106l211 -221h-143zM483 -20q-213 0 -315 148.5t-68 393.5q33 248 179 401.5t358 153.5q211 0 312.5 -152.5t68.5 -398.5q-31 -246 -175.5 -396t-359.5 -150zM506 92q149 0 243.5 121t118.5 315q27 194 -36 315.5t-214 121.5
q-101 0 -180 -58.5t-125 -155.5t-63 -223q-17 -125 3.5 -221.5t85 -155.5t167.5 -59z" />
    <glyph glyph-name="otilde" unicode="&#xf5;" 
d="M973 1358q-80 -43 -164 -43q-55 0 -123 24.5t-108 24.5q-31 0 -55.5 -9t-48 -24t-36.5 -20l-26 96q77 57 157 57q49 0 125 -26.5t117 -26.5q37 0 86.5 24.5t54.5 26.5zM483 -20q-213 0 -315 148.5t-68 393.5q33 248 179 401.5t358 153.5q211 0 312.5 -152.5t68.5 -398.5
q-31 -246 -175.5 -396t-359.5 -150zM506 92q149 0 243.5 121t118.5 315q27 194 -36 315.5t-214 121.5q-101 0 -180 -58.5t-125 -155.5t-63 -223q-17 -125 3.5 -221.5t85 -155.5t167.5 -59z" />
    <glyph glyph-name="odieresis" unicode="&#xf6;" 
d="M641 1481l-29 -215h-149l29 215h149zM909 1481l-28 -215h-150l31 215h147zM483 -20q-213 0 -315 148.5t-68 393.5q33 248 179 401.5t358 153.5q211 0 312.5 -152.5t68.5 -398.5q-31 -246 -175.5 -396t-359.5 -150zM506 92q149 0 243.5 121t118.5 315q27 194 -36 315.5
t-214 121.5q-101 0 -180 -58.5t-125 -155.5t-63 -223q-17 -125 3.5 -221.5t85 -155.5t167.5 -59z" />
    <glyph glyph-name="divide" unicode="&#xf7;" horiz-adv-x="1089" 
d="M737 1190l-28 -203h-207l30 203h205zM991 805l-16 -121l-821 -2l18 121zM643 500l-29 -201h-202l26 201h205z" />
    <glyph glyph-name="oslash" unicode="&#xf8;" horiz-adv-x="1132" 
d="M1153 987l-184 -164q42 -121 20 -297q-33 -246 -177 -396t-357 -150q-192 0 -295 122l-127 -112l-62 78l135 120q-62 132 -34 334q33 249 177.5 402t356.5 153q215 0 320 -159l164 145zM221 528q-18 -130 6 -233l588 524q-63 146 -225 146q-152 0 -247.5 -121.5
t-121.5 -315.5zM840 528q14 92 4 183l-576 -512q70 -107 207 -107q150 0 244.5 121t120.5 315z" />
    <glyph glyph-name="ugrave" unicode="&#xf9;" horiz-adv-x="1146" 
d="M451 1501l450 -205l-43 -75l-465 157zM414 -18q-147 1 -221.5 84t-57.5 219l105 776h147l-100 -742q-15 -105 29 -163t149 -58q87 0 158.5 38t185.5 130l106 795h148l-143 -1059h-119l10 164q-121 -98 -211.5 -141.5t-185.5 -42.5z" />
    <glyph glyph-name="uacute" unicode="&#xfa;" horiz-adv-x="1146" 
d="M907 1505l27 -127l-504 -157l-20 84zM414 -18q-147 1 -221.5 84t-57.5 219l105 776h147l-100 -742q-15 -105 29 -163t149 -58q87 0 158.5 38t185.5 130l106 795h148l-143 -1059h-119l10 164q-121 -98 -211.5 -141.5t-185.5 -42.5z" />
    <glyph glyph-name="ucircumflex" unicode="&#xfb;" horiz-adv-x="1146" 
d="M801 1264l-121 133l-170 -133h-154l271 221h106l211 -221h-143zM414 -18q-147 1 -221.5 84t-57.5 219l105 776h147l-100 -742q-15 -105 29 -163t149 -58q87 0 158.5 38t185.5 130l106 795h148l-143 -1059h-119l10 164q-121 -98 -211.5 -141.5t-185.5 -42.5z" />
    <glyph glyph-name="udieresis" unicode="&#xfc;" horiz-adv-x="1146" 
d="M629 1481l-29 -215h-149l30 215h148zM897 1481l-27 -215h-149l29 215h147zM414 -18q-147 1 -221.5 84t-57.5 219l105 776h147l-100 -742q-15 -105 29 -163t149 -58q87 0 158.5 38t185.5 130l106 795h148l-143 -1059h-119l10 164q-121 -98 -211.5 -141.5t-185.5 -42.5z
" />
    <glyph glyph-name="yacute" unicode="&#xfd;" horiz-adv-x="1052" 
d="M895 1505l25 -127l-502 -157l-23 84zM137 -338q-51 0 -87.5 6t-47.5 12l-10 5l14 98l109 -2q94 -1 143 32.5t78 90.5l57 114l-258 1039h150l202 -862l435 862h141l-590 -1163q-68 -126 -149.5 -179t-186.5 -53z" />
    <glyph glyph-name="thorn" unicode="&#xfe;" horiz-adv-x="1165" 
d="M57 -330l242 1811h145l-75 -561q1 1 20.5 19t27 25t30.5 25t39.5 27t44 23t53 20.5t59 12t68.5 5.5q190 0 290.5 -140t63.5 -400q-35 -260 -173.5 -408.5t-338.5 -148.5q-175 0 -293 135l-57 -445h-146zM518 92q155 0 262 122.5t138 334.5q13 111 0 189.5t-50.5 129
t-89 74t-116.5 23.5q-119 0 -213 -78t-105 -164l-70 -500q111 -131 244 -131z" />
    <glyph glyph-name="ydieresis" unicode="&#xff;" horiz-adv-x="1052" 
d="M616 1481l-28 -215h-150l29 215h149zM883 1481l-27 -215h-149l30 215h146zM137 -338q-51 0 -87.5 6t-47.5 12l-10 5l14 98l109 -2q94 -1 143 32.5t78 90.5l57 114l-258 1039h150l202 -862l435 862h141l-590 -1163q-68 -126 -149.5 -179t-186.5 -53z" />
    <glyph glyph-name="Amacron" unicode="&#x100;" horiz-adv-x="1394" 
d="M1161 1872l-16 -113h-553l14 113h555zM20 0l719 1481h172l316 -1481h-152l-88 428h-606l-209 -428h-152zM440 571h525l-160 758z" />
    <glyph glyph-name="amacron" unicode="&#x101;" 
d="M958 1448l-16 -113h-553l14 113h555zM369 -20q-151 0 -230 80.5t-59 220.5q23 173 145.5 251t388.5 97l201 16l10 80q15 110 -43 176t-170 66q-181 0 -319 -181l-115 37q76 116 193.5 185t263.5 69q184 0 270 -90t64 -250l-99 -737h-127l13 164q-163 -184 -387 -184z
M424 94q115 0 226.5 78.5t123.5 173.5l27 201l-168 -12q-209 -18 -300 -68.5t-108 -173.5q-15 -92 41 -145.5t158 -53.5z" />
    <glyph glyph-name="Abreve" unicode="&#x102;" horiz-adv-x="1394" 
d="M1165 1903q-37 -84 -120 -146.5t-195 -62.5q-113 0 -180.5 59t-73.5 150h115q1 -1 15 -24t21.5 -31t24.5 -23.5t38 -22t48 -6.5q42 0 79.5 19t57 38t45.5 50h125zM20 0l719 1481h172l316 -1481h-152l-88 428h-606l-209 -428h-152zM440 571h525l-160 758z" />
    <glyph glyph-name="abreve" unicode="&#x103;" 
d="M965 1479q-39 -84 -122.5 -146.5t-195.5 -62.5q-113 0 -180 59t-72 150h113q1 -1 15 -24t21.5 -31t24.5 -23.5t38 -22t48 -6.5q99 0 183 107h127zM369 -20q-151 0 -230 80.5t-59 220.5q23 173 145.5 251t388.5 97l201 16l10 80q15 110 -43 176t-170 66q-181 0 -319 -181
l-115 37q76 116 193.5 185t263.5 69q184 0 270 -90t64 -250l-99 -737h-127l13 164q-163 -184 -387 -184zM424 94q115 0 226.5 78.5t123.5 173.5l27 201l-168 -12q-209 -18 -300 -68.5t-108 -173.5q-15 -92 41 -145.5t158 -53.5z" />
    <glyph glyph-name="Aogonek" unicode="&#x104;" horiz-adv-x="1394" 
d="M1102 -252q70 0 149 41l-12 -98q-79 -31 -174 -31t-139 45.5t-33 122.5q8 58 48.5 100.5t133.5 75.5l-88 424h-606l-209 -428h-152l719 1481h172l316 -1479h2h-2v-2h-2q-105 -46 -152.5 -86t-54.5 -94q-5 -36 14.5 -54t69.5 -18zM440 571h525l-160 758z" />
    <glyph glyph-name="aogonek" unicode="&#x105;" horiz-adv-x="1124" 
d="M856 0q-99 -43 -145 -82.5t-52 -91.5q-5 -38 14.5 -56t67.5 -18q73 0 152 41l-12 -98q-91 -31 -174 -31q-95 0 -139 45.5t-33 122.5q8 63 54 107t156 79l11 146q-163 -184 -387 -184q-151 0 -230 80.5t-59 220.5q23 173 145.5 251t388.5 97l201 16l10 80q15 110 -43 176
t-170 66q-181 0 -319 -181l-115 37q76 116 193.5 185t263.5 69q184 0 270 -90t64 -250l-99 -737h-14zM424 94q115 0 226.5 78.5t123.5 173.5l27 201l-168 -12q-209 -18 -300 -68.5t-108 -173.5q-15 -92 41 -145.5t158 -53.5z" />
    <glyph glyph-name="Cacute" unicode="&#x106;" horiz-adv-x="1366" 
d="M1128 1929l27 -127l-504 -157l-20 84zM848 1501q219 0 348 -124.5t123 -305.5l-154 -16q-5 141 -88 226t-241 85q-206 0 -337 -158t-175 -469q-40 -307 49.5 -465.5t306.5 -158.5q135 0 241 80.5t156 220.5l148 -25q-45 -178 -203.5 -294.5t-368.5 -116.5
q-281 0 -409 201t-82 560q50 357 230 558.5t456 201.5z" />
    <glyph glyph-name="cacute" unicode="&#x107;" horiz-adv-x="1095" 
d="M920 1505l24 -127l-502 -157l-20 84zM647 1077q261 0 350 -266l-131 -43q-59 109 -103.5 152t-123.5 43q-149 0 -252.5 -120t-128.5 -315q-28 -196 43 -315t221 -119q90 0 156.5 50.5t138.5 156.5l117 -45q-75 -131 -185.5 -203.5t-252.5 -72.5q-208 0 -313.5 150
t-71.5 394q32 246 179.5 399.5t356.5 153.5z" />
    <glyph glyph-name="Ccircumflex" unicode="&#x108;" horiz-adv-x="1366" 
d="M1024 1688l-123 133l-168 -133h-155l272 221h106l211 -221h-143zM848 1501q219 0 348 -124.5t123 -305.5l-154 -16q-5 141 -88 226t-241 85q-206 0 -337 -158t-175 -469q-40 -307 49.5 -465.5t306.5 -158.5q135 0 241 80.5t156 220.5l148 -25q-45 -178 -203.5 -294.5
t-368.5 -116.5q-281 0 -409 201t-82 560q50 357 230 558.5t456 201.5z" />
    <glyph glyph-name="ccircumflex" unicode="&#x109;" horiz-adv-x="1095" 
d="M815 1264l-123 133l-170 -133h-153l272 221h104l211 -221h-141zM647 1077q261 0 350 -266l-131 -43q-59 109 -103.5 152t-123.5 43q-149 0 -252.5 -120t-128.5 -315q-28 -196 43 -315t221 -119q90 0 156.5 50.5t138.5 156.5l117 -45q-75 -131 -185.5 -203.5t-252.5 -72.5
q-208 0 -313.5 150t-71.5 394q32 246 179.5 399.5t356.5 153.5z" />
    <glyph glyph-name="Cdotaccent" unicode="&#x10a;" horiz-adv-x="1366" 
d="M993 1905l-28 -228h-164l30 228h162zM848 1501q219 0 348 -124.5t123 -305.5l-154 -16q-5 141 -88 226t-241 85q-206 0 -337 -158t-175 -469q-40 -307 49.5 -465.5t306.5 -158.5q135 0 241 80.5t156 220.5l148 -25q-45 -178 -203.5 -294.5t-368.5 -116.5q-281 0 -409 201
t-82 560q50 357 230 558.5t456 201.5z" />
    <glyph glyph-name="cdotaccent" unicode="&#x10b;" horiz-adv-x="1095" 
d="M784 1481l-30 -228h-162l31 228h161zM647 1077q261 0 350 -266l-131 -43q-59 109 -103.5 152t-123.5 43q-149 0 -252.5 -120t-128.5 -315q-28 -196 43 -315t221 -119q90 0 156.5 50.5t138.5 156.5l117 -45q-75 -131 -185.5 -203.5t-252.5 -72.5q-208 0 -313.5 150
t-71.5 394q32 246 179.5 399.5t356.5 153.5z" />
    <glyph glyph-name="Ccaron" unicode="&#x10c;" horiz-adv-x="1366" 
d="M1044 1905h164l-266 -222h-106l-215 222h133l133 -131zM848 1501q219 0 348 -124.5t123 -305.5l-154 -16q-5 141 -88 226t-241 85q-206 0 -337 -158t-175 -469q-40 -307 49.5 -465.5t306.5 -158.5q135 0 241 80.5t156 220.5l148 -25q-45 -178 -203.5 -294.5
t-368.5 -116.5q-281 0 -409 201t-82 560q50 357 230 558.5t456 201.5z" />
    <glyph glyph-name="ccaron" unicode="&#x10d;" horiz-adv-x="1095" 
d="M836 1481h163l-266 -221h-106l-215 221h133l133 -131zM647 1077q261 0 350 -266l-131 -43q-59 109 -103.5 152t-123.5 43q-149 0 -252.5 -120t-128.5 -315q-28 -196 43 -315t221 -119q90 0 156.5 50.5t138.5 156.5l117 -45q-75 -131 -185.5 -203.5t-252.5 -72.5
q-208 0 -313.5 150t-71.5 394q32 246 179.5 399.5t356.5 153.5z" />
    <glyph glyph-name="Dcaron" unicode="&#x10e;" horiz-adv-x="1370" 
d="M991 1905h164l-268 -222h-105l-217 222h135l131 -131zM338 1481q2 0 52 -0.5t121 -1t124 -0.5q387 -6 539 -185.5t104 -545.5q-51 -377 -263 -562.5t-599 -185.5h-279zM473 1346l-162 -1211h119q304 0 476.5 142t215.5 466q15 99 10.5 179t-20 142.5t-49.5 109.5t-77 80
t-103 53.5t-128 29.5t-151 9h-131z" />
    <glyph glyph-name="dcaron" unicode="&#x10f;" horiz-adv-x="1232" 
d="M453 -20q-194 0 -287 138t-57 396q34 258 167.5 410.5t335.5 152.5q88 0 155.5 -33t125.5 -106l80 582h147l-205 -1520h-116l8 162q-22 -27 -48.5 -52t-71.5 -57.5t-106 -52.5t-128 -20zM1096 1006l100 184l-43 8l25 191h135l-27 -203l-98 -180h-92zM502 94
q116 0 209.5 87.5t107.5 191.5l55 418q-83 170 -247 170q-145 0 -242.5 -113.5t-124.5 -325.5q-29 -214 39 -321t203 -107z" />
    <glyph glyph-name="Dcroat" unicode="&#x110;" horiz-adv-x="1347" 
d="M612 1479q387 -6 539 -186t102 -545q-51 -377 -263 -562.5t-599 -185.5h-276l90 678h-111l15 127h114l90 676q2 0 52.5 -0.5t122 -1t124.5 -0.5zM1098 743q15 99 10.5 179t-20 142.5t-49.5 109.5t-77 80t-103 53.5t-128 29.5t-151 9h-131l-72 -541h364l-14 -127h-369
l-71 -543h121q302 0 474.5 142t215.5 466z" />
    <glyph glyph-name="dcroat" unicode="&#x111;" horiz-adv-x="1261" 
d="M1317 1331l-14 -100h-222l-166 -1231h-116l8 162q-22 -27 -48.5 -52t-71.5 -57.5t-106 -52.5t-128 -20q-194 0 -287 138t-57 396q34 258 167.5 410.5t335.5 152.5q88 0 155.5 -33t125.5 -106l41 293h-223l14 100h221l27 189h147l-24 -189h221zM819 373l55 418
q-83 170 -247 170q-145 0 -242.5 -113.5t-124.5 -325.5q-29 -214 39 -321t203 -107q116 0 209.5 87.5t107.5 191.5z" />
    <glyph glyph-name="Emacron" unicode="&#x112;" horiz-adv-x="1241" 
d="M1122 1872l-16 -113h-553l14 113h555zM137 0l201 1481h868l-18 -138h-721l-72 -528h656l-17 -135h-657l-72 -541l744 -2l-19 -137h-893z" />
    <glyph glyph-name="emacron" unicode="&#x113;" horiz-adv-x="1126" 
d="M973 1448l-17 -113h-553l15 113h555zM254 485q-23 -169 47 -279t227 -110q100 0 170.5 44t124.5 128l119 -39q-70 -123 -181.5 -186t-246.5 -63q-214 0 -327 144t-78 394q34 257 177 408t357 151q206 0 303.5 -140t63.5 -382l-13 -70h-743zM272 604h600
q23 162 -39.5 261.5t-207.5 99.5q-78 0 -142.5 -31t-107 -83t-68.5 -115t-35 -132z" />
    <glyph glyph-name="Ebreve" unicode="&#x114;" horiz-adv-x="1241" 
d="M1126 1903q-37 -84 -120 -146.5t-195 -62.5q-113 0 -180.5 59t-73.5 150h115q1 -1 15 -24t21.5 -31t24.5 -23.5t38 -22t48 -6.5q42 0 79.5 19t57 38t45.5 50h125zM137 0l201 1481h868l-18 -138h-721l-72 -528h656l-17 -135h-657l-72 -541l744 -2l-19 -137h-893z" />
    <glyph glyph-name="ebreve" unicode="&#x115;" horiz-adv-x="1126" 
d="M979 1479q-39 -84 -122 -146.5t-195 -62.5q-113 0 -180 59t-72 150h112q3 -4 13 -20.5t16 -24.5t19 -22t25.5 -21t32.5 -13t42 -6q98 0 182 107h127zM254 485q-23 -169 47 -279t227 -110q100 0 170.5 44t124.5 128l119 -39q-70 -123 -181.5 -186t-246.5 -63
q-214 0 -327 144t-78 394q34 257 177 408t357 151q206 0 303.5 -140t63.5 -382l-13 -70h-743zM272 604h600q23 162 -39.5 261.5t-207.5 99.5q-78 0 -142.5 -31t-107 -83t-68.5 -115t-35 -132z" />
    <glyph glyph-name="Edotaccent" unicode="&#x116;" horiz-adv-x="1241" 
d="M932 1905l-29 -228h-164l31 228h162zM137 0l201 1481h868l-18 -138h-721l-72 -528h656l-17 -135h-657l-72 -541l744 -2l-19 -137h-893z" />
    <glyph glyph-name="edotaccent" unicode="&#x117;" horiz-adv-x="1126" 
d="M782 1481l-28 -228h-164l31 228h161zM254 485q-23 -169 47 -279t227 -110q100 0 170.5 44t124.5 128l119 -39q-70 -123 -181.5 -186t-246.5 -63q-214 0 -327 144t-78 394q34 257 177 408t357 151q206 0 303.5 -140t63.5 -382l-13 -70h-743zM272 604h600
q23 162 -39.5 261.5t-207.5 99.5q-78 0 -142.5 -31t-107 -83t-68.5 -115t-35 -132z" />
    <glyph glyph-name="Eogonek" unicode="&#x118;" horiz-adv-x="1241" 
d="M1188 1343h-721l-72 -528h656l-17 -135h-657l-72 -541l744 -2l-19 -137h2q-107 -44 -156 -85t-55 -95q-6 -37 13.5 -55.5t68.5 -18.5q67 0 152 41l-15 -98q-86 -31 -172 -31q-95 0 -140 45.5t-34 122.5q8 56 47 98.5t127 75.5h-731l201 1481h868z" />
    <glyph glyph-name="eogonek" unicode="&#x119;" horiz-adv-x="1126" 
d="M643 1077q206 0 303.5 -140t63.5 -382l-13 -70h-743q-23 -169 47 -279t227 -110q100 0 170.5 44t124.5 128l119 -39q-84 -145 -225 -209h4q-107 -45 -156.5 -86.5t-56.5 -95.5q-5 -36 15 -53.5t69 -17.5q68 0 151 40l-14 -98q-76 -31 -172 -31q-95 0 -140 45.5t-34 122.5
q10 84 94 136q-197 12 -299 154.5t-69 381.5q34 257 177 408t357 151zM872 604q23 162 -39.5 261.5t-207.5 99.5q-78 0 -142.5 -31t-107 -83t-68.5 -115t-35 -132h600z" />
    <glyph glyph-name="Ecaron" unicode="&#x11a;" horiz-adv-x="1241" 
d="M983 1905h164l-268 -222h-105l-217 222h135l131 -131zM137 0l201 1481h868l-18 -138h-721l-72 -528h656l-17 -135h-657l-72 -541l744 -2l-19 -137h-893z" />
    <glyph glyph-name="ecaron" unicode="&#x11b;" horiz-adv-x="1126" 
d="M834 1481h163l-266 -221h-106l-215 221h133l133 -131zM254 485q-23 -169 47 -279t227 -110q100 0 170.5 44t124.5 128l119 -39q-70 -123 -181.5 -186t-246.5 -63q-214 0 -327 144t-78 394q34 257 177 408t357 151q206 0 303.5 -140t63.5 -382l-13 -70h-743zM272 604h600
q23 162 -39.5 261.5t-207.5 99.5q-78 0 -142.5 -31t-107 -83t-68.5 -115t-35 -132z" />
    <glyph glyph-name="Gcircumflex" unicode="&#x11c;" horiz-adv-x="1456" 
d="M1022 1688l-123 133l-170 -133h-154l271 221h106l211 -221h-141zM651 -20q-276 0 -405.5 200.5t-83.5 554.5q49 359 237 562.5t461 203.5q99 0 186.5 -35t147.5 -93t95 -135t34 -159l-162 -26q-8 135 -94.5 223t-224.5 88q-204 0 -343 -162t-180 -457
q-42 -309 54.5 -468.5t302.5 -159.5q75 0 142.5 24t116.5 62.5t87.5 89t61 102t32.5 103.5l23 147h-361l17 115l512 -2l-103 -758h-117l31 238q-78 -115 -195 -186.5t-272 -71.5z" />
    <glyph glyph-name="gcircumflex" unicode="&#x11d;" horiz-adv-x="1196" 
d="M819 1264l-123 133l-168 -133h-155l272 221h107l211 -221h-144zM446 -350q-236 0 -353.5 76t-98.5 208q21 140 209 230q26 13 4 22q-79 42 -70 115q8 49 56.5 88t132.5 60q-91 53 -125.5 122.5t-20.5 167.5q20 156 148.5 245t324.5 89q176 0 271 -86q9 -9 45 4
q63 29 227 94l-22 -153q-27 -5 -140 -25q-33 -7 -39.5 -14.5t0.5 -26.5q0 -2 3 -14t5 -22t4 -25t1.5 -32t-2.5 -34q-20 -143 -137.5 -236t-319.5 -93q-6 0 -23 1t-24 1q-207 -5 -219 -82q-3 -31 36.5 -43.5t153.5 -20.5q23 -2 55.5 -4t81.5 -5t84 -5q159 -10 229 -84
t54 -197q-20 -151 -159.5 -236t-371.5 -85zM567 514q131 0 206.5 57.5t90.5 165.5q17 111 -44 173.5t-191 62.5q-127 0 -207.5 -63.5t-95.5 -172.5q-14 -106 49 -164.5t192 -58.5zM487 -244q319 0 342 197q9 75 -32 116.5t-144 47.5l-297 20q-59 5 -130.5 -51.5
t-82.5 -134.5q-13 -96 75.5 -145.5t268.5 -49.5z" />
    <glyph glyph-name="Gbreve" unicode="&#x11e;" horiz-adv-x="1456" 
d="M1186 1903q-37 -84 -120.5 -146.5t-195.5 -62.5q-113 0 -180 59t-72 150h113q3 -4 13 -20.5t16 -24.5t19 -22t25.5 -21t32.5 -13t42 -6q98 0 182 107h125zM651 -20q-276 0 -405.5 200.5t-83.5 554.5q49 359 237 562.5t461 203.5q99 0 186.5 -35t147.5 -93t95 -135
t34 -159l-162 -26q-8 135 -94.5 223t-224.5 88q-204 0 -343 -162t-180 -457q-42 -309 54.5 -468.5t302.5 -159.5q75 0 142.5 24t116.5 62.5t87.5 89t61 102t32.5 103.5l23 147h-361l17 115l512 -2l-103 -758h-117l31 238q-78 -115 -195 -186.5t-272 -71.5z" />
    <glyph glyph-name="gbreve" unicode="&#x11f;" horiz-adv-x="1196" 
d="M985 1479q-37 -84 -120.5 -146.5t-194.5 -62.5q-113 0 -180.5 59t-73.5 150h114q1 -2 10 -17t13 -20.5t14.5 -19.5t20 -20t23 -14.5t30 -12t35.5 -3.5q98 0 182 107h127zM446 -350q-236 0 -353.5 76t-98.5 208q21 140 209 230q26 13 4 22q-79 42 -70 115q8 49 56.5 88
t132.5 60q-91 53 -125.5 122.5t-20.5 167.5q20 156 148.5 245t324.5 89q176 0 271 -86q9 -9 45 4q63 29 227 94l-22 -153q-27 -5 -140 -25q-33 -7 -39.5 -14.5t0.5 -26.5q0 -2 3 -14t5 -22t4 -25t1.5 -32t-2.5 -34q-20 -143 -137.5 -236t-319.5 -93q-6 0 -23 1t-24 1
q-207 -5 -219 -82q-3 -31 36.5 -43.5t153.5 -20.5q23 -2 55.5 -4t81.5 -5t84 -5q159 -10 229 -84t54 -197q-20 -151 -159.5 -236t-371.5 -85zM567 514q131 0 206.5 57.5t90.5 165.5q17 111 -44 173.5t-191 62.5q-127 0 -207.5 -63.5t-95.5 -172.5q-14 -106 49 -164.5
t192 -58.5zM487 -244q319 0 342 197q9 75 -32 116.5t-144 47.5l-297 20q-59 5 -130.5 -51.5t-82.5 -134.5q-13 -96 75.5 -145.5t268.5 -49.5z" />
    <glyph glyph-name="Gdotaccent" unicode="&#x120;" horiz-adv-x="1456" 
d="M991 1905l-30 -228h-162l30 228h162zM651 -20q-276 0 -405.5 200.5t-83.5 554.5q49 359 237 562.5t461 203.5q99 0 186.5 -35t147.5 -93t95 -135t34 -159l-162 -26q-8 135 -94.5 223t-224.5 88q-204 0 -343 -162t-180 -457q-42 -309 54.5 -468.5t302.5 -159.5
q75 0 142.5 24t116.5 62.5t87.5 89t61 102t32.5 103.5l23 147h-361l17 115l512 -2l-103 -758h-117l31 238q-78 -115 -195 -186.5t-272 -71.5z" />
    <glyph glyph-name="gdotaccent" unicode="&#x121;" horiz-adv-x="1196" 
d="M788 1481l-28 -228h-164l33 228h159zM446 -350q-236 0 -353.5 76t-98.5 208q21 140 209 230q26 13 4 22q-79 42 -70 115q8 49 56.5 88t132.5 60q-91 53 -125.5 122.5t-20.5 167.5q20 156 148.5 245t324.5 89q176 0 271 -86q9 -9 45 4q63 29 227 94l-22 -153
q-27 -5 -140 -25q-33 -7 -39.5 -14.5t0.5 -26.5q0 -2 3 -14t5 -22t4 -25t1.5 -32t-2.5 -34q-20 -143 -137.5 -236t-319.5 -93q-6 0 -23 1t-24 1q-207 -5 -219 -82q-3 -31 36.5 -43.5t153.5 -20.5q23 -2 55.5 -4t81.5 -5t84 -5q159 -10 229 -84t54 -197q-20 -151 -159.5 -236
t-371.5 -85zM567 514q131 0 206.5 57.5t90.5 165.5q17 111 -44 173.5t-191 62.5q-127 0 -207.5 -63.5t-95.5 -172.5q-14 -106 49 -164.5t192 -58.5zM487 -244q319 0 342 197q9 75 -32 116.5t-144 47.5l-297 20q-59 5 -130.5 -51.5t-82.5 -134.5q-13 -96 75.5 -145.5
t268.5 -49.5z" />
    <glyph glyph-name="uni0122" unicode="&#x122;" horiz-adv-x="1456" 
d="M651 -20q-276 0 -405.5 200.5t-83.5 554.5q49 359 237 562.5t461 203.5q99 0 186.5 -35t147.5 -93t95 -135t34 -159l-162 -26q-8 135 -94.5 223t-224.5 88q-204 0 -343 -162t-180 -457q-42 -309 54.5 -468.5t302.5 -159.5q75 0 142.5 24t116.5 62.5t87.5 89t61 102
t32.5 103.5l23 147h-361l17 115l512 -2l-103 -758h-117l31 238q-78 -115 -195 -186.5t-272 -71.5zM516 -475l98 151h-67l24 174h142l-23 -182l-108 -143h-66z" />
    <glyph glyph-name="uni0123" unicode="&#x123;" horiz-adv-x="1196" 
d="M657 1247l27 183l107 143h65l-98 -152h65l-22 -174h-144zM446 -350q-236 0 -353.5 76t-98.5 208q21 140 209 230q26 13 4 22q-79 42 -70 115q8 49 56.5 88t132.5 60q-91 53 -125.5 122.5t-20.5 167.5q20 156 148.5 245t324.5 89q176 0 271 -86q9 -9 45 4q63 29 227 94
l-22 -153q-27 -5 -140 -25q-33 -7 -39.5 -14.5t0.5 -26.5q0 -2 3 -14t5 -22t4 -25t1.5 -32t-2.5 -34q-20 -143 -137.5 -236t-319.5 -93q-6 0 -23 1t-24 1q-207 -5 -219 -82q-3 -31 36.5 -43.5t153.5 -20.5q23 -2 55.5 -4t81.5 -5t84 -5q159 -10 229 -84t54 -197
q-20 -151 -159.5 -236t-371.5 -85zM567 514q131 0 206.5 57.5t90.5 165.5q17 111 -44 173.5t-191 62.5q-127 0 -207.5 -63.5t-95.5 -172.5q-14 -106 49 -164.5t192 -58.5zM487 -244q319 0 342 197q9 75 -32 116.5t-144 47.5l-297 20q-59 5 -130.5 -51.5t-82.5 -134.5
q-13 -96 75.5 -145.5t268.5 -49.5z" />
    <glyph glyph-name="Hcircumflex" unicode="&#x124;" horiz-adv-x="1413" 
d="M1004 1688l-121 133l-170 -133h-154l270 221h107l211 -221h-143zM1081 698h-702l-94 -698h-148l201 1481h145l-86 -645h705l86 645h147l-200 -1481h-146z" />
    <glyph glyph-name="hcircumflex" unicode="&#x125;" horiz-adv-x="1150" 
d="M100 0l205 1520h141l-86 -631q121 99 211.5 143.5t188.5 44.5q151 0 219 -80.5t49 -220.5l-104 -776h-148l101 741q15 102 -29 158.5t-148 56.5q-84 0 -157.5 -37t-190.5 -128l-104 -791h-148zM938 1264l-123 133l-168 -133h-155l272 221h106l211 -221h-143z" />
    <glyph glyph-name="Hbar" unicode="&#x126;" horiz-adv-x="1413" 
d="M1495 1251l-12 -108h-256l-156 -1143h-147l94 698h-703l-94 -698h-147l153 1143h-125l13 108h127l30 230h148l-31 -230h705l30 230h148l-31 -230h254zM1038 836l41 307h-704l-41 -307h704z" />
    <glyph glyph-name="hbar" unicode="&#x127;" horiz-adv-x="1087" 
d="M698 1077q151 0 219.5 -80.5t49.5 -220.5l-105 -776h-147l100 741q15 102 -28.5 158.5t-147.5 56.5q-84 0 -157.5 -37t-190.5 -128l-105 -791h-147l166 1231h-66l15 100h65l25 189h141l-27 -189h385l-14 -100h-383l-47 -342q121 100 211 144t188 44z" />
    <glyph glyph-name="Itilde" unicode="&#x128;" horiz-adv-x="544" 
d="M741 1782q-75 -43 -163 -43q-55 0 -123.5 24.5t-106.5 24.5q-31 0 -56 -9t-48.5 -24t-36.5 -20l-25 96q77 57 158 57q50 0 125.5 -26.5t114.5 -26.5q28 0 52 9t49.5 23t41.5 19zM334 1481h145l-198 -1481h-148z" />
    <glyph glyph-name="itilde" unicode="&#x129;" horiz-adv-x="487" 
d="M649 1358q-80 -43 -164 -43q-55 0 -124 24.5t-107 24.5q-31 0 -55.5 -9t-48 -24t-37.5 -20l-25 96q77 57 158 57q49 0 124.5 -26.5t116.5 -26.5q28 0 52 9t49 23t41 19zM393 1057l-145 -1057h-148l144 1057h149z" />
    <glyph glyph-name="Imacron" unicode="&#x12a;" horiz-adv-x="542" 
d="M743 1872l-16 -113h-551l12 113h555zM334 1481h145l-198 -1481h-146z" />
    <glyph glyph-name="imacron" unicode="&#x12b;" horiz-adv-x="483" 
d="M647 1448l-16 -113h-551l14 113h553zM391 1057l-145 -1057h-148l144 1057h149z" />
    <glyph glyph-name="Ibreve" unicode="&#x12c;" horiz-adv-x="565" 
d="M756 1903q-37 -84 -120.5 -146.5t-195.5 -62.5q-113 0 -180.5 59t-73.5 150h115q1 -1 10 -17t13 -21t15 -19t20 -20t23 -14.5t31 -12t36 -3.5q42 0 79.5 19t57 38t45.5 50h125zM342 1481h145l-198 -1481h-148z" />
    <glyph glyph-name="ibreve" unicode="&#x12d;" horiz-adv-x="485" 
d="M664 1479q-37 -84 -120.5 -146.5t-195.5 -62.5q-113 0 -180.5 59t-73.5 150h115q2 -2 10.5 -17t12.5 -21t14.5 -19t20 -20t23 -15t30.5 -11.5t36 -3.5q32 0 60 9.5t51.5 27.5t38 32.5t33.5 37.5h125zM401 1057l-145 -1057h-147l143 1057h149z" />
    <glyph glyph-name="Iogonek" unicode="&#x12e;" horiz-adv-x="546" 
d="M49 -184q-5 -36 14.5 -54t69.5 -18q71 0 150 41l-13 -98q-79 -31 -174 -31t-139 45.5t-33 122.5q8 58 52 102.5t143 77.5l198 1477h146l-199 -1481h-18l14 -2q-106 -46 -155 -87t-56 -95z" />
    <glyph glyph-name="iogonek" unicode="&#x12f;" horiz-adv-x="489" 
d="M285 1481h161l-28 -228h-164zM221 0q-101 -42 -148 -82.5t-53 -93.5q-5 -38 14.5 -56t67.5 -18q73 0 152 41l-12 -98q-91 -31 -174 -31q-94 0 -138.5 45.5t-35.5 122.5q10 60 52.5 102.5t141.5 77.5l143 1047h148l-143 -1057h-15z" />
    <glyph glyph-name="Idotaccent" unicode="&#x130;" horiz-adv-x="561" 
d="M557 1905l-29 -228h-163l30 228h162zM338 1481h145l-198 -1481h-148z" />
    <glyph glyph-name="dotlessi" unicode="&#x131;" horiz-adv-x="501" 
d="M397 1057l-143 -1057h-148l144 1057h147z" />
    <glyph glyph-name="Jcircumflex" unicode="&#x134;" horiz-adv-x="727" 
d="M762 1688l-123 133l-170 -133h-154l273 221h104l211 -221h-141zM528 326q-23 -174 -97 -260t-232 -86q-67 0 -127.5 17.5t-91.5 33.5l36 147q3 -1 28.5 -15t39 -19.5t42.5 -12t58 -6.5q96 0 141 55.5t62 190.5l150 1110h147z" />
    <glyph glyph-name="jcircumflex" unicode="&#x135;" horiz-adv-x="448" 
d="M465 1264l-121 133l-170 -133h-154l271 221h106l211 -221h-143zM227 -72q-21 -144 -83.5 -206t-204.5 -62q-49 0 -81.5 6t-39.5 12l-8 5l14 100l108 4q72 4 106.5 42.5t45.5 119.5l149 1108h150z" />
    <glyph glyph-name="uni0136" unicode="&#x136;" horiz-adv-x="1335" 
d="M1190 0h-172l-359 782l-303 -307l-65 -475h-154l201 1481h151l-106 -799l784 799h185l-570 -584zM463 -475l98 151h-67l24 174h141l-22 -182l-109 -143h-65z" />
    <glyph glyph-name="uni0137" unicode="&#x137;" horiz-adv-x="1114" 
d="M965 0h-158l-258 563l-260 -246l-41 -317h-148l205 1520h148l-138 -1012l582 549h178l-416 -395zM346 -475l98 151h-67l24 174h142l-23 -182l-108 -143h-66z" />
    <glyph glyph-name="kgreenlandic" unicode="&#x138;" horiz-adv-x="1120" 
d="M971 0h-166l-242 567l-278 -256l-41 -311h-148l144 1057h147l-76 -565l596 565h180l-411 -381z" />
    <glyph glyph-name="Lacute" unicode="&#x139;" horiz-adv-x="1112" 
d="M682 1929l25 -127l-502 -157l-21 84zM330 1481h153l-180 -1340h690l-20 -141h-842z" />
    <glyph glyph-name="lacute" unicode="&#x13a;" horiz-adv-x="595" 
d="M659 2011l25 -129l-504 -156l-20 82zM334 -4q-55 0 -95 14.5t-62 39.5t-34 60t-11.5 76t5.5 86l168 1248h146l-168 -1237q-11 -85 14.5 -127.5t77.5 -44.5l57 -2l-14 -99q-54 -14 -84 -14z" />
    <glyph glyph-name="uni013B" unicode="&#x13b;" horiz-adv-x="1120" 
d="M338 1481h151l-178 -1340h688l-18 -141h-844zM406 -475l98 151h-66l25 174h141l-22 -182l-109 -143h-67z" />
    <glyph glyph-name="uni013C" unicode="&#x13c;" horiz-adv-x="612" 
d="M332 -4q-55 0 -95.5 14.5t-62.5 39.5t-34 60t-11.5 76t6.5 86l168 1248h146l-168 -1237q-11 -85 14.5 -127.5t77.5 -44.5l57 -2l-14 -99q-54 -14 -84 -14zM23 -475l98 151h-66l25 174h141l-24 -182l-107 -143h-67z" />
    <glyph glyph-name="Lcaron" unicode="&#x13d;" horiz-adv-x="1120" 
d="M338 1481h151l-178 -1340h688l-18 -141h-844zM778 1100l101 182l-43 8l24 191h135l-26 -203l-99 -178h-92z" />
    <glyph glyph-name="lcaron" unicode="&#x13e;" horiz-adv-x="620" 
d="M336 -4q-69 0 -114 22t-64 59.5t-25 88t4 106.5l168 1248h146l-166 -1237q-13 -85 13 -127.5t77 -44.5l59 -2l-16 -99q-51 -14 -82 -14zM498 1118l100 182l-43 9l25 190h135l-27 -203l-98 -178h-92z" />
    <glyph glyph-name="Ldot" unicode="&#x13f;" horiz-adv-x="1128" 
d="M338 1481h151l-178 -1340h688l-18 -141h-844zM1020 901l-27 -201h-202l26 201h203z" />
    <glyph glyph-name="ldot" unicode="&#x140;" horiz-adv-x="583" 
d="M336 -4q-69 0 -114 22t-64 59.5t-25 88t4 106.5l168 1248h146l-166 -1237q-13 -85 13 -127.5t77 -44.5l59 -2l-16 -99q-51 -14 -82 -14zM629 686l-27 -201h-205l29 201h203z" />
    <glyph glyph-name="Lslash" unicode="&#x141;" horiz-adv-x="1056" 
d="M248 141h690l-20 -141h-842l88 651l-96 -24l18 133l94 24l94 697h154l-88 -656l397 105l-16 -129l-399 -107z" />
    <glyph glyph-name="lslash" unicode="&#x142;" horiz-adv-x="501" 
d="M330 598l-43 -315q-13 -85 13 -127.5t77 -44.5l59 -2l-16 -99q-51 -14 -82 -14q-69 0 -114 22t-64 59.5t-25 88t4 106.5l27 195l-172 -137l22 153l170 135l123 902h144l-105 -775l217 173l-20 -148z" />
    <glyph glyph-name="Nacute" unicode="&#x143;" horiz-adv-x="1486" 
d="M1169 1929l25 -127l-504 -157l-20 84zM1262 1481h145l-199 -1481h-129l-630 1221l-164 -1221h-148l201 1481h137l623 -1213z" />
    <glyph glyph-name="nacute" unicode="&#x144;" horiz-adv-x="1146" 
d="M946 1505l27 -127l-504 -157l-20 84zM98 0l142 1057h141l-23 -168q122 100 210.5 144t189.5 44q148 0 217.5 -81.5t50.5 -217.5l-104 -778h-148l100 741q14 102 -31 158.5t-149 56.5q-85 0 -161.5 -38t-182.5 -125l-104 -793h-148z" />
    <glyph glyph-name="uni0145" unicode="&#x145;" horiz-adv-x="1486" 
d="M1262 1481h145l-199 -1481h-129l-630 1221l-164 -1221h-148l201 1481h137l623 -1213zM494 -475l98 151h-66l25 174h141l-22 -182l-109 -143h-67z" />
    <glyph glyph-name="uni0146" unicode="&#x146;" horiz-adv-x="1146" 
d="M98 0l142 1057h141l-23 -168q122 100 210.5 144t189.5 44q148 0 217.5 -81.5t50.5 -217.5l-104 -778h-148l100 741q14 102 -31 158.5t-149 56.5q-85 0 -161.5 -38t-182.5 -125l-104 -793h-148zM373 -475l98 151h-68l25 174h141l-22 -182l-109 -143h-65z" />
    <glyph glyph-name="Ncaron" unicode="&#x147;" horiz-adv-x="1486" 
d="M1085 1905h164l-268 -222h-107l-215 222h134l133 -131zM1262 1481h145l-199 -1481h-129l-630 1221l-164 -1221h-148l201 1481h137l623 -1213z" />
    <glyph glyph-name="ncaron" unicode="&#x148;" horiz-adv-x="1146" 
d="M862 1481h164l-266 -221h-107l-215 221h133l134 -131zM98 0l142 1057h141l-23 -168q122 100 210.5 144t189.5 44q148 0 217.5 -81.5t50.5 -217.5l-104 -778h-148l100 741q14 102 -31 158.5t-149 56.5q-85 0 -161.5 -38t-182.5 -125l-104 -793h-148z" />
    <glyph glyph-name="Eng" unicode="&#x14a;" horiz-adv-x="1484" 
d="M1407 1481l-209 -1536q-19 -148 -97 -221.5t-227 -73.5q-109 0 -198 43l29 119q89 -29 157 -29q80 0 124.5 42.5t57.5 139.5l13 86l-611 1149l-161 -1200h-148l201 1481h141l625 -1180l160 1180h143z" />
    <glyph glyph-name="eng" unicode="&#x14b;" horiz-adv-x="1163" 
d="M752 1077q147 0 220 -83.5t54 -219.5l-113 -829q-19 -140 -91.5 -212.5t-196.5 -72.5q-45 0 -75 5t-37 11l-7 5l16 98l101 6q67 4 100.5 42t42.5 120l106 782q32 229 -172 229q-146 0 -346 -174l-108 -784h-148l144 1057h139l-21 -150q124 96 212 133t180 37z" />
    <glyph glyph-name="Omacron" unicode="&#x14c;" horiz-adv-x="1472" 
d="M1180 1872l-17 -113h-553l15 113h555zM662 -20q-283 0 -416 196.5t-84 556.5q49 366 236.5 567t469.5 201q281 0 415 -200.5t85 -563.5q-51 -362 -237 -559.5t-469 -197.5zM684 115q215 0 348 153.5t174 466.5q42 317 -49.5 474t-304.5 157q-214 0 -349 -157.5
t-179 -473.5q-41 -312 52.5 -466t307.5 -154z" />
    <glyph glyph-name="omacron" unicode="&#x14d;" 
d="M973 1448l-15 -113h-552l14 113h553zM483 -20q-213 0 -315 148.5t-68 393.5q33 248 179 401.5t358 153.5q211 0 312.5 -152.5t68.5 -398.5q-31 -246 -175.5 -396t-359.5 -150zM506 92q149 0 243.5 121t118.5 315q27 194 -36 315.5t-214 121.5q-101 0 -180 -58.5
t-125 -155.5t-63 -223q-17 -125 3.5 -221.5t85 -155.5t167.5 -59z" />
    <glyph glyph-name="Obreve" unicode="&#x14e;" horiz-adv-x="1472" 
d="M1186 1903q-39 -84 -122 -146.5t-194 -62.5q-115 0 -182 59t-72 150h113q3 -4 13 -20.5t16 -24.5t19 -22t25.5 -21t32.5 -13t42 -6q98 0 182 107h127zM662 -20q-283 0 -416 196.5t-84 556.5q49 366 236.5 567t469.5 201q281 0 415 -200.5t85 -563.5q-51 -362 -237 -559.5
t-469 -197.5zM684 115q215 0 348 153.5t174 466.5q42 317 -49.5 474t-304.5 157q-214 0 -349 -157.5t-179 -473.5q-41 -312 52.5 -466t307.5 -154z" />
    <glyph glyph-name="obreve" unicode="&#x14f;" 
d="M979 1479q-37 -84 -120 -146.5t-195 -62.5q-113 0 -180.5 59t-73.5 150h114q3 -4 13 -20.5t16 -24.5t19 -22t25.5 -21t32.5 -13t42 -6q42 0 79.5 19t57 38t45.5 50h125zM483 -20q-213 0 -315 148.5t-68 393.5q33 248 179 401.5t358 153.5q211 0 312.5 -152.5t68.5 -398.5
q-31 -246 -175.5 -396t-359.5 -150zM506 92q149 0 243.5 121t118.5 315q27 194 -36 315.5t-214 121.5q-101 0 -180 -58.5t-125 -155.5t-63 -223q-17 -125 3.5 -221.5t85 -155.5t167.5 -59z" />
    <glyph glyph-name="Ohungarumlaut" unicode="&#x150;" horiz-adv-x="1472" 
d="M915 1929l74 -108l-317 -246l-49 72zM1221 1929l71 -108l-315 -246l-51 72zM662 -20q-283 0 -416 196.5t-84 556.5q49 366 236.5 567t469.5 201q281 0 415 -200.5t85 -563.5q-51 -362 -237 -559.5t-469 -197.5zM684 115q215 0 348 153.5t174 466.5q42 317 -49.5 474
t-304.5 157q-214 0 -349 -157.5t-179 -473.5q-41 -312 52.5 -466t307.5 -154z" />
    <glyph glyph-name="ohungarumlaut" unicode="&#x151;" 
d="M709 1505l73 -108l-315 -246l-51 72zM1014 1505l71 -108l-313 -246l-51 72zM483 -20q-213 0 -315 148.5t-68 393.5q33 248 179 401.5t358 153.5q211 0 312.5 -152.5t68.5 -398.5q-31 -246 -175.5 -396t-359.5 -150zM506 92q149 0 243.5 121t118.5 315q27 194 -36 315.5
t-214 121.5q-101 0 -180 -58.5t-125 -155.5t-63 -223q-17 -125 3.5 -221.5t85 -155.5t167.5 -59z" />
    <glyph glyph-name="OE" unicode="&#x152;" horiz-adv-x="2209" 
d="M2013 133l-16 -133h-864l10 215q-173 -235 -469 -235q-290 0 -425.5 199t-86.5 562q51 364 237 562t473 198q299 0 406 -244l47 224h846l-21 -133h-708l-72 -535h533l-19 -133h-530l-74 -547h733zM678 113q213 0 340 155t170 473q43 319 -39.5 473t-290.5 154
q-436 0 -524 -641q-40 -314 45.5 -464t298.5 -150z" />
    <glyph glyph-name="oe" unicode="&#x153;" horiz-adv-x="1970" 
d="M512 -20q-220 0 -333 151t-79 399q34 246 186 396.5t365 150.5q132 0 226 -64t133 -177q15 -20 34 12q71 107 178.5 168t229.5 61q216 0 320 -155t69 -426h-784q-20 -166 62.5 -282t217.5 -116q205 0 340 185l109 -66q-93 -123 -206 -180t-259 -57q-128 0 -222 61.5
t-136 169.5q-17 26 -37 -18q-76 -102 -182.5 -157.5t-231.5 -55.5zM1456 965q-143 0 -251 -105t-128 -264l635 2q18 152 -54 259.5t-202 107.5zM518 96q155 0 262 119t133 320q28 197 -45 312.5t-221 115.5q-154 0 -261.5 -120.5t-133.5 -324.5q-28 -195 43.5 -308.5
t222.5 -113.5z" />
    <glyph glyph-name="Racute" unicode="&#x154;" horiz-adv-x="1339" 
d="M1057 1929l24 -127l-501 -157l-21 84zM1124 0h-155l-181 662h-413l-90 -662h-148l201 1481h534q222 0 324 -101.5t76 -289.5q-11 -87 -45 -157.5t-83.5 -117t-100.5 -76.5t-109 -49zM717 793q364 0 403 284q18 137 -53.5 205t-224.5 68h-375l-74 -557h324z" />
    <glyph glyph-name="racute" unicode="&#x155;" horiz-adv-x="759" 
d="M768 1505l27 -127l-504 -157l-21 84zM98 0l144 1057h139l-29 -211q66 98 183.5 164.5t224.5 66.5l-19 -145q-144 7 -268.5 -81.5t-140.5 -193.5l-84 -657h-150z" />
    <glyph glyph-name="uni0156" unicode="&#x156;" horiz-adv-x="1339" 
d="M1124 0h-155l-181 662h-413l-90 -662h-148l201 1481h534q222 0 324 -101.5t76 -289.5q-11 -87 -45 -157.5t-83.5 -117t-100.5 -76.5t-109 -49zM717 793q364 0 403 284q18 137 -53.5 205t-224.5 68h-375l-74 -557h324zM455 -475l98 151h-68l25 174h141l-22 -182l-109 -143
h-65z" />
    <glyph glyph-name="uni0157" unicode="&#x157;" horiz-adv-x="749" 
d="M90 0l141 1057h140l-29 -211q66 98 183.5 164.5t224.5 66.5l-19 -145q-143 7 -268 -81.5t-139 -193.5l-86 -657h-148zM29 -475l98 151h-66l25 174h141l-22 -182l-109 -143h-67z" />
    <glyph glyph-name="Rcaron" unicode="&#x158;" horiz-adv-x="1339" 
d="M973 1905h164l-267 -222h-106l-215 222h133l133 -131zM1124 0h-155l-181 662h-413l-90 -662h-148l201 1481h534q222 0 324 -101.5t76 -289.5q-11 -87 -45 -157.5t-83.5 -117t-100.5 -76.5t-109 -49zM717 793q364 0 403 284q18 137 -53.5 205t-224.5 68h-375l-74 -557h324
z" />
    <glyph glyph-name="rcaron" unicode="&#x159;" horiz-adv-x="753" 
d="M674 1481h164l-267 -221h-106l-215 221h133l133 -131zM90 0l141 1057h140l-29 -211q66 98 183.5 164.5t224.5 66.5l-19 -145q-143 7 -268 -81.5t-141 -193.5l-84 -657h-148z" />
    <glyph glyph-name="Sacute" unicode="&#x15a;" horiz-adv-x="1300" 
d="M1057 1929l26 -127l-503 -157l-21 84zM580 -20q-359 0 -488 276l127 82q46 -79 89.5 -123t113 -69t170.5 -25q106 0 185 23.5t133 80.5t65 146q12 83 -27.5 145t-159.5 111l-280 108q-144 56 -201 148.5t-41 208.5q25 187 171 298t362 111q288 0 432 -221l-123 -88
q-111 172 -330 172q-147 0 -242 -67.5t-112 -188.5q-19 -167 182 -244l264 -94q160 -60 223 -155t42 -230q-25 -190 -173.5 -297.5t-381.5 -107.5z" />
    <glyph glyph-name="sacute" unicode="&#x15b;" horiz-adv-x="1060" 
d="M918 1505l26 -127l-504 -157l-20 84zM457 -20q-151 0 -259.5 66.5t-142.5 174.5l111 60q36 -86 115 -135.5t192 -49.5q99 0 192 53.5t103 122.5q8 60 -31.5 102t-140.5 75l-180 55q-136 41 -192 105t-42 155q17 140 137.5 226.5t292.5 86.5q132 0 225.5 -54t137.5 -149
l-109 -59q-35 69 -105 108.5t-169 39.5q-102 0 -181.5 -53t-88.5 -124q-8 -49 23.5 -85.5t131.5 -69.5l228 -78q228 -72 204 -266q-20 -135 -148 -221t-304 -86z" />
    <glyph glyph-name="Scircumflex" unicode="&#x15c;" horiz-adv-x="1300" 
d="M952 1688l-123 133l-167 -133h-156l272 221h105l213 -221h-144zM580 -20q-359 0 -488 276l127 82q46 -79 89.5 -123t113 -69t170.5 -25q106 0 185 23.5t133 80.5t65 146q12 83 -27.5 145t-159.5 111l-280 108q-144 56 -201 148.5t-41 208.5q25 187 171 298t362 111
q288 0 432 -221l-123 -88q-111 172 -330 172q-147 0 -242 -67.5t-112 -188.5q-19 -167 182 -244l264 -94q160 -60 223 -155t42 -230q-25 -190 -173.5 -297.5t-381.5 -107.5z" />
    <glyph glyph-name="scircumflex" unicode="&#x15d;" horiz-adv-x="1060" 
d="M815 1264l-121 133l-170 -133h-153l270 221h107l210 -221h-143zM457 -20q-151 0 -259.5 66.5t-142.5 174.5l111 60q36 -86 115 -135.5t192 -49.5q99 0 192 53.5t103 122.5q8 60 -31.5 102t-140.5 75l-180 55q-136 41 -192 105t-42 155q17 140 137.5 226.5t292.5 86.5
q132 0 225.5 -54t137.5 -149l-109 -59q-35 69 -105 108.5t-169 39.5q-102 0 -181.5 -53t-88.5 -124q-8 -49 23.5 -85.5t131.5 -69.5l228 -78q228 -72 204 -266q-20 -135 -148 -221t-304 -86z" />
    <glyph glyph-name="Scedilla" unicode="&#x15e;" horiz-adv-x="1300" 
d="M870 770q160 -60 223 -155t42 -230q-25 -183 -165.5 -290t-361.5 -115l-47 -95q88 -6 121.5 -49.5t26.5 -105.5q-10 -69 -73 -107.5t-149 -38.5q-107 0 -172 62l33 53q48 -41 121 -41q56 0 89 23t38 63q6 44 -26 63t-111 21q-10 0 -14.5 5t-2.5 11l76 138
q-309 21 -426 274l127 82q46 -79 89.5 -123t113 -69t170.5 -25q106 0 185 23.5t133 80.5t65 146q12 83 -27.5 145t-159.5 111l-280 108q-144 56 -201 148.5t-41 208.5q25 187 171 298t362 111q288 0 432 -221l-123 -88q-111 172 -330 172q-147 0 -242 -67.5t-112 -188.5
q-19 -167 182 -244z" />
    <glyph glyph-name="scedilla" unicode="&#x15f;" horiz-adv-x="1060" 
d="M705 553q228 -72 204 -266q-20 -135 -148 -221t-304 -86h-21l-49 -99q88 -6 121.5 -49.5t26.5 -105.5q-10 -69 -73 -107.5t-149 -38.5q-104 0 -172 62l33 53q48 -41 121 -41q56 0 89.5 23t39.5 63q6 44 -26.5 63t-110.5 21q-11 0 -15.5 5t-1.5 11l82 148
q-113 22 -191 83.5t-106 149.5l111 60q36 -86 115 -135.5t192 -49.5q99 0 192 53.5t103 122.5q8 60 -31.5 102t-140.5 75l-180 55q-136 41 -192 105t-42 155q17 140 137.5 226.5t292.5 86.5q132 0 225.5 -54t137.5 -149l-109 -59q-35 69 -105 108.5t-169 39.5
q-102 0 -181.5 -53t-88.5 -124q-8 -49 23.5 -85.5t131.5 -69.5z" />
    <glyph glyph-name="Scaron" unicode="&#x160;" horiz-adv-x="1300" 
d="M973 1905h164l-267 -222h-106l-215 222h133l133 -131zM580 -20q-359 0 -488 276l127 82q46 -79 89.5 -123t113 -69t170.5 -25q106 0 185 23.5t133 80.5t65 146q12 83 -27.5 145t-159.5 111l-280 108q-144 56 -201 148.5t-41 208.5q25 187 171 298t362 111q288 0 432 -221
l-123 -88q-111 172 -330 172q-147 0 -242 -67.5t-112 -188.5q-19 -167 182 -244l264 -94q160 -60 223 -155t42 -230q-25 -190 -173.5 -297.5t-381.5 -107.5z" />
    <glyph glyph-name="scaron" unicode="&#x161;" horiz-adv-x="1060" 
d="M834 1481h163l-266 -221h-106l-215 221h133l133 -131zM457 -20q-151 0 -259.5 66.5t-142.5 174.5l111 60q36 -86 115 -135.5t192 -49.5q99 0 192 53.5t103 122.5q8 60 -31.5 102t-140.5 75l-180 55q-136 41 -192 105t-42 155q17 140 137.5 226.5t292.5 86.5
q132 0 225.5 -54t137.5 -149l-109 -59q-35 69 -105 108.5t-169 39.5q-102 0 -181.5 -53t-88.5 -124q-8 -49 23.5 -85.5t131.5 -69.5l228 -78q228 -72 204 -266q-20 -135 -148 -221t-304 -86z" />
    <glyph glyph-name="uni0162" unicode="&#x162;" 
d="M166 1481h1055l-19 -144h-438l-180 -1337h-23l-57 -115q87 -6 120.5 -49.5t24.5 -105.5q-10 -69 -71.5 -107.5t-147.5 -38.5q-106 0 -174 62l33 53q51 -41 121 -41q116 0 129 86q6 44 -26.5 63t-111.5 21q-20 0 -16 16l86 156h-35l180 1337h-471z" />
    <glyph glyph-name="uni0163" unicode="&#x163;" horiz-adv-x="790" 
d="M510 944l-90 -682q-11 -90 9.5 -121.5t74.5 -31.5h149l-14 -97q-29 -12 -139 -16l-56 -111q87 -6 121 -50t25 -105q-10 -69 -72 -107.5t-149 -38.5q-104 0 -172 62l32 53q48 -41 121 -41q116 0 129 86q6 44 -26 63t-111 21q-20 0 -16 16l86 156q-93 14 -124.5 74.5
t-17.5 175.5l95 694h-195l16 113h197l61 354h129l-47 -354h246l-16 -113h-246z" />
    <glyph glyph-name="Tcaron" unicode="&#x164;" 
d="M907 1905h162l-266 -222h-107l-215 222h133l134 -131zM145 1337l21 144h1055l-19 -144h-438l-180 -1337h-148l180 1337h-471z" />
    <glyph glyph-name="tcaron" unicode="&#x165;" horiz-adv-x="772" 
d="M692 1151l101 184l-45 8l26 191h133l-26 -203l-97 -180h-92zM756 944h-246l-90 -682q-11 -90 9.5 -121.5t74.5 -31.5h149l-14 -97q-43 -16 -156 -16q-138 0 -184.5 60t-28.5 194l95 694h-195l16 113h197l61 354h129l-47 -354h246z" />
    <glyph glyph-name="Tbar" unicode="&#x166;" 
d="M1202 1337h-438l-72 -526h357l-19 -127h-354l-92 -684h-148l92 684h-229l16 127h230l71 526h-471l21 144h1055z" />
    <glyph glyph-name="tbar" unicode="&#x167;" horiz-adv-x="763" 
d="M752 944h-246l-41 -305h160l-15 -100h-159l-37 -277q-11 -90 10 -121.5t76 -31.5h147l-14 -97q-43 -16 -154 -16q-140 0 -186 60t-27 194l39 289h-196l12 100h196l41 305h-194l16 113h197l63 354h127l-47 -354h246z" />
    <glyph glyph-name="Utilde" unicode="&#x168;" horiz-adv-x="1415" 
d="M1165 1782q-75 -43 -164 -43q-53 0 -122 24.5t-107 24.5q-31 0 -56 -9t-48.5 -24t-36.5 -20l-25 96q77 57 158 57q50 0 126 -26.5t116 -26.5q36 0 86 24.5t55 26.5zM1212 492q-69 -512 -573 -512q-261 0 -363.5 133t-66.5 403l129 965h154l-134 -996q-26 -185 50 -278.5
t249 -93.5q355 0 410 372l131 996h148z" />
    <glyph glyph-name="utilde" unicode="&#x169;" horiz-adv-x="1146" 
d="M961 1358q-80 -43 -164 -43q-55 0 -123.5 24.5t-106.5 24.5q-32 0 -56.5 -9t-48 -24t-36.5 -20l-27 96q80 57 158 57q50 0 126.5 -26.5t115.5 -26.5q37 0 86.5 24.5t54.5 26.5zM414 -18q-147 1 -221.5 84t-57.5 219l105 776h147l-100 -742q-15 -105 29 -163t149 -58
q87 0 158.5 38t185.5 130l106 795h148l-143 -1059h-119l10 164q-121 -98 -211.5 -141.5t-185.5 -42.5z" />
    <glyph glyph-name="Umacron" unicode="&#x16a;" horiz-adv-x="1415" 
d="M1167 1872l-16 -113h-553l14 113h555zM1212 492q-69 -512 -573 -512q-261 0 -363.5 133t-66.5 403l129 965h154l-134 -996q-26 -185 50 -278.5t249 -93.5q355 0 410 372l131 996h148z" />
    <glyph glyph-name="umacron" unicode="&#x16b;" horiz-adv-x="1146" 
d="M963 1448l-17 -113h-553l15 113h555zM414 -18q-147 1 -221.5 84t-57.5 219l105 776h147l-100 -742q-15 -105 29 -163t149 -58q87 0 158.5 38t185.5 130l106 795h148l-143 -1059h-119l10 164q-121 -98 -211.5 -141.5t-185.5 -42.5z" />
    <glyph glyph-name="Ubreve" unicode="&#x16c;" horiz-adv-x="1415" 
d="M1174 1903q-37 -84 -120.5 -146.5t-195.5 -62.5q-113 0 -180.5 59t-73.5 150h115q1 -1 15 -24t21.5 -31t24.5 -23.5t38 -22t48 -6.5q32 0 60 9.5t51.5 27.5t38 32.5t33.5 37.5h125zM1212 492q-69 -512 -573 -512q-261 0 -363.5 133t-66.5 403l129 965h154l-134 -996
q-26 -185 50 -278.5t249 -93.5q355 0 410 372l131 996h148z" />
    <glyph glyph-name="ubreve" unicode="&#x16d;" horiz-adv-x="1146" 
d="M967 1479q-37 -84 -120.5 -146.5t-195.5 -62.5q-113 0 -180.5 59t-73.5 150h115q1 -1 15 -24t21.5 -31t24.5 -23.5t38 -22t48 -6.5q32 0 60 9.5t51.5 27.5t38 32.5t33.5 37.5h125zM414 -18q-147 1 -221.5 84t-57.5 219l105 776h147l-100 -742q-15 -105 29 -163t149 -58
q87 0 158.5 38t185.5 130l106 795h148l-143 -1059h-119l10 164q-121 -98 -211.5 -141.5t-185.5 -42.5z" />
    <glyph glyph-name="Uring" unicode="&#x16e;" horiz-adv-x="1415" 
d="M1083 1808q-12 -86 -74.5 -141t-146.5 -55q-86 0 -136 62.5t-38 154.5q9 79 73.5 134.5t143.5 55.5q86 0 137.5 -61t40.5 -150zM989 1823q7 47 -17 75.5t-69 28.5q-46 0 -85 -34.5t-46 -86.5q-4 -41 22.5 -72.5t65.5 -31.5q48 0 85.5 36t43.5 85zM1212 492
q-69 -512 -573 -512q-261 0 -363.5 133t-66.5 403l129 965h154l-134 -996q-26 -185 50 -278.5t249 -93.5q355 0 410 372l131 996h148z" />
    <glyph glyph-name="uring" unicode="&#x16f;" horiz-adv-x="1146" 
d="M877 1384q-12 -86 -75 -141t-147 -55q-86 0 -136 62.5t-38 154.5q9 79 73.5 134.5t143.5 55.5q86 0 138 -61t41 -150zM782 1399q7 47 -17 75.5t-69 28.5q-46 0 -85 -34.5t-46 -86.5q-4 -41 22.5 -72.5t65.5 -31.5q48 0 85.5 36t43.5 85zM414 -18q-147 1 -221.5 84
t-57.5 219l105 776h147l-100 -742q-15 -105 29 -163t149 -58q87 0 158.5 38t185.5 130l106 795h148l-143 -1059h-119l10 164q-121 -98 -211.5 -141.5t-185.5 -42.5z" />
    <glyph glyph-name="Uhungarumlaut" unicode="&#x170;" horiz-adv-x="1415" 
d="M903 1929l74 -108l-318 -246l-49 72zM1208 1929l72 -108l-315 -246l-52 72zM1212 492q-69 -512 -573 -512q-261 0 -363.5 133t-66.5 403l129 965h154l-134 -996q-26 -185 50 -278.5t249 -93.5q355 0 410 372l131 996h148z" />
    <glyph glyph-name="uhungarumlaut" unicode="&#x171;" horiz-adv-x="1146" 
d="M696 1505l74 -108l-315 -246l-52 72zM1001 1505l72 -108l-313 -246l-51 72zM414 -18q-147 1 -221.5 84t-57.5 219l105 776h147l-100 -742q-15 -105 29 -163t149 -58q87 0 158.5 38t185.5 130l106 795h148l-143 -1059h-119l10 164q-121 -98 -211.5 -141.5t-185.5 -42.5z
" />
    <glyph glyph-name="Uogonek" unicode="&#x172;" horiz-adv-x="1415" 
d="M1198 1481h148l-134 -989q-60 -440 -436 -502q-93 -42 -137 -81.5t-51 -90.5q-5 -36 14.5 -54t69.5 -18q70 0 149 41l-12 -98q-79 -31 -174 -31t-139 45.5t-33 122.5q13 100 131 156q-235 10 -327 143t-58 391l129 965h154l-134 -996q-26 -185 50 -278.5t249 -93.5
q355 0 410 372z" />
    <glyph glyph-name="uogonek" unicode="&#x173;" horiz-adv-x="1148" 
d="M698 -180q-5 -36 15 -54t69 -18q67 0 152 41l-14 -98q-76 -31 -172 -31t-141 45.5t-34 122.5q8 64 59 109.5t169 82.5h2l8 146q-121 -98 -211.5 -141.5t-185.5 -42.5q-147 1 -221.5 84t-57.5 219l105 776h147l-100 -742q-15 -105 29 -163t149 -58q87 0 158.5 38
t185.5 130l106 795h148l-143 -1059h-9q-108 -46 -157 -86.5t-56 -95.5z" />
    <glyph glyph-name="Wcircumflex" unicode="&#x174;" horiz-adv-x="1873" 
d="M1245 1688l-121 133l-170 -133h-153l270 221h107l211 -221h-144zM1954 1481l-611 -1481h-149l-164 1212l-493 -1212h-144l-207 1481h150l166 -1252l506 1252h120l170 -1252l506 1252h150z" />
    <glyph glyph-name="wcircumflex" unicode="&#x175;" horiz-adv-x="1572" 
d="M1034 1264l-121 133l-170 -133h-153l270 221h107l211 -221h-144zM1569 1057l-451 -1057h-145l-142 831l-352 -831h-149l-178 1057h145l139 -869l369 869h119l147 -867l363 867h135z" />
    <glyph glyph-name="Ycircumflex" unicode="&#x176;" horiz-adv-x="1142" 
d="M879 1688l-121 133l-170 -133h-154l271 221h106l211 -221h-143zM1257 1481l-591 -848l-86 -633h-146l86 635l-368 846h155l303 -713l488 713h159z" />
    <glyph glyph-name="ycircumflex" unicode="&#x177;" horiz-adv-x="1052" 
d="M788 1264l-120 133l-170 -133h-154l270 221h107l211 -221h-144zM137 -338q-51 0 -87.5 6t-47.5 12l-10 5l14 98l109 -2q94 -1 143 32.5t78 90.5l57 114l-258 1039h150l202 -862l435 862h141l-590 -1163q-68 -126 -149.5 -179t-186.5 -53z" />
    <glyph glyph-name="Ydieresis" unicode="&#x178;" horiz-adv-x="1142" 
d="M705 1905l-29 -215h-150l31 215h148zM973 1905l-27 -215h-149l28 215h148zM1257 1481l-591 -848l-86 -633h-146l86 635l-368 846h155l303 -713l488 713h159z" />
    <glyph glyph-name="Zacute" unicode="&#x179;" horiz-adv-x="1218" 
d="M1030 1929l27 -127l-504 -157l-21 84zM37 0l12 90l965 1256h-768l18 135h973l-10 -86l-977 -1260h803l-19 -135h-997z" />
    <glyph glyph-name="zacute" unicode="&#x17a;" horiz-adv-x="964" 
d="M854 1505l27 -127l-504 -157l-21 84zM16 0l15 102l717 848h-562l15 107h733l-12 -105l-717 -843h614l-14 -109h-789z" />
    <glyph glyph-name="Zdotaccent" unicode="&#x17b;" horiz-adv-x="1218" 
d="M895 1905l-29 -228h-164l31 228h162zM37 0l12 90l965 1256h-768l18 135h973l-10 -86l-977 -1260h803l-19 -135h-997z" />
    <glyph glyph-name="zdotaccent" unicode="&#x17c;" horiz-adv-x="964" 
d="M719 1481l-29 -228h-164l31 228h162zM16 0l15 102l717 848h-562l15 107h733l-12 -105l-717 -843h614l-14 -109h-789z" />
    <glyph glyph-name="Zcaron" unicode="&#x17d;" horiz-adv-x="1218" 
d="M948 1905h164l-268 -222h-105l-217 222h135l131 -131zM37 0l12 90l965 1256h-768l18 135h973l-10 -86l-977 -1260h803l-19 -135h-997z" />
    <glyph glyph-name="zcaron" unicode="&#x17e;" horiz-adv-x="964" 
d="M770 1481h164l-268 -221h-105l-217 221h135l131 -131zM16 0l15 102l717 848h-562l15 107h733l-12 -105l-717 -843h614l-14 -109h-789z" />
    <glyph glyph-name="uni018F" unicode="&#x18f;" horiz-adv-x="1468" 
d="M1188 778q7 52 10 101t-0.5 108.5t-15 110t-37 100t-62.5 84t-95.5 55.5t-133.5 21q-81 0 -149.5 -23t-112.5 -56t-83 -81t-58.5 -84.5t-41.5 -81t-30 -57.5l-150 69q3 4 23 40.5t30 53t36 56.5t45.5 63t53.5 59.5t64.5 58.5t74.5 49t88.5 41.5t100 25t115.5 10.5
q98 0 178.5 -24.5t136 -66.5t96.5 -101t63.5 -126.5t33 -145t9 -153.5t-12.5 -155q-16 -118 -52 -225.5t-95.5 -204t-137 -167t-183.5 -111.5t-228 -41q-110 0 -197.5 29t-145 81.5t-97.5 126t-55.5 162t-18 190t13.5 209.5h1020zM1171 655l-837 -4q-11 -64 -8.5 -128.5
t11.5 -124t35.5 -111.5t64.5 -90t98.5 -60t136.5 -22q95 0 173 31t131.5 81t94 122t63.5 146t37 160z" />
    <glyph glyph-name="florin" unicode="&#x192;" horiz-adv-x="843" 
d="M772 1057l-35 -113h-258l-311 -1026q-76 -258 -311 -258h-154l31 109l110 2q71 2 113 41t68 129l305 1003h-164l37 113h162l53 172q74 252 311 252h180l-35 -111h-145q-55 0 -102.5 -44.5t-67.5 -113.5l-47 -155h260z" />
    <glyph glyph-name="Ohorn" unicode="&#x1a0;" horiz-adv-x="1400" 
d="M1149 1430q139 -84 196.5 -261.5t22.5 -431.5q-51 -362 -237 -559.5t-469 -197.5t-416 196.5t-84 556.5q49 366 236.5 567t469.5 201q78 0 138 -14v4q102 0 153 121h125q-34 -120 -135 -182zM1206 735q42 317 -49.5 474t-304.5 157q-214 0 -349 -157.5t-179 -473.5
q-41 -312 52.5 -466t307.5 -154q215 0 348 153.5t174 466.5z" />
    <glyph glyph-name="ohorn" unicode="&#x1a1;" horiz-adv-x="1128" 
d="M897 985q78 -72 109.5 -191t11.5 -268q-31 -246 -175.5 -396t-359.5 -150q-213 0 -315 148.5t-68 393.5q33 248 179 401.5t358 153.5q75 0 143 -22q93 5 144 121h125q-42 -135 -152 -191zM868 528q27 194 -36 315.5t-214 121.5q-101 0 -180 -58.5t-125 -155.5t-63 -223
q-17 -125 3.5 -221.5t85 -155.5t167.5 -59q149 0 243.5 121t118.5 315z" />
    <glyph glyph-name="Uhorn" unicode="&#x1af;" horiz-adv-x="1351" 
d="M1602 1614q-25 -90 -94 -153t-175 -70l-121 -899q-69 -512 -573 -512q-261 0 -363.5 133t-66.5 403l129 965h154l-134 -996q-26 -185 50 -278.5t249 -93.5q355 0 410 372l131 996h123l2 12q103 0 154 121h125z" />
    <glyph glyph-name="uhorn" unicode="&#x1b0;" horiz-adv-x="1140" 
d="M1272 1176q-24 -78 -80.5 -138.5t-142.5 -79.5l-129 -956h-119l10 164q-121 -98 -211.5 -141.5t-185.5 -42.5q-147 1 -221.5 84t-57.5 219l105 776h147l-100 -742q-15 -105 29 -163t149 -58q87 0 158.5 38t185.5 130l106 795h123q70 20 109 115h125z" />
    <glyph glyph-name="uni01EA" unicode="&#x1ea;" horiz-adv-x="1472" 
d="M868 1501q281 0 415 -200.5t85 -563.5q-44 -314 -192 -506t-375 -237q-99 -42 -146 -82.5t-53 -93.5q-6 -37 13.5 -55.5t68.5 -18.5q73 0 152 41l-15 -98q-86 -31 -172 -31q-94 0 -138.5 45.5t-35.5 122.5q16 100 135 158q-257 17 -376 212.5t-72 538.5q49 366 236.5 567
t469.5 201zM1206 735q42 317 -49.5 474t-304.5 157q-214 0 -349 -157.5t-179 -473.5q-41 -312 52.5 -466t307.5 -154q215 0 348 153.5t174 466.5z" />
    <glyph glyph-name="uni01EB" unicode="&#x1eb;" 
d="M637 1077q211 0 312.5 -152.5t68.5 -398.5q-25 -198 -126.5 -337.5t-256.5 -186.5l8 -2q-105 -44 -154.5 -85t-56.5 -95q-5 -38 14.5 -56t69.5 -18q71 0 150 41l-13 -98q-91 -31 -174 -31q-95 0 -139 45.5t-33 122.5q13 100 131 156q-190 17 -280.5 164t-57.5 376
q33 248 179 401.5t358 153.5zM868 528q27 194 -36 315.5t-214 121.5q-101 0 -180 -58.5t-125 -155.5t-63 -223q-17 -125 3.5 -221.5t85 -155.5t167.5 -59q149 0 243.5 121t118.5 315z" />
    <glyph glyph-name="Aringacute" unicode="&#x1fa;" horiz-adv-x="1308" 
d="M887 1430l274 -1430h-170l-84 434h-557l-203 -434h-151l668 1434q-36 28 -52.5 74.5t-9.5 101.5q9 71 64.5 123.5t126.5 60.5l47 129h133l-82 -141q53 -24 81 -76t19 -117q-15 -106 -104 -159zM684 1587q-5 -41 21.5 -72.5t66.5 -31.5q47 0 85 36.5t44 84.5q6 46 -18 75
t-68 29q-46 0 -85.5 -34.5t-45.5 -86.5zM406 571h481l-139 742z" />
    <glyph glyph-name="aringacute" unicode="&#x1fb;" 
d="M426 1221l-20 84l73 30q-6 31 0 70q9 81 72.5 135.5t142.5 54.5q59 0 103 -29t65 -77l41 16l27 -127l-64 -20q-20 -76 -78.5 -123t-134.5 -47q-87 0 -135 61zM563 1384v-16l213 86q-22 49 -84 49q-46 0 -84.5 -34t-44.5 -85zM651 1280q49 0 88 39l-112 -35q16 -4 24 -4z
M635 1077q184 0 270 -90t64 -250l-99 -737h-127l13 164q-163 -184 -387 -184q-151 0 -230 80.5t-59 220.5q23 173 145.5 251t388.5 97l201 16l10 80q15 110 -43 176t-170 66q-181 0 -319 -181l-115 37q76 116 193.5 185t263.5 69zM774 346l27 201l-168 -12
q-209 -18 -300 -68.5t-108 -173.5q-15 -92 41 -145.5t158 -53.5q115 0 226.5 78.5t123.5 173.5z" />
    <glyph glyph-name="AEacute" unicode="&#x1fc;" horiz-adv-x="1988" 
d="M1747 1929l27 -127l-504 -157l-21 84zM1794 133l-16 -133h-875l62 434h-490l-293 -434h-162l1000 1481h932l-21 -133h-680l-69 -535h520l-21 -133h-518l-69 -547h700zM983 571l104 783l-532 -783h428z" />
    <glyph glyph-name="aeacute" unicode="&#x1fd;" horiz-adv-x="1853" 
d="M1253 1505l25 -127l-504 -157l-20 84zM940 494q-11 -99 22 -190.5t102.5 -149.5t156.5 -58q63 0 116 15.5t95 45.5t69.5 57.5t61.5 68.5l104 -66q-78 -113 -199 -175t-266 -62q-63 0 -118 15t-91.5 37t-69 54.5t-51 59t-36.5 59.5q-3 3 -8 -1.5t-7 -10.5
q-45 -45 -80.5 -74.5t-93 -65.5t-128 -54.5t-152.5 -18.5q-153 0 -229.5 82t-57.5 221q45 303 522 342l219 18l10 84q17 115 -41 177.5t-178 62.5q-164 0 -307 -183l-127 54q76 116 191.5 177.5t263.5 61.5q274 0 315 -203q142 203 393 203q208 0 314.5 -153.5t70.5 -427.5z
M1335 967q-140 0 -248 -103t-129 -268h641q19 154 -57 262.5t-207 108.5zM805 539l-174 -13q-183 -15 -286 -78.5t-116 -171.5q-12 -88 38 -138t153 -46q136 6 241.5 81t118.5 177z" />
    <glyph glyph-name="Oslashacute" unicode="&#x1fe;" horiz-adv-x="1417" 
d="M1112 1929l27 -127l-504 -157l-21 84zM61 -29l-84 95l201 194q-85 194 -43 481q49 363 234 561.5t465 198.5q268 0 399 -182l182 186l84 -94l-205 -199q86 -188 43 -483q-47 -358 -232 -553.5t-466 -195.5q-266 0 -399 178zM322 391l800 823q-82 152 -295 152
q-422 0 -512 -618q-30 -215 7 -357zM649 115q212 0 339 152.5t171 465.5q28 218 -8 350l-799 -819q83 -149 297 -149z" />
    <glyph glyph-name="oslashacute" unicode="&#x1ff;" horiz-adv-x="1132" 
d="M930 1378l-502 -157l-20 84l497 200zM1153 987l-184 -164q42 -121 20 -297q-33 -246 -177 -396t-357 -150q-192 0 -295 122l-127 -112l-62 78l135 120q-62 132 -34 334q33 249 177.5 402t356.5 153q215 0 320 -159l164 145zM221 528q-18 -130 6 -233l588 524
q-63 146 -225 146q-152 0 -247.5 -121.5t-121.5 -315.5zM840 528q14 92 4 183l-576 -512q70 -107 207 -107q150 0 244.5 121t120.5 315z" />
    <glyph glyph-name="uni0200" unicode="&#x200;" horiz-adv-x="1394" 
d="M565 1931l223 -297l-51 -57l-260 260zM868 1931l224 -297l-54 -57l-260 260zM20 0l719 1481h172l316 -1481h-152l-88 428h-606l-209 -428h-152zM440 571h525l-160 758z" />
    <glyph glyph-name="uni0201" unicode="&#x201;" 
d="M362 1507l226 -297l-53 -57l-261 260zM666 1507l223 -297l-53 -57l-261 260zM369 -20q-151 0 -230 80.5t-59 220.5q23 173 145.5 251t388.5 97l201 16l10 80q15 110 -43 176t-170 66q-181 0 -319 -181l-115 37q76 116 193.5 185t263.5 69q184 0 270 -90t64 -250l-99 -737
h-127l13 164q-163 -184 -387 -184zM424 94q115 0 226.5 78.5t123.5 173.5l27 201l-168 -12q-209 -18 -300 -68.5t-108 -173.5q-15 -92 41 -145.5t158 -53.5z" />
    <glyph glyph-name="uni0202" unicode="&#x202;" horiz-adv-x="1394" 
d="M553 1696q35 85 115 147t192 62t180.5 -59t79.5 -150h-114q-15 26 -21 35.5t-25 31t-44 30.5t-58 9q-112 0 -178 -106h-127zM20 0l719 1481h172l316 -1481h-152l-88 428h-606l-209 -428h-152zM440 571h525l-160 758z" />
    <glyph glyph-name="uni0203" unicode="&#x203;" horiz-adv-x="1122" 
d="M358 1272q35 86 114.5 147.5t191.5 61.5q114 0 182.5 -59t79.5 -150h-117q-1 2 -7 12.5t-8 14.5t-8.5 14t-10.5 14.5t-12 13t-14.5 12.5t-16 9.5t-19.5 8.5t-22.5 5t-26.5 2q-111 0 -181 -106h-125zM369 -20q-151 0 -230 80.5t-59 220.5q23 173 145.5 251t388.5 97
l201 16l10 80q15 110 -43 176t-170 66q-181 0 -319 -181l-115 37q76 116 193.5 185t263.5 69q184 0 270 -90t64 -250l-99 -737h-127l13 164q-163 -184 -387 -184zM424 94q115 0 226.5 78.5t123.5 173.5l27 201l-168 -12q-209 -18 -300 -68.5t-108 -173.5q-15 -92 41 -145.5
t158 -53.5z" />
    <glyph glyph-name="uni0204" unicode="&#x204;" horiz-adv-x="1241" 
d="M526 1931l224 -297l-52 -57l-260 260zM829 1931l224 -297l-54 -57l-260 260zM137 0l201 1481h868l-18 -138h-721l-72 -528h656l-17 -135h-657l-72 -541l744 -2l-19 -137h-893z" />
    <glyph glyph-name="uni0205" unicode="&#x205;" horiz-adv-x="1126" 
d="M377 1507l225 -297l-53 -57l-260 260zM680 1507l223 -297l-53 -57l-260 260zM254 485q-23 -169 47 -279t227 -110q100 0 170.5 44t124.5 128l119 -39q-70 -123 -181.5 -186t-246.5 -63q-214 0 -327 144t-78 394q34 257 177 408t357 151q206 0 303.5 -140t63.5 -382
l-13 -70h-743zM272 604h600q23 162 -39.5 261.5t-207.5 99.5q-78 0 -142.5 -31t-107 -83t-68.5 -115t-35 -132z" />
    <glyph glyph-name="uni0206" unicode="&#x206;" horiz-adv-x="1241" 
d="M514 1696q35 85 115 147t192 62t180.5 -59t79.5 -150h-114q-15 26 -21 35.5t-25 31t-44 30.5t-58 9q-112 0 -178 -106h-127zM137 0l201 1481h868l-18 -138h-721l-72 -528h656l-17 -135h-657l-72 -541l744 -2l-19 -137h-893z" />
    <glyph glyph-name="uni0207" unicode="&#x207;" horiz-adv-x="1126" 
d="M373 1272q35 86 114 147.5t191 61.5q114 0 182.5 -59t79.5 -150h-117q-1 2 -7 12.5t-8 14.5t-8.5 14t-10.5 14.5t-12 13t-14.5 12.5t-16 9.5t-19.5 8.5t-22.5 5t-26.5 2q-110 0 -180 -106h-125zM254 485q-23 -169 47 -279t227 -110q100 0 170.5 44t124.5 128l119 -39
q-70 -123 -181.5 -186t-246.5 -63q-214 0 -327 144t-78 394q34 257 177 408t357 151q206 0 303.5 -140t63.5 -382l-13 -70h-743zM272 604h600q23 162 -39.5 261.5t-207.5 99.5q-78 0 -142.5 -31t-107 -83t-68.5 -115t-35 -132z" />
    <glyph glyph-name="uni0208" unicode="&#x208;" horiz-adv-x="565" 
d="M154 1931l223 -297l-53 -57l-261 260zM457 1931l223 -297l-53 -57l-262 260zM340 1481h145l-198 -1481h-148z" />
    <glyph glyph-name="uni0209" unicode="&#x209;" horiz-adv-x="475" 
d="M43 1507l223 -297l-51 -57l-260 260zM346 1507l223 -297l-53 -57l-260 260zM381 1057l-145 -1057h-148l143 1057h150z" />
    <glyph glyph-name="uni020A" unicode="&#x20a;" horiz-adv-x="565" 
d="M143 1696q35 85 115 147t191 62q114 0 182.5 -59t79.5 -150h-115q-2 3 -9.5 16t-11 18t-12 17t-15 17.5t-18 14.5t-22.5 13t-26.5 7t-32.5 3q-111 0 -181 -106h-125zM340 1481h147l-200 -1481h-146z" />
    <glyph glyph-name="uni020B" unicode="&#x20b;" horiz-adv-x="483" 
d="M72 1272q35 85 114.5 147t190.5 62q114 0 182.5 -59t79.5 -150h-115q-2 3 -9.5 16t-11 18t-12 17t-15 17.5t-18 14.5t-22.5 13t-26.5 7t-32.5 3q-112 0 -178 -106h-127zM416 1057l-146 -1057h-147l143 1057h150z" />
    <glyph glyph-name="uni020C" unicode="&#x20c;" horiz-adv-x="1472" 
d="M584 1931l225 -297l-53 -57l-260 260zM889 1931l221 -297l-53 -57l-260 260zM662 -20q-283 0 -416 196.5t-84 556.5q49 366 236.5 567t469.5 201q281 0 415 -200.5t85 -563.5q-51 -362 -237 -559.5t-469 -197.5zM684 115q215 0 348 153.5t174 466.5q42 317 -49.5 474
t-304.5 157q-214 0 -349 -157.5t-179 -473.5q-41 -312 52.5 -466t307.5 -154z" />
    <glyph glyph-name="uni020D" unicode="&#x20d;" 
d="M379 1507l223 -297l-51 -57l-260 260zM682 1507l223 -297l-53 -57l-260 260zM483 -20q-213 0 -315 148.5t-68 393.5q33 248 179 401.5t358 153.5q211 0 312.5 -152.5t68.5 -398.5q-31 -246 -175.5 -396t-359.5 -150zM506 92q149 0 243.5 121t118.5 315q27 194 -36 315.5
t-214 121.5q-101 0 -180 -58.5t-125 -155.5t-63 -223q-17 -125 3.5 -221.5t85 -155.5t167.5 -59z" />
    <glyph glyph-name="uni020E" unicode="&#x20e;" horiz-adv-x="1472" 
d="M580 1696q35 86 114 147.5t191 61.5q114 0 182.5 -59t79.5 -150h-117q-1 2 -7 12.5t-8 14.5t-8.5 14t-10.5 14.5t-12 13t-14.5 12.5t-16 9.5t-19.5 8.5t-22.5 5t-26.5 2q-110 0 -180 -106h-125zM662 -20q-283 0 -416 196.5t-84 556.5q49 366 236.5 567t469.5 201
q281 0 415 -200.5t85 -563.5q-51 -362 -237 -559.5t-469 -197.5zM684 115q215 0 348 153.5t174 466.5q42 317 -49.5 474t-304.5 157q-214 0 -349 -157.5t-179 -473.5q-41 -312 52.5 -466t307.5 -154z" />
    <glyph glyph-name="uni020F" unicode="&#x20f;" 
d="M373 1272q35 85 115 147t192 62t180.5 -59t79.5 -150h-115q-30 54 -51 72q-38 34 -96 34q-112 0 -178 -106h-127zM483 -20q-213 0 -315 148.5t-68 393.5q33 248 179 401.5t358 153.5q211 0 312.5 -152.5t68.5 -398.5q-31 -246 -175.5 -396t-359.5 -150zM506 92
q149 0 243.5 121t118.5 315q27 194 -36 315.5t-214 121.5q-101 0 -180 -58.5t-125 -155.5t-63 -223q-17 -125 3.5 -221.5t85 -155.5t167.5 -59z" />
    <glyph glyph-name="uni0210" unicode="&#x210;" horiz-adv-x="1339" 
d="M516 1931l225 -297l-53 -57l-260 260zM819 1931l223 -297l-53 -57l-260 260zM1124 0h-155l-181 662h-413l-90 -662h-148l201 1481h534q222 0 324 -101.5t76 -289.5q-11 -87 -45 -157.5t-83.5 -117t-100.5 -76.5t-109 -49zM717 793q364 0 403 284q18 137 -53.5 205
t-224.5 68h-375l-74 -557h324z" />
    <glyph glyph-name="uni0211" unicode="&#x211;" horiz-adv-x="753" 
d="M215 1507l225 -297l-53 -57l-260 260zM518 1507l223 -297l-53 -57l-260 260zM86 0l143 1057h140l-29 -211q66 98 183.5 164.5t224.5 66.5l-19 -145q-144 7 -269 -81.5t-141 -193.5l-86 -657h-147z" />
    <glyph glyph-name="uni0212" unicode="&#x212;" horiz-adv-x="1339" 
d="M510 1696q35 85 115 147t192 62q113 0 181 -59t81 -150h-116q-15 26 -21 35.5t-25 31t-44 30.5t-58 9q-112 0 -178 -106h-127zM1124 0h-155l-181 662h-413l-90 -662h-148l201 1481h534q222 0 324 -101.5t76 -289.5q-11 -87 -45 -157.5t-83.5 -117t-100.5 -76.5t-109 -49z
M717 793q364 0 403 284q18 137 -53.5 205t-224.5 68h-375l-74 -557h324z" />
    <glyph glyph-name="uni0213" unicode="&#x213;" horiz-adv-x="796" 
d="M252 1272q35 85 114.5 147t190.5 62q114 0 182.5 -59t79.5 -150h-114q-1 2 -9.5 16t-11.5 18.5t-12 17t-15.5 17.5t-18 14t-22.5 12.5t-26.5 7t-32.5 3.5q-110 0 -180 -106h-125zM127 0l143 1057h140l-29 -211q66 98 183 164.5t224 66.5l-18 -145q-144 7 -269 -81.5
t-141 -193.5l-84 -657h-149z" />
    <glyph glyph-name="uni0214" unicode="&#x214;" horiz-adv-x="1415" 
d="M573 1931l224 -297l-52 -57l-260 260zM877 1931l223 -297l-53 -57l-261 260zM1212 492q-69 -512 -573 -512q-261 0 -363.5 133t-66.5 403l129 965h154l-134 -996q-26 -185 50 -278.5t249 -93.5q355 0 410 372l131 996h148z" />
    <glyph glyph-name="uni0215" unicode="&#x215;" horiz-adv-x="1142" 
d="M365 1507l223 -297l-51 -57l-261 260zM668 1507l223 -297l-53 -57l-263 260zM412 -18q-147 1 -222.5 84t-56.5 219l105 776h147l-100 -742q-15 -105 29 -163t149 -58q87 0 158.5 38t185.5 130l106 795h148l-146 -1059h-116l10 164q-121 -98 -211.5 -141.5t-185.5 -42.5z
" />
    <glyph glyph-name="uni0216" unicode="&#x216;" horiz-adv-x="1415" 
d="M567 1696q35 85 114.5 147t190.5 62q114 0 183 -59t80 -150h-115q-1 2 -9.5 16t-11.5 18.5t-12 17t-15.5 17.5t-18 14t-22.5 12.5t-26.5 7t-32.5 3.5q-110 0 -180 -106h-125zM1212 492q-69 -512 -573 -512q-261 0 -363.5 133t-66.5 403l129 965h154l-134 -996
q-26 -185 50 -278.5t249 -93.5q355 0 410 372l131 996h148z" />
    <glyph glyph-name="uni0217" unicode="&#x217;" horiz-adv-x="1146" 
d="M354 1272q35 85 115.5 147t192.5 62t180.5 -59t79.5 -150h-115q-15 26 -21 35.5t-25 31t-44 30.5t-58 9q-112 0 -178 -106h-127zM414 -18q-147 1 -221.5 84t-57.5 219l105 776h147l-100 -742q-15 -105 29 -163t149 -58q87 0 158.5 38t185.5 130l106 795h148l-143 -1059
h-119l10 164q-121 -98 -211.5 -141.5t-185.5 -42.5z" />
    <glyph glyph-name="uni0218" unicode="&#x218;" horiz-adv-x="1300" 
d="M580 -20q-359 0 -488 276l127 82q46 -79 89.5 -123t113 -69t170.5 -25q106 0 185 23.5t133 80.5t65 146q12 83 -27.5 145t-159.5 111l-280 108q-144 56 -201 148.5t-41 208.5q25 187 171 298t362 111q288 0 432 -221l-123 -88q-111 172 -330 172q-147 0 -242 -67.5
t-112 -188.5q-19 -167 182 -244l264 -94q160 -60 223 -155t42 -230q-25 -190 -173.5 -297.5t-381.5 -107.5zM430 -475l98 151h-65l24 174h142l-23 -182l-108 -143h-68z" />
    <glyph glyph-name="uni0219" unicode="&#x219;" horiz-adv-x="1060" 
d="M457 -20q-151 0 -259.5 66.5t-142.5 174.5l111 60q36 -86 115 -135.5t192 -49.5q99 0 192 53.5t103 122.5q8 60 -31.5 102t-140.5 75l-180 55q-136 41 -192 105t-42 155q17 140 137.5 226.5t292.5 86.5q132 0 225.5 -54t137.5 -149l-109 -59q-35 69 -105 108.5t-169 39.5
q-102 0 -181.5 -53t-88.5 -124q-8 -49 23.5 -85.5t131.5 -69.5l228 -78q228 -72 204 -266q-20 -135 -148 -221t-304 -86zM258 -479l98 151h-65l24 174h142l-23 -182l-108 -143h-68z" />
    <glyph glyph-name="uni021A" unicode="&#x21a;" 
d="M145 1337l21 144h1055l-19 -144h-438l-180 -1337h-148l180 1337h-471zM373 -475l98 151h-65l24 174h141l-22 -182l-109 -143h-67z" />
    <glyph glyph-name="uni021B" unicode="&#x21b;" horiz-adv-x="825" 
d="M756 944h-246l-90 -682q-11 -90 9.5 -121.5t74.5 -31.5h149l-14 -97q-43 -16 -156 -16q-138 0 -184.5 60t-28.5 194l95 694h-195l16 113h197l61 354h129l-47 -354h246zM313 -475l99 151h-66l25 174h141l-23 -182l-108 -143h-68z" />
    <glyph glyph-name="uni0237" unicode="&#x237;" horiz-adv-x="473" 
d="M217 -72q-21 -144 -84 -206t-205 -62q-49 0 -81.5 6t-40.5 12l-7 5l15 100l108 4q72 4 106.5 42.5t45.5 119.5l149 1108h150z" />
    <glyph glyph-name="uni0259" unicode="&#x259;" horiz-adv-x="1126" 
d="M872 573q15 109 -8.5 195.5t-91.5 140.5t-174 54q-100 0 -170.5 -44t-124.5 -128l-119 38q71 124 182 187t246 63q140 0 239.5 -63t144.5 -186t22 -289q-34 -256 -177.5 -407.5t-357.5 -151.5q-206 0 -303 139.5t-63 382.5l12 69h743zM854 455h-598q-24 -162 38 -261.5
t208 -99.5q78 0 142 31t106.5 83t68.5 115t35 132z" />
    <glyph glyph-name="uni02BC" unicode="&#x2bc;" horiz-adv-x="294" 
d="M125 938l106 272l-47 7l35 264h135l-35 -262l-112 -281h-82z" />
    <glyph glyph-name="circumflex" unicode="&#x2c6;" horiz-adv-x="614" 
d="M557 1264l-121 133l-170 -133h-153l270 221h106l211 -221h-143z" />
    <glyph glyph-name="caron" unicode="&#x2c7;" horiz-adv-x="610" 
d="M565 1481h164l-268 -221h-105l-217 221h135l132 -131z" />
    <glyph glyph-name="breve" unicode="&#x2d8;" horiz-adv-x="618" 
d="M725 1479q-37 -84 -120 -146.5t-195 -62.5q-113 0 -180.5 59t-73.5 150h114q3 -4 13 -20.5t16 -24.5t19 -22t25.5 -21t32.5 -13t42 -6q42 0 79.5 19t57 38t45.5 50h125z" />
    <glyph glyph-name="dotaccent" unicode="&#x2d9;" horiz-adv-x="217" 
d="M319 1481l-28 -228h-164l31 228h161z" />
    <glyph glyph-name="ring" unicode="&#x2da;" horiz-adv-x="450" 
d="M543 1380q-12 -86 -74.5 -141t-146.5 -55q-86 0 -136.5 62.5t-38.5 154.5q9 79 74 134.5t144 55.5q86 0 137.5 -61t40.5 -150zM449 1395q7 47 -17.5 75.5t-69.5 28.5q-46 0 -85 -34.5t-46 -86.5q-4 -41 22.5 -72.5t65.5 -31.5q48 0 86 36.5t44 84.5z" />
    <glyph glyph-name="ogonek" unicode="&#x2db;" horiz-adv-x="419" 
d="M-72 -170q8 64 58.5 109.5t169.5 80.5l108 -16q-106 -46 -155 -87t-56 -95q-5 -36 14.5 -54t69.5 -18q71 0 150 41l-13 -98q-79 -31 -174 -31t-139 45.5t-33 122.5z" />
    <glyph glyph-name="tilde" unicode="&#x2dc;" horiz-adv-x="643" 
d="M721 1358q-80 -43 -164 -43q-55 0 -123 24.5t-106 24.5q-32 0 -57 -9t-48.5 -24t-36.5 -20l-26 96q41 29 76 43t81 14q50 0 126.5 -26.5t115.5 -26.5q37 0 86.5 24.5t54.5 26.5z" />
    <glyph glyph-name="hungarumlaut" unicode="&#x2dd;" horiz-adv-x="759" 
d="M444 1505l74 -108l-315 -246l-51 72zM750 1505l71 -108l-313 -246l-51 72z" />
    <glyph glyph-name="gravecomb" unicode="&#x300;" horiz-adv-x="0" 
d="M-367 1501l451 -205l-43 -75l-465 157z" />
    <glyph glyph-name="acutecomb" unicode="&#x301;" horiz-adv-x="0" 
d="M72 1505l26 -127l-504 -157l-20 84z" />
    <glyph glyph-name="uni0302" unicode="&#x302;" horiz-adv-x="0" 
d="M-57 1264l-121 133l-170 -133h-154l271 221h106l213 -221h-145z" />
    <glyph glyph-name="tildecomb" unicode="&#x303;" horiz-adv-x="0" 
d="M78 1358q-80 -43 -164 -43q-55 0 -123 24.5t-106 24.5q-32 0 -57 -9t-48.5 -24t-36.5 -20l-26 96q41 29 76 43t81 14q50 0 126.5 -26.5t115.5 -26.5q28 0 51.5 9t48.5 22.5t41 19.5z" />
    <glyph glyph-name="uni0304" unicode="&#x304;" horiz-adv-x="0" 
d="M98 1448l-16 -113h-553l14 113h555z" />
    <glyph glyph-name="uni0306" unicode="&#x306;" horiz-adv-x="0" 
d="M106 1479q-37 -84 -120 -146.5t-195 -62.5q-113 0 -180.5 59t-73.5 150h115q1 -1 15 -24t21.5 -31t24.5 -23.5t38 -22t48 -6.5q32 0 60 9.5t51.5 27.5t38 32.5t33.5 37.5h124z" />
    <glyph glyph-name="uni0307" unicode="&#x307;" horiz-adv-x="0" 
d="M102 1481l-28 -228h-164l31 228h161z" />
    <glyph glyph-name="uni0308" unicode="&#x308;" horiz-adv-x="0" 
d="M-166 1481l-29 -215h-149l31 215h147zM102 1481l-26 -215h-150l29 215h147z" />
    <glyph glyph-name="hookabovecomb" unicode="&#x309;" horiz-adv-x="0" 
d="M-621 1479l29 -86q63 47 111 47q34 0 51.5 -13.5t11.5 -46.5q-4 -25 -29.5 -52.5t-84.5 -78.5l45 -65q7 7 31 29.5l32 30t26 26t25.5 29t18 27t15.5 31t7 29.5q10 65 -27.5 104.5t-107.5 39.5q-73 0 -154 -51z" />
    <glyph glyph-name="uni030A" unicode="&#x30a;" horiz-adv-x="0" 
d="M92 1380q-12 -86 -74.5 -141t-146.5 -55q-86 0 -136 62.5t-38 154.5q9 79 73.5 134.5t143.5 55.5q86 0 137.5 -61t40.5 -150zM-2 1395q7 47 -17 75.5t-69 28.5q-46 0 -85 -34.5t-46 -86.5q-4 -41 22.5 -72.5t65.5 -31.5q48 0 85.5 36t43.5 85z" />
    <glyph glyph-name="uni030B" unicode="&#x30b;" horiz-adv-x="0" 
d="M-315 1505l73 -108l-315 -246l-51 72zM-10 1505l71 -108l-313 -246l-51 72z" />
    <glyph glyph-name="uni030C" unicode="&#x30c;" horiz-adv-x="0" 
d="M-45 1481h164l-269 -221h-104l-217 221h135l131 -131z" />
    <glyph glyph-name="uni030F" unicode="&#x30f;" horiz-adv-x="0" 
d="M-485 1507l223 -297l-51 -57l-260 260zM-182 1507l223 -297l-53 -57l-260 260z" />
    <glyph glyph-name="uni0311" unicode="&#x311;" horiz-adv-x="0" 
d="M-455 1272q35 85 115.5 147t192.5 62t180.5 -59t79.5 -150h-115q-15 26 -21 35.5t-25 31t-44 30.5t-58 9q-112 0 -178 -106h-127z" />
    <glyph glyph-name="uni031B" unicode="&#x31b;" horiz-adv-x="0" 
d="M-303 1180q-28 -94 -102 -159t-187 -65l10 103q104 0 154 121h125z" />
    <glyph glyph-name="dotbelowcomb" unicode="&#x323;" horiz-adv-x="0" 
d="M-125 -113l-27 -217h-145l33 217h139z" />
    <glyph glyph-name="uni0326" unicode="&#x326;" horiz-adv-x="0" 
d="M-326 -475l99 151h-66l25 174h141l-23 -182l-108 -143h-68z" />
    <glyph glyph-name="uni0327" unicode="&#x327;" horiz-adv-x="0" 
d="M-141 -270q-10 -69 -72.5 -107.5t-148.5 -38.5q-105 0 -173 62l33 53q48 -41 121 -41q56 0 89.5 23t39.5 63q6 44 -26.5 63t-110.5 21q-11 0 -15.5 5t-1.5 11l93 166h86l-62 -125q88 -6 121.5 -49.5t26.5 -105.5z" />
    <glyph glyph-name="uni0328" unicode="&#x328;" horiz-adv-x="0" 
d="M-492 -170q8 64 58.5 109.5t169.5 80.5l108 -16q-106 -46 -155 -87t-56 -95q-5 -36 14.5 -54t69.5 -18q71 0 150 41l-12 -98q-79 -31 -174 -31t-139.5 45.5t-33.5 122.5z" />
    <glyph glyph-name="pi" unicode="&#x3c0;" horiz-adv-x="1290" 
d="M1288 944h-235l-127 -944h-144l125 944h-452q-38 -267 -105 -531t-133 -413h-141q72 178 138 429t101 503q3 12 -12 12h-188l14 113h1174z" />
    <glyph glyph-name="uni1E0C" unicode="&#x1e0c;" horiz-adv-x="1386" 
d="M338 1481q2 0 52 -0.5t121 -1t124 -0.5q387 -6 539 -185.5t104 -545.5q-51 -377 -263 -562.5t-599 -185.5h-279zM473 1346l-162 -1211h119q304 0 476.5 142t215.5 466q15 99 10.5 179t-20 142.5t-49.5 109.5t-77 80t-103 53.5t-128 29.5t-151 9h-131zM598 -113l-27 -217
h-145l33 217h139z" />
    <glyph glyph-name="uni1E0D" unicode="&#x1e0d;" horiz-adv-x="1140" 
d="M453 -20q-194 0 -287 138t-57 396q34 258 167.5 410.5t335.5 152.5q88 0 155.5 -33t125.5 -106l80 582h147l-205 -1520h-116l8 162q-22 -27 -48.5 -52t-71.5 -57.5t-106 -52.5t-128 -20zM502 94q116 0 209.5 87.5t107.5 191.5l55 418q-83 170 -247 170
q-145 0 -242.5 -113.5t-124.5 -325.5q-29 -214 39 -321t203 -107zM559 -113l-27 -217h-145l33 217h139z" />
    <glyph glyph-name="uni1E24" unicode="&#x1e24;" horiz-adv-x="1413" 
d="M1081 698h-702l-94 -698h-148l201 1481h145l-86 -645h705l86 645h147l-200 -1481h-146zM688 -113l-26 -217h-146l33 217h139z" />
    <glyph glyph-name="uni1E25" unicode="&#x1e25;" horiz-adv-x="1148" 
d="M100 0l205 1520h141l-86 -631q121 99 211.5 143.5t188.5 44.5q151 0 219 -80.5t49 -220.5l-104 -776h-148l101 741q15 102 -29 158.5t-148 56.5q-84 0 -157.5 -37t-190.5 -128l-104 -791h-148zM588 -113l-27 -217h-145l33 217h139z" />
    <glyph glyph-name="uni1E44" unicode="&#x1e44;" horiz-adv-x="1486" 
d="M1032 1905l-28 -228h-162l30 228h160zM1262 1481h145l-199 -1481h-129l-630 1221l-164 -1221h-148l201 1481h137l623 -1213z" />
    <glyph glyph-name="uni1E45" unicode="&#x1e45;" horiz-adv-x="1146" 
d="M811 1481l-29 -228h-164l33 228h160zM98 0l142 1057h141l-23 -168q122 100 210.5 144t189.5 44q148 0 217.5 -81.5t50.5 -217.5l-104 -778h-148l100 741q14 102 -31 158.5t-149 56.5q-85 0 -161.5 -38t-182.5 -125l-104 -793h-148z" />
    <glyph glyph-name="uni1E5A" unicode="&#x1e5a;" horiz-adv-x="1339" 
d="M1124 0h-155l-181 662h-413l-90 -662h-148l201 1481h534q222 0 324 -101.5t76 -289.5q-11 -87 -45 -157.5t-83.5 -117t-100.5 -76.5t-109 -49zM717 793q364 0 403 284q18 137 -53.5 205t-224.5 68h-375l-74 -557h324zM651 -113l-26 -217h-146l33 217h139z" />
    <glyph glyph-name="uni1E5B" unicode="&#x1e5b;" horiz-adv-x="751" 
d="M90 0l143 1057h140l-29 -211q66 98 183.5 164.5t224.5 66.5l-19 -145q-144 7 -268.5 -81.5t-140.5 -193.5l-84 -657h-150zM227 -113l-26 -217h-144l31 217h139z" />
    <glyph glyph-name="uni1E62" unicode="&#x1e62;" horiz-adv-x="1300" 
d="M580 -20q-359 0 -488 276l127 82q46 -79 89.5 -123t113 -69t170.5 -25q106 0 185 23.5t133 80.5t65 146q12 83 -27.5 145t-159.5 111l-280 108q-144 56 -201 148.5t-41 208.5q25 187 171 298t362 111q288 0 432 -221l-123 -88q-111 172 -330 172q-147 0 -242 -67.5
t-112 -188.5q-19 -167 182 -244l264 -94q160 -60 223 -155t42 -230q-25 -190 -173.5 -297.5t-381.5 -107.5zM629 -113l-27 -217h-145l32 217h140z" />
    <glyph glyph-name="uni1E63" unicode="&#x1e63;" horiz-adv-x="1060" 
d="M457 -20q-151 0 -259.5 66.5t-142.5 174.5l111 60q36 -86 115 -135.5t192 -49.5q99 0 192 53.5t103 122.5q8 60 -31.5 102t-140.5 75l-180 55q-136 41 -192 105t-42 155q17 140 137.5 226.5t292.5 86.5q132 0 225.5 -54t137.5 -149l-109 -59q-35 69 -105 108.5t-169 39.5
q-102 0 -181.5 -53t-88.5 -124q-8 -49 23.5 -85.5t131.5 -69.5l228 -78q228 -72 204 -266q-20 -135 -148 -221t-304 -86zM455 -117l-27 -217h-145l32 217h140z" />
    <glyph glyph-name="uni1E6C" unicode="&#x1e6c;" 
d="M145 1337l21 144h1055l-19 -144h-438l-180 -1337h-148l180 1337h-471zM571 -113l-28 -217h-144l33 217h139z" />
    <glyph glyph-name="uni1E6D" unicode="&#x1e6d;" horiz-adv-x="825" 
d="M756 944h-246l-90 -682q-11 -90 9.5 -121.5t74.5 -31.5h149l-14 -97q-43 -16 -156 -16q-138 0 -184.5 60t-28.5 194l95 694h-195l16 113h197l61 354h129l-47 -354h246zM510 -113l-27 -217h-145l33 217h139z" />
    <glyph glyph-name="Wgrave" unicode="&#x1e80;" horiz-adv-x="1873" 
d="M895 1925l451 -205l-43 -75l-465 157zM1954 1481l-611 -1481h-149l-164 1212l-493 -1212h-144l-207 1481h150l166 -1252l506 1252h120l170 -1252l506 1252h150z" />
    <glyph glyph-name="wgrave" unicode="&#x1e81;" horiz-adv-x="1572" 
d="M682 1501l451 -205l-43 -75l-465 157zM1569 1057l-451 -1057h-145l-142 831l-352 -831h-149l-178 1057h145l139 -869l369 869h119l147 -867l363 867h135z" />
    <glyph glyph-name="Wacute" unicode="&#x1e82;" horiz-adv-x="1873" 
d="M1352 1929l26 -127l-504 -157l-20 84zM1954 1481l-611 -1481h-149l-164 1212l-493 -1212h-144l-207 1481h150l166 -1252l506 1252h120l170 -1252l506 1252h150z" />
    <glyph glyph-name="wacute" unicode="&#x1e83;" horiz-adv-x="1572" 
d="M1139 1505l26 -127l-503 -157l-21 84zM1569 1057l-451 -1057h-145l-142 831l-352 -831h-149l-178 1057h145l139 -869l369 869h119l147 -867l363 867h135z" />
    <glyph glyph-name="Wdieresis" unicode="&#x1e84;" horiz-adv-x="1873" 
d="M1073 1905l-29 -215h-149l31 215h147zM1341 1905l-26 -215h-150l29 215h147zM1954 1481l-611 -1481h-149l-164 1212l-493 -1212h-144l-207 1481h150l166 -1252l506 1252h120l170 -1252l506 1252h150z" />
    <glyph glyph-name="wdieresis" unicode="&#x1e85;" horiz-adv-x="1572" 
d="M860 1481l-29 -215h-149l31 215h147zM1128 1481l-26 -215h-150l29 215h147zM1569 1057l-451 -1057h-145l-142 831l-352 -831h-149l-178 1057h145l139 -869l369 869h119l147 -867l363 867h135z" />
    <glyph glyph-name="uni1E92" unicode="&#x1e92;" horiz-adv-x="1218" 
d="M37 0l12 90l965 1256h-768l18 135h973l-10 -86l-977 -1260h803l-19 -135h-997zM610 -113l-26 -217h-146l33 217h139z" />
    <glyph glyph-name="uni1E93" unicode="&#x1e93;" horiz-adv-x="919" 
d="M16 0l15 102l717 848h-562l15 107h733l-12 -105l-717 -843h614l-14 -109h-789zM471 -113l-27 -217h-145l33 217h139z" />
    <glyph glyph-name="uni1EA0" unicode="&#x1ea0;" horiz-adv-x="1298" 
d="M20 0l719 1481h172l316 -1481h-152l-88 428h-606l-209 -428h-152zM440 571h525l-160 758zM688 -113l-26 -217h-146l33 217h139z" />
    <glyph glyph-name="uni1EA1" unicode="&#x1ea1;" horiz-adv-x="1058" 
d="M356 -20q-151 0 -230 80.5t-60 220.5q23 172 146.5 250.5t389.5 97.5l201 16l10 80q15 110 -43 176t-170 66q-181 0 -319 -181l-115 37q76 116 192.5 185t262.5 69q185 0 271 -90t64 -250l-98 -737h-127l12 164q-163 -184 -387 -184zM412 94q115 0 226.5 78.5
t123.5 173.5l26 201l-167 -12q-210 -18 -301.5 -68.5t-108.5 -173.5q-13 -92 42.5 -145.5t158.5 -53.5zM477 -113l-26 -217h-144l31 217h139z" />
    <glyph glyph-name="uni1EA2" unicode="&#x1ea2;" horiz-adv-x="1394" 
d="M711 1903l28 -86q63 47 111 47q34 0 51.5 -13.5t11.5 -46.5q-4 -25 -29.5 -52.5t-84.5 -78.5l45 -65q7 7 31 29.5l32 30t26 26t25.5 29t18 27t15.5 31t7 29.5q10 65 -27.5 104.5t-107.5 39.5q-72 0 -153 -51zM20 0l719 1481h172l316 -1481h-152l-88 428h-606l-209 -428
h-152zM440 571h525l-160 758z" />
    <glyph glyph-name="uni1EA3" unicode="&#x1ea3;" horiz-adv-x="1124" 
d="M506 1479l26 -86q66 47 113 47q34 0 52 -13.5t12 -46.5q-4 -25 -29.5 -52t-85.5 -79l45 -65q9 8 31.5 29t31.5 30t26.5 27t25.5 29t18.5 26.5t15.5 30.5t7 30q10 65 -28 104.5t-108 39.5q-72 0 -153 -51zM369 -20q-151 0 -230 80.5t-59 220.5q23 173 145.5 251t388.5 97
l201 16l10 80q15 110 -43 176t-170 66q-181 0 -319 -181l-115 37q76 116 193.5 185t263.5 69q184 0 270 -90t64 -250l-99 -737h-127l13 164q-163 -184 -387 -184zM424 94q115 0 226.5 78.5t123.5 173.5l27 201l-168 -12q-209 -18 -300 -68.5t-108 -173.5q-15 -92 41 -145.5
t158 -53.5z" />
    <glyph glyph-name="uni1EA4" unicode="&#x1ea4;" horiz-adv-x="1394" 
d="M1145 2226l26 -129l-503 -158l-21 84zM1001 1688l-122 133l-170 -133h-154l272 221h105l211 -221h-142zM20 0l719 1481h172l316 -1481h-152l-88 428h-606l-209 -428h-152zM440 571h525l-160 758z" />
    <glyph glyph-name="uni1EA5" unicode="&#x1ea5;" horiz-adv-x="1124" 
d="M944 1802l25 -129l-504 -157l-21 83zM799 1264l-123 133l-168 -133h-156l273 221h104l213 -221h-143zM369 -20q-151 0 -230 80.5t-59 220.5q23 173 145.5 251t388.5 97l201 16l10 80q15 110 -43 176t-170 66q-181 0 -319 -181l-115 37q76 116 193.5 185t263.5 69
q184 0 270 -90t64 -250l-99 -737h-127l13 164q-163 -184 -387 -184zM424 94q115 0 226.5 78.5t123.5 173.5l27 201l-168 -12q-209 -18 -300 -68.5t-108 -173.5q-15 -92 41 -145.5t158 -53.5z" />
    <glyph glyph-name="uni1EA6" unicode="&#x1ea6;" horiz-adv-x="1394" 
d="M688 2220l451 -203l-43 -78l-463 158zM1001 1688l-122 133l-168 -133h-156l272 221h105l213 -221h-144zM20 0l719 1481h172l316 -1481h-152l-88 428h-606l-209 -428h-152zM440 571h525l-160 758z" />
    <glyph glyph-name="uni1EA7" unicode="&#x1ea7;" horiz-adv-x="1124" 
d="M485 1796l451 -203l-43 -77l-463 157zM799 1264l-123 133l-168 -133h-156l273 221h104l213 -221h-143zM369 -20q-151 0 -230 80.5t-59 220.5q23 173 145.5 251t388.5 97l201 16l10 80q15 110 -43 176t-170 66q-181 0 -319 -181l-115 37q76 116 193.5 185t263.5 69
q184 0 270 -90t64 -250l-99 -737h-127l13 164q-163 -184 -387 -184zM424 94q115 0 226.5 78.5t123.5 173.5l27 201l-168 -12q-209 -18 -300 -68.5t-108 -173.5q-15 -92 41 -145.5t158 -53.5z" />
    <glyph glyph-name="uni1EA8" unicode="&#x1ea8;" horiz-adv-x="1394" 
d="M1030 2097l27 -84q68 45 110 45q36 0 54 -12t12 -45q-6 -37 -104 -121q-7 -7 -11 -10l45 -68q7 7 31 29.5l32 30t26.5 26.5t25.5 29.5t18 26.5t16 31t7 30q9 66 -28.5 105.5t-106.5 39.5q-70 0 -154 -53zM1001 1688l-122 133l-168 -133h-156l272 221h107l211 -221h-144z
M20 0l719 1481h172l316 -1481h-152l-88 428h-606l-209 -428h-152zM440 571h525l-160 758z" />
    <glyph glyph-name="uni1EA9" unicode="&#x1ea9;" horiz-adv-x="1124" 
d="M831 1673l27 -84q68 45 113 45q35 0 52 -12t11 -45q-3 -19 -20 -41t-34 -37t-60 -53l45 -68q7 7 27.5 26t28 26t24 23.5t23.5 25.5t18 24t16.5 26t10.5 24.5t7 27.5q10 65 -27.5 105t-107.5 40t-154 -53zM799 1264l-123 133l-168 -133h-156l273 221h104l213 -221h-143z
M369 -20q-151 0 -230 80.5t-59 220.5q23 173 145.5 251t388.5 97l201 16l10 80q15 110 -43 176t-170 66q-181 0 -319 -181l-115 37q76 116 193.5 185t263.5 69q184 0 270 -90t64 -250l-99 -737h-127l13 164q-163 -184 -387 -184zM424 94q115 0 226.5 78.5t123.5 173.5
l27 201l-168 -12q-209 -18 -300 -68.5t-108 -173.5q-15 -92 41 -145.5t158 -53.5z" />
    <glyph glyph-name="uni1EAA" unicode="&#x1eaa;" horiz-adv-x="1394" 
d="M1200 2077q-80 -43 -164 -43q-55 0 -124 24.5t-107 24.5q-31 0 -55.5 -9t-48 -24t-37.5 -20l-25 98q78 55 158 55q49 0 125 -26.5t116 -26.5q28 0 52 9t49 23t41 19zM1001 1688l-122 133l-168 -133h-156l272 221h105l213 -221h-144zM20 0l719 1481h172l316 -1481h-152
l-88 428h-606l-209 -428h-152zM440 571h525l-160 758z" />
    <glyph glyph-name="uni1EAB" unicode="&#x1eab;" horiz-adv-x="1124" 
d="M997 1653q-80 -43 -163 -43q-55 0 -124.5 24.5t-107.5 24.5q-31 0 -55.5 -9t-48 -24t-37.5 -20l-25 98q78 55 158 55q50 0 125.5 -26.5t116.5 -26.5q28 0 51.5 9t48.5 22.5t41 19.5zM799 1264l-123 133l-168 -133h-156l273 221h104l213 -221h-143zM369 -20
q-151 0 -230 80.5t-59 220.5q23 173 145.5 251t388.5 97l201 16l10 80q15 110 -43 176t-170 66q-181 0 -319 -181l-115 37q76 116 193.5 185t263.5 69q184 0 270 -90t64 -250l-99 -737h-127l13 164q-163 -184 -387 -184zM424 94q115 0 226.5 78.5t123.5 173.5l27 201
l-168 -12q-209 -18 -300 -68.5t-108 -173.5q-15 -92 41 -145.5t158 -53.5z" />
    <glyph glyph-name="uni1EAC" unicode="&#x1eac;" horiz-adv-x="1298" 
d="M1001 1688l-122 133l-170 -133h-154l270 221h107l211 -221h-142zM20 0l719 1481h172l316 -1481h-152l-88 428h-606l-209 -428h-152zM440 571h525l-160 758zM688 -113l-26 -217h-146l33 217h139z" />
    <glyph glyph-name="uni1EAD" unicode="&#x1ead;" horiz-adv-x="1058" 
d="M799 1264l-123 133l-168 -133h-156l273 221h104l213 -221h-143zM369 -20q-151 0 -230 80.5t-59 220.5q23 173 145.5 251t388.5 97l201 16l10 80q15 110 -43 176t-170 66q-181 0 -319 -181l-115 37q76 116 193.5 185t263.5 69q184 0 270 -90t64 -250l-99 -737h-127l13 164
q-163 -184 -387 -184zM424 94q115 0 226.5 78.5t123.5 173.5l27 201l-168 -12q-209 -18 -300 -68.5t-108 -173.5q-15 -92 41 -145.5t158 -53.5zM477 -113l-26 -217h-144l31 217h139z" />
    <glyph glyph-name="uni1EAE" unicode="&#x1eae;" horiz-adv-x="1394" 
d="M1143 2257l24 -129l-503 -158l-21 84zM1167 1903q-37 -84 -120.5 -146.5t-194.5 -62.5q-113 0 -180.5 59t-73.5 150h115q2 -3 10.5 -17.5t13 -20.5t14 -19t19 -20t23 -15t30 -11.5t35.5 -3.5q98 0 182 107h127zM20 0l719 1481h172l316 -1481h-152l-88 428h-606l-209 -428
h-152zM440 571h525l-160 758z" />
    <glyph glyph-name="uni1EAF" unicode="&#x1eaf;" horiz-adv-x="1124" 
d="M940 1833l25 -129l-502 -158l-21 84zM965 1479q-39 -84 -122.5 -146.5t-195.5 -62.5q-113 0 -180 59t-72 150h113q1 -1 15 -24t21.5 -31t24.5 -23.5t38 -22t48 -6.5q99 0 183 107h127zM369 -20q-151 0 -230 80.5t-59 220.5q23 173 145.5 251t388.5 97l201 16l10 80
q15 110 -43 176t-170 66q-181 0 -319 -181l-115 37q76 116 193.5 185t263.5 69q184 0 270 -90t64 -250l-99 -737h-127l13 164q-163 -184 -387 -184zM424 94q115 0 226.5 78.5t123.5 173.5l27 201l-168 -12q-209 -18 -300 -68.5t-108 -173.5q-15 -92 41 -145.5t158 -53.5z
" />
    <glyph glyph-name="uni1EB0" unicode="&#x1eb0;" horiz-adv-x="1394" 
d="M684 2251l451 -203l-43 -78l-465 158zM1167 1903q-39 -84 -122 -146.5t-195 -62.5q-113 0 -180 59t-72 150h113q1 -1 15 -24t21.5 -31t24.5 -23.5t38 -22t48 -6.5q98 0 182 107h127zM20 0l719 1481h172l316 -1481h-152l-88 428h-606l-209 -428h-152zM440 571h525
l-160 758z" />
    <glyph glyph-name="uni1EB1" unicode="&#x1eb1;" horiz-adv-x="1124" 
d="M481 1827l451 -203l-41 -78l-465 158zM965 1479q-39 -84 -122.5 -146.5t-195.5 -62.5q-113 0 -180 59t-72 150h113q1 -1 15 -24t21.5 -31t24.5 -23.5t38 -22t48 -6.5q99 0 183 107h127zM369 -20q-151 0 -230 80.5t-59 220.5q23 173 145.5 251t388.5 97l201 16l10 80
q15 110 -43 176t-170 66q-181 0 -319 -181l-115 37q76 116 193.5 185t263.5 69q184 0 270 -90t64 -250l-99 -737h-127l13 164q-163 -184 -387 -184zM424 94q115 0 226.5 78.5t123.5 173.5l27 201l-168 -12q-209 -18 -300 -68.5t-108 -173.5q-15 -92 41 -145.5t158 -53.5z
" />
    <glyph glyph-name="uni1EB2" unicode="&#x1eb2;" horiz-adv-x="1394" 
d="M733 2198l27 -87q68 48 112 48q34 0 52 -13.5t12 -46.5q-4 -25 -29.5 -52t-85.5 -79l45 -65q9 8 31.5 29t31.5 30t26.5 27t25.5 29t18.5 26.5t15.5 30.5t7 30q10 65 -27.5 104.5t-107.5 39.5q-73 0 -154 -51zM1167 1903q-39 -84 -121.5 -146.5t-193.5 -62.5
q-115 0 -182 59t-72 150h113q1 -1 15 -24t21.5 -31t24.5 -23.5t38 -22t48 -6.5q98 0 182 107h127zM20 0l719 1481h172l316 -1481h-152l-88 428h-606l-209 -428h-152zM440 571h525l-160 758z" />
    <glyph glyph-name="uni1EB3" unicode="&#x1eb3;" horiz-adv-x="1124" 
d="M543 1804l26 -84q68 45 111 45q36 0 53.5 -12t11.5 -45q-4 -27 -30 -55t-84 -76l45 -68q7 7 27.5 26t28 26t24 23.5t23.5 25.5t18 24t16.5 26t10.5 24.5t7 27.5q9 65 -28 104t-107 39q-72 0 -153 -51zM965 1479q-39 -84 -122.5 -146.5t-195.5 -62.5q-113 0 -180 59
t-72 150h113q1 -1 15 -24t21.5 -31t24.5 -23.5t38 -22t48 -6.5q99 0 183 107h127zM369 -20q-151 0 -230 80.5t-59 220.5q23 173 145.5 251t388.5 97l201 16l10 80q15 110 -43 176t-170 66q-181 0 -319 -181l-115 37q76 116 193.5 185t263.5 69q184 0 270 -90t64 -250
l-99 -737h-127l13 164q-163 -184 -387 -184zM424 94q115 0 226.5 78.5t123.5 173.5l27 201l-168 -12q-209 -18 -300 -68.5t-108 -173.5q-15 -92 41 -145.5t158 -53.5z" />
    <glyph glyph-name="uni1EB4" unicode="&#x1eb4;" horiz-adv-x="1394" 
d="M1196 2109q-72 -45 -164 -45q-55 0 -124 26t-107 26q-31 0 -55.5 -9.5t-48.5 -24.5t-38 -20l-24 97q81 57 158 57q49 0 124.5 -26.5t116.5 -26.5q28 0 51.5 8t49.5 22.5t41 20.5zM1167 1903q-37 -84 -120.5 -146.5t-194.5 -62.5q-113 0 -180.5 59t-73.5 150h115
q2 -3 10.5 -17.5t13 -20.5t14 -19t19 -20t23 -15t30 -11.5t35.5 -3.5q98 0 182 107h127zM20 0l719 1481h172l316 -1481h-152l-88 428h-606l-209 -428h-152zM440 571h525l-160 758z" />
    <glyph glyph-name="uni1EB5" unicode="&#x1eb5;" horiz-adv-x="1124" 
d="M993 1686q-74 -46 -164 -46q-55 0 -123 26t-106 26q-32 0 -56.5 -9.5t-48.5 -25.5t-36 -21l-25 99q81 57 156 57q51 0 126.5 -26.5t114.5 -26.5q28 0 51.5 8t50.5 23t40 20zM965 1479q-39 -84 -122.5 -146.5t-195.5 -62.5q-113 0 -180 59t-72 150h113q1 -1 15 -24
t21.5 -31t24.5 -23.5t38 -22t48 -6.5q99 0 183 107h127zM369 -20q-151 0 -230 80.5t-59 220.5q23 173 145.5 251t388.5 97l201 16l10 80q15 110 -43 176t-170 66q-181 0 -319 -181l-115 37q76 116 193.5 185t263.5 69q184 0 270 -90t64 -250l-99 -737h-127l13 164
q-163 -184 -387 -184zM424 94q115 0 226.5 78.5t123.5 173.5l27 201l-168 -12q-209 -18 -300 -68.5t-108 -173.5q-15 -92 41 -145.5t158 -53.5z" />
    <glyph glyph-name="uni1EB6" unicode="&#x1eb6;" horiz-adv-x="1298" 
d="M1165 1903q-37 -84 -120 -146.5t-195 -62.5q-113 0 -180 59t-72 150h113q1 -1 15 -24t21.5 -31t24.5 -23.5t38 -22t48 -6.5q42 0 79.5 19t57 38t45.5 50h125zM20 0l719 1481h172l316 -1481h-152l-88 428h-606l-209 -428h-152zM440 571h525l-160 758zM688 -113l-26 -217
h-146l33 217h139z" />
    <glyph glyph-name="uni1EB7" unicode="&#x1eb7;" horiz-adv-x="1058" 
d="M965 1479q-39 -84 -122.5 -146.5t-195.5 -62.5q-113 0 -180 59t-72 150h113q1 -1 15 -24t21.5 -31t24.5 -23.5t38 -22t48 -6.5q99 0 183 107h127zM369 -20q-151 0 -230 80.5t-59 220.5q23 173 145.5 251t388.5 97l201 16l10 80q15 110 -43 176t-170 66q-181 0 -319 -181
l-115 37q76 116 193.5 185t263.5 69q184 0 270 -90t64 -250l-99 -737h-127l13 164q-163 -184 -387 -184zM424 94q115 0 226.5 78.5t123.5 173.5l27 201l-168 -12q-209 -18 -300 -68.5t-108 -173.5q-15 -92 41 -145.5t158 -53.5zM477 -113l-26 -217h-144l31 217h139z" />
    <glyph glyph-name="uni1EB8" unicode="&#x1eb8;" horiz-adv-x="1241" 
d="M137 0l201 1481h868l-18 -138h-721l-72 -528h656l-17 -135h-657l-72 -541l744 -2l-19 -137h-893zM676 -113l-27 -217h-145l33 217h139z" />
    <glyph glyph-name="uni1EB9" unicode="&#x1eb9;" horiz-adv-x="1126" 
d="M254 485q-23 -169 47 -279t227 -110q100 0 170.5 44t124.5 128l119 -39q-70 -123 -181.5 -186t-246.5 -63q-214 0 -327 144t-78 394q34 257 177 408t357 151q206 0 303.5 -140t63.5 -382l-13 -70h-743zM272 604h600q23 162 -39.5 261.5t-207.5 99.5q-78 0 -142.5 -31
t-107 -83t-68.5 -115t-35 -132zM543 -113l-27 -217h-145l32 217h140z" />
    <glyph glyph-name="uni1EBA" unicode="&#x1eba;" horiz-adv-x="1241" 
d="M672 1903l28 -86q63 47 111 47q34 0 51.5 -13.5t11.5 -46.5q-4 -25 -29.5 -52.5t-84.5 -78.5l45 -65q9 8 31.5 29t31.5 30t26.5 27t25.5 29t18.5 26.5t15.5 30.5t7 30q10 65 -28 104.5t-108 39.5q-72 0 -153 -51zM137 0l201 1481h868l-18 -138h-721l-72 -528h656
l-17 -135h-657l-72 -541l744 -2l-19 -137h-893z" />
    <glyph glyph-name="uni1EBB" unicode="&#x1ebb;" horiz-adv-x="1136" 
d="M520 1479l29 -86q63 47 110 47q34 0 52 -13.5t12 -46.5q-4 -25 -29.5 -52t-85.5 -79l45 -65q9 8 31.5 29t31.5 30t26.5 27t25.5 29t18.5 26.5t15.5 30.5t7 30q10 65 -27.5 104.5t-107.5 39.5q-73 0 -154 -51zM254 485q-23 -169 47 -279t227 -110q100 0 170.5 44
t124.5 128l119 -39q-70 -123 -181.5 -186t-246.5 -63q-214 0 -327 144t-78 394q34 257 177 408t357 151q206 0 303.5 -140t63.5 -382l-13 -70h-743zM272 604h600q23 162 -39.5 261.5t-207.5 99.5q-78 0 -142.5 -31t-107 -83t-68.5 -115t-35 -132z" />
    <glyph glyph-name="uni1EBC" unicode="&#x1ebc;" horiz-adv-x="1241" 
d="M1120 1782q-80 -43 -164 -43q-55 0 -123 24.5t-106 24.5q-32 0 -56.5 -9t-48 -24t-36.5 -20l-27 96q80 57 158 57q50 0 126 -26.5t115 -26.5q28 0 52 9t49 23t41 19zM137 0l201 1481h868l-18 -138h-721l-72 -528h656l-17 -135h-657l-72 -541l744 -2l-19 -137h-893z" />
    <glyph glyph-name="uni1EBD" unicode="&#x1ebd;" horiz-adv-x="1126" 
d="M971 1358q-75 -43 -164 -43q-55 0 -123 24.5t-106 24.5q-31 0 -56 -9t-49 -24t-37 -20l-24 96q77 57 155 57q51 0 127 -26.5t115 -26.5q28 0 52 9t49.5 23t41.5 19zM254 485q-23 -169 47 -279t227 -110q100 0 170.5 44t124.5 128l119 -39q-70 -123 -181.5 -186
t-246.5 -63q-214 0 -327 144t-78 394q34 257 177 408t357 151q206 0 303.5 -140t63.5 -382l-13 -70h-743zM272 604h600q23 162 -39.5 261.5t-207.5 99.5q-78 0 -142.5 -31t-107 -83t-68.5 -115t-35 -132z" />
    <glyph glyph-name="uni1EBE" unicode="&#x1ebe;" horiz-adv-x="1241" 
d="M1106 2226l27 -129l-504 -158l-21 84zM963 1688l-123 133l-170 -133h-154l272 221h105l211 -221h-141zM137 0l201 1481h868l-18 -138h-721l-72 -528h656l-17 -135h-657l-72 -541l744 -2l-19 -137h-893z" />
    <glyph glyph-name="uni1EBF" unicode="&#x1ebf;" horiz-adv-x="1136" 
d="M958 1802l25 -129l-504 -157l-20 83zM813 1264l-123 133l-168 -133h-155l272 221h106l211 -221h-143zM254 485q-23 -169 47 -279t227 -110q100 0 170.5 44t124.5 128l119 -39q-70 -123 -181.5 -186t-246.5 -63q-214 0 -327 144t-78 394q34 257 177 408t357 151
q206 0 303.5 -140t63.5 -382l-13 -70h-743zM272 604h600q23 162 -39.5 261.5t-207.5 99.5q-78 0 -142.5 -31t-107 -83t-68.5 -115t-35 -132z" />
    <glyph glyph-name="uni1EC0" unicode="&#x1ec0;" horiz-adv-x="1241" 
d="M649 2220l451 -203l-43 -78l-463 158zM963 1688l-123 133l-168 -133h-156l272 221h105l213 -221h-143zM137 0l201 1481h868l-18 -138h-721l-72 -528h656l-17 -135h-657l-72 -541l744 -2l-19 -137h-893z" />
    <glyph glyph-name="uni1EC1" unicode="&#x1ec1;" horiz-adv-x="1136" 
d="M500 1796l450 -203l-43 -77l-463 157zM813 1264l-123 133l-168 -133h-155l272 221h106l211 -221h-143zM254 485q-23 -169 47 -279t227 -110q100 0 170.5 44t124.5 128l119 -39q-70 -123 -181.5 -186t-246.5 -63q-214 0 -327 144t-78 394q34 257 177 408t357 151
q206 0 303.5 -140t63.5 -382l-13 -70h-743zM272 604h600q23 162 -39.5 261.5t-207.5 99.5q-78 0 -142.5 -31t-107 -83t-68.5 -115t-35 -132z" />
    <glyph glyph-name="uni1EC2" unicode="&#x1ec2;" horiz-adv-x="1241" 
d="M989 2097l27 -84q68 45 110 45q36 0 54 -12t12 -45q-6 -37 -104 -121q-7 -7 -11 -10l45 -68q7 7 31 29.5l32 30t26.5 26.5t25.5 29.5t18 26.5t16 31t7 30q9 66 -28.5 105.5t-106.5 39.5q-70 0 -154 -53zM961 1688l-123 133l-168 -133h-156l272 221h107l211 -221h-143z
M137 0l201 1481h868l-18 -138h-721l-72 -528h656l-17 -135h-657l-72 -541l744 -2l-19 -137h-893z" />
    <glyph glyph-name="uni1EC3" unicode="&#x1ec3;" horiz-adv-x="1136" 
d="M846 1673l28 -84q65 45 111 45q35 0 52.5 -12t11.5 -45q-6 -37 -104 -121q-7 -7 -11 -10l45 -68q7 7 31 29.5l32 30t26.5 26.5t25.5 29.5t18 26.5t16 31t7 30q10 65 -28 105t-108 40q-69 0 -153 -53zM813 1264l-123 133l-168 -133h-155l272 221h106l211 -221h-143z
M254 485q-23 -169 47 -279t227 -110q100 0 170.5 44t124.5 128l119 -39q-70 -123 -181.5 -186t-246.5 -63q-214 0 -327 144t-78 394q34 257 177 408t357 151q206 0 303.5 -140t63.5 -382l-13 -70h-743zM272 604h600q23 162 -39.5 261.5t-207.5 99.5q-78 0 -142.5 -31
t-107 -83t-68.5 -115t-35 -132z" />
    <glyph glyph-name="uni1EC4" unicode="&#x1ec4;" horiz-adv-x="1241" 
d="M1161 2077q-80 -43 -164 -43q-55 0 -124 24.5t-107 24.5q-31 0 -55.5 -9t-48 -24t-37.5 -20l-25 98q78 55 158 55q50 0 125 -26.5t116 -26.5q28 0 52 9t49 23t41 19zM963 1688l-123 133l-168 -133h-156l272 221h105l213 -221h-143zM137 0l201 1481h868l-18 -138h-721
l-72 -528h656l-17 -135h-657l-72 -541l744 -2l-19 -137h-893z" />
    <glyph glyph-name="uni1EC5" unicode="&#x1ec5;" horiz-adv-x="1136" 
d="M1012 1653q-80 -43 -164 -43q-55 0 -124.5 24.5t-107.5 24.5q-31 0 -55.5 -9t-48 -24t-37.5 -20l-24 98q78 55 157 55q50 0 126 -26.5t116 -26.5q28 0 51.5 9t48.5 22.5t41 19.5zM813 1264l-123 133l-168 -133h-155l272 221h106l211 -221h-143zM254 485q-23 -169 47 -279
t227 -110q100 0 170.5 44t124.5 128l119 -39q-70 -123 -181.5 -186t-246.5 -63q-214 0 -327 144t-78 394q34 257 177 408t357 151q206 0 303.5 -140t63.5 -382l-13 -70h-743zM272 604h600q23 162 -39.5 261.5t-207.5 99.5q-78 0 -142.5 -31t-107 -83t-68.5 -115t-35 -132z
" />
    <glyph glyph-name="uni1EC6" unicode="&#x1ec6;" horiz-adv-x="1241" 
d="M961 1688l-121 133l-170 -133h-154l270 221h107l211 -221h-143zM137 0l201 1481h868l-18 -138h-721l-72 -528h656l-17 -135h-657l-72 -541l744 -2l-19 -137h-893zM676 -113l-27 -217h-145l33 217h139z" />
    <glyph glyph-name="uni1EC7" unicode="&#x1ec7;" horiz-adv-x="1136" 
d="M813 1264l-123 133l-168 -133h-155l272 221h106l211 -221h-143zM254 485q-23 -169 47 -279t227 -110q100 0 170.5 44t124.5 128l119 -39q-70 -123 -181.5 -186t-246.5 -63q-214 0 -327 144t-78 394q34 257 177 408t357 151q206 0 303.5 -140t63.5 -382l-13 -70h-743z
M272 604h600q23 162 -39.5 261.5t-207.5 99.5q-78 0 -142.5 -31t-107 -83t-68.5 -115t-35 -132zM543 -113l-27 -217h-145l32 217h140z" />
    <glyph glyph-name="uni1EC8" unicode="&#x1ec8;" horiz-adv-x="561" 
d="M297 1903l29 -86q63 47 110 47q34 0 52 -13.5t12 -46.5q-4 -25 -29.5 -52t-85.5 -79l45 -65q9 8 31.5 29t31.5 30t26.5 27t25.5 29t18.5 26.5t15.5 30.5t7 30q10 65 -27.5 104.5t-107.5 39.5q-73 0 -154 -51zM338 1481h145l-198 -1481h-148z" />
    <glyph glyph-name="uni1EC9" unicode="&#x1ec9;" horiz-adv-x="507" 
d="M203 1479l28 -86q63 47 111 47q34 0 52 -13.5t12 -46.5q-6 -34 -99 -118q-9 -9 -14 -13l43 -65q9 8 31.5 29t31.5 30t26.5 27t25.5 29t18.5 26.5t15.5 30.5t7 30q10 65 -27.5 104.5t-106.5 39.5q-74 0 -155 -51zM397 1057l-143 -1057h-148l144 1057h147z" />
    <glyph glyph-name="uni1ECA" unicode="&#x1eca;" horiz-adv-x="561" 
d="M338 1481h145l-198 -1481h-148zM270 -113l-26 -217h-146l33 217h139z" />
    <glyph glyph-name="uni1ECB" unicode="&#x1ecb;" horiz-adv-x="532" 
d="M479 1520l-35 -226h-159l30 226h164zM406 1057l-142 -1057h-147l145 1057h144zM254 -113l-29 -217h-143l33 217h139z" />
    <glyph glyph-name="uni1ECC" unicode="&#x1ecc;" horiz-adv-x="1472" 
d="M662 -20q-283 0 -416 196.5t-84 556.5q49 366 236.5 567t469.5 201q281 0 415 -200.5t85 -563.5q-51 -362 -237 -559.5t-469 -197.5zM684 115q215 0 348 153.5t174 466.5q42 317 -49.5 474t-304.5 157q-214 0 -349 -157.5t-179 -473.5q-41 -312 52.5 -466t307.5 -154z
M707 -113l-27 -217h-145l32 217h140z" />
    <glyph glyph-name="uni1ECD" unicode="&#x1ecd;" 
d="M483 -20q-213 0 -315 148.5t-68 393.5q33 248 179 401.5t358 153.5q211 0 312.5 -152.5t68.5 -398.5q-31 -246 -175.5 -396t-359.5 -150zM506 92q149 0 243.5 121t118.5 315q27 194 -36 315.5t-214 121.5q-101 0 -180 -58.5t-125 -155.5t-63 -223q-17 -125 3.5 -221.5
t85 -155.5t167.5 -59zM549 -113l-27 -217h-143l31 217h139z" />
    <glyph glyph-name="uni1ECE" unicode="&#x1ece;" horiz-adv-x="1425" 
d="M725 1903l27 -86q66 47 110 47q35 0 52.5 -13.5t13.5 -46.5q-4 -25 -29.5 -52t-85.5 -79l45 -65q9 8 31.5 29t31.5 30t26.5 27t25.5 29t18.5 26.5t15.5 30.5t7 30q9 66 -28.5 105t-106.5 39q-73 0 -154 -51zM662 -20q-283 0 -416 196.5t-84 556.5q49 366 236.5 567
t469.5 201q281 0 415 -200.5t85 -563.5q-51 -362 -237 -559.5t-469 -197.5zM684 115q215 0 348 153.5t174 466.5q42 317 -49.5 474t-304.5 157q-214 0 -349 -157.5t-179 -473.5q-41 -312 52.5 -466t307.5 -154z" />
    <glyph glyph-name="uni1ECF" unicode="&#x1ecf;" horiz-adv-x="1134" 
d="M522 1479l27 -86q66 47 110 47q35 0 52.5 -13.5t13.5 -46.5q-1 -6 -3.5 -12t-6.5 -13t-8 -12.5t-11.5 -13.5t-13 -14t-16 -15.5t-17 -15t-19.5 -17t-20 -18.5l45 -65q9 8 31.5 29t31.5 30t26.5 27t25.5 29t18.5 26.5t15.5 30.5t7 30q9 66 -28.5 105t-106.5 39
q-77 0 -154 -51zM483 -20q-213 0 -315 148.5t-68 393.5q33 248 179 401.5t358 153.5q211 0 312.5 -152.5t68.5 -398.5q-31 -246 -175.5 -396t-359.5 -150zM506 92q149 0 243.5 121t118.5 315q27 194 -36 315.5t-214 121.5q-101 0 -180 -58.5t-125 -155.5t-63 -223
q-17 -125 3.5 -221.5t85 -155.5t167.5 -59z" />
    <glyph glyph-name="uni1ED0" unicode="&#x1ed0;" horiz-adv-x="1425" 
d="M1161 2226l27 -129l-504 -158l-20 84zM1018 1688l-123 133l-170 -133h-154l271 221h106l211 -221h-141zM662 -20q-283 0 -416 196.5t-84 556.5q49 366 236.5 567t469.5 201q281 0 415 -200.5t85 -563.5q-51 -362 -237 -559.5t-469 -197.5zM684 115q215 0 348 153.5
t174 466.5q42 317 -49.5 474t-304.5 157q-214 0 -349 -157.5t-179 -473.5q-41 -312 52.5 -466t307.5 -154z" />
    <glyph glyph-name="uni1ED1" unicode="&#x1ed1;" horiz-adv-x="1134" 
d="M958 1802l25 -129l-502 -157l-20 83zM813 1264l-121 133l-170 -133h-153l270 221h106l211 -221h-143zM483 -20q-213 0 -315 148.5t-68 393.5q33 248 179 401.5t358 153.5q211 0 312.5 -152.5t68.5 -398.5q-31 -246 -175.5 -396t-359.5 -150zM506 92q149 0 243.5 121
t118.5 315q27 194 -36 315.5t-214 121.5q-101 0 -180 -58.5t-125 -155.5t-63 -223q-17 -125 3.5 -221.5t85 -155.5t167.5 -59z" />
    <glyph glyph-name="uni1ED2" unicode="&#x1ed2;" horiz-adv-x="1425" 
d="M705 2220l450 -203l-43 -78l-465 158zM1018 1688l-123 133l-170 -133h-154l271 221h106l211 -221h-141zM662 -20q-283 0 -416 196.5t-84 556.5q49 366 236.5 567t469.5 201q281 0 415 -200.5t85 -563.5q-51 -362 -237 -559.5t-469 -197.5zM684 115q215 0 348 153.5
t174 466.5q42 317 -49.5 474t-304.5 157q-214 0 -349 -157.5t-179 -473.5q-41 -312 52.5 -466t307.5 -154z" />
    <glyph glyph-name="uni1ED3" unicode="&#x1ed3;" horiz-adv-x="1134" 
d="M500 1796l452 -203l-43 -77l-465 157zM813 1264l-121 133l-170 -133h-153l270 221h106l211 -221h-143zM483 -20q-213 0 -315 148.5t-68 393.5q33 248 179 401.5t358 153.5q211 0 312.5 -152.5t68.5 -398.5q-31 -246 -175.5 -396t-359.5 -150zM506 92q149 0 243.5 121
t118.5 315q27 194 -36 315.5t-214 121.5q-101 0 -180 -58.5t-125 -155.5t-63 -223q-17 -125 3.5 -221.5t85 -155.5t167.5 -59z" />
    <glyph glyph-name="uni1ED4" unicode="&#x1ed4;" horiz-adv-x="1425" 
d="M1047 2097l26 -84q65 45 111 45q36 0 52.5 -12t12.5 -45q-1 -6 -3.5 -12.5t-7 -13.5t-8.5 -12.5t-11.5 -14t-12.5 -13.5t-15.5 -15t-16 -15t-19.5 -17t-20 -18l45 -68q7 7 27.5 26t28 26t24 23.5t23.5 25.5t18 24t16.5 26t10.5 24.5t7 27.5q9 66 -28.5 105.5t-106.5 39.5
q-73 0 -153 -53zM1018 1688l-123 133l-170 -133h-154l271 221h106l211 -221h-141zM662 -20q-283 0 -416 196.5t-84 556.5q49 366 236.5 567t469.5 201q281 0 415 -200.5t85 -563.5q-51 -362 -237 -559.5t-469 -197.5zM684 115q215 0 348 153.5t174 466.5q42 317 -49.5 474
t-304.5 157q-214 0 -349 -157.5t-179 -473.5q-41 -312 52.5 -466t307.5 -154z" />
    <glyph glyph-name="uni1ED5" unicode="&#x1ed5;" horiz-adv-x="1134" 
d="M848 1673l26 -84q68 45 111 45q36 0 53 -12t13 -45q-1 -8 -4.5 -16t-10.5 -17.5t-13 -16.5t-17.5 -18t-19.5 -18.5t-24.5 -22t-25.5 -22.5l45 -68q7 7 31 29.5l32 30t26.5 26.5t25.5 29.5t18 26.5t16 31t7 30q9 66 -29 105.5t-107 39.5q-73 0 -153 -53zM813 1264
l-121 133l-170 -133h-153l270 221h106l211 -221h-143zM483 -20q-213 0 -315 148.5t-68 393.5q33 248 179 401.5t358 153.5q211 0 312.5 -152.5t68.5 -398.5q-31 -246 -175.5 -396t-359.5 -150zM506 92q149 0 243.5 121t118.5 315q27 194 -36 315.5t-214 121.5
q-101 0 -180 -58.5t-125 -155.5t-63 -223q-17 -125 3.5 -221.5t85 -155.5t167.5 -59z" />
    <glyph glyph-name="uni1ED6" unicode="&#x1ed6;" horiz-adv-x="1425" 
d="M1214 2077q-75 -43 -163 -43q-55 0 -123.5 24.5t-106.5 24.5q-31 0 -56 -9t-48.5 -24t-36.5 -20l-25 98q78 55 158 55q50 0 125.5 -26.5t114.5 -26.5q28 0 52 9t49.5 23t41.5 19zM1018 1688l-123 133l-170 -133h-154l271 221h106l211 -221h-141zM662 -20
q-283 0 -416 196.5t-84 556.5q49 366 236.5 567t469.5 201q281 0 415 -200.5t85 -563.5q-51 -362 -237 -559.5t-469 -197.5zM684 115q215 0 348 153.5t174 466.5q42 317 -49.5 474t-304.5 157q-214 0 -349 -157.5t-179 -473.5q-41 -312 52.5 -466t307.5 -154z" />
    <glyph glyph-name="uni1ED7" unicode="&#x1ed7;" horiz-adv-x="1134" 
d="M1012 1653q-75 -43 -164 -43q-55 0 -123.5 24.5t-106.5 24.5q-32 0 -56.5 -9t-48 -24t-36.5 -20l-24 98q78 55 155 55q51 0 127 -26.5t115 -26.5q28 0 52 9t49.5 23t41.5 19zM813 1264l-121 133l-170 -133h-153l270 221h106l211 -221h-143zM483 -20q-213 0 -315 148.5
t-68 393.5q33 248 179 401.5t358 153.5q211 0 312.5 -152.5t68.5 -398.5q-31 -246 -175.5 -396t-359.5 -150zM506 92q149 0 243.5 121t118.5 315q27 194 -36 315.5t-214 121.5q-101 0 -180 -58.5t-125 -155.5t-63 -223q-17 -125 3.5 -221.5t85 -155.5t167.5 -59z" />
    <glyph glyph-name="uni1ED8" unicode="&#x1ed8;" horiz-adv-x="1425" 
d="M1018 1688l-123 133l-170 -133h-154l271 221h106l211 -221h-141zM662 -20q-283 0 -416 196.5t-84 556.5q49 366 236.5 567t469.5 201q281 0 415 -200.5t85 -563.5q-51 -362 -237 -559.5t-469 -197.5zM684 115q215 0 348 153.5t174 466.5q42 317 -49.5 474t-304.5 157
q-214 0 -349 -157.5t-179 -473.5q-41 -312 52.5 -466t307.5 -154zM705 -113l-29 -217h-144l33 217h140z" />
    <glyph glyph-name="uni1ED9" unicode="&#x1ed9;" horiz-adv-x="1134" 
d="M813 1264l-121 133l-170 -133h-153l270 221h106l211 -221h-143zM483 -20q-213 0 -315 148.5t-68 393.5q33 248 179 401.5t358 153.5q211 0 312.5 -152.5t68.5 -398.5q-31 -246 -175.5 -396t-359.5 -150zM506 92q149 0 243.5 121t118.5 315q27 194 -36 315.5t-214 121.5
q-101 0 -180 -58.5t-125 -155.5t-63 -223q-17 -125 3.5 -221.5t85 -155.5t167.5 -59zM549 -113l-27 -217h-143l31 217h139z" />
    <glyph glyph-name="uni1EDA" unicode="&#x1eda;" horiz-adv-x="1400" 
d="M1182 1802l-504 -157l-21 84l498 200zM1149 1430q139 -84 196.5 -261.5t22.5 -431.5q-51 -362 -237 -559.5t-469 -197.5t-416 196.5t-84 556.5q49 366 236.5 567t469.5 201q78 0 138 -14v4q102 0 153 121h125q-34 -120 -135 -182zM1206 735q42 317 -49.5 474t-304.5 157
q-214 0 -349 -157.5t-179 -473.5q-41 -312 52.5 -466t307.5 -154q215 0 348 153.5t174 466.5z" />
    <glyph glyph-name="uni1EDB" unicode="&#x1edb;" horiz-adv-x="1128" 
d="M942 1378l-504 -157l-20 84l500 200zM897 985q78 -72 109.5 -191t11.5 -268q-31 -246 -175.5 -396t-359.5 -150q-213 0 -315 148.5t-68 393.5q33 248 179 401.5t358 153.5q75 0 143 -22q93 5 144 121h125q-42 -135 -152 -191zM868 528q27 194 -36 315.5t-214 121.5
q-101 0 -180 -58.5t-125 -155.5t-63 -223q-17 -125 3.5 -221.5t85 -155.5t167.5 -59q149 0 243.5 121t118.5 315z" />
    <glyph glyph-name="uni1EDC" unicode="&#x1edc;" horiz-adv-x="1400" 
d="M1149 1720l-43 -75l-463 157l55 123zM1149 1430q139 -84 196.5 -261.5t22.5 -431.5q-51 -362 -237 -559.5t-469 -197.5t-416 196.5t-84 556.5q49 366 236.5 567t469.5 201q78 0 138 -14v4q102 0 153 121h125q-34 -120 -135 -182zM1206 735q42 317 -49.5 474t-304.5 157
q-214 0 -349 -157.5t-179 -473.5q-41 -312 52.5 -466t307.5 -154q215 0 348 153.5t174 466.5z" />
    <glyph glyph-name="uni1EDD" unicode="&#x1edd;" horiz-adv-x="1128" 
d="M909 1296l-43 -75l-463 157l56 123zM897 985q78 -72 109.5 -191t11.5 -268q-31 -246 -175.5 -396t-359.5 -150q-213 0 -315 148.5t-68 393.5q33 248 179 401.5t358 153.5q75 0 143 -22q93 5 144 121h125q-42 -135 -152 -191zM868 528q27 194 -36 315.5t-214 121.5
q-101 0 -180 -58.5t-125 -155.5t-63 -223q-17 -125 3.5 -221.5t85 -155.5t167.5 -59q149 0 243.5 121t118.5 315z" />
    <glyph glyph-name="uni1EDE" unicode="&#x1ede;" horiz-adv-x="1400" 
d="M897 1864q-48 0 -111 -47l-26 86q77 51 153 51q70 0 107 -39.5t27 -104.5q-1 -14 -6 -27.5t-10 -24.5t-16.5 -26t-18.5 -23.5t-24 -25t-24.5 -23.5t-28.5 -26t-28 -26l-43 65q79 71 95 94q15 20 18 37q6 33 -11.5 46.5t-52.5 13.5zM1149 1430q139 -84 196.5 -261.5
t22.5 -431.5q-51 -362 -237 -559.5t-469 -197.5t-416 196.5t-84 556.5q49 366 236.5 567t469.5 201q78 0 138 -14v4q102 0 153 121h125q-34 -120 -135 -182zM1206 735q42 317 -49.5 474t-304.5 157q-214 0 -349 -157.5t-179 -473.5q-41 -312 52.5 -466t307.5 -154
q215 0 348 153.5t174 466.5z" />
    <glyph glyph-name="uni1EDF" unicode="&#x1edf;" horiz-adv-x="1128" 
d="M657 1440q-47 0 -110 -47l-27 86q77 51 154 51q69 0 106.5 -39t28.5 -105q-2 -15 -7 -29.5t-16 -31t-17.5 -26.5t-26.5 -29.5t-26.5 -26t-33 -30.5t-31.5 -29l-43 65q79 71 95 94q15 20 18 37q6 33 -11.5 46.5t-52.5 13.5zM897 985q78 -72 109.5 -191t11.5 -268
q-31 -246 -175.5 -396t-359.5 -150q-213 0 -315 148.5t-68 393.5q33 248 179 401.5t358 153.5q75 0 143 -22q93 5 144 121h125q-42 -135 -152 -191zM868 528q27 194 -36 315.5t-214 121.5q-101 0 -180 -58.5t-125 -155.5t-63 -223q-17 -125 3.5 -221.5t85 -155.5t167.5 -59
q149 0 243.5 121t118.5 315z" />
    <glyph glyph-name="uni1EE0" unicode="&#x1ee0;" horiz-adv-x="1400" 
d="M815 1788q-31 0 -55.5 -9t-48 -24t-37.5 -20l-25 96q77 57 158 57q49 0 125 -26.5t117 -26.5q37 0 86.5 24.5t54.5 26.5l18 -104q-75 -43 -161 -43q-55 0 -124.5 24.5t-107.5 24.5zM1149 1430q139 -84 196.5 -261.5t22.5 -431.5q-51 -362 -237 -559.5t-469 -197.5
t-416 196.5t-84 556.5q49 366 236.5 567t469.5 201q78 0 138 -14v4q102 0 153 121h125q-34 -120 -135 -182zM1206 735q42 317 -49.5 474t-304.5 157q-214 0 -349 -157.5t-179 -473.5q-41 -312 52.5 -466t307.5 -154q215 0 348 153.5t174 466.5z" />
    <glyph glyph-name="uni1EE1" unicode="&#x1ee1;" horiz-adv-x="1128" 
d="M575 1364q-31 0 -55.5 -9t-48 -24t-37.5 -20l-24 96q77 57 157 57q49 0 125 -26.5t117 -26.5q37 0 86.5 24.5t54.5 26.5l21 -104q-80 -43 -164 -43q-55 0 -124.5 24.5t-107.5 24.5zM897 985q78 -72 109.5 -191t11.5 -268q-31 -246 -175.5 -396t-359.5 -150
q-213 0 -315 148.5t-68 393.5q33 248 179 401.5t358 153.5q75 0 143 -22q93 5 144 121h125q-42 -135 -152 -191zM868 528q27 194 -36 315.5t-214 121.5q-101 0 -180 -58.5t-125 -155.5t-63 -223q-17 -125 3.5 -221.5t85 -155.5t167.5 -59q149 0 243.5 121t118.5 315z" />
    <glyph glyph-name="uni1EE2" unicode="&#x1ee2;" horiz-adv-x="1400" 
d="M1149 1430q139 -84 196.5 -261.5t22.5 -431.5q-51 -362 -237 -559.5t-469 -197.5t-416 196.5t-84 556.5q49 366 236.5 567t469.5 201q78 0 138 -14v4q102 0 153 121h125q-34 -120 -135 -182zM1206 735q42 317 -49.5 474t-304.5 157q-214 0 -349 -157.5t-179 -473.5
q-41 -312 52.5 -466t307.5 -154q215 0 348 153.5t174 466.5zM535 -330l32 217h140l-29 -217h-143z" />
    <glyph glyph-name="uni1EE3" unicode="&#x1ee3;" horiz-adv-x="1128" 
d="M897 985q78 -72 109.5 -191t11.5 -268q-31 -246 -175.5 -396t-359.5 -150q-213 0 -315 148.5t-68 393.5q33 248 179 401.5t358 153.5q75 0 143 -22q93 5 144 121h125q-42 -135 -152 -191zM868 528q27 194 -36 315.5t-214 121.5q-101 0 -180 -58.5t-125 -155.5t-63 -223
q-17 -125 3.5 -221.5t85 -155.5t167.5 -59q149 0 243.5 121t118.5 315zM381 -330l33 217h139l-27 -217h-145z" />
    <glyph glyph-name="uni1EE4" unicode="&#x1ee4;" horiz-adv-x="1370" 
d="M1212 492q-69 -512 -573 -512q-261 0 -363.5 133t-66.5 403l129 965h154l-134 -996q-26 -185 50 -278.5t249 -93.5q355 0 410 372l131 996h148zM666 -113l-27 -217h-145l32 217h140z" />
    <glyph glyph-name="uni1EE5" unicode="&#x1ee5;" horiz-adv-x="1146" 
d="M414 -18q-147 1 -221.5 84t-57.5 219l105 776h147l-100 -742q-15 -105 29 -163t149 -58q87 0 158.5 38t185.5 130l106 795h148l-143 -1059h-119l10 164q-121 -98 -211.5 -141.5t-185.5 -42.5zM561 -113l-26 -217h-146l33 217h139z" />
    <glyph glyph-name="uni1EE6" unicode="&#x1ee6;" horiz-adv-x="1415" 
d="M717 1903l26 -86q63 47 111 47q35 0 52.5 -13.5t11.5 -46.5q-6 -34 -99 -118q-9 -9 -14 -13l43 -65q6 5 25.5 23t25 23.5t22 21t22 22.5t17.5 20.5t17 22.5t12 21.5t10 24t5 23.5q10 65 -27.5 104.5t-106.5 39.5q-76 0 -153 -51zM1212 492q-69 -512 -573 -512
q-261 0 -363.5 133t-66.5 403l129 965h154l-134 -996q-26 -185 50 -278.5t249 -93.5q355 0 410 372l131 996h148z" />
    <glyph glyph-name="uni1EE7" unicode="&#x1ee7;" horiz-adv-x="1146" 
d="M512 1479l29 -86q63 47 110 47q34 0 52 -13.5t12 -46.5q-4 -25 -29.5 -52t-85.5 -79l45 -65q9 8 31.5 29t31.5 30t26.5 27t25.5 29t18.5 26.5t15.5 30.5t7 30q10 65 -27.5 104.5t-107.5 39.5q-73 0 -154 -51zM414 -18q-147 1 -221.5 84t-57.5 219l105 776h147l-100 -742
q-15 -105 29 -163t149 -58q87 0 158.5 38t185.5 130l106 795h148l-143 -1059h-119l10 164q-121 -98 -211.5 -141.5t-185.5 -42.5z" />
    <glyph glyph-name="uni1EE8" unicode="&#x1ee8;" horiz-adv-x="1351" 
d="M1130 1802l-503 -157l-21 84l498 200zM1602 1614q-25 -90 -94 -153t-175 -70l-121 -899q-69 -512 -573 -512q-261 0 -363.5 133t-66.5 403l129 965h154l-134 -996q-26 -185 50 -278.5t249 -93.5q355 0 410 372l131 996h123l2 12q103 0 154 121h125z" />
    <glyph glyph-name="uni1EE9" unicode="&#x1ee9;" horiz-adv-x="1140" 
d="M940 1378l-504 -157l-20 84l497 200zM1272 1176q-24 -78 -80.5 -138.5t-142.5 -79.5l-129 -956h-119l10 164q-121 -98 -211.5 -141.5t-185.5 -42.5q-147 1 -221.5 84t-57.5 219l105 776h147l-100 -742q-15 -105 29 -163t149 -58q87 0 158.5 38t185.5 130l106 795h123
q70 20 109 115h125z" />
    <glyph glyph-name="uni1EEA" unicode="&#x1eea;" horiz-adv-x="1351" 
d="M1098 1720l-43 -75l-465 157l57 123zM1602 1614q-25 -90 -94 -153t-175 -70l-121 -899q-69 -512 -573 -512q-261 0 -363.5 133t-66.5 403l129 965h154l-134 -996q-26 -185 50 -278.5t249 -93.5q355 0 410 372l131 996h123l2 12q103 0 154 121h125z" />
    <glyph glyph-name="uni1EEB" unicode="&#x1eeb;" horiz-adv-x="1140" 
d="M905 1296l-41 -75l-465 157l56 123zM1272 1176q-24 -78 -80.5 -138.5t-142.5 -79.5l-129 -956h-119l10 164q-121 -98 -211.5 -141.5t-185.5 -42.5q-147 1 -221.5 84t-57.5 219l105 776h147l-100 -742q-15 -105 29 -163t149 -58q87 0 158.5 38t185.5 130l106 795h123
q70 20 109 115h125z" />
    <glyph glyph-name="uni1EEC" unicode="&#x1eec;" horiz-adv-x="1351" 
d="M846 1864q-48 0 -111 -47l-28 86q81 51 155 51q68 0 105.5 -39.5t27.5 -104.5q-2 -15 -7 -29.5t-15.5 -31t-18 -27t-25.5 -29t-26 -26l-32 -30t-31 -29.5l-43 65q35 32 45 41t30.5 30t27.5 34t9 26q6 33 -11.5 46.5t-51.5 13.5zM1602 1614q-25 -90 -94 -153t-175 -70
l-121 -899q-69 -512 -573 -512q-261 0 -363.5 133t-66.5 403l129 965h154l-134 -996q-26 -185 50 -278.5t249 -93.5q355 0 410 372l131 996h123l2 12q103 0 154 121h125z" />
    <glyph glyph-name="uni1EED" unicode="&#x1eed;" horiz-adv-x="1140" 
d="M657 1440q-47 0 -110 -47l-27 86q77 51 154 51q69 0 106.5 -39t28.5 -105q-2 -15 -7 -29.5t-16 -31t-17.5 -26.5t-26.5 -29.5t-26.5 -26t-33 -30.5t-31.5 -29l-43 65q79 71 95 94q15 20 18 37q6 33 -11.5 46.5t-52.5 13.5zM1272 1176q-24 -78 -80.5 -138.5t-142.5 -79.5
l-129 -956h-119l10 164q-121 -98 -211.5 -141.5t-185.5 -42.5q-147 1 -221.5 84t-57.5 219l105 776h147l-100 -742q-15 -105 29 -163t149 -58q87 0 158.5 38t185.5 130l106 795h123q70 20 109 115h125z" />
    <glyph glyph-name="uni1EEE" unicode="&#x1eee;" horiz-adv-x="1351" 
d="M764 1788q-31 0 -56 -9t-48.5 -24t-36.5 -20l-25 96q77 57 158 57q50 0 125 -26.5t114 -26.5q28 0 52.5 9t50 23t41.5 19l18 -104q-75 -43 -164 -43q-55 0 -123 24.5t-106 24.5zM1602 1614q-25 -90 -94 -153t-175 -70l-121 -899q-69 -512 -573 -512q-261 0 -363.5 133
t-66.5 403l129 965h154l-134 -996q-26 -185 50 -278.5t249 -93.5q355 0 410 372l131 996h123l2 12q103 0 154 121h125z" />
    <glyph glyph-name="uni1EEF" unicode="&#x1eef;" horiz-adv-x="1140" 
d="M573 1364q-32 0 -56.5 -9t-48 -24t-36.5 -20l-26 96q41 29 76 43t81 14q50 0 126.5 -26.5t115.5 -26.5q37 0 86.5 24.5t54.5 26.5l21 -104q-80 -43 -164 -43q-55 0 -123.5 24.5t-106.5 24.5zM1272 1176q-24 -78 -80.5 -138.5t-142.5 -79.5l-129 -956h-119l10 164
q-121 -98 -211.5 -141.5t-185.5 -42.5q-147 1 -221.5 84t-57.5 219l105 776h147l-100 -742q-15 -105 29 -163t149 -58q87 0 158.5 38t185.5 130l106 795h123q70 20 109 115h125z" />
    <glyph glyph-name="uni1EF0" unicode="&#x1ef0;" horiz-adv-x="1351" 
d="M1602 1614q-25 -90 -94 -153t-175 -70l-121 -899q-69 -512 -573 -512q-261 0 -363.5 133t-66.5 403l129 965h154l-134 -996q-26 -185 50 -278.5t249 -93.5q355 0 410 372l131 996h123l2 12q103 0 154 121h125zM502 -330l33 217h139l-27 -217h-145z" />
    <glyph glyph-name="uni1EF1" unicode="&#x1ef1;" horiz-adv-x="1140" 
d="M1272 1176q-24 -78 -80.5 -138.5t-142.5 -79.5l-129 -956h-119l10 164q-121 -98 -211.5 -141.5t-185.5 -42.5q-147 1 -221.5 84t-57.5 219l105 776h147l-100 -742q-15 -105 29 -163t149 -58q87 0 158.5 38t185.5 130l106 795h123q70 20 109 115h125zM379 -330l33 217h139
l-27 -217h-145z" />
    <glyph glyph-name="Ygrave" unicode="&#x1ef2;" horiz-adv-x="1142" 
d="M526 1925l451 -205l-43 -75l-465 157zM1257 1481l-591 -848l-86 -633h-146l86 635l-368 846h155l303 -713l488 713h159z" />
    <glyph glyph-name="ygrave" unicode="&#x1ef3;" horiz-adv-x="1052" 
d="M436 1501l451 -205l-43 -75l-463 157zM137 -338q-51 0 -87.5 6t-47.5 12l-10 5l14 98l109 -2q94 -1 143 32.5t78 90.5l57 114l-258 1039h150l202 -862l435 862h141l-590 -1163q-68 -126 -149.5 -179t-186.5 -53z" />
    <glyph glyph-name="uni1EF4" unicode="&#x1ef4;" horiz-adv-x="1130" 
d="M1257 1481l-591 -848l-86 -633h-146l86 635l-368 846h155l303 -713l488 713h159zM420 -113l-27 -217h-145l33 217h139z" />
    <glyph glyph-name="uni1EF5" unicode="&#x1ef5;" horiz-adv-x="1001" 
d="M123 -338q-50 0 -86 6t-47 12l-10 5l14 98l108 -2q94 -1 143.5 32.5t78.5 90.5l57 114l-258 1039h149l203 -862l432 862h144l-590 -1163q-67 -126 -149.5 -179t-188.5 -53zM731 -113l-26 -217h-146l33 217h139z" />
    <glyph glyph-name="uni1EF6" unicode="&#x1ef6;" horiz-adv-x="1136" 
d="M586 1903l28 -86q63 47 111 47q35 0 52 -13.5t11 -46.5q-2 -13 -9 -26t-27.5 -34t-30.5 -30t-45 -41l43 -65q5 4 23 20.5t22.5 21t20 19.5t20.5 20.5t17 18.5t16 20t12 19t11.5 21t7.5 20t5 22q10 65 -27.5 104.5t-105.5 39.5q-74 0 -155 -51zM1257 1481l-591 -848
l-86 -633h-146l86 635l-368 846h155l303 -713l488 713h159z" />
    <glyph glyph-name="uni1EF7" unicode="&#x1ef7;" horiz-adv-x="1064" 
d="M500 1479l26 -86q66 47 113 47q34 0 51.5 -13.5t11.5 -46.5q-4 -25 -29.5 -52.5t-84.5 -78.5l45 -65q7 7 31 29.5l32 30t26 26t25.5 29t18 27t15.5 31t7 29.5q10 65 -27.5 104.5t-107.5 39.5q-72 0 -153 -51zM137 -338q-51 0 -87.5 6t-47.5 12l-10 5l14 98l109 -2
q94 -1 143 32.5t78 90.5l57 114l-258 1039h150l202 -862l435 862h141l-590 -1163q-68 -126 -149.5 -179t-186.5 -53z" />
    <glyph glyph-name="uni1EF8" unicode="&#x1ef8;" horiz-adv-x="1142" 
d="M1036 1782q-75 -43 -164 -43q-54 0 -122 24.5t-107 24.5q-31 0 -56 -9t-48.5 -24t-36.5 -20l-25 96q77 57 158 57q50 0 125 -26.5t114 -26.5q28 0 52.5 9t50 23t41.5 19zM1257 1481l-591 -848l-86 -633h-146l86 635l-368 846h155l303 -713l488 713h159z" />
    <glyph glyph-name="uni1EF9" unicode="&#x1ef9;" horiz-adv-x="1052" 
d="M948 1358q-80 -43 -164 -43q-54 0 -123 24.5t-108 24.5q-31 0 -55.5 -9t-47.5 -24t-36 -20l-27 96q77 57 158 57q49 0 125 -26.5t116 -26.5q28 0 52 9t49 23t41 19zM137 -338q-51 0 -87.5 6t-47.5 12l-10 5l14 98l109 -2q94 -1 143 32.5t78 90.5l57 114l-258 1039h150
l202 -862l435 862h141l-590 -1163q-68 -126 -149.5 -179t-186.5 -53z" />
    <glyph glyph-name="endash" unicode="&#x2013;" horiz-adv-x="1091" 
d="M961 578l-19 -123l-821 -2l18 122z" />
    <glyph glyph-name="emdash" unicode="&#x2014;" horiz-adv-x="1708" 
d="M1577 578l-14 -123l-1442 -2l18 122z" />
    <glyph glyph-name="quoteleft" unicode="&#x2018;" horiz-adv-x="468" 
d="M498 1546l-142 -243l78 -3l-28 -204h-203l22 176l195 274h78z" />
    <glyph glyph-name="quoteright" unicode="&#x2019;" horiz-adv-x="411" 
d="M170 1030l141 244l-78 4l27 203h205l-23 -176l-194 -275h-78z" />
    <glyph glyph-name="quotesinglbase" unicode="&#x201a;" horiz-adv-x="446" 
d="M-14 -246l145 242l-84 4l27 205h209l-27 -170l-197 -281h-73z" />
    <glyph glyph-name="quotedblleft" unicode="&#x201c;" horiz-adv-x="788" 
d="M193 1030l24 176l195 275h77l-141 -244l78 -2l-27 -205h-206zM522 1030l23 176l194 275h78l-141 -244l80 -2l-29 -205h-205z" />
    <glyph glyph-name="quotedblright" unicode="&#x201d;" horiz-adv-x="798" 
d="M170 1030l141 244l-78 4l27 203h205l-23 -176l-194 -275h-78zM498 1030l141 244l-78 4l27 203h207l-25 -176l-195 -275h-77z" />
    <glyph glyph-name="quotedblbase" unicode="&#x201e;" horiz-adv-x="886" 
d="M-4 -246l180 242l-84 4l55 205h209l-49 -170l-237 -281h-74zM344 -246l180 242l-84 4l56 205h209l-50 -170l-237 -281h-74z" />
    <glyph glyph-name="dagger" unicode="&#x2020;" horiz-adv-x="858" 
d="M893 956l-21 -149l-352 24l-125 -1161h-159l188 1159l-365 -24l23 149l350 -20l47 547h162l-96 -545z" />
    <glyph glyph-name="daggerdbl" unicode="&#x2021;" horiz-adv-x="862" 
d="M520 821l-67 -508l356 23l-21 -150l-344 21l-49 -537h-162l97 535l-353 -19l21 148l354 -23l70 510l-363 -24l23 149l348 -20l49 555h162l-96 -553l348 18l-23 -147z" />
    <glyph glyph-name="bullet" unicode="&#x2022;" horiz-adv-x="620" 
d="M319 573q-75 0 -119.5 54.5t-33.5 132.5q9 72 65 122t125 50q75 0 120 -55.5t34 -133.5q-9 -71 -65 -120.5t-126 -49.5z" />
    <glyph glyph-name="ellipsis" unicode="&#x2026;" horiz-adv-x="1472" 
d="M270 211l-26 -211h-187l29 211h184zM795 211l-27 -211h-186l28 211h185zM1319 211l-27 -211h-186l31 211h182z" />
    <glyph glyph-name="perthousand" unicode="&#x2030;" horiz-adv-x="2557" 
d="M578 1503q147 0 223.5 -117t50.5 -315q-26 -193 -130.5 -304.5t-246.5 -111.5q-149 0 -226.5 116.5t-51.5 315.5q27 192 133 304t248 112zM1585 1497l-1161 -1505h-115l1161 1505h115zM473 745q101 0 173 94t93 246q21 148 -23 238t-141 90q-100 0 -172 -95.5t-94 -248.5
q-19 -145 24 -234.5t140 -89.5zM1360 825q148 0 225 -115.5t51 -312.5q-27 -195 -130.5 -306t-245.5 -111q-149 0 -226 116.5t-51 315.5q26 191 130.5 302t246.5 111zM2138 825q149 0 226.5 -116t50.5 -312q-27 -194 -130.5 -305.5t-244.5 -111.5q-150 0 -228 116.5
t-51 315.5q26 191 131 302t246 111zM1260 70q97 0 169.5 95.5t94.5 244.5q19 144 -26 235.5t-138 91.5q-97 0 -171 -97t-93 -245q-19 -142 26 -233.5t138 -91.5zM2038 70q97 0 170 96t94 244q19 144 -25.5 235.5t-138.5 91.5q-97 0 -171 -97t-93 -245q-19 -144 25 -234.5
t139 -90.5z" />
    <glyph glyph-name="guilsinglleft" unicode="&#x2039;" horiz-adv-x="532" 
d="M213 504l158 -357h-76l-221 371l313 379h96z" />
    <glyph glyph-name="guilsinglright" unicode="&#x203a;" horiz-adv-x="536" 
d="M313 520l-159 377h79l220 -393l-312 -357h-92z" />
    <glyph glyph-name="fraction" unicode="&#x2044;" horiz-adv-x="471" 
d="M897 1497l-1161 -1505h-115l1163 1505h113z" />
    <glyph glyph-name="uni2070" unicode="&#x2070;" horiz-adv-x="808" 
d="M528 1729q146 0 220.5 -126t44.5 -356q-31 -226 -139.5 -350.5t-254.5 -124.5t-221 123.5t-45 349.5q33 229 142 356.5t253 127.5zM412 856q106 0 178.5 95.5t99.5 295.5q27 203 -20 300.5t-152 97.5q-106 0 -179.5 -98t-100.5 -300q-27 -198 21 -294.5t153 -96.5z" />
    <glyph glyph-name="uni2074" unicode="&#x2074;" horiz-adv-x="811" 
d="M631 1710h94l-80 -596h139l-12 -82h-139l-33 -254h-94l35 254h-420l10 88zM217 1114h332l63 471z" />
    <glyph glyph-name="uni2075" unicode="&#x2075;" horiz-adv-x="778" 
d="M305 1710h529l-19 -86h-440l-70 -328q42 23 69.5 35.5t70.5 23.5t87 11q128 0 203 -71t56 -212q-20 -148 -126 -232.5t-257 -84.5q-93 0 -170.5 36.5t-126.5 104.5l75 58q52 -61 99 -89t121 -28q118 0 194 64t90 167q13 100 -39.5 152.5t-144.5 52.5q-41 0 -84.5 -13
t-70.5 -27t-68 -38q-5 -3 -8 -4t-4 -0.5t-4 3t-5 3.5l-57 37z" />
    <glyph glyph-name="uni2076" unicode="&#x2076;" horiz-adv-x="798" 
d="M555 1733q155 0 219 -131l-86 -37q-25 42 -57.5 63t-83.5 21q-125 0 -208.5 -101t-102.5 -280q98 45 149 60t109 15q136 0 202.5 -76.5t51.5 -197.5q-18 -129 -118 -211t-229 -82q-157 0 -229 122t-43 343q31 229 144.5 360.5t281.5 131.5zM471 1262q-49 0 -112.5 -17.5
t-104.5 -42.5q-17 -9 -23.5 -19.5t-9.5 -35.5q-6 -48 1.5 -97t28.5 -92.5t63.5 -71.5t99.5 -28q86 0 152 60.5t77 148.5q12 84 -35 139.5t-137 55.5z" />
    <glyph glyph-name="uni2077" unicode="&#x2077;" horiz-adv-x="710" 
d="M227 1710h617l-15 -98q-143 -176 -283.5 -432t-180.5 -402h-103q50 161 174 398.5t293 447.5h-514z" />
    <glyph glyph-name="uni2078" unicode="&#x2078;" horiz-adv-x="780" 
d="M530 1731q129 0 199 -71t55 -185q-6 -48 -28.5 -89.5t-53 -66.5t-50 -37.5t-34.5 -19.5q4 -2 15.5 -7.5t20.5 -10t23.5 -13.5t24.5 -17.5t23.5 -22.5t20 -29t14.5 -36t7 -43.5t-3 -52.5q-15 -116 -116 -186t-251 -70t-226.5 64.5t-61.5 179.5q8 67 57 129.5t143 105.5
q-12 4 -24.5 11t-33 24t-34.5 38.5t-22 58t-2 79.5q15 114 110 190.5t227 76.5zM520 1649q-86 0 -150.5 -51t-76.5 -128q-15 -119 108 -149l123 -31q37 -8 98.5 55t69.5 132q11 77 -35.5 124.5t-136.5 47.5zM414 854q102 0 170.5 48t79.5 126q15 118 -113 154l-156 39
q-24 6 -65.5 -17t-80 -72t-44.5 -104q-12 -82 42 -128t167 -46z" />
    <glyph glyph-name="uni2079" unicode="&#x2079;" horiz-adv-x="796" 
d="M354 776q-161 0 -227 129l84 39q51 -84 156 -84q129 0 209 113.5t100 341.5q-80 -150 -260 -150q-134 0 -200.5 76.5t-51.5 196.5q19 130 117 212.5t227 82.5q156 0 227.5 -123t40.5 -342q-31 -230 -143 -361t-279 -131zM436 1247q88 0 158 50.5t82 127.5
q-9 226 -178 226q-87 0 -154.5 -60t-77.5 -147q-12 -85 34.5 -141t135.5 -56z" />
    <glyph glyph-name="colonmonetary" unicode="&#x20a1;" horiz-adv-x="1161" 
d="M678 1174q-148 0 -251 -120t-130 -315q-26 -197 45 -315.5t221 -118.5q90 0 156.5 50.5t138.5 156.5l117 -45q-106 -184 -268 -246l-91 -221l-108 2l76 191q-24 -3 -47 -3q-15 0 -60 5l-78 -195l-108 2l84 217q-130 54 -189.5 190.5t-33.5 325.5q31 234 167 386t332 165
l76 193l109 2l-76 -199q49 -8 96 -31l88 228l109 2l-111 -293q57 -60 96 -166l-131 -43q-59 109 -104 152t-125 43z" />
    <glyph glyph-name="franc" unicode="&#x20a3;" horiz-adv-x="1189" 
d="M1194 1348h-731l-76 -557h635l-16 -134h-637l-37 -270h330l-15 -102h-328l-38 -285h-168l39 283h-189l17 104h186l147 1094h901z" />
    <glyph glyph-name="lira" unicode="&#x20a4;" horiz-adv-x="1196" 
d="M1053 260q-126 -260 -418 -260h-680l18 131h74q76 0 137.5 77t83.5 224q5 21 11 80q0 4 -6 4h-7h-213l13 105h215l-7 194h-180l12 105h168l-4 61q-1 112 23 201.5t65 148.5t99.5 97.5t124.5 55.5t143 17q126 0 228 -66.5t122 -162.5l-125 -47q-52 141 -215 141
q-114 0 -198 -69.5t-99 -186.5q-4 -21 -4 -180q2 -10 17 -10h329l-14 -103l-328 -2l4 -194h299l-16 -103h-283q-14 -106 -54 -210.5t-105 -174.5h354q103 0 173 40t112 128z" />
    <glyph glyph-name="uni20A6" unicode="&#x20a6;" horiz-adv-x="1423" 
d="M1454 893h-186l-33 -256h184l-12 -98h-186l-72 -539h-131l-277 539l-444 -2l-74 -537h-145l72 537h-130l13 100h131l33 254h-129l14 100h129l65 490h138l252 -490h469l65 490h148l-66 -490h186zM389 1221l-31 -230h150zM1087 637l35 256l-405 -2l131 -254h239zM309 637
h381l-131 254h-215zM1038 268l37 271h-176z" />
    <glyph glyph-name="uni20A9" unicode="&#x20a9;" horiz-adv-x="2056" 
d="M2085 946h-344l-90 -217h405l-12 -102h-436l-258 -627h-148l-84 627l-319 -2l-254 -625h-146l-86 625h-221l14 102h193l-31 217h-133l15 103h104l-59 434h149l57 -434h439l176 434h119l59 -432h442l176 432h150l-178 -432h315zM1038 1212l-67 -165h90zM1507 729l88 217
h-387l29 -217h270zM842 727l262 2l-29 215h-145zM416 944l28 -217h267l88 217h-383zM1305 229l161 398h-215zM510 229l160 396h-213z" />
    <glyph glyph-name="dong" unicode="&#x20ab;" horiz-adv-x="983" 
d="M1063 1346l-12 -89h-121l-133 -989h-125l14 113q-1 -1 -19.5 -18.5t-27 -24t-30 -23t-40 -25t-44.5 -19t-55.5 -15t-61.5 -4.5q-157 0 -242 116t-57 328q28 204 146.5 329.5t279.5 125.5q72 0 125 -25t110 -94l31 225h-271l13 89h270l18 133h130l-19 -133h121zM700 553
l56 391q-76 98 -193 98q-121 0 -206.5 -96.5t-108.5 -259.5q-21 -164 37.5 -247t165.5 -83q93 0 167 63t82 134zM59 0l13 94h708l-14 -94h-707z" />
    <glyph glyph-name="Euro" unicode="&#x20ac;" horiz-adv-x="1161" 
d="M856 1366q-165 0 -282.5 -103.5t-180.5 -306.5l404 2l-13 -102l-417 -2q-13 -50 -23 -123q-9 -76 -10 -98l422 2l-17 -105h-407q4 -203 94.5 -307t261.5 -104q133 0 256 96l78 -113q-165 -122 -356 -122q-232 0 -363.5 144.5t-142.5 405.5h-180l14 103h168q4 77 10 115
q6 52 18 106h-165l12 102h180q77 258 243 401.5t390 143.5q98 0 184.5 -37.5t147.5 -103.5l-105 -90q-107 96 -221 96z" />
    <glyph glyph-name="uni20B9" unicode="&#x20b9;" horiz-adv-x="1116" 
d="M1210 1483l-14 -101h-283q93 -84 93 -215h161l-12 -100h-162q-52 -240 -319 -336q-16 -3 -21 -18l168 -713h-178l-149 705h-449l16 122h363q168 0 265 57t130 183h-723l15 98l723 2q3 209 -281 209h-420l17 105z" />
    <glyph glyph-name="uni20BA" unicode="&#x20ba;" horiz-adv-x="1069" 
d="M891 496l143 -39q-99 -218 -262.5 -337.5t-380.5 -119.5h-235l61 455l-147 -54l-29 113l195 70l28 204l-160 -57l-26 111l203 73l77 566h164l-65 -502l284 102l27 -112l-330 -119l-26 -205l295 105l28 -111l-340 -121l-51 -385h96q140 2 252 89.5t199 273.5z" />
    <glyph glyph-name="uni2113" unicode="&#x2113;" horiz-adv-x="952" 
d="M336 438l-2 -32q-23 -169 9.5 -235.5t125.5 -66.5q75 0 135 37l-158 -161q-49 0 -89 11t-66.5 29.5t-47 43t-30.5 52.5t-17.5 58t-8.5 59t-2.5 54.5t0 46t-0.5 33.5q-3 2 -3.5 1.5t-3 -5t-3.5 -5.5l-102 -65l-39 104l168 115l71 530q31 227 136.5 343t250.5 116
q133 0 193 -90t39 -233q-9 -62 -33 -125.5t-52 -115t-77.5 -113.5t-86 -102.5t-102 -101.5t-100.5 -91.5t-104 -90.5zM412 991l-47 -379q66 52 126 111t124.5 137.5t109.5 170.5t57 183q24 172 -118 172q-96 0 -159.5 -91.5t-92.5 -303.5zM737 276q-71 -96 -133 -135
l141 146z" />
    <glyph glyph-name="uni2116" unicode="&#x2116;" horiz-adv-x="2269" 
d="M1989 1499q141 0 212.5 -98t51.5 -258q-21 -148 -112.5 -239t-231.5 -91q-143 0 -213 96t-49 250q22 153 115.5 246.5t226.5 93.5zM1262 1481h145l-199 -1481h-129l-630 1221l-164 -1221h-148l201 1481h137l623 -1213zM1989 1411q-94 0 -153.5 -70.5t-74.5 -191.5
q-17 -118 20.5 -184t127.5 -66q94 0 152.5 70.5t76.5 195.5q15 115 -22.5 180.5t-126.5 65.5z" />
    <glyph glyph-name="uni2117" unicode="&#x2117;" horiz-adv-x="1611" 
d="M735 -20q-120 0 -227.5 38.5t-188 109.5t-136 165.5t-76 211.5t-3.5 243q27 205 147 378t300.5 274t378.5 101q119 0 225.5 -39t187.5 -110t136.5 -165.5t77.5 -212t6 -241.5q-28 -206 -149 -379.5t-301.5 -273.5t-377.5 -100zM739 92q169 0 321 80t257 231.5t131 344.5
q19 141 -13.5 262.5t-104 204t-176 129.5t-226.5 47q-172 0 -325 -82t-257 -233.5t-129 -342.5q-19 -143 12 -264.5t102 -203.5t176.5 -127.5t231.5 -45.5zM524 338l109 795h287q129 0 199 -56.5t57 -169.5q-18 -122 -99.5 -185t-204.5 -63h-192l-43 -321h-113zM692 752h182
q71 0 124 40.5t63 108.5q8 77 -33 108t-119 31h-178z" />
    <glyph glyph-name="uni2120" unicode="&#x2120;" horiz-adv-x="1851" 
d="M334 -12q-223 0 -305 172l80 51q42 -73 91.5 -104t141.5 -31q221 0 240 155q7 52 -18 91t-99 69l-176 68q-172 68 -152 223q15 117 107 186.5t227 69.5q181 0 270 -137l-77 -56q-68 107 -205 107q-92 0 -152.5 -42.5t-70.5 -117.5q-10 -103 114 -151l166 -60
q99 -37 138 -96t28 -143q-17 -120 -110 -187t-238 -67zM823 0l123 926h123l182 -803l404 803h121l-125 -926h-97l105 762l-377 -762h-94l-168 754l-102 -754h-95z" />
    <glyph glyph-name="trademark" unicode="&#x2122;" horiz-adv-x="1781" 
d="M63 836l13 90h659l-12 -90h-274l-113 -836h-92l112 836h-293zM754 0l125 926h120l183 -803l403 803h121l-125 -926h-96l104 762l-375 -762h-96l-168 754l-102 -754h-94z" />
    <glyph glyph-name="uni2126" unicode="&#x2126;" horiz-adv-x="1484" 
d="M862 1366q-109 0 -202.5 -46.5t-160 -126t-110 -182.5t-59.5 -220q-7 -52 -7.5 -101t6 -92t16 -82.5t25 -75t31 -66.5t36.5 -60t38.5 -51t39.5 -45t37.5 -38t35.5 -33q31 -17 26 -53l-14 -94h-487l20 137h326q-74 61 -108 98q-228 242 -185 574l2 16q14 106 52.5 205
t101 184.5t142.5 149.5t184.5 100.5t219.5 36.5q98 0 182 -27t144 -74.5t106 -112.5t68.5 -141.5t31.5 -161.5t-5 -171q-13 -94 -47.5 -183.5t-73 -151.5t-92.5 -124t-88.5 -93t-79.5 -68t-47 -39q-9 -5 -12 -9t0 -6t12 -2h280l-18 -137h-488l21 143q55 36 101 70.5
t110.5 98t111.5 130.5t87 164t55 203q10 89 5.5 171t-32 152.5t-71 122.5t-112.5 81.5t-155 29.5z" />
    <glyph glyph-name="estimated" unicode="&#x212e;" horiz-adv-x="1609" 
d="M1382 303q-132 -148 -300 -235.5t-347 -87.5q-120 0 -227.5 38.5t-188 109.5t-136 165.5t-76 211.5t-3.5 243q27 205 147 378t300.5 274t378.5 101q146 0 274 -59t213.5 -158.5t126.5 -237t21 -286.5q-1 -13 -6 -17t-17 -4h-1067l-80 -585q135 -105 338 -105
q147 0 292.5 72t246.5 182h110zM932 1425q-188 0 -357 -98q-22 -13 -28 -37l-62 -473h697l71 524q-145 84 -321 84z" />
    <glyph glyph-name="uni2153" unicode="&#x2153;" horiz-adv-x="1839" 
d="M188 565l111 817l-186 -67l10 76l221 106h66l-125 -932h-97zM1475 1497l-1162 -1505h-116l1163 1505h115zM1202 805q52 61 134.5 97t166.5 36q132 0 205 -66.5t59 -169.5q-21 -151 -202 -213q92 -27 137 -89t33 -150q-18 -117 -120.5 -192.5t-254.5 -75.5
q-186 0 -289 141l78 55q46 -61 100 -86.5t129 -25.5q107 0 175 49.5t79 130.5q13 90 -50 141t-159 51h-120l12 82l100 2q96 0 169.5 51t82.5 125q8 67 -40 112.5t-132 45.5q-70 0 -126 -27t-112 -81z" />
    <glyph glyph-name="uni2154" unicode="&#x2154;" horiz-adv-x="1998" 
d="M47 571l12 88l330 299q118 103 167.5 167t59.5 132q10 86 -40 129.5t-121 43.5q-150 0 -242 -132l-66 48q129 170 326 170q122 0 189 -69.5t49 -189.5q-10 -80 -61 -149.5t-177 -185.5l-289 -265h457l-12 -86h-582zM1634 1497l-1161 -1505h-115l1164 1505h112zM1364 805
q50 61 133.5 97t167.5 36q132 0 204 -66.5t60 -169.5q-21 -150 -203 -213q91 -27 136 -89t32 -150q-15 -117 -117.5 -192.5t-254.5 -75.5q-186 0 -289 141l78 55q44 -61 98 -86.5t129 -25.5q107 0 176 49.5t80 130.5q13 90 -50 141t-159 51h-121l11 82l100 2q97 0 170 50.5
t82 125.5q9 67 -39 112.5t-133 45.5q-70 0 -125 -27t-111 -81z" />
    <glyph glyph-name="oneeighth" unicode="&#x215b;" horiz-adv-x="1853" 
d="M188 565l111 817l-186 -67l10 76l221 106h66l-125 -932h-97zM1475 1497l-1162 -1505h-116l1163 1505h115zM1489 936q130 0 200.5 -71t55.5 -185q-5 -39 -22 -74.5t-37 -58t-44.5 -41t-39 -27t-25.5 -12.5q4 -2 14 -6.5t18 -8.5t21 -11t22 -14t21.5 -18.5t20 -23
t16.5 -27.5t11.5 -33.5t5 -40.5t-2.5 -48q-15 -116 -115.5 -186t-250.5 -70q-151 0 -228.5 64t-60.5 179q8 67 57 130t142 106q-12 5 -24 11t-32.5 23.5t-34.5 39t-22.5 58t-3.5 79.5q17 114 112 190t226 76zM1481 854q-86 0 -151 -50.5t-77 -127.5q-15 -120 109 -150
l123 -30q37 -8 98.5 54.5t69.5 131.5q9 77 -37.5 124.5t-134.5 47.5zM1374 59q102 0 170 47.5t80 126.5q6 61 -21 98t-92 56l-155 39q-24 6 -66 -17t-81 -72t-46 -104q-12 -82 43 -128t168 -46z" />
    <glyph glyph-name="threeeighths" unicode="&#x215c;" horiz-adv-x="2045" 
d="M211 1382q52 61 135 97.5t166 36.5q132 0 205 -66.5t61 -169.5q-20 -149 -203 -213q90 -27 135 -89.5t33 -150.5q-15 -117 -118.5 -192.5t-255.5 -75.5q-184 0 -287 141l78 56q45 -61 99 -87t128 -26q107 0 175 49.5t79 130.5q13 90 -50 141.5t-159 51.5h-119l11 82
l100 2q96 0 169.5 51t82.5 125q9 67 -39.5 112.5t-132.5 45.5q-70 0 -126 -27.5t-112 -81.5zM1665 1497l-1161 -1505h-115l1163 1505h113zM1681 936q130 0 200.5 -71t53.5 -185q-6 -48 -28.5 -89.5t-53 -66.5t-50 -37.5t-34.5 -19.5q1 -1 24.5 -12t36.5 -18.5t35 -27.5
t33 -41.5t17.5 -56t1.5 -75.5q-17 -117 -117.5 -186.5t-251.5 -69.5q-149 0 -226 64t-62 179q10 67 58.5 130t141.5 106q-12 5 -24 11t-32.5 23.5t-34.5 39t-22.5 58t-3.5 79.5q15 114 110.5 190t227.5 76zM1671 854q-86 0 -150 -50.5t-75 -127.5q-15 -120 108 -150l123 -30
q37 -8 97.5 54.5t68.5 131.5q11 77 -35.5 124.5t-136.5 47.5zM1565 59q102 0 170.5 48t79.5 126q8 61 -19 98t-92 56l-158 39q-24 6 -65.5 -17t-80 -72t-44.5 -104q-12 -82 42.5 -128t166.5 -46z" />
    <glyph glyph-name="fiveeighths" unicode="&#x215d;" horiz-adv-x="2048" 
d="M274 1497h529l-17 -86h-440l-70 -328q43 23 69.5 35.5t70 23.5t88.5 11q128 0 202.5 -71t55.5 -212q-20 -148 -126 -232.5t-257 -84.5q-93 0 -170.5 36.5t-126.5 104.5l76 58q52 -62 98 -89.5t121 -27.5q118 0 194 64t88 167q13 100 -39 152.5t-143 52.5q-41 0 -84.5 -13
t-70.5 -27t-68 -38q-5 -3 -8 -4t-4 -0.5t-4 3t-5 3.5l-57 37zM1667 1497l-1161 -1505h-115l1163 1505h113zM1683 936q130 0 200.5 -71t53.5 -185q-6 -48 -28.5 -89.5t-52.5 -66.5t-49.5 -38t-34.5 -19q1 0 24.5 -11.5t36 -19t34.5 -27.5t33 -41.5t17.5 -56t1.5 -75.5
q-17 -117 -117.5 -186.5t-251.5 -69.5q-149 0 -226 64t-62 179q10 67 58.5 130t141.5 106q-16 6 -32 16.5t-41 34.5t-37 65.5t-6 94.5q15 114 110 190t227 76zM1673 854q-86 0 -150 -50.5t-75 -127.5q-15 -120 108 -150l123 -30q37 -8 97.5 54.5t68.5 131.5
q11 77 -35.5 124.5t-136.5 47.5zM1567 59q102 0 170.5 48t79.5 126q8 61 -19 98t-92 56l-158 39q-24 6 -65.5 -17t-80 -72t-44.5 -104q-12 -82 42.5 -128t166.5 -46z" />
    <glyph glyph-name="seveneighths" unicode="&#x215e;" horiz-adv-x="1976" 
d="M1595 1497l-1161 -1505h-115l1164 1505h112zM197 1495h616l-14 -98q-143 -176 -284 -432t-181 -402h-103q50 161 174 398.5t293 447.5h-514zM1612 936q130 0 200.5 -71t53.5 -185q-6 -48 -28.5 -89.5t-53 -66.5t-50 -37.5t-34.5 -19.5q1 0 24.5 -11.5t36 -19t34.5 -27.5
t33 -41.5t17.5 -56t1.5 -75.5q-17 -117 -117 -186.5t-251 -69.5q-149 0 -226.5 64t-62.5 179q10 67 59 130t142 106q-12 5 -24 11t-32.5 23.5t-34.5 39t-22.5 58t-3.5 79.5q15 114 110.5 190t227.5 76zM1602 854q-86 0 -151 -51t-75 -127q-15 -120 109 -150l123 -30
q37 -8 97.5 54.5t68.5 131.5q11 77 -35.5 124.5t-136.5 47.5zM1495 59q102 0 170.5 48t79.5 126q8 61 -19 98t-92 56l-157 39q-24 6 -66 -17t-80.5 -72t-44.5 -104q-12 -82 42.5 -128t166.5 -46z" />
    <glyph glyph-name="partialdiff" unicode="&#x2202;" horiz-adv-x="1148" 
d="M319 1266l-43 108q59 55 165.5 91t215.5 36q245 0 358 -195t62 -571q-47 -359 -201.5 -557t-390.5 -198q-134 0 -231 63t-139 172t-25 244q28 198 168 316t356 118q68 0 122 -15.5t84 -33.5t81 -56q17 -8 25 -1.5t8 20.5q37 271 -45.5 417t-276.5 146q-63 0 -121.5 -17.5
t-88.5 -34.5t-83 -52zM477 106h2q138 0 254.5 128.5t161.5 336.5q8 29 8.5 42.5t-6.5 29.5q-37 53 -120 90t-171 37q-140 0 -242 -95.5t-124 -242.5q-19 -137 50 -231.5t187 -94.5z" />
    <glyph glyph-name="emptyset" unicode="&#x2205;" horiz-adv-x="1132" 
d="M1087 1087l-131 -110q59 -108 41 -242q-23 -168 -156 -287.5t-296 -119.5q-145 0 -242 94l-145 -123l-62 76l148 123q-67 112 -49 254q25 170 155.5 288.5t294.5 118.5q157 0 256 -104l129 108zM283 735q-12 -102 28 -178l520 438q-75 72 -186 72q-130 0 -236 -97.5
t-126 -234.5zM907 752q14 83 -20 166l-514 -437q70 -61 172 -61q132 0 238.5 97.5t123.5 234.5z" />
    <glyph glyph-name="uni2206" unicode="&#x2206;" horiz-adv-x="1263" 
d="M2 0l25 152l649 1331l166 -2l295 -1352l-17 -129h-1118zM178 135h803l-244 1172z" />
    <glyph glyph-name="product" unicode="&#x220f;" horiz-adv-x="1263" 
d="M1362 1481l-21 -135h-198l-182 -1346h-160l184 1346h-479l-180 -1346h-160l182 1346h-201l19 135h1196z" />
    <glyph glyph-name="summation" unicode="&#x2211;" horiz-adv-x="1015" 
d="M891 0h-911l16 113l512 630l-318 631l17 107h848l-19 -131h-651l309 -607l-493 -608h708z" />
    <glyph glyph-name="minus" unicode="&#x2212;" horiz-adv-x="1087" 
d="M991 805l-16 -121l-821 -2l18 121z" />
    <glyph glyph-name="radical" unicode="&#x221a;" horiz-adv-x="1220" 
d="M1382 1688l-782 -2018h-158l-209 940l-149 -57l-29 106l287 107l193 -926l712 1848h135z" />
    <glyph glyph-name="infinity" unicode="&#x221e;" horiz-adv-x="1406" 
d="M1309 555v-2q-21 -151 -118.5 -238.5t-223.5 -87.5q-40 0 -74 10.5t-57.5 25t-49.5 42.5t-41 48.5t-40 58.5q-10 6 -15 3.5t-18 -18.5q-4 -3 -30 -28.5t-51 -45.5t-61.5 -44t-81.5 -38t-92 -14q-124 0 -199 92.5t-55 237.5q19 141 117.5 227t233.5 86q40 0 74 -9.5
t57 -21.5t48.5 -38t39.5 -44.5t39 -54.5q14 -13 22.5 -10t22.5 23q39 36 60.5 54.5t62.5 46.5t85 41t93 13q128 0 199 -86t53 -229zM371 348h6q63 0 130 49t114 111q23 25 25 38.5t-13 47.5q-41 80 -88.5 121t-110.5 41q-83 0 -143.5 -59t-71.5 -150q-12 -88 32 -143.5
t120 -55.5zM1047 756h-3q-34 0 -68 -14t-69 -43.5t-56.5 -50.5t-57.5 -60q-38 -38 -17 -82q91 -158 213 -158q79 0 134.5 65t66.5 148q13 78 -26.5 136.5t-116.5 58.5z" />
    <glyph glyph-name="integral" unicode="&#x222b;" horiz-adv-x="845" 
d="M412 1327q24 185 118 283t228 98q81 0 126.5 -15t94.5 -53l-51 -116q-82 39 -160 39q-79 0 -138 -58.5t-73 -173.5q-29 -215 -46 -654.5t-44 -641.5q-24 -187 -117.5 -286t-224.5 -99q-79 0 -123.5 14.5t-97.5 52.5l55 119q81 -41 160 -41q75 0 132 59t71 175
q30 218 46.5 657t43.5 641z" />
    <glyph glyph-name="approxequal" unicode="&#x2248;" horiz-adv-x="1112" 
d="M1034 915q-39 -47 -102.5 -77.5t-143.5 -30.5q-64 0 -122.5 25t-113.5 50t-110 25q-125 0 -227 -110l-39 104q48 39 78.5 59.5t80.5 39t103 18.5q49 0 98.5 -16t83.5 -35.5t79.5 -35.5t88.5 -16q70 0 118 30t89 79zM983 518q-41 -46 -105.5 -76t-144.5 -30q-67 0 -126 25
t-113 50t-107 25q-120 0 -225 -113l-39 107q69 56 128.5 85.5t131.5 29.5q50 0 100 -16t84 -34.5t79.5 -34.5t88.5 -16q119 0 205 107z" />
    <glyph glyph-name="notequal" unicode="&#x2260;" horiz-adv-x="1157" 
d="M1012 881h-236l-182 -326h373l-17 -121l-424 -2l-166 -293h-104l166 293h-293l16 121h347l184 328h-486l15 120h540l156 277h98l-155 -277h184z" />
    <glyph glyph-name="lessequal" unicode="&#x2264;" horiz-adv-x="1075" 
d="M940 629l-18 -142l-760 328l20 146l850 331l-22 -155l-654 -250zM897 254l-18 -121l-822 2l17 121z" />
    <glyph glyph-name="greaterequal" unicode="&#x2265;" horiz-adv-x="1081" 
d="M158 633l655 254l-586 258l19 145l758 -334l-19 -145l-846 -328zM102 254l820 2l-15 -121l-821 -2z" />
    <glyph glyph-name="lozenge" unicode="&#x25ca;" horiz-adv-x="931" 
d="M461 0h-125l-213 748l416 733h125l217 -748zM588 1352l-330 -615l156 -608l329 614z" />
    <glyph glyph-name="i.loclTRK" horiz-adv-x="501" 
d="M467 1481l-31 -228h-162l31 228h162zM399 1057l-145 -1057h-148l146 1057h147z" />
    <glyph glyph-name="g.001" horiz-adv-x="1157" 
d="M920 53q-13 -97 -50 -170.5t-85 -117t-112.5 -70t-124 -36t-126.5 -9.5q-138 0 -236 57.5t-149 132.5l84 68q46 -62 121.5 -102.5t167.5 -41.5q151 -2 248.5 65.5t117.5 199.5l19 135q-45 -64 -135.5 -118t-204.5 -54q-168 0 -268.5 109t-100.5 313q0 98 21.5 192.5
t65 180t105 150t147.5 102.5t185 38q83 0 158.5 -39.5t122.5 -122.5l24 142h142zM821 360l58 447q-34 72 -100.5 115t-141.5 43q-98 0 -177.5 -50t-128 -130.5t-74.5 -175t-26 -189.5q0 -156 75.5 -236t193.5 -80q117 0 213.5 83t107.5 173z" />
    <glyph glyph-name="l.ss01" horiz-adv-x="563" 
d="M137 0l207 1520h145l-202 -1520h-150z" />
    <glyph glyph-name="one.osf" horiz-adv-x="770" 
d="M293 0l174 1298l-295 -108l16 121l351 170h106l-199 -1481h-153z" />
    <glyph glyph-name="two.osf" horiz-adv-x="1136" 
d="M25 0l20 141l524 475q190 167 268.5 266.5t92.5 207.5q9 72 -10.5 127t-59.5 86t-87 46t-99 15q-239 0 -383 -209l-107 74q205 272 518 272q193 0 300.5 -109.5t80.5 -301.5q-18 -127 -98.5 -237.5t-279.5 -295.5l-461 -420h727l-19 -137h-927z" />
    <glyph glyph-name="three.osf" horiz-adv-x="1226" 
d="M256 1298q82 97 214 154t265 57q210 0 326 -106t94 -268q-33 -237 -321 -338q145 -43 216.5 -143t51.5 -240q-25 -185 -189 -305.5t-405 -120.5q-297 0 -459 225l123 88q74 -97 159.5 -138.5t203.5 -41.5q171 0 279 79t126 208q11 73 -12.5 132.5t-72 96.5t-112 57
t-135.5 21h-190l16 131l160 2q155 2 270.5 81.5t130.5 198.5q14 106 -63.5 178t-210.5 72q-112 0 -200.5 -43t-176.5 -131z" />
    <glyph glyph-name="four.osf" horiz-adv-x="1224" 
d="M893 1481h151l-129 -946h224l-19 -132h-221l-55 -403h-146l54 403h-668l18 142zM238 535h528l98 747z" />
    <glyph glyph-name="five.osf" horiz-adv-x="1273" 
d="M369 1481h839l-26 -135h-701l-110 -523q56 29 84 42.5t77.5 33t98 27.5t102.5 8q76 0 142.5 -16.5t122 -52t92 -87t51.5 -127t2 -166.5q-32 -235 -200 -370t-408 -135q-149 0 -272.5 58t-199.5 167l119 92q82 -97 156 -141.5t192 -44.5q187 0 308 101.5t143 266.5
q22 158 -61.5 241t-229.5 83q-65 0 -135 -21.5t-110 -42t-109 -59.5q-9 -5 -14 -6t-6.5 -0.5t-5.5 4.5t-7 6l-92 57z" />
    <glyph glyph-name="six.osf" horiz-adv-x="1224" 
d="M805 1501q130 0 216.5 -58.5t131.5 -148.5l-135 -61q-40 66 -92.5 100.5t-134.5 34.5q-197 0 -330.5 -161t-163.5 -445q153 71 235.5 95t174.5 24q217 0 323 -121.5t80 -313.5q-29 -204 -186.5 -335t-364.5 -131q-250 0 -364.5 195.5t-65.5 545.5q47 363 227 571.5
t449 208.5zM672 754q-77 0 -178 -28t-170 -67q-25 -18 -35.5 -35.5t-14.5 -54.5q-11 -76 1 -154t46 -148t101 -114t158 -44q137 0 242 96.5t124 236.5q19 132 -56 222t-218 90z" />
    <glyph glyph-name="seven.osf" horiz-adv-x="1132" 
d="M213 1481h981l-23 -156q-228 -279 -451.5 -686t-285.5 -639h-166q36 114 100 263.5t155.5 328.5t220.5 379t270 375h-821z" />
    <glyph glyph-name="eight.osf" horiz-adv-x="1226" 
d="M741 1501q207 0 319 -112t87 -295q-8 -62 -36 -118t-59 -91t-71 -66.5t-60.5 -43.5t-39.5 -21q6 -3 22.5 -10.5t29 -13.5t33 -17t35 -22.5t34 -29t31.5 -35.5t26.5 -44t18.5 -53.5t8.5 -64t-3.5 -75.5q-26 -187 -186.5 -298t-399.5 -111q-238 0 -361 102.5t-97 284.5
q13 107 90.5 207.5t226.5 166.5q-21 9 -39 18.5t-51.5 38t-55 62t-34.5 91t-4 124.5q25 182 175.5 304t360.5 122zM725 1372q-136 0 -238.5 -80t-121.5 -202q-21 -191 174 -240l194 -47q36 -9 95 32t110.5 115t60.5 148q17 123 -57 198.5t-217 75.5zM557 109q163 0 270.5 75
t124.5 201q12 96 -30.5 155t-145.5 87l-250 63q-27 7 -73.5 -14t-94.5 -60.5t-87 -102t-48 -128.5q-19 -130 67.5 -203t266.5 -73z" />
    <glyph glyph-name="nine.osf" horiz-adv-x="1216" 
d="M471 -20q-137 0 -226 58t-136 148l135 62q39 -66 97 -100.5t148 -34.5q205 0 334 181t160 544q-62 -117 -170.5 -177.5t-245.5 -60.5q-214 0 -319 121t-80 313q18 136 97 243.5t197 165.5t253 58q248 0 361.5 -195t66.5 -546q-51 -365 -229 -572.5t-443 -207.5zM602 727
q138 0 249.5 81.5t129.5 203.5q-7 178 -79 269t-204 91q-136 0 -242.5 -96t-125.5 -236q-19 -133 55.5 -223t216.5 -90z" />
    <glyph glyph-name="zero.tf" horiz-adv-x="1382" 
d="M834 1501q232 0 350 -200t69 -564q-50 -363 -221 -560t-405 -197q-232 0 -350 196t-70 557q51 365 223.5 566.5t403.5 201.5zM649 115q169 0 283.5 152t157.5 470q32 220 4 360t-98 205.5t-179 65.5q-167 0 -284.5 -156.5t-161.5 -474.5q-43 -316 33 -469t245 -153z" />
    <glyph glyph-name="one.tf" horiz-adv-x="1544" 
d="M895 147h430v-147h-1028v147h438v1168l-420 -174v147l476 195h104v-1336z" />
    <glyph glyph-name="two.tf" horiz-adv-x="1392" 
d="M188 0l21 141l524 475q190 167 268.5 266.5t92.5 207.5q9 72 -10.5 127t-59.5 86t-87.5 46t-100.5 15q-237 0 -381 -209l-107 74q205 272 518 272q193 0 300.5 -109.5t80.5 -301.5q-18 -127 -99 -237.5t-280 -295.5l-460 -420h727l-19 -137h-928z" />
    <glyph glyph-name="three.tf" horiz-adv-x="1366" 
d="M350 1290q82 97 214 154t265 57q209 0 326 -106.5t96 -268.5q-33 -236 -323 -338q145 -44 217 -143t51 -239q-25 -185 -189 -305.5t-405 -120.5q-297 0 -459 225l125 88q72 -96 158.5 -138t204.5 -42q170 0 277.5 79t125.5 207q11 73 -12 133t-71 97t-111.5 57t-134.5 21
l-193 2l18 129l158 2q155 2 271 81.5t131 198.5q14 106 -64 178t-211 72q-112 0 -200.5 -43t-176.5 -131z" />
    <glyph glyph-name="four.tf" horiz-adv-x="1380" 
d="M1004 1481h151l-129 -946h221l-18 -132h-221l-54 -403h-147l55 403h-669l18 142zM346 535h528l101 747z" />
    <glyph glyph-name="five.tf" horiz-adv-x="1378" 
d="M451 1481h839l-26 -135h-701l-110 -523q56 29 84 42.5t77.5 33t98 27.5t102.5 8q76 0 142.5 -16.5t122 -52t92 -87t51.5 -127t2 -166.5q-32 -235 -200.5 -370t-408.5 -135q-149 0 -272 58t-199 167l119 92q82 -97 156 -141.5t192 -44.5q187 0 308 101.5t143 266.5
q22 158 -61.5 241t-229.5 83q-65 0 -135 -21.5t-110 -42t-109 -59.5q-9 -5 -14 -6t-6.5 -0.5t-5.5 4.5t-7 6l-92 57z" />
    <glyph glyph-name="six.tf" horiz-adv-x="1400" 
d="M901 1501q131 0 218 -58.5t130 -148.5l-135 -61q-40 66 -92.5 100.5t-134.5 34.5q-196 0 -329.5 -161t-162.5 -445q151 71 233.5 95t174.5 24q217 0 323 -121.5t80 -313.5q-29 -204 -186.5 -335t-364.5 -131q-250 0 -364.5 195.5t-65.5 545.5q47 363 227 571.5t449 208.5
zM768 754q-77 0 -178 -28t-170 -67q-25 -18 -35 -35t-14 -55q-9 -48 -4.5 -101t15 -104t36.5 -97.5t60 -81.5t85.5 -55.5t112.5 -20.5q137 0 242 96.5t124 236.5q21 132 -55 222t-219 90z" />
    <glyph glyph-name="seven.tf" horiz-adv-x="1398" 
d="M264 1481h1073v-156q-191 -279 -360 -686t-199 -639h-172q27 156 92.5 360.5t191 475t279.5 501.5h-905v144z" />
    <glyph glyph-name="eight.tf" horiz-adv-x="1382" 
d="M838 1501q207 0 318.5 -112t86.5 -295q-8 -62 -35.5 -118t-58 -91t-70.5 -66.5t-60.5 -43.5t-39.5 -21q6 -3 21.5 -10.5t28.5 -13.5t33 -17t34.5 -22.5t34 -28.5t31.5 -35.5t26.5 -44.5t18.5 -53.5t8.5 -64t-3.5 -75.5q-26 -187 -186 -298t-399 -111q-238 0 -361 102.5
t-98 284.5q13 107 91 207.5t228 166.5q-22 9 -39.5 18.5t-51.5 38t-55.5 62t-35 91t-4.5 124.5q25 182 176 304t361 122zM823 1372q-136 0 -238.5 -80t-121.5 -202q-24 -190 172 -240l196 -47q36 -9 95.5 32t110.5 115.5t59 147.5q17 122 -57 198t-216 76zM653 109
q164 0 271.5 75t126.5 201q11 97 -32 156t-147 86l-249 63q-27 7 -74 -14t-95 -60.5t-87 -102t-48 -128.5q-19 -130 68 -203t266 -73z" />
    <glyph glyph-name="nine.tf" horiz-adv-x="1392" 
d="M578 -20q-137 0 -225.5 58t-135.5 148l135 62q39 -66 97.5 -100.5t148.5 -34.5q205 0 333 180.5t161 544.5q-63 -118 -171.5 -178t-244.5 -60q-214 0 -319.5 121.5t-80.5 312.5q18 136 97 243.5t197 165.5t253 58q247 0 361 -195.5t65 -545.5q-50 -365 -227.5 -572.5
t-443.5 -207.5zM709 727q139 0 251 81.5t130 203.5q-7 178 -79 269t-204 91q-136 0 -243 -96t-126 -236q-19 -133 56 -223t215 -90z" />
    <glyph glyph-name="zero.subs" horiz-adv-x="811" 
d="M371 596q146 0 220 -125.5t44 -355.5q-31 -227 -139 -351t-254 -124t-221.5 123.5t-45.5 349.5q33 229 142 356t254 127zM254 -276q106 0 178.5 95.5t99.5 295.5q27 203 -20 300t-152 97q-106 0 -179.5 -97.5t-100.5 -299.5q-27 -198 21 -294.5t153 -96.5z" />
    <glyph glyph-name="one.subs" horiz-adv-x="598" 
d="M61 -338l111 817l-186 -67l10 75l221 107h66l-125 -932h-97z" />
    <glyph glyph-name="two.subs" horiz-adv-x="753" 
d="M-80 -338l12 88l330 299q118 103 167.5 167t59.5 132q10 86 -40 129t-121 43q-151 0 -242 -131l-66 47q129 170 326 170q122 0 189 -69t49 -189q-10 -80 -61.5 -150.5t-176.5 -185.5l-289 -264h457l-12 -86h-582z" />
    <glyph glyph-name="three.subs" horiz-adv-x="768" 
d="M82 467q52 61 135 97t166 36q132 0 205 -66t61 -169q-20 -149 -203 -213q90 -27 135 -89.5t33 -150.5q-15 -117 -118.5 -192.5t-255.5 -75.5q-184 0 -287 141l78 55q44 -61 98 -86.5t129 -25.5q107 0 175 49.5t79 130.5q13 90 -50 141t-159 51h-119l11 82l100 2
q96 0 169.5 51t82.5 125q9 67 -39.5 112.5t-132.5 45.5q-70 0 -126 -27t-112 -81z" />
    <glyph glyph-name="four.subs" horiz-adv-x="811" 
d="M473 594h94l-80 -596h140l-13 -82h-139l-33 -254h-94l35 254h-420l10 88zM59 -2h332l64 471z" />
    <glyph glyph-name="five.subs" horiz-adv-x="778" 
d="M147 588h529l-19 -86h-440l-70 -328q42 23 70 35.5t71 23.5t87 11q128 0 202.5 -71t55.5 -212q-20 -148 -126 -232.5t-257 -84.5q-93 0 -170.5 36.5t-126.5 104.5l76 57q51 -61 98 -88.5t121 -27.5q118 0 194 64t90 167q13 100 -39.5 152.5t-144.5 52.5q-41 0 -84.5 -13
t-70.5 -27t-68 -38q-5 -3 -8 -4t-4 -0.5t-4 3t-5 3.5l-57 37z" />
    <glyph glyph-name="six.subs" horiz-adv-x="798" 
d="M395 596q155 0 219 -131l-86 -37q-25 42 -57.5 63t-83.5 21q-125 0 -208.5 -101t-102.5 -280q99 45 150 60.5t108 15.5q136 0 202.5 -77t51.5 -198q-18 -129 -117.5 -210.5t-228.5 -81.5q-157 0 -229.5 122t-43.5 342q31 229 144.5 360.5t281.5 131.5zM311 125
q-50 0 -113 -17t-104 -42q-17 -9 -23.5 -20t-9.5 -36q-6 -48 1.5 -97t28.5 -92.5t63.5 -71.5t99.5 -28q86 0 152 60.5t77 148.5q12 84 -35 139.5t-137 55.5z" />
    <glyph glyph-name="seven.subs" horiz-adv-x="710" 
d="M70 594h618l-14 -98q-143 -176 -284 -432t-181 -402h-105q53 165 176.5 401t292.5 445h-516z" />
    <glyph glyph-name="eight.subs" horiz-adv-x="780" 
d="M371 600q129 0 199 -71t55 -185q-6 -48 -28.5 -89.5t-53 -66.5t-50 -37.5t-34.5 -19.5q4 -2 15.5 -7.5t20.5 -10t23.5 -13t24.5 -17.5t23 -22.5t19.5 -28.5t14.5 -36t7 -43.5t-3 -52.5q-15 -116 -115.5 -186t-250.5 -70t-227 64t-62 179q8 67 57.5 130t143.5 106
q-12 5 -25 11.5t-33.5 23.5t-34.5 38.5t-22 58t-2 79.5q15 114 110.5 190t227.5 76zM360 518q-86 0 -150.5 -50.5t-76.5 -127.5q-15 -120 109 -150l123 -30q37 -8 98 54.5t69 131.5q11 77 -35.5 124.5t-136.5 47.5zM254 -276q102 0 170.5 48t79.5 126q15 117 -113 153
l-155 39q-17 5 -47 -8.5t-60 -38t-54.5 -64t-29.5 -81.5q-12 -82 42 -128t167 -46z" />
    <glyph glyph-name="nine.subs" horiz-adv-x="796" 
d="M195 -360q-162 0 -228 129l84 38q50 -83 156 -83q129 0 209 113t100 341q-79 -149 -260 -149q-135 0 -201 76t-51 196q19 130 117 212.5t227 82.5q156 0 227.5 -123t40.5 -342q-31 -230 -142.5 -360.5t-278.5 -130.5zM276 111q88 0 158 50.5t82 127.5q-9 225 -178 225
q-87 0 -154.5 -60t-77.5 -147q-12 -85 34.5 -140.5t135.5 -55.5z" />
    <glyph glyph-name="zero.dnom" horiz-adv-x="811" 
d="M418 934q146 0 220 -125.5t44 -355.5q-31 -227 -139 -351.5t-254 -124.5t-221 124t-45 350q33 229 142 356t253 127zM301 61q106 0 179 96.5t100 295.5q27 203 -20 300t-152 97q-106 0 -180 -98t-101 -299q-27 -198 21 -295t153 -97z" />
    <glyph glyph-name="one.dnom" horiz-adv-x="595" 
d="M109 0l110 817l-186 -67l10 75l221 107h66l-125 -932h-96z" />
    <glyph glyph-name="two.dnom" horiz-adv-x="753" 
d="M-33 0l13 88l329 299q119 104 168.5 167.5t59.5 131.5q10 86 -40.5 129t-121.5 43q-151 0 -242 -131l-65 47q129 170 325 170q122 0 189 -69t49 -189q-10 -80 -61.5 -150.5t-176.5 -185.5l-289 -264h457l-12 -86h-582z" />
    <glyph glyph-name="three.dnom" horiz-adv-x="765" 
d="M129 805q52 61 135 97t166 36q132 0 205 -66.5t61 -169.5q-21 -149 -202 -213q90 -27 135 -89t33 -150q-15 -117 -119 -192.5t-256 -75.5q-184 0 -287 141l78 55q44 -61 98 -86.5t129 -25.5q107 0 175 49.5t79 130.5q13 90 -50 141t-159 51h-119l11 82l100 2
q96 0 169.5 51t82.5 125q9 67 -39.5 112.5t-132.5 45.5q-70 0 -126 -27t-112 -81z" />
    <glyph glyph-name="four.dnom" horiz-adv-x="811" 
d="M520 932h96l-81 -596h141l-12 -82h-140l-35 -254h-92l35 254h-422l13 88zM109 336h331l64 471z" />
    <glyph glyph-name="five.dnom" horiz-adv-x="778" 
d="M195 926h528l-18 -86h-441l-69 -328q42 23 69.5 35.5t70.5 23.5t87 11q128 0 202.5 -71t55.5 -212q-20 -148 -126 -232.5t-257 -84.5q-93 0 -170.5 36.5t-126.5 104.5l76 57q52 -61 98.5 -89t120.5 -28q118 0 194.5 64.5t90.5 167.5q13 100 -40 152.5t-145 52.5
q-41 0 -84.5 -13t-70.5 -27t-68 -38q-5 -3 -7.5 -4t-3.5 -0.5t-3.5 2.5t-5.5 4l-58 37z" />
    <glyph glyph-name="six.dnom" horiz-adv-x="800" 
d="M444 934q156 0 220 -131l-86 -37q-51 84 -142 84q-125 0 -208.5 -101t-102.5 -280q97 45 148.5 60.5t109.5 15.5q136 0 202.5 -77t51.5 -198q-18 -129 -117.5 -211t-228.5 -82q-159 0 -231.5 122.5t-41.5 342.5q31 230 143.5 361t282.5 131zM360 463q-49 0 -112.5 -17.5
t-106.5 -42.5q-15 -9 -21 -20t-9 -35q-6 -48 1.5 -97t28 -92.5t63 -71.5t99.5 -28q86 0 152 60.5t77 148.5q12 84 -35 139.5t-137 55.5z" />
    <glyph glyph-name="seven.dnom" horiz-adv-x="710" 
d="M117 932h618l-14 -98q-143 -176 -284 -432t-181 -402h-104q53 165 176.5 401t292.5 445h-517z" />
    <glyph glyph-name="eight.dnom" horiz-adv-x="780" 
d="M418 936q129 0 199 -71t55 -185q-6 -48 -28.5 -89.5t-53 -66.5t-50 -37.5t-34.5 -19.5q4 -2 15.5 -7.5t20.5 -10t23.5 -13t24.5 -17.5t23 -22.5t19.5 -28.5t14.5 -36t7 -43.5t-3 -52.5q-15 -116 -115.5 -186t-250.5 -70t-227 64t-62 179q8 67 57.5 130t143.5 106
q-12 5 -25 11.5t-33.5 23.5t-34.5 38.5t-22 58t-2 79.5q15 114 110.5 190t227.5 76zM408 854q-86 0 -151 -50.5t-77 -127.5q-15 -120 109 -150l123 -30q37 -8 98.5 54.5t69.5 131.5q11 77 -35.5 124.5t-136.5 47.5zM301 59q102 0 170.5 48t79.5 126q15 118 -113 154l-155 39
q-24 6 -66 -17t-80.5 -72t-44.5 -104q-12 -82 42 -128t167 -46z" />
    </font>
</defs>
</svg>
