<?xml version="1.0" standalone="no"?>
<!DOCTYPE svg PUBLIC "-//W3C//DTD SVG 1.1//EN" "http://www.w3.org/Graphics/SVG/1.1/DTD/svg11.dtd" >
<svg xmlns="http://www.w3.org/2000/svg" xmlns:xlink="http://www.w3.org/1999/xlink" version="1.1">
<metadata>
Created by FontForge 20201107 at Thu Jun 12 13:50:20 2025
 By 
copyright missing
</metadata>
<defs>
<font id="PublicSans-Medium" horiz-adv-x="1161" >
  <font-face 
    font-family="Public Sans Medium"
    font-weight="500"
    font-stretch="normal"
    units-per-em="2048"
    panose-1="0 0 6 0 0 0 0 0 0 0"
    ascent="1597"
    descent="-451"
    x-height="1059"
    cap-height="1481"
    bbox="-786 -479 2644 2021"
    underline-thickness="102"
    underline-position="-204"
    unicode-range="U+000D-FB02"
  />
<missing-glyph horiz-adv-x="1390" 
d="M1169 1692q37 0 37 -43v-1921q0 -31 -16 -44.5t-51 -13.5h-893q-31 0 -43.5 11.5t-12.5 37.5v1926q0 47 39 47h940zM1102 1556q0 15 -9 25t-22 10h-702l733 -1708v1673zM295 -188q0 -21 10 -31t35 -10h688l-733 1695v-1654z" />
    <glyph glyph-name="fi" unicode="fi" horiz-adv-x="1351" 
d="M1194 1522v-254h-219v254h219zM745 1059v-152h-251v-907h-209v907h-219v152h219v162q0 127 66 193.5t196 66.5h207l2 -146h-156q-61 0 -84.5 -32.5t-23.5 -104.5v-139h253zM1190 1059v-1059h-211v1059h211z" />
    <glyph glyph-name="fl" unicode="fl" horiz-adv-x="1447" 
d="M1251 -14q-88 0 -146 23t-86 67t-38 90t-10 110v1246h205v-1223q0 -151 118 -160l58 -2v-133q-59 -18 -101 -18zM745 1059v-152h-251v-907h-209v907h-219v152h219v162q0 127 66 193.5t196 66.5h207l2 -146h-156q-61 0 -84.5 -32.5t-23.5 -104.5v-139h253z" />
    <glyph glyph-name="f_f.liga" unicode="ff" horiz-adv-x="1677" 
d="M1567 1059v-152h-252v-907h-209v907h-219v152h219v162q0 127 67 193.5t195 66.5h209v-146h-154q-62 0 -87 -32.5t-25 -104.5v-139h256zM754 1059v-152h-254v-907h-209v907h-219v152h219v145q0 126 66.5 192t195.5 66h207l2 -145h-156q-61 0 -85.5 -32t-24.5 -105v-121
h258z" />
    <glyph glyph-name="colon_one_eight_F_colon.liga" unicode="&#x3a;&#x31;&#x38;F&#x3a;" horiz-adv-x="1585" 
d="M37 1559h1511q23 0 23 -25v-1507q0 -12 -7 -19.5t-16 -7.5h-1511q-23 0 -23 27v1507q0 25 23 25zM766 479q72 0 124 52t52 124q0 91 -76 144q54 51 54 119q0 63 -45.5 108t-108.5 45q-67 0 -111.5 -44.5t-44.5 -108.5q0 -63 56 -119q-76 -51 -76 -144q0 -72 51.5 -124
t124.5 -52zM504 498v557q0 10 -8 10h-140q-6 0 -6 -10v-54q0 -8 6 -8h76v-495q0 -9 6 -9h58q8 0 8 9zM1260 1001v54q0 10 -9 10h-215q-8 0 -8 -10v-557q0 -9 8 -9h54q12 0 12 9v254h125q6 0 6 8v51q0 10 -6 10h-125v172h149q9 0 9 8zM766 836q-36 0 -61 23t-25 59
q0 35 25 59t61 24q35 0 59.5 -24t24.5 -59q0 -36 -24 -59t-60 -23zM766 760q44 0 74 -30.5t30 -74.5q0 -43 -30 -73.5t-74 -30.5q-43 0 -73.5 30.5t-30.5 73.5q0 44 30.5 74.5t73.5 30.5z" />
    <glyph glyph-name="colon_f_l_a_g_two_colon.liga" unicode="&#x3a;flag&#x32;&#x3a;" horiz-adv-x="2371" 
d="M94 1559h2183v-1557h-2183v1557zM2150 1321v109h-1095v-109h1095zM287 1198h129v121h-129v-121zM770 1198h125v121h-125v-121zM530 1079h125v119h-125v-119zM1055 1081h1095v113h-1095v-113zM291 958h125v121h-125v-121zM895 1079h-125v-121h125v121zM655 958h-125v-118
h125v118zM1055 842h1095v112h-1095v-112zM416 840h-125v-121h125v121zM895 840h-125v-121h125v121zM1055 602h1095v113h-1095v-113zM2150 475h-1931v-113h1931v113zM221 129h1929v107h-1929v-107z" />
    <glyph glyph-name="colon_f_l_a_g_colon.liga" unicode="&#x3a;flag&#x3a;" horiz-adv-x="2371" 
d="M94 1559h2183v-1557h-2183v1557zM2159 1438h-1946v-838h1946v119h-1106v121h1106v118h-1106v121h1106v119h-1106v121h1106v119zM453 1319v-121h-119v121h119zM932 1319v-121h-119v121h119zM692 1198v-119h-119v119h119zM453 1079v-121h-119v121h119zM932 1079v-121h-119
v121h119zM692 958v-118h-119v118h119zM453 840v-121h-119v121h119zM932 840v-121h-119v121h119zM2159 479h-1946v-119h1946v119zM213 121h1946v119h-1946v-119z" />
    <glyph glyph-name=".notdef" horiz-adv-x="1390" 
d="M1169 1692q37 0 37 -43v-1921q0 -31 -16 -44.5t-51 -13.5h-893q-31 0 -43.5 11.5t-12.5 37.5v1926q0 47 39 47h940zM1102 1556q0 15 -9 25t-22 10h-702l733 -1708v1673zM295 -188q0 -21 10 -31t35 -10h688l-733 1695v-1654z" />
    <glyph glyph-name="uni0000" horiz-adv-x="61" 
 />
    <glyph glyph-name="nonmarkingreturn" horiz-adv-x="682" 
 />
    <glyph glyph-name="CR" unicode="&#xd;" horiz-adv-x="487" 
 />
    <glyph glyph-name="space" unicode=" " horiz-adv-x="491" 
 />
    <glyph glyph-name="exclam" unicode="!" horiz-adv-x="534" 
d="M387 1481l-55 -1090h-137l-58 1090h250zM383 254v-254h-244v254h244z" />
    <glyph glyph-name="quotedbl" unicode="&#x22;" horiz-adv-x="888" 
d="M408 1481l-64 -496h-117l-61 496h242zM786 1481l-65 -496h-115l-63 496h243z" />
    <glyph glyph-name="numbersign" unicode="#" horiz-adv-x="1239" 
d="M1161 897h-239l-45 -297h219v-123h-238l-72 -481l-124 18l69 463h-295l-74 -481l-122 18l69 463h-237v123h256l47 297h-238v123h256l70 463l123 -13l-68 -450h297l70 463l123 -13l-68 -450h221v-123zM750 600l47 297h-297l-45 -297h295z" />
    <glyph glyph-name="dollar" unicode="$" horiz-adv-x="1361" 
d="M1241 385q0 -162 -122.5 -270.5t-325.5 -130.5v-195h-191v195q-204 21 -330.5 123t-150.5 280l219 10q30 -119 124.5 -181t235.5 -62q130 0 224 64.5t94 164.5q0 94 -56.5 149.5t-181.5 88.5l-252 63q-359 89 -362 379q-1 173 122.5 289.5t325.5 140.5v207h191v-207
q185 -27 294.5 -143.5t114.5 -274.5l-213 -8q-22 129 -92.5 193.5t-199.5 64.5q-133 0 -225.5 -64t-92.5 -176q0 -77 54 -122t196 -86l246 -70q354 -96 354 -422z" />
    <glyph glyph-name="percent" unicode="%" horiz-adv-x="1875" 
d="M469 1503q152 0 251 -117.5t99 -306.5t-98 -304.5t-252 -115.5q-156 0 -256 116t-100 304t101 306t255 118zM1542 1497l-995 -1505l-135 2l999 1503h131zM467 774q92 0 143.5 82.5t51.5 222.5q0 142 -51.5 227t-143.5 85t-144.5 -85.5t-52.5 -226.5q0 -140 51.5 -222.5
t145.5 -82.5zM1403 825q153 0 252.5 -118t99.5 -306q0 -189 -98.5 -305t-253.5 -116q-156 0 -256 116.5t-100 304.5q0 187 101 305.5t255 118.5zM1401 96q91 0 143.5 83.5t52.5 219.5q0 140 -53 226t-143 86q-89 0 -142 -86.5t-53 -225.5q0 -135 52.5 -219t142.5 -84z" />
    <glyph glyph-name="ampersand" unicode="&#x26;" horiz-adv-x="1484" 
d="M655 1503q174 0 294 -88t120 -229q0 -58 -28 -118t-108.5 -136.5t-209.5 -145.5l309 -360q111 171 125 379h207q-22 -138 -79.5 -253.5t-149.5 -250.5l258 -301h-244l-141 162q-213 -172 -463 -172q-218 0 -335.5 104t-117.5 279q0 143 85 247.5t269 202.5
q-93 100 -137.5 179.5t-44.5 171.5q0 141 109.5 235t281.5 94zM664 1364q-89 -1 -140 -52t-51 -124q0 -112 121 -248l37 -39q144 83 197 147t53 132q0 94 -63 140t-154 44zM553 698q-110 -61 -172.5 -142t-56.5 -177q6 -101 82.5 -162t183.5 -61q82 0 166 35.5t149 97.5z
" />
    <glyph glyph-name="quotesingle" unicode="'" horiz-adv-x="522" 
d="M383 1481l-66 -496h-114l-64 496h244z" />
    <glyph glyph-name="parenleft" unicode="(" horiz-adv-x="638" 
d="M580 1481q-110 -210 -174 -445.5t-64 -468.5q0 -226 55.5 -443t167.5 -454h-143q-139 235 -209 444.5t-70 454.5t78.5 479t214.5 433h144z" />
    <glyph glyph-name="parenright" unicode=")" horiz-adv-x="651" 
d="M29 1481h145q136 -200 214.5 -434.5t78.5 -477.5q0 -244 -70 -452.5t-209 -446.5h-145q113 237 169 454t56 443q0 234 -64 469.5t-175 444.5z" />
    <glyph glyph-name="asterisk" unicode="*" horiz-adv-x="845" 
d="M588 768l-160 262l-166 -268l-123 84l199 241l-277 78l48 129l262 -106l-21 293h152l-21 -293l264 112l41 -129l-268 -81l193 -236z" />
    <glyph glyph-name="plus" unicode="+" horiz-adv-x="1159" 
d="M1026 825v-159h-369v-371h-159v369h-371v159h371v371h159v-369h369z" />
    <glyph glyph-name="comma" unicode="," horiz-adv-x="509" 
d="M92 -262l115 258l-92 4v240h247v-209l-178 -293h-92z" />
    <glyph glyph-name="hyphen" unicode="-" horiz-adv-x="794" 
d="M657 610v-161l-526 -3v162z" />
    <glyph glyph-name="period" unicode="." horiz-adv-x="489" 
d="M360 256v-256h-243v256h243z" />
    <glyph glyph-name="slash" unicode="/" horiz-adv-x="733" 
d="M27 -72l514 1553h159l-514 -1553h-159z" />
    <glyph glyph-name="zero" unicode="0" horiz-adv-x="1329" 
d="M666 1501q123 0 226 -49.5t178.5 -143.5t118 -240.5t42.5 -330.5q0 -364 -155.5 -559.5t-411.5 -195.5t-411 194.5t-155 558.5q0 185 42.5 331.5t118.5 241t179.5 144t227.5 49.5zM666 158q333 0 333 579q0 303 -87.5 446.5t-247.5 143.5q-159 0 -246.5 -144t-87.5 -446
q0 -298 88 -438.5t248 -140.5z" />
    <glyph glyph-name="one" unicode="1" horiz-adv-x="804" 
d="M354 0v1239l-282 -96v155l368 183h129v-1481h-215z" />
    <glyph glyph-name="two" unicode="2" horiz-adv-x="1212" 
d="M90 0v174l475 453q123 115 185 184t93 132.5t31 131.5q0 62 -24.5 110.5t-65 76.5t-88 42.5t-98.5 14.5q-105 0 -192.5 -51t-135.5 -160l-190 35q51 170 184.5 264t341.5 94q219 0 353.5 -114t134.5 -312q-1 -123 -66.5 -228t-236.5 -274l-398 -391h715v-182h-1018z" />
    <glyph glyph-name="three" unicode="3" horiz-adv-x="1325" 
d="M123 1182q20 84 72.5 147t126.5 99.5t158.5 54.5t178.5 18q227 0 374 -107.5t147 -271.5q0 -234 -283 -331q148 -40 238 -137.5t90 -237.5q0 -127 -77 -227.5t-209.5 -154.5t-295.5 -54q-108 0 -192.5 16t-157.5 52.5t-125 100.5t-84 156l192 35q110 -184 359 -184
q164 0 260 72t96 184q0 122 -101.5 196t-242.5 74l-201 2v172l170 4q144 1 240 72t96 176q0 96 -85.5 158.5t-211.5 62.5q-257 0 -344 -184z" />
    <glyph glyph-name="four" unicode="4" horiz-adv-x="1286" 
d="M770 1481h213v-926h227v-186h-227v-369h-211v369h-686v190zM305 555h465v625z" />
    <glyph glyph-name="five" unicode="5" horiz-adv-x="1343" 
d="M244 1481h907l-12 -178h-719l-39 -457q79 36 112 50t99.5 30t134.5 16q83 0 157 -17.5t138 -54t110 -90t72.5 -129t26.5 -166.5q0 -235 -159 -370t-417 -135q-171 0 -317 65t-240 182l154 117q63 -65 108.5 -101.5t115 -62.5t153.5 -26q174 0 273 89.5t99 233.5
q0 138 -89 213.5t-230 75.5q-59 0 -121 -17.5t-97 -34.5t-99 -52q-7 -4 -11 -5.5t-8 -1.5t-5 0.5t-7.5 3.5t-9.5 5l-142 79z" />
    <glyph glyph-name="six" unicode="6" horiz-adv-x="1284" 
d="M698 1511q184 0 311 -87t158 -230l-180 -37q-50 90 -113.5 136t-171.5 46q-192 0 -290.5 -174t-79.5 -487q42 104 145.5 163.5t231.5 59.5q222 0 350.5 -125t128.5 -317q0 -210 -147.5 -338.5t-374.5 -128.5q-267 0 -419.5 195.5t-152.5 539.5q0 367 160.5 575.5
t443.5 208.5zM672 735q-129 0 -224.5 -68.5t-95.5 -172.5q24 -165 104 -249.5t206 -84.5q129 0 216 81.5t87 207.5q0 124 -82 205t-211 81z" />
    <glyph glyph-name="seven" unicode="7" horiz-adv-x="1191" 
d="M72 1481h1054v-215q-194 -263 -363 -647.5t-192 -618.5h-231q16 108 57 251t108.5 316.5t174 368.5t233.5 367h-841v178z" />
    <glyph glyph-name="eight" unicode="8" horiz-adv-x="1292" 
d="M643 1501q223 0 362.5 -114t139.5 -295q0 -59 -21 -112t-47.5 -86.5t-64 -63t-58 -41t-41.5 -21.5q1 -1 34 -15t46 -20.5t47 -26t51.5 -36t44 -46t40 -60t24 -73t10.5 -90.5q0 -195 -157 -308t-418 -113q-253 0 -402 102.5t-149 284.5q0 110 70 205.5t206 156.5
q-115 53 -173 132q-64 87 -64 204q0 185 145.5 310.5t374.5 125.5zM645 1333q-125 0 -210 -70t-85 -176q0 -162 187 -206l190 -50q38 -9 88.5 28t88.5 103t38 130q0 107 -80.5 174t-216.5 67zM647 147q153 0 242.5 65.5t89.5 174.5q0 85 -46.5 137.5t-150.5 79.5l-237 62
q-40 10 -99 -22t-106 -100.5t-47 -146.5q0 -119 90.5 -184.5t263.5 -65.5z" />
    <glyph glyph-name="nine" unicode="9" horiz-adv-x="1284" 
d="M580 -18q-183 0 -310.5 88t-160.5 229l186 37q21 -42 43.5 -72t55.5 -56.5t77.5 -40t101.5 -13.5q198 0 303.5 166t88.5 501q-38 -110 -142 -174.5t-241 -64.5q-224 0 -357 128t-133 326q0 208 147.5 335.5t374.5 127.5q267 0 418.5 -194t151.5 -539q0 -381 -159 -582.5
t-445 -201.5zM606 756q128 0 224 71.5t96 171.5q-23 165 -102.5 249.5t-205.5 84.5q-128 0 -212 -81t-84 -208q0 -121 79 -204.5t205 -83.5z" />
    <glyph glyph-name="colon" unicode=":" horiz-adv-x="489" 
d="M360 1020v-256h-243v256h243zM360 260v-254h-243v254h243z" />
    <glyph glyph-name="semicolon" unicode=";" horiz-adv-x="526" 
d="M119 760v258h246v-258h-246zM96 -297l121 297h-92v254h246v-225l-185 -326h-90z" />
    <glyph glyph-name="less" unicode="&#x3c;" horiz-adv-x="1148" 
d="M995 461v-189l-878 342v187l878 346v-193l-635 -247z" />
    <glyph glyph-name="equal" unicode="=" horiz-adv-x="1159" 
d="M1026 1022v-160l-899 -2v162h899zM1026 565v-159l-899 -3v160z" />
    <glyph glyph-name="greater" unicode="&#x3e;" horiz-adv-x="1148" 
d="M145 461l635 246l-635 247v193l879 -346v-187l-879 -342v189z" />
    <glyph glyph-name="question" unicode="?" horiz-adv-x="1085" 
d="M49 1198q65 143 194.5 223t297.5 80q208 0 334 -99t126 -255q0 -70 -22.5 -132t-58 -109t-79 -92t-86.5 -90t-78.5 -92t-58 -108t-22.5 -129h-176q0 79 20.5 149t53 122.5t71.5 100.5t78 91.5t71.5 85.5t53 92t20.5 103q0 95 -68 151t-179 56q-98 0 -186.5 -57
t-121.5 -144zM629 254v-254h-244v254h244z" />
    <glyph glyph-name="at" unicode="@" horiz-adv-x="1695" 
d="M1354 -72q-90 -71 -213 -112t-264 -41q-178 0 -325.5 58.5t-245 160t-151 237t-53.5 289.5q0 161 58.5 307t162 255t256 173t330.5 64q108 0 208.5 -23t192 -74t159.5 -124t108.5 -181.5t40.5 -238.5q0 -227 -109.5 -371.5t-277.5 -144.5q-152 0 -184 102q-7 22 -25 2
q-103 -133 -272 -133q-122 0 -205.5 98t-83.5 254q0 126 49 231.5t139 168.5t203 63q147 0 227 -119q3 -5 8.5 -3t6.5 10l14 61h137l-76 -453q-13 -80 6 -113.5t68 -33.5q94 0 160.5 100.5t66.5 268.5q0 111 -32.5 201t-86.5 148.5t-127.5 98.5t-152.5 57t-164 17
q-157 0 -283.5 -53t-207 -145.5t-123.5 -212.5t-43 -257q0 -135 43.5 -248t125 -195.5t206.5 -128.5t280 -46q66 0 119.5 9t100 29.5t76 38t77.5 50.5zM627 500q0 -102 41 -163t116 -61q93 0 164.5 79.5t85.5 189.5q14 120 -37.5 191t-134.5 71q-102 0 -168.5 -89
t-66.5 -218z" />
    <glyph glyph-name="A" unicode="A" horiz-adv-x="1460" 
d="M80 0l534 1481h234l534 -1481h-213l-141 393h-592l-143 -393h-213zM487 584h486l-240 692z" />
    <glyph glyph-name="B" unicode="B" horiz-adv-x="1386" 
d="M190 0v1481h488q273 0 413 -99t140 -288q0 -121 -62 -202.5t-208 -135.5q307 -69 307 -357q0 -202 -142.5 -300.5t-429.5 -98.5h-506zM401 836h316q59 0 111.5 12t98.5 37t73.5 72t27.5 110q0 121 -91 182.5t-247 61.5h-289v-475zM401 172h293q361 0 361 240
q0 85 -46 142.5t-120 82.5t-172 25h-316v-490z" />
    <glyph glyph-name="C" unicode="C" horiz-adv-x="1443" 
d="M756 1501q238 0 395 -131.5t178 -329.5l-221 -8q-26 133 -116 211t-240 78q-396 0 -396 -578q0 -290 103 -436.5t303 -146.5q131 0 222.5 78.5t119.5 210.5l221 -15q-12 -95 -54 -176.5t-110.5 -144t-170 -98t-224.5 -35.5q-300 0 -470.5 205.5t-170.5 559.5
q0 353 167 554.5t464 201.5z" />
    <glyph glyph-name="D" unicode="D" horiz-adv-x="1439" 
d="M190 1481q238 0 363 -2q399 -6 584.5 -189.5t185.5 -539.5q0 -369 -195 -559.5t-591 -190.5h-347v1481zM406 1305v-1127h131q133 0 235 31t177.5 97t115 177t39.5 265q0 153 -37.5 261.5t-111.5 173t-174.5 93.5t-235.5 29h-139z" />
    <glyph glyph-name="E" unicode="E" horiz-adv-x="1292" 
d="M190 0v1481h951l-2 -183h-738v-460h662v-181h-662v-471l756 -2v-184h-967z" />
    <glyph glyph-name="F" unicode="F" horiz-adv-x="1212" 
d="M190 1481h940l-2 -181h-722v-469h645v-178h-645v-653h-216v1481z" />
    <glyph glyph-name="G" unicode="G" horiz-adv-x="1527" 
d="M760 -20q-293 0 -464 203t-171 552q0 356 176 561t469 205q113 0 216 -38t177.5 -100.5t120.5 -146t51 -172.5l-225 -10q-22 123 -115.5 203t-228.5 80q-192 0 -303 -145.5t-111 -423.5q0 -295 113.5 -437.5t308.5 -142.5q67 0 125 20.5t99 53.5t71.5 76t46 87t17.5 87
l8 124h-350v152l567 -2v-766h-154v219q-152 -239 -444 -239z" />
    <glyph glyph-name="H" unicode="H" horiz-adv-x="1462" 
d="M1069 674h-668v-674h-211v1481h211v-625h668v625h209v-1481h-209v674z" />
    <glyph glyph-name="I" unicode="I" horiz-adv-x="585" 
d="M190 1481h211v-1481h-211v1481z" />
    <glyph glyph-name="J" unicode="J" horiz-adv-x="800" 
d="M623 360q0 -96 -15 -163t-51.5 -117.5t-101 -75t-160.5 -24.5q-124 0 -242 43l13 198q8 -3 32 -12.5t40 -15t44 -10.5t56 -5q98 0 136 54.5t38 187.5v1061h211v-1121z" />
    <glyph glyph-name="K" unicode="K" horiz-adv-x="1413" 
d="M1346 0h-238l-451 750l-247 -291v-459h-220v1481h220v-750l641 750h247l-483 -576z" />
    <glyph glyph-name="L" unicode="L" horiz-adv-x="1159" 
d="M190 1481h216v-1295h690v-186h-906v1481z" />
    <glyph glyph-name="M" unicode="M" horiz-adv-x="1820" 
d="M190 0v1481h295l426 -1192l435 1192h290v-1481h-215v1186l-415 -1186h-187l-413 1176v-1176h-216z" />
    <glyph glyph-name="N" unicode="N" horiz-adv-x="1552" 
d="M1157 1481h209v-1481h-186l-779 1141v-1141h-211v1481h203l764 -1121v1121z" />
    <glyph glyph-name="O" unicode="O" horiz-adv-x="1546" 
d="M774 -20q-303 0 -476 199t-173 556q0 361 174.5 563.5t476.5 202.5q299 0 472 -202t173 -562q0 -357 -173 -557t-474 -200zM776 160q202 0 309 141t107 434q0 297 -108 441.5t-308 144.5q-202 0 -312 -145.5t-110 -440.5q0 -292 110 -433.5t312 -141.5z" />
    <glyph glyph-name="P" unicode="P" horiz-adv-x="1320" 
d="M190 0v1481h510q160 0 284 -53t196.5 -160.5t72.5 -257.5q0 -218 -143.5 -341.5t-380.5 -123.5h-323v-545h-216zM403 717h320q146 0 237 83.5t91 221.5q0 137 -92.5 213t-243.5 76h-312v-594z" />
    <glyph glyph-name="Q" unicode="Q" horiz-adv-x="1523" 
d="M98 737q0 360 174.5 562t475.5 202q300 0 473.5 -201.5t173.5 -562.5q0 -457 -281 -649q33 -77 105 -118t165 -44v-174q-66 0 -121 9.5t-117 34t-119 75.5t-105 127q-102 -18 -174 -18q-302 0 -476 198t-174 559zM328 733q0 -573 420 -573q417 0 417 575
q0 294 -106.5 440t-310.5 146t-312 -146.5t-108 -441.5z" />
    <glyph glyph-name="R" unicode="R" horiz-adv-x="1404" 
d="M1266 0h-219l-267 625h-379v-625h-211v1481h584q241 0 364.5 -108.5t123.5 -303.5q0 -291 -283 -407zM715 797q160 0 246 67t86 195q0 124 -77.5 189t-215.5 65h-353v-516h314z" />
    <glyph glyph-name="S" unicode="S" horiz-adv-x="1429" 
d="M721 -20q-110 0 -211 26t-183.5 75.5t-137.5 128.5t-68 177l219 10q27 -118 131 -181.5t248 -63.5q158 0 259 62.5t101 168.5q0 188 -262 244l-289 65q-359 75 -362 371q-1 193 153 314.5t394 121.5q126 0 230 -35t172.5 -94.5t109.5 -135t51 -159.5l-213 -8
q-21 134 -114.5 196t-235.5 62q-86 0 -158 -27t-118 -82.5t-46 -130.5q0 -79 55.5 -127t194.5 -81l281 -66q374 -79 374 -426q0 -174 -156.5 -289.5t-418.5 -115.5z" />
    <glyph glyph-name="T" unicode="T" horiz-adv-x="1200" 
d="M35 1290v191h1130v-191h-448v-1290h-211v1290h-471z" />
    <glyph glyph-name="U" unicode="U" horiz-adv-x="1472" 
d="M1292 520q0 -264 -133.5 -402t-417.5 -138q-287 0 -419 141.5t-132 417.5v942h218v-969q0 -175 85.5 -262.5t247.5 -87.5q164 0 252 87t88 263v969h211v-961z" />
    <glyph glyph-name="V" unicode="V" horiz-adv-x="1343" 
d="M1315 1481l-522 -1481h-248l-514 1481h202l435 -1241l442 1241h205z" />
    <glyph glyph-name="W" unicode="W" horiz-adv-x="1968" 
d="M1919 1481l-434 -1481h-187l-315 1114l-321 -1114h-183l-428 1481h209l320 -1143l323 1143h160l323 -1143l324 1143h209z" />
    <glyph glyph-name="X" unicode="X" horiz-adv-x="1366" 
d="M1315 0h-262l-385 592l-383 -592h-234l500 756l-481 725h264l350 -547l352 547h232l-469 -703z" />
    <glyph glyph-name="Y" unicode="Y" horiz-adv-x="1257" 
d="M1239 1481l-504 -852v-629h-211v631l-506 850h230l383 -666l379 666h229z" />
    <glyph glyph-name="Z" unicode="Z" horiz-adv-x="1306" 
d="M109 0v113l800 1187h-764v181h1059v-107l-809 -1192h803v-182h-1089z" />
    <glyph glyph-name="bracketleft" unicode="[" horiz-adv-x="636" 
d="M182 1481h398v-131h-218v-1549h216v-131h-396v1811z" />
    <glyph glyph-name="backslash" unicode="\" horiz-adv-x="733" 
d="M537 -72l-512 1553h157l514 -1553h-159z" />
    <glyph glyph-name="bracketright" unicode="]" horiz-adv-x="659" 
d="M432 1481v-1811h-397v131h217v1549h-217v131h397z" />
    <glyph glyph-name="asciicircum" unicode="^" horiz-adv-x="980" 
d="M717 260l-234 586l-233 -584h-158l307 744q28 70 83.5 72t86.5 -72l308 -746h-160z" />
    <glyph glyph-name="underscore" unicode="_" horiz-adv-x="1085" 
d="M948 -88v-162h-819v160z" />
    <glyph glyph-name="grave" unicode="`" horiz-adv-x="612" 
d="M76 1501l504 -201l-35 -102l-520 150z" />
    <glyph glyph-name="a" unicode="a" 
d="M453 -20q-157 0 -254 82.5t-97 226.5q0 178 124.5 264t398.5 92l178 4v80q0 94 -62.5 147.5t-167.5 51.5q-91 0 -158.5 -43.5t-86.5 -126.5h-183q8 144 127.5 232.5t311.5 88.5q208 0 315 -90.5t107 -249.5v-739h-179l-16 190q-58 -116 -146.5 -163t-211.5 -47zM518 127
q66 0 132 31.5t109 83t44 106.5v178l-148 -4q-175 -2 -262.5 -52t-87.5 -161q0 -85 58.5 -133.5t154.5 -48.5z" />
    <glyph glyph-name="b" unicode="b" horiz-adv-x="1216" 
d="M670 -20q-123 0 -213.5 55.5t-124.5 120.5l-23 -156h-155v1522h208v-611q39 62 128.5 115t209.5 53q105 0 187 -40.5t133 -114t77.5 -172t26.5 -217.5q0 -258 -119 -406.5t-335 -148.5zM621 137q131 0 209.5 98.5t78.5 301.5q0 188 -72 285.5t-204 97.5q-92 0 -164 -55
t-107 -152v-283q0 -128 77.5 -210.5t181.5 -82.5z" />
    <glyph glyph-name="c" unicode="c" horiz-adv-x="1116" 
d="M588 1079q171 0 288.5 -99t139.5 -265l-182 -2q-25 94 -87 147t-151 53q-138 0 -218.5 -103.5t-80.5 -281.5q0 -180 81.5 -286.5t219.5 -106.5q91 0 154.5 56.5t81.5 142.5h180q-23 -166 -140 -260t-286 -94q-220 0 -355 150.5t-135 393.5q0 246 135 400.5t355 154.5z
" />
    <glyph glyph-name="d" unicode="d" horiz-adv-x="1196" 
d="M539 -20q-205 0 -323 141.5t-118 398.5q0 256 115.5 407.5t323.5 151.5q183 0 309 -135v578h209v-1522h-160l-18 207q-90 -227 -338 -227zM584 137q110 0 186 79.5t76 184.5v340q-86 179 -254 179q-133 0 -210 -99.5t-77 -294.5q0 -196 76.5 -292.5t202.5 -96.5z" />
    <glyph glyph-name="e" unicode="e" horiz-adv-x="1155" 
d="M309 479q-2 -151 73 -245.5t216 -94.5q198 0 256 174h195q-24 -108 -91.5 -184.5t-158.5 -112.5t-197 -36q-227 0 -365.5 144.5t-138.5 393.5q0 253 131 407t359 154q223 0 345 -141.5t122 -384.5v-74h-746zM309 618h547q0 135 -69.5 220.5t-200.5 85.5q-89 0 -154 -46
t-94.5 -114t-28.5 -146z" />
    <glyph glyph-name="f" unicode="f" horiz-adv-x="813" 
d="M745 1059v-152h-251v-907h-209v907h-219v152h219v162q0 127 66 193.5t196 66.5h207l2 -146h-156q-61 0 -84.5 -32.5t-23.5 -104.5v-139h253z" />
    <glyph glyph-name="g" unicode="g" horiz-adv-x="1259" 
d="M600 -350q-259 0 -398 74t-139 200q0 43 18 79.5t46.5 61t54.5 41t53.5 29.5t30.5 15q-2 1 -13.5 7t-16 9t-16 10t-17.5 12t-15.5 13.5t-14.5 17t-10.5 19.5t-8 23t-2.5 26q0 54 49.5 95.5t142.5 61.5q-199 99 -199 297q0 156 129 245t338 89q180 0 306 -90l278 115
l-2 -187l-184 -34q32 -74 32 -138q0 -68 -28 -128t-82 -107.5t-141 -75t-197 -27.5l-72 3q-174 -5 -174 -66q0 -28 41.5 -38.5t157.5 -18.5q53 -4 229 -15q179 -10 266.5 -86t87.5 -202q0 -153 -138.5 -241.5t-391.5 -88.5zM600 535q118 0 180 52.5t62 149.5q0 99 -63 156
t-179 57t-181 -57.5t-65 -155.5q0 -97 64.5 -149.5t181.5 -52.5zM637 -221q150 0 219.5 41.5t69.5 126.5q0 132 -187 143l-286 19q-65 5 -124 -44t-59 -116q0 -170 367 -170z" />
    <glyph glyph-name="h" unicode="h" horiz-adv-x="1196" 
d="M154 0v1522h206v-611q42 71 124 115.5t202 44.5q156 0 262.5 -89t106.5 -228v-754h-209v717q0 86 -61.5 136t-161.5 50q-109 0 -185 -52t-76 -146v-705h-208z" />
    <glyph glyph-name="i" unicode="i" horiz-adv-x="538" 
d="M381 1522v-254h-219v254h219zM377 1059v-1059h-211v1059h211z" />
    <glyph glyph-name="j" unicode="j" horiz-adv-x="557" 
d="M401 1522v-254h-223v254h223zM395 -37q0 -157 -70.5 -230t-234.5 -73q-50 0 -83 6t-41 12l-7 7l-2 139l100 6q70 6 98.5 37t28.5 102v1090h211v-1096z" />
    <glyph glyph-name="k" unicode="k" horiz-adv-x="1165" 
d="M1102 0h-219l-322 518l-199 -205v-313h-208v1522h208v-985l488 522h227l-383 -408z" />
    <glyph glyph-name="l" unicode="l" horiz-adv-x="634" 
d="M438 -14q-88 0 -146 23t-86 67t-38 90t-10 110v1246h204v-1223q0 -151 119 -160l58 -2v-133q-59 -18 -101 -18z" />
    <glyph glyph-name="m" unicode="m" horiz-adv-x="1839" 
d="M154 0v1059h202v-146q49 74 132 120t200 46q109 0 196 -41.5t128 -122.5q52 77 137.5 120.5t191.5 43.5q52 0 100.5 -10.5t96.5 -37t83 -67t57 -105.5t22 -148v-711h-211v690q0 228 -219 228q-107 0 -173.5 -53t-66.5 -169v-696h-209v741q0 84 -63.5 130.5t-157.5 46.5
q-55 0 -107 -19t-91.5 -66t-39.5 -112v-721h-208z" />
    <glyph glyph-name="n" unicode="n" horiz-adv-x="1196" 
d="M154 0v1059h204v-146q107 160 328 160q157 0 264 -100.5t107 -274.5v-698h-211v676q0 107 -61.5 167t-161.5 60q-109 0 -185 -51.5t-76 -144.5v-707h-208z" />
    <glyph glyph-name="o" unicode="o" 
d="M580 -20q-227 0 -357.5 149.5t-130.5 392.5q0 250 133 403.5t357 153.5q226 0 356.5 -153.5t130.5 -401.5q0 -243 -131 -393.5t-358 -150.5zM584 141q95 0 159 54t91.5 139t27.5 196q0 112 -28 197t-92.5 138t-159.5 53t-160 -53t-94 -138.5t-29 -196.5t29 -196
t94.5 -139t161.5 -54z" />
    <glyph glyph-name="p" unicode="p" horiz-adv-x="1214" 
d="M154 -330v1389h208v-144q123 164 324 164q92 0 170.5 -33.5t139 -98t94.5 -168.5t34 -236q0 -267 -131 -415t-338 -148q-183 0 -293 167v-477h-208zM621 137q133 0 218 106.5t85 293.5q0 185 -85 284t-210 99q-110 0 -188.5 -76.5t-78.5 -163.5v-373q44 -78 112 -124
t147 -46z" />
    <glyph glyph-name="q" unicode="q" horiz-adv-x="1210" 
d="M1069 -330h-209v430q-76 -65 -148.5 -92.5t-156.5 -27.5q-205 0 -331 147.5t-126 415.5q0 132 34.5 236t94.5 168.5t139 98t171 33.5q60 0 113.5 -14.5t96 -41.5t64.5 -45t51 -46v127h207v-1389zM612 129q155 0 248 213v309q0 116 -72 196.5t-186 80.5q-125 0 -207 -98.5
t-82 -288.5t83.5 -301t215.5 -111z" />
    <glyph glyph-name="r" unicode="r" horiz-adv-x="802" 
d="M154 0v1059h200v-232q52 108 158 180t225 72l2 -200q-82 5 -154 -16t-120 -58.5t-75.5 -85t-27.5 -96.5v-623h-208z" />
    <glyph glyph-name="s" unicode="s" horiz-adv-x="1071" 
d="M547 -20q-112 0 -207 34.5t-163 110t-83 180.5h185q45 -174 270 -174q108 0 170.5 41.5t62.5 114.5q0 55 -39 87t-118 52l-209 51q-139 33 -213 100t-74 183q0 146 120 232.5t298 86.5q182 0 291.5 -90t109.5 -219h-182q-12 77 -73 118.5t-150 41.5q-40 0 -77 -7.5
t-71.5 -24.5t-55 -49t-20.5 -75q0 -54 42.5 -85t134.5 -52l204 -51q76 -20 131 -53.5t83 -74t40.5 -80t12.5 -81.5q0 -100 -58.5 -173t-152 -108.5t-209.5 -35.5z" />
    <glyph glyph-name="t" unicode="t" horiz-adv-x="829" 
d="M715 907h-240v-635q0 -75 25 -102t75 -27h148v-131q-52 -18 -162 -18q-85 0 -143 17t-91 52.5t-47 82.5t-14 114v647h-172v152h178l25 311h178v-311h240v-152z" />
    <glyph glyph-name="u" unicode="u" horiz-adv-x="1196" 
d="M549 -18q-54 0 -108 12.5t-106 40t-92 68t-64.5 101.5t-24.5 134v723h208v-701q0 -58 21 -102t56.5 -68.5t76 -36.5t84.5 -12q103 0 173.5 60.5t70.5 169.5v690h213l-4 -1059h-164l-19 215q-13 -66 -46 -114t-78.5 -73.5t-94 -37t-102.5 -10.5z" />
    <glyph glyph-name="v" unicode="v" horiz-adv-x="1046" 
d="M997 1059l-383 -1059h-180l-385 1059h195l272 -795h14l275 795h192z" />
    <glyph glyph-name="w" unicode="w" horiz-adv-x="1628" 
d="M1565 1059l-326 -1059h-195l-233 756l-223 -756h-195l-330 1059h193l233 -785h15l231 785h158l237 -785h15l227 785h193z" />
    <glyph glyph-name="x" unicode="x" horiz-adv-x="1167" 
d="M1108 0h-227l-297 401l-297 -401h-226l408 551l-375 508h225l265 -359l266 359h225l-377 -508z" />
    <glyph glyph-name="y" unicode="y" horiz-adv-x="1114" 
d="M272 -338q-57 0 -99.5 7t-56.5 15l-14 7v135l109 -4q57 -2 98.5 7.5t64.5 30t33.5 37t20.5 40.5l33 92l-412 1030h209l303 -795l301 795h203l-442 -1125q-61 -153 -145.5 -212.5t-205.5 -59.5z" />
    <glyph glyph-name="z" unicode="z" horiz-adv-x="1030" 
d="M84 0v123l598 795h-553v141h807v-123l-596 -795h606v-141h-862z" />
    <glyph glyph-name="braceleft" unicode="{" horiz-adv-x="694" 
d="M252 1266q0 99 77.5 157t194.5 58h113v-131h-78q-75 0 -101 -25.5t-26 -79.5v-430q-1 -106 -60 -162.5t-143 -64.5q-8 -1 -11.5 -4t-0.5 -6.5t12 -4.5q85 -7 143.5 -61t59.5 -168v-434q0 -59 28 -84t101 -25h76v-131h-109q-122 0 -199 59t-77 160v439q0 79 -60 135.5
t-172 56.5v121q117 1 174.5 54t57.5 147v424z" />
    <glyph glyph-name="bar" unicode="|" horiz-adv-x="536" 
d="M352 -330h-159l-3 2022h162v-2022z" />
    <glyph glyph-name="braceright" unicode="}" horiz-adv-x="712" 
d="M420 1266v-424q0 -94 57 -147t174 -54v-121q-111 0 -171 -56.5t-60 -135.5v-439q0 -101 -77.5 -160t-199.5 -59h-106v131h74q73 0 101 25t28 84v434q1 60 18.5 104.5t48 70t64 38.5t73.5 16q9 1 12 4.5t-0.5 6.5t-11.5 4q-84 8 -143.5 64.5t-60.5 162.5v430
q0 54 -26 79.5t-101 25.5h-76v131h110q118 0 195.5 -58t77.5 -157z" />
    <glyph glyph-name="asciitilde" unicode="~" horiz-adv-x="1189" 
d="M1057 766q-39 -66 -109 -105.5t-157 -39.5q-55 0 -109 17t-91 38t-86 38t-95 17q-70 0 -122 -32.5t-104 -88.5l-61 115q75 73 138 110t149 37q66 0 132 -27.5t128 -55t118 -27.5q124 0 207 121z" />
    <glyph glyph-name="uni00A0" unicode="&#xa0;" horiz-adv-x="479" 
 />
    <glyph glyph-name="exclamdown" unicode="&#xa1;" horiz-adv-x="534" 
d="M385 805h-242v254h242v-254zM391 -330h-252l58 996h137z" />
    <glyph glyph-name="cent" unicode="&#xa2;" horiz-adv-x="1124" 
d="M618 362q92 0 156 56.5t82 142.5h178q-20 -151 -118 -243t-244 -107v-211h-150v213q-184 31 -292.5 176t-108.5 363q0 220 108.5 367.5t292.5 178.5v183h150v-178q149 -17 247 -113.5t117 -247.5l-182 -2q-23 95 -85.5 148t-152.5 53q-137 0 -217 -103.5t-80 -281.5
q0 -180 81 -287t218 -107z" />
    <glyph glyph-name="sterling" unicode="&#xa3;" horiz-adv-x="1277" 
d="M37 0v178h76q81 0 131.5 67t50.5 201q0 88 -23 256h-209v129h185l-29 173q-22 113 4.5 209t88.5 157.5t148.5 96t184.5 34.5q148 0 265 -70t165 -182l-186 -63q-35 72 -84.5 105.5t-130.5 33.5q-100 0 -165 -58t-65 -159q0 -111 45 -274h326v-129h-307q18 -143 8 -234
q-9 -186 -119 -291h342q104 0 163.5 37.5t94.5 128.5l179 -45q-94 -301 -424 -301h-715z" />
    <glyph glyph-name="currency" unicode="&#xa4;" horiz-adv-x="1126" 
d="M559 344q-119 0 -217 64q-17 10 -29 -2l-112 -115l-97 102l123 123q-69 107 -69 229q0 119 61 213q10 14 -2 29l-113 113l99 98l127 -127q104 74 225 74q120 0 217 -66q16 -9 27 2l110 113l97 -100l-121 -121q71 -107 71 -228q0 -126 -65 -215q-6 -12 2 -22l115 -109
l-99 -100l-121 121q-110 -76 -229 -76zM559 498q104 0 176 73t72 174q0 100 -72 174t-176 74t-176 -74t-72 -174q0 -101 72 -174t176 -73z" />
    <glyph glyph-name="yen" unicode="&#xa5;" horiz-adv-x="1275" 
d="M1266 1481l-478 -785h285v-127h-311v-176h311v-127h-311v-266h-238v264h-311v127h311v178h-311v127h264l-469 785h273l381 -662l380 662h224z" />
    <glyph glyph-name="brokenbar" unicode="&#xa6;" horiz-adv-x="536" 
d="M352 868h-159l-3 824h162v-824zM352 -330h-159l-3 824h162v-824z" />
    <glyph glyph-name="section" unicode="&#xa7;" horiz-adv-x="1015" 
d="M518 -150q-151 0 -271.5 66.5t-174.5 171.5l135 72q49 -76 128 -122t183 -46q98 0 158.5 36.5t60.5 102.5q0 53 -42.5 95.5t-149.5 84.5l-172 66q-145 55 -211 128.5t-66 176.5q0 92 53.5 160.5t143.5 105.5q-106 58 -147.5 120.5t-41.5 139.5q0 127 107 210t283 83
q135 0 242.5 -60.5t160.5 -150.5l-137 -71q-113 141 -256 141q-96 0 -151.5 -36t-55.5 -97q0 -89 152 -152l167 -65q162 -64 234 -143t72 -189q0 -169 -179 -262q95 -54 141 -116.5t46 -145.5q0 -134 -111.5 -219t-300.5 -85zM569 492q72 -6 123.5 41.5t48.5 115.5
q-3 61 -40 104t-132 81l-108 40q-79 -6 -133 -54t-54 -109q0 -55 36 -90.5t141 -77.5z" />
    <glyph glyph-name="dieresis" unicode="&#xa8;" horiz-adv-x="595" 
d="M229 1481v-232h-196v232h196zM555 1481v-232h-197v232h197z" />
    <glyph glyph-name="copyright" unicode="&#xa9;" horiz-adv-x="1687" 
d="M840 -20q-155 0 -295.5 60t-242.5 161.5t-162 242.5t-60 297q0 154 60 294.5t162 242.5t242.5 162.5t295.5 60.5t296 -60.5t243 -162.5t162.5 -242.5t60.5 -294.5q0 -156 -60.5 -297.5t-162.5 -242.5t-243 -161t-296 -60zM840 115q171 0 310.5 75.5t222.5 219.5t83 331
q0 138 -48.5 256.5t-131.5 199.5t-196 127t-240 46q-129 0 -243 -45.5t-196.5 -127t-130 -199.5t-47.5 -257q0 -187 82 -331t221.5 -219.5t313.5 -75.5zM846 1174q122 0 207.5 -67t134.5 -169l-154 -31q-71 142 -182 142q-100 0 -161.5 -80.5t-61.5 -220.5q0 -144 62 -224
t167 -80q136 0 217 152l115 -37q-45 -99 -132 -169.5t-212 -70.5q-175 0 -285 117.5t-110 306.5q0 190 111.5 310.5t283.5 120.5z" />
    <glyph glyph-name="ordfeminine" unicode="&#xaa;" horiz-adv-x="862" 
d="M324 811q-104 0 -163 49.5t-59 136.5q0 97 88.5 156t247.5 68l107 8v47q0 121 -139 121q-54 0 -92.5 -21.5t-69.5 -75.5l-125 33q76 164 295 164q137 0 203.5 -57t66.5 -162v-244q0 -96 8 -139l13 -72h-146l-16 84q-56 -51 -105.5 -73.5t-113.5 -22.5zM375 909
q72 0 125 47q45 39 45 78v107l-88 -4q-103 -7 -156 -41t-53 -90q0 -44 34.5 -70.5t92.5 -26.5z" />
    <glyph glyph-name="guillemotleft" unicode="&#xab;" horiz-adv-x="950" 
d="M270 514l197 -373h-115l-264 373l264 389h117zM637 514l197 -373h-115l-264 373l264 389h119z" />
    <glyph glyph-name="logicalnot" unicode="&#xac;" horiz-adv-x="1159" 
d="M127 823l899 2v-456h-174l-2 297l-723 -2v159z" />
    <glyph glyph-name="uni00AD" unicode="&#xad;" horiz-adv-x="778" 
d="M682 610v-161l-526 -3v162z" />
    <glyph glyph-name="registered" unicode="&#xae;" horiz-adv-x="1118" 
d="M557 549q-199 0 -338 138.5t-139 336.5t139 337.5t338 139.5q97 0 184.5 -37.5t151.5 -101.5t101.5 -152.5t37.5 -185.5t-37.5 -185t-101.5 -151.5t-151.5 -101t-184.5 -37.5zM557 647q165 0 267 103t102 274q0 170 -102 274.5t-267 104.5q-167 0 -270 -104.5
t-103 -274.5q0 -171 102.5 -274t270.5 -103zM371 784v473h215q80 0 124 -31t44 -89q0 -91 -99 -127l90 -226h-100l-78 215h-102v-215h-94zM465 1073h113q77 0 77 55q0 58 -84 58h-106v-113z" />
    <glyph glyph-name="macron" unicode="&#xaf;" horiz-adv-x="702" 
d="M664 1458v-145h-631v145h631z" />
    <glyph glyph-name="degree" unicode="&#xb0;" horiz-adv-x="956" 
d="M799 1386q0 -142 -92 -233.5t-232 -91.5q-141 0 -233 91.5t-92 233.5t92 235t233 93q140 0 232 -93t92 -235zM657 1384q0 87 -50.5 141t-135.5 54t-136.5 -54.5t-49.5 -140.5q2 -87 52.5 -140.5t135.5 -53.5q84 0 134 53.5t50 140.5z" />
    <glyph glyph-name="plusminus" unicode="&#xb1;" horiz-adv-x="1159" 
d="M657 985h369v-160h-369v-368h-159v366h-371v160h371v373h159v-371zM127 111v159h899v-157z" />
    <glyph glyph-name="uni00B2" unicode="&#xb2;" horiz-adv-x="788" 
d="M41 786v109l299 285q114 106 154.5 163t40.5 119q0 76 -52 115t-121 39q-148 0 -206 -133l-121 22q31 107 116 166.5t216 59.5q138 0 222.5 -72t84.5 -197q-1 -77 -42.5 -142.5t-150.5 -172.5l-250 -246h451v-115h-641z" />
    <glyph glyph-name="uni00B3" unicode="&#xb3;" horiz-adv-x="819" 
d="M82 1530q26 102 119.5 151.5t218.5 49.5q142 0 235 -67.5t93 -170.5q0 -149 -179 -209q95 -26 151 -87t56 -150q0 -120 -104 -196.5t-260 -76.5q-140 0 -227.5 46t-125.5 159l121 22q66 -116 226 -116q102 0 162.5 45t60.5 114q0 77 -63 123.5t-152 46.5l-127 3v108
l106 2q91 2 152 46.5t61 111.5q0 59 -54.5 98t-133.5 39q-162 0 -217 -115z" />
    <glyph glyph-name="acute" unicode="&#xb4;" horiz-adv-x="612" 
d="M530 1501l52 -153l-523 -150l-32 102z" />
    <glyph glyph-name="paragraph" unicode="&#xb6;" horiz-adv-x="1165" 
d="M1024 1356h-125v-1526h-135v1526h-107v-1526h-137v780q-191 7 -309.5 125t-118.5 299q0 89 30 168.5t87.5 142t148.5 99.5t205 37h461v-125z" />
    <glyph glyph-name="periodcentered" unicode="&#xb7;" horiz-adv-x="466" 
d="M352 866v-239h-250v239h250z" />
    <glyph glyph-name="cedilla" unicode="&#xb8;" horiz-adv-x="495" 
d="M457 -264q0 -74 -66 -117t-162 -43q-121 0 -200 51l32 84q67 -49 144 -49q108 0 108 74q0 44 -38.5 65.5t-124.5 22.5q-21 0 -15 14l76 172h104l-47 -123q99 -4 144 -48t45 -103z" />
    <glyph glyph-name="uni00B9" unicode="&#xb9;" horiz-adv-x="618" 
d="M184 778v778l-178 -59v98l232 115h81v-932h-135z" />
    <glyph glyph-name="ordmasculine" unicode="&#xba;" horiz-adv-x="829" 
d="M414 1499q148 0 236.5 -95.5t88.5 -250.5q0 -151 -88 -245.5t-237 -94.5t-235.5 94t-86.5 246q0 155 89.5 250.5t232.5 95.5zM414 1395q-85 0 -128.5 -62t-43.5 -174q0 -117 43.5 -179t128.5 -62q86 0 130 62.5t44 178.5q0 112 -44.5 174t-129.5 62z" />
    <glyph glyph-name="guillemotright" unicode="&#xbb;" horiz-adv-x="948" 
d="M305 514l-199 389h117l262 -389l-262 -373h-114zM672 514l-199 389h117l264 -389l-264 -373h-115z" />
    <glyph glyph-name="onequarter" unicode="&#xbc;" horiz-adv-x="1992" 
d="M184 565v778l-178 -59v98l232 115h81v-932h-135zM1438 1497l-996 -1505l-135 2l998 1503h133zM1618 932h135v-582h141v-119h-141v-231h-133v231h-432v121zM1327 350h291v391z" />
    <glyph glyph-name="onehalf" unicode="&#xbd;" horiz-adv-x="1929" 
d="M184 565v778l-178 -59v98l232 115h81v-932h-135zM1438 1497l-996 -1505l-135 2l998 1503h133zM1182 0v109l299 284q113 105 153.5 162.5t40.5 120.5q0 76 -51.5 114.5t-120.5 38.5q-67 0 -122 -32t-85 -101l-120 23q31 107 115.5 166t215.5 59q138 0 223 -71.5t85 -196.5
q-1 -77 -43 -143t-150 -173l-250 -245h451v-115h-641z" />
    <glyph glyph-name="threequarters" unicode="&#xbe;" horiz-adv-x="2193" 
d="M82 1315q26 102 119.5 151.5t218.5 49.5q142 0 235 -67.5t93 -170.5q0 -149 -179 -209q94 -26 150.5 -87.5t56.5 -150.5q0 -120 -104 -196t-260 -76q-140 0 -227.5 46t-125.5 159l121 22q66 -116 226 -116q102 0 162.5 45t60.5 114q0 77 -63 123.5t-152 46.5l-127 2v109
l106 2q91 2 152 46.5t61 111.5q0 59 -54.5 98t-133.5 39q-162 0 -217 -115zM1638 1497l-995 -1505l-135 2l997 1503h133zM1819 932h135v-582h141v-119h-141v-231h-133v231h-432v121zM1528 350h291v391z" />
    <glyph glyph-name="questiondown" unicode="&#xbf;" horiz-adv-x="1077" 
d="M438 805v254h246v-254h-246zM1020 -45q-65 -145 -194.5 -225t-299.5 -80q-216 0 -337 99t-121 257q0 68 22.5 125t58 97.5t78.5 77.5t86.5 73.5t79 76t58 95t22.5 121.5h176q0 -76 -20.5 -141t-53 -110.5t-71.5 -85.5t-78 -75.5t-71.5 -71t-53 -80t-20.5 -94.5
q0 -92 68 -148t179 -56q97 0 185.5 56t122.5 140z" />
    <glyph glyph-name="Agrave" unicode="&#xc0;" horiz-adv-x="1460" 
d="M496 1923l503 -201l-34 -102l-521 149zM80 0l534 1481h234l534 -1481h-213l-141 393h-592l-143 -393h-213zM487 584h486l-240 692z" />
    <glyph glyph-name="Aacute" unicode="&#xc1;" horiz-adv-x="1460" 
d="M971 1923l51 -154l-522 -149l-33 102zM80 0l534 1481h234l534 -1481h-213l-141 393h-592l-143 -393h-213zM487 584h486l-240 692z" />
    <glyph glyph-name="Acircumflex" unicode="&#xc2;" horiz-adv-x="1460" 
d="M883 1669l-142 139l-153 -139h-178l260 242h149l254 -242h-190zM80 0l534 1481h234l534 -1481h-213l-141 393h-592l-143 -393h-213zM487 584h486l-240 692z" />
    <glyph glyph-name="Atilde" unicode="&#xc3;" horiz-adv-x="1460" 
d="M1040 1761q-63 -47 -159 -47q-58 0 -140 26.5t-127 26.5q-28 0 -52 -7t-35.5 -13.5t-37.5 -22.5q-12 -8 -19 -6t-11 17l-23 63q-7 20 8 33q39 32 74.5 48.5t85.5 16.5q54 0 144 -28.5t133 -28.5q61 0 123 41q24 15 32 -10l21 -76q8 -16 -17 -33zM80 0l534 1481h234
l534 -1481h-213l-141 393h-592l-143 -393h-213zM487 584h486l-240 692z" />
    <glyph glyph-name="Adieresis" unicode="&#xc4;" horiz-adv-x="1460" 
d="M678 1903v-232h-197v232h197zM1004 1903v-232h-197v232h197zM80 0l534 1481h234l534 -1481h-213l-141 393h-592l-143 -393h-213zM487 584h486l-240 692z" />
    <glyph glyph-name="Aring" unicode="&#xc5;" horiz-adv-x="1460" 
d="M956 1810q0 -89 -62 -150t-151 -61t-151 62.5t-62 153.5q0 86 62.5 146t150.5 60q89 0 151 -61t62 -150zM848 1810q0 47 -31 78t-76 31t-77.5 -31.5t-32.5 -77.5q0 -43 33 -76.5t77 -33.5t75.5 33.5t31.5 76.5zM80 0l534 1481h234l534 -1481h-213l-141 393h-592
l-143 -393h-213zM487 584h486l-240 692z" />
    <glyph glyph-name="AE" unicode="&#xc6;" horiz-adv-x="2113" 
d="M1980 180v-180h-968v399h-500l-219 -399h-213l813 1481h1063l-2 -181h-705v-464h516v-179h-516v-477h731zM1012 584v749l-418 -749h418z" />
    <glyph glyph-name="Ccedilla" unicode="&#xc7;" horiz-adv-x="1443" 
d="M762 160q131 0 222.5 78.5t119.5 210.5l221 -15q-23 -188 -157 -314t-357 -138l-35 -95q99 -4 144 -48t45 -103q0 -74 -66 -117t-162 -43q-121 0 -200 51l32 84q67 -49 144 -49q108 0 108 74q0 43 -39 65t-125 23q-20 0 -14 14l64 144q-274 22 -428 225.5t-154 537.5
q0 353 167 554.5t464 201.5q238 0 395 -131.5t178 -329.5l-221 -8q-26 133 -116 211t-240 78q-396 0 -396 -578q0 -290 103 -436.5t303 -146.5z" />
    <glyph glyph-name="Egrave" unicode="&#xc8;" horiz-adv-x="1292" 
d="M436 1923l504 -201l-35 -102l-520 149zM190 0v1481h951l-2 -183h-738v-460h662v-181h-662v-471l756 -2v-184h-967z" />
    <glyph glyph-name="Eacute" unicode="&#xc9;" horiz-adv-x="1292" 
d="M911 1923l52 -154l-523 -149l-32 102zM190 0v1481h951l-2 -183h-738v-460h662v-181h-662v-471l756 -2v-184h-967z" />
    <glyph glyph-name="Ecircumflex" unicode="&#xca;" horiz-adv-x="1292" 
d="M823 1669l-141 139l-154 -139h-178l260 242h150l254 -242h-191zM190 0v1481h951l-2 -183h-738v-460h662v-181h-662v-471l756 -2v-184h-967z" />
    <glyph glyph-name="Edieresis" unicode="&#xcb;" horiz-adv-x="1292" 
d="M618 1903v-232h-196v232h196zM944 1903v-232h-196v232h196zM190 0v1481h951l-2 -183h-738v-460h662v-181h-662v-471l756 -2v-184h-967z" />
    <glyph glyph-name="Igrave" unicode="&#xcc;" horiz-adv-x="585" 
d="M53 1923l504 -201l-35 -102l-520 149zM190 1481h211v-1481h-211v1481z" />
    <glyph glyph-name="Iacute" unicode="&#xcd;" horiz-adv-x="585" 
d="M528 1923l52 -154l-523 -149l-32 102zM190 1481h211v-1481h-211v1481z" />
    <glyph glyph-name="Icircumflex" unicode="&#xce;" horiz-adv-x="585" 
d="M442 1669l-141 139l-154 -139h-178l260 242h150l254 -242h-191zM190 1481h211v-1481h-211v1481z" />
    <glyph glyph-name="Idieresis" unicode="&#xcf;" horiz-adv-x="585" 
d="M238 1903v-232h-197v232h197zM563 1903v-232h-196v232h196zM190 1481h211v-1481h-211v1481z" />
    <glyph glyph-name="Eth" unicode="&#xd0;" horiz-adv-x="1476" 
d="M590 1479q400 -6 585 -189.5t185 -539.5q0 -750 -787 -750h-344v655h-123q-20 0 -27 7.5t-7 25.5v103q0 28 24 28h133v662q236 0 361 -2zM573 178q133 0 235 31t178 97t115.5 177t39.5 265q0 153 -37.5 261.5t-111.5 173t-174.5 93.5t-235.5 29h-140v-486h303q9 0 15 -7
t6 -17v-103q0 -20 -9 -28.5t-32 -8.5h-283v-477h131z" />
    <glyph glyph-name="Ntilde" unicode="&#xd1;" horiz-adv-x="1552" 
d="M1094 1761q-63 -47 -160 -47q-58 0 -139.5 26.5t-126.5 26.5q-28 0 -52 -7t-35.5 -13.5t-37.5 -22.5q-23 -15 -31 11l-23 63q-7 20 9 33q40 32 74.5 48.5t84.5 16.5q54 0 144 -28.5t133 -28.5q61 0 123 41q25 15 33 -10l20 -76q8 -17 -16 -33zM1157 1481h209v-1481h-186
l-779 1141v-1141h-211v1481h203l764 -1121v1121z" />
    <glyph glyph-name="Ograve" unicode="&#xd2;" horiz-adv-x="1546" 
d="M528 1923l504 -201l-35 -102l-520 149zM774 -20q-303 0 -476 199t-173 556q0 361 174.5 563.5t476.5 202.5q299 0 472 -202t173 -562q0 -357 -173 -557t-474 -200zM776 160q202 0 309 141t107 434q0 297 -108 441.5t-308 144.5q-202 0 -312 -145.5t-110 -440.5
q0 -292 110 -433.5t312 -141.5z" />
    <glyph glyph-name="Oacute" unicode="&#xd3;" horiz-adv-x="1546" 
d="M1004 1923l51 -154l-523 -149l-32 102zM774 -20q-303 0 -476 199t-173 556q0 361 174.5 563.5t476.5 202.5q299 0 472 -202t173 -562q0 -357 -173 -557t-474 -200zM776 160q202 0 309 141t107 434q0 297 -108 441.5t-308 144.5q-202 0 -312 -145.5t-110 -440.5
q0 -292 110 -433.5t312 -141.5z" />
    <glyph glyph-name="Ocircumflex" unicode="&#xd4;" horiz-adv-x="1546" 
d="M915 1669l-141 139l-153 -139h-179l260 242h150l254 -242h-191zM774 -20q-303 0 -476 199t-173 556q0 361 174.5 563.5t476.5 202.5q299 0 472 -202t173 -562q0 -357 -173 -557t-474 -200zM776 160q202 0 309 141t107 434q0 297 -108 441.5t-308 144.5
q-202 0 -312 -145.5t-110 -440.5q0 -292 110 -433.5t312 -141.5z" />
    <glyph glyph-name="Otilde" unicode="&#xd5;" horiz-adv-x="1546" 
d="M1073 1761q-63 -47 -160 -47q-58 0 -139.5 26.5t-126.5 26.5q-28 0 -52 -7t-35.5 -13.5t-37.5 -22.5q-12 -8 -19 -6t-11 17l-23 63q-7 20 8 33q39 32 74.5 48.5t85.5 16.5q54 0 143.5 -28.5t132.5 -28.5q61 0 123 41q25 15 33 -10l21 -76q8 -16 -17 -33zM774 -20
q-303 0 -476 199t-173 556q0 361 174.5 563.5t476.5 202.5q299 0 472 -202t173 -562q0 -357 -173 -557t-474 -200zM776 160q202 0 309 141t107 434q0 297 -108 441.5t-308 144.5q-202 0 -312 -145.5t-110 -440.5q0 -292 110 -433.5t312 -141.5z" />
    <glyph glyph-name="Odieresis" unicode="&#xd6;" horiz-adv-x="1546" 
d="M711 1903v-232h-197v232h197zM1036 1903v-232h-196v232h196zM774 -20q-303 0 -476 199t-173 556q0 361 174.5 563.5t476.5 202.5q299 0 472 -202t173 -562q0 -357 -173 -557t-474 -200zM776 160q202 0 309 141t107 434q0 297 -108 441.5t-308 144.5q-202 0 -312 -145.5
t-110 -440.5q0 -292 110 -433.5t312 -141.5z" />
    <glyph glyph-name="multiply" unicode="&#xd7;" horiz-adv-x="1130" 
d="M995 1067l-321 -322l321 -319l-114 -115l-320 320l-319 -320l-113 115l317 319l-319 320l113 113l321 -320l320 322z" />
    <glyph glyph-name="Oslash" unicode="&#xd8;" horiz-adv-x="1507" 
d="M1452 1419q19 -19 0 -35l-162 -178q109 -188 109 -469q0 -357 -173 -557t-474 -200q-281 0 -445 167l-133 -145q-24 -31 -57 -2l-54 51q-24 26 -8 47l156 170q-109 180 -109 467q0 361 174 563.5t476 202.5q275 0 444 -172l143 154q21 24 39 6zM354 735q0 -171 45 -276
l650 719q-97 147 -297 147q-201 0 -299.5 -144.5t-98.5 -445.5zM1145 735q0 171 -45 281l-647 -719q101 -139 301 -139t295.5 139.5t95.5 437.5z" />
    <glyph glyph-name="Ugrave" unicode="&#xd9;" horiz-adv-x="1472" 
d="M481 1923l504 -201l-35 -102l-520 149zM1292 520q0 -264 -133.5 -402t-417.5 -138q-287 0 -419 141.5t-132 417.5v942h218v-969q0 -175 85.5 -262.5t247.5 -87.5q164 0 252 87t88 263v969h211v-961z" />
    <glyph glyph-name="Uacute" unicode="&#xda;" horiz-adv-x="1472" 
d="M956 1923l52 -154l-523 -149l-32 102zM1292 520q0 -264 -133.5 -402t-417.5 -138q-287 0 -419 141.5t-132 417.5v942h218v-969q0 -175 85.5 -262.5t247.5 -87.5q164 0 252 87t88 263v969h211v-961z" />
    <glyph glyph-name="Ucircumflex" unicode="&#xdb;" horiz-adv-x="1472" 
d="M870 1669l-141 139l-154 -139h-178l260 242h150l254 -242h-191zM1292 520q0 -264 -133.5 -402t-417.5 -138q-287 0 -419 141.5t-132 417.5v942h218v-969q0 -175 85.5 -262.5t247.5 -87.5q164 0 252 87t88 263v969h211v-961z" />
    <glyph glyph-name="Udieresis" unicode="&#xdc;" horiz-adv-x="1472" 
d="M666 1903v-232h-197v232h197zM991 1903v-232h-196v232h196zM1292 520q0 -264 -133.5 -402t-417.5 -138q-287 0 -419 141.5t-132 417.5v942h218v-969q0 -175 85.5 -262.5t247.5 -87.5q164 0 252 87t88 263v969h211v-961z" />
    <glyph glyph-name="Yacute" unicode="&#xdd;" horiz-adv-x="1257" 
d="M872 1923l52 -154l-523 -149l-32 102zM1239 1481l-504 -852v-629h-211v631l-506 850h230l383 -666l379 666h229z" />
    <glyph glyph-name="Thorn" unicode="&#xde;" horiz-adv-x="1388" 
d="M1321 764q0 -144 -69.5 -243t-187 -145t-276.5 -46h-358v-330h-240v1481h240v-301h330q122 0 223 -25.5t177 -75.5t118.5 -130.5t42.5 -184.5zM1075 766q0 122 -86.5 180t-240.5 58h-318v-496h330q147 0 231 65t84 193z" />
    <glyph glyph-name="germandbls" unicode="&#xdf;" horiz-adv-x="1280" 
d="M668 1481q184 0 276 -80t92 -207q0 -56 -16.5 -98.5t-53.5 -76.5t-75.5 -57t-102.5 -53q-62 -32 -82 -50t-20 -48q0 -31 20 -45.5t80 -32.5q141 -56 189 -83q164 -90 194 -240q7 -36 7 -76q0 -168 -114.5 -261t-295.5 -93q-78 0 -153 18.5t-126 50.5l72 137
q48 -30 91.5 -45.5t103.5 -15.5q105 0 167 48.5t62 137.5q0 39 -14 70t-32 51t-55.5 40.5t-63.5 31t-77 28.5q-48 17 -81.5 34.5t-67.5 45t-52 67.5t-18 91q0 72 40 123.5t124 101.5q7 5 31.5 21t33 22.5t27.5 22t26.5 26.5t18.5 27.5t15 34.5t4 39q0 67 -50 107t-141 40
q-115 0 -182.5 -69.5t-67.5 -196.5v-1069h-204v881h-136v151h134q3 200 124 324.5t349 124.5z" />
    <glyph glyph-name="agrave" unicode="&#xe0;" 
d="M336 1501l504 -201l-35 -102l-520 150zM453 -20q-157 0 -254 82.5t-97 226.5q0 178 124.5 264t398.5 92l178 4v80q0 94 -62.5 147.5t-167.5 51.5q-91 0 -158.5 -43.5t-86.5 -126.5h-183q8 144 127.5 232.5t311.5 88.5q208 0 315 -90.5t107 -249.5v-739h-179l-16 190
q-58 -116 -146.5 -163t-211.5 -47zM518 127q66 0 132 31.5t109 83t44 106.5v178l-148 -4q-175 -2 -262.5 -52t-87.5 -161q0 -85 58.5 -133.5t154.5 -48.5z" />
    <glyph glyph-name="aacute" unicode="&#xe1;" 
d="M811 1501l51 -153l-522 -150l-33 102zM453 -20q-157 0 -254 82.5t-97 226.5q0 178 124.5 264t398.5 92l178 4v80q0 94 -62.5 147.5t-167.5 51.5q-91 0 -158.5 -43.5t-86.5 -126.5h-183q8 144 127.5 232.5t311.5 88.5q208 0 315 -90.5t107 -249.5v-739h-179l-16 190
q-58 -116 -146.5 -163t-211.5 -47zM518 127q66 0 132 31.5t109 83t44 106.5v178l-148 -4q-175 -2 -262.5 -52t-87.5 -161q0 -85 58.5 -133.5t154.5 -48.5z" />
    <glyph glyph-name="acircumflex" unicode="&#xe2;" 
d="M723 1247l-141 139l-154 -139h-178l260 242h149l254 -242h-190zM453 -20q-157 0 -254 82.5t-97 226.5q0 178 124.5 264t398.5 92l178 4v80q0 94 -62.5 147.5t-167.5 51.5q-91 0 -158.5 -43.5t-86.5 -126.5h-183q8 144 127.5 232.5t311.5 88.5q208 0 315 -90.5t107 -249.5
v-739h-179l-16 190q-58 -116 -146.5 -163t-211.5 -47zM518 127q66 0 132 31.5t109 83t44 106.5v178l-148 -4q-175 -2 -262.5 -52t-87.5 -161q0 -85 58.5 -133.5t154.5 -48.5z" />
    <glyph glyph-name="atilde" unicode="&#xe3;" 
d="M883 1339q-63 -47 -160 -47q-58 0 -139.5 27t-126.5 27q-28 0 -52 -7t-35.5 -13.5t-37.5 -22.5q-24 -15 -31 10l-22 63q-7 20 8 33q40 33 74.5 49.5t84.5 16.5q54 0 144 -29t133 -29q61 0 123 41q25 15 33 -10l20 -76q8 -17 -16 -33zM453 -20q-157 0 -254 82.5t-97 226.5
q0 178 124.5 264t398.5 92l178 4v80q0 94 -62.5 147.5t-167.5 51.5q-91 0 -158.5 -43.5t-86.5 -126.5h-183q8 144 127.5 232.5t311.5 88.5q208 0 315 -90.5t107 -249.5v-739h-179l-16 190q-58 -116 -146.5 -163t-211.5 -47zM518 127q66 0 132 31.5t109 83t44 106.5v178
l-148 -4q-175 -2 -262.5 -52t-87.5 -161q0 -85 58.5 -133.5t154.5 -48.5z" />
    <glyph glyph-name="adieresis" unicode="&#xe4;" 
d="M518 1481v-232h-196v232h196zM844 1481v-232h-197v232h197zM453 -20q-157 0 -254 82.5t-97 226.5q0 178 124.5 264t398.5 92l178 4v80q0 94 -62.5 147.5t-167.5 51.5q-91 0 -158.5 -43.5t-86.5 -126.5h-183q8 144 127.5 232.5t311.5 88.5q208 0 315 -90.5t107 -249.5
v-739h-179l-16 190q-58 -116 -146.5 -163t-211.5 -47zM518 127q66 0 132 31.5t109 83t44 106.5v178l-148 -4q-175 -2 -262.5 -52t-87.5 -161q0 -85 58.5 -133.5t154.5 -48.5z" />
    <glyph glyph-name="aring" unicode="&#xe5;" 
d="M799 1389q0 -89 -62 -150t-151 -61t-151 62t-62 153q0 86 62.5 146t150.5 60q90 0 151.5 -60.5t61.5 -149.5zM690 1389q0 47 -30.5 77.5t-75.5 30.5t-78 -31t-33 -77q0 -43 33.5 -77t77.5 -34q43 0 74.5 33.5t31.5 77.5zM453 -20q-157 0 -254 82.5t-97 226.5
q0 178 124.5 264t398.5 92l178 4v80q0 94 -62.5 147.5t-167.5 51.5q-91 0 -158.5 -43.5t-86.5 -126.5h-183q8 144 127.5 232.5t311.5 88.5q208 0 315 -90.5t107 -249.5v-739h-179l-16 190q-58 -116 -146.5 -163t-211.5 -47zM518 127q66 0 132 31.5t109 83t44 106.5v178
l-148 -4q-175 -2 -262.5 -52t-87.5 -161q0 -85 58.5 -133.5t154.5 -48.5z" />
    <glyph glyph-name="ae" unicode="&#xe6;" horiz-adv-x="1904" 
d="M1014 485q0 -141 94 -247.5t227 -106.5q57 0 104 13t85 40t64 53t59 66l135 -67q-152 -256 -471 -256q-240 0 -412 204q-5 6 -7 6t-7 -6q-32 -34 -60 -60t-70 -54.5t-85.5 -47t-103 -30.5t-126.5 -12q-160 0 -249 79.5t-89 216.5q0 156 130.5 248t388.5 109l186 14v78
q0 100 -58.5 155.5t-170.5 55.5q-168 0 -271 -168l-176 53q131 258 459 258q277 0 360 -174q124 174 361 174q222 0 357.5 -157t135.5 -435zM1315 938q-127 0 -211 -87.5t-84 -234.5l575 -2q0 129 -78 226.5t-202 97.5zM807 522l-156 -10q-160 -12 -250 -68.5t-90 -152.5
q0 -79 55 -126t152 -44q120 5 204.5 68t84.5 151v182z" />
    <glyph glyph-name="ccedilla" unicode="&#xe7;" horiz-adv-x="1122" 
d="M598 135q91 0 154.5 56.5t81.5 142.5h180q-21 -153 -123.5 -245.5t-253.5 -106.5l-37 -95q97 -4 141.5 -48t44.5 -103q0 -74 -65 -117t-160 -43q-122 0 -203 51l35 84q67 -49 144 -49q108 0 108 74q0 44 -39 65.5t-127 22.5q-20 0 -12 14l61 146q-195 20 -312.5 167.5
t-117.5 372.5q0 246 135 400.5t355 154.5q171 0 288.5 -99t139.5 -265l-182 -2q-25 94 -87 147t-151 53q-138 0 -218.5 -103.5t-80.5 -281.5q0 -180 81.5 -286.5t219.5 -106.5z" />
    <glyph glyph-name="egrave" unicode="&#xe8;" horiz-adv-x="1165" 
d="M340 1501l504 -201l-35 -102l-520 150zM309 479q-2 -151 73 -245.5t216 -94.5q198 0 256 174h195q-24 -108 -91.5 -184.5t-158.5 -112.5t-197 -36q-227 0 -365.5 144.5t-138.5 393.5q0 253 131 407t359 154q223 0 345 -141.5t122 -384.5v-74h-746zM309 618h547
q0 135 -69.5 220.5t-200.5 85.5q-89 0 -154 -46t-94.5 -114t-28.5 -146z" />
    <glyph glyph-name="eacute" unicode="&#xe9;" horiz-adv-x="1165" 
d="M815 1501l51 -153l-520 -150l-35 102zM309 479q-2 -151 73 -245.5t216 -94.5q198 0 256 174h195q-24 -108 -91.5 -184.5t-158.5 -112.5t-197 -36q-227 0 -365.5 144.5t-138.5 393.5q0 253 131 407t359 154q223 0 345 -141.5t122 -384.5v-74h-746zM309 618h547
q0 135 -69.5 220.5t-200.5 85.5q-89 0 -154 -46t-94.5 -114t-28.5 -146z" />
    <glyph glyph-name="ecircumflex" unicode="&#xea;" horiz-adv-x="1165" 
d="M729 1247l-141 139l-154 -139h-178l260 242h148l254 -242h-189zM309 479q-2 -151 73 -245.5t216 -94.5q198 0 256 174h195q-24 -108 -91.5 -184.5t-158.5 -112.5t-197 -36q-227 0 -365.5 144.5t-138.5 393.5q0 253 131 407t359 154q223 0 345 -141.5t122 -384.5v-74h-746
zM309 618h547q0 135 -69.5 220.5t-200.5 85.5q-89 0 -154 -46t-94.5 -114t-28.5 -146z" />
    <glyph glyph-name="edieresis" unicode="&#xeb;" horiz-adv-x="1165" 
d="M522 1481v-232h-196v232h196zM850 1481v-232h-199v232h199zM309 479q-2 -151 73 -245.5t216 -94.5q198 0 256 174h195q-24 -108 -91.5 -184.5t-158.5 -112.5t-197 -36q-227 0 -365.5 144.5t-138.5 393.5q0 253 131 407t359 154q223 0 345 -141.5t122 -384.5v-74h-746z
M309 618h547q0 135 -69.5 220.5t-200.5 85.5q-89 0 -154 -46t-94.5 -114t-28.5 -146z" />
    <glyph glyph-name="igrave" unicode="&#xec;" horiz-adv-x="528" 
d="M20 1501l504 -201l-35 -102l-520 150zM371 1059v-1059h-209v1059h209z" />
    <glyph glyph-name="iacute" unicode="&#xed;" horiz-adv-x="528" 
d="M496 1501l51 -153l-522 -150l-33 102zM371 1059v-1059h-209v1059h209z" />
    <glyph glyph-name="icircumflex" unicode="&#xee;" horiz-adv-x="528" 
d="M408 1247l-142 139l-153 -139h-179l261 242h149l254 -242h-190zM371 1059v-1059h-209v1059h209z" />
    <glyph glyph-name="idieresis" unicode="&#xef;" horiz-adv-x="528" 
d="M203 1481v-232h-197v232h197zM528 1481v-232h-196v232h196zM371 1059v-1059h-209v1059h209z" />
    <glyph glyph-name="eth" unicode="&#xf0;" horiz-adv-x="1212" 
d="M1120 532q0 -250 -140 -401t-378 -151q-226 0 -368 147.5t-142 376.5q0 233 142.5 383.5t359.5 150.5q133 0 207 -77q-80 166 -254 286l-297 -168l-51 82l258 142q-91 52 -226 102l127 98q136 -44 258 -108l203 112l45 -84l-155 -88q411 -284 411 -803zM608 129
q135 0 217 105t82 276q0 169 -83.5 276t-217.5 107q-133 0 -217 -107t-84 -276q0 -170 84 -275.5t219 -105.5z" />
    <glyph glyph-name="ntilde" unicode="&#xf1;" horiz-adv-x="1196" 
d="M915 1339q-63 -47 -159 -47q-58 0 -140 27t-127 27q-28 0 -52 -7.5t-34.5 -13t-37.5 -22.5q-24 -15 -31 10l-23 63q-7 20 8 33q40 33 75 49.5t85 16.5q54 0 144 -29t133 -29q61 0 123 41q24 15 32 -10l21 -76q8 -16 -17 -33zM154 0v1059h204v-146q107 160 328 160
q157 0 264 -100.5t107 -274.5v-698h-211v676q0 107 -61.5 167t-161.5 60q-109 0 -185 -51.5t-76 -144.5v-707h-208z" />
    <glyph glyph-name="ograve" unicode="&#xf2;" 
d="M336 1501l504 -201l-35 -102l-520 150zM580 -20q-227 0 -357.5 149.5t-130.5 392.5q0 250 133 403.5t357 153.5q226 0 356.5 -153.5t130.5 -401.5q0 -243 -131 -393.5t-358 -150.5zM584 141q95 0 159 54t91.5 139t27.5 196q0 112 -28 197t-92.5 138t-159.5 53t-160 -53
t-94 -138.5t-29 -196.5t29 -196t94.5 -139t161.5 -54z" />
    <glyph glyph-name="oacute" unicode="&#xf3;" 
d="M811 1501l51 -153l-522 -150l-33 102zM580 -20q-227 0 -357.5 149.5t-130.5 392.5q0 250 133 403.5t357 153.5q226 0 356.5 -153.5t130.5 -401.5q0 -243 -131 -393.5t-358 -150.5zM584 141q95 0 159 54t91.5 139t27.5 196q0 112 -28 197t-92.5 138t-159.5 53t-160 -53
t-94 -138.5t-29 -196.5t29 -196t94.5 -139t161.5 -54z" />
    <glyph glyph-name="ocircumflex" unicode="&#xf4;" 
d="M723 1247l-141 139l-154 -139h-178l260 242h149l254 -242h-190zM580 -20q-227 0 -357.5 149.5t-130.5 392.5q0 250 133 403.5t357 153.5q226 0 356.5 -153.5t130.5 -401.5q0 -243 -131 -393.5t-358 -150.5zM584 141q95 0 159 54t91.5 139t27.5 196q0 112 -28 197
t-92.5 138t-159.5 53t-160 -53t-94 -138.5t-29 -196.5t29 -196t94.5 -139t161.5 -54z" />
    <glyph glyph-name="otilde" unicode="&#xf5;" 
d="M881 1339q-63 -47 -160 -47q-58 0 -139.5 27t-126.5 27q-28 0 -52 -7t-35.5 -13.5t-37.5 -22.5q-24 -15 -31 10l-23 63q-7 20 9 33q40 33 74.5 49.5t84.5 16.5q54 0 144 -29t133 -29q61 0 123 41q25 15 33 -10l20 -76q8 -17 -16 -33zM580 -20q-227 0 -357.5 149.5
t-130.5 392.5q0 250 133 403.5t357 153.5q226 0 356.5 -153.5t130.5 -401.5q0 -243 -131 -393.5t-358 -150.5zM584 141q95 0 159 54t91.5 139t27.5 196q0 112 -28 197t-92.5 138t-159.5 53t-160 -53t-94 -138.5t-29 -196.5t29 -196t94.5 -139t161.5 -54z" />
    <glyph glyph-name="odieresis" unicode="&#xf6;" 
d="M518 1481v-232h-196v232h196zM844 1481v-232h-197v232h197zM580 -20q-227 0 -357.5 149.5t-130.5 392.5q0 250 133 403.5t357 153.5q226 0 356.5 -153.5t130.5 -401.5q0 -243 -131 -393.5t-358 -150.5zM584 141q95 0 159 54t91.5 139t27.5 196q0 112 -28 197t-92.5 138
t-159.5 53t-160 -53t-94 -138.5t-29 -196.5t29 -196t94.5 -139t161.5 -54z" />
    <glyph glyph-name="divide" unicode="&#xf7;" horiz-adv-x="1159" 
d="M702 1235v-244h-249v244h249zM1026 825v-159l-899 -2v159zM702 498v-242h-249v242h249z" />
    <glyph glyph-name="oslash" unicode="&#xf8;" horiz-adv-x="1216" 
d="M1161 983l-137 -133q78 -135 78 -326q0 -243 -131.5 -393.5t-358.5 -150.5q-217 0 -350 139l-135 -131l-82 86l148 141q-70 134 -70 307q0 250 133 403.5t358 153.5q208 0 338 -133l127 121zM330 530q0 -93 20 -163l469 450q-75 101 -205 101q-142 0 -213 -108t-71 -280z
M893 530q0 99 -23 175l-469 -453q73 -111 213 -111q141 0 210 108.5t69 280.5z" />
    <glyph glyph-name="ugrave" unicode="&#xf9;" horiz-adv-x="1196" 
d="M342 1501l504 -201l-35 -102l-520 150zM549 -18q-54 0 -108 12.5t-106 40t-92 68t-64.5 101.5t-24.5 134v723h208v-701q0 -58 21 -102t56.5 -68.5t76 -36.5t84.5 -12q103 0 173.5 60.5t70.5 169.5v690h213l-4 -1059h-164l-19 215q-13 -66 -46 -114t-78.5 -73.5t-94 -37
t-102.5 -10.5z" />
    <glyph glyph-name="uacute" unicode="&#xfa;" horiz-adv-x="1196" 
d="M817 1501l51 -153l-522 -150l-33 102zM549 -18q-54 0 -108 12.5t-106 40t-92 68t-64.5 101.5t-24.5 134v723h208v-701q0 -58 21 -102t56.5 -68.5t76 -36.5t84.5 -12q103 0 173.5 60.5t70.5 169.5v690h213l-4 -1059h-164l-19 215q-13 -66 -46 -114t-78.5 -73.5t-94 -37
t-102.5 -10.5z" />
    <glyph glyph-name="ucircumflex" unicode="&#xfb;" horiz-adv-x="1196" 
d="M729 1247l-141 139l-154 -139h-178l260 242h150l254 -242h-191zM549 -18q-54 0 -108 12.5t-106 40t-92 68t-64.5 101.5t-24.5 134v723h208v-701q0 -58 21 -102t56.5 -68.5t76 -36.5t84.5 -12q103 0 173.5 60.5t70.5 169.5v690h213l-4 -1059h-164l-19 215
q-13 -66 -46 -114t-78.5 -73.5t-94 -37t-102.5 -10.5z" />
    <glyph glyph-name="udieresis" unicode="&#xfc;" horiz-adv-x="1196" 
d="M524 1481v-232h-196v232h196zM850 1481v-232h-197v232h197zM549 -18q-54 0 -108 12.5t-106 40t-92 68t-64.5 101.5t-24.5 134v723h208v-701q0 -58 21 -102t56.5 -68.5t76 -36.5t84.5 -12q103 0 173.5 60.5t70.5 169.5v690h213l-4 -1059h-164l-19 215q-13 -66 -46 -114
t-78.5 -73.5t-94 -37t-102.5 -10.5z" />
    <glyph glyph-name="yacute" unicode="&#xfd;" horiz-adv-x="1114" 
d="M807 1501l51 -153l-522 -150l-33 102zM272 -338q-57 0 -99.5 7t-56.5 15l-14 7v135l109 -4q57 -2 98.5 7.5t64.5 30t33.5 37t20.5 40.5l33 92l-412 1030h209l303 -795l301 795h203l-442 -1125q-61 -153 -145.5 -212.5t-205.5 -59.5z" />
    <glyph glyph-name="thorn" unicode="&#xfe;" horiz-adv-x="1214" 
d="M362 1481v-566q25 28 37.5 41t47 41t65 42.5t79.5 27t103 12.5q92 0 169.5 -33.5t136 -98.5t91.5 -168.5t33 -235.5q0 -269 -122.5 -416t-327.5 -147q-160 0 -279 100q-19 17 -26 15t-7 -27v-398h-208v1811h208zM362 246q120 -123 248 -123q137 0 218 106.5t81 313.5
q0 201 -80 297t-211 96q-107 0 -181.5 -66t-74.5 -143v-481z" />
    <glyph glyph-name="ydieresis" unicode="&#xff;" horiz-adv-x="1114" 
d="M514 1481v-232h-197v232h197zM840 1481v-232h-197v232h197zM272 -338q-57 0 -99.5 7t-56.5 15l-14 7v135l109 -4q57 -2 98.5 7.5t64.5 30t33.5 37t20.5 40.5l33 92l-412 1030h209l303 -795l301 795h203l-442 -1125q-61 -153 -145.5 -212.5t-205.5 -59.5z" />
    <glyph glyph-name="Amacron" unicode="&#x100;" horiz-adv-x="1460" 
d="M1059 1880v-145h-631v145h631zM80 0l534 1481h234l534 -1481h-213l-141 393h-592l-143 -393h-213zM487 584h486l-240 692z" />
    <glyph glyph-name="amacron" unicode="&#x101;" 
d="M899 1458v-145h-631v145h631zM453 -20q-157 0 -254 82.5t-97 226.5q0 178 124.5 264t398.5 92l178 4v80q0 94 -62.5 147.5t-167.5 51.5q-91 0 -158.5 -43.5t-86.5 -126.5h-183q8 144 127.5 232.5t311.5 88.5q208 0 315 -90.5t107 -249.5v-739h-179l-16 190
q-58 -116 -146.5 -163t-211.5 -47zM518 127q66 0 132 31.5t109 83t44 106.5v178l-148 -4q-175 -2 -262.5 -52t-87.5 -161q0 -85 58.5 -133.5t154.5 -48.5z" />
    <glyph glyph-name="Abreve" unicode="&#x102;" horiz-adv-x="1460" 
d="M1063 1903q-30 -98 -115 -164t-207 -66q-121 0 -204.5 63.5t-110.5 166.5h143q65 -109 172 -109q58 0 103.5 32.5t70.5 76.5h148zM80 0l534 1481h234l534 -1481h-213l-141 393h-592l-143 -393h-213zM487 584h486l-240 692z" />
    <glyph glyph-name="abreve" unicode="&#x103;" 
d="M905 1481q-30 -98 -115 -164t-206 -66t-205 63.5t-111 166.5h144q65 -109 172 -109q58 0 103.5 32.5t70.5 76.5h147zM453 -20q-157 0 -254 82.5t-97 226.5q0 178 124.5 264t398.5 92l178 4v80q0 94 -62.5 147.5t-167.5 51.5q-91 0 -158.5 -43.5t-86.5 -126.5h-183
q8 144 127.5 232.5t311.5 88.5q208 0 315 -90.5t107 -249.5v-739h-179l-16 190q-58 -116 -146.5 -163t-211.5 -47zM518 127q66 0 132 31.5t109 83t44 106.5v178l-148 -4q-175 -2 -262.5 -52t-87.5 -161q0 -85 58.5 -133.5t154.5 -48.5z" />
    <glyph glyph-name="Aogonek" unicode="&#x104;" horiz-adv-x="1460" 
d="M1415 -205q25 14 25 -12v-66q0 -15 -15 -24q-72 -35 -182 -35q-99 0 -152 43t-53 119q0 58 35.5 101.5t124.5 78.5h-29l-141 393h-592l-143 -393h-213l534 1481h234l532 -1475h15l-13 -6h-2q-97 -41 -137.5 -77.5t-40.5 -82.5q0 -73 90 -73q65 0 123 28zM487 584h486
l-240 692z" />
    <glyph glyph-name="aogonek" unicode="&#x105;" 
d="M1018 -201q24 13 24 -12v-66q0 -16 -14 -24q-72 -35 -182 -35q-99 0 -152 43t-53 119q0 62 40.5 108t143.5 82l-14 176q-58 -116 -146.5 -163t-211.5 -47q-157 0 -254 82.5t-97 226.5q0 178 124.5 264t398.5 92l178 4v80q0 94 -62.5 147.5t-167.5 51.5
q-91 0 -158.5 -43.5t-86.5 -126.5h-183q8 144 127.5 232.5t311.5 88.5q208 0 315 -90.5t107 -249.5v-739h-33q-91 -40 -129.5 -76t-38.5 -80q0 -73 90 -73q65 0 123 28zM803 348v178l-148 -4q-175 -2 -262.5 -52t-87.5 -161q0 -85 58.5 -133.5t154.5 -48.5q66 0 132 31.5
t109 83t44 106.5z" />
    <glyph glyph-name="Cacute" unicode="&#x106;" horiz-adv-x="1443" 
d="M993 1923l51 -154l-522 -149l-33 102zM756 1501q238 0 395 -131.5t178 -329.5l-221 -8q-26 133 -116 211t-240 78q-396 0 -396 -578q0 -290 103 -436.5t303 -146.5q131 0 222.5 78.5t119.5 210.5l221 -15q-12 -95 -54 -176.5t-110.5 -144t-170 -98t-224.5 -35.5
q-300 0 -470.5 205.5t-170.5 559.5q0 353 167 554.5t464 201.5z" />
    <glyph glyph-name="cacute" unicode="&#x107;" horiz-adv-x="1122" 
d="M813 1501l51 -153l-520 -150l-35 102zM588 1079q171 0 288.5 -99t139.5 -265l-182 -2q-25 94 -87 147t-151 53q-138 0 -218.5 -103.5t-80.5 -281.5q0 -180 81.5 -286.5t219.5 -106.5q91 0 154.5 56.5t81.5 142.5h180q-23 -166 -140 -260t-286 -94q-220 0 -355 150.5
t-135 393.5q0 246 135 400.5t355 154.5z" />
    <glyph glyph-name="Ccircumflex" unicode="&#x108;" horiz-adv-x="1443" 
d="M905 1669l-141 139l-154 -139h-178l260 242h150l254 -242h-191zM756 1501q238 0 395 -131.5t178 -329.5l-221 -8q-26 133 -116 211t-240 78q-396 0 -396 -578q0 -290 103 -436.5t303 -146.5q131 0 222.5 78.5t119.5 210.5l221 -15q-12 -95 -54 -176.5t-110.5 -144
t-170 -98t-224.5 -35.5q-300 0 -470.5 205.5t-170.5 559.5q0 353 167 554.5t464 201.5z" />
    <glyph glyph-name="ccircumflex" unicode="&#x109;" horiz-adv-x="1122" 
d="M727 1247l-141 139l-154 -139h-178l260 242h150l251 -242h-188zM588 1079q171 0 288.5 -99t139.5 -265l-182 -2q-25 94 -87 147t-151 53q-138 0 -218.5 -103.5t-80.5 -281.5q0 -180 81.5 -286.5t219.5 -106.5q91 0 154.5 56.5t81.5 142.5h180q-23 -166 -140 -260
t-286 -94q-220 0 -355 150.5t-135 393.5q0 246 135 400.5t355 154.5z" />
    <glyph glyph-name="Cdotaccent" unicode="&#x10a;" horiz-adv-x="1443" 
d="M874 1903v-252h-219v252h219zM756 1501q238 0 395 -131.5t178 -329.5l-221 -8q-26 133 -116 211t-240 78q-396 0 -396 -578q0 -290 103 -436.5t303 -146.5q131 0 222.5 78.5t119.5 210.5l221 -15q-12 -95 -54 -176.5t-110.5 -144t-170 -98t-224.5 -35.5
q-300 0 -470.5 205.5t-170.5 559.5q0 353 167 554.5t464 201.5z" />
    <glyph glyph-name="cdotaccent" unicode="&#x10b;" horiz-adv-x="1122" 
d="M698 1481v-252h-221v252h221zM588 1079q171 0 288.5 -99t139.5 -265l-182 -2q-25 94 -87 147t-151 53q-138 0 -218.5 -103.5t-80.5 -281.5q0 -180 81.5 -286.5t219.5 -106.5q91 0 154.5 56.5t81.5 142.5h180q-23 -166 -140 -260t-286 -94q-220 0 -355 150.5t-135 393.5
q0 246 135 400.5t355 154.5z" />
    <glyph glyph-name="Ccaron" unicode="&#x10c;" horiz-adv-x="1443" 
d="M905 1903h191l-254 -244h-150l-260 244h178l154 -142zM756 1501q238 0 395 -131.5t178 -329.5l-221 -8q-26 133 -116 211t-240 78q-396 0 -396 -578q0 -290 103 -436.5t303 -146.5q131 0 222.5 78.5t119.5 210.5l221 -15q-12 -95 -54 -176.5t-110.5 -144t-170 -98
t-224.5 -35.5q-300 0 -470.5 205.5t-170.5 559.5q0 353 167 554.5t464 201.5z" />
    <glyph glyph-name="ccaron" unicode="&#x10d;" horiz-adv-x="1122" 
d="M727 1481h188l-251 -244h-152l-258 244h178l154 -142zM588 1079q171 0 288.5 -99t139.5 -265l-182 -2q-25 94 -87 147t-151 53q-138 0 -218.5 -103.5t-80.5 -281.5q0 -180 81.5 -286.5t219.5 -106.5q91 0 154.5 56.5t81.5 142.5h180q-23 -166 -140 -260t-286 -94
q-220 0 -355 150.5t-135 393.5q0 246 135 400.5t355 154.5z" />
    <glyph glyph-name="Dcaron" unicode="&#x10e;" horiz-adv-x="1439" 
d="M846 1903h190l-254 -244h-149l-260 244h178l154 -142zM190 1481q238 0 363 -2q399 -6 584.5 -189.5t185.5 -539.5q0 -369 -195 -559.5t-591 -190.5h-347v1481zM406 1305v-1127h131q133 0 235 31t177.5 97t115 177t39.5 265q0 153 -37.5 261.5t-111.5 173t-174.5 93.5
t-235.5 29h-139z" />
    <glyph glyph-name="dcaron" unicode="&#x10f;" horiz-adv-x="1196" 
d="M539 -20q-205 0 -323 141.5t-118 398.5q0 256 115.5 407.5t323.5 151.5q183 0 309 -135v578h209v-1522h-160l-18 207q-90 -227 -338 -227zM1071 903q-9 0 -13 6.5t-1 14.5l61 145q5 13 3 19.5t-13 9.5l-16 2q-13 2 -18 6.5t-5 15.5v166q0 21 16 21h132q16 0 16 -17v-192
q0 -9 -4 -13l-70 -163q-5 -21 -41 -21h-47zM584 137q110 0 186 79.5t76 184.5v340q-86 179 -254 179q-133 0 -210 -99.5t-77 -294.5q0 -196 76.5 -292.5t202.5 -96.5z" />
    <glyph glyph-name="Dcroat" unicode="&#x110;" horiz-adv-x="1476" 
d="M590 1479q400 -6 585 -189.5t185 -539.5q0 -750 -787 -750h-344v655h-123q-20 0 -27 7.5t-7 25.5v103q0 28 24 28h133v662q236 0 361 -2zM573 178q133 0 235 31t178 97t115.5 177t39.5 265q0 153 -37.5 261.5t-111.5 173t-174.5 93.5t-235.5 29h-140v-486h303q9 0 15 -7
t6 -17v-103q0 -20 -9 -28.5t-32 -8.5h-283v-477h131z" />
    <glyph glyph-name="dcroat" unicode="&#x111;" horiz-adv-x="1232" 
d="M1165 1341v-127h-110v-1214h-160l-18 207q-90 -227 -338 -227q-205 0 -323 141.5t-118 398.5q0 256 115.5 407.5t323.5 151.5q183 0 309 -135v270h-324v127h324v181h209v-181h110zM846 401v340q-86 179 -254 179q-133 0 -210 -99.5t-77 -294.5q0 -196 76.5 -292.5
t202.5 -96.5q110 0 186 79.5t76 184.5z" />
    <glyph glyph-name="Emacron" unicode="&#x112;" horiz-adv-x="1292" 
d="M999 1880v-145h-630v145h630zM190 0v1481h951l-2 -183h-738v-460h662v-181h-662v-471l756 -2v-184h-967z" />
    <glyph glyph-name="emacron" unicode="&#x113;" horiz-adv-x="1165" 
d="M903 1458v-145h-631v145h631zM309 479q-2 -151 73 -245.5t216 -94.5q198 0 256 174h195q-24 -108 -91.5 -184.5t-158.5 -112.5t-197 -36q-227 0 -365.5 144.5t-138.5 393.5q0 253 131 407t359 154q223 0 345 -141.5t122 -384.5v-74h-746zM309 618h547q0 135 -69.5 220.5
t-200.5 85.5q-89 0 -154 -46t-94.5 -114t-28.5 -146z" />
    <glyph glyph-name="Ebreve" unicode="&#x114;" horiz-adv-x="1292" 
d="M1004 1903q-30 -98 -115 -164t-207 -66q-121 0 -204.5 63.5t-110.5 166.5h143q65 -109 172 -109q58 0 103.5 32.5t70.5 76.5h148zM190 0v1481h951l-2 -183h-738v-460h662v-181h-662v-471l756 -2v-184h-967z" />
    <glyph glyph-name="ebreve" unicode="&#x115;" horiz-adv-x="1165" 
d="M909 1481q-30 -98 -115 -164t-206 -66t-206 63.5t-112 166.5h146q65 -109 172 -109q56 0 101.5 32t72.5 77h147zM309 479q-2 -151 73 -245.5t216 -94.5q198 0 256 174h195q-24 -108 -91.5 -184.5t-158.5 -112.5t-197 -36q-227 0 -365.5 144.5t-138.5 393.5q0 253 131 407
t359 154q223 0 345 -141.5t122 -384.5v-74h-746zM309 618h547q0 135 -69.5 220.5t-200.5 85.5q-89 0 -154 -46t-94.5 -114t-28.5 -146z" />
    <glyph glyph-name="Edotaccent" unicode="&#x116;" horiz-adv-x="1292" 
d="M793 1903v-252h-220v252h220zM190 0v1481h951l-2 -183h-738v-460h662v-181h-662v-471l756 -2v-184h-967z" />
    <glyph glyph-name="edotaccent" unicode="&#x117;" horiz-adv-x="1165" 
d="M698 1481v-252h-219v252h219zM309 479q-2 -151 73 -245.5t216 -94.5q198 0 256 174h195q-24 -108 -91.5 -184.5t-158.5 -112.5t-197 -36q-227 0 -365.5 144.5t-138.5 393.5q0 253 131 407t359 154q223 0 345 -141.5t122 -384.5v-74h-746zM309 618h547q0 135 -69.5 220.5
t-200.5 85.5q-89 0 -154 -46t-94.5 -114t-28.5 -146z" />
    <glyph glyph-name="Eogonek" unicode="&#x118;" horiz-adv-x="1292" 
d="M1190 -205q24 13 24 -12v-66q0 -16 -14 -24q-72 -35 -182 -35q-99 0 -152 43t-53 119q0 58 35.5 101.5t124.5 78.5h-783v1481h951l-2 -183h-738v-460h662v-181h-662v-471l756 -2v-178h12l-12 -6h-2q-97 -41 -137.5 -77.5t-40.5 -82.5q0 -73 90 -73q65 0 123 28z" />
    <glyph glyph-name="eogonek" unicode="&#x119;" horiz-adv-x="1165" 
d="M1055 479h-746q-2 -151 73 -245.5t216 -94.5q198 0 256 174h195q-44 -199 -226 -286h8q-104 -41 -148 -79t-44 -85q0 -74 90 -74q63 0 123 29q25 11 25 -15v-65q0 -17 -15 -23q-68 -37 -182 -37q-99 0 -152 43.5t-53 120.5q0 86 80 140q-208 15 -332.5 158t-124.5 378
q0 253 131 407t359 154q223 0 345 -141.5t122 -384.5v-74zM586 924q-89 0 -154 -46t-94.5 -114t-28.5 -146h547q0 135 -69.5 220.5t-200.5 85.5z" />
    <glyph glyph-name="Ecaron" unicode="&#x11a;" horiz-adv-x="1292" 
d="M823 1903h191l-254 -244h-150l-260 244h178l154 -142zM190 0v1481h951l-2 -183h-738v-460h662v-181h-662v-471l756 -2v-184h-967z" />
    <glyph glyph-name="ecaron" unicode="&#x11b;" horiz-adv-x="1165" 
d="M729 1481h189l-254 -244h-150l-260 244h180l154 -142zM309 479q-2 -151 73 -245.5t216 -94.5q198 0 256 174h195q-24 -108 -91.5 -184.5t-158.5 -112.5t-197 -36q-227 0 -365.5 144.5t-138.5 393.5q0 253 131 407t359 154q223 0 345 -141.5t122 -384.5v-74h-746zM309 618
h547q0 135 -69.5 220.5t-200.5 85.5q-89 0 -154 -46t-94.5 -114t-28.5 -146z" />
    <glyph glyph-name="Gcircumflex" unicode="&#x11c;" horiz-adv-x="1527" 
d="M903 1669l-141 139l-154 -139h-178l260 242h150l254 -242h-191zM760 -20q-293 0 -464 203t-171 552q0 356 176 561t469 205q113 0 216 -38t177.5 -100.5t120.5 -146t51 -172.5l-225 -10q-22 123 -115.5 203t-228.5 80q-192 0 -303 -145.5t-111 -423.5
q0 -295 113.5 -437.5t308.5 -142.5q67 0 125 20.5t99 53.5t71.5 76t46 87t17.5 87l8 124h-350v152l567 -2v-766h-154v219q-152 -239 -444 -239z" />
    <glyph glyph-name="gcircumflex" unicode="&#x11d;" horiz-adv-x="1259" 
d="M750 1247l-142 139l-153 -139h-179l261 242h149l254 -242h-190zM600 -350q-259 0 -398 74t-139 200q0 43 18 79.5t46.5 61t54.5 41t53.5 29.5t30.5 15q-2 1 -13.5 7t-16 9t-16 10t-17.5 12t-15.5 13.5t-14.5 17t-10.5 19.5t-8 23t-2.5 26q0 54 49.5 95.5t142.5 61.5
q-199 99 -199 297q0 156 129 245t338 89q180 0 306 -90l278 115l-2 -187l-184 -34q32 -74 32 -138q0 -68 -28 -128t-82 -107.5t-141 -75t-197 -27.5l-72 3q-174 -5 -174 -66q0 -28 41.5 -38.5t157.5 -18.5q53 -4 229 -15q179 -10 266.5 -86t87.5 -202q0 -153 -138.5 -241.5
t-391.5 -88.5zM600 535q118 0 180 52.5t62 149.5q0 99 -63 156t-179 57t-181 -57.5t-65 -155.5q0 -97 64.5 -149.5t181.5 -52.5zM637 -221q150 0 219.5 41.5t69.5 126.5q0 132 -187 143l-286 19q-65 5 -124 -44t-59 -116q0 -170 367 -170z" />
    <glyph glyph-name="Gbreve" unicode="&#x11e;" horiz-adv-x="1527" 
d="M1083 1903q-30 -98 -115 -164t-206 -66t-205 63.5t-111 166.5h144q65 -109 172 -109q58 0 103.5 32.5t70.5 76.5h147zM760 -20q-293 0 -464 203t-171 552q0 356 176 561t469 205q113 0 216 -38t177.5 -100.5t120.5 -146t51 -172.5l-225 -10q-22 123 -115.5 203t-228.5 80
q-192 0 -303 -145.5t-111 -423.5q0 -295 113.5 -437.5t308.5 -142.5q67 0 125 20.5t99 53.5t71.5 76t46 87t17.5 87l8 124h-350v152l567 -2v-766h-154v219q-152 -239 -444 -239z" />
    <glyph glyph-name="gbreve" unicode="&#x11f;" horiz-adv-x="1259" 
d="M930 1481q-30 -98 -115 -164t-207 -66q-121 0 -204.5 63.5t-110.5 166.5h143q65 -109 172 -109q58 0 103.5 32.5t70.5 76.5h148zM600 -350q-259 0 -398 74t-139 200q0 43 18 79.5t46.5 61t54.5 41t53.5 29.5t30.5 15q-2 1 -13.5 7t-16 9t-16 10t-17.5 12t-15.5 13.5
t-14.5 17t-10.5 19.5t-8 23t-2.5 26q0 54 49.5 95.5t142.5 61.5q-199 99 -199 297q0 156 129 245t338 89q180 0 306 -90l278 115l-2 -187l-184 -34q32 -74 32 -138q0 -68 -28 -128t-82 -107.5t-141 -75t-197 -27.5l-72 3q-174 -5 -174 -66q0 -28 41.5 -38.5t157.5 -18.5
q53 -4 229 -15q179 -10 266.5 -86t87.5 -202q0 -153 -138.5 -241.5t-391.5 -88.5zM600 535q118 0 180 52.5t62 149.5q0 99 -63 156t-179 57t-181 -57.5t-65 -155.5q0 -97 64.5 -149.5t181.5 -52.5zM637 -221q150 0 219.5 41.5t69.5 126.5q0 132 -187 143l-286 19
q-65 5 -124 -44t-59 -116q0 -170 367 -170z" />
    <glyph glyph-name="Gdotaccent" unicode="&#x120;" horiz-adv-x="1527" 
d="M872 1903v-252h-219v252h219zM760 -20q-293 0 -464 203t-171 552q0 356 176 561t469 205q113 0 216 -38t177.5 -100.5t120.5 -146t51 -172.5l-225 -10q-22 123 -115.5 203t-228.5 80q-192 0 -303 -145.5t-111 -423.5q0 -295 113.5 -437.5t308.5 -142.5q67 0 125 20.5
t99 53.5t71.5 76t46 87t17.5 87l8 124h-350v152l567 -2v-766h-154v219q-152 -239 -444 -239z" />
    <glyph glyph-name="gdotaccent" unicode="&#x121;" horiz-adv-x="1259" 
d="M719 1481v-252h-219v252h219zM600 -350q-259 0 -398 74t-139 200q0 43 18 79.5t46.5 61t54.5 41t53.5 29.5t30.5 15q-2 1 -13.5 7t-16 9t-16 10t-17.5 12t-15.5 13.5t-14.5 17t-10.5 19.5t-8 23t-2.5 26q0 54 49.5 95.5t142.5 61.5q-199 99 -199 297q0 156 129 245
t338 89q180 0 306 -90l278 115l-2 -187l-184 -34q32 -74 32 -138q0 -68 -28 -128t-82 -107.5t-141 -75t-197 -27.5l-72 3q-174 -5 -174 -66q0 -28 41.5 -38.5t157.5 -18.5q53 -4 229 -15q179 -10 266.5 -86t87.5 -202q0 -153 -138.5 -241.5t-391.5 -88.5zM600 535
q118 0 180 52.5t62 149.5q0 99 -63 156t-179 57t-181 -57.5t-65 -155.5q0 -97 64.5 -149.5t181.5 -52.5zM637 -221q150 0 219.5 41.5t69.5 126.5q0 132 -187 143l-286 19q-65 5 -124 -44t-59 -116q0 -170 367 -170z" />
    <glyph glyph-name="uni0122" unicode="&#x122;" horiz-adv-x="1527" 
d="M760 -20q-293 0 -464 203t-171 552q0 356 176 561t469 205q113 0 216 -38t177.5 -100.5t120.5 -146t51 -172.5l-225 -10q-22 123 -115.5 203t-228.5 80q-192 0 -303 -145.5t-111 -423.5q0 -295 113.5 -437.5t308.5 -142.5q67 0 125 20.5t99 53.5t71.5 76t46 87t17.5 87
l8 124h-350v152l567 -2v-766h-154v219q-152 -239 -444 -239zM700 -479q-9 0 -13.5 8.5t-0.5 17.5l57 101q9 12 4.5 22.5t-16.5 10.5h-18q-27 0 -27 28v129q0 25 23 25h129q20 0 20 -21v-161q0 -3 -2 -10t-2 -9l-80 -123q-13 -18 -43 -18h-31z" />
    <glyph glyph-name="uni0123" unicode="&#x123;" horiz-adv-x="1259" 
d="M475 1235v192l98 150h93l-97 -160h80v-182h-174zM600 -350q-259 0 -398 74t-139 200q0 43 18 79.5t46.5 61t54.5 41t53.5 29.5t30.5 15q-2 1 -13.5 7t-16 9t-16 10t-17.5 12t-15.5 13.5t-14.5 17t-10.5 19.5t-8 23t-2.5 26q0 54 49.5 95.5t142.5 61.5q-199 99 -199 297
q0 156 129 245t338 89q180 0 306 -90l278 115l-2 -187l-184 -34q32 -74 32 -138q0 -68 -28 -128t-82 -107.5t-141 -75t-197 -27.5l-72 3q-174 -5 -174 -66q0 -28 41.5 -38.5t157.5 -18.5q53 -4 229 -15q179 -10 266.5 -86t87.5 -202q0 -153 -138.5 -241.5t-391.5 -88.5z
M600 535q118 0 180 52.5t62 149.5q0 99 -63 156t-179 57t-181 -57.5t-65 -155.5q0 -97 64.5 -149.5t181.5 -52.5zM637 -221q150 0 219.5 41.5t69.5 126.5q0 132 -187 143l-286 19q-65 5 -124 -44t-59 -116q0 -170 367 -170z" />
    <glyph glyph-name="Hcircumflex" unicode="&#x124;" horiz-adv-x="1462" 
d="M872 1669l-141 139l-153 -139h-179l260 242h150l254 -242h-191zM1069 674h-668v-674h-211v1481h211v-625h668v625h209v-1481h-209v674z" />
    <glyph glyph-name="hcircumflex" unicode="&#x125;" horiz-adv-x="1196" 
d="M154 0v1522h206v-611q42 71 124 115.5t202 44.5q156 0 262.5 -89t106.5 -228v-754h-209v717q0 86 -61.5 136t-161.5 50q-109 0 -185 -52t-76 -146v-705h-208zM897 1247l-141 139l-154 -139h-178l260 242h150l253 -242h-190z" />
    <glyph glyph-name="Hbar" unicode="&#x126;" horiz-adv-x="1517" 
d="M1470 1268q21 0 21 -25v-76q0 -17 -8 -23.5t-29 -6.5h-135v-1137h-211v674h-668v-674h-209v1137h-184q-17 0 -23 6.5t-6 21.5v74q0 29 21 29h192v213h209v-213h668v213h211v-213h151zM1108 856v281h-668v-281h668z" />
    <glyph glyph-name="hbar" unicode="&#x127;" horiz-adv-x="1232" 
d="M723 1071q156 0 262.5 -89t106.5 -228v-754h-209v717q0 86 -62.5 136t-163.5 50q-108 0 -183 -52t-75 -146v-705h-209v1214h-147v127h147v181h205v-181h293v-127h-293v-303q44 71 126 115.5t202 44.5z" />
    <glyph glyph-name="Itilde" unicode="&#x128;" horiz-adv-x="585" 
d="M600 1761q-63 -47 -160 -47q-58 0 -139.5 26.5t-126.5 26.5q-28 0 -52 -7t-35.5 -13.5t-37.5 -22.5q-23 -15 -31 11l-22 63q-7 20 8 33q39 32 74.5 48.5t85.5 16.5q54 0 143.5 -28.5t132.5 -28.5q61 0 123 41q25 15 33 -10l20 -76q8 -17 -16 -33zM190 1481h211v-1481
h-211v1481z" />
    <glyph glyph-name="itilde" unicode="&#x129;" horiz-adv-x="528" 
d="M565 1339q-63 -47 -159 -47q-58 0 -140 27t-127 27q-28 0 -52 -7t-35.5 -13.5t-37.5 -22.5q-12 -8 -19 -6t-11 16l-23 63q-7 20 8 33q40 33 75 49.5t85 16.5q54 0 144 -29t133 -29q60 0 122 41q25 15 33 -10l21 -76q8 -16 -17 -33zM371 1059v-1059h-209v1059h209z" />
    <glyph glyph-name="Imacron" unicode="&#x12a;" horiz-adv-x="585" 
d="M616 1880v-145h-630v145h630zM190 1481h211v-1481h-211v1481z" />
    <glyph glyph-name="imacron" unicode="&#x12b;" horiz-adv-x="528" 
d="M584 1458v-145h-631v145h631zM371 1059v-1059h-209v1059h209z" />
    <glyph glyph-name="Ibreve" unicode="&#x12c;" horiz-adv-x="585" 
d="M623 1903q-30 -98 -115 -164t-207 -66q-121 0 -204.5 63.5t-110.5 166.5h143q65 -109 172 -109q58 0 103.5 32.5t70.5 76.5h148zM190 1481h211v-1481h-211v1481z" />
    <glyph glyph-name="ibreve" unicode="&#x12d;" horiz-adv-x="528" 
d="M588 1481q-30 -98 -115 -164t-207 -66q-121 0 -204.5 63.5t-110.5 166.5h143q65 -109 172 -109q58 0 103.5 32.5t70.5 76.5h148zM371 1059v-1059h-209v1059h209z" />
    <glyph glyph-name="Iogonek" unicode="&#x12e;" horiz-adv-x="585" 
d="M416 -211q24 13 24 -12v-66q0 -16 -14 -24q-72 -35 -182 -35q-99 0 -152 43t-53 119q0 60 39 105.5t137 80.5h-25v1481h211v-1481h-6q-104 -43 -148 -81t-44 -85q0 -74 90 -74q63 0 123 29z" />
    <glyph glyph-name="iogonek" unicode="&#x12f;" horiz-adv-x="528" 
d="M379 1481v-252h-219v252h219zM381 -203q25 14 25 -12v-66q0 -15 -15 -24q-72 -35 -182 -35q-99 0 -152 43t-53 119q0 58 35 101.5t123 78.5v1057h209v-1059h-31q-93 -40 -132.5 -76t-39.5 -82q0 -73 90 -73q65 0 123 28z" />
    <glyph glyph-name="Idotaccent" unicode="&#x130;" horiz-adv-x="585" 
d="M412 1903v-252h-219v252h219zM190 1481h211v-1481h-211v1481z" />
    <glyph glyph-name="dotlessi" unicode="&#x131;" horiz-adv-x="528" 
d="M371 1059v-1059h-209v1059h209z" />
    <glyph glyph-name="IJ" unicode="&#x132;" horiz-adv-x="1386" 
d="M190 1481h211v-1481h-211v1481zM1208 360q0 -96 -15 -163t-51 -117.5t-100.5 -75t-160.5 -24.5q-124 0 -242 43l12 198q8 -3 32 -12.5t40 -15t44 -10.5t56 -5q98 0 136 54.5t38 187.5v1061h211v-1121z" />
    <glyph glyph-name="ij" unicode="&#x133;" horiz-adv-x="1079" 
d="M401 1522v-254h-221v254h221zM942 1522v-254h-221v254h221zM397 1059v-1059h-211v1059h211zM936 -37q0 -157 -69.5 -230t-233.5 -73q-50 0 -83.5 6t-41.5 12l-8 7v139l100 6q70 6 98.5 37t28.5 102v1090h209v-1096z" />
    <glyph glyph-name="Jcircumflex" unicode="&#x134;" horiz-adv-x="800" 
d="M618 1669l-141 139l-153 -139h-179l261 242h149l254 -242h-191zM623 360q0 -96 -15 -163t-51.5 -117.5t-101 -75t-160.5 -24.5q-124 0 -242 43l13 198q8 -3 32 -12.5t40 -15t44 -10.5t56 -5q98 0 136 54.5t38 187.5v1061h211v-1121z" />
    <glyph glyph-name="jcircumflex" unicode="&#x135;" horiz-adv-x="536" 
d="M403 1247l-141 139l-153 -139h-179l260 242h150l254 -242h-191zM371 -37q0 -157 -70.5 -230t-234.5 -73q-134 0 -134 25v139l101 6q69 6 98 37.5t29 101.5v1090h211v-1096z" />
    <glyph glyph-name="uni0136" unicode="&#x136;" horiz-adv-x="1413" 
d="M1346 0h-238l-451 750l-247 -291v-459h-220v1481h220v-750l641 750h247l-483 -576zM635 -479q-9 0 -13.5 8.5t-0.5 17.5l57 101q9 12 4.5 22.5t-16.5 10.5h-19q-15 0 -20.5 6.5t-5.5 21.5v129q0 25 22 25h129q21 0 21 -21v-161q0 -3 -2.5 -10t-2.5 -9l-79 -123
q-13 -18 -43 -18h-31z" />
    <glyph glyph-name="uni0137" unicode="&#x137;" horiz-adv-x="1165" 
d="M1102 0h-219l-322 518l-199 -205v-313h-208v1522h208v-985l488 522h227l-383 -408zM510 -479q-9 0 -13.5 8.5t-0.5 17.5l57 101q9 12 4.5 22.5t-16.5 10.5h-19q-15 0 -20.5 6.5t-5.5 21.5v129q0 25 22 25h129q21 0 21 -21v-161q0 -3 -2 -10t-2 -9l-80 -123
q-13 -18 -43 -18h-31z" />
    <glyph glyph-name="kgreenlandic" unicode="&#x138;" horiz-adv-x="1189" 
d="M1126 0h-243l-297 535l-224 -222v-313h-208v1059h208v-531l504 531h226l-363 -367z" />
    <glyph glyph-name="Lacute" unicode="&#x139;" horiz-adv-x="1159" 
d="M522 1923l51 -154l-522 -149l-33 102zM190 1481h216v-1295h690v-186h-906v1481z" />
    <glyph glyph-name="lacute" unicode="&#x13a;" horiz-adv-x="643" 
d="M492 2005l51 -154l-520 -149l-35 102zM438 -14q-88 0 -146 23t-86 67t-38 90t-10 110v1246h204v-1223q0 -151 119 -160l58 -2v-133q-59 -18 -101 -18z" />
    <glyph glyph-name="uni013B" unicode="&#x13b;" horiz-adv-x="1159" 
d="M190 1481h216v-1295h690v-186h-906v1481zM565 -479q-9 0 -13.5 8.5t-0.5 17.5l57 101q9 12 4.5 22.5t-16.5 10.5h-18q-27 0 -27 28v129q0 25 22 25h129q21 0 21 -21v-161q0 -3 -2 -10t-2 -9l-80 -123q-13 -18 -43 -18h-31z" />
    <glyph glyph-name="uni013C" unicode="&#x13c;" horiz-adv-x="643" 
d="M438 -14q-88 0 -146 23t-86 67t-38 90t-10 110v1246h204v-1223q0 -151 119 -160l58 -2v-133q-59 -18 -101 -18zM184 -479q-9 0 -13.5 8.5t-0.5 17.5l57 101q9 12 4.5 22.5t-16.5 10.5h-18q-27 0 -27 28v129q0 25 23 25h129q20 0 20 -21v-161q0 -11 -4 -19l-80 -123
q-13 -18 -43 -18h-31z" />
    <glyph glyph-name="Lcaron" unicode="&#x13d;" horiz-adv-x="1159" 
d="M190 1481h216v-1295h690v-186h-906v1481zM762 1075q-9 0 -13 6.5t-1 14.5l61 145q5 13 3 19.5t-13 9.5l-17 2q-12 2 -17 6t-5 16v166q0 21 16 21h131q17 0 17 -17v-192q0 -8 -4 -12l-70 -164q-5 -21 -41 -21h-47z" />
    <glyph glyph-name="lcaron" unicode="&#x13e;" horiz-adv-x="634" 
d="M438 -14q-88 0 -146 23t-86 67t-38 90t-10 110v1246h204v-1223q0 -151 119 -160l58 -2v-133q-59 -18 -101 -18zM487 1110q-9 0 -13 6t-1 14l62 146q5 13 3 19.5t-14 9.5l-16 2q-13 2 -18 6.5t-5 15.5v166q0 21 17 21h131q16 0 16 -17v-192q0 -9 -4 -13l-70 -164
q-3 -12 -11.5 -16t-28.5 -4h-48z" />
    <glyph glyph-name="Ldot" unicode="&#x13f;" horiz-adv-x="1208" 
d="M190 1481h216v-1295h690v-186h-906v1481zM1108 930v-240h-248v240h248z" />
    <glyph glyph-name="ldot" unicode="&#x140;" horiz-adv-x="749" 
d="M438 -14q-88 0 -146 23t-86 67t-38 90t-10 110v1246h204v-1223q0 -151 119 -160l58 -2v-133q-59 -18 -101 -18zM774 702v-237h-248v237h248z" />
    <glyph glyph-name="Lslash" unicode="&#x141;" horiz-adv-x="1179" 
d="M426 186h690v-186h-905v655l-139 -37q-29 -9 -29 19v127q0 22 23 29l145 38v650h215v-594l301 80q29 6 29 -21v-121q0 -22 -25 -28l-305 -82v-529z" />
    <glyph glyph-name="lslash" unicode="&#x142;" horiz-adv-x="606" 
d="M561 139l57 -2v-133q-63 -18 -100 -18q-88 0 -146 23t-86 67t-38 90t-10 110v209l-201 -159v188l201 158v850h204v-688l140 108v-180l-140 -111v-352q0 -151 119 -160z" />
    <glyph glyph-name="Nacute" unicode="&#x143;" horiz-adv-x="1552" 
d="M1022 1923l51 -154l-522 -149l-33 102zM1157 1481h209v-1481h-186l-779 1141v-1141h-211v1481h203l764 -1121v1121z" />
    <glyph glyph-name="nacute" unicode="&#x144;" horiz-adv-x="1196" 
d="M844 1501l51 -153l-522 -150l-33 102zM154 0v1059h204v-146q107 160 328 160q157 0 264 -100.5t107 -274.5v-698h-211v676q0 107 -61.5 167t-161.5 60q-109 0 -185 -51.5t-76 -144.5v-707h-208z" />
    <glyph glyph-name="uni0145" unicode="&#x145;" horiz-adv-x="1552" 
d="M1157 1481h209v-1481h-186l-779 1141v-1141h-211v1481h203l764 -1121v1121zM680 -479q-9 0 -13.5 8.5t-0.5 17.5l57 101q9 12 4.5 22.5t-16.5 10.5h-19q-15 0 -20.5 6.5t-5.5 21.5v129q0 25 22 25h129q21 0 21 -21v-161q0 -3 -2 -10t-2 -9l-80 -123q-13 -18 -43 -18h-31z
" />
    <glyph glyph-name="uni0146" unicode="&#x146;" horiz-adv-x="1196" 
d="M154 0v1059h204v-146q107 160 328 160q157 0 264 -100.5t107 -274.5v-698h-211v676q0 107 -61.5 167t-161.5 60q-109 0 -185 -51.5t-76 -144.5v-707h-208zM537 -479q-9 0 -14 8.5t-1 17.5l58 101q9 12 4 22.5t-17 10.5h-18q-27 0 -27 28v129q0 25 23 25h129q20 0 20 -21
v-161q0 -3 -2 -10t-2 -9l-80 -123q-13 -18 -43 -18h-30z" />
    <glyph glyph-name="Ncaron" unicode="&#x147;" horiz-adv-x="1552" 
d="M936 1903h190l-254 -244h-149l-260 244h178l154 -142zM1157 1481h209v-1481h-186l-779 1141v-1141h-211v1481h203l764 -1121v1121z" />
    <glyph glyph-name="ncaron" unicode="&#x148;" horiz-adv-x="1196" 
d="M758 1481h190l-254 -244h-149l-260 244h178l153 -142zM154 0v1059h204v-146q107 160 328 160q157 0 264 -100.5t107 -274.5v-698h-211v676q0 107 -61.5 167t-161.5 60q-109 0 -185 -51.5t-76 -144.5v-707h-208z" />
    <glyph glyph-name="napostrophe" unicode="&#x149;" horiz-adv-x="1341" 
d="M94 926q-9 0 -13 7t-1 15l61 230q8 25 -8 28l-16 2q-25 0 -25 23v229q0 21 19 21h131q16 0 16 -17v-256q0 -3 -1 -7.5t-1 -6.5l-72 -246q-8 -22 -39 -22h-51zM299 0v1059h203v-146q107 160 327 160q157 0 264 -100.5t107 -274.5v-698h-209v676q0 107 -61.5 167t-161.5 60
q-109 0 -184.5 -51.5t-75.5 -144.5v-707h-209z" />
    <glyph glyph-name="Eng" unicode="&#x14a;" horiz-adv-x="1533" 
d="M1327 1481q23 0 23 -25v-1472q0 -169 -82.5 -251.5t-257.5 -82.5q-96 0 -201 28q-34 9 -31 46l10 122q3 29 31 23q87 -21 131 -21q79 0 121 40.5t43 134.5v71l-702 979q-9 13 -14 12t-5 -14v-1042q3 -29 -31 -29h-139q-33 0 -33 29v1423q0 17 6.5 23t24.5 6h156
q18 0 26.5 -4t18.5 -17l698 -989q12 -14 21.5 -11t9.5 19v975q0 27 27 27h149z" />
    <glyph glyph-name="eng" unicode="&#x14b;" horiz-adv-x="1212" 
d="M756 -340q-121 0 -121 23v141l88 4q67 3 96 34.5t29 102.5v760q0 92 -48 143.5t-147 51.5q-140 0 -288 -154v-766h-211l2 1059h202v-162q109 97 196 139.5t183 42.5q147 0 233.5 -84t86.5 -223v-797q0 -150 -78.5 -232.5t-222.5 -82.5z" />
    <glyph glyph-name="Omacron" unicode="&#x14c;" horiz-adv-x="1546" 
d="M1092 1880v-145h-631v145h631zM774 -20q-303 0 -476 199t-173 556q0 361 174.5 563.5t476.5 202.5q299 0 472 -202t173 -562q0 -357 -173 -557t-474 -200zM776 160q202 0 309 141t107 434q0 297 -108 441.5t-308 144.5q-202 0 -312 -145.5t-110 -440.5q0 -292 110 -433.5
t312 -141.5z" />
    <glyph glyph-name="omacron" unicode="&#x14d;" 
d="M899 1458v-145h-631v145h631zM580 -20q-227 0 -357.5 149.5t-130.5 392.5q0 250 133 403.5t357 153.5q226 0 356.5 -153.5t130.5 -401.5q0 -243 -131 -393.5t-358 -150.5zM584 141q95 0 159 54t91.5 139t27.5 196q0 112 -28 197t-92.5 138t-159.5 53t-160 -53t-94 -138.5
t-29 -196.5t29 -196t94.5 -139t161.5 -54z" />
    <glyph glyph-name="Obreve" unicode="&#x14e;" horiz-adv-x="1546" 
d="M1096 1903q-30 -98 -115 -164t-207 -66q-121 0 -204.5 63.5t-110.5 166.5h143q65 -109 172 -109q58 0 103.5 32.5t70.5 76.5h148zM774 -20q-303 0 -476 199t-173 556q0 361 174.5 563.5t476.5 202.5q299 0 472 -202t173 -562q0 -357 -173 -557t-474 -200zM776 160
q202 0 309 141t107 434q0 297 -108 441.5t-308 144.5q-202 0 -312 -145.5t-110 -440.5q0 -292 110 -433.5t312 -141.5z" />
    <glyph glyph-name="obreve" unicode="&#x14f;" 
d="M905 1481q-30 -98 -115 -164t-206 -66t-205 63.5t-111 166.5h144q65 -109 172 -109q58 0 103.5 32.5t70.5 76.5h147zM580 -20q-227 0 -357.5 149.5t-130.5 392.5q0 250 133 403.5t357 153.5q226 0 356.5 -153.5t130.5 -401.5q0 -243 -131 -393.5t-358 -150.5zM584 141
q95 0 159 54t91.5 139t27.5 196q0 112 -28 197t-92.5 138t-159.5 53t-160 -53t-94 -138.5t-29 -196.5t29 -196t94.5 -139t161.5 -54z" />
    <glyph glyph-name="Ohungarumlaut" unicode="&#x150;" horiz-adv-x="1546" 
d="M766 1909l65 -80q22 -25 -6 -45l-262 -203q-26 -17 -41 0l-37 45q-17 18 -4 31l254 254q16 16 31 -2zM1110 1909l68 -80q20 -26 -7 -45l-264 -203q-26 -17 -41 0l-37 45q-9 8 -9 17t7 14l254 254q17 17 29 -2zM774 -20q-303 0 -476 199t-173 556q0 361 174.5 563.5
t476.5 202.5q299 0 472 -202t173 -562q0 -357 -173 -557t-474 -200zM776 160q202 0 309 141t107 434q0 297 -108 441.5t-308 144.5q-202 0 -312 -145.5t-110 -440.5q0 -292 110 -433.5t312 -141.5z" />
    <glyph glyph-name="ohungarumlaut" unicode="&#x151;" 
d="M575 1487l66 -80q22 -25 -6 -45l-262 -203q-26 -17 -41 0l-37 45q-17 18 -4 31l254 254q16 16 30 -2zM920 1487l67 -80q20 -27 -6 -45l-264 -203q-26 -17 -41 0l-37 45q-9 8 -9 17t7 14l254 254q17 17 29 -2zM580 -20q-227 0 -357.5 149.5t-130.5 392.5q0 250 133 403.5
t357 153.5q226 0 356.5 -153.5t130.5 -401.5q0 -243 -131 -393.5t-358 -150.5zM584 141q95 0 159 54t91.5 139t27.5 196q0 112 -28 197t-92.5 138t-159.5 53t-160 -53t-94 -138.5t-29 -196.5t29 -196t94.5 -139t161.5 -54z" />
    <glyph glyph-name="OE" unicode="&#x152;" horiz-adv-x="2299" 
d="M2167 180v-180h-926l-41 166q-136 -186 -416 -186q-310 0 -484.5 198.5t-174.5 556.5q0 362 177.5 564t492.5 202q276 0 405 -188l51 168h891l-2 -181h-729v-464h528v-179h-528v-477h756zM776 156q202 0 297.5 140.5t95.5 438.5q0 303 -97 447.5t-296 144.5
q-201 0 -301 -146t-100 -446q0 -297 99 -438t302 -141z" />
    <glyph glyph-name="oe" unicode="&#x153;" horiz-adv-x="2004" 
d="M604 -20q-230 0 -371 150t-141 392q0 248 143.5 402.5t370.5 154.5q126 0 226 -54t163 -151q20 -23 37 0q61 96 159.5 150.5t217.5 54.5q229 0 362.5 -157.5t133.5 -434.5h-787q0 -152 93 -253t227 -101q188 0 307 170l139 -67q-87 -136 -198 -196t-269 -60
q-124 0 -224.5 51t-166.5 143q-16 28 -35 -4q-66 -91 -164.5 -140.5t-222.5 -49.5zM1419 936q-129 0 -213.5 -88.5t-83.5 -231.5l578 -2q0 129 -78 225.5t-203 96.5zM608 129q141 0 220 105t79 294q0 190 -80.5 297t-220.5 107q-139 0 -220 -107.5t-81 -296.5
q0 -188 81.5 -293.5t221.5 -105.5z" />
    <glyph glyph-name="Racute" unicode="&#x154;" horiz-adv-x="1404" 
d="M907 1923l51 -154l-522 -149l-33 102zM1266 0h-219l-267 625h-379v-625h-211v1481h584q241 0 364.5 -108.5t123.5 -303.5q0 -291 -283 -407zM715 797q160 0 246 67t86 195q0 124 -77.5 189t-215.5 65h-353v-516h314z" />
    <glyph glyph-name="racute" unicode="&#x155;" horiz-adv-x="802" 
d="M668 1501l51 -153l-522 -150l-33 102zM154 0v1059h200v-232q52 108 158 180t225 72l2 -200q-82 5 -154 -16t-120 -58.5t-75.5 -85t-27.5 -96.5v-623h-208z" />
    <glyph glyph-name="uni0156" unicode="&#x156;" horiz-adv-x="1404" 
d="M1266 0h-219l-267 625h-379v-625h-211v1481h584q241 0 364.5 -108.5t123.5 -303.5q0 -291 -283 -407zM715 797q160 0 246 67t86 195q0 124 -77.5 189t-215.5 65h-353v-516h314zM629 -479q-9 0 -14 8.5t-1 17.5l58 101q9 12 4 22.5t-17 10.5h-18q-27 0 -27 28v129
q0 25 23 25h129q20 0 20 -21v-161q0 -3 -2 -10t-2 -9l-80 -123q-13 -18 -43 -18h-30z" />
    <glyph glyph-name="uni0157" unicode="&#x157;" horiz-adv-x="802" 
d="M154 0v1059h200v-232q52 108 158 180t225 72l2 -200q-82 5 -154 -16t-120 -58.5t-75.5 -85t-27.5 -96.5v-623h-208zM199 -479q-9 0 -14 8.5t-1 17.5l58 101q9 12 4 22.5t-17 10.5h-18q-27 0 -27 28v129q0 25 23 25h129q20 0 20 -21v-161q0 -3 -2 -10t-2 -9l-80 -123
q-13 -18 -43 -18h-30z" />
    <glyph glyph-name="Rcaron" unicode="&#x158;" horiz-adv-x="1404" 
d="M819 1903h191l-254 -244h-150l-260 244h178l154 -142zM1266 0h-219l-267 625h-379v-625h-211v1481h584q241 0 364.5 -108.5t123.5 -303.5q0 -291 -283 -407zM715 797q160 0 246 67t86 195q0 124 -77.5 189t-215.5 65h-353v-516h314z" />
    <glyph glyph-name="rcaron" unicode="&#x159;" horiz-adv-x="802" 
d="M582 1481h190l-254 -244h-149l-260 244h178l153 -142zM154 0v1059h200v-232q52 108 158 180t225 72l2 -200q-82 5 -154 -16t-120 -58.5t-75.5 -85t-27.5 -96.5v-623h-208z" />
    <glyph glyph-name="Sacute" unicode="&#x15a;" horiz-adv-x="1429" 
d="M938 1923l51 -154l-522 -149l-33 102zM721 -20q-110 0 -211 26t-183.5 75.5t-137.5 128.5t-68 177l219 10q27 -118 131 -181.5t248 -63.5q158 0 259 62.5t101 168.5q0 188 -262 244l-289 65q-359 75 -362 371q-1 193 153 314.5t394 121.5q126 0 230 -35t172.5 -94.5
t109.5 -135t51 -159.5l-213 -8q-21 134 -114.5 196t-235.5 62q-86 0 -158 -27t-118 -82.5t-46 -130.5q0 -79 55.5 -127t194.5 -81l281 -66q374 -79 374 -426q0 -174 -156.5 -289.5t-418.5 -115.5z" />
    <glyph glyph-name="sacute" unicode="&#x15b;" horiz-adv-x="1071" 
d="M750 1501l51 -153l-522 -150l-33 102zM547 -20q-112 0 -207 34.5t-163 110t-83 180.5h185q45 -174 270 -174q108 0 170.5 41.5t62.5 114.5q0 55 -39 87t-118 52l-209 51q-139 33 -213 100t-74 183q0 146 120 232.5t298 86.5q182 0 291.5 -90t109.5 -219h-182
q-12 77 -73 118.5t-150 41.5q-40 0 -77 -7.5t-71.5 -24.5t-55 -49t-20.5 -75q0 -54 42.5 -85t134.5 -52l204 -51q76 -20 131 -53.5t83 -74t40.5 -80t12.5 -81.5q0 -100 -58.5 -173t-152 -108.5t-209.5 -35.5z" />
    <glyph glyph-name="Scircumflex" unicode="&#x15c;" horiz-adv-x="1429" 
d="M850 1669l-141 139l-154 -139h-178l260 242h149l254 -242h-190zM721 -20q-110 0 -211 26t-183.5 75.5t-137.5 128.5t-68 177l219 10q27 -118 131 -181.5t248 -63.5q158 0 259 62.5t101 168.5q0 188 -262 244l-289 65q-359 75 -362 371q-1 193 153 314.5t394 121.5
q126 0 230 -35t172.5 -94.5t109.5 -135t51 -159.5l-213 -8q-21 134 -114.5 196t-235.5 62q-86 0 -158 -27t-118 -82.5t-46 -130.5q0 -79 55.5 -127t194.5 -81l281 -66q374 -79 374 -426q0 -174 -156.5 -289.5t-418.5 -115.5z" />
    <glyph glyph-name="scircumflex" unicode="&#x15d;" horiz-adv-x="1071" 
d="M662 1247l-142 139l-153 -139h-179l261 242h149l254 -242h-190zM547 -20q-112 0 -207 34.5t-163 110t-83 180.5h185q45 -174 270 -174q108 0 170.5 41.5t62.5 114.5q0 55 -39 87t-118 52l-209 51q-139 33 -213 100t-74 183q0 146 120 232.5t298 86.5q182 0 291.5 -90
t109.5 -219h-182q-12 77 -73 118.5t-150 41.5q-40 0 -77 -7.5t-71.5 -24.5t-55 -49t-20.5 -75q0 -54 42.5 -85t134.5 -52l204 -51q76 -20 131 -53.5t83 -74t40.5 -80t12.5 -81.5q0 -100 -58.5 -173t-152 -108.5t-209.5 -35.5z" />
    <glyph glyph-name="Scedilla" unicode="&#x15e;" horiz-adv-x="1429" 
d="M1296 385q0 -82 -38 -154t-107.5 -126.5t-173 -87.5t-229.5 -37l-35 -93q98 -4 143 -48t45 -103q0 -74 -65.5 -117t-161.5 -43q-122 0 -201 51l33 84q67 -49 143 -49q109 0 109 74q0 43 -39 65t-125 23q-20 0 -14 14l63 146q-133 12 -242.5 59t-186.5 136t-93 208l219 10
q27 -118 131 -181.5t248 -63.5q158 0 259 62.5t101 168.5q0 188 -262 244l-289 65q-359 75 -362 371q-1 193 153 314.5t394 121.5q126 0 230 -35t172.5 -94.5t109.5 -135t51 -159.5l-213 -8q-21 134 -114.5 196t-235.5 62q-86 0 -158 -27t-118 -82.5t-46 -130.5
q0 -79 55.5 -127t194.5 -81l281 -66q374 -79 374 -426z" />
    <glyph glyph-name="scedilla" unicode="&#x15f;" horiz-adv-x="1071" 
d="M967 297q0 -143 -111 -226t-281 -91l-34 -93q98 -4 143 -48t45 -103q0 -74 -65.5 -117t-161.5 -43q-122 0 -201 51l33 84q67 -49 143 -49q109 0 109 74q0 43 -39 65t-125 23q-20 0 -14 14l63 146q-149 18 -253.5 100t-123.5 221h185q45 -174 270 -174q108 0 170.5 41.5
t62.5 114.5q0 55 -39 87t-118 52l-209 51q-139 33 -213 100t-74 183q0 146 120 232.5t298 86.5q182 0 291.5 -90t109.5 -219h-182q-12 77 -73 118.5t-150 41.5q-40 0 -77 -7.5t-71.5 -24.5t-55 -49t-20.5 -75q0 -54 42.5 -85t134.5 -52l204 -51q76 -20 131 -53.5t83 -74
t40.5 -80t12.5 -81.5z" />
    <glyph glyph-name="Scaron" unicode="&#x160;" horiz-adv-x="1429" 
d="M850 1903h190l-254 -244h-149l-260 244h178l154 -142zM721 -20q-110 0 -211 26t-183.5 75.5t-137.5 128.5t-68 177l219 10q27 -118 131 -181.5t248 -63.5q158 0 259 62.5t101 168.5q0 188 -262 244l-289 65q-359 75 -362 371q-1 193 153 314.5t394 121.5q126 0 230 -35
t172.5 -94.5t109.5 -135t51 -159.5l-213 -8q-21 134 -114.5 196t-235.5 62q-86 0 -158 -27t-118 -82.5t-46 -130.5q0 -79 55.5 -127t194.5 -81l281 -66q374 -79 374 -426q0 -174 -156.5 -289.5t-418.5 -115.5z" />
    <glyph glyph-name="scaron" unicode="&#x161;" horiz-adv-x="1071" 
d="M662 1481h190l-254 -244h-149l-261 244h179l153 -142zM547 -20q-112 0 -207 34.5t-163 110t-83 180.5h185q45 -174 270 -174q108 0 170.5 41.5t62.5 114.5q0 55 -39 87t-118 52l-209 51q-139 33 -213 100t-74 183q0 146 120 232.5t298 86.5q182 0 291.5 -90t109.5 -219
h-182q-12 77 -73 118.5t-150 41.5q-40 0 -77 -7.5t-71.5 -24.5t-55 -49t-20.5 -75q0 -54 42.5 -85t134.5 -52l204 -51q76 -20 131 -53.5t83 -74t40.5 -80t12.5 -81.5q0 -100 -58.5 -173t-152 -108.5t-209.5 -35.5z" />
    <glyph glyph-name="uni0162" unicode="&#x162;" horiz-adv-x="1200" 
d="M717 0h-43l-43 -113q98 -4 143 -48t45 -103q0 -74 -65.5 -117t-161.5 -43q-122 0 -201 51l33 84q67 -49 143 -49q109 0 109 74q0 43 -39 65t-125 23q-20 0 -14 14l71 162h-63v1290h-471v191h1130v-191h-448v-1290z" />
    <glyph glyph-name="uni0163" unicode="&#x163;" horiz-adv-x="829" 
d="M553 -113q98 -4 143 -48t45 -103q0 -74 -65.5 -117t-161.5 -43q-122 0 -201 51l33 84q67 -49 143 -49q109 0 109 74q0 43 -39 65t-125 23q-20 0 -14 14l69 160q-125 13 -174 77t-49 185v647h-172v152h178l25 311h178v-311h240v-152h-240v-635q0 -75 25 -102t75 -27h148
v-131q-48 -15 -129 -18z" />
    <glyph glyph-name="Tcaron" unicode="&#x164;" horiz-adv-x="1200" 
d="M760 1903h190l-254 -244h-149l-260 244h178l153 -142zM35 1290v191h1130v-191h-448v-1290h-211v1290h-471z" />
    <glyph glyph-name="tcaron" unicode="&#x165;" horiz-adv-x="829" 
d="M659 1151q-9 0 -13 6t-1 14l62 146q5 13 3 19.5t-14 9.5l-16 2q-13 2 -18 6.5t-5 15.5v166q0 20 17 20h131q16 0 16 -16v-192q0 -9 -4 -13l-69 -164q-3 -12 -11.5 -16t-29.5 -4h-48zM715 907h-240v-635q0 -75 25 -102t75 -27h148v-131q-52 -18 -162 -18q-85 0 -143 17
t-91 52.5t-47 82.5t-14 114v647h-172v152h178l25 311h178v-311h240v-152z" />
    <glyph glyph-name="Tbar" unicode="&#x166;" horiz-adv-x="1200" 
d="M1165 1290h-448v-471h319v-164h-319v-655h-211v655h-258v164h258v471h-471v191h1130v-191z" />
    <glyph glyph-name="tbar" unicode="&#x167;" horiz-adv-x="823" 
d="M608 143h148v-131q-49 -18 -162 -18q-164 0 -228.5 65.5t-64.5 200.5v260h-203v127h203v260h-172v152h178l23 311h180v-311h238v-152h-238v-260h160v-127h-160v-248q0 -75 24 -102t74 -27z" />
    <glyph glyph-name="Utilde" unicode="&#x168;" horiz-adv-x="1472" 
d="M1028 1761q-63 -47 -160 -47q-58 0 -139.5 26.5t-126.5 26.5q-28 0 -52 -7t-35.5 -13.5t-37.5 -22.5q-23 -15 -31 11l-22 63q-7 20 8 33q39 32 74.5 48.5t85.5 16.5q54 0 143.5 -28.5t132.5 -28.5q61 0 123 41q25 15 33 -10l20 -76q8 -17 -16 -33zM1292 520
q0 -264 -133.5 -402t-417.5 -138q-287 0 -419 141.5t-132 417.5v942h218v-969q0 -175 85.5 -262.5t247.5 -87.5q164 0 252 87t88 263v969h211v-961z" />
    <glyph glyph-name="utilde" unicode="&#x169;" horiz-adv-x="1196" 
d="M887 1339q-63 -47 -160 -47q-58 0 -139.5 27t-126.5 27q-28 0 -52 -7t-35.5 -13.5t-37.5 -22.5q-24 -15 -31 10l-22 63q-7 20 8 33q40 33 75 49.5t85 16.5q54 0 143.5 -29t132.5 -29q61 0 123 41q25 15 33 -10l20 -76q8 -17 -16 -33zM549 -18q-54 0 -108 12.5t-106 40
t-92 68t-64.5 101.5t-24.5 134v723h208v-701q0 -58 21 -102t56.5 -68.5t76 -36.5t84.5 -12q103 0 173.5 60.5t70.5 169.5v690h213l-4 -1059h-164l-19 215q-13 -66 -46 -114t-78.5 -73.5t-94 -37t-102.5 -10.5z" />
    <glyph glyph-name="Umacron" unicode="&#x16a;" horiz-adv-x="1472" 
d="M1047 1880v-145h-631v145h631zM1292 520q0 -264 -133.5 -402t-417.5 -138q-287 0 -419 141.5t-132 417.5v942h218v-969q0 -175 85.5 -262.5t247.5 -87.5q164 0 252 87t88 263v969h211v-961z" />
    <glyph glyph-name="umacron" unicode="&#x16b;" horiz-adv-x="1196" 
d="M905 1458v-145h-631v145h631zM549 -18q-54 0 -108 12.5t-106 40t-92 68t-64.5 101.5t-24.5 134v723h208v-701q0 -58 21 -102t56.5 -68.5t76 -36.5t84.5 -12q103 0 173.5 60.5t70.5 169.5v690h213l-4 -1059h-164l-19 215q-13 -66 -46 -114t-78.5 -73.5t-94 -37
t-102.5 -10.5z" />
    <glyph glyph-name="Ubreve" unicode="&#x16c;" horiz-adv-x="1472" 
d="M1051 1903q-30 -98 -115 -164t-207 -66q-121 0 -204.5 63.5t-110.5 166.5h143q65 -109 172 -109q58 0 103.5 32.5t70.5 76.5h148zM1292 520q0 -264 -133.5 -402t-417.5 -138q-287 0 -419 141.5t-132 417.5v942h218v-969q0 -175 85.5 -262.5t247.5 -87.5q164 0 252 87
t88 263v969h211v-961z" />
    <glyph glyph-name="ubreve" unicode="&#x16d;" horiz-adv-x="1196" 
d="M909 1481q-30 -98 -115 -164t-206 -66t-205 63.5t-111 166.5h144q65 -109 172 -109q58 0 103.5 32.5t70.5 76.5h147zM549 -18q-54 0 -108 12.5t-106 40t-92 68t-64.5 101.5t-24.5 134v723h208v-701q0 -58 21 -102t56.5 -68.5t76 -36.5t84.5 -12q103 0 173.5 60.5
t70.5 169.5v690h213l-4 -1059h-164l-19 215q-13 -66 -46 -114t-78.5 -73.5t-94 -37t-102.5 -10.5z" />
    <glyph glyph-name="Uring" unicode="&#x16e;" horiz-adv-x="1472" 
d="M944 1810q0 -89 -62 -150t-151 -61t-151 62.5t-62 153.5q0 86 62.5 146t150.5 60q89 0 151 -61t62 -150zM836 1810q0 47 -31 78t-76 31t-78 -31.5t-33 -77.5q0 -43 33.5 -76.5t77.5 -33.5t75.5 33.5t31.5 76.5zM1292 520q0 -264 -133.5 -402t-417.5 -138
q-287 0 -419 141.5t-132 417.5v942h218v-969q0 -175 85.5 -262.5t247.5 -87.5q164 0 252 87t88 263v969h211v-961z" />
    <glyph glyph-name="uring" unicode="&#x16f;" horiz-adv-x="1196" 
d="M803 1389q0 -89 -62 -150t-151 -61t-151 62t-62 153q0 86 62.5 146t150.5 60q90 0 151.5 -60.5t61.5 -149.5zM694 1389q0 47 -30.5 77.5t-75.5 30.5t-78 -31t-33 -77q0 -43 33.5 -77t77.5 -34q43 0 74.5 33.5t31.5 77.5zM549 -18q-54 0 -108 12.5t-106 40t-92 68
t-64.5 101.5t-24.5 134v723h208v-701q0 -58 21 -102t56.5 -68.5t76 -36.5t84.5 -12q103 0 173.5 60.5t70.5 169.5v690h213l-4 -1059h-164l-19 215q-13 -66 -46 -114t-78.5 -73.5t-94 -37t-102.5 -10.5z" />
    <glyph glyph-name="Uhungarumlaut" unicode="&#x170;" horiz-adv-x="1472" 
d="M721 1909l65 -80q22 -25 -6 -45l-262 -203q-26 -17 -41 0l-37 45q-18 18 -4 31l254 254q16 16 31 -2zM1065 1909l68 -80q20 -26 -7 -45l-264 -203q-26 -17 -41 0l-37 45q-8 8 -8 17t6 14l254 254q17 17 29 -2zM1292 520q0 -264 -133.5 -402t-417.5 -138
q-287 0 -419 141.5t-132 417.5v942h218v-969q0 -175 85.5 -262.5t247.5 -87.5q164 0 252 87t88 263v969h211v-961z" />
    <glyph glyph-name="uhungarumlaut" unicode="&#x171;" horiz-adv-x="1196" 
d="M580 1487l65 -80q22 -25 -6 -45l-262 -203q-26 -17 -41 0l-37 45q-17 18 -4 31l254 254q16 16 31 -2zM924 1487l67 -80q20 -27 -6 -45l-264 -203q-26 -17 -41 0l-37 45q-9 8 -9 17t7 14l254 254q17 17 29 -2zM549 -18q-54 0 -108 12.5t-106 40t-92 68t-64.5 101.5
t-24.5 134v723h208v-701q0 -58 21 -102t56.5 -68.5t76 -36.5t84.5 -12q103 0 173.5 60.5t70.5 169.5v690h213l-4 -1059h-164l-19 215q-13 -66 -46 -114t-78.5 -73.5t-94 -37t-102.5 -10.5z" />
    <glyph glyph-name="Uogonek" unicode="&#x172;" horiz-adv-x="1472" 
d="M1081 1481h211v-961q0 -471 -418 -532q-81 -37 -116 -71t-35 -77q0 -73 90 -73q65 0 123 28q25 14 25 -12v-66q0 -15 -15 -24q-72 -35 -182 -35q-99 0 -152 43t-53 119q0 104 117 162q-253 15 -369.5 155.5t-116.5 401.5v942h218v-969q0 -175 85.5 -262.5t247.5 -87.5
q164 0 252 87t88 263v969z" />
    <glyph glyph-name="uogonek" unicode="&#x173;" horiz-adv-x="1196" 
d="M1063 -205q24 13 24 -12v-66q0 -16 -14 -24q-72 -35 -182 -35q-99 0 -152 43t-53 119q0 64 44.5 111t156.5 83l-17 203q-13 -66 -46 -114t-78.5 -73.5t-94 -37t-102.5 -10.5q-54 0 -108 12.5t-106 40t-92 68t-64.5 101.5t-24.5 134v723h208v-701q0 -58 21 -102
t56.5 -68.5t76 -36.5t84.5 -12q103 0 173.5 60.5t70.5 169.5v690h213l-4 -1059h-21q-98 -41 -140 -78.5t-42 -83.5q0 -73 90 -73q65 0 123 28z" />
    <glyph glyph-name="Wcircumflex" unicode="&#x174;" horiz-adv-x="1968" 
d="M1130 1669l-141 139l-153 -139h-179l261 242h149l254 -242h-191zM1919 1481l-434 -1481h-187l-315 1114l-321 -1114h-183l-428 1481h209l320 -1143l323 1143h160l323 -1143l324 1143h209z" />
    <glyph glyph-name="wcircumflex" unicode="&#x175;" horiz-adv-x="1628" 
d="M963 1247l-142 139l-153 -139h-179l261 242h149l254 -242h-190zM1565 1059l-326 -1059h-195l-233 756l-223 -756h-195l-330 1059h193l233 -785h15l231 785h158l237 -785h15l227 785h193z" />
    <glyph glyph-name="Ycircumflex" unicode="&#x176;" horiz-adv-x="1257" 
d="M784 1669l-141 139l-154 -139h-178l260 242h150l254 -242h-191zM1239 1481l-504 -852v-629h-211v631l-506 850h230l383 -666l379 666h229z" />
    <glyph glyph-name="ycircumflex" unicode="&#x177;" horiz-adv-x="1114" 
d="M719 1247l-141 139l-154 -139h-178l260 242h149l254 -242h-190zM272 -338q-57 0 -99.5 7t-56.5 15l-14 7v135l109 -4q57 -2 98.5 7.5t64.5 30t33.5 37t20.5 40.5l33 92l-412 1030h209l303 -795l301 795h203l-442 -1125q-61 -153 -145.5 -212.5t-205.5 -59.5z" />
    <glyph glyph-name="Ydieresis" unicode="&#x178;" horiz-adv-x="1257" 
d="M580 1903v-232h-197v232h197zM905 1903v-232h-196v232h196zM1239 1481l-504 -852v-629h-211v631l-506 850h230l383 -666l379 666h229z" />
    <glyph glyph-name="Zacute" unicode="&#x179;" horiz-adv-x="1306" 
d="M911 1923l52 -154l-523 -149l-32 102zM109 0v113l800 1187h-764v181h1059v-107l-809 -1192h803v-182h-1089z" />
    <glyph glyph-name="zacute" unicode="&#x17a;" horiz-adv-x="1030" 
d="M770 1501l51 -153l-522 -150l-33 102zM84 0v123l598 795h-553v141h807v-123l-596 -795h606v-141h-862z" />
    <glyph glyph-name="Zdotaccent" unicode="&#x17b;" horiz-adv-x="1306" 
d="M793 1903v-252h-220v252h220zM109 0v113l800 1187h-764v181h1059v-107l-809 -1192h803v-182h-1089z" />
    <glyph glyph-name="zdotaccent" unicode="&#x17c;" horiz-adv-x="1030" 
d="M651 1481v-252h-219v252h219zM84 0v123l598 795h-553v141h807v-123l-596 -795h606v-141h-862z" />
    <glyph glyph-name="Zcaron" unicode="&#x17d;" horiz-adv-x="1306" 
d="M823 1903h191l-254 -244h-150l-260 244h178l154 -142zM109 0v113l800 1187h-764v181h1059v-107l-809 -1192h803v-182h-1089z" />
    <glyph glyph-name="zcaron" unicode="&#x17e;" horiz-adv-x="1030" 
d="M682 1481h190l-254 -244h-149l-260 244h178l154 -142zM84 0v123l598 795h-553v141h807v-123l-596 -795h606v-141h-862z" />
    <glyph glyph-name="uni018F" unicode="&#x18f;" horiz-adv-x="1544" 
d="M1163 819q0 45 -3.5 87t-14.5 92t-28.5 93t-47.5 84t-69.5 70t-97.5 46.5t-128 17.5q-71 0 -130 -19t-95.5 -45.5t-68.5 -68t-47 -72t-34.5 -73.5t-27.5 -58q-8 -10 -33 0l-156 69q-18 8 -6 37q16 33 26 52.5t32.5 58t41 63t49.5 60.5t61.5 59.5t73.5 50t88 42t103 26
t121 10.5q138 0 249.5 -43.5t184.5 -115.5t122 -171t70 -205.5t21 -222.5q0 -121 -26 -233t-79.5 -208.5t-129.5 -168t-182.5 -112.5t-231.5 -41q-137 0 -246 39t-183 108t-123 167t-71 212.5t-22 249.5q0 15 1 21.5t7.5 12t20.5 5.5h987q22 0 22 24zM1161 631l-749 2
q-27 0 -27 -23q0 -69 12 -131.5t40 -122t71 -103t109.5 -69.5t150.5 -26q86 0 153.5 25.5t110 68.5t71 105t41.5 128t17 146z" />
    <glyph glyph-name="florin" unicode="&#x192;" horiz-adv-x="964" 
d="M819 1059l-26 -152h-252l-170 -981q-24 -128 -103.5 -198t-208.5 -70h-184l21 145l118 2q70 2 103.5 35.5t48.5 120.5l166 946h-172l26 152h172l29 162q22 125 102 192.5t205 67.5h207l-22 -146h-148q-52 0 -92 -39.5t-51 -101.5l-25 -135h256z" />
    <glyph glyph-name="uni01C4" unicode="&#x1c4;" horiz-adv-x="2746" 
d="M2263 1903h188l-253 -244h-150l-260 244h180l154 -142zM190 1481q238 0 363 -2q399 -6 584.5 -189.5t185.5 -539.5q0 -369 -195 -559.5t-591 -190.5h-347v1481zM1548 0v113l801 1187h-764v181h1059v-107l-809 -1192h803v-182h-1090zM406 1305v-1127h131q133 0 235 31
t177.5 97t115 177t39.5 265q0 153 -37.5 261.5t-111.5 173t-174.5 93.5t-235.5 29h-139z" />
    <glyph glyph-name="uni01C5" unicode="&#x1c5;" horiz-adv-x="2467" 
d="M190 1481q238 0 363 -2q399 -6 584.5 -189.5t185.5 -539.5q0 -369 -195 -559.5t-591 -190.5h-347v1481zM2122 1481h188l-254 -244h-149l-258 244h178l153 -142zM406 1305v-1127h131q133 0 235 31t177.5 97t115 177t39.5 265q0 153 -37.5 261.5t-111.5 173t-174.5 93.5
t-235.5 29h-139zM1524 0v123l598 795h-553v141h807v-123l-596 -795h606v-141h-862z" />
    <glyph glyph-name="uni01C6" unicode="&#x1c6;" horiz-adv-x="2226" 
d="M539 -20q-205 0 -323 141.5t-118 398.5q0 256 115.5 407.5t323.5 151.5q183 0 309 -135v578h209v-1522h-160l-18 207q-90 -227 -338 -227zM1878 1481h188l-254 -244h-149l-258 244h178l154 -142zM1280 0v123l598 795h-553v141h807v-123l-596 -795h606v-141h-862zM584 137
q110 0 186 79.5t76 184.5v340q-86 179 -254 179q-133 0 -210 -99.5t-77 -294.5q0 -196 76.5 -292.5t202.5 -96.5z" />
    <glyph glyph-name="uni01C7" unicode="&#x1c7;" horiz-adv-x="2029" 
d="M190 1481h216v-1295h690v-186h-906v1481zM1851 360q0 -96 -15 -163t-51 -117.5t-100.5 -75t-160.5 -24.5q-124 0 -242 43l12 198q8 -3 32 -12.5t40 -15t44 -10.5t56 -5q98 0 136 54.5t38 187.5v1061h211v-1121z" />
    <glyph glyph-name="uni01C8" unicode="&#x1c8;" horiz-adv-x="1716" 
d="M1561 1522v-254h-224v254h224zM190 1481h216v-1295h690v-186h-906v1481zM1554 -37q0 -157 -70.5 -230t-234.5 -73q-50 0 -83 6t-40 12l-8 7l-2 139l101 6q70 6 98 37t28 102v1090h211v-1096z" />
    <glyph glyph-name="uni01C9" unicode="&#x1c9;" horiz-adv-x="1181" 
d="M459 -14q-71 0 -123 16.5t-82 42t-48 65t-24 78t-6 88.5v1246h207v-1223q0 -151 119 -160l57 -2v-133q-63 -18 -100 -18zM1044 1522v-254h-221v254h221zM1038 -37q0 -157 -69.5 -230t-233.5 -73q-51 0 -84.5 6t-40.5 12l-8 7v139l100 6q70 6 98.5 37t28.5 102v1090h209
v-1096z" />
    <glyph glyph-name="uni01CA" unicode="&#x1ca;" horiz-adv-x="2363" 
d="M1157 1481h209v-1481h-186l-779 1141v-1141h-211v1481h203l764 -1121v1121zM2173 360q0 -96 -14.5 -163t-50.5 -117.5t-100.5 -75t-160.5 -24.5q-118 0 -243 43l12 198q8 -3 32 -12.5t40 -15t44 -10.5t56 -5q100 0 138 54.5t38 187.5v1061h209v-1121z" />
    <glyph glyph-name="uni01CB" unicode="&#x1cb;" horiz-adv-x="2109" 
d="M1954 1522v-254h-223v254h223zM1157 1481h209v-1481h-186l-779 1141v-1141h-211v1481h203l764 -1121v1121zM1948 -37q0 -157 -71 -230t-235 -73q-50 0 -83 6t-41 12l-7 7l-2 139l101 6q70 6 98.5 37t28.5 102v1090h211v-1096z" />
    <glyph glyph-name="uni01CC" unicode="&#x1cc;" horiz-adv-x="1728" 
d="M1591 1522v-254h-221v254h221zM174 0v1059h203v-146q111 160 328 160q157 0 263.5 -100.5t106.5 -274.5v-698h-209v676q0 107 -61.5 167t-161.5 60q-109 0 -184.5 -51.5t-75.5 -144.5v-707h-209zM1585 -37q0 -157 -69.5 -230t-233.5 -73q-51 0 -84.5 6t-41.5 12l-7 7v139
l100 6q70 6 98.5 37t28.5 102v1090h209v-1096z" />
    <glyph glyph-name="uni01EA" unicode="&#x1ea;" horiz-adv-x="1546" 
d="M944 -2q-96 -39 -137 -76.5t-41 -83.5q0 -74 90 -74q63 0 123 29q25 14 25 -12v-66q0 -15 -15 -24q-72 -35 -182 -35q-99 0 -152 43t-53 119q0 106 121 164q-281 17 -439.5 214t-158.5 539q0 361 174.5 563.5t476.5 202.5q299 0 472 -202t173 -562q0 -303 -125.5 -494.5
t-351.5 -244.5zM354 735q0 -292 110 -433.5t312 -141.5t309 141t107 434q0 297 -108 441.5t-308 144.5q-202 0 -312 -145.5t-110 -440.5z" />
    <glyph glyph-name="uni01EB" unicode="&#x1eb;" 
d="M725 -2q-94 -40 -134 -76t-40 -82q0 -73 90 -73q65 0 123 28q24 13 24 -12v-66q0 -16 -14 -24q-72 -35 -182 -35q-99 0 -152 43t-53 119q0 106 121 164q-195 25 -305.5 170t-110.5 368q0 250 133 403.5t357 153.5q226 0 356.5 -153.5t130.5 -401.5q0 -201 -90.5 -341
t-253.5 -185zM299 530q0 -111 29 -196t94.5 -139t161.5 -54q95 0 159 54t91.5 139t27.5 196q0 112 -28 197t-92.5 138t-159.5 53t-160 -53t-94 -138.5t-29 -196.5z" />
    <glyph glyph-name="uni01F1" unicode="&#x1f1;" horiz-adv-x="2746" 
d="M190 1481q238 0 363 -2q399 -6 584.5 -189.5t185.5 -539.5q0 -369 -195 -559.5t-591 -190.5h-347v1481zM1548 0v113l801 1187h-764v181h1059v-107l-809 -1192h803v-182h-1090zM406 1305v-1127h131q133 0 235 31t177.5 97t115 177t39.5 265q0 153 -37.5 261.5t-111.5 173
t-174.5 93.5t-235.5 29h-139z" />
    <glyph glyph-name="uni01F2" unicode="&#x1f2;" horiz-adv-x="2467" 
d="M190 1481q238 0 363 -2q399 -6 584.5 -189.5t185.5 -539.5q0 -369 -195 -559.5t-591 -190.5h-347v1481zM406 1305v-1127h131q133 0 235 31t177.5 97t115 177t39.5 265q0 153 -37.5 261.5t-111.5 173t-174.5 93.5t-235.5 29h-139zM1524 0v123l598 795h-553v141h807v-123
l-596 -795h606v-141h-862z" />
    <glyph glyph-name="uni01F3" unicode="&#x1f3;" horiz-adv-x="2226" 
d="M539 -20q-205 0 -323 141.5t-118 398.5q0 256 115.5 407.5t323.5 151.5q183 0 309 -135v578h209v-1522h-160l-18 207q-90 -227 -338 -227zM1280 0v123l598 795h-553v141h807v-123l-596 -795h606v-141h-862zM584 137q110 0 186 79.5t76 184.5v340q-86 179 -254 179
q-133 0 -210 -99.5t-77 -294.5q0 -196 76.5 -292.5t202.5 -96.5z" />
    <glyph glyph-name="uni01F4" unicode="&#x1f4;" horiz-adv-x="1527" 
d="M989 1923l51 -154l-522 -149l-33 102zM760 -20q-293 0 -464 203t-171 552q0 356 176 561t469 205q113 0 216 -38t177.5 -100.5t120.5 -146t51 -172.5l-225 -10q-22 123 -115.5 203t-228.5 80q-192 0 -303 -145.5t-111 -423.5q0 -295 113.5 -437.5t308.5 -142.5
q67 0 125 20.5t99 53.5t71.5 76t46 87t17.5 87l8 124h-350v152l567 -2v-766h-154v219q-152 -239 -444 -239z" />
    <glyph glyph-name="uni01F5" unicode="&#x1f5;" horiz-adv-x="1290" 
d="M856 1501l51 -153l-520 -150l-35 102zM621 -350q-259 0 -398 74t-139 200q0 43 18 79.5t46.5 61t54.5 41t52 29t30 15.5q-1 1 -16.5 9t-21.5 12.5t-20.5 14t-21.5 18.5t-16 22t-13 28.5t-4 32.5q0 54 50 95.5t143 61.5q-201 100 -201 297q0 155 129.5 244.5t339.5 89.5
q100 0 170.5 -22.5t134.5 -67.5q12 5 126 52t150 63v-187l-184 -34q33 -76 33 -138q0 -143 -116.5 -240.5t-332.5 -97.5l-71 3q-174 -5 -174 -66q0 -28 41.5 -38.5t156.5 -18.5q39 -3 230 -15q177 -10 264.5 -86t87.5 -202q0 -153 -137.5 -241.5t-390.5 -88.5zM621 535
q118 0 179.5 52.5t61.5 149.5q0 100 -62.5 156.5t-178.5 56.5t-181 -57.5t-65 -155.5q0 -97 64.5 -149.5t181.5 -52.5zM657 -221q150 0 219.5 41.5t69.5 126.5q0 132 -186 143l-287 19q-65 5 -123.5 -44t-58.5 -116q0 -170 366 -170z" />
    <glyph glyph-name="Aringacute" unicode="&#x1fa;" horiz-adv-x="1433" 
d="M860 1452l498 -1450h-248l-137 399h-559l-138 -399h-208l501 1446q-63 60 -63 154q0 71 46.5 124.5t119.5 67.5l30 131h148l-59 -141q59 -22 95 -72t36 -115q0 -89 -62 -145zM711 1704q-43 0 -76 -32t-33 -77q0 -43 33 -76.5t76 -33.5q45 0 76.5 33t31.5 77
q0 46 -31 77.5t-77 31.5zM463 586h461l-230 669z" />
    <glyph glyph-name="aringacute" unicode="&#x1fb;" 
d="M340 1198l-33 102l74 29q-8 40 -8 64q0 86 62.5 146t150.5 60q62 0 111.5 -30t76.5 -82l37 14l51 -153l-71 -21q-20 -66 -76.5 -107.5t-128.5 -41.5q-83 0 -140 51zM473 1389q0 -15 2 -21l199 78q-28 51 -90 51q-45 0 -78 -31t-33 -77zM584 1079q208 0 315 -90.5
t107 -249.5v-739h-179l-16 190q-58 -116 -146.5 -163t-211.5 -47q-157 0 -254 82.5t-97 226.5q0 178 124.5 264t398.5 92l178 4v80q0 94 -62.5 147.5t-167.5 51.5q-91 0 -158.5 -43.5t-86.5 -126.5h-183q8 144 127.5 232.5t311.5 88.5zM803 348v178l-148 -4
q-175 -2 -262.5 -52t-87.5 -161q0 -85 58.5 -133.5t154.5 -48.5q66 0 132 31.5t109 83t44 106.5z" />
    <glyph glyph-name="AEacute" unicode="&#x1fc;" horiz-adv-x="2113" 
d="M1632 1923l51 -154l-522 -149l-33 102zM1980 180v-180h-968v399h-500l-219 -399h-213l813 1481h1063l-2 -181h-705v-464h516v-179h-516v-477h731zM1012 584v749l-418 -749h418z" />
    <glyph glyph-name="aeacute" unicode="&#x1fd;" horiz-adv-x="1912" 
d="M1165 1501l52 -153l-521 -150l-34 102zM1014 485q0 -141 94 -247.5t227 -106.5q57 0 104 13t85 40t64 53t59 66l135 -67q-152 -256 -471 -256q-240 0 -412 204q-5 6 -7 6t-7 -6q-32 -34 -60 -60t-70 -54.5t-85.5 -47t-103 -30.5t-126.5 -12q-160 0 -249 79.5t-89 216.5
q0 156 130.5 248t388.5 109l186 14v78q0 100 -58.5 155.5t-170.5 55.5q-168 0 -271 -168l-176 53q131 258 459 258q277 0 360 -174q124 174 361 174q222 0 357.5 -157t135.5 -435zM1315 938q-127 0 -211 -87.5t-84 -234.5l575 -2q0 129 -78 226.5t-202 97.5zM807 522
l-156 -10q-160 -12 -250 -68.5t-90 -152.5q0 -79 55 -126t152 -44q120 5 204.5 68t84.5 151v182z" />
    <glyph glyph-name="Oslashacute" unicode="&#x1fe;" horiz-adv-x="1507" 
d="M979 1923l51 -154l-522 -149l-33 102zM1452 1419q19 -19 0 -35l-162 -178q109 -188 109 -469q0 -357 -173 -557t-474 -200q-281 0 -445 167l-133 -145q-24 -31 -57 -2l-54 51q-24 26 -8 47l156 170q-109 180 -109 467q0 361 174 563.5t476 202.5q275 0 444 -172l143 154
q21 24 39 6zM354 735q0 -171 45 -276l650 719q-97 147 -297 147q-201 0 -299.5 -144.5t-98.5 -445.5zM1145 735q0 171 -45 281l-647 -719q101 -139 301 -139t295.5 139.5t95.5 437.5z" />
    <glyph glyph-name="oslashacute" unicode="&#x1ff;" horiz-adv-x="1216" 
d="M883 1348l-523 -150l-32 102l503 201zM1161 983l-137 -133q78 -135 78 -326q0 -243 -131.5 -393.5t-358.5 -150.5q-217 0 -350 139l-135 -131l-82 86l148 141q-70 134 -70 307q0 250 133 403.5t358 153.5q208 0 338 -133l127 121zM330 530q0 -93 20 -163l469 450
q-75 101 -205 101q-142 0 -213 -108t-71 -280zM893 530q0 99 -23 175l-469 -453q73 -111 213 -111q141 0 210 108.5t69 280.5z" />
    <glyph glyph-name="uni0200" unicode="&#x200;" horiz-adv-x="1460" 
d="M401 1927l283 -282l-70 -82l-317 239zM743 1927l285 -282l-70 -82l-317 239zM80 0l534 1481h234l534 -1481h-213l-141 393h-592l-143 -393h-213zM487 584h486l-240 692z" />
    <glyph glyph-name="uni0201" unicode="&#x201;" 
d="M244 1505l282 -282l-69 -82l-318 239zM586 1505l284 -282l-69 -82l-318 239zM453 -20q-157 0 -254 82.5t-97 226.5q0 178 124.5 264t398.5 92l178 4v80q0 94 -62.5 147.5t-167.5 51.5q-91 0 -158.5 -43.5t-86.5 -126.5h-183q8 144 127.5 232.5t311.5 88.5
q208 0 315 -90.5t107 -249.5v-739h-179l-16 190q-58 -116 -146.5 -163t-211.5 -47zM518 127q66 0 132 31.5t109 83t44 106.5v178l-148 -4q-175 -2 -262.5 -52t-87.5 -161q0 -85 58.5 -133.5t154.5 -48.5z" />
    <glyph glyph-name="uni0202" unicode="&#x202;" horiz-adv-x="1460" 
d="M1083 1755h-147q-27 45 -71.5 76t-102.5 31q-108 0 -172 -107h-144q27 101 111 164t205 63q122 0 207 -64.5t114 -162.5zM80 0l534 1481h234l534 -1481h-213l-141 393h-592l-143 -393h-213zM487 584h486l-240 692z" />
    <glyph glyph-name="uni0203" unicode="&#x203;" 
d="M924 1333h-148q-27 45 -71.5 76t-102.5 31q-108 0 -172 -107h-143q27 102 110.5 165t204.5 63q122 0 207.5 -65t114.5 -163zM453 -20q-157 0 -254 82.5t-97 226.5q0 178 124.5 264t398.5 92l178 4v80q0 94 -62.5 147.5t-167.5 51.5q-91 0 -158.5 -43.5t-86.5 -126.5h-183
q8 144 127.5 232.5t311.5 88.5q208 0 315 -90.5t107 -249.5v-739h-179l-16 190q-58 -116 -146.5 -163t-211.5 -47zM518 127q66 0 132 31.5t109 83t44 106.5v178l-148 -4q-175 -2 -262.5 -52t-87.5 -161q0 -85 58.5 -133.5t154.5 -48.5z" />
    <glyph glyph-name="uni0204" unicode="&#x204;" horiz-adv-x="1292" 
d="M342 1927l283 -282l-70 -82l-317 239zM684 1927l285 -282l-70 -82l-317 239zM190 0v1481h951l-2 -183h-738v-460h662v-181h-662v-471l756 -2v-184h-967z" />
    <glyph glyph-name="uni0205" unicode="&#x205;" horiz-adv-x="1165" 
d="M246 1505l282 -282l-67 -82l-318 239zM590 1505l282 -282l-67 -82l-318 239zM309 479q-2 -151 73 -245.5t216 -94.5q198 0 256 174h195q-24 -108 -91.5 -184.5t-158.5 -112.5t-197 -36q-227 0 -365.5 144.5t-138.5 393.5q0 253 131 407t359 154q223 0 345 -141.5
t122 -384.5v-74h-746zM309 618h547q0 135 -69.5 220.5t-200.5 85.5q-89 0 -154 -46t-94.5 -114t-28.5 -146z" />
    <glyph glyph-name="uni0206" unicode="&#x206;" horiz-adv-x="1292" 
d="M1024 1755h-147q-27 44 -72 75.5t-103 31.5q-108 0 -172 -107h-143q27 101 110.5 164t204.5 63q122 0 207.5 -64.5t114.5 -162.5zM190 0v1481h951l-2 -183h-738v-460h662v-181h-662v-471l756 -2v-184h-967z" />
    <glyph glyph-name="uni0207" unicode="&#x207;" horiz-adv-x="1165" 
d="M928 1333h-148q-25 44 -70 75.5t-102 31.5q-105 0 -174 -107h-143q27 101 111.5 164.5t205.5 63.5t206.5 -65.5t113.5 -162.5zM309 479q-2 -151 73 -245.5t216 -94.5q198 0 256 174h195q-24 -108 -91.5 -184.5t-158.5 -112.5t-197 -36q-227 0 -365.5 144.5t-138.5 393.5
q0 253 131 407t359 154q223 0 345 -141.5t122 -384.5v-74h-746zM309 618h547q0 135 -69.5 220.5t-200.5 85.5q-89 0 -154 -46t-94.5 -114t-28.5 -146z" />
    <glyph glyph-name="uni0208" unicode="&#x208;" horiz-adv-x="585" 
d="M-39 1927l283 -282l-70 -82l-317 239zM303 1927l285 -282l-70 -82l-317 239zM190 1481h211v-1481h-211v1481z" />
    <glyph glyph-name="uni0209" unicode="&#x209;" horiz-adv-x="528" 
d="M-74 1505l283 -282l-70 -82l-317 239zM268 1505l285 -282l-70 -82l-317 239zM371 1059v-1059h-209v1059h209z" />
    <glyph glyph-name="uni020A" unicode="&#x20a;" horiz-adv-x="585" 
d="M643 1755h-147q-27 45 -71.5 76t-102.5 31q-108 0 -172 -107h-144q27 101 111 164t205 63q122 0 207 -64.5t114 -162.5zM190 1481h211v-1481h-211v1481z" />
    <glyph glyph-name="uni020B" unicode="&#x20b;" horiz-adv-x="528" 
d="M608 1333h-147q-27 45 -71.5 76t-102.5 31q-108 0 -172 -107h-144q27 101 111 164.5t205 63.5q122 0 207 -65t114 -163zM371 1059v-1059h-209v1059h209z" />
    <glyph glyph-name="uni020C" unicode="&#x20c;" horiz-adv-x="1546" 
d="M436 1927l283 -282l-70 -82l-317 239zM778 1927l285 -282l-70 -82l-317 239zM774 -20q-303 0 -476 199t-173 556q0 361 174.5 563.5t476.5 202.5q299 0 472 -202t173 -562q0 -357 -173 -557t-474 -200zM776 160q202 0 309 141t107 434q0 297 -108 441.5t-308 144.5
q-202 0 -312 -145.5t-110 -440.5q0 -292 110 -433.5t312 -141.5z" />
    <glyph glyph-name="uni020D" unicode="&#x20d;" 
d="M244 1505l282 -282l-69 -82l-318 239zM586 1505l284 -282l-69 -82l-318 239zM580 -20q-227 0 -357.5 149.5t-130.5 392.5q0 250 133 403.5t357 153.5q226 0 356.5 -153.5t130.5 -401.5q0 -243 -131 -393.5t-358 -150.5zM584 141q95 0 159 54t91.5 139t27.5 196
q0 112 -28 197t-92.5 138t-159.5 53t-160 -53t-94 -138.5t-29 -196.5t29 -196t94.5 -139t161.5 -54z" />
    <glyph glyph-name="uni020E" unicode="&#x20e;" horiz-adv-x="1546" 
d="M1116 1755h-147q-27 45 -71.5 76t-102.5 31q-108 0 -172 -107h-144q27 101 111 164t205 63q122 0 207 -64.5t114 -162.5zM774 -20q-303 0 -476 199t-173 556q0 361 174.5 563.5t476.5 202.5q299 0 472 -202t173 -562q0 -357 -173 -557t-474 -200zM776 160q202 0 309 141
t107 434q0 297 -108 441.5t-308 144.5q-202 0 -312 -145.5t-110 -440.5q0 -292 110 -433.5t312 -141.5z" />
    <glyph glyph-name="uni020F" unicode="&#x20f;" 
d="M924 1333h-148q-27 45 -71.5 76t-102.5 31q-108 0 -172 -107h-143q27 102 110.5 165t204.5 63q122 0 207.5 -65t114.5 -163zM580 -20q-227 0 -357.5 149.5t-130.5 392.5q0 250 133 403.5t357 153.5q226 0 356.5 -153.5t130.5 -401.5q0 -243 -131 -393.5t-358 -150.5z
M584 141q95 0 159 54t91.5 139t27.5 196q0 112 -28 197t-92.5 138t-159.5 53t-160 -53t-94 -138.5t-29 -196.5t29 -196t94.5 -139t161.5 -54z" />
    <glyph glyph-name="uni0210" unicode="&#x210;" horiz-adv-x="1404" 
d="M340 1927l283 -282l-70 -82l-317 239zM682 1927l285 -282l-70 -82l-317 239zM1266 0h-219l-267 625h-379v-625h-211v1481h584q241 0 364.5 -108.5t123.5 -303.5q0 -291 -283 -407zM715 797q160 0 246 67t86 195q0 124 -77.5 189t-215.5 65h-353v-516h314z" />
    <glyph glyph-name="uni0211" unicode="&#x211;" horiz-adv-x="802" 
d="M100 1505l283 -282l-70 -82l-317 239zM442 1505l285 -282l-70 -82l-317 239zM154 0v1059h200v-232q52 108 158 180t225 72l2 -200q-82 5 -154 -16t-120 -58.5t-75.5 -85t-27.5 -96.5v-623h-208z" />
    <glyph glyph-name="uni0212" unicode="&#x212;" horiz-adv-x="1404" 
d="M1020 1755h-148q-27 45 -71.5 76t-102.5 31q-108 0 -172 -107h-143q27 101 110.5 164t204.5 63q122 0 207.5 -64.5t114.5 -162.5zM1266 0h-219l-267 625h-379v-625h-211v1481h584q241 0 364.5 -108.5t123.5 -303.5q0 -291 -283 -407zM715 797q160 0 246 67t86 195
q0 124 -77.5 189t-215.5 65h-353v-516h314z" />
    <glyph glyph-name="uni0213" unicode="&#x213;" horiz-adv-x="802" 
d="M780 1333h-147q-27 45 -71.5 76t-102.5 31q-108 0 -172 -107h-144q27 101 111 164.5t205 63.5q122 0 207 -65t114 -163zM154 0v1059h200v-232q52 108 158 180t225 72l2 -200q-82 5 -154 -16t-120 -58.5t-75.5 -85t-27.5 -96.5v-623h-208z" />
    <glyph glyph-name="uni0214" unicode="&#x214;" horiz-adv-x="1472" 
d="M389 1927l283 -282l-70 -82l-317 239zM731 1927l285 -282l-70 -82l-317 239zM1292 520q0 -264 -133.5 -402t-417.5 -138q-287 0 -419 141.5t-132 417.5v942h218v-969q0 -175 85.5 -262.5t247.5 -87.5q164 0 252 87t88 263v969h211v-961z" />
    <glyph glyph-name="uni0215" unicode="&#x215;" horiz-adv-x="1196" 
d="M248 1505l282 -282l-69 -82l-318 239zM590 1505l284 -282l-69 -82l-318 239zM549 -18q-54 0 -108 12.5t-106 40t-92 68t-64.5 101.5t-24.5 134v723h208v-701q0 -58 21 -102t56.5 -68.5t76 -36.5t84.5 -12q103 0 173.5 60.5t70.5 169.5v690h213l-4 -1059h-164l-19 215
q-13 -66 -46 -114t-78.5 -73.5t-94 -37t-102.5 -10.5z" />
    <glyph glyph-name="uni0216" unicode="&#x216;" horiz-adv-x="1472" 
d="M1071 1755h-147q-27 45 -71.5 76t-102.5 31q-108 0 -172 -107h-144q27 101 111 164t205 63q122 0 207 -64.5t114 -162.5zM1292 520q0 -264 -133.5 -402t-417.5 -138q-287 0 -419 141.5t-132 417.5v942h218v-969q0 -175 85.5 -262.5t247.5 -87.5q164 0 252 87t88 263v969
h211v-961z" />
    <glyph glyph-name="uni0217" unicode="&#x217;" horiz-adv-x="1196" 
d="M930 1333h-148q-27 45 -71.5 76t-102.5 31q-108 0 -172 -107h-143q27 102 110.5 165t204.5 63q122 0 207.5 -65t114.5 -163zM549 -18q-54 0 -108 12.5t-106 40t-92 68t-64.5 101.5t-24.5 134v723h208v-701q0 -58 21 -102t56.5 -68.5t76 -36.5t84.5 -12q103 0 173.5 60.5
t70.5 169.5v690h213l-4 -1059h-164l-19 215q-13 -66 -46 -114t-78.5 -73.5t-94 -37t-102.5 -10.5z" />
    <glyph glyph-name="uni0218" unicode="&#x218;" horiz-adv-x="1429" 
d="M721 -20q-110 0 -211 26t-183.5 75.5t-137.5 128.5t-68 177l219 10q27 -118 131 -181.5t248 -63.5q158 0 259 62.5t101 168.5q0 188 -262 244l-289 65q-359 75 -362 371q-1 193 153 314.5t394 121.5q126 0 230 -35t172.5 -94.5t109.5 -135t51 -159.5l-213 -8
q-21 134 -114.5 196t-235.5 62q-86 0 -158 -27t-118 -82.5t-46 -130.5q0 -79 55.5 -127t194.5 -81l281 -66q374 -79 374 -426q0 -174 -156.5 -289.5t-418.5 -115.5zM635 -479q-9 0 -13.5 8.5t-0.5 17.5l57 101q9 12 4.5 22.5t-16.5 10.5h-19q-15 0 -20.5 6.5t-5.5 21.5v129
q0 25 22 25h129q21 0 21 -21v-161q0 -3 -2.5 -10t-2.5 -9l-79 -123q-13 -18 -43 -18h-31z" />
    <glyph glyph-name="uni0219" unicode="&#x219;" horiz-adv-x="1071" 
d="M547 -20q-112 0 -207 34.5t-163 110t-83 180.5h185q45 -174 270 -174q108 0 170.5 41.5t62.5 114.5q0 55 -39 87t-118 52l-209 51q-139 33 -213 100t-74 183q0 146 120 232.5t298 86.5q182 0 291.5 -90t109.5 -219h-182q-12 77 -73 118.5t-150 41.5q-40 0 -77 -7.5
t-71.5 -24.5t-55 -49t-20.5 -75q0 -54 42.5 -85t134.5 -52l204 -51q76 -20 131 -53.5t83 -74t40.5 -80t12.5 -81.5q0 -100 -58.5 -173t-152 -108.5t-209.5 -35.5zM461 -479q-9 0 -14 8.5t-1 17.5l58 101q9 12 4.5 22.5t-16.5 10.5h-19q-27 0 -27 28v129q0 25 23 25h129
q20 0 20 -21v-161q0 -3 -2 -10t-2 -9l-79 -123q-13 -18 -43 -18h-31z" />
    <glyph glyph-name="uni021A" unicode="&#x21a;" horiz-adv-x="1200" 
d="M35 1290v191h1130v-191h-448v-1290h-211v1290h-471zM551 -479q-9 0 -13.5 8.5t-0.5 17.5l57 101q9 12 4.5 22.5t-16.5 10.5h-19q-15 0 -20.5 6.5t-5.5 21.5v129q0 25 22 25h129q21 0 21 -21v-161q0 -3 -2 -10t-2 -9l-80 -123q-13 -18 -43 -18h-31z" />
    <glyph glyph-name="uni021B" unicode="&#x21b;" horiz-adv-x="829" 
d="M715 907h-240v-635q0 -75 25 -102t75 -27h148v-131q-52 -18 -162 -18q-85 0 -143 17t-91 52.5t-47 82.5t-14 114v647h-172v152h178l25 311h178v-311h240v-152zM473 -479q-9 0 -13.5 8.5t-0.5 17.5l57 101q9 12 4.5 22.5t-16.5 10.5h-19q-15 0 -20.5 6.5t-5.5 21.5v129
q0 25 22 25h129q21 0 21 -21v-161q0 -3 -2 -10t-2 -9l-80 -123q-13 -18 -43 -18h-31z" />
    <glyph glyph-name="uni0237" unicode="&#x237;" horiz-adv-x="536" 
d="M371 -37q0 -157 -70.5 -230t-234.5 -73q-134 0 -134 25v139l101 6q69 6 98 37.5t29 101.5v1090h211v-1096z" />
    <glyph glyph-name="uni0259" unicode="&#x259;" horiz-adv-x="1157" 
d="M848 580q0 151 -74.5 245.5t-214.5 94.5q-197 0 -258 -175h-192q34 161 158.5 247.5t287.5 86.5q226 0 364 -144.5t138 -393.5q0 -253 -130 -407t-358 -154q-223 0 -345 141.5t-122 384.5v74h746zM848 440h-547q0 -136 68.5 -220.5t199.5 -84.5t205 91.5t74 213.5z" />
    <glyph glyph-name="uni02BC" unicode="&#x2bc;" horiz-adv-x="342" 
d="M94 926q-9 0 -13 7t-1 15l61 230q8 25 -8 28l-16 2q-25 0 -25 23v229q0 21 19 21h131q16 0 16 -17v-256q0 -3 -1 -7.5t-1 -6.5l-72 -246q-8 -22 -39 -22h-51z" />
    <glyph glyph-name="circumflex" unicode="&#x2c6;" horiz-adv-x="704" 
d="M487 1247l-141 139l-153 -139h-179l260 242h150l254 -242h-191z" />
    <glyph glyph-name="caron" unicode="&#x2c7;" horiz-adv-x="704" 
d="M487 1481h191l-254 -244h-150l-260 244h179l153 -142z" />
    <glyph glyph-name="breve" unicode="&#x2d8;" horiz-adv-x="704" 
d="M668 1481q-30 -98 -115 -164t-207 -66q-121 0 -204.5 63.5t-110.5 166.5h143q65 -109 172 -109q58 0 103.5 32.5t70.5 76.5h148z" />
    <glyph glyph-name="dotaccent" unicode="&#x2d9;" horiz-adv-x="292" 
d="M252 1481v-252h-219v252h219z" />
    <glyph glyph-name="ring" unicode="&#x2da;" horiz-adv-x="497" 
d="M459 1380q0 -89 -62 -150t-151 -61t-151 62t-62 153q0 86 62.5 146.5t150.5 60.5q89 0 151 -61t62 -150zM350 1380q0 47 -30.5 78t-75.5 31t-78 -31.5t-33 -77.5q0 -43 33.5 -76.5t77.5 -33.5t75 33.5t31 76.5z" />
    <glyph glyph-name="ogonek" unicode="&#x2db;" horiz-adv-x="473" 
d="M33 -178q0 65 45.5 112.5t161.5 83.5l149 -10q-104 -43 -148 -81t-44 -85q0 -73 90 -73q65 0 123 28q24 13 24 -12v-66q0 -16 -14 -24q-72 -35 -182 -35q-99 0 -152 43t-53 119z" />
    <glyph glyph-name="tilde" unicode="&#x2dc;" horiz-adv-x="739" 
d="M662 1339q-63 -47 -160 -47q-58 0 -139.5 27t-126.5 27q-28 0 -52 -7t-35.5 -13.5t-37.5 -22.5q-24 -15 -31 10l-23 63q-7 20 9 33q40 33 74.5 49.5t84.5 16.5q54 0 144 -29t133 -29q61 0 123 41q24 15 32 -10l21 -76q8 -17 -16 -33z" />
    <glyph glyph-name="hungarumlaut" unicode="&#x2dd;" horiz-adv-x="827" 
d="M344 1487l66 -80q22 -25 -7 -45l-262 -203q-26 -17 -41 0l-37 45q-17 18 -4 31l254 254q16 16 31 -2zM688 1487l68 -80q20 -27 -6 -45l-265 -203q-26 -17 -41 0l-36 45q-8 8 -8 17t6 14l253 254q17 17 29 -2z" />
    <glyph glyph-name="gravecomb" unicode="&#x300;" horiz-adv-x="0" 
d="M-537 1501l504 -201l-35 -102l-520 150z" />
    <glyph glyph-name="acutecomb" unicode="&#x301;" horiz-adv-x="0" 
d="M-82 1501l51 -153l-522 -150l-33 102z" />
    <glyph glyph-name="uni0302" unicode="&#x302;" horiz-adv-x="0" 
d="M-217 1247l-141 139l-154 -139h-178l260 242h149l254 -242h-190z" />
    <glyph glyph-name="tildecomb" unicode="&#x303;" horiz-adv-x="0" 
d="M-78 1339q-63 -47 -160 -47q-58 0 -139.5 27t-126.5 27q-28 0 -52 -7t-35.5 -13.5t-37.5 -22.5q-12 -8 -19 -6t-11 16l-23 63q-7 20 8 33q40 33 75 49.5t85 16.5q54 0 143.5 -29t132.5 -29q61 0 123 41q25 15 33 -10l21 -76q8 -16 -17 -33z" />
    <glyph glyph-name="uni0304" unicode="&#x304;" horiz-adv-x="0" 
d="M-39 1458v-145h-631v145h631z" />
    <glyph glyph-name="uni0306" unicode="&#x306;" horiz-adv-x="0" 
d="M-37 1481q-30 -98 -115 -164t-206 -66t-205 63.5t-111 166.5h144q65 -109 172 -109q58 0 103.5 32.5t70.5 76.5h147z" />
    <glyph glyph-name="uni0307" unicode="&#x307;" horiz-adv-x="0" 
d="M-41 1481v-252h-219v252h219z" />
    <glyph glyph-name="uni0308" unicode="&#x308;" horiz-adv-x="0" 
d="M-367 1481v-232h-196v232h196zM-41 1481v-232h-197v232h197z" />
    <glyph glyph-name="uni030A" unicode="&#x30a;" horiz-adv-x="0" 
d="M-39 1380q0 -89 -62 -150t-151 -61t-151 62t-62 153q0 86 62.5 146.5t150.5 60.5q89 0 151 -61t62 -150zM-147 1380q0 47 -31 78t-76 31t-78 -31.5t-33 -77.5q0 -43 33.5 -76.5t77.5 -33.5t75.5 33.5t31.5 76.5z" />
    <glyph glyph-name="uni030B" unicode="&#x30b;" horiz-adv-x="0" 
d="M-483 1487l65 -80q22 -25 -6 -45l-262 -203q-26 -17 -41 0l-37 45q-18 18 -4 31l254 254q16 16 31 -2zM-139 1487l67 -80q20 -27 -6 -45l-264 -203q-26 -17 -41 0l-37 45q-8 8 -8 17t6 14l254 254q17 17 29 -2z" />
    <glyph glyph-name="uni030C" unicode="&#x30c;" horiz-adv-x="0" 
d="M-217 1481h190l-254 -244h-149l-260 244h178l154 -142z" />
    <glyph glyph-name="uni030F" unicode="&#x30f;" horiz-adv-x="0" 
d="M-682 1505l283 -282l-70 -82l-317 239zM-340 1505l285 -282l-70 -82l-317 239z" />
    <glyph glyph-name="uni0311" unicode="&#x311;" horiz-adv-x="0" 
d="M6 1333h-147q-27 45 -71.5 76t-102.5 31q-108 0 -172 -107h-144q27 101 111 164.5t205 63.5q122 0 207 -65t114 -163z" />
    <glyph glyph-name="dotbelowcomb" unicode="&#x323;" horiz-adv-x="0" 
d="M-39 -131v-166q0 -19 -7 -26t-26 -7h-121q-16 0 -21 6.5t-5 22.5v170q0 27 18 27h142q20 0 20 -27z" />
    <glyph glyph-name="uni0326" unicode="&#x326;" horiz-adv-x="0" 
d="M-199 -479q-9 0 -13.5 8.5t-0.5 17.5l57 101q9 12 4.5 22.5t-16.5 10.5h-18q-27 0 -27 28v129q0 25 23 25h129q20 0 20 -21v-161q0 -3 -2 -10t-2 -9l-80 -123q-13 -18 -43 -18h-31z" />
    <glyph glyph-name="uni0327" unicode="&#x327;" horiz-adv-x="0" 
d="M-39 -264q0 -74 -65.5 -117t-161.5 -43q-122 0 -201 51l33 84q67 -49 143 -49q109 0 109 74q0 43 -39 65t-125 23q-20 0 -14 14l75 172h105l-47 -123q98 -4 143 -48t45 -103z" />
    <glyph glyph-name="uni0328" unicode="&#x328;" horiz-adv-x="0" 
d="M-440 -178q0 65 45.5 112.5t161.5 83.5l149 -10q-104 -43 -148 -81t-44 -85q0 -73 90 -73q65 0 123 28q24 13 24 -12v-66q0 -16 -14 -24q-72 -35 -183 -35q-98 0 -151 43t-53 119z" />
    <glyph glyph-name="uni0394" unicode="&#x394;" horiz-adv-x="1353" 
d="M72 0v154l483 1329l240 -2l481 -1323v-158h-1204zM295 178h749l-374 1077z" />
    <glyph glyph-name="uni03A9" unicode="&#x3a9;" horiz-adv-x="1562" 
d="M778 1325q-195 0 -307.5 -148t-112.5 -382q0 -94 22.5 -180t54.5 -146.5t79 -118t83 -90t81 -67.5q31 -25 31 -62v-131h-537v182h305q-88 73 -125 109q-229 232 -229 532q0 104 27.5 203t82.5 185t132.5 151t183.5 102t229 37q155 0 282 -59t206.5 -156t122.5 -216
t43 -245q0 -335 -317 -606q-9 -9 -13 -12q-10 -9 -7.5 -17t13.5 -8h274v-182h-538v168q350 251 350 631q0 231 -110 378.5t-306 147.5z" />
    <glyph glyph-name="uni03BC" unicode="&#x3bc;" horiz-adv-x="1191" 
d="M551 139q138 0 289 158v762h211l-2 -1059h-203v164q-96 -87 -169.5 -128t-150.5 -48q-106 -6 -164 39v-357h-208v1389h208v-750q0 -72 54.5 -121t134.5 -49z" />
    <glyph glyph-name="pi" unicode="&#x3c0;" horiz-adv-x="1359" 
d="M1296 907h-225v-907h-201l-2 907h-413q0 -239 -35.5 -498.5t-85.5 -408.5h-193q48 183 80.5 426t32.5 461q0 20 -16 20h-183v152h1241v-152z" />
    <glyph glyph-name="uni1E0C" unicode="&#x1e0c;" horiz-adv-x="1470" 
d="M190 1481q238 0 363 -2q399 -6 584.5 -189.5t185.5 -539.5q0 -369 -195 -559.5t-591 -190.5h-347v1481zM406 1305v-1127h131q133 0 235 31t177.5 97t115 177t39.5 265q0 153 -37.5 261.5t-111.5 173t-174.5 93.5t-235.5 29h-139zM823 -131v-166q0 -19 -6.5 -26t-25.5 -7
h-121q-27 0 -27 29v170q0 27 21 27h139q20 0 20 -27z" />
    <glyph glyph-name="uni1E0D" unicode="&#x1e0d;" horiz-adv-x="1196" 
d="M539 -20q-205 0 -323 141.5t-118 398.5q0 256 115.5 407.5t323.5 151.5q183 0 309 -135v578h209v-1522h-160l-18 207q-90 -227 -338 -227zM584 137q110 0 186 79.5t76 184.5v340q-86 179 -254 179q-133 0 -210 -99.5t-77 -294.5q0 -196 76.5 -292.5t202.5 -96.5z
M688 -131v-166q0 -19 -7 -26t-26 -7h-120q-16 0 -21.5 6.5t-5.5 22.5v170q0 27 18 27h142q20 0 20 -27z" />
    <glyph glyph-name="uni1E24" unicode="&#x1e24;" horiz-adv-x="1462" 
d="M1069 674h-668v-674h-211v1481h211v-625h668v625h209v-1481h-209v674zM821 -131v-166q0 -19 -7 -26t-26 -7h-120q-16 0 -21.5 6.5t-5.5 22.5v170q0 27 18 27h142q20 0 20 -27z" />
    <glyph glyph-name="uni1E25" unicode="&#x1e25;" horiz-adv-x="1196" 
d="M154 0v1522h206v-611q42 71 124 115.5t202 44.5q156 0 262.5 -89t106.5 -228v-754h-209v717q0 86 -61.5 136t-161.5 50q-109 0 -185 -52t-76 -146v-705h-208zM709 -131v-166q0 -19 -7 -26t-26 -7h-121q-16 0 -21.5 6.5t-5.5 22.5v170q0 27 19 27h141q21 0 21 -27z" />
    <glyph glyph-name="uni1E44" unicode="&#x1e44;" horiz-adv-x="1552" 
d="M905 1903v-252h-219v252h219zM1157 1481h209v-1481h-186l-779 1141v-1141h-211v1481h203l764 -1121v1121z" />
    <glyph glyph-name="uni1E45" unicode="&#x1e45;" horiz-adv-x="1196" 
d="M727 1481v-252h-219v252h219zM154 0v1059h204v-146q107 160 328 160q157 0 264 -100.5t107 -274.5v-698h-211v676q0 107 -61.5 167t-161.5 60q-109 0 -185 -51.5t-76 -144.5v-707h-208z" />
    <glyph glyph-name="uni1E5A" unicode="&#x1e5a;" horiz-adv-x="1404" 
d="M1266 0h-219l-267 625h-379v-625h-211v1481h584q241 0 364.5 -108.5t123.5 -303.5q0 -291 -283 -407zM715 797q160 0 246 67t86 195q0 124 -77.5 189t-215.5 65h-353v-516h314zM786 -131v-166q0 -19 -6.5 -26t-25.5 -7h-121q-16 0 -21.5 6.5t-5.5 22.5v170q0 27 19 27
h141q20 0 20 -27z" />
    <glyph glyph-name="uni1E5B" unicode="&#x1e5b;" horiz-adv-x="802" 
d="M154 0v1059h200v-232q52 108 158 180t225 72l2 -200q-82 5 -154 -16t-120 -58.5t-75.5 -85t-27.5 -96.5v-623h-208zM358 -131v-166q0 -19 -6.5 -26t-25.5 -7h-121q-16 0 -21.5 6.5t-5.5 22.5v170q0 27 19 27h141q20 0 20 -27z" />
    <glyph glyph-name="uni1E62" unicode="&#x1e62;" horiz-adv-x="1429" 
d="M721 -20q-110 0 -211 26t-183.5 75.5t-137.5 128.5t-68 177l219 10q27 -118 131 -181.5t248 -63.5q158 0 259 62.5t101 168.5q0 188 -262 244l-289 65q-359 75 -362 371q-1 193 153 314.5t394 121.5q126 0 230 -35t172.5 -94.5t109.5 -135t51 -159.5l-213 -8
q-21 134 -114.5 196t-235.5 62q-86 0 -158 -27t-118 -82.5t-46 -130.5q0 -79 55.5 -127t194.5 -81l281 -66q374 -79 374 -426q0 -174 -156.5 -289.5t-418.5 -115.5zM793 -131v-166q0 -19 -7 -26t-26 -7h-121q-16 0 -21.5 6.5t-5.5 22.5v170q0 27 19 27h141q21 0 21 -27z" />
    <glyph glyph-name="uni1E63" unicode="&#x1e63;" horiz-adv-x="1071" 
d="M547 -20q-112 0 -207 34.5t-163 110t-83 180.5h185q45 -174 270 -174q108 0 170.5 41.5t62.5 114.5q0 55 -39 87t-118 52l-209 51q-139 33 -213 100t-74 183q0 146 120 232.5t298 86.5q182 0 291.5 -90t109.5 -219h-182q-12 77 -73 118.5t-150 41.5q-40 0 -77 -7.5
t-71.5 -24.5t-55 -49t-20.5 -75q0 -54 42.5 -85t134.5 -52l204 -51q76 -20 131 -53.5t83 -74t40.5 -80t12.5 -81.5q0 -100 -58.5 -173t-152 -108.5t-209.5 -35.5zM621 -131v-166q0 -19 -7 -26t-26 -7h-121q-16 0 -21.5 6.5t-5.5 22.5v170q0 27 19 27h141q21 0 21 -27z" />
    <glyph glyph-name="uni1E6C" unicode="&#x1e6c;" horiz-adv-x="1200" 
d="M35 1290v191h1130v-191h-448v-1290h-211v1290h-471zM711 -131v-166q0 -19 -7 -26t-26 -7h-121q-16 0 -21.5 6.5t-5.5 22.5v170q0 27 19 27h141q21 0 21 -27z" />
    <glyph glyph-name="uni1E6D" unicode="&#x1e6d;" horiz-adv-x="829" 
d="M715 907h-240v-635q0 -75 25 -102t75 -27h148v-131q-52 -18 -162 -18q-85 0 -143 17t-91 52.5t-47 82.5t-14 114v647h-172v152h178l25 311h178v-311h240v-152zM633 -131v-166q0 -19 -7 -26t-26 -7h-121q-16 0 -21 6.5t-5 22.5v170q0 27 18 27h141q21 0 21 -27z" />
    <glyph glyph-name="Wgrave" unicode="&#x1e80;" horiz-adv-x="1968" 
d="M743 1923l504 -201l-35 -102l-520 149zM1919 1481l-434 -1481h-187l-315 1114l-321 -1114h-183l-428 1481h209l320 -1143l323 1143h160l323 -1143l324 1143h209z" />
    <glyph glyph-name="wgrave" unicode="&#x1e81;" horiz-adv-x="1628" 
d="M575 1501l504 -201l-35 -102l-520 150zM1565 1059l-326 -1059h-195l-233 756l-223 -756h-195l-330 1059h193l233 -785h15l231 785h158l237 -785h15l227 785h193z" />
    <glyph glyph-name="Wacute" unicode="&#x1e82;" horiz-adv-x="1968" 
d="M1219 1923l51 -154l-522 -149l-33 102zM1919 1481l-434 -1481h-187l-315 1114l-321 -1114h-183l-428 1481h209l320 -1143l323 1143h160l323 -1143l324 1143h209z" />
    <glyph glyph-name="wacute" unicode="&#x1e83;" horiz-adv-x="1628" 
d="M1051 1501l51 -153l-522 -150l-33 102zM1565 1059l-326 -1059h-195l-233 756l-223 -756h-195l-330 1059h193l233 -785h15l231 785h158l237 -785h15l227 785h193z" />
    <glyph glyph-name="Wdieresis" unicode="&#x1e84;" horiz-adv-x="1968" 
d="M926 1903v-232h-197v232h197zM1251 1903v-232h-196v232h196zM1919 1481l-434 -1481h-187l-315 1114l-321 -1114h-183l-428 1481h209l320 -1143l323 1143h160l323 -1143l324 1143h209z" />
    <glyph glyph-name="wdieresis" unicode="&#x1e85;" horiz-adv-x="1628" 
d="M758 1481v-232h-197v232h197zM1083 1481v-232h-196v232h196zM1565 1059l-326 -1059h-195l-233 756l-223 -756h-195l-330 1059h193l233 -785h15l231 785h158l237 -785h15l227 785h193z" />
    <glyph glyph-name="uni1E92" unicode="&#x1e92;" horiz-adv-x="1306" 
d="M109 0v113l800 1187h-764v181h1059v-107l-809 -1192h803v-182h-1089zM764 -131v-166q0 -19 -7 -26t-26 -7h-121q-16 0 -21 6.5t-5 22.5v170q0 27 18 27h141q21 0 21 -27z" />
    <glyph glyph-name="uni1E93" unicode="&#x1e93;" horiz-adv-x="1009" 
d="M90 0v123l596 795h-553v141h809v-123l-598 -795h606v-141h-860zM629 -131v-166q0 -19 -7 -26t-26 -7h-121q-16 0 -21 6.5t-5 22.5v170q0 27 18 27h141q21 0 21 -27z" />
    <glyph glyph-name="uni1EB8" unicode="&#x1eb8;" horiz-adv-x="1292" 
d="M190 0v1481h951l-2 -183h-738v-460h662v-181h-662v-471l756 -2v-184h-967zM797 -131v-166q0 -19 -7 -26t-26 -7h-121q-16 0 -21.5 6.5t-5.5 22.5v170q0 27 19 27h141q21 0 21 -27z" />
    <glyph glyph-name="uni1EB9" unicode="&#x1eb9;" horiz-adv-x="1165" 
d="M309 479q-2 -151 73 -245.5t216 -94.5q198 0 256 174h195q-24 -108 -91.5 -184.5t-158.5 -112.5t-197 -36q-227 0 -365.5 144.5t-138.5 393.5q0 253 131 407t359 154q223 0 345 -141.5t122 -384.5v-74h-746zM309 618h547q0 135 -69.5 220.5t-200.5 85.5q-89 0 -154 -46
t-94.5 -114t-28.5 -146zM670 -131v-166q0 -19 -7 -26t-26 -7h-121q-16 0 -21.5 6.5t-5.5 22.5v170q0 27 21 27h139q21 0 21 -27z" />
    <glyph glyph-name="uni1EBC" unicode="&#x1ebc;" horiz-adv-x="1292" 
d="M981 1761q-63 -47 -160 -47q-58 0 -139.5 26.5t-126.5 26.5q-28 0 -52 -7t-35.5 -13.5t-37.5 -22.5q-23 -15 -31 11l-22 63q-7 20 8 33q39 32 74.5 48.5t85.5 16.5q54 0 143.5 -28.5t132.5 -28.5q61 0 123 41q25 15 33 -10l20 -76q8 -17 -16 -33zM190 0v1481h951l-2 -183
h-738v-460h662v-181h-662v-471l756 -2v-184h-967z" />
    <glyph glyph-name="uni1EBD" unicode="&#x1ebd;" horiz-adv-x="1165" 
d="M887 1339q-67 -47 -162 -47q-56 0 -138 27t-128 27q-27 0 -50.5 -7t-36.5 -14t-36 -22t-33 10l-20 63q-9 18 8 33q40 33 75 49.5t85 16.5q53 0 142 -29t134 -29q59 0 121 41q26 16 35 -10l20 -76q6 -18 -16 -33zM309 479q-2 -151 73 -245.5t216 -94.5q198 0 256 174h195
q-24 -108 -91.5 -184.5t-158.5 -112.5t-197 -36q-227 0 -365.5 144.5t-138.5 393.5q0 253 131 407t359 154q223 0 345 -141.5t122 -384.5v-74h-746zM309 618h547q0 135 -69.5 220.5t-200.5 85.5q-89 0 -154 -46t-94.5 -114t-28.5 -146z" />
    <glyph glyph-name="uni1ECA" unicode="&#x1eca;" horiz-adv-x="585" 
d="M190 1481h211v-1481h-211v1481zM397 -131v-166q0 -19 -6.5 -26t-25.5 -7h-121q-16 0 -21.5 6.5t-5.5 22.5v170q0 27 19 27h141q20 0 20 -27z" />
    <glyph glyph-name="uni1ECB" unicode="&#x1ecb;" horiz-adv-x="573" 
d="M381 1522v-254h-219v254h219zM377 1059v-1059h-211v1059h211zM416 -131v-166q0 -19 -7 -26t-26 -7h-121q-16 0 -21 6.5t-5 22.5v170q0 27 20 27h139q21 0 21 -27z" />
    <glyph glyph-name="uni1ECC" unicode="&#x1ecc;" horiz-adv-x="1546" 
d="M774 -20q-303 0 -476 199t-173 556q0 361 174.5 563.5t476.5 202.5q299 0 472 -202t173 -562q0 -357 -173 -557t-474 -200zM776 160q202 0 309 141t107 434q0 297 -108 441.5t-308 144.5q-202 0 -312 -145.5t-110 -440.5q0 -292 110 -433.5t312 -141.5zM868 -131v-166
q0 -19 -6.5 -26t-25.5 -7h-121q-16 0 -21.5 6.5t-5.5 22.5v170q0 27 19 27h141q20 0 20 -27z" />
    <glyph glyph-name="uni1ECD" unicode="&#x1ecd;" 
d="M580 -20q-227 0 -357.5 149.5t-130.5 392.5q0 250 133 403.5t357 153.5q226 0 356.5 -153.5t130.5 -401.5q0 -243 -131 -393.5t-358 -150.5zM584 141q95 0 159 54t91.5 139t27.5 196q0 112 -28 197t-92.5 138t-159.5 53t-160 -53t-94 -138.5t-29 -196.5t29 -196
t94.5 -139t161.5 -54zM668 -131v-166q0 -19 -7 -26t-26 -7h-121q-16 0 -21.5 6.5t-5.5 22.5v170q0 27 19 27h141q21 0 21 -27z" />
    <glyph glyph-name="uni1EE4" unicode="&#x1ee4;" horiz-adv-x="1435" 
d="M1298 520q0 -264 -133.5 -402t-419.5 -138q-287 0 -417.5 141t-130.5 418v942h215v-969q0 -174 86 -262t247 -88q164 0 252 87t88 263v969h213v-961zM838 -131v-166q0 -19 -7.5 -26t-27.5 -7h-119q-17 0 -23 6.5t-6 22.5v170q0 27 21 27h141q21 0 21 -27z" />
    <glyph glyph-name="uni1EE5" unicode="&#x1ee5;" horiz-adv-x="1196" 
d="M549 -18q-54 0 -108 12.5t-106 40t-92 68t-64.5 101.5t-24.5 134v723h208v-701q0 -58 21 -102t56.5 -68.5t76 -36.5t84.5 -12q103 0 173.5 60.5t70.5 169.5v690h213l-4 -1059h-164l-19 215q-13 -66 -46 -114t-78.5 -73.5t-94 -37t-102.5 -10.5zM694 -131v-166
q0 -19 -6.5 -26t-25.5 -7h-121q-16 0 -21.5 6.5t-5.5 22.5v170q0 27 18 27h142q20 0 20 -27z" />
    <glyph glyph-name="Ygrave" unicode="&#x1ef2;" horiz-adv-x="1257" 
d="M397 1923l504 -201l-35 -102l-520 149zM1239 1481l-504 -852v-629h-211v631l-506 850h230l383 -666l379 666h229z" />
    <glyph glyph-name="ygrave" unicode="&#x1ef3;" horiz-adv-x="1114" 
d="M332 1501l504 -201l-35 -102l-520 150zM272 -338q-57 0 -99.5 7t-56.5 15l-14 7v135l109 -4q57 -2 98.5 7.5t64.5 30t33.5 37t20.5 40.5l33 92l-412 1030h209l303 -795l301 795h203l-442 -1125q-61 -153 -145.5 -212.5t-205.5 -59.5z" />
    <glyph glyph-name="uni1EF8" unicode="&#x1ef8;" horiz-adv-x="1257" 
d="M942 1761q-63 -47 -160 -47q-58 0 -139.5 26.5t-126.5 26.5q-28 0 -52 -7t-35.5 -13.5t-37.5 -22.5q-23 -15 -31 11l-22 63q-7 20 8 33q39 32 74.5 48.5t85.5 16.5q54 0 143.5 -28.5t132.5 -28.5q61 0 123 41q25 15 33 -10l20 -76q8 -17 -16 -33zM1239 1481l-504 -852
v-629h-211v631l-506 850h230l383 -666l379 666h229z" />
    <glyph glyph-name="uni1EF9" unicode="&#x1ef9;" horiz-adv-x="1114" 
d="M879 1339q-63 -47 -160 -47q-58 0 -139.5 27t-126.5 27q-28 0 -52 -7t-35.5 -13.5t-37.5 -22.5q-24 -15 -31 10l-23 63q-7 20 9 33q40 33 74.5 49.5t84.5 16.5q54 0 144 -29t133 -29q61 0 123 41q24 15 32 -10l21 -76q8 -17 -16 -33zM272 -338q-57 0 -99.5 7t-56.5 15
l-14 7v135l109 -4q57 -2 98.5 7.5t64.5 30t33.5 37t20.5 40.5l33 92l-412 1030h209l303 -795l301 795h203l-442 -1125q-61 -153 -145.5 -212.5t-205.5 -59.5z" />
    <glyph glyph-name="endash" unicode="&#x2013;" horiz-adv-x="1165" 
d="M1028 594v-162h-899v160z" />
    <glyph glyph-name="emdash" unicode="&#x2014;" horiz-adv-x="1810" 
d="M1673 594v-162h-1544v160z" />
    <glyph glyph-name="quoteleft" unicode="&#x2018;" horiz-adv-x="505" 
d="M373 1544l-115 -258l90 -6v-236h-248v207l181 293h92z" />
    <glyph glyph-name="quoteright" unicode="&#x2019;" horiz-adv-x="464" 
d="M104 981l113 258l-90 6v236h248v-207l-178 -293h-93z" />
    <glyph glyph-name="quotesinglbase" unicode="&#x201a;" horiz-adv-x="489" 
d="M98 -260l115 256l-90 6v238h248v-207l-181 -293h-92z" />
    <glyph glyph-name="quotedblleft" unicode="&#x201c;" horiz-adv-x="882" 
d="M117 981v207l180 293h92l-115 -258l91 -4v-238h-248zM498 981v207l180 293h92l-115 -258l93 -4v-238h-250z" />
    <glyph glyph-name="quotedblright" unicode="&#x201d;" horiz-adv-x="903" 
d="M104 981l113 258l-90 6v236h248v-207l-178 -293h-93zM483 981l117 258l-92 6v236h248v-207l-181 -293h-92z" />
    <glyph glyph-name="quotedblbase" unicode="&#x201e;" horiz-adv-x="933" 
d="M125 -260l115 256l-93 6v238h248v-207l-178 -293h-92zM514 -260l115 256l-90 6v238h247v-207l-180 -293h-92z" />
    <glyph glyph-name="dagger" unicode="&#x2020;" horiz-adv-x="966" 
d="M918 977v-193l-373 31l43 -1145h-213l39 1145l-373 -31v193l365 -27l-33 531h215l-35 -531z" />
    <glyph glyph-name="daggerdbl" unicode="&#x2021;" horiz-adv-x="966" 
d="M547 799v-480l371 31v-192l-365 26l35 -514h-215l33 514l-365 -26v192l371 -31v480l-371 -31v193l365 -27l-33 547h215l-35 -547l365 27v-193z" />
    <glyph glyph-name="bullet" unicode="&#x2022;" horiz-adv-x="673" 
d="M330 543q-88 0 -148.5 61.5t-60.5 149.5q0 87 61 149t148 62t149 -62t62 -149q0 -88 -61.5 -149.5t-149.5 -61.5z" />
    <glyph glyph-name="ellipsis" unicode="&#x2026;" horiz-adv-x="1613" 
d="M387 256v-256h-246v256h246zM958 256v-256h-245v256h245zM1528 256v-256h-244v256h244z" />
    <glyph glyph-name="perthousand" unicode="&#x2030;" horiz-adv-x="2701" 
d="M469 1503q152 0 251 -117.5t99 -306.5t-98 -304.5t-252 -115.5q-156 0 -256 116t-100 304t101 306t255 118zM1542 1497l-995 -1505l-135 2l999 1503h131zM467 774q92 0 143.5 82.5t51.5 222.5q0 142 -51.5 227t-143.5 85t-144.5 -85.5t-52.5 -226.5q0 -140 51.5 -222.5
t145.5 -82.5zM1403 825q153 0 252.5 -118t99.5 -306q0 -189 -98.5 -305t-253.5 -116q-156 0 -256 116.5t-100 304.5q0 187 101 305.5t255 118.5zM2228 825q153 0 252.5 -118t99.5 -306q0 -189 -98.5 -305t-253.5 -116q-156 0 -256 116.5t-100 304.5q0 187 101 305.5
t255 118.5zM1401 96q91 0 143.5 83.5t52.5 219.5q0 140 -53 226t-143 86q-89 0 -142 -86.5t-53 -225.5q0 -135 52.5 -219t142.5 -84zM2226 96q91 0 143 83.5t52 219.5q0 140 -52.5 226t-142.5 86q-89 0 -141.5 -86.5t-52.5 -225.5q0 -135 52 -219t142 -84z" />
    <glyph glyph-name="guilsinglleft" unicode="&#x2039;" horiz-adv-x="583" 
d="M270 514l197 -373h-115l-264 373l264 389h117z" />
    <glyph glyph-name="guilsinglright" unicode="&#x203a;" horiz-adv-x="585" 
d="M307 514l-201 389h117l264 -389l-262 -373h-116z" />
    <glyph glyph-name="fraction" unicode="&#x2044;" horiz-adv-x="522" 
d="M819 1497l-995 -1505l-135 2l997 1503h133z" />
    <glyph glyph-name="uni2070" unicode="&#x2070;" horiz-adv-x="851" 
d="M393 1729q159 0 258 -125.5t99 -356.5q0 -228 -98 -351.5t-259 -123.5q-162 0 -259 123t-97 352q0 230 98.5 356t257.5 126zM393 883q211 0 211 364q0 191 -55.5 282t-155.5 91q-99 0 -155 -91.5t-56 -281.5q0 -364 211 -364z" />
    <glyph glyph-name="uni2074" unicode="&#x2074;" horiz-adv-x="851" 
d="M477 1710h135v-582h142v-118h-142v-232h-133v232h-432v120zM186 1128h291v392z" />
    <glyph glyph-name="uni2075" unicode="&#x2075;" horiz-adv-x="823" 
d="M152 1710h569l-8 -113h-451l-24 -286q44 21 69 31t65.5 19t82.5 9q89 0 159 -30t114 -96t44 -161q0 -148 -99.5 -232.5t-262.5 -84.5q-107 0 -199.5 41t-151.5 115l97 73q41 -42 69 -64.5t71.5 -39.5t96.5 -17q108 0 171 57t63 148q0 87 -56 135t-145 48q-37 0 -76 -11.5
t-62.5 -23t-60.5 -33.5q-12 -5 -13 -5t-13 7l-88 51z" />
    <glyph glyph-name="uni2076" unicode="&#x2076;" horiz-adv-x="827" 
d="M412 1739q116 0 196 -55t99 -144l-113 -24q-31 57 -71 85.5t-109 28.5q-119 0 -181.5 -110t-50.5 -306q26 66 91.5 104t146.5 38q139 0 219 -79t80 -200q0 -132 -92.5 -212.5t-235.5 -80.5q-168 0 -263 122.5t-95 338.5q0 231 101 362.5t278 131.5zM395 1251
q-81 0 -140.5 -43t-59.5 -110q15 -103 65 -156t129 -53q80 0 135.5 51.5t55.5 130.5q0 78 -51.5 129t-133.5 51z" />
    <glyph glyph-name="uni2077" unicode="&#x2077;" horiz-adv-x="749" 
d="M66 1710h663v-135q-123 -166 -230 -407.5t-120 -389.5h-146q23 154 116 384t245 435h-528v113z" />
    <glyph glyph-name="uni2078" unicode="&#x2078;" horiz-adv-x="823" 
d="M391 1731q141 0 228.5 -72t87.5 -186q0 -46 -18 -84.5t-45.5 -62.5t-46.5 -36.5t-36 -19.5q3 -1 21.5 -9.5t28.5 -13.5t30 -17t32 -22.5t28 -29t25 -37.5t15.5 -46t6.5 -57q0 -122 -98.5 -193t-262.5 -71q-160 0 -253 64t-93 178q0 71 43.5 130.5t130.5 98.5
q-149 65 -149 211q0 117 90.5 196t234.5 79zM393 1626q-79 0 -132.5 -44.5t-53.5 -111.5q0 -104 117 -129l120 -30q38 -9 87 46t49 116q0 68 -51 110.5t-136 42.5zM395 879q95 0 151 41t56 110q0 53 -29 85.5t-94 51.5l-149 37q-42 12 -100 -41t-58 -127q0 -75 57 -116
t166 -41z" />
    <glyph glyph-name="uni2079" unicode="&#x2079;" horiz-adv-x="827" 
d="M346 776q-115 0 -194.5 56.5t-100.5 144.5l117 22q28 -54 68 -84t106 -30q124 0 190.5 105t57.5 315q-25 -69 -90.5 -109.5t-151.5 -40.5q-142 0 -224.5 80t-82.5 205q0 131 92.5 212t235.5 81q168 0 263 -122.5t95 -340.5q0 -240 -100 -367t-281 -127zM365 1264
q79 0 139.5 45.5t60.5 107.5q-15 104 -65 156.5t-129 52.5q-80 0 -133.5 -50.5t-53.5 -129.5q0 -77 50 -129.5t131 -52.5z" />
    <glyph glyph-name="colonmonetary" unicode="&#x20a1;" horiz-adv-x="1208" 
d="M621 346q92 0 155.5 56t81.5 143h178q-18 -140 -106 -230.5t-221 -115.5l-54 -199l-127 4l50 189q-67 3 -119 20l-56 -213l-129 4l70 264q-105 68 -163 189.5t-58 277.5q0 202 93 345.5t253 189.5l57 209l127 2l-49 -191h8q58 0 111 -12l57 201l127 2l-65 -248
q83 -46 133.5 -125t62.5 -182l-182 -2q-23 94 -85.5 147t-152.5 53q-137 0 -216.5 -103.5t-79.5 -281.5q0 -180 81 -286.5t218 -106.5z" />
    <glyph glyph-name="franc" unicode="&#x20a3;" horiz-adv-x="1261" 
d="M1157 1300h-743v-487h610v-176h-610v-242h327v-127h-327v-268h-240v266h-188v129h188v1086h985z" />
    <glyph glyph-name="lira" unicode="&#x20a4;" horiz-adv-x="1277" 
d="M1176 301q-45 -148 -155 -224.5t-269 -76.5h-715v178h76q75 0 123.5 62t54.5 184q2 9 2 74q-2 12 -19 12h-217v127h217l-28 174h-189v127h168l-6 66q-17 108 -0.5 190t53.5 140.5t96 95.5t128 54t149 17q139 0 261.5 -69.5t168.5 -182.5l-186 -63q-66 139 -215 139
q-100 0 -165 -58t-65 -159q0 -30 19 -150q3 -20 22 -20h314v-127h-312l25 -174h287v-125h-283q-2 -92 -32.5 -183t-88.5 -149h344q102 0 163.5 38.5t94.5 127.5z" />
    <glyph glyph-name="uni20A6" unicode="&#x20a6;" horiz-adv-x="1527" 
d="M1501 897h-88v-266h88v-119h-88v-512h-188l-351 512h-428v-512h-208v512h-220v119h220v264h-220v119h220v467h200l318 -467l446 2v465h211v-465h88v-119zM446 1141v-127h86zM1202 631v266h-364l180 -266h184zM446 631h349l-181 264h-168v-264zM1202 360v152h-102z" />
    <glyph glyph-name="uni20A9" unicode="&#x20a9;" horiz-adv-x="2179" 
d="M2148 995h-282l-58 -194h340v-125h-376l-197 -676h-189l-190 676l-252 -2l-192 -674h-183l-194 674h-342v127h305l-55 192h-250v127h213l-105 361h209l101 -361h438l102 361h162l102 -361h441l102 361h209l-104 -361h245v-125zM1606 801l55 194h-371l53 -194h263z
M981 801h178l-53 194l-70 -2zM485 993l54 -192h260l55 192h-369zM1475 338l96 338h-191zM668 338l96 336h-191z" />
    <glyph glyph-name="dong" unicode="&#x20ab;" horiz-adv-x="1054" 
d="M891 1356h125v-107h-125v-979h-174v117q-26 -28 -43 -43.5t-52.5 -40.5t-80.5 -37t-99 -12q-159 0 -258.5 113.5t-99.5 324.5q0 207 106 335t269 128q74 0 126.5 -23.5t100.5 -68.5q27 -21 27 12v174h-264v107h264v123h178v-123zM709 553v377q-91 94 -197 94
q-108 0 -173 -83.5t-65 -244.5q0 -159 64.5 -238t167.5 -79q86 0 144.5 54t58.5 120zM133 0v115h764v-115h-764z" />
    <glyph glyph-name="Euro" unicode="&#x20ac;" horiz-adv-x="1259" 
d="M1061 272l115 -131q-77 -74 -179.5 -117.5t-216.5 -43.5q-235 0 -393 142t-209 394h-186v127h170q-4 66 -4 102q0 33 4 99h-170v125h186q50 253 206 392.5t390 139.5q115 0 218 -43t179 -119l-145 -125q-115 111 -233 111q-148 0 -243 -88t-128 -266h391v-127h-407
q-5 -83 -5 -101q0 -17 5 -100h407v-127h-391q76 -352 385 -352q69 0 136.5 30.5t117.5 77.5z" />
    <glyph glyph-name="uni20B9" unicode="&#x20b9;" horiz-adv-x="1224" 
d="M1178 1483v-119h-277q86 -77 107 -195h170v-116h-168q-14 -129 -93 -210.5t-192 -119.5q-14 -3 -6 -23l272 -700h-260l-246 682h-458v160h401q156 0 236.5 50t95.5 161l-729 -2v118h727q-34 185 -293 185h-438v127z" />
    <glyph glyph-name="uni20BA" unicode="&#x20ba;" horiz-adv-x="1204" 
d="M981 526l193 -43q-77 -227 -240 -355t-418 -128h-262v455l-156 -58l-45 127l201 74v188l-172 -63l-45 129l217 80v549h240v-463l270 98l49 -127l-319 -117v-188l286 104l47 -126l-333 -121v-361h94q265 3 393 346z" />
    <glyph glyph-name="uni2113" unicode="&#x2113;" horiz-adv-x="1062" 
d="M426 408q0 -142 45 -203.5t137 -61.5q93 0 168 62l-203 -225q-57 0 -105 12t-80.5 30.5t-59.5 47.5t-42.5 55t-29 61t-19.5 58t-12.5 53.5t-9.5 40.5q-3 13 -10 6l-96 -68l-58 125l162 119v502q0 235 105 357t276 122q151 0 227 -90.5t76 -236.5q0 -62 -15.5 -124
t-37.5 -113t-62.5 -109t-74.5 -99.5t-90 -97t-93 -89t-98 -87.5v-47zM426 997v-356q322 290 322 553q0 80 -36 123t-106 43q-89 0 -134.5 -82t-45.5 -281zM870 307q0 2 15 17zM776 205l94 102q-51 -69 -94 -102z" />
    <glyph glyph-name="uni2116" unicode="&#x2116;" horiz-adv-x="2381" 
d="M1966 1499q148 0 237 -95.5t89 -250.5q0 -151 -88.5 -245.5t-237.5 -94.5q-148 0 -234.5 94t-86.5 246q0 155 89 250.5t232 95.5zM1157 1481h209v-1481h-186l-779 1141v-1141h-211v1481h203l764 -1121v1121zM1966 1395q-85 0 -128.5 -62t-43.5 -174q0 -117 43.5 -179
t128.5 -62q86 0 130 62.5t44 178.5q0 112 -44.5 174t-129.5 62z" />
    <glyph glyph-name="uni2117" unicode="&#x2117;" horiz-adv-x="1687" 
d="M840 -20q-155 0 -295.5 60t-242.5 161.5t-162 242.5t-60 297q0 154 60 294.5t162 242.5t242.5 162.5t295.5 60.5t296 -60.5t243 -162.5t162.5 -242.5t60.5 -294.5q0 -156 -60.5 -297.5t-162.5 -242.5t-243 -161t-296 -60zM840 115q171 0 310.5 75.5t222.5 219.5t83 331
q0 138 -48.5 256.5t-131.5 199.5t-196 127t-240 46q-129 0 -243 -45.5t-196.5 -127t-130 -199.5t-47.5 -257q0 -187 82 -331t221.5 -219.5t313.5 -75.5zM1188 903q0 -124 -78.5 -190t-208.5 -66h-190v-307h-146v795h322q136 0 218.5 -58t82.5 -174zM1038 891q0 131 -157 131
h-170v-264h178q66 0 107.5 34t41.5 99z" />
    <glyph glyph-name="uni2120" unicode="&#x2120;" horiz-adv-x="2035" 
d="M451 -12q-144 0 -251.5 66.5t-123.5 187.5l137 6q17 -73 82 -113.5t154 -40.5q99 0 162 40t63 106q0 113 -164 153l-180 39q-226 50 -226 234q-1 120 95 196t245 76q155 0 248.5 -77.5t104.5 -188.5l-133 -6q-13 84 -71 122.5t-147 38.5q-83 0 -141.5 -39.5t-58.5 -109.5
q0 -49 33.5 -79.5t121.5 -51.5l174 -39q236 -52 236 -266q0 -109 -98.5 -181.5t-261.5 -72.5zM1014 0v926h182l268 -746l271 746h182v-926h-135v741l-260 -741h-117l-258 735v-735h-133z" />
    <glyph glyph-name="trademark" unicode="&#x2122;" horiz-adv-x="1892" 
d="M20 807v119h709v-119h-283v-807h-131v807h-295zM868 0v926h185l266 -746l270 746h183v-926h-134v741l-260 -741h-116l-258 735v-735h-136z" />
    <glyph glyph-name="uni2153" unicode="&#x2153;" horiz-adv-x="1959" 
d="M184 565v778l-178 -59v98l232 115h81v-932h-135zM1438 1497l-996 -1505l-135 2l998 1503h133zM1223 737q26 102 119.5 151.5t218.5 49.5q142 0 234.5 -67.5t92.5 -170.5q0 -149 -178 -208q94 -26 150.5 -87.5t56.5 -150.5q0 -120 -104.5 -196t-260.5 -76
q-140 0 -227 45.5t-125 158.5l121 23q66 -117 225 -117q102 0 162.5 45.5t60.5 114.5q0 77 -63 123.5t-152 46.5l-127 2v108l107 3q91 2 152 46t61 111q0 59 -54.5 98t-133.5 39q-164 0 -218 -114z" />
    <glyph glyph-name="uni2154" unicode="&#x2154;" horiz-adv-x="2127" 
d="M41 571v109l299 285q114 106 154.5 163t40.5 119q0 76 -52 115t-121 39q-148 0 -206 -133l-121 22q31 107 116 166.5t216 59.5q138 0 222.5 -72t84.5 -197q-1 -77 -42.5 -142.5t-150.5 -172.5l-250 -246h451v-115h-641zM1608 1497l-996 -1505l-135 2l998 1503h133z
M1393 737q26 102 119.5 151.5t218.5 49.5q142 0 234.5 -67.5t92.5 -170.5q0 -149 -178 -208q94 -26 150.5 -87.5t56.5 -150.5q0 -120 -104.5 -196t-260.5 -76q-140 0 -227 45.5t-125 158.5l121 23q66 -117 225 -117q102 0 162.5 45.5t60.5 114.5q0 77 -63 123.5t-152 46.5
l-127 2v108l107 3q91 2 152 46t61 111q0 59 -54.5 98t-133.5 39q-164 0 -218 -114z" />
    <glyph glyph-name="oneeighth" unicode="&#x215b;" horiz-adv-x="1964" 
d="M184 565v778l-178 -59v98l232 115h81v-932h-135zM1438 1497l-996 -1505l-135 2l998 1503h133zM1532 936q141 0 228 -72t87 -186q0 -46 -17.5 -84.5t-45 -62.5t-47 -36.5t-35.5 -19.5q3 -2 21.5 -10t28.5 -13t30 -16.5t32 -22.5t27.5 -29t24.5 -37.5t15.5 -46t6.5 -56.5
q0 -122 -98 -193t-262 -71q-160 0 -253 63.5t-93 177.5q0 71 43.5 131t130.5 99q-150 65 -150 211q0 117 91 195.5t235 78.5zM1534 831q-79 0 -132.5 -44t-53.5 -111q0 -105 116 -129l121 -31q38 -9 86.5 46t48.5 116q0 68 -50.5 110.5t-135.5 42.5zM1536 84q95 0 151 41.5
t56 110.5q0 53 -29 85.5t-94 51.5l-150 37q-42 12 -99.5 -41t-57.5 -127q0 -75 57 -116.5t166 -41.5z" />
    <glyph glyph-name="threeeighths" unicode="&#x215c;" horiz-adv-x="2162" 
d="M82 1315q26 102 119.5 151.5t218.5 49.5q142 0 235 -67.5t93 -170.5q0 -149 -179 -209q94 -26 150.5 -87.5t56.5 -150.5q0 -120 -104 -196t-260 -76q-140 0 -227.5 46t-125.5 159l121 22q66 -116 226 -116q102 0 162.5 45t60.5 114q0 77 -63 123.5t-152 46.5l-127 2v109
l106 2q91 2 152 46.5t61 111.5q0 59 -54.5 98t-133.5 39q-162 0 -217 -115zM1638 1497l-995 -1505l-135 2l997 1503h133zM1733 936q141 0 228 -72t87 -186q0 -46 -17.5 -84.5t-45 -62.5t-47 -36.5t-35.5 -19.5q3 -2 21.5 -10t28.5 -13t30 -16.5t32 -22.5t27.5 -29
t24.5 -37.5t15.5 -46t6.5 -56.5q0 -122 -98 -193t-262 -71q-160 0 -253.5 63.5t-93.5 177.5q0 71 43.5 131t130.5 99q-149 65 -149 211q0 117 91 195.5t235 78.5zM1735 831q-79 0 -133 -44t-54 -111q0 -104 117 -129l121 -31q38 -9 86.5 46t48.5 116q0 68 -50.5 110.5
t-135.5 42.5zM1737 84q95 0 151 41.5t56 110.5q0 53 -29 85.5t-94 51.5l-150 37q-42 12 -100 -41t-58 -127q0 -75 57.5 -116.5t166.5 -41.5z" />
    <glyph glyph-name="fiveeighths" unicode="&#x215d;" horiz-adv-x="2166" 
d="M152 1497h569l-8 -113h-451l-24 -286q44 21 69 31t65.5 19t82.5 9q89 0 159 -30t114 -96t44 -161q0 -148 -99.5 -232.5t-262.5 -84.5q-107 0 -199.5 41t-151.5 115l97 73q61 -63 111 -91.5t126 -28.5q108 0 171 56.5t63 147.5q0 87 -56 135t-145 48q-37 0 -76 -11.5
t-62.5 -23t-60.5 -33.5q-12 -5 -13 -5t-13 7l-88 51zM1642 1497l-995 -1505l-135 2l997 1503h133zM1737 936q141 0 228 -72t87 -186q0 -46 -17.5 -84.5t-45 -62.5t-47 -36.5t-35.5 -19.5q3 -2 21.5 -10t28.5 -13t30 -16.5t32 -22.5t27.5 -29t24.5 -37.5t15.5 -46t6.5 -56.5
q0 -122 -98 -193t-262 -71q-160 0 -253.5 63.5t-93.5 177.5q0 71 44 131t131 99q-150 65 -150 211q0 117 91 195.5t235 78.5zM1739 831q-79 0 -133 -44t-54 -111q0 -104 117 -129l121 -31q38 -9 86.5 46t48.5 116q0 68 -50.5 110.5t-135.5 42.5zM1741 84q95 0 151 41.5
t56 110.5q0 53 -29 85.5t-94 51.5l-150 37q-42 12 -99.5 -41t-57.5 -127q0 -75 57 -116.5t166 -41.5z" />
    <glyph glyph-name="seveneighths" unicode="&#x215e;" horiz-adv-x="2095" 
d="M1569 1497l-996 -1505l-135 2l998 1503h133zM66 1495h663v-135q-123 -166 -230 -407.5t-120 -389.5h-146q23 154 116 384t245 435h-528v113zM1663 936q141 0 228 -72t87 -186q0 -46 -17.5 -84.5t-45 -62.5t-47 -36.5t-35.5 -19.5q3 -2 21.5 -10t28.5 -13t30 -16.5
t32 -22.5t27.5 -29t24.5 -37.5t15.5 -46t6.5 -56.5q0 -122 -98 -193t-262 -71q-160 0 -253 63.5t-93 177.5q0 71 43.5 131t130.5 99q-150 65 -150 211q0 117 91 195.5t235 78.5zM1665 831q-79 0 -132.5 -44t-53.5 -111q0 -105 116 -129l121 -31q38 -9 86.5 46t48.5 116
q0 68 -50.5 110.5t-135.5 42.5zM1667 84q95 0 151 41.5t56 110.5q0 53 -29 85.5t-94 51.5l-149 37q-42 12 -100 -41t-58 -127q0 -75 57 -116.5t166 -41.5z" />
    <glyph glyph-name="partialdiff" unicode="&#x2202;" horiz-adv-x="1212" 
d="M217 1237l-63 129q55 55 164.5 95t232.5 40q262 0 412.5 -192.5t150.5 -567.5q0 -360 -138 -560.5t-396 -200.5q-218 0 -351 135.5t-133 341.5q0 204 130.5 330t355.5 126q98 0 160 -23.5t139 -74.5q20 -10 25 -7.5t5 15.5q0 235 -104 372.5t-305 137.5q-62 0 -118.5 -16
t-88.5 -33t-78 -47zM567 141h2q129 0 219 115t109 301q3 32 0.5 46t-12.5 26q-41 54 -122.5 91.5t-166.5 37.5q-128 0 -210.5 -88t-82.5 -224q0 -132 76.5 -218.5t187.5 -86.5z" />
    <glyph glyph-name="emptyset" unicode="&#x2205;" horiz-adv-x="1198" 
d="M1079 1102l-121 -113q76 -113 76 -244q0 -181 -128 -308.5t-308 -127.5q-154 0 -272 97l-138 -127l-82 83l138 127q-82 116 -82 256q0 180 127.5 307.5t308.5 127.5q162 0 283 -105l120 111zM274 745q0 -97 54 -180l471 434q-90 70 -201 70q-134 0 -229 -95.5t-95 -228.5
zM924 745q0 89 -47 168l-469 -432q83 -61 190 -61q135 0 230.5 95t95.5 230z" />
    <glyph glyph-name="product" unicode="&#x220f;" horiz-adv-x="1361" 
d="M1317 1481v-181h-201v-1300h-219v1300h-440v-1300h-221v1300h-199v181h1280z" />
    <glyph glyph-name="summation" unicode="&#x2211;" horiz-adv-x="1105" 
d="M1044 0h-987v135l439 602l-412 594v150h924v-174h-635l385 -549l-422 -576h708v-182z" />
    <glyph glyph-name="minus" unicode="&#x2212;" horiz-adv-x="1159" 
d="M1026 825v-159l-899 -2v159z" />
    <glyph glyph-name="uni2219" unicode="&#x2219;" horiz-adv-x="673" 
d="M330 618q-54 0 -92.5 39.5t-38.5 94.5t38.5 93t92.5 38q56 0 94.5 -38t38.5 -93q0 -56 -39 -95t-94 -39z" />
    <glyph glyph-name="radical" unicode="&#x221a;" horiz-adv-x="1329" 
d="M1323 1690l-528 -2020h-222l-331 905l-156 -59l-49 129l328 121l313 -883l465 1807h180z" />
    <glyph glyph-name="infinity" unicode="&#x221e;" horiz-adv-x="1523" 
d="M1417 561v-4q0 -159 -96.5 -252.5t-235.5 -93.5q-53 0 -96.5 13.5t-83 44t-64 55.5t-65.5 73q-11 13 -16.5 13.5t-18.5 -13.5q-2 -2 -23 -26t-36 -39.5t-46 -40.5t-60.5 -40.5t-71.5 -27.5t-86 -12q-133 0 -226.5 94t-93.5 244q0 152 95.5 245t246.5 93q54 0 97 -11.5
t82 -39t63 -50.5t66 -69q16 -17 23.5 -16.5t23.5 16.5q34 38 56.5 59.5t62 51.5t86.5 44.5t102 14.5q138 0 226.5 -89t88.5 -237zM430 358h4q62 0 121.5 44.5t101.5 101.5q18 27 17.5 39t-21.5 43q-52 79 -105.5 119t-119.5 40q-80 0 -130 -52.5t-50 -137.5q0 -86 53 -141.5
t129 -55.5zM1094 745h-2q-44 0 -89 -25.5t-73.5 -53.5t-65.5 -72q-33 -41 0 -78q111 -158 236 -158q77 0 121.5 59t44.5 136q0 79 -47.5 135.5t-124.5 56.5z" />
    <glyph glyph-name="integral" unicode="&#x222b;" horiz-adv-x="923" 
d="M317 1274q0 215 89.5 325.5t252.5 110.5q81 0 132.5 -12.5t99.5 -42.5l-49 -182q-86 47 -166 47q-72 0 -116 -53.5t-44 -166.5q0 -207 38 -621.5t38 -586.5q0 -217 -89.5 -329.5t-248.5 -112.5q-81 0 -130 12t-99 43l49 180q85 -45 164 -45q71 0 114 53t43 168
q0 206 -39 622t-39 591z" />
    <glyph glyph-name="approxequal" unicode="&#x2248;" horiz-adv-x="1189" 
d="M1057 930q-40 -65 -109.5 -104.5t-156.5 -39.5q-53 0 -106 17t-90 37.5t-87 37.5t-98 17q-70 0 -122.5 -32.5t-103.5 -88.5l-61 117q75 73 138 110t149 37q66 0 132 -27.5t128 -55t118 -27.5q123 0 207 119zM1057 520q-39 -66 -109 -105.5t-157 -39.5q-55 0 -109 17
t-91 38t-86 38t-95 17q-70 0 -122 -32t-104 -88l-61 116q75 73 138 109.5t149 36.5q52 0 105.5 -17.5t91 -38t87 -38t94.5 -17.5q120 0 207 119z" />
    <glyph glyph-name="notequal" unicode="&#x2260;" horiz-adv-x="1208" 
d="M1047 862h-353l-131 -299l484 2v-159l-553 -3l-129 -292h-119l131 292h-230v160h299l134 297h-433v162h504l123 276h113l-121 -276h281v-160z" />
    <glyph glyph-name="lessequal" unicode="&#x2264;" horiz-adv-x="1148" 
d="M997 647v-190l-876 344v186l878 346v-192l-634 -248zM1010 264v-160l-899 2v160z" />
    <glyph glyph-name="greaterequal" unicode="&#x2265;" horiz-adv-x="1148" 
d="M141 647l635 246l-637 248v192l881 -346v-186l-879 -344v190zM131 264l899 2v-160l-899 -2v160z" />
    <glyph glyph-name="lozenge" unicode="&#x25ca;" horiz-adv-x="1036" 
d="M602 0h-160l-336 739l349 742h157l338 -738zM530 1319l-245 -571l245 -588l246 579z" />
    <glyph glyph-name="i.loclTRK" horiz-adv-x="528" 
d="M379 1481v-252h-219v252h219zM371 1059v-1059h-209v1059h209z" />
    <glyph glyph-name="p.001" horiz-adv-x="1251" 
d="M178 -330v1389h209v-144q30 34 50 52.5t63 49.5t98 46.5t121 15.5q192 0 311 -137.5t119 -398.5q0 -269 -123 -416t-326 -147q-85 0 -158 29t-155 100v-439h-209zM635 129q137 0 219 106t82 306q0 102 -23.5 179t-64.5 121t-91.5 65.5t-109.5 21.5q-114 0 -187 -75
t-73 -185v-346q90 -193 248 -193z" />
    <glyph glyph-name="q.001" horiz-adv-x="1210" 
d="M1069 -330h-209v439q-82 -71 -155 -100t-156 -29q-205 0 -328 147t-123 416q0 261 119 398.5t311 137.5q54 0 103 -12.5t79 -26.5t66 -43t47.5 -41t38.5 -41v144h207v-1389zM612 129q161 0 248 193v346q0 111 -72.5 185.5t-187.5 74.5q-125 0 -206 -94t-81 -293
t82 -305.5t217 -106.5z" />
    <glyph glyph-name="l.ss01" horiz-adv-x="595" 
d="M193 0v1522h208v-1522h-208z" />
    <glyph glyph-name="zero.osf" horiz-adv-x="1329" 
d="M666 1501q123 0 226 -49.5t178.5 -143.5t118 -240.5t42.5 -330.5q0 -364 -155.5 -559.5t-411.5 -195.5t-411 194.5t-155 558.5q0 185 42.5 331.5t118.5 241t179.5 144t227.5 49.5zM666 158q333 0 333 579q0 303 -87.5 446.5t-247.5 143.5q-159 0 -246.5 -144t-87.5 -446
q0 -298 88 -438.5t248 -140.5z" />
    <glyph glyph-name="one.osf" horiz-adv-x="804" 
d="M354 0v1239l-282 -96v155l368 183h129v-1481h-215z" />
    <glyph glyph-name="two.osf" horiz-adv-x="1212" 
d="M90 0v174l475 453q123 115 185 184t93 132.5t31 131.5q0 62 -24.5 110.5t-65 76.5t-88 42.5t-98.5 14.5q-105 0 -192.5 -51t-135.5 -160l-190 35q51 170 184.5 264t341.5 94q219 0 353.5 -114t134.5 -312q-1 -123 -66.5 -228t-236.5 -274l-398 -391h715v-182h-1018z" />
    <glyph glyph-name="three.osf" horiz-adv-x="1325" 
d="M123 1188q20 84 72.5 147t126.5 99.5t158.5 54.5t178.5 18q227 0 374 -107.5t147 -271.5q0 -234 -283 -331q149 -42 238.5 -138.5t89.5 -236.5q0 -127 -77 -227.5t-209.5 -154.5t-295.5 -54q-108 0 -192.5 16t-157.5 52.5t-125 100.5t-84 156l192 35q110 -184 359 -184
q164 0 260 72t96 184q0 122 -101.5 196t-242.5 74l-201 2v172l170 4q144 1 240 72t96 176q0 96 -85.5 158.5t-211.5 62.5q-255 0 -344 -184z" />
    <glyph glyph-name="four.osf" horiz-adv-x="1286" 
d="M770 1481h213v-926h227v-186h-227v-369h-211v369h-686v190zM305 555h465v625z" />
    <glyph glyph-name="five.osf" horiz-adv-x="1343" 
d="M244 1481h907l-12 -178h-719l-39 -457q79 36 112 50t99.5 30t134.5 16q83 0 157 -17.5t138 -54t110 -90t72.5 -129t26.5 -166.5q0 -235 -159 -370t-417 -135q-171 0 -317 65t-240 182l154 117q63 -65 108.5 -101.5t115 -62.5t153.5 -26q174 0 273 89.5t99 233.5
q0 138 -89 213.5t-230 75.5q-59 0 -121 -17.5t-97 -34.5t-99 -52q-7 -4 -11 -5.5t-8 -1.5t-5 0.5t-7.5 3.5t-9.5 5l-142 79z" />
    <glyph glyph-name="six.osf" horiz-adv-x="1284" 
d="M698 1511q184 0 311 -87t158 -230l-180 -37q-50 90 -113.5 136t-171.5 46q-192 0 -290.5 -174t-79.5 -487q42 104 145.5 163.5t231.5 59.5q222 0 350.5 -125t128.5 -317q0 -210 -147.5 -338.5t-374.5 -128.5q-267 0 -419.5 195.5t-152.5 539.5q0 367 160.5 575.5
t443.5 208.5zM672 735q-129 0 -224.5 -68.5t-95.5 -172.5q24 -165 104 -249.5t206 -84.5q129 0 216 81.5t87 207.5q0 124 -82 205t-211 81z" />
    <glyph glyph-name="seven.osf" horiz-adv-x="1191" 
d="M72 1481h1054v-215q-194 -263 -363 -647.5t-192 -618.5h-231q16 108 57 251t108.5 316.5t174 368.5t233.5 367h-841v178z" />
    <glyph glyph-name="eight.osf" horiz-adv-x="1292" 
d="M643 1501q223 0 362.5 -114t139.5 -295q0 -59 -21 -112t-47.5 -86.5t-64 -63t-58 -41t-41.5 -21.5q1 -1 34 -15t46 -20.5t47 -26t51.5 -36t44 -46t40 -60t24 -73t10.5 -90.5q0 -195 -157 -308t-418 -113q-253 0 -402 102.5t-149 284.5q0 110 70 205.5t206 156.5
q-115 53 -173 132q-64 87 -64 204q0 185 145.5 310.5t374.5 125.5zM645 1333q-125 0 -210 -70t-85 -176q0 -162 187 -206l190 -50q38 -9 88.5 28t88.5 103t38 130q0 107 -80.5 174t-216.5 67zM647 147q153 0 242.5 65.5t89.5 174.5q0 85 -46.5 137.5t-150.5 79.5l-237 62
q-40 10 -99 -22t-106 -100.5t-47 -146.5q0 -119 90.5 -184.5t263.5 -65.5z" />
    <glyph glyph-name="nine.osf" horiz-adv-x="1284" 
d="M580 -18q-183 0 -310.5 88t-160.5 229l186 37q21 -42 43.5 -72t55.5 -56.5t77.5 -40t101.5 -13.5q198 0 303.5 166t88.5 501q-38 -110 -142 -174.5t-241 -64.5q-224 0 -357 128t-133 326q0 208 147.5 335.5t374.5 127.5q267 0 418.5 -194t151.5 -539q0 -381 -159 -582.5
t-445 -201.5zM606 756q128 0 224 71.5t96 171.5q-23 165 -102.5 249.5t-205.5 84.5q-128 0 -212 -81t-84 -208q0 -121 79 -204.5t205 -83.5z" />
    <glyph glyph-name="zero.tf" horiz-adv-x="1429" 
d="M733 1501q123 0 226 -49.5t178.5 -143.5t118 -240.5t42.5 -330.5q0 -364 -155.5 -559.5t-411.5 -195.5t-410.5 194.5t-154.5 558.5q0 367 156.5 566.5t410.5 199.5zM733 158q334 0 334 579q0 302 -88.5 446t-247.5 144t-246.5 -144t-87.5 -446q0 -298 88 -438.5
t248 -140.5z" />
    <glyph glyph-name="one.tf" horiz-adv-x="1429" 
d="M862 201h414v-201h-1073v201h434v1052l-420 -151v192l520 189h125v-1282z" />
    <glyph glyph-name="two.tf" horiz-adv-x="1429" 
d="M238 0v174l475 453q123 115 185 184t93 132.5t31 131.5q0 62 -24.5 110.5t-65 76.5t-88.5 42.5t-99 14.5q-105 0 -192 -51t-135 -160l-191 35q51 170 185 264t342 94q219 0 353 -114t134 -312q-1 -123 -66.5 -228t-236.5 -274l-397 -391h714v-182h-1017z" />
    <glyph glyph-name="three.tf" horiz-adv-x="1429" 
d="M211 1182q21 84 73.5 147t127 99.5t158.5 54.5t178 18q227 0 373.5 -107t146.5 -272q0 -234 -283 -331q149 -40 239.5 -137.5t90.5 -237.5q0 -127 -77.5 -227.5t-210 -154.5t-294.5 -54q-221 0 -360 73.5t-199 251.5l193 35q107 -184 358 -184q162 0 259 72.5t97 183.5
q0 82 -49.5 144.5t-127.5 94t-169 31.5l-198 2v172l168 4q145 1 241 72.5t96 175.5q0 96 -86.5 158.5t-212.5 62.5q-257 0 -344 -184z" />
    <glyph glyph-name="four.tf" horiz-adv-x="1429" 
d="M877 1481h213v-926h227v-186h-227v-369h-211l2 369h-686v190zM414 555h463v625z" />
    <glyph glyph-name="five.tf" horiz-adv-x="1429" 
d="M322 1481h907l-12 -178h-719l-39 -457q79 36 112 50t99.5 30t134.5 16q83 0 157 -17.5t138 -54t110 -90t72.5 -129t26.5 -166.5q0 -235 -159 -370t-417 -135q-171 0 -317 65t-240 182l154 117q63 -65 108.5 -101.5t115 -62.5t153.5 -26q174 0 273 89.5t99 233.5
q0 138 -88.5 213.5t-230.5 75.5q-59 0 -121 -17.5t-97.5 -35t-99.5 -51.5q-7 -4 -11 -5.5t-8 -1.5t-5 0.5t-7.5 3.5t-9.5 5l-141 79z" />
    <glyph glyph-name="six.tf" horiz-adv-x="1429" 
d="M788 1511q184 0 311 -87t158 -230l-180 -37q-48 90 -111.5 136t-172.5 46q-191 0 -289.5 -173.5t-81.5 -487.5q44 104 147.5 163.5t231.5 59.5q221 0 349 -125t128 -317q0 -210 -147.5 -338.5t-374.5 -128.5q-267 0 -418.5 195.5t-151.5 539.5q0 367 160 575.5t442 208.5
zM764 735q-130 0 -225 -68.5t-95 -172.5q23 -165 103 -249.5t207 -84.5q129 0 215 81.5t86 207.5q0 124 -81.5 205t-209.5 81z" />
    <glyph glyph-name="seven.tf" horiz-adv-x="1429" 
d="M129 1481h1133v-215q-194 -263 -363 -647.5t-192 -618.5h-246q17 108 58 248.5t108.5 311t174 363t234.5 363.5h-907v195z" />
    <glyph glyph-name="eight.tf" horiz-adv-x="1429" 
d="M737 1501q224 0 363 -113.5t139 -295.5q0 -59 -20.5 -112t-47 -86.5t-63 -63t-57.5 -41.5t-41 -21q6 -3 27 -12t34 -14.5t37 -18t40 -23.5t38.5 -29.5t37.5 -36.5t31.5 -43.5t26.5 -53t16.5 -62.5t6.5 -74q0 -195 -157 -308t-419 -113q-253 0 -401 102t-148 285
q0 111 69.5 206t205.5 156q-124 57 -182 145q-54 83 -54 191q0 185 144.5 310.5t373.5 125.5zM741 1333q-127 0 -212 -69.5t-85 -176.5q0 -162 187 -206l190 -50q39 -9 89.5 28t88 103t37.5 130q0 107 -80 174t-215 67zM743 147q152 0 241 65.5t89 174.5q0 85 -46 137.5
t-150 79.5l-238 62q-40 10 -99 -22t-106 -100.5t-47 -146.5q0 -119 91 -184.5t265 -65.5z" />
    <glyph glyph-name="nine.tf" horiz-adv-x="1429" 
d="M678 -18q-183 0 -311.5 88.5t-161.5 228.5l186 37q45 -87 108.5 -134.5t170.5 -47.5q198 0 303 166t90 501q-40 -110 -143.5 -174.5t-241.5 -64.5q-223 0 -356.5 128t-133.5 326q0 138 68.5 244t187 162.5t267.5 56.5q268 0 419.5 -194t151.5 -539q0 -381 -159 -582.5
t-445 -201.5zM705 756q128 0 223.5 71.5t95.5 171.5q-24 166 -103.5 250t-205.5 84q-128 0 -211.5 -81t-83.5 -208q0 -122 79 -205t206 -83z" />
    <glyph glyph-name="zero.subs" horiz-adv-x="851" 
d="M393 596q159 0 258 -125t99 -356q0 -228 -98 -351.5t-259 -123.5q-162 0 -259 123t-97 352q0 230 98.5 355.5t257.5 125.5zM393 -250q211 0 211 365q0 191 -55.5 281.5t-155.5 90.5q-99 0 -155 -91t-56 -281q0 -365 211 -365z" />
    <glyph glyph-name="one.subs" horiz-adv-x="618" 
d="M184 -338v778l-178 -59v98l232 115h81v-932h-135z" />
    <glyph glyph-name="two.subs" horiz-adv-x="788" 
d="M41 -338v109l299 284q113 105 154 163t41 120q0 76 -52 115t-121 39q-147 0 -206 -134l-121 23q31 106 116 165.5t216 59.5q138 0 222.5 -71.5t84.5 -196.5q-1 -77 -42.5 -142.5t-150.5 -172.5l-250 -246h451v-115h-641z" />
    <glyph glyph-name="three.subs" horiz-adv-x="819" 
d="M82 399q26 102 119.5 151.5t218.5 49.5q142 0 235 -67.5t93 -170.5q0 -148 -179 -208q94 -26 150.5 -87.5t56.5 -150.5q0 -120 -104 -196t-260 -76q-140 0 -227.5 45.5t-125.5 158.5l121 23q66 -117 226 -117q102 0 162.5 45.5t60.5 114.5q0 77 -63 123.5t-152 46.5
l-127 2v109l106 2q91 2 152 46t61 111q0 59 -54.5 98.5t-133.5 39.5q-162 0 -217 -115z" />
    <glyph glyph-name="four.subs" horiz-adv-x="851" 
d="M477 594h135v-582h142v-118h-142v-232h-133v232h-432v120zM186 12h291v391z" />
    <glyph glyph-name="five.subs" horiz-adv-x="823" 
d="M152 588h569l-8 -113h-451l-24 -287q45 21 69.5 31t65 19.5t82.5 9.5q89 0 159 -30t114 -96t44 -161q0 -148 -99.5 -232.5t-262.5 -84.5q-107 0 -200 41t-151 114l97 74q41 -42 69 -64.5t71.5 -39.5t96.5 -17q108 0 171 57t63 148q0 87 -56 134.5t-145 47.5
q-37 0 -75.5 -11t-63 -23t-60.5 -33q-12 -5 -13 -5t-13 7l-88 51z" />
    <glyph glyph-name="six.subs" horiz-adv-x="827" 
d="M412 602q116 0 196 -55t99 -144l-113 -24q-31 57 -71.5 86t-108.5 29q-119 0 -181.5 -110t-50.5 -306q26 66 91 103.5t147 37.5q139 0 219 -78.5t80 -199.5q0 -132 -92.5 -212.5t-235.5 -80.5q-168 0 -263 122.5t-95 338.5q0 231 101 362t278 131zM395 115
q-81 0 -140.5 -43.5t-59.5 -110.5q15 -103 65 -156t129 -53q80 0 135.5 51.5t55.5 130.5q0 78 -51.5 129.5t-133.5 51.5z" />
    <glyph glyph-name="seven.subs" horiz-adv-x="749" 
d="M66 594h663v-135q-123 -166 -230 -407.5t-120 -389.5h-146q23 154 116 384t245 435h-528v113z" />
    <glyph glyph-name="eight.subs" horiz-adv-x="823" 
d="M391 600q141 0 228.5 -72t87.5 -186q0 -46 -18 -84.5t-45.5 -62.5t-46.5 -36.5t-36 -19.5q4 -2 22 -10t28.5 -13t30 -16.5t32 -22.5t28 -29t24.5 -37.5t15.5 -46t6.5 -56.5q0 -122 -98.5 -193t-262.5 -71q-160 0 -253 63.5t-93 177.5q0 71 43.5 131t130.5 99
q-149 65 -149 211q0 117 90.5 195.5t234.5 78.5zM393 496q-79 0 -132.5 -44.5t-53.5 -111.5q0 -104 117 -129l120 -31q38 -9 87 46t49 116q0 68 -51 111t-136 43zM395 -252q95 0 151 41.5t56 110.5q0 53 -29 85.5t-94 51.5l-149 37q-42 12 -100 -41t-58 -127
q0 -75 57 -116.5t166 -41.5z" />
    <glyph glyph-name="nine.subs" horiz-adv-x="827" 
d="M346 -360q-115 0 -194.5 56t-100.5 144l117 23q29 -55 68.5 -85t105.5 -30q124 0 190.5 105t57.5 315q-25 -69 -90.5 -109.5t-151.5 -40.5q-142 0 -224.5 80t-82.5 205q0 131 92.5 212t235.5 81q168 0 263 -122.5t95 -340.5q0 -240 -100 -366.5t-281 -126.5zM365 127
q79 0 139.5 46t60.5 108q-30 208 -194 208q-80 0 -133.5 -50.5t-53.5 -129.5q0 -77 50 -129.5t131 -52.5z" />
    <glyph glyph-name="zero.dnom" horiz-adv-x="851" 
d="M393 934q159 0 258 -125t99 -356q0 -228 -98.5 -352t-258.5 -124q-161 0 -258.5 123.5t-97.5 352.5q0 230 98.5 355.5t257.5 125.5zM393 88q211 0 211 365q0 191 -55.5 281.5t-155.5 90.5q-99 0 -155 -91t-56 -281q0 -365 211 -365z" />
    <glyph glyph-name="one.dnom" horiz-adv-x="618" 
d="M184 0v778l-178 -59v98l232 115h81v-932h-135z" />
    <glyph glyph-name="two.dnom" horiz-adv-x="788" 
d="M41 0v109l299 284q113 105 154 163t41 120q0 76 -51.5 114.5t-121.5 38.5q-148 0 -206 -133l-121 23q31 106 116 165.5t216 59.5q138 0 222.5 -71.5t84.5 -196.5q-1 -77 -43 -143t-150 -173l-250 -245h451v-115h-641z" />
    <glyph glyph-name="three.dnom" horiz-adv-x="819" 
d="M82 737q26 102 119.5 151.5t218.5 49.5q142 0 235 -67.5t93 -170.5q0 -148 -179 -208q94 -26 150.5 -87.5t56.5 -150.5q0 -120 -104 -196t-260 -76q-140 0 -227.5 45.5t-125.5 158.5l121 23q66 -117 226 -117q102 0 162.5 45.5t60.5 114.5q0 77 -63 123.5t-152 46.5
l-127 2v108l106 3q91 2 152 46t61 111q0 59 -54.5 98t-133.5 39q-163 0 -217 -114z" />
    <glyph glyph-name="four.dnom" horiz-adv-x="851" 
d="M477 932h135v-582h142v-119h-142v-231h-133v231h-432v121zM186 350h291v391z" />
    <glyph glyph-name="five.dnom" horiz-adv-x="823" 
d="M152 926h569l-8 -113h-451l-24 -287q45 21 69.5 31t65 19.5t82.5 9.5q89 0 159 -30t114 -96t44 -161q0 -148 -99.5 -232.5t-262.5 -84.5q-107 0 -200 41t-151 114l97 74q41 -42 69 -64.5t71.5 -39.5t96.5 -17q108 0 171 57t63 148q0 87 -56 134.5t-145 47.5
q-37 0 -75.5 -11t-63 -23t-60.5 -33q-12 -5 -13 -5t-13 7l-88 51z" />
    <glyph glyph-name="six.dnom" horiz-adv-x="827" 
d="M412 940q116 0 196 -55t99 -144l-113 -24q-31 57 -71 85.5t-109 28.5q-120 0 -182 -109.5t-50 -305.5q26 66 91 103.5t147 37.5q139 0 219 -78.5t80 -199.5q0 -132 -92.5 -212.5t-235.5 -80.5q-168 0 -263 122t-95 338q0 231 101 362.5t278 131.5zM395 453
q-81 0 -140.5 -43.5t-59.5 -110.5q15 -103 65 -156t129 -53q80 0 135.5 51.5t55.5 130.5q0 78 -51.5 129.5t-133.5 51.5z" />
    <glyph glyph-name="seven.dnom" horiz-adv-x="749" 
d="M66 932h663v-135q-123 -166 -230 -407.5t-120 -389.5h-146q23 154 116 384t245 435h-528v113z" />
    <glyph glyph-name="eight.dnom" horiz-adv-x="823" 
d="M391 936q141 0 228.5 -72t87.5 -186q0 -46 -18 -84.5t-45.5 -62.5t-46.5 -36.5t-36 -19.5q4 -2 22 -10t28.5 -13t30 -16.5t32 -22.5t28 -29t24.5 -37.5t15.5 -46t6.5 -56.5q0 -122 -98.5 -193t-262.5 -71q-160 0 -253 63.5t-93 177.5q0 71 43.5 131t130.5 99
q-149 65 -149 211q0 117 90.5 195.5t234.5 78.5zM393 831q-79 0 -132.5 -44t-53.5 -111q0 -104 117 -129l120 -31q38 -9 87 46t49 116q0 68 -51 110.5t-136 42.5zM395 84q95 0 151 41.5t56 110.5q0 53 -29 85.5t-94 51.5l-149 37q-42 12 -100 -41t-58 -127q0 -75 57 -116.5
t166 -41.5z" />
    <glyph glyph-name="nine.dnom" horiz-adv-x="827" 
d="M346 -23q-115 0 -194.5 56.5t-100.5 144.5l117 23q29 -55 68.5 -85t105.5 -30q124 0 190.5 105t57.5 315q-25 -69 -90.5 -109.5t-151.5 -40.5q-142 0 -224.5 80t-82.5 205q0 131 92.5 212t235.5 81q168 0 263 -122.5t95 -340.5q0 -240 -100 -367t-281 -127zM365 465
q79 0 139.5 45.5t60.5 107.5q-15 104 -65 156.5t-129 52.5q-80 0 -133.5 -50.5t-53.5 -129.5q0 -77 50 -129.5t131 -52.5z" />
    <glyph glyph-name="zero.numr" horiz-adv-x="851" 
d="M393 1516q159 0 258 -125.5t99 -356.5q0 -228 -98 -351.5t-259 -123.5q-162 0 -259 123t-97 352q0 230 98.5 356t257.5 126zM393 670q211 0 211 364q0 191 -55.5 282t-155.5 91q-99 0 -155 -91.5t-56 -281.5q0 -364 211 -364z" />
    <glyph glyph-name="one.numr" horiz-adv-x="618" 
d="M184 565v778l-178 -59v98l232 115h81v-932h-135z" />
    <glyph glyph-name="two.numr" horiz-adv-x="788" 
d="M41 571v109l299 285q114 106 154.5 163t40.5 119q0 76 -52 115t-121 39q-148 0 -206 -133l-121 22q31 107 116 166.5t216 59.5q138 0 222.5 -72t84.5 -197q-1 -77 -42.5 -142.5t-150.5 -172.5l-250 -246h451v-115h-641z" />
    <glyph glyph-name="three.numr" horiz-adv-x="819" 
d="M82 1315q26 102 119.5 151.5t218.5 49.5q142 0 235 -67.5t93 -170.5q0 -149 -179 -209q94 -26 150.5 -87.5t56.5 -150.5q0 -120 -104 -196t-260 -76q-140 0 -227.5 46t-125.5 159l121 22q66 -116 226 -116q102 0 162.5 45t60.5 114q0 77 -63 123.5t-152 46.5l-127 2v109
l106 2q91 2 152 46.5t61 111.5q0 59 -54.5 98t-133.5 39q-162 0 -217 -115z" />
    <glyph glyph-name="four.numr" horiz-adv-x="851" 
d="M477 1497h135v-582h142v-118h-142v-232h-133v232h-432v121zM186 915h291v392z" />
    <glyph glyph-name="five.numr" horiz-adv-x="823" 
d="M152 1497h569l-8 -113h-451l-24 -286q44 21 69 31t65.5 19t82.5 9q89 0 159 -30t114 -96t44 -161q0 -148 -99.5 -232.5t-262.5 -84.5q-107 0 -199.5 41t-151.5 115l97 73q61 -63 111 -91.5t126 -28.5q108 0 171 56.5t63 147.5q0 87 -56 135t-145 48q-37 0 -76 -11.5
t-62.5 -23t-60.5 -33.5q-12 -5 -13 -5t-13 7l-88 51z" />
    <glyph glyph-name="six.numr" horiz-adv-x="827" 
d="M412 1524q116 0 196 -55t99 -144l-113 -25q-31 57 -71.5 86t-108.5 29q-119 0 -181.5 -110t-50.5 -306q26 66 91.5 104t146.5 38q139 0 219 -79t80 -200q0 -132 -92.5 -212.5t-235.5 -80.5q-168 0 -263 122.5t-95 338.5q0 231 101 362.5t278 131.5zM395 1036
q-81 0 -140.5 -43t-59.5 -110q15 -103 65 -156t129 -53q80 0 135.5 51.5t55.5 130.5q0 78 -51.5 129t-133.5 51z" />
    <glyph glyph-name="seven.numr" horiz-adv-x="749" 
d="M66 1495h663v-135q-123 -166 -230 -407.5t-120 -389.5h-146q23 154 116 384t245 435h-528v113z" />
    <glyph glyph-name="eight.numr" horiz-adv-x="823" 
d="M391 1516q141 0 228.5 -72.5t87.5 -186.5q0 -46 -18 -84.5t-45.5 -62.5t-46.5 -36t-36 -19q3 -1 21.5 -9.5t28.5 -13.5t30 -17t32 -22.5t28 -29t25 -37.5t15.5 -46t6.5 -57q0 -122 -98.5 -193t-262.5 -71q-160 0 -253 64t-93 178q0 71 43.5 130.5t130.5 98.5
q-149 65 -149 211q0 117 90.5 196t234.5 79zM393 1411q-79 0 -132.5 -44.5t-53.5 -111.5q0 -104 117 -129l120 -30q38 -9 87 45.5t49 115.5q0 68 -51 111t-136 43zM395 664q95 0 151 41t56 110q0 53 -29 85.5t-94 51.5l-149 37q-42 12 -100 -41t-58 -127q0 -75 57 -116
t166 -41z" />
    <glyph glyph-name="nine.numr" horiz-adv-x="827" 
d="M346 561q-115 0 -194.5 56.5t-100.5 144.5l117 22q28 -54 68 -84t106 -30q124 0 190.5 105t57.5 315q-25 -69 -90.5 -109.5t-151.5 -40.5q-142 0 -224.5 80t-82.5 205q0 131 92.5 212t235.5 81q168 0 263 -122.5t95 -340.5q0 -240 -100 -367t-281 -127zM365 1049
q79 0 139.5 45.5t60.5 107.5q-15 104 -65 156.5t-129 52.5q-80 0 -133.5 -50.5t-53.5 -129.5q0 -77 50 -129.5t131 -52.5z" />
    <glyph glyph-name="period.tf" horiz-adv-x="604" 
d="M457 256v-256h-246v256h246z" />
    <glyph glyph-name="comma.tf" horiz-adv-x="604" 
d="M195 -262l114 258l-92 4v240h248v-209l-178 -293h-92z" />
    <glyph glyph-name="bullet.uc" horiz-adv-x="673" 
d="M330 543q-88 0 -148.5 61.5t-60.5 149.5q0 87 61 149t148 62t149 -62t62 -149q0 -88 -61.5 -149.5t-149.5 -61.5z" />
    <glyph glyph-name="caroncomb.alt" horiz-adv-x="0" 
d="M-221 1075q-9 0 -13.5 6.5t-1.5 14.5l62 145q5 13 3 19.5t-13 9.5l-17 2q-12 2 -17 6t-5 16v166q0 21 16 21h131q17 0 17 -17v-192q0 -8 -4 -12l-70 -164q-5 -21 -41 -21h-47z" />
    </font>
</defs>
</svg>
