<?xml version="1.0" standalone="no"?>
<!DOCTYPE svg PUBLIC "-//W3C//DTD SVG 1.1//EN" "http://www.w3.org/Graphics/SVG/1.1/DTD/svg11.dtd" >
<svg xmlns="http://www.w3.org/2000/svg" xmlns:xlink="http://www.w3.org/1999/xlink" version="1.1">
<metadata>
Created by FontForge 20201107 at Thu Jun 12 13:50:21 2025
 By 
copyright missing
</metadata>
<defs>
<font id="PublicSans-MediumItalic" horiz-adv-x="0" >
  <font-face 
    font-family="Public Sans Medium"
    font-weight="500"
    font-style="italic"
    font-stretch="normal"
    units-per-em="2048"
    panose-1="0 0 6 0 0 0 0 0 0 0"
    ascent="1597"
    descent="-451"
    x-height="1057"
    cap-height="1481"
    bbox="-821 -487 2497.06 2281"
    underline-thickness="102"
    underline-position="-204"
    slope="-8"
    unicode-range="U+000D-FB02"
  />
<missing-glyph horiz-adv-x="1370" 
d="M352 1690h985l-276 -2020h-983zM989 -121l232 1712h-713zM422 1470l-232 -1699h713z" />
    <glyph glyph-name="fi" unicode="fi" horiz-adv-x="1320" 
d="M1307 1520l-37 -252h-219l36 252h220zM799 1057l-23 -150h-239l-123 -907h-209l123 907h-211l20 150h213l23 164q17 126 91 193t200 67h202l-20 -148h-148q-61 0 -89 -32t-36 -103l-20 -141h246zM1235 1057l-143 -1057h-207l145 1057h205z" />
    <glyph glyph-name="fl" unicode="fl" horiz-adv-x="1413" 
d="M1147 -8q-70 0 -119 16t-74.5 43.5t-38.5 64.5t-11 79t7 88l168 1237h205l-166 -1215q-23 -151 94 -160l54 -2l-21 -133q-59 -18 -98 -18zM799 1057l-23 -150h-239l-123 -907h-209l123 907h-211l20 150h213l23 164q17 126 91 193t200 67h202l-20 -148h-148q-61 0 -89 -32
t-36 -103l-20 -141h246z" />
    <glyph glyph-name="colon_one_eight_F_colon.liga" unicode="&#x3a;&#x31;&#x38;F&#x3a;" horiz-adv-x="1746" 
d="M176 1556h1462q25 0 25 -24v-1505q0 -12 -7 -19.5t-18 -7.5h-1462q-22 0 -22 27v1505q0 24 22 24zM883 479q69 0 119.5 52t50.5 124q0 92 -74 144q53 47 53 116q0 64 -44 109t-105 45q-65 0 -108.5 -44.5t-43.5 -109.5q0 -63 53 -116q-73 -51 -73 -144q0 -72 50 -124
t122 -52zM629 498v555q0 10 -8 10h-136q-8 0 -8 -10v-52q0 -10 8 -10h72v-493q0 -9 8 -9h56q8 0 8 9zM1360 1001v52q0 10 -8 10h-207q-8 0 -8 -10v-555q0 -9 8 -9h51q12 0 12 9v252h119q8 0 8 8v53q0 8 -8 8h-119v172h144q8 0 8 10zM883 834q-36 0 -60 23t-24 58
q0 37 24.5 61.5t59.5 24.5q34 0 57 -24.5t23 -61.5q0 -35 -23 -58t-57 -23zM883 760q43 0 71.5 -30.5t28.5 -74.5t-28.5 -74t-71.5 -30q-42 0 -72.5 30t-30.5 74t30.5 74.5t72.5 30.5z" />
    <glyph glyph-name="colon_f_l_a_g_two_colon.liga" unicode="&#x3a;flag&#x32;&#x3a;" horiz-adv-x="2516" 
d="M236 1556h2117v-1554h-2117v1554zM2228 1321v109h-1063v-109h1063zM422 1198h125v119h-125v-119zM891 1198h121v119h-121v-119zM659 1077h119v121h-119v-121zM1165 1081h1063v113h-1063v-113zM426 958h121v119h-121v-119zM1012 1077h-121v-119h121v119zM778 958h-119
v-120h119v120zM1165 842h1063v112h-1063v-112zM547 838h-121v-119h121v119zM1012 838h-121v-119h121v119zM1165 602h1063v113h-1063v-113zM2228 475h-1872v-113h1872v113zM358 129h1870v107h-1870v-107z" />
    <glyph glyph-name="colon_f_l_a_g_colon.liga" unicode="&#x3a;flag&#x3a;" horiz-adv-x="2516" 
d="M236 1556h2117v-1554h-2117v1554zM2236 1436h-1884v-838h1884v121h-1073v119h1073v120h-1073v119h1073v121h-1073v119h1073v119zM584 1317v-119h-117v119h117zM1047 1317v-119h-115v119h115zM815 1198v-121h-115v121h115zM584 1077v-119h-117v119h117zM1047 1077v-119
h-115v119h115zM815 958v-120h-115v120h115zM584 838v-119h-117v119h117zM1047 838v-119h-115v119h115zM2236 479h-1884v-121h1884v121zM352 119h1884v121h-1884v-121z" />
    <glyph glyph-name=".notdef" horiz-adv-x="1370" 
d="M352 1690h985l-276 -2020h-983zM989 -121l232 1712h-713zM422 1470l-232 -1699h713z" />
    <glyph glyph-name="uni0000" horiz-adv-x="12" 
 />
    <glyph glyph-name="nonmarkingreturn" horiz-adv-x="682" 
 />
    <glyph glyph-name="CR" unicode="&#xd;" horiz-adv-x="421" 
 />
    <glyph glyph-name="space" unicode=" " horiz-adv-x="489" 
 />
    <glyph glyph-name="exclam" unicode="!" horiz-adv-x="528" 
d="M510 1481l-205 -1090h-135l92 1090h248zM338 254l-35 -254h-242l35 254h242z" />
    <glyph glyph-name="quotedbl" unicode="&#x22;" horiz-adv-x="878" 
d="M528 1481l-129 -496h-116l8 496h237zM907 1481l-131 -496h-114l8 496h237z" />
    <glyph glyph-name="numbersign" unicode="#" horiz-adv-x="1202" 
d="M1178 895h-232l-84 -295h211l-16 -123h-230l-135 -479l-121 16l131 463h-284l-135 -479l-123 16l131 463h-228l15 123h248l84 295h-226l17 123h243l131 465l123 -17l-127 -448h285l131 465l121 -17l-127 -448h213zM737 600l84 295h-284l-84 -295h284z" />
    <glyph glyph-name="dollar" unicode="$" horiz-adv-x="1230" 
d="M1118 375q-24 -171 -158.5 -280t-334.5 -109l-23 -156h-143l22 156q-172 6 -279 67t-184 185l127 108q68 -94 150 -144t209 -59l67 508q-231 72 -318 176.5t-63 264.5q15 109 86.5 200.5t180 144t227.5 52.5l18 135h146l-23 -139q223 -34 365 -199l-117 -110
q-59 74 -121.5 107.5t-148.5 39.5l-66 -494l99 -34q152 -58 227 -166t55 -254zM598 854l64 471q-123 -9 -199.5 -76t-87.5 -162q-7 -67 27.5 -114.5t125.5 -93.5zM645 152q116 4 195 67t90 156q12 85 -38.5 142t-182.5 104z" />
    <glyph glyph-name="percent" unicode="%" horiz-adv-x="1826" 
d="M584 1503q152 0 234 -121.5t56 -314.5q-24 -184 -133.5 -297t-255.5 -113q-155 0 -239 121t-58 314q26 183 137 297t259 114zM1612 1497l-1172 -1505l-145 2l1173 1503h144zM481 774q94 0 157.5 86t82.5 230q19 138 -17 218.5t-122 80.5q-91 0 -155 -89.5t-85 -234.5
q-18 -135 17.5 -213t121.5 -78zM1397 823q153 0 236 -120.5t57 -311.5q-26 -185 -135 -298t-255 -113q-155 0 -237.5 120t-56.5 314q26 183 135.5 296t255.5 113zM1298 94q90 0 154 87.5t86 230.5q18 136 -19 217.5t-120 81.5q-89 0 -155 -90t-85 -232q-18 -133 19 -214
t120 -81z" />
    <glyph glyph-name="ampersand" unicode="&#x26;" horiz-adv-x="1452" 
d="M817 1503q167 0 265.5 -84t78.5 -221q-13 -110 -112.5 -217t-296.5 -199l239 -352q48 61 97.5 158t72.5 217h213q-21 -74 -53 -143t-77 -137t-77.5 -111.5t-87.5 -112.5l209 -301h-246l-112 162q-229 -172 -475 -172q-212 0 -312.5 104t-76.5 279q21 143 118.5 247.5
t288.5 200.5q-80 107 -108 169t-17 145q22 159 154.5 263.5t314.5 104.5zM805 1364q-98 -1 -165.5 -64.5t-78.5 -154.5q-7 -51 10 -89t64 -102l37 -55q152 74 222 143.5t79 147.5q12 84 -37 130t-131 44zM565 692q-116 -59 -189 -138t-79 -175q-7 -101 58 -162t167 -61
q78 0 165.5 35.5t156.5 95.5z" />
    <glyph glyph-name="quotesingle" unicode="'" horiz-adv-x="512" 
d="M508 1481l-131 -496h-115l8 496h238z" />
    <glyph glyph-name="parenleft" unicode="(" horiz-adv-x="628" 
d="M305 -330q-110 235 -152 447.5t-6 462.5q32 236 137 467.5t259 433.5h162q-139 -214 -236.5 -451t-130.5 -475q-30 -233 -7.5 -439t97.5 -446h-123z" />
    <glyph glyph-name="parenright" unicode=")" horiz-adv-x="638" 
d="M-90 -330q138 211 236 449.5t133 476.5q29 232 6 439.5t-99 445.5h125q109 -232 150.5 -445.5t5.5 -464.5q-33 -238 -137 -469.5t-258 -431.5h-162z" />
    <glyph glyph-name="asterisk" unicode="*" horiz-adv-x="827" 
d="M618 768l-122 262l-199 -268l-113 92l224 238l-258 77l63 123l244 -110l22 299h146l-60 -293l271 115l24 -132l-276 -88l157 -235z" />
    <glyph glyph-name="plus" unicode="+" horiz-adv-x="1130" 
d="M1040 825l-22 -159h-356l-52 -371h-157l51 369h-359l23 159h356l51 371h158l-51 -369h358z" />
    <glyph glyph-name="comma" unicode="," horiz-adv-x="499" 
d="M-23 -262l148 258l-88 4l31 240h243l-28 -209l-213 -293h-93z" />
    <glyph glyph-name="hyphen" unicode="-" horiz-adv-x="778" 
d="M653 608l-22 -159l-514 -3l22 162h514z" />
    <glyph glyph-name="period" unicode="." horiz-adv-x="481" 
d="M315 256l-32 -256h-242l35 256h239z" />
    <glyph glyph-name="slash" unicode="/" horiz-adv-x="714" 
d="M-59 -70l712 1551h164l-711 -1551h-165z" />
    <glyph glyph-name="zero" unicode="0" horiz-adv-x="1294" 
d="M780 1501q244 0 369.5 -204t77.5 -560q-24 -178 -84.5 -321.5t-146.5 -238t-194 -145t-229 -50.5q-247 0 -371.5 199t-76.5 554q50 356 231 561t424 205zM600 158q320 0 397 579q81 590 -241 590q-152 0 -256.5 -144.5t-145.5 -445.5q-77 -579 246 -579z" />
    <glyph glyph-name="one" unicode="1" horiz-adv-x="796" 
d="M276 0l166 1237l-284 -94l20 155l383 183h129l-203 -1481h-211z" />
    <glyph glyph-name="two" unicode="2" horiz-adv-x="1183" 
d="M16 0l25 174l520 453q200 168 275 258.5t88 189.5q14 120 -56 182t-176 62q-232 0 -373 -209l-147 86q225 305 559 305q210 0 323.5 -114.5t86.5 -311.5q-18 -123 -95.5 -227.5t-265.5 -274.5l-438 -391h692l-24 -182h-994z" />
    <glyph glyph-name="three" unicode="3" horiz-adv-x="1261" 
d="M244 1282q84 99 226 159t286 60q219 0 342.5 -106.5t103.5 -272.5q-33 -233 -319 -331q138 -42 212 -139t54 -238q-18 -126 -106.5 -226t-223.5 -154t-293 -54q-160 0 -284.5 62.5t-202.5 182.5l168 115q76 -100 158 -142t198 -42q151 0 248 70t111 182q19 125 -69 197.5
t-226 74.5l-197 2l25 172l161 4q140 3 243 74t116 178q12 92 -56.5 155.5t-185.5 63.5q-108 0 -193.5 -41.5t-177.5 -130.5z" />
    <glyph glyph-name="four" unicode="4" horiz-adv-x="1249" 
d="M877 1481h208l-127 -926h222l-25 -172h-219l-53 -383h-207l53 383h-663l22 176zM272 555h478l90 676z" />
    <glyph glyph-name="five" unicode="5" horiz-adv-x="1304" 
d="M367 1481h880l-37 -181h-696l-98 -454q74 34 112 49.5t103.5 31t130.5 15.5q102 0 185.5 -28t143.5 -83t86.5 -144t10.5 -202q-32 -235 -204 -370t-423 -135q-167 0 -300.5 65t-207.5 182l168 117q52 -65 91 -101.5t102 -62.5t143 -26q167 0 276 89.5t128 233.5
q18 138 -57 213.5t-212 75.5q-43 0 -83.5 -8t-87 -27.5t-70.5 -31t-78 -40.5q-8 -4 -12 -5.5t-7.5 -1t-5 1t-6 4.5t-8.5 6l-129 77z" />
    <glyph glyph-name="six" unicode="6" horiz-adv-x="1261" 
d="M819 1499q150 0 248 -72.5t133 -171.5l-188 -69q-37 69 -86 104t-129 35q-179 0 -297.5 -144.5t-143.5 -398.5q150 66 226 87.5t159 21.5q221 0 332 -122t84 -314q-29 -207 -194 -340t-385 -133q-264 0 -385 194.5t-74 540.5q50 366 236 574t464 208zM680 725
q-70 0 -159.5 -25t-147.5 -59q-23 -15 -31.5 -31t-13.5 -51q-6 -56 -3.5 -113.5t23.5 -111t52 -95.5t82.5 -67t115.5 -25q123 0 218 86.5t112 212.5q17 121 -51.5 200t-196.5 79z" />
    <glyph glyph-name="seven" unicode="7" horiz-adv-x="1159" 
d="M205 1481h1026l-31 -217q-224 -261 -440 -645t-268 -619h-230q30 109 89 251t147.5 315.5t218.5 368t278 365.5h-817z" />
    <glyph glyph-name="eight" unicode="8" horiz-adv-x="1257" 
d="M756 1501q218 0 337.5 -113.5t94.5 -295.5q-8 -59 -34.5 -112t-57.5 -87t-69 -63t-61 -41.5t-42 -20.5q7 -3 23 -11q99 -48 145 -100q88 -99 67 -258q-28 -193 -195.5 -306t-420.5 -113q-247 0 -377.5 102t-106.5 285q15 111 96 206t222 156q-214 104 -184 336
q27 185 183.5 310.5t379.5 125.5zM737 1333q-122 0 -212 -69.5t-107 -176.5q-18 -162 151 -208l179 -48q26 -7 65 13.5t75.5 57.5t65.5 89t35 101q14 107 -53.5 174t-198.5 67zM580 147q146 0 240.5 65.5t109.5 174.5q9 85 -28.5 137.5t-133.5 79.5l-221 60q-27 9 -71 -9
t-87 -52.5t-78 -90t-43 -115.5q-17 -119 62.5 -184.5t249.5 -65.5z" />
    <glyph glyph-name="nine" unicode="9" horiz-adv-x="1257" 
d="M496 -18q-155 0 -255 71.5t-137 171.5l189 72q36 -70 88.5 -105.5t138.5 -35.5q186 0 302 161t139 471q-62 -98 -163.5 -148t-226.5 -50q-218 0 -328 122t-83 314q18 138 100 246.5t207 167.5t270 59q261 0 382.5 -195t74.5 -540q-51 -365 -237 -573.5t-461 -208.5z
M633 756q122 0 223.5 71.5t114.5 171.5q0 165 -65 249.5t-187 84.5q-123 0 -219 -85.5t-113 -211.5q-17 -122 51 -201t195 -79z" />
    <glyph glyph-name="colon" unicode=":" horiz-adv-x="487" 
d="M424 1018l-35 -254h-242l35 254h242zM319 260l-32 -254h-240l33 254h239z" />
    <glyph glyph-name="semicolon" unicode=";" horiz-adv-x="522" 
d="M150 760l34 256h242l-35 -256h-241zM-23 -297l164 297h-88l35 254h242l-35 -234l-215 -317h-103z" />
    <glyph glyph-name="less" unicode="&#x3c;" horiz-adv-x="1122" 
d="M958 457l-24 -183l-807 340l27 189l901 346l-27 -199l-649 -243z" />
    <glyph glyph-name="equal" unicode="=" horiz-adv-x="1132" 
d="M1069 1020l-20 -160h-877l23 160h874zM1008 565l-23 -159l-874 -3l22 160z" />
    <glyph glyph-name="greater" unicode="&#x3e;" horiz-adv-x="1122" 
d="M137 465l647 242l-581 249l24 187l809 -346l-26 -187l-901 -344z" />
    <glyph glyph-name="question" unicode="?" horiz-adv-x="1060" 
d="M139 1200q83 144 218 222.5t300 78.5q205 0 316.5 -103t91.5 -265q-9 -68 -39 -128t-71 -106t-89 -90l-96 -88t-89 -90.5t-71 -107t-39 -128.5h-174q10 79 39.5 149t68 123t83.5 102t89 93t81.5 87t64 93.5t33.5 104.5q12 92 -43.5 145.5t-159.5 53.5q-95 0 -188.5 -58
t-134.5 -145zM586 254l-37 -254h-240l35 254h242z" />
    <glyph glyph-name="at" unicode="@" horiz-adv-x="1646" 
d="M1235 -82q-97 -66 -220 -104.5t-257 -38.5q-175 0 -311.5 60t-218.5 163t-115.5 240.5t-12.5 293.5q21 159 96.5 302.5t189.5 251t269.5 170.5t327.5 63q106 0 201.5 -23.5t178.5 -75.5t139.5 -127t81.5 -185t7 -242q-31 -223 -154 -363.5t-284 -140.5q-77 0 -117 29.5
t-55 95.5q-107 -154 -299 -154q-121 0 -191 101.5t-49 263.5q18 122 78.5 224.5t155 164t203.5 61.5q149 0 211 -137l36 84h136l-138 -461q-22 -72 -11.5 -104.5t54.5 -32.5q98 0 177.5 109t103.5 270q15 109 -4 197t-62.5 145.5t-108.5 96t-137.5 55t-154.5 16.5
q-124 0 -233.5 -35t-194 -97.5t-149.5 -148t-105.5 -186t-56.5 -211.5q-18 -132 9 -243t94 -192t180 -126t261 -45q122 0 202 32.5t175 100.5zM604 487q-12 -98 17 -155.5t98 -57.5q93 0 177 84t112 197q29 117 -9 184.5t-114 67.5q-101 0 -181.5 -93t-99.5 -227z" />
    <glyph glyph-name="A" unicode="A" horiz-adv-x="1419" 
d="M4 0l721 1481h229l316 -1481h-211l-80 393h-573l-193 -393h-209zM483 584h467l-139 690z" />
    <glyph glyph-name="B" unicode="B" horiz-adv-x="1355" 
d="M121 0l203 1481h473q265 0 387.5 -99t97.5 -288q-18 -122 -89 -203.5t-220 -136.5q286 -65 250 -355q-29 -202 -180 -300.5t-431 -98.5h-491zM442 836h303q57 0 109 12t100.5 37t81 72t41.5 110q17 119 -63 180.5t-228 61.5h-280zM352 172h285q343 0 377 240
q16 126 -65.5 188t-227.5 62h-303z" />
    <glyph glyph-name="C" unicode="C" horiz-adv-x="1404" 
d="M868 1501q230 0 366 -129t130 -325l-213 -19q-5 134 -80 213.5t-219 79.5q-186 0 -308.5 -144.5t-162.5 -435.5q-38 -288 45.5 -434.5t278.5 -146.5q126 0 223.5 78.5t142.5 210.5l207 -25q-52 -198 -210.5 -321t-397.5 -123q-290 0 -426 205.5t-90 559.5q47 352 237 554
t477 202z" />
    <glyph glyph-name="D" unicode="D" horiz-adv-x="1406" 
d="M324 1481q231 0 352 -2q386 -7 540.5 -190.5t106.5 -540.5q-102 -748 -864 -748h-338zM510 1303l-152 -1125h125q128 0 230 30.5t184.5 96t135.5 176t73 264.5t-1 262.5t-83.5 173t-154.5 93.5t-222 29h-135z" />
    <glyph glyph-name="E" unicode="E" horiz-adv-x="1267" 
d="M121 0l203 1481h921l-26 -185h-713l-64 -460h637l-22 -181h-639l-64 -469l733 -2l-26 -184h-940z" />
    <glyph glyph-name="F" unicode="F" horiz-adv-x="1183" 
d="M324 1481h911l-27 -183h-698l-64 -467h625l-22 -178h-627l-88 -653h-213z" />
    <glyph glyph-name="G" unicode="G" horiz-adv-x="1492" 
d="M666 -20q-285 0 -422.5 202.5t-91.5 552.5q49 355 247.5 560.5t483.5 205.5q109 0 202.5 -37t155 -98t96 -140.5t35.5 -164.5l-225 -35q-8 129 -85.5 210t-205.5 81q-186 0 -313 -147t-166 -425q-39 -293 52 -435t276 -142q81 0 150.5 29t117 77t78.5 102.5t45 112.5
l22 125h-336l23 152l551 -2l-105 -764h-151l28 219q-175 -239 -462 -239z" />
    <glyph glyph-name="H" unicode="H" horiz-adv-x="1441" 
d="M1061 674h-641l-92 -674h-207l203 1481h204l-84 -625h643l84 625h209l-202 -1481h-207z" />
    <glyph glyph-name="I" unicode="I" horiz-adv-x="589" 
d="M324 1481h204l-200 -1481h-207z" />
    <glyph glyph-name="J" unicode="J" horiz-adv-x="782" 
d="M582 360q-26 -195 -108.5 -287.5t-264.5 -92.5q-111 0 -229 43l40 198q3 -1 27.5 -12t38 -15.5t40 -10t52.5 -5.5q97 0 141.5 54.5t63.5 187.5l143 1061h207z" />
    <glyph glyph-name="K" unicode="K" horiz-adv-x="1384" 
d="M1245 0h-233l-330 745l-283 -290l-63 -455h-215l203 1481h213l-101 -750l719 750h248l-549 -580z" />
    <glyph glyph-name="L" unicode="L" horiz-adv-x="1134" 
d="M324 1481h211l-175 -1295h664l-25 -186h-878z" />
    <glyph glyph-name="M" unicode="M" horiz-adv-x="1789" 
d="M121 0l203 1481h290l246 -1192l580 1192h289l-203 -1481h-211l162 1184l-562 -1184h-186l-237 1174l-158 -1174h-213z" />
    <glyph glyph-name="N" unicode="N" horiz-adv-x="1527" 
d="M1260 1481h206l-200 -1481h-187l-596 1139l-155 -1139h-207l203 1481h198l586 -1121z" />
    <glyph glyph-name="O" unicode="O" horiz-adv-x="1507" 
d="M678 -20q-295 0 -435 199t-91 556q49 360 246 563t489 203q291 0 433 -202.5t93 -561.5q-51 -357 -246.5 -557t-488.5 -200zM707 160q194 0 317 141.5t162 433.5q39 296 -45.5 441t-276.5 145q-195 0 -320 -145t-165 -441q-39 -292 46.5 -433.5t281.5 -141.5z" />
    <glyph glyph-name="P" unicode="P" horiz-adv-x="1288" 
d="M121 0l203 1481h493q118 0 211 -27.5t158 -81.5t93.5 -141t12.5 -199q-19 -143 -97.5 -243.5t-197.5 -148.5t-272 -48h-311l-80 -592h-213zM436 766h307q143 0 238 71.5t113 206.5q19 135 -58.5 200t-226.5 65h-299z" />
    <glyph glyph-name="Q" unicode="Q" horiz-adv-x="1482" 
d="M125 737q49 361 244.5 562.5t488.5 201.5t434 -201.5t92 -562.5q-63 -457 -362 -649q24 -77 88 -118t154 -44l-25 -174q-64 0 -116.5 9.5t-110 34t-106 75.5t-85.5 127q-99 -18 -170 -18q-294 0 -435 198t-91 559zM350 733q-73 -573 328 -573q403 0 479 575
q39 294 -44 440t-279 146t-319.5 -146.5t-164.5 -441.5z" />
    <glyph glyph-name="R" unicode="R" horiz-adv-x="1370" 
d="M1165 0h-215l-172 625h-364l-86 -625h-207l203 1481h567q233 0 338 -108.5t78 -303.5q-40 -292 -328 -407zM739 797q152 0 245 67t110 195q17 123 -49 187.5t-199 64.5h-340l-68 -514h301z" />
    <glyph glyph-name="S" unicode="S" horiz-adv-x="1343" 
d="M602 -20q-188 0 -323.5 73t-196.5 209l168 109q67 -112 143 -158.5t221 -46.5q150 0 245.5 51t109.5 164q10 73 -23.5 126.5t-140.5 94.5l-289 103q-150 53 -215 150t-47 222q25 189 181 306.5t386 117.5q157 0 276 -59.5t183 -171.5l-164 -113q-52 79 -125 122.5
t-192 43.5q-136 0 -222 -59t-100 -160q-3 -28 0.5 -52t17.5 -55t51.5 -59t96.5 -49l279 -92q162 -57 227.5 -154t46.5 -237q-28 -198 -187 -312t-407 -114z" />
    <glyph glyph-name="T" unicode="T" horiz-adv-x="1163" 
d="M139 1288l27 193h1100l-27 -193h-434l-174 -1288h-209l176 1288h-459z" />
    <glyph glyph-name="U" unicode="U" horiz-adv-x="1443" 
d="M1266 520q-38 -265 -186.5 -402.5t-426.5 -137.5q-142 0 -240 37t-150.5 108t-69.5 175.5t2 238.5l129 942h213l-131 -969q-26 -175 45.5 -262.5t228.5 -87.5t254 87t123 263l129 969h209z" />
    <glyph glyph-name="V" unicode="V" horiz-adv-x="1302" 
d="M1409 1481l-707 -1481h-245l-297 1481h205l249 -1241l594 1241h201z" />
    <glyph glyph-name="W" unicode="W" horiz-adv-x="1908" 
d="M1993 1481l-621 -1481h-184l-154 1114l-459 -1114h-180l-213 1481h205l156 -1143l463 1143h159l156 -1143l465 1143h207z" />
    <glyph glyph-name="X" unicode="X" horiz-adv-x="1329" 
d="M1206 0h-262l-289 592l-450 -592h-230l586 754l-366 727h260l262 -547l416 547h227l-551 -703z" />
    <glyph glyph-name="Y" unicode="Y" horiz-adv-x="1220" 
d="M1337 1481l-604 -852l-86 -629h-207l86 631l-376 850h221l282 -668l459 668h225z" />
    <glyph glyph-name="Z" unicode="Z" horiz-adv-x="1273" 
d="M33 0l14 113l934 1185h-735l24 183h1028l-12 -109l-946 -1190h778l-24 -182h-1061z" />
    <glyph glyph-name="bracketleft" unicode="[" horiz-adv-x="628" 
d="M68 -330l245 1811h387l-16 -131h-211l-213 -1549h211l-18 -131h-385z" />
    <glyph glyph-name="backslash" unicode="\" horiz-adv-x="710" 
d="M444 -70l-290 1551h149l289 -1551h-148z" />
    <glyph glyph-name="bracketright" unicode="]" horiz-adv-x="653" 
d="M-78 -330l19 131h211l213 1549h-213l20 131h383l-244 -1811h-389z" />
    <glyph glyph-name="asciicircum" unicode="^" horiz-adv-x="958" 
d="M670 260l-148 582l-303 -580h-166l404 750q24 45 57.5 60t63 -4t40.5 -67l201 -741h-149z" />
    <glyph glyph-name="underscore" unicode="_" horiz-adv-x="1058" 
d="M836 -88l-21 -162h-797l21 162h797z" />
    <glyph glyph-name="grave" unicode="`" horiz-adv-x="593" 
d="M205 1503l465 -211l-49 -94l-484 154z" />
    <glyph glyph-name="a" unicode="a" horiz-adv-x="1130" 
d="M362 -20q-152 0 -234 82.5t-62 226.5q23 174 154 256t401 96l172 12l10 72q12 97 -39 154t-150 57q-168 0 -286 -166l-162 33q69 126 194 200t285 74q202 0 290 -89t66 -249l-98 -739h-176l6 164q-144 -184 -371 -184zM446 127q100 0 197 69t107 152l24 187l-141 -11
q-177 -13 -264 -59t-101 -158q-13 -83 37 -131.5t141 -48.5z" />
    <glyph glyph-name="b" unicode="b" horiz-adv-x="1187" 
d="M584 -20q-62 0 -115.5 19.5t-88 50.5t-57 61t-34.5 61l-49 -172h-156l207 1520h207l-84 -609q48 62 141.5 114t208.5 52q134 0 218.5 -71.5t112 -191.5t5.5 -279q-34 -257 -171 -406t-345 -149zM557 129q124 0 213.5 100.5t118.5 307.5q26 192 -30.5 290.5t-184.5 98.5
q-90 0 -164 -51t-121 -148l-43 -319q-17 -121 46.5 -200t164.5 -79z" />
    <glyph glyph-name="c" unicode="c" horiz-adv-x="1110" 
d="M655 1077q157 0 249.5 -84t119.5 -217l-184 -43q-21 47 -31 67t-29.5 51.5t-36.5 44.5t-43.5 23.5t-58.5 10.5q-131 0 -224 -111t-116 -291q-25 -181 39 -291t195 -110q44 0 81 14.5t69.5 44.5t56.5 61.5t55 80.5l168 -45q-65 -136 -185 -219.5t-276 -83.5
q-214 0 -328 151t-80 393q34 245 189 399t370 154z" />
    <glyph glyph-name="d" unicode="d" horiz-adv-x="1165" 
d="M446 -20q-200 0 -293.5 140.5t-58.5 399.5q34 255 167 406t333 151q184 0 278 -149l82 592h207l-207 -1520h-155v166q-21 -29 -50 -56.5t-73 -59t-104.5 -51t-125.5 -19.5zM518 129q106 0 187.5 80.5t95.5 191.5l47 340q-29 96 -82.5 140.5t-134.5 44.5
q-127 0 -213 -100.5t-111 -299.5q-28 -202 31 -299.5t180 -97.5z" />
    <glyph glyph-name="e" unicode="e" horiz-adv-x="1146" 
d="M297 469q-21 -150 42.5 -246t201.5 -96q173 0 276 160l160 -47q-72 -127 -191 -193.5t-264 -66.5q-109 0 -196 37t-144.5 105.5t-81 170t-6.5 225.5q34 250 185.5 404.5t373.5 154.5q217 0 320 -145t69 -389l-12 -74h-733zM319 618h535q20 142 -36 230t-185 88
q-91 0 -160.5 -46.5t-106.5 -116.5t-47 -155z" />
    <glyph glyph-name="f" unicode="f" horiz-adv-x="788" 
d="M799 1057l-23 -150h-239l-123 -907h-209l123 907h-211l20 150h213l23 164q17 126 91 193t200 67h202l-20 -148h-148q-61 0 -89 -32t-36 -103l-20 -141h246z" />
    <glyph glyph-name="g" unicode="g" horiz-adv-x="1218" 
d="M461 -350q-253 0 -378.5 74t-107.5 200q19 131 211 213q28 13 4 23q-88 46 -79 127q8 54 61 95.5t147 61.5q-180 99 -155 295q14 104 83.5 180.5t177 115t241.5 38.5q176 0 276 -84q10 -10 55 12q39 16 124.5 50.5t115.5 46.5l-27 -185q-29 -5 -72.5 -11.5t-66.5 -10.5
q-31 -6 -38.5 -14t-2.5 -29q14 -61 8 -107q-20 -143 -145.5 -240.5t-335.5 -97.5l-70 3q-166 -5 -174 -66q-3 -28 35.5 -38.5t147.5 -18.5q44 -4 219 -15q173 -10 248 -86.5t57 -201.5q-21 -153 -167 -241.5t-392 -88.5zM580 532q114 0 181 53t81 150q14 99 -40 157t-165 58
q-110 0 -181 -58t-85 -157q-12 -96 42.5 -149.5t166.5 -53.5zM514 -219q144 0 217 40.5t84 125.5q9 65 -30 101t-132 42l-272 19q-62 5 -125 -44t-72 -116q-12 -85 72 -126.5t258 -41.5z" />
    <glyph glyph-name="h" unicode="h" horiz-adv-x="1171" 
d="M84 0l207 1520h201l-89 -641q106 103 201.5 150.5t194.5 47.5q150 0 218.5 -82t47.5 -225l-104 -770h-207l98 731q14 89 -25.5 138t-130.5 49q-74 0 -139.5 -34.5t-163.5 -115.5l-102 -768h-207z" />
    <glyph glyph-name="i" unicode="i" horiz-adv-x="534" 
d="M518 1520l-37 -252h-219l37 252h219zM446 1057l-143 -1057h-207l146 1057h204z" />
    <glyph glyph-name="j" unicode="j" horiz-adv-x="536" 
d="M520 1520l-35 -252h-219l35 252h219zM303 -37q-22 -157 -100.5 -230t-239.5 -73q-48 0 -79.5 6t-38.5 12l-7 7l19 139l96 6q70 6 101.5 37t39.5 102l150 1088h207z" />
    <glyph glyph-name="k" unicode="k" horiz-adv-x="1140" 
d="M1006 0h-213l-242 522l-219 -209l-41 -313h-207l207 1520h207l-131 -957l526 494h231l-424 -406z" />
    <glyph glyph-name="l" unicode="l" horiz-adv-x="626" 
d="M358 -8q-70 0 -119 16t-74 43.5t-38.5 64.5t-11 79t7.5 88l168 1237h205l-166 -1215q-23 -151 94 -160l53 -2l-20 -133q-59 -18 -99 -18z" />
    <glyph glyph-name="m" unicode="m" horiz-adv-x="1794" 
d="M82 0l143 1057h201l-25 -176q185 196 383 196q113 0 176 -56.5t76 -152.5q125 122 215 165.5t185 43.5q136 0 203.5 -83t48.5 -226l-105 -768h-207l101 729q11 88 -29.5 138.5t-124.5 50.5q-73 0 -144.5 -40.5t-117.5 -93.5q-25 -36 -29 -61l-96 -723h-207l98 729
q12 89 -28 139t-125 50q-71 0 -138 -36.5t-145 -113.5l-102 -768h-207z" />
    <glyph glyph-name="n" unicode="n" horiz-adv-x="1171" 
d="M82 0l143 1057h201l-23 -176q108 102 198.5 149t195.5 47q146 0 216.5 -82.5t51.5 -222.5l-107 -772h-206l100 731q12 88 -31 137.5t-133 49.5q-75 0 -145 -36.5t-152 -111.5l-102 -770h-207z" />
    <glyph glyph-name="o" unicode="o" horiz-adv-x="1142" 
d="M494 -20q-220 0 -330 150t-76 392q34 248 188 401.5t373 153.5q220 0 329 -153.5t75 -399.5q-31 -242 -184 -393t-375 -151zM520 125q90 0 161 58t110.5 147t54.5 200t-1 200.5t-72 146.5t-146 57q-69 0 -127 -32.5t-98 -89t-66 -128t-37 -154.5q-16 -111 -0.5 -200
t72 -147t149.5 -58z" />
    <glyph glyph-name="p" unicode="p" horiz-adv-x="1183" 
d="M37 -330l188 1387h205l-20 -152q144 172 346 172q186 0 282 -137t58 -397q-36 -269 -174 -416t-336 -147q-195 0 -283 145l-59 -455h-207zM543 129q130 0 223 106t121 306q12 106 1.5 179.5t-45 119t-79.5 66t-102 20.5q-110 0 -188.5 -73.5t-96.5 -184.5l-45 -346
q59 -193 211 -193z" />
    <glyph glyph-name="q" unicode="q" horiz-adv-x="1181" 
d="M924 -330h-207l59 439q-88 -71 -163 -100t-158 -29q-197 0 -295.5 147t-61.5 416q18 132 64 235t111.5 167.5t145 98t169.5 33.5q51 0 96 -12t73.5 -27t57.5 -42t40.5 -41.5t31.5 -41.5l18 144h207zM541 129q156 0 262 193l49 346q14 111 -45 184.5t-170 73.5
q-57 0 -107.5 -21t-95.5 -65t-78 -120.5t-47 -178.5q-28 -199 36.5 -305.5t195.5 -106.5z" />
    <glyph glyph-name="r" unicode="r" horiz-adv-x="782" 
d="M82 0l143 1057h197l-31 -230q65 107 178 178.5t228 71.5l-27 -200q-156 11 -270 -69.5t-129 -186.5l-82 -621h-207z" />
    <glyph glyph-name="s" unicode="s" horiz-adv-x="1081" 
d="M467 -20q-160 0 -272.5 68t-147.5 177l146 76q36 -76 112 -123t184 -47q88 0 171 44.5t92 103.5q6 52 -32.5 87.5t-129.5 61.5l-174 49q-275 75 -248 275q19 146 146 235.5t313 89.5q144 0 239.5 -57t137.5 -154l-144 -73q-31 63 -99 99t-161 36q-91 0 -164 -43.5
t-80 -104.5q-6 -42 26.5 -73t129.5 -62l211 -67q246 -70 223 -279q-22 -143 -156 -231t-323 -88z" />
    <glyph glyph-name="t" unicode="t" horiz-adv-x="845" 
d="M782 907h-241l-84 -635q-10 -75 9 -102t66 -27h154l-18 -131q-49 -18 -170 -18q-162 0 -216 65t-36 201l88 647h-189l21 150h194l74 348h174l-47 -348h244z" />
    <glyph glyph-name="u" unicode="u" horiz-adv-x="1169" 
d="M406 -18q-144 2 -224 86t-61 223l104 768h207l-100 -731q-12 -93 28.5 -144t133.5 -51q80 0 143.5 36t150.5 118l105 772h209l-148 -1057h-159l2 168q-209 -191 -391 -188z" />
    <glyph glyph-name="v" unicode="v" horiz-adv-x="1091" 
d="M1116 1057l-559 -1057h-162l-272 1057h209l196 -789l404 789h184z" />
    <glyph glyph-name="w" unicode="w" horiz-adv-x="1589" 
d="M1604 1057l-467 -1057h-181l-127 756l-325 -756h-185l-184 1057h199l127 -783l336 783h155l131 -783l332 783h189z" />
    <glyph glyph-name="x" unicode="x" horiz-adv-x="1134" 
d="M1001 0h-221l-233 401l-340 -401h-223l469 551l-293 506h223l207 -357l303 357h221l-432 -506z" />
    <glyph glyph-name="y" unicode="y" horiz-adv-x="1087" 
d="M152 -338q-56 0 -97 7t-54 15l-13 7l20 135l107 -4q54 -2 95 7.5t66 30t37.5 37t24.5 40.5l45 92l-260 1028h207l182 -793l399 793h201l-580 -1123q-83 -153 -173 -212.5t-207 -59.5z" />
    <glyph glyph-name="z" unicode="z" horiz-adv-x="1003" 
d="M8 0l17 123l686 795h-537l21 139h786l-16 -123l-684 -793h585l-18 -141h-840z" />
    <glyph glyph-name="braceleft" unicode="{" horiz-adv-x="677" 
d="M403 -330q-118 0 -189 62.5t-56 163.5l59 438q11 79 -38 132.5t-161 53.5l17 121q112 1 176 56.5t76 148.5l59 424q12 99 94 155t197 56h113l-19 -131h-67q-73 0 -106 -29.5t-40 -83.5l-57 -430q-17 -104 -79 -158.5t-142 -64.5q-21 0 -24 -8q0 -1 3 -2q1 -1 2 -1
q84 -7 136 -63.5t38 -171.5l-73 -537h200l-20 -131h-99z" />
    <glyph glyph-name="bar" unicode="|" horiz-adv-x="544" 
d="M233 -330h-155l274 2020h160z" />
    <glyph glyph-name="braceright" unicode="}" horiz-adv-x="696" 
d="M-74 -330l17 131h69q73 0 105.5 29t40.5 84l57 430q17 104 79 158.5t142 64.5q20 0 23 9q1 3 -4 4q-84 5 -136 61.5t-40 171.5l73 537h-198l20 131h98q119 0 189 -62.5t57 -163.5l-61 -438q-12 -78 37 -131t161 -53l-16 -123q-111 -1 -174.5 -56.5t-77.5 -148.5l-57 -424
q-13 -99 -94.5 -155t-196.5 -56h-113z" />
    <glyph glyph-name="asciitilde" unicode="~" horiz-adv-x="1165" 
d="M1067 750q-47 -60 -118 -94.5t-154 -34.5q-54 0 -105 17t-84 38t-78 38t-88 17q-69 0 -124.5 -35.5t-108.5 -93.5l-57 137q57 45 92.5 68.5t89.5 44t108 20.5q53 0 104 -17t85 -38t79 -38t87 -17q124 0 217 125z" />
    <glyph glyph-name="uni00A0" unicode="&#xa0;" horiz-adv-x="421" 
 />
    <glyph glyph-name="exclamdown" unicode="&#xa1;" horiz-adv-x="528" 
d="M422 803h-242l35 254h242zM270 -330h-247l192 996h133z" />
    <glyph glyph-name="cent" unicode="&#xa2;" horiz-adv-x="1110" 
d="M582 354q83 0 142 50.5t122 150.5l166 -45q-49 -101 -130 -175.5t-186 -107.5l-32 -227h-146l29 207q-213 2 -325.5 153t-78.5 392q34 243 186.5 396.5t364.5 156.5l25 176h147l-26 -197q95 -32 153 -106t80 -174l-184 -43q-25 55 -39 82t-38.5 58t-54 43.5t-69.5 12.5
q-131 0 -224 -110.5t-116 -290.5q-25 -181 39 -291.5t195 -110.5z" />
    <glyph glyph-name="sterling" unicode="&#xa3;" horiz-adv-x="1245" 
d="M-41 0l25 178h69q78 0 137.5 66.5t79.5 187.5q15 68 15 270h-201l18 129h177l-5 179q-5 101 19 184t69 139.5t107.5 94.5t132.5 55.5t148 17.5q139 0 245 -66.5t138 -191.5l-175 -57q-43 139 -188 139q-100 0 -174 -64t-84 -169q-3 -22 -4 -46.5t0 -55t2 -48.5t4 -56.5
t4 -51.5h316l-25 -129l-291 -3q0 -159 -16 -237q-24 -172 -137 -285h299q97 0 162.5 39t105.5 127l182 -47q-64 -148 -179.5 -223.5t-272.5 -75.5h-703z" />
    <glyph glyph-name="currency" unicode="&#xa4;" horiz-adv-x="1101" 
d="M530 344q-124 0 -200 70q-20 6 -33 -15l-119 -108l-90 108l141 127q-65 102 -43 228q19 119 86 213q18 15 11 24l-101 115l103 90l100 -119q122 66 236 66q120 0 200 -70q17 -2 33 14l115 105l90 -109l-137 -120q61 -100 43 -230q-16 -116 -88 -213q-16 -8 -9 -18
l97 -113l-101 -90l-94 115q-124 -70 -240 -70zM537 498q103 0 186 77t98 181q12 96 -45.5 165.5t-154.5 69.5q-104 0 -187.5 -77t-97.5 -181q-12 -97 45.5 -166t155.5 -69z" />
    <glyph glyph-name="yen" unicode="&#xa5;" horiz-adv-x="1236" 
d="M1364 1481l-567 -785h268l-16 -127h-301l-25 -176h299l-16 -127h-301l-37 -266h-236l37 264h-303l18 127h303l25 176h-303l16 127h267l-353 787h258l275 -662l463 662h229z" />
    <glyph glyph-name="brokenbar" unicode="&#xa6;" horiz-adv-x="544" 
d="M397 868h-155l110 822h158zM233 -330h-155l110 824h160z" />
    <glyph glyph-name="section" unicode="&#xa7;" horiz-adv-x="983" 
d="M698 410q168 -108 146 -267q-18 -131 -134 -212t-298 -81q-149 0 -258 69.5t-144 176.5l119 58q92 -162 287 -162q95 0 160.5 40t74.5 105q7 51 -26.5 93t-132.5 83l-154 64q-135 59 -189.5 133.5t-39.5 181.5q10 88 70 155t155 107q-93 56 -125 120.5t-21 146.5
q18 121 129.5 200.5t276.5 79.5q132 0 230.5 -64t136.5 -157l-119 -59q-101 139 -238 139q-96 0 -157.5 -38.5t-67.5 -100.5q-3 -44 23 -79.5t98 -68.5l153 -65q149 -64 209 -146t45 -196q-23 -163 -209 -256zM537 492q62 -5 118 38t68 105q6 37 4 69t-31.5 64t-87.5 57
l-114 49q-72 -6 -132.5 -53.5t-72.5 -109.5q-9 -54 14 -90.5t107 -73.5z" />
    <glyph glyph-name="dieresis" unicode="&#xa8;" horiz-adv-x="583" 
d="M358 1481l-32 -232h-195l33 232h194zM678 1481l-31 -232h-196l32 232h195z" />
    <glyph glyph-name="copyright" unicode="&#xa9;" horiz-adv-x="1638" 
d="M748 -20q-152 0 -281.5 61t-215 164t-125 246t-17.5 301q20 153 96 291.5t187.5 238.5t254.5 159.5t293 59.5q201 0 358 -104t233.5 -281.5t49.5 -386.5q-28 -205 -149.5 -377.5t-303 -272t-380.5 -99.5zM750 115q169 0 316.5 77.5t248.5 224t127 335.5q18 136 -12.5 252
t-99 195.5t-170 124t-222.5 44.5q-171 0 -319.5 -79.5t-248 -226t-124.5 -333.5q-19 -139 10.5 -254.5t97 -194t169.5 -122t227 -43.5zM899 1174q119 0 194.5 -68.5t106.5 -171.5l-141 -29q-26 68 -62 105t-92 37q-100 0 -173 -84t-93 -228q-18 -139 30 -216t146 -77
q129 0 229 154l119 -41q-27 -45 -60.5 -83.5t-78.5 -74.5t-103 -57t-122 -21q-171 0 -264.5 121t-67.5 314q25 185 146.5 302.5t285.5 117.5z" />
    <glyph glyph-name="ordfeminine" unicode="&#xaa;" horiz-adv-x="821" 
d="M362 811q-103 0 -154.5 53.5t-39.5 143.5q24 186 350 213l107 8l8 47q17 121 -111 121q-99 0 -168 -97l-131 39q93 158 303 158q136 0 195.5 -59.5t46.5 -165.5l-61 -451h-123l-2 74q-63 -45 -112.5 -64.5t-107.5 -19.5zM410 909q58 0 120.5 45.5t69.5 94.5l12 94l-73 -8
q-220 -18 -232 -140q-5 -39 22.5 -62.5t80.5 -23.5z" />
    <glyph glyph-name="guillemotleft" unicode="&#xab;" horiz-adv-x="927" 
d="M260 502l137 -361h-104l-209 379l303 383h127zM616 502l138 -361h-105l-209 379l303 383h127z" />
    <glyph glyph-name="logicalnot" unicode="&#xac;" horiz-adv-x="1130" 
d="M1040 825l-8 -51h2l-57 -405h-170l39 297l-701 -2l23 159z" />
    <glyph glyph-name="uni00AD" unicode="&#xad;" horiz-adv-x="759" 
d="M676 608l-25 -159l-512 -3l21 162h516z" />
    <glyph glyph-name="registered" unicode="&#xae;" horiz-adv-x="1085" 
d="M545 549q-128 0 -226 63.5t-144.5 172.5t-29.5 239q28 197 182 337t345 140q126 0 224 -64t144.5 -174t28.5 -239q-28 -198 -181.5 -336.5t-342.5 -138.5zM557 647q159 0 272 103t138 274q23 169 -63 273t-245 104q-161 0 -273.5 -103.5t-135.5 -273.5q-25 -171 60 -274
t247 -103zM397 784l62 473h209q77 0 115.5 -32t31.5 -90q-12 -90 -113 -125l58 -226h-98l-46 215h-98l-31 -215h-90zM528 1071h107q76 0 84 57q7 58 -74 58h-104z" />
    <glyph glyph-name="macron" unicode="&#xaf;" horiz-adv-x="686" 
d="M778 1456l-22 -145h-617l21 145h618z" />
    <glyph glyph-name="degree" unicode="&#xb0;" horiz-adv-x="935" 
d="M899 1374q-19 -137 -118 -225t-232 -88q-141 0 -220 94.5t-59 241.5q19 139 117.5 227t233.5 88q139 0 218.5 -95.5t59.5 -242.5zM762 1395q11 83 -28 132.5t-118 49.5q-86 0 -146 -57.5t-71 -147.5q-9 -83 30 -132.5t118 -49.5q84 0 144 57.5t71 147.5z" />
    <glyph glyph-name="plusminus" unicode="&#xb1;" horiz-adv-x="1132" 
d="M702 983h361l-23 -158h-358l-51 -368h-156l51 366h-360l22 160h359l51 371h156zM70 111l22 159h873l-21 -157z" />
    <glyph glyph-name="uni00B2" unicode="&#xb2;" horiz-adv-x="768" 
d="M76 786l14 109l328 285q124 103 171 161t56 121q10 76 -34 115t-111 39q-144 0 -234 -131l-94 55q143 191 352 191q133 0 204.5 -72.5t53.5 -196.5q-12 -77 -60.5 -142.5t-166.5 -172.5l-274 -246h434l-15 -115h-624z" />
    <glyph glyph-name="uni00B3" unicode="&#xb3;" horiz-adv-x="776" 
d="M240 1593q52 62 140.5 100t180.5 38q137 0 215 -67t66 -171q-20 -149 -201 -209q88 -28 133.5 -88t32.5 -149q-17 -120 -127.5 -196.5t-261.5 -76.5q-205 0 -307 154l104 73q47 -64 98.5 -90t126.5 -26q95 0 156 43.5t70 113.5q11 79 -44.5 124.5t-142.5 47.5l-123 3
l15 106l102 2q89 3 153.5 48t71.5 112q8 58 -34.5 97.5t-116.5 39.5q-68 0 -122 -26.5t-112 -82.5z" />
    <glyph glyph-name="acute" unicode="&#xb4;" horiz-adv-x="589" 
d="M643 1507l33 -157l-520 -152l-25 105z" />
    <glyph glyph-name="uni00B5" unicode="&#xb5;" horiz-adv-x="1167" 
d="M35 -330l190 1387h207l-102 -754q-10 -70 34 -117t113 -47q78 0 148.5 41.5t156.5 120.5l107 756h211l-150 -1057h-200l24 164q-99 -88 -169.5 -128.5t-143.5 -47.5q-120 -10 -168 35l-51 -353h-207z" />
    <glyph glyph-name="paragraph" unicode="&#xb6;" horiz-adv-x="1134" 
d="M1112 1356h-121l-209 -1526h-133l207 1526h-100l-211 -1526h-133l106 782q-184 6 -282.5 128t-73.5 307q12 87 51.5 164t102.5 138t156 96.5t202 35.5h454z" />
    <glyph glyph-name="periodcentered" unicode="&#xb7;" horiz-adv-x="456" 
d="M389 864l-31 -237h-243l32 237h242z" />
    <glyph glyph-name="cedilla" unicode="&#xb8;" horiz-adv-x="481" 
d="M332 -276q-10 -69 -77 -108.5t-157 -39.5q-125 0 -196 68l35 59q62 -41 133 -41q54 0 87 22.5t38 61.5q6 41 -27 58.5t-115 19.5q-13 0 -19 5.5t-1 14.5l94 166h104l-59 -123q93 -4 130 -50.5t30 -112.5z" />
    <glyph glyph-name="uni00B9" unicode="&#xb9;" horiz-adv-x="608" 
d="M211 778l104 778l-180 -59l15 98l239 115h82l-127 -932h-133z" />
    <glyph glyph-name="ordmasculine" unicode="&#xba;" horiz-adv-x="806" 
d="M526 1499q148 0 223.5 -99t55.5 -259q-22 -147 -117 -237.5t-237 -90.5q-146 0 -220.5 98t-52.5 252q20 151 116.5 243.5t231.5 92.5zM530 1395q-85 0 -138 -65.5t-68 -182.5q-15 -111 16.5 -170t108.5 -59q85 0 139 65.5t71 185.5q14 107 -19 166.5t-110 59.5z" />
    <glyph glyph-name="guillemotright" unicode="&#xbb;" horiz-adv-x="929" 
d="M301 522l-139 381h106l207 -401l-299 -361h-125zM655 522l-137 381h107l209 -401l-302 -361h-124z" />
    <glyph glyph-name="onequarter" unicode="&#xbc;" horiz-adv-x="1925" 
d="M182 565l105 778l-181 -59l15 98l239 115h82l-127 -932h-133zM1518 1497l-1174 -1505l-145 2l1173 1503h146zM1612 932h131l-80 -584h137l-14 -106h-137l-33 -242h-131l33 242h-418l14 110zM1231 348h301l55 426z" />
    <glyph glyph-name="onehalf" unicode="&#xbd;" horiz-adv-x="1865" 
d="M182 565l105 778l-181 -59l15 98l239 115h82l-127 -932h-133zM1518 1497l-1174 -1505l-145 2l1173 1503h146zM1063 0l14 109l328 284q123 104 170.5 162t56.5 121q8 76 -35 114.5t-110 38.5q-146 0 -236 -131l-92 56q142 190 352 190q133 0 203.5 -72t52.5 -196
q-10 -77 -58.5 -143t-166.5 -173l-276 -245h436l-16 -115h-623z" />
    <glyph glyph-name="threequarters" unicode="&#xbe;" horiz-adv-x="2117" 
d="M209 1378q52 62 140.5 100t180.5 38q137 0 215 -67t66 -171q-20 -149 -201 -209q87 -28 133 -88.5t33 -149.5q-17 -120 -127.5 -196t-261.5 -76q-205 0 -307 154l104 73q46 -63 98.5 -89.5t127.5 -26.5q95 0 155.5 43.5t69.5 113.5q11 79 -44 124.5t-142 47.5l-123 2
l14 107l102 2q89 3 154 48t72 112q8 58 -35 97.5t-117 39.5q-68 0 -121.5 -26t-111.5 -83zM1710 1497l-1173 -1505l-146 2l1174 1503h145zM1804 932h131l-80 -584h140l-17 -106h-137l-33 -242h-131l33 242h-418l17 110zM1423 348h301l58 426z" />
    <glyph glyph-name="questiondown" unicode="&#xbf;" horiz-adv-x="1052" 
d="M461 803l35 254h241l-37 -254h-239zM918 -49q-81 -144 -218 -222.5t-303 -78.5q-212 0 -319 102.5t-86 265.5q9 65 38.5 120t69.5 94t87 75l94 72t87 75.5t69 94.5t38 121h172q-10 -76 -38 -140.5t-65.5 -110t-81 -86t-87 -76.5t-80 -72t-62 -82.5t-32.5 -98.5
q-10 -89 45 -141.5t157 -52.5q96 0 190.5 56.5t135.5 139.5z" />
    <glyph glyph-name="Agrave" unicode="&#xc0;" horiz-adv-x="1419" 
d="M670 1927l465 -211l-50 -94l-483 154zM4 0l721 1481h229l316 -1481h-211l-80 393h-573l-193 -393h-209zM483 584h467l-139 690z" />
    <glyph glyph-name="Aacute" unicode="&#xc1;" horiz-adv-x="1419" 
d="M1126 1931l33 -157l-520 -152l-25 104zM4 0l721 1481h229l316 -1481h-211l-80 393h-573l-193 -393h-209zM483 584h467l-139 690z" />
    <glyph glyph-name="Acircumflex" unicode="&#xc2;" horiz-adv-x="1419" 
d="M1016 1669l-117 141l-170 -141h-186l282 244h146l217 -244h-172zM4 0l721 1481h229l316 -1481h-211l-80 393h-573l-193 -393h-209zM483 584h467l-139 690z" />
    <glyph glyph-name="Atilde" unicode="&#xc3;" horiz-adv-x="1419" 
d="M1204 1759q-84 -47 -178 -47q-58 0 -133.5 26.5t-116.5 26.5q-33 0 -58 -8.5t-52.5 -26t-42.5 -24.5l-31 127q47 31 85 46t89 15q54 0 137 -28.5t123 -28.5q41 0 96 28t64 31zM4 0l721 1481h229l316 -1481h-211l-80 393h-573l-193 -393h-209zM483 584h467l-139 690z" />
    <glyph glyph-name="Adieresis" unicode="&#xc4;" horiz-adv-x="1419" 
d="M846 1905l-33 -232h-195l33 232h195zM1165 1905l-30 -232h-197l33 232h194zM4 0l721 1481h229l316 -1481h-211l-80 393h-573l-193 -393h-209zM483 584h467l-139 690z" />
    <glyph glyph-name="Aring" unicode="&#xc5;" horiz-adv-x="1419" 
d="M1102 1802q-12 -87 -76.5 -143.5t-151.5 -56.5q-90 0 -142.5 65.5t-39.5 161.5q9 81 74.5 136.5t148.5 55.5q91 0 145 -63.5t42 -155.5zM999 1823q6 43 -17 69.5t-64 26.5q-46 0 -86 -34.5t-46 -84.5q-4 -40 21 -69t63 -29q47 0 85 36.5t44 84.5zM4 0l721 1481h229
l316 -1481h-211l-80 393h-573l-193 -393h-209zM483 584h467l-139 690z" />
    <glyph glyph-name="AE" unicode="&#xc6;" horiz-adv-x="2064" 
d="M1882 180l-22 -180h-945l56 399h-477l-269 -399h-221l993 1481h1041l-27 -181h-684l-61 -464h499l-26 -179h-498l-63 -477h704zM997 584l99 733l-496 -733h397z" />
    <glyph glyph-name="Ccedilla" unicode="&#xc7;" horiz-adv-x="1404" 
d="M852 1321q-186 0 -308.5 -144.5t-162.5 -435.5q-38 -288 45.5 -434.5t278.5 -146.5q126 0 223.5 78.5t142.5 210.5l207 -25q-49 -187 -196 -308.5t-367 -133.5l-45 -95q92 -4 129 -51t28 -112q-10 -70 -76 -109t-157 -39q-126 0 -197 68l37 59q62 -41 131 -41
q55 0 88 22.5t39 61.5q5 41 -27.5 59t-115.5 19q-13 0 -18.5 5.5t-2.5 14.5l78 138q-258 23 -376.5 226t-75.5 537q47 352 237 554t477 202q230 0 366 -129t130 -325l-213 -19q-5 134 -80 213.5t-219 79.5z" />
    <glyph glyph-name="Egrave" unicode="&#xc8;" horiz-adv-x="1267" 
d="M618 1927l465 -211l-49 -94l-483 154zM121 0l203 1481h921l-26 -185h-713l-64 -460h637l-22 -181h-639l-64 -469l733 -2l-26 -184h-940z" />
    <glyph glyph-name="Eacute" unicode="&#xc9;" horiz-adv-x="1267" 
d="M1075 1931l33 -157l-520 -152l-25 104zM121 0l203 1481h921l-26 -185h-713l-64 -460h637l-22 -181h-639l-64 -469l733 -2l-26 -184h-940z" />
    <glyph glyph-name="Ecircumflex" unicode="&#xca;" horiz-adv-x="1267" 
d="M965 1669l-117 141l-170 -141h-186l282 244h146l217 -244h-172zM121 0l203 1481h921l-26 -185h-713l-64 -460h637l-22 -181h-639l-64 -469l733 -2l-26 -184h-940z" />
    <glyph glyph-name="Edieresis" unicode="&#xcb;" horiz-adv-x="1267" 
d="M793 1905l-33 -232h-195l33 232h195zM1112 1905l-31 -232h-196l33 232h194zM121 0l203 1481h921l-26 -185h-713l-64 -460h637l-22 -181h-639l-64 -469l733 -2l-26 -184h-940z" />
    <glyph glyph-name="Igrave" unicode="&#xcc;" horiz-adv-x="589" 
d="M248 1927l467 -211l-49 -94l-486 154zM322 1481h206l-200 -1481h-209z" />
    <glyph glyph-name="Iacute" unicode="&#xcd;" horiz-adv-x="589" 
d="M707 1931l32 -157l-518 -152l-26 104zM324 1481h204l-200 -1481h-207z" />
    <glyph glyph-name="Icircumflex" unicode="&#xce;" horiz-adv-x="587" 
d="M600 1669l-119 141l-170 -141h-186l285 244h143l217 -244h-170zM324 1481h206l-200 -1481h-207z" />
    <glyph glyph-name="Idieresis" unicode="&#xcf;" horiz-adv-x="591" 
d="M426 1905l-31 -232h-196l32 232h195zM745 1905l-30 -232h-197l33 232h194zM324 1481h206l-200 -1481h-207z" />
    <glyph glyph-name="Eth" unicode="&#xd0;" horiz-adv-x="1394" 
d="M666 1479q386 -7 540.5 -190.5t106.5 -540.5q-50 -367 -266 -557.5t-601 -190.5h-335l88 655h-109l21 164h110l90 662q232 0 355 -2zM1096 745q20 154 -1 262.5t-83.5 173t-155 93.5t-223.5 29h-133l-66 -484h352l-20 -164h-354l-64 -477h125q128 0 230 30.5t184 96
t135 176t74 264.5z" />
    <glyph glyph-name="Ntilde" unicode="&#xd1;" horiz-adv-x="1527" 
d="M1266 1759q-84 -47 -181 -47q-57 0 -132.5 26.5t-116.5 26.5q-32 0 -56.5 -8.5t-53.5 -26.5t-42 -24l-31 127q89 61 172 61q56 0 139.5 -28.5t122.5 -28.5q41 0 96 28t64 31zM1260 1481h206l-200 -1481h-187l-596 1139l-155 -1139h-207l203 1481h198l586 -1121z" />
    <glyph glyph-name="Ograve" unicode="&#xd2;" horiz-adv-x="1507" 
d="M690 1927l465 -211l-49 -94l-483 154zM678 -20q-295 0 -435 199t-91 556q49 360 246 563t489 203q291 0 433 -202.5t93 -561.5q-51 -357 -246.5 -557t-488.5 -200zM707 160q194 0 317 141.5t162 433.5q39 296 -45.5 441t-276.5 145q-195 0 -320 -145t-165 -441
q-39 -292 46.5 -433.5t281.5 -141.5z" />
    <glyph glyph-name="Oacute" unicode="&#xd3;" horiz-adv-x="1507" 
d="M1147 1931l33 -157l-521 -152l-24 104zM678 -20q-295 0 -435 199t-91 556q49 360 246 563t489 203q291 0 433 -202.5t93 -561.5q-51 -357 -246.5 -557t-488.5 -200zM707 160q194 0 317 141.5t162 433.5q39 296 -45.5 441t-276.5 145q-195 0 -320 -145t-165 -441
q-39 -292 46.5 -433.5t281.5 -141.5z" />
    <glyph glyph-name="Ocircumflex" unicode="&#xd4;" horiz-adv-x="1507" 
d="M1036 1669l-118 141l-168 -141h-187l283 244h145l217 -244h-172zM678 -20q-295 0 -435 199t-91 556q49 360 246 563t489 203q291 0 433 -202.5t93 -561.5q-51 -357 -246.5 -557t-488.5 -200zM707 160q194 0 317 141.5t162 433.5q39 296 -45.5 441t-276.5 145
q-195 0 -320 -145t-165 -441q-39 -292 46.5 -433.5t281.5 -141.5z" />
    <glyph glyph-name="Otilde" unicode="&#xd5;" horiz-adv-x="1507" 
d="M1225 1759q-84 -47 -181 -47q-57 0 -132.5 26.5t-116.5 26.5q-32 0 -57 -8.5t-54 -26.5t-43 -24l-29 127q89 61 172 61q56 0 139 -28.5t121 -28.5q32 0 60 11t56 26.5t46 21.5zM678 -20q-295 0 -435 199t-91 556q49 360 246 563t489 203q291 0 433 -202.5t93 -561.5
q-51 -357 -246.5 -557t-488.5 -200zM707 160q194 0 317 141.5t162 433.5q39 296 -45.5 441t-276.5 145q-195 0 -320 -145t-165 -441q-39 -292 46.5 -433.5t281.5 -141.5z" />
    <glyph glyph-name="Odieresis" unicode="&#xd6;" horiz-adv-x="1507" 
d="M866 1905l-32 -232h-195l33 232h194zM1184 1905l-31 -232h-195l33 232h193zM678 -20q-295 0 -435 199t-91 556q49 360 246 563t489 203q291 0 433 -202.5t93 -561.5q-51 -357 -246.5 -557t-488.5 -200zM707 160q194 0 317 141.5t162 433.5q39 296 -45.5 441t-276.5 145
q-195 0 -320 -145t-165 -441q-39 -292 46.5 -433.5t281.5 -141.5z" />
    <glyph glyph-name="multiply" unicode="&#xd7;" horiz-adv-x="1105" 
d="M1047 1057l-357 -322l266 -317l-118 -107l-267 318l-354 -318l-102 121l354 320l-268 319l118 107l269 -320l352 320z" />
    <glyph glyph-name="Oslash" unicode="&#xd8;" horiz-adv-x="1478" 
d="M82 -29l-100 115l198 186q-85 193 -43 473q49 357 241.5 556.5t481.5 199.5q273 0 412 -178l182 182l100 -114l-204 -191q85 -193 43 -475q-47 -352 -239.5 -548.5t-483.5 -196.5q-271 0 -410 172zM389 453l727 731q-70 141 -262 141q-378 0 -465 -565q-24 -179 0 -307z
M680 158q192 0 306 139.5t157 429.5q24 176 -2 293l-725 -729q72 -133 264 -133z" />
    <glyph glyph-name="Ugrave" unicode="&#xd9;" horiz-adv-x="1443" 
d="M668 1927l465 -211l-50 -94l-483 154zM1266 520q-38 -265 -186.5 -402.5t-426.5 -137.5q-142 0 -240 37t-150.5 108t-69.5 175.5t2 238.5l129 942h213l-131 -969q-26 -175 45.5 -262.5t228.5 -87.5t254 87t123 263l129 969h209z" />
    <glyph glyph-name="Uacute" unicode="&#xda;" horiz-adv-x="1443" 
d="M1126 1931l33 -157l-520 -152l-25 104zM1266 520q-38 -265 -186.5 -402.5t-426.5 -137.5q-142 0 -240 37t-150.5 108t-69.5 175.5t2 238.5l129 942h213l-131 -969q-26 -175 45.5 -262.5t228.5 -87.5t254 87t123 263l129 969h209z" />
    <glyph glyph-name="Ucircumflex" unicode="&#xdb;" horiz-adv-x="1443" 
d="M1016 1669l-119 141l-170 -141h-184l282 244h146l215 -244h-170zM1266 520q-38 -265 -186.5 -402.5t-426.5 -137.5q-142 0 -240 37t-150.5 108t-69.5 175.5t2 238.5l129 942h213l-131 -969q-26 -175 45.5 -262.5t228.5 -87.5t254 87t123 263l129 969h209z" />
    <glyph glyph-name="Udieresis" unicode="&#xdc;" horiz-adv-x="1443" 
d="M846 1905l-33 -232h-195l31 232h197zM1163 1905l-30 -232h-195l33 232h192zM1266 520q-38 -265 -186.5 -402.5t-426.5 -137.5q-142 0 -240 37t-150.5 108t-69.5 175.5t2 238.5l129 942h213l-131 -969q-26 -175 45.5 -262.5t228.5 -87.5t254 87t123 263l129 969h209z" />
    <glyph glyph-name="Yacute" unicode="&#xdd;" horiz-adv-x="1220" 
d="M1034 1931l33 -157l-520 -152l-25 104zM1337 1481l-604 -852l-86 -629h-207l86 631l-376 850h221l282 -668l459 668h225z" />
    <glyph glyph-name="Thorn" unicode="&#xde;" horiz-adv-x="1355" 
d="M1321 752q-28 -209 -180.5 -315.5t-386.5 -106.5h-353l-45 -330h-235l203 1481h235l-41 -303h313q118 0 213 -26t162.5 -77.5t98 -134t16.5 -188.5zM1083 778q17 117 -56.5 170t-221.5 53h-311l-68 -493h313q143 0 234.5 68t109.5 202z" />
    <glyph glyph-name="germandbls" unicode="&#xdf;" horiz-adv-x="1247" 
d="M770 1481q183 0 266.5 -85t65.5 -216q-7 -53 -28.5 -94t-61.5 -73.5t-79.5 -54.5t-105.5 -53q-65 -32 -88.5 -52t-29.5 -54q-3 -26 12 -39t67 -37q64 -24 99 -38.5t91.5 -50t84.5 -73.5t46 -100.5t7 -138.5q-23 -164 -143 -253t-293 -89q-80 0 -150 22.5t-114 60.5
l71 111q93 -49 187 -49q103 0 172 52.5t82 146.5q5 36 -3 65t-22 48t-43 37.5t-53.5 30t-65.5 28.5q-7 3 -10 4q-44 16 -75.5 33t-61.5 45t-42.5 69.5t-6.5 95.5q10 69 53 119.5t129 104.5q5 3 26.5 15.5t28 16.5t25 15.5t26 18.5t21.5 19t20.5 22.5t15 24t13 28.5t6.5 32
q9 65 -30.5 101t-124.5 36q-114 0 -191 -71.5t-94 -200.5l-145 -1061h-205l121 879h-131l22 151h127q14 97 53 178t101.5 142.5t154 96t203.5 34.5z" />
    <glyph glyph-name="agrave" unicode="&#xe0;" horiz-adv-x="1130" 
d="M465 1503l465 -211l-49 -94l-486 154zM362 -20q-152 0 -234 82.5t-62 226.5q23 174 154 256t401 96l172 12l10 72q12 97 -39 154t-150 57q-168 0 -286 -166l-162 33q69 126 194 200t285 74q202 0 290 -89t66 -249l-98 -739h-176l6 164q-144 -184 -371 -184zM446 127
q100 0 197 69t107 152l24 187l-141 -11q-177 -13 -264 -59t-101 -158q-13 -83 37 -131.5t141 -48.5z" />
    <glyph glyph-name="aacute" unicode="&#xe1;" horiz-adv-x="1130" 
d="M920 1507l32 -157l-520 -152l-24 105zM362 -20q-152 0 -234 82.5t-62 226.5q23 174 154 256t401 96l172 12l10 72q12 97 -39 154t-150 57q-168 0 -286 -166l-162 33q69 126 194 200t285 74q202 0 290 -89t66 -249l-98 -739h-176l6 164q-144 -184 -371 -184zM446 127
q100 0 197 69t107 152l24 187l-141 -11q-177 -13 -264 -59t-101 -158q-13 -83 37 -131.5t141 -48.5z" />
    <glyph glyph-name="acircumflex" unicode="&#xe2;" horiz-adv-x="1130" 
d="M811 1245l-119 141l-170 -141h-186l285 244h143l217 -244h-170zM362 -20q-152 0 -234 82.5t-62 226.5q23 174 154 256t401 96l172 12l10 72q12 97 -39 154t-150 57q-168 0 -286 -166l-162 33q69 126 194 200t285 74q202 0 290 -89t66 -249l-98 -739h-176l6 164
q-144 -184 -371 -184zM446 127q100 0 197 69t107 152l24 187l-141 -11q-177 -13 -264 -59t-101 -158q-13 -83 37 -131.5t141 -48.5z" />
    <glyph glyph-name="atilde" unicode="&#xe3;" horiz-adv-x="1130" 
d="M997 1335q-84 -47 -180 -47q-57 0 -133 26.5t-117 26.5q-32 0 -56.5 -8.5t-53 -26.5t-41.5 -24l-31 127q89 61 172 61q56 0 139.5 -28.5t122.5 -28.5q41 0 95.5 28.5t64.5 31.5zM362 -20q-152 0 -234 82.5t-62 226.5q23 174 154 256t401 96l172 12l10 72q12 97 -39 154
t-150 57q-168 0 -286 -166l-162 33q69 126 194 200t285 74q202 0 290 -89t66 -249l-98 -739h-176l6 164q-144 -184 -371 -184zM446 127q100 0 197 69t107 152l24 187l-141 -11q-177 -13 -264 -59t-101 -158q-13 -83 37 -131.5t141 -48.5z" />
    <glyph glyph-name="adieresis" unicode="&#xe4;" horiz-adv-x="1130" 
d="M639 1481l-33 -232h-194l32 232h195zM958 1481l-30 -232h-197l33 232h194zM362 -20q-152 0 -234 82.5t-62 226.5q23 174 154 256t401 96l172 12l10 72q12 97 -39 154t-150 57q-168 0 -286 -166l-162 33q69 126 194 200t285 74q202 0 290 -89t66 -249l-98 -739h-176l6 164
q-144 -184 -371 -184zM446 127q100 0 197 69t107 152l24 187l-141 -11q-177 -13 -264 -59t-101 -158q-13 -83 37 -131.5t141 -48.5z" />
    <glyph glyph-name="aring" unicode="&#xe5;" horiz-adv-x="1130" 
d="M895 1378q-12 -87 -77 -143.5t-150 -56.5q-90 0 -143.5 65.5t-41.5 161.5q10 81 76.5 136.5t149.5 55.5q90 0 144 -63.5t42 -155.5zM793 1399q6 43 -17.5 69.5t-66.5 26.5q-45 0 -84 -34.5t-45 -84.5q-4 -40 21 -69t63 -29q47 0 85 36.5t44 84.5zM362 -20
q-152 0 -234 82.5t-62 226.5q23 174 154 256t401 96l172 12l10 72q12 97 -39 154t-150 57q-168 0 -286 -166l-162 33q69 126 194 200t285 74q202 0 290 -89t66 -249l-98 -739h-176l6 164q-144 -184 -371 -184zM446 127q100 0 197 69t107 152l24 187l-141 -11
q-177 -13 -264 -59t-101 -158q-13 -83 37 -131.5t141 -48.5z" />
    <glyph glyph-name="ae" unicode="&#xe6;" horiz-adv-x="1859" 
d="M981 485q-15 -143 58.5 -248.5t193.5 -105.5q103 0 173 44t144 128l144 -76q-184 -247 -490 -247q-248 0 -373 215q-4 1 -10 -5t-8 -14q-45 -42 -86 -72.5t-97 -61t-124 -46.5t-146 -16q-158 0 -235 84t-57 225q42 307 544 344l187 14l12 80q17 102 -37 155.5t-156 53.5
q-146 0 -274 -168l-184 59q157 250 481 250q272 0 326 -174q143 174 370 174q220 0 333 -156.5t73 -435.5h-762zM1335 936q-124 0 -218.5 -90t-112.5 -236h567q14 133 -54 229.5t-182 96.5zM780 522l-145 -10q-157 -14 -253.5 -73.5t-109.5 -159.5q-11 -75 33 -118t135 -40
q118 5 212 70t106 155z" />
    <glyph glyph-name="ccedilla" unicode="&#xe7;" horiz-adv-x="1110" 
d="M535 127q44 0 81 14.5t69.5 44.5t56.5 61.5t55 80.5l168 -45q-60 -124 -165.5 -205.5t-242.5 -95.5l-45 -95q93 -4 130 -51t28 -112q-10 -69 -76 -108.5t-156 -39.5q-124 0 -198 68l36 59q62 -41 132 -41q55 0 88 22.5t39 61.5q6 41 -27 58.5t-115 19.5q-15 0 -20 5.5
t-2 14.5l78 138q-189 20 -287 168.5t-66 373.5q34 245 189 399t370 154q157 0 249.5 -84t119.5 -217l-184 -43q-21 47 -31 67t-29.5 51.5t-36.5 44.5t-43.5 23.5t-58.5 10.5q-131 0 -224 -111t-116 -291q-25 -181 39 -291t195 -110z" />
    <glyph glyph-name="egrave" unicode="&#xe8;" horiz-adv-x="1146" 
d="M475 1503l465 -211l-49 -94l-485 154zM297 469q-21 -150 42.5 -246t201.5 -96q173 0 276 160l160 -47q-72 -127 -191 -193.5t-264 -66.5q-109 0 -196 37t-144.5 105.5t-81 170t-6.5 225.5q34 250 185.5 404.5t373.5 154.5q217 0 320 -145t69 -389l-12 -74h-733zM319 618
h535q20 142 -36 230t-185 88q-91 0 -160.5 -46.5t-106.5 -116.5t-47 -155z" />
    <glyph glyph-name="eacute" unicode="&#xe9;" horiz-adv-x="1146" 
d="M930 1507l35 -157l-521 -152l-24 105zM297 469q-21 -150 42.5 -246t201.5 -96q173 0 276 160l160 -47q-72 -127 -191 -193.5t-264 -66.5q-109 0 -196 37t-144.5 105.5t-81 170t-6.5 225.5q34 250 185.5 404.5t373.5 154.5q217 0 320 -145t69 -389l-12 -74h-733zM319 618
h535q20 142 -36 230t-185 88q-91 0 -160.5 -46.5t-106.5 -116.5t-47 -155z" />
    <glyph glyph-name="ecircumflex" unicode="&#xea;" horiz-adv-x="1146" 
d="M821 1245l-119 141l-170 -141h-184l283 244h143l217 -244h-170zM297 469q-21 -150 42.5 -246t201.5 -96q173 0 276 160l160 -47q-72 -127 -191 -193.5t-264 -66.5q-109 0 -196 37t-144.5 105.5t-81 170t-6.5 225.5q34 250 185.5 404.5t373.5 154.5q217 0 320 -145
t69 -389l-12 -74h-733zM319 618h535q20 142 -36 230t-185 88q-91 0 -160.5 -46.5t-106.5 -116.5t-47 -155z" />
    <glyph glyph-name="edieresis" unicode="&#xeb;" horiz-adv-x="1146" 
d="M649 1481l-31 -232h-196l33 232h194zM969 1481l-31 -232h-195l31 232h195zM297 469q-21 -150 42.5 -246t201.5 -96q173 0 276 160l160 -47q-72 -127 -191 -193.5t-264 -66.5q-109 0 -196 37t-144.5 105.5t-81 170t-6.5 225.5q34 250 185.5 404.5t373.5 154.5
q217 0 320 -145t69 -389l-12 -74h-733zM319 618h535q20 142 -36 230t-185 88q-91 0 -160.5 -46.5t-106.5 -116.5t-47 -155z" />
    <glyph glyph-name="igrave" unicode="&#xec;" horiz-adv-x="509" 
d="M150 1503l464 -211l-49 -94l-485 154zM426 1057l-145 -1057h-207l145 1057h207z" />
    <glyph glyph-name="iacute" unicode="&#xed;" horiz-adv-x="503" 
d="M608 1507l33 -157l-520 -152l-25 105zM430 1057l-145 -1057h-209l145 1057h209z" />
    <glyph glyph-name="icircumflex" unicode="&#xee;" horiz-adv-x="505" 
d="M508 1245l-119 141l-170 -141h-186l284 244h144l217 -244h-170zM438 1057l-145 -1057h-209l145 1057h209z" />
    <glyph glyph-name="idieresis" unicode="&#xef;" horiz-adv-x="516" 
d="M332 1481l-33 -232h-195l33 232h195zM651 1481l-30 -232h-197l33 232h194zM434 1057l-145 -1057h-209l145 1057h209z" />
    <glyph glyph-name="eth" unicode="&#xf0;" horiz-adv-x="1175" 
d="M1085 518q-32 -243 -186 -390.5t-381 -147.5q-223 0 -343 150.5t-89 383.5q32 229 188 376.5t367 147.5q126 0 197 -71q-57 164 -207 282l-305 -172l-45 86l270 144q-79 46 -205 106l121 86q135 -41 246 -110l207 120l41 -94l-166 -84q184 -143 255 -350.5t35 -462.5z
M526 129q133 0 229.5 108.5t118.5 280.5q23 168 -39 271.5t-188 103.5q-132 0 -230.5 -110.5t-121.5 -284.5q-22 -166 41.5 -267.5t189.5 -101.5z" />
    <glyph glyph-name="ntilde" unicode="&#xf1;" horiz-adv-x="1171" 
d="M1038 1335q-84 -47 -180 -47q-57 0 -133 26.5t-117 26.5q-32 0 -57 -8.5t-53.5 -26t-42.5 -24.5l-29 127q89 61 172 61q56 0 139.5 -28.5t122.5 -28.5q41 0 95.5 28.5t64.5 31.5zM82 0l143 1057h201l-23 -176q108 102 198.5 149t195.5 47q146 0 216.5 -82.5t51.5 -222.5
l-107 -772h-206l100 731q12 88 -31 137.5t-133 49.5q-75 0 -145 -36.5t-152 -111.5l-102 -770h-207z" />
    <glyph glyph-name="ograve" unicode="&#xf2;" horiz-adv-x="1142" 
d="M475 1503l465 -211l-49 -94l-483 154zM494 -20q-220 0 -330 150t-76 392q34 248 188 401.5t373 153.5q220 0 329 -153.5t75 -399.5q-31 -242 -184 -393t-375 -151zM520 125q90 0 161 58t110.5 147t54.5 200t-1 200.5t-72 146.5t-146 57q-69 0 -127 -32.5t-98 -89
t-66 -128t-37 -154.5q-16 -111 -0.5 -200t72 -147t149.5 -58z" />
    <glyph glyph-name="oacute" unicode="&#xf3;" horiz-adv-x="1142" 
d="M932 1507l33 -157l-521 -152l-24 105zM494 -20q-220 0 -330 150t-76 392q34 248 188 401.5t373 153.5q220 0 329 -153.5t75 -399.5q-31 -242 -184 -393t-375 -151zM520 125q90 0 161 58t110.5 147t54.5 200t-1 200.5t-72 146.5t-146 57q-69 0 -127 -32.5t-98 -89
t-66 -128t-37 -154.5q-16 -111 -0.5 -200t72 -147t149.5 -58z" />
    <glyph glyph-name="ocircumflex" unicode="&#xf4;" horiz-adv-x="1142" 
d="M821 1245l-119 141l-170 -141h-184l283 244h145l215 -244h-170zM494 -20q-220 0 -330 150t-76 392q34 248 188 401.5t373 153.5q220 0 329 -153.5t75 -399.5q-31 -242 -184 -393t-375 -151zM520 125q90 0 161 58t110.5 147t54.5 200t-1 200.5t-72 146.5t-146 57
q-69 0 -127 -32.5t-98 -89t-66 -128t-37 -154.5q-16 -111 -0.5 -200t72 -147t149.5 -58z" />
    <glyph glyph-name="otilde" unicode="&#xf5;" horiz-adv-x="1142" 
d="M1010 1335q-84 -47 -181 -47q-57 0 -132.5 26.5t-116.5 26.5q-33 0 -58 -8.5t-53.5 -26.5t-42.5 -24l-29 127q89 61 172 61q56 0 139 -28.5t121 -28.5q43 0 98 29t62 31zM494 -20q-220 0 -330 150t-76 392q34 248 188 401.5t373 153.5q220 0 329 -153.5t75 -399.5
q-31 -242 -184 -393t-375 -151zM520 125q90 0 161 58t110.5 147t54.5 200t-1 200.5t-72 146.5t-146 57q-69 0 -127 -32.5t-98 -89t-66 -128t-37 -154.5q-16 -111 -0.5 -200t72 -147t149.5 -58z" />
    <glyph glyph-name="odieresis" unicode="&#xf6;" horiz-adv-x="1142" 
d="M651 1481l-33 -232h-194l31 232h196zM969 1481l-31 -232h-195l33 232h193zM494 -20q-220 0 -330 150t-76 392q34 248 188 401.5t373 153.5q220 0 329 -153.5t75 -399.5q-31 -242 -184 -393t-375 -151zM520 125q90 0 161 58t110.5 147t54.5 200t-1 200.5t-72 146.5
t-146 57q-69 0 -127 -32.5t-98 -89t-66 -128t-37 -154.5q-16 -111 -0.5 -200t72 -147t149.5 -58z" />
    <glyph glyph-name="divide" unicode="&#xf7;" horiz-adv-x="1132" 
d="M784 1233l-34 -242h-246l35 242h245zM1040 825l-22 -159l-873 -2l23 159zM684 496l-35 -240h-246l33 240h248z" />
    <glyph glyph-name="oslash" unicode="&#xf8;" horiz-adv-x="1173" 
d="M1184 975l-170 -150q46 -124 24 -301q-33 -242 -185.5 -393t-373.5 -151q-193 0 -301 114l-123 -106l-75 92l131 115q-64 137 -37 327q32 248 186 401.5t373 153.5q209 0 323 -143l150 131zM283 530q-15 -96 -2 -186l526 459q-57 131 -197 131q-91 0 -162 -57.5
t-110.5 -146t-54.5 -200.5zM829 530q11 93 7 140l-512 -449q60 -96 180 -96q90 0 160.5 58t110 147t54.5 200z" />
    <glyph glyph-name="ugrave" unicode="&#xf9;" horiz-adv-x="1169" 
d="M469 1503l465 -211l-49 -94l-484 154zM406 -18q-144 2 -224 86t-61 223l104 768h207l-100 -731q-12 -93 28.5 -144t133.5 -51q80 0 143.5 36t150.5 118l105 772h209l-148 -1057h-159l2 168q-209 -191 -391 -188z" />
    <glyph glyph-name="uacute" unicode="&#xfa;" horiz-adv-x="1169" 
d="M926 1507l32 -157l-520 -152l-24 105zM406 -18q-144 2 -224 86t-61 223l104 768h207l-100 -731q-12 -93 28.5 -144t133.5 -51q80 0 143.5 36t150.5 118l105 772h209l-148 -1057h-159l2 168q-209 -191 -391 -188z" />
    <glyph glyph-name="ucircumflex" unicode="&#xfb;" horiz-adv-x="1169" 
d="M815 1245l-117 141l-170 -141h-186l283 244h145l217 -244h-172zM406 -18q-144 2 -224 86t-61 223l104 768h207l-100 -731q-12 -93 28.5 -144t133.5 -51q80 0 143.5 36t150.5 118l105 772h209l-148 -1057h-159l2 168q-209 -191 -391 -188z" />
    <glyph glyph-name="udieresis" unicode="&#xfc;" horiz-adv-x="1169" 
d="M643 1481l-33 -232h-194l33 232h194zM963 1481l-31 -232h-197l33 232h195zM406 -18q-144 2 -224 86t-61 223l104 768h207l-100 -731q-12 -93 28.5 -144t133.5 -51q80 0 143.5 36t150.5 118l105 772h209l-148 -1057h-159l2 168q-209 -191 -391 -188z" />
    <glyph glyph-name="yacute" unicode="&#xfd;" horiz-adv-x="1087" 
d="M922 1507l32 -157l-520 -152l-24 105zM152 -338q-56 0 -97 7t-54 15l-13 7l20 135l107 -4q54 -2 95 7.5t66 30t37.5 37t24.5 40.5l45 92l-260 1028h207l182 -793l399 793h201l-580 -1123q-83 -153 -173 -212.5t-207 -59.5z" />
    <glyph glyph-name="thorn" unicode="&#xfe;" horiz-adv-x="1185" 
d="M39 -330l246 1811h207l-76 -551q28 26 41.5 37t50 36.5t67 38t78 24t97.5 11.5q188 0 286.5 -141t61.5 -406q-36 -264 -171.5 -407t-330.5 -143q-171 0 -291 139l-59 -449h-207zM532 123q143 0 234.5 113.5t124.5 316.5q26 198 -35.5 289.5t-183.5 91.5
q-107 0 -190.5 -68t-94.5 -145l-68 -481q41 -53 98 -85t115 -32z" />
    <glyph glyph-name="ydieresis" unicode="&#xff;" horiz-adv-x="1087" 
d="M639 1481l-31 -232h-196l32 232h195zM958 1481l-30 -232h-197l33 232h194zM152 -338q-56 0 -97 7t-54 15l-13 7l20 135l107 -4q54 -2 95 7.5t66 30t37.5 37t24.5 40.5l45 92l-260 1028h207l182 -793l399 793h201l-580 -1123q-83 -153 -173 -212.5t-207 -59.5z" />
    <glyph glyph-name="Amacron" unicode="&#x100;" horiz-adv-x="1419" 
d="M1214 1880l-22 -145h-617l21 145h618zM4 0l721 1481h229l316 -1481h-211l-80 393h-573l-193 -393h-209zM483 584h467l-139 690z" />
    <glyph glyph-name="amacron" unicode="&#x101;" horiz-adv-x="1130" 
d="M1008 1456l-23 -145h-616l20 145h619zM362 -20q-152 0 -234 82.5t-62 226.5q23 174 154 256t401 96l172 12l10 72q12 97 -39 154t-150 57q-168 0 -286 -166l-162 33q69 126 194 200t285 74q202 0 290 -89t66 -249l-98 -739h-176l6 164q-144 -184 -371 -184zM446 127
q100 0 197 69t107 152l24 187l-141 -11q-177 -13 -264 -59t-101 -158q-13 -83 37 -131.5t141 -48.5z" />
    <glyph glyph-name="Abreve" unicode="&#x102;" horiz-adv-x="1419" 
d="M1217 1903q-44 -99 -137 -164.5t-212 -65.5q-122 0 -197 61t-85 169h133q15 -24 25.5 -37.5t30.5 -33t45.5 -29t56.5 -9.5q107 0 188 109h152zM4 0l721 1481h229l316 -1481h-211l-80 393h-573l-193 -393h-209zM483 584h467l-139 690z" />
    <glyph glyph-name="abreve" unicode="&#x103;" horiz-adv-x="1130" 
d="M1010 1479q-44 -99 -136.5 -164.5t-211.5 -65.5q-123 0 -198.5 61t-84.5 169h131q15 -24 25.5 -37.5t30.5 -33t45.5 -29t56.5 -9.5q109 0 190 109h152zM362 -20q-152 0 -234 82.5t-62 226.5q23 174 154 256t401 96l172 12l10 72q12 97 -39 154t-150 57q-168 0 -286 -166
l-162 33q69 126 194 200t285 74q202 0 290 -89t66 -249l-98 -739h-176l6 164q-144 -184 -371 -184zM446 127q100 0 197 69t107 152l24 187l-141 -11q-177 -13 -264 -59t-101 -158q-13 -83 37 -131.5t141 -48.5z" />
    <glyph glyph-name="Aogonek" unicode="&#x104;" horiz-adv-x="1419" 
d="M1147 -238q14 0 28 1.5t27.5 5t23 6t22.5 8t19 8t18.5 9t14.5 7.5l-16 -118q-83 -31 -186 -31q-100 0 -149 46.5t-38 127.5q6 53 44 94t124 74h-20l-80 393h-573l-193 -393h-209l721 1481h229l316 -1477l14 -2q-106 -42 -155.5 -81.5t-55.5 -90.5q-5 -34 13 -51t61 -17z
M483 584h467l-139 690z" />
    <glyph glyph-name="aogonek" unicode="&#x105;" horiz-adv-x="1140" 
d="M645 1077q202 0 290 -89t66 -249l-98 -733h4q-2 0 -4 -2v-4h-12q-100 -40 -145.5 -78t-51.5 -88q-3 -34 14.5 -50.5t59.5 -16.5q14 0 28 1.5t28 5t23 6t23 8.5t18.5 8t19.5 9l14 7l-17 -119q-91 -31 -186 -31q-99 0 -148.5 47t-38.5 127q8 57 51 99.5t144 78.5l6 150
q-144 -184 -371 -184q-152 0 -234 82.5t-62 226.5q23 174 154 256t401 96l172 12l10 72q12 97 -39 154t-150 57q-168 0 -286 -166l-162 33q69 126 194 200t285 74zM446 127q100 0 197 69t107 152l24 187l-141 -11q-177 -13 -264 -59t-101 -158q-13 -83 37 -131.5t141 -48.5z
" />
    <glyph glyph-name="Cacute" unicode="&#x106;" horiz-adv-x="1404" 
d="M1147 1931l33 -157l-521 -152l-24 104zM868 1501q230 0 366 -129t130 -325l-213 -19q-5 134 -80 213.5t-219 79.5q-186 0 -308.5 -144.5t-162.5 -435.5q-38 -288 45.5 -434.5t278.5 -146.5q126 0 223.5 78.5t142.5 210.5l207 -25q-52 -198 -210.5 -321t-397.5 -123
q-290 0 -426 205.5t-90 559.5q47 352 237 554t477 202z" />
    <glyph glyph-name="cacute" unicode="&#x107;" horiz-adv-x="1110" 
d="M930 1507l35 -157l-521 -152l-24 105zM655 1077q157 0 249.5 -84t119.5 -217l-184 -43q-21 47 -31 67t-29.5 51.5t-36.5 44.5t-43.5 23.5t-58.5 10.5q-131 0 -224 -111t-116 -291q-25 -181 39 -291t195 -110q44 0 81 14.5t69.5 44.5t56.5 61.5t55 80.5l168 -45
q-65 -136 -185 -219.5t-276 -83.5q-214 0 -328 151t-80 393q34 245 189 399t370 154z" />
    <glyph glyph-name="Ccircumflex" unicode="&#x108;" horiz-adv-x="1404" 
d="M1038 1669l-118 141l-170 -141h-187l285 244h143l217 -244h-170zM868 1501q230 0 366 -129t130 -325l-213 -19q-5 134 -80 213.5t-219 79.5q-186 0 -308.5 -144.5t-162.5 -435.5q-38 -288 45.5 -434.5t278.5 -146.5q126 0 223.5 78.5t142.5 210.5l207 -25
q-52 -198 -210.5 -321t-397.5 -123q-290 0 -426 205.5t-90 559.5q47 352 237 554t477 202z" />
    <glyph glyph-name="ccircumflex" unicode="&#x109;" horiz-adv-x="1110" 
d="M821 1245l-119 141l-170 -141h-184l283 244h143l217 -244h-170zM655 1077q157 0 249.5 -84t119.5 -217l-184 -43q-21 47 -31 67t-29.5 51.5t-36.5 44.5t-43.5 23.5t-58.5 10.5q-131 0 -224 -111t-116 -291q-25 -181 39 -291t195 -110q44 0 81 14.5t69.5 44.5t56.5 61.5
t55 80.5l168 -45q-65 -136 -185 -219.5t-276 -83.5q-214 0 -328 151t-80 393q34 245 189 399t370 154z" />
    <glyph glyph-name="Cdotaccent" unicode="&#x10a;" horiz-adv-x="1404" 
d="M1038 1905l-32 -254h-220l35 254h217zM868 1501q230 0 366 -129t130 -325l-213 -19q-5 134 -80 213.5t-219 79.5q-186 0 -308.5 -144.5t-162.5 -435.5q-38 -288 45.5 -434.5t278.5 -146.5q126 0 223.5 78.5t142.5 210.5l207 -25q-52 -198 -210.5 -321t-397.5 -123
q-290 0 -426 205.5t-90 559.5q47 352 237 554t477 202z" />
    <glyph glyph-name="cdotaccent" unicode="&#x10b;" horiz-adv-x="1110" 
d="M823 1481l-35 -254h-219l35 254h219zM655 1077q157 0 249.5 -84t119.5 -217l-184 -43q-21 47 -31 67t-29.5 51.5t-36.5 44.5t-43.5 23.5t-58.5 10.5q-131 0 -224 -111t-116 -291q-25 -181 39 -291t195 -110q44 0 81 14.5t69.5 44.5t56.5 61.5t55 80.5l168 -45
q-65 -136 -185 -219.5t-276 -83.5q-214 0 -328 151t-80 393q34 245 189 399t370 154z" />
    <glyph glyph-name="Ccaron" unicode="&#x10c;" horiz-adv-x="1404" 
d="M1057 1905h198l-278 -244h-146l-221 244h160l131 -140zM868 1501q230 0 366 -129t130 -325l-213 -19q-5 134 -80 213.5t-219 79.5q-186 0 -308.5 -144.5t-162.5 -435.5q-38 -288 45.5 -434.5t278.5 -146.5q126 0 223.5 78.5t142.5 210.5l207 -25q-52 -198 -210.5 -321
t-397.5 -123q-290 0 -426 205.5t-90 559.5q47 352 237 554t477 202z" />
    <glyph glyph-name="ccaron" unicode="&#x10d;" horiz-adv-x="1110" 
d="M842 1481h198l-280 -244h-144l-223 244h160l131 -140zM655 1077q157 0 249.5 -84t119.5 -217l-184 -43q-21 47 -31 67t-29.5 51.5t-36.5 44.5t-43.5 23.5t-58.5 10.5q-131 0 -224 -111t-116 -291q-25 -181 39 -291t195 -110q44 0 81 14.5t69.5 44.5t56.5 61.5t55 80.5
l168 -45q-65 -136 -185 -219.5t-276 -83.5q-214 0 -328 151t-80 393q34 245 189 399t370 154z" />
    <glyph glyph-name="Dcaron" unicode="&#x10e;" horiz-adv-x="1406" 
d="M1010 1905h198l-278 -244h-146l-223 244h162l129 -140zM324 1481q231 0 352 -2q386 -7 540.5 -190.5t106.5 -540.5q-102 -748 -864 -748h-338zM510 1303l-152 -1125h125q128 0 230 30.5t184.5 96t135.5 176t73 264.5t-1 262.5t-83.5 173t-154.5 93.5t-222 29h-135z" />
    <glyph glyph-name="dcaron" unicode="&#x10f;" horiz-adv-x="1253" 
d="M1143 1309h162l-31 -222l-103 -188h-94l-123 -899h-155v166q-21 -29 -50 -56.5t-73 -59t-104.5 -51t-125.5 -19.5q-200 0 -293.5 140.5t-58.5 399.5q34 255 167 406t333 151q184 0 278 -149l82 592h207l-80 -582l86 156l-53 8zM801 401l47 340q-29 96 -82.5 140.5
t-134.5 44.5q-127 0 -213 -100.5t-111 -299.5q-28 -202 31 -299.5t180 -97.5q106 0 187.5 80.5t95.5 191.5z" />
    <glyph glyph-name="Dcroat" unicode="&#x110;" horiz-adv-x="1394" 
d="M666 1479q386 -7 540.5 -190.5t106.5 -540.5q-50 -367 -266 -557.5t-601 -190.5h-335l88 655h-109l21 164h110l90 662q232 0 355 -2zM1096 745q20 154 -1 262.5t-83.5 173t-155 93.5t-223.5 29h-133l-66 -484h352l-20 -164h-354l-64 -477h125q128 0 230 30.5t184 96
t135 176t74 264.5z" />
    <glyph glyph-name="dcroat" unicode="&#x111;" horiz-adv-x="1290" 
d="M1339 1341l-16 -129h-203l-166 -1212h-155v166q-21 -29 -50 -56.5t-73 -59t-104.5 -51t-125.5 -19.5q-200 0 -293.5 140.5t-58.5 399.5q34 255 167 406t333 151q184 0 278 -149l39 284h-217l19 129h217l24 179h207l-24 -179h202zM801 401l47 340q-29 96 -82.5 140.5
t-134.5 44.5q-127 0 -213 -100.5t-111 -299.5q-28 -202 31 -299.5t180 -97.5q106 0 187.5 80.5t95.5 191.5z" />
    <glyph glyph-name="Emacron" unicode="&#x112;" horiz-adv-x="1267" 
d="M1163 1880l-22 -145h-617l21 145h618zM121 0l203 1481h921l-26 -185h-713l-64 -460h637l-22 -181h-639l-64 -469l733 -2l-26 -184h-940z" />
    <glyph glyph-name="emacron" unicode="&#x113;" horiz-adv-x="1146" 
d="M1018 1456l-21 -145h-616l18 145h619zM297 469q-21 -150 42.5 -246t201.5 -96q173 0 276 160l160 -47q-72 -127 -191 -193.5t-264 -66.5q-109 0 -196 37t-144.5 105.5t-81 170t-6.5 225.5q34 250 185.5 404.5t373.5 154.5q217 0 320 -145t69 -389l-12 -74h-733zM319 618
h535q20 142 -36 230t-185 88q-91 0 -160.5 -46.5t-106.5 -116.5t-47 -155z" />
    <glyph glyph-name="Ebreve" unicode="&#x114;" horiz-adv-x="1267" 
d="M1163 1903q-44 -99 -136.5 -164.5t-211.5 -65.5q-122 0 -197.5 61t-85.5 169h134q16 -24 25.5 -37t29.5 -33t45.5 -29.5t56.5 -9.5q108 0 189 109h151zM121 0l203 1481h921l-26 -185h-713l-64 -460h637l-22 -181h-639l-64 -469l733 -2l-26 -184h-940z" />
    <glyph glyph-name="ebreve" unicode="&#x115;" horiz-adv-x="1146" 
d="M1020 1479q-44 -99 -136.5 -164.5t-211.5 -65.5q-123 0 -198 60.5t-85 169.5h133q16 -25 25.5 -37.5t29.5 -32.5t45.5 -29.5t57.5 -9.5q107 0 188 109h152zM297 469q-21 -150 42.5 -246t201.5 -96q173 0 276 160l160 -47q-72 -127 -191 -193.5t-264 -66.5q-109 0 -196 37
t-144.5 105.5t-81 170t-6.5 225.5q34 250 185.5 404.5t373.5 154.5q217 0 320 -145t69 -389l-12 -74h-733zM319 618h535q20 142 -36 230t-185 88q-91 0 -160.5 -46.5t-106.5 -116.5t-47 -155z" />
    <glyph glyph-name="Edotaccent" unicode="&#x116;" horiz-adv-x="1267" 
d="M967 1905l-33 -254h-221l35 254h219zM121 0l203 1481h921l-26 -185h-713l-64 -460h637l-22 -181h-639l-64 -469l733 -2l-26 -184h-940z" />
    <glyph glyph-name="edotaccent" unicode="&#x117;" horiz-adv-x="1146" 
d="M823 1481l-35 -254h-219l35 254h219zM297 469q-21 -150 42.5 -246t201.5 -96q173 0 276 160l160 -47q-72 -127 -191 -193.5t-264 -66.5q-109 0 -196 37t-144.5 105.5t-81 170t-6.5 225.5q34 250 185.5 404.5t373.5 154.5q217 0 320 -145t69 -389l-12 -74h-733zM319 618
h535q20 142 -36 230t-185 88q-91 0 -160.5 -46.5t-106.5 -116.5t-47 -155z" />
    <glyph glyph-name="Eogonek" unicode="&#x118;" horiz-adv-x="1265" 
d="M1219 1296h-713l-64 -460h637l-22 -181h-639l-64 -469l733 -2l-26 -180l14 -2q-108 -42 -157.5 -81.5t-53.5 -90.5q-5 -34 12.5 -51t59.5 -17q14 0 28 1.5t28 5t23 6t23 8.5t18.5 8t19.5 9l14 7l-17 -120q-91 -31 -184 -31q-101 0 -150.5 47t-38.5 129q8 54 45.5 93.5
t126.5 74.5h-751l203 1481h921z" />
    <glyph glyph-name="eogonek" unicode="&#x119;" horiz-adv-x="1146" 
d="M653 1077q217 0 320 -145t69 -389l-12 -74h-733q-21 -150 42.5 -246t201.5 -96q173 0 276 160l160 -47q-84 -147 -232 -215h11q-108 -41 -157.5 -82t-55.5 -93q-5 -33 13 -49t60 -16q14 0 28 1.5t28 5t23 6t23 8.5t18.5 8t19.5 9l14 7l-16 -121q-91 -31 -187 -31
q-100 0 -148.5 47t-37.5 130q10 78 88 127q-200 19 -304 162t-71 374q34 250 185.5 404.5t373.5 154.5zM854 618q20 142 -36 230t-185 88q-91 0 -160.5 -46.5t-106.5 -116.5t-47 -155h535z" />
    <glyph glyph-name="Ecaron" unicode="&#x11a;" horiz-adv-x="1267" 
d="M985 1905h199l-279 -244h-145l-223 244h161l129 -140zM121 0l203 1481h921l-26 -185h-713l-64 -460h637l-22 -181h-639l-64 -469l733 -2l-26 -184h-940z" />
    <glyph glyph-name="ecaron" unicode="&#x11b;" horiz-adv-x="1146" 
d="M842 1481h198l-280 -244h-144l-223 244h160l131 -140zM297 469q-21 -150 42.5 -246t201.5 -96q173 0 276 160l160 -47q-72 -127 -191 -193.5t-264 -66.5q-109 0 -196 37t-144.5 105.5t-81 170t-6.5 225.5q34 250 185.5 404.5t373.5 154.5q217 0 320 -145t69 -389l-12 -74
h-733zM319 618h535q20 142 -36 230t-185 88q-91 0 -160.5 -46.5t-106.5 -116.5t-47 -155z" />
    <glyph glyph-name="Gcircumflex" unicode="&#x11c;" horiz-adv-x="1492" 
d="M1034 1669l-119 141l-170 -141h-184l283 244h145l215 -244h-170zM666 -20q-285 0 -422.5 202.5t-91.5 552.5q49 355 247.5 560.5t483.5 205.5q109 0 202.5 -37t155 -98t96 -140.5t35.5 -164.5l-225 -35q-8 129 -85.5 210t-205.5 81q-186 0 -313 -147t-166 -425
q-39 -293 52 -435t276 -142q81 0 150.5 29t117 77t78.5 102.5t45 112.5l22 125h-336l23 152l551 -2l-105 -764h-151l28 219q-175 -239 -462 -239z" />
    <glyph glyph-name="gcircumflex" unicode="&#x11d;" horiz-adv-x="1218" 
d="M838 1245l-119 141l-170 -141h-187l285 244h144l217 -244h-170zM461 -350q-253 0 -378.5 74t-107.5 200q19 131 211 213q28 13 4 23q-88 46 -79 127q8 54 61 95.5t147 61.5q-180 99 -155 295q14 104 83.5 180.5t177 115t241.5 38.5q176 0 276 -84q10 -10 55 12
q39 16 124.5 50.5t115.5 46.5l-27 -185q-29 -5 -72.5 -11.5t-66.5 -10.5q-31 -6 -38.5 -14t-2.5 -29q14 -61 8 -107q-20 -143 -145.5 -240.5t-335.5 -97.5l-70 3q-166 -5 -174 -66q-3 -28 35.5 -38.5t147.5 -18.5q44 -4 219 -15q173 -10 248 -86.5t57 -201.5
q-21 -153 -167 -241.5t-392 -88.5zM580 532q114 0 181 53t81 150q14 99 -40 157t-165 58q-110 0 -181 -58t-85 -157q-12 -96 42.5 -149.5t166.5 -53.5zM514 -219q144 0 217 40.5t84 125.5q9 65 -30 101t-132 42l-272 19q-62 5 -125 -44t-72 -116q-12 -85 72 -126.5
t258 -41.5z" />
    <glyph glyph-name="Gbreve" unicode="&#x11e;" horiz-adv-x="1492" 
d="M1233 1903q-44 -99 -136.5 -164.5t-211.5 -65.5q-122 0 -197 61t-84 169h131q15 -24 25.5 -37.5t30.5 -33t45.5 -29t56.5 -9.5q111 0 188 109h152zM666 -20q-285 0 -422.5 202.5t-91.5 552.5q49 355 247.5 560.5t483.5 205.5q109 0 202.5 -37t155 -98t96 -140.5
t35.5 -164.5l-225 -35q-8 129 -85.5 210t-205.5 81q-186 0 -313 -147t-166 -425q-39 -293 52 -435t276 -142q81 0 150.5 29t117 77t78.5 102.5t45 112.5l22 125h-336l23 152l551 -2l-105 -764h-151l28 219q-175 -239 -462 -239z" />
    <glyph glyph-name="gbreve" unicode="&#x11f;" horiz-adv-x="1218" 
d="M1036 1479q-44 -99 -136.5 -164.5t-211.5 -65.5q-123 0 -197 60.5t-85 169.5h133q19 -31 33.5 -50t48 -39t75.5 -20q108 0 189 109h151zM461 -350q-253 0 -378.5 74t-107.5 200q19 131 211 213q28 13 4 23q-88 46 -79 127q8 54 61 95.5t147 61.5q-180 99 -155 295
q14 104 83.5 180.5t177 115t241.5 38.5q176 0 276 -84q10 -10 55 12q39 16 124.5 50.5t115.5 46.5l-27 -185q-29 -5 -72.5 -11.5t-66.5 -10.5q-31 -6 -38.5 -14t-2.5 -29q14 -61 8 -107q-20 -143 -145.5 -240.5t-335.5 -97.5l-70 3q-166 -5 -174 -66q-3 -28 35.5 -38.5
t147.5 -18.5q44 -4 219 -15q173 -10 248 -86.5t57 -201.5q-21 -153 -167 -241.5t-392 -88.5zM580 532q114 0 181 53t81 150q14 99 -40 157t-165 58q-110 0 -181 -58t-85 -157q-12 -96 42.5 -149.5t166.5 -53.5zM514 -219q144 0 217 40.5t84 125.5q9 65 -30 101t-132 42
l-272 19q-62 5 -125 -44t-72 -116q-12 -85 72 -126.5t258 -41.5z" />
    <glyph glyph-name="Gdotaccent" unicode="&#x120;" horiz-adv-x="1492" 
d="M1036 1905l-35 -254h-219l35 254h219zM666 -20q-285 0 -422.5 202.5t-91.5 552.5q49 355 247.5 560.5t483.5 205.5q109 0 202.5 -37t155 -98t96 -140.5t35.5 -164.5l-225 -35q-8 129 -85.5 210t-205.5 81q-186 0 -313 -147t-166 -425q-39 -293 52 -435t276 -142
q81 0 150.5 29t117 77t78.5 102.5t45 112.5l22 125h-336l23 152l551 -2l-105 -764h-151l28 219q-175 -239 -462 -239z" />
    <glyph glyph-name="gdotaccent" unicode="&#x121;" horiz-adv-x="1218" 
d="M838 1481l-33 -254h-219l35 254h217zM461 -350q-253 0 -378.5 74t-107.5 200q19 131 211 213q28 13 4 23q-88 46 -79 127q8 54 61 95.5t147 61.5q-180 99 -155 295q14 104 83.5 180.5t177 115t241.5 38.5q176 0 276 -84q10 -10 55 12q39 16 124.5 50.5t115.5 46.5
l-27 -185q-29 -5 -72.5 -11.5t-66.5 -10.5q-31 -6 -38.5 -14t-2.5 -29q14 -61 8 -107q-20 -143 -145.5 -240.5t-335.5 -97.5l-70 3q-166 -5 -174 -66q-3 -28 35.5 -38.5t147.5 -18.5q44 -4 219 -15q173 -10 248 -86.5t57 -201.5q-21 -153 -167 -241.5t-392 -88.5zM580 532
q114 0 181 53t81 150q14 99 -40 157t-165 58q-110 0 -181 -58t-85 -157q-12 -96 42.5 -149.5t166.5 -53.5zM514 -219q144 0 217 40.5t84 125.5q9 65 -30 101t-132 42l-272 19q-62 5 -125 -44t-72 -116q-12 -85 72 -126.5t258 -41.5z" />
    <glyph glyph-name="uni0122" unicode="&#x122;" horiz-adv-x="1492" 
d="M666 -20q-285 0 -422.5 202.5t-91.5 552.5q49 355 247.5 560.5t483.5 205.5q109 0 202.5 -37t155 -98t96 -140.5t35.5 -164.5l-225 -35q-8 129 -85.5 210t-205.5 81q-186 0 -313 -147t-166 -425q-39 -293 52 -435t276 -142q81 0 150.5 29t117 77t78.5 102.5t45 112.5
l22 125h-336l23 152l551 -2l-105 -764h-151l28 219q-175 -239 -462 -239zM514 -479l113 160h-82l26 182h168l-24 -191l-125 -151h-76z" />
    <glyph glyph-name="uni0123" unicode="&#x123;" horiz-adv-x="1218" 
d="M655 1235l27 190l123 152h78l-115 -160h82l-25 -182h-170zM461 -350q-253 0 -378.5 74t-107.5 200q19 131 211 213q28 13 4 23q-88 46 -79 127q8 54 61 95.5t147 61.5q-180 99 -155 295q14 104 83.5 180.5t177 115t241.5 38.5q176 0 276 -84q10 -10 55 12
q39 16 124.5 50.5t115.5 46.5l-27 -185q-29 -5 -72.5 -11.5t-66.5 -10.5q-31 -6 -38.5 -14t-2.5 -29q14 -61 8 -107q-20 -143 -145.5 -240.5t-335.5 -97.5l-70 3q-166 -5 -174 -66q-3 -28 35.5 -38.5t147.5 -18.5q44 -4 219 -15q173 -10 248 -86.5t57 -201.5
q-21 -153 -167 -241.5t-392 -88.5zM580 532q114 0 181 53t81 150q14 99 -40 157t-165 58q-110 0 -181 -58t-85 -157q-12 -96 42.5 -149.5t166.5 -53.5zM514 -219q144 0 217 40.5t84 125.5q9 65 -30 101t-132 42l-272 19q-62 5 -125 -44t-72 -116q-12 -85 72 -126.5
t258 -41.5z" />
    <glyph glyph-name="Hcircumflex" unicode="&#x124;" horiz-adv-x="1441" 
d="M1014 1669l-117 141l-170 -141h-186l282 244h146l217 -244h-172zM1061 674h-641l-92 -674h-207l203 1481h204l-84 -625h643l84 625h209l-202 -1481h-207z" />
    <glyph glyph-name="hcircumflex" unicode="&#x125;" horiz-adv-x="1175" 
d="M84 0l207 1520h201l-89 -641q106 103 201.5 150.5t194.5 47.5q150 0 218.5 -82t47.5 -225l-104 -770h-207l98 731q14 89 -25.5 138t-130.5 49q-74 0 -139.5 -34.5t-163.5 -115.5l-102 -768h-207zM991 1245l-119 141l-170 -141h-186l285 244h143l217 -244h-170z" />
    <glyph glyph-name="Hbar" unicode="&#x126;" horiz-adv-x="1472" 
d="M1552 1266l-18 -131h-250l-156 -1135h-206l90 674h-641l-90 -674h-209l155 1135h-123l15 131h127l28 215h207l-28 -215h643l28 215h207l-28 -215h249zM1040 856l37 279h-643l-37 -279h643z" />
    <glyph glyph-name="hbar" unicode="&#x127;" horiz-adv-x="1132" 
d="M760 1077q150 0 218.5 -82t47.5 -225l-104 -770h-207l98 731q14 89 -25.5 138t-130.5 49q-74 0 -139.5 -34.5t-163.5 -115.5l-102 -768h-207l166 1212h-72l17 129h71l25 179h201l-25 -179h354l-18 -129h-354l-45 -333q107 104 201.5 151t193.5 47z" />
    <glyph glyph-name="Itilde" unicode="&#x128;" horiz-adv-x="581" 
d="M784 1759q-84 -47 -180 -47q-57 0 -133 26.5t-117 26.5q-32 0 -56.5 -8.5t-53 -26.5t-41.5 -24l-31 127q89 61 174 61q55 0 137.5 -28.5t122.5 -28.5q41 0 96 28t64 31zM322 1481h204l-200 -1481h-207z" />
    <glyph glyph-name="itilde" unicode="&#x129;" horiz-adv-x="518" 
d="M690 1335q-80 -47 -178 -47q-57 0 -133 26.5t-117 26.5q-33 0 -58 -8.5t-52.5 -26t-42.5 -24.5l-29 127q89 61 172 61q56 0 138.5 -28.5t121.5 -28.5q43 0 98 29t62 31zM436 1057l-147 -1057h-207l145 1057h209z" />
    <glyph glyph-name="Imacron" unicode="&#x12a;" horiz-adv-x="577" 
d="M793 1880l-21 -145h-616l18 145h619zM319 1481h207l-200 -1481h-207z" />
    <glyph glyph-name="imacron" unicode="&#x12b;" horiz-adv-x="509" 
d="M696 1456l-20 -145h-617l21 145h616zM432 1057l-145 -1057h-209l145 1057h209z" />
    <glyph glyph-name="Ibreve" unicode="&#x12c;" horiz-adv-x="598" 
d="M803 1903q-42 -99 -134.5 -164.5t-211.5 -65.5q-123 0 -198.5 61t-84.5 169h131q15 -24 25.5 -37.5t30.5 -33t45.5 -29t56.5 -9.5q109 0 190 109h150zM330 1481h207l-201 -1481h-207z" />
    <glyph glyph-name="ibreve" unicode="&#x12d;" horiz-adv-x="516" 
d="M711 1479q-42 -99 -134.5 -164.5t-211.5 -65.5q-123 0 -198.5 61t-84.5 169h131q15 -24 25.5 -37.5t30.5 -33t45.5 -29t56.5 -9.5q109 0 190 109h150zM444 1057l-145 -1057h-209l146 1057h208z" />
    <glyph glyph-name="Iogonek" unicode="&#x12e;" horiz-adv-x="579" 
d="M98 -176q-3 -34 14.5 -51t59.5 -17q14 0 28 1.5t28 5t23 6t23 8.5t18.5 8t19.5 9l14 7l-17 -118q-79 -31 -186 -31q-99 0 -148 47t-38 127q8 56 49 98t137 76h-19l203 1481h205l-201 -1481h-37l37 -4q-108 -41 -157.5 -81t-55.5 -91z" />
    <glyph glyph-name="iogonek" unicode="&#x12f;" horiz-adv-x="514" 
d="M274 1481h220l-33 -254h-221zM268 0q-102 -40 -149 -78.5t-53 -89.5q-3 -35 14 -51.5t59 -16.5q17 0 34 2.5t29 5.5t29 9.5t22.5 9t22 11t17.5 8.5l-17 -119q-91 -31 -186 -31q-99 0 -148 47t-38 127q7 52 44 92.5t122 73.5l145 1057h209l-145 -1057h-11z" />
    <glyph glyph-name="Idotaccent" unicode="&#x130;" horiz-adv-x="589" 
d="M600 1905l-33 -254h-221l35 254h219zM324 1481h204l-200 -1481h-207z" />
    <glyph glyph-name="dotlessi" unicode="&#x131;" horiz-adv-x="524" 
d="M440 1057l-145 -1057h-207l143 1057h209z" />
    <glyph glyph-name="Jcircumflex" unicode="&#x134;" horiz-adv-x="759" 
d="M760 1669l-119 141l-170 -141h-186l284 244h144l217 -244h-170zM582 360q-14 -96 -38 -163t-66 -117.5t-108.5 -75t-160.5 -24.5q-114 0 -232 43l41 198q7 -3 29 -12.5t37 -15t40.5 -10.5t51.5 -5q98 0 142.5 54.5t62.5 187.5l145 1061h207z" />
    <glyph glyph-name="jcircumflex" unicode="&#x135;" horiz-adv-x="497" 
d="M487 1245l-118 141l-170 -141h-185l283 244h145l215 -244h-170zM293 -43q-22 -157 -97 -227t-233 -70q-50 0 -83.5 7t-41.5 13l-8 7l20 139l101 6q68 6 98.5 42.5t40.5 107.5l146 1075h208z" />
    <glyph glyph-name="uni0136" unicode="&#x136;" horiz-adv-x="1384" 
d="M1245 0h-233l-330 745l-283 -290l-63 -455h-215l203 1481h213l-101 -750l719 750h248l-549 -580zM463 -479l115 160h-84l26 182h170l-24 -191l-125 -151h-78z" />
    <glyph glyph-name="uni0137" unicode="&#x137;" horiz-adv-x="1140" 
d="M1006 0h-213l-242 522l-219 -209l-41 -313h-207l207 1520h207l-131 -957l526 494h231l-424 -406zM350 -479l115 160h-84l27 182h167l-24 -191l-125 -151h-76z" />
    <glyph glyph-name="kgreenlandic" unicode="&#x138;" horiz-adv-x="1159" 
d="M1024 0h-229l-213 532l-254 -227l-41 -305h-207l145 1057h207l-70 -520l547 520h238l-412 -375z" />
    <glyph glyph-name="Lacute" unicode="&#x139;" horiz-adv-x="1128" 
d="M694 1931l33 -157l-520 -152l-25 104zM315 1481h213l-176 -1295h666l-25 -186h-878z" />
    <glyph glyph-name="lacute" unicode="&#x13a;" horiz-adv-x="620" 
d="M676 2013l35 -158l-521 -151l-24 104zM354 -8q-86 0 -140.5 24.5t-74.5 65t-25.5 93t5.5 108.5l168 1237h205l-166 -1215q-20 -151 94 -160l53 -2l-18 -133q-63 -18 -101 -18z" />
    <glyph glyph-name="uni013B" unicode="&#x13b;" horiz-adv-x="1134" 
d="M324 1481h211l-175 -1295h664l-25 -186h-878zM395 -479l113 160h-82l27 182h168l-25 -191l-125 -151h-76z" />
    <glyph glyph-name="uni013C" unicode="&#x13c;" horiz-adv-x="634" 
d="M354 -8q-69 0 -118 16t-73.5 43.5t-38 64.5t-11 79t7.5 88l168 1237h205l-166 -1215q-23 -151 94 -160l53 -2l-20 -133q-59 -18 -101 -18zM20 -479l115 160h-82l27 182h168l-25 -191l-125 -151h-78z" />
    <glyph glyph-name="Lcaron" unicode="&#x13d;" horiz-adv-x="1134" 
d="M324 1481h211l-175 -1295h664l-25 -186h-878zM793 1073l106 193l-53 8l28 207h162l-30 -221l-103 -187h-110z" />
    <glyph glyph-name="lcaron" unicode="&#x13e;" horiz-adv-x="698" 
d="M358 -8q-70 0 -119 16t-74 43.5t-38.5 64.5t-11 79t7.5 88l168 1237h205l-166 -1215q-23 -151 94 -160l53 -2l-20 -133q-59 -18 -99 -18zM537 1108l106 192l-53 9l26 207h162l-28 -222l-103 -186h-110z" />
    <glyph glyph-name="Ldot" unicode="&#x13f;" horiz-adv-x="1146" 
d="M324 1481h211l-175 -1295h664l-25 -186h-878zM1057 928l-31 -238h-244l33 238h242z" />
    <glyph glyph-name="ldot" unicode="&#x140;" horiz-adv-x="661" 
d="M358 -8q-70 0 -119 16t-74 43.5t-38.5 64.5t-11 79t7.5 88l168 1237h205l-166 -1215q-23 -151 94 -160l53 -2l-20 -133q-59 -18 -99 -18zM709 700l-33 -237h-244l33 237h244z" />
    <glyph glyph-name="Lslash" unicode="&#x141;" horiz-adv-x="1089" 
d="M313 186h666l-25 -186h-878l86 635l-109 -29l25 182l108 29l90 664h213l-81 -607l389 101l-25 -174l-389 -105z" />
    <glyph glyph-name="lslash" unicode="&#x142;" horiz-adv-x="571" 
d="M403 612l-41 -307q-23 -151 93 -160l55 -2l-21 -133q-59 -18 -100 -18q-69 0 -117.5 16t-73.5 43.5t-38.5 64.5t-11.5 79t6 88l22 159l-170 -125l29 203l168 123l121 877h202l-96 -713l191 139l-27 -192z" />
    <glyph glyph-name="Nacute" unicode="&#x143;" horiz-adv-x="1527" 
d="M1188 1931l33 -157l-521 -152l-24 104zM1260 1481h206l-200 -1481h-187l-596 1139l-155 -1139h-207l203 1481h198l586 -1121z" />
    <glyph glyph-name="nacute" unicode="&#x144;" horiz-adv-x="1171" 
d="M961 1507l32 -157l-520 -152l-24 105zM82 0l143 1057h201l-23 -176q108 102 198.5 149t195.5 47q146 0 216.5 -82.5t51.5 -222.5l-107 -772h-206l100 731q12 88 -31 137.5t-133 49.5q-75 0 -145 -36.5t-152 -111.5l-102 -770h-207z" />
    <glyph glyph-name="uni0145" unicode="&#x145;" horiz-adv-x="1527" 
d="M1260 1481h206l-200 -1481h-187l-596 1139l-155 -1139h-207l203 1481h198l586 -1121zM508 -479l115 160h-82l26 182h168l-24 -191l-125 -151h-78z" />
    <glyph glyph-name="uni0146" unicode="&#x146;" horiz-adv-x="1171" 
d="M82 0l143 1057h201l-23 -176q108 102 198.5 149t195.5 47q146 0 216.5 -82.5t51.5 -222.5l-107 -772h-206l100 731q12 88 -31 137.5t-133 49.5q-75 0 -145 -36.5t-152 -111.5l-102 -770h-207zM373 -479l112 160h-82l27 182h168l-25 -191l-124 -151h-76z" />
    <glyph glyph-name="Ncaron" unicode="&#x147;" horiz-adv-x="1527" 
d="M1098 1905h198l-278 -244h-146l-223 244h160l131 -140zM1260 1481h206l-200 -1481h-187l-596 1139l-155 -1139h-207l203 1481h198l586 -1121z" />
    <glyph glyph-name="ncaron" unicode="&#x148;" horiz-adv-x="1171" 
d="M870 1481h199l-278 -244h-146l-223 244h160l131 -140zM82 0l143 1057h201l-23 -176q108 102 198.5 149t195.5 47q146 0 216.5 -82.5t51.5 -222.5l-107 -772h-206l100 731q12 88 -31 137.5t-133 49.5q-75 0 -145 -36.5t-152 -111.5l-102 -770h-207z" />
    <glyph glyph-name="Eng" unicode="&#x14a;" horiz-adv-x="1511" 
d="M1450 1481l-205 -1504q-23 -168 -111.5 -247.5t-256.5 -79.5q-112 0 -234 43l39 164q119 -29 174 -29q80 0 121.5 40.5t54.5 135.5l10 70l-571 1034l-149 -1108h-201l203 1481h200l586 -1059l143 1059h197z" />
    <glyph glyph-name="eng" unicode="&#x14b;" horiz-adv-x="1187" 
d="M788 1077q146 0 221 -86t56 -225l-109 -797q-21 -152 -106.5 -230.5t-222.5 -78.5q-45 0 -75.5 6t-37.5 12l-8 7l20 137l99 10q58 6 87.5 42t37.5 106l100 737q14 98 -23.5 151.5t-124.5 53.5q-123 0 -305 -160l-106 -762h-209l147 1057h199l-20 -148q115 92 202 130
t178 38z" />
    <glyph glyph-name="Omacron" unicode="&#x14c;" horiz-adv-x="1507" 
d="M1233 1880l-21 -145h-616l18 145h619zM678 -20q-295 0 -435 199t-91 556q49 360 246 563t489 203q291 0 433 -202.5t93 -561.5q-51 -357 -246.5 -557t-488.5 -200zM707 160q194 0 317 141.5t162 433.5q39 296 -45.5 441t-276.5 145q-195 0 -320 -145t-165 -441
q-39 -292 46.5 -433.5t281.5 -141.5z" />
    <glyph glyph-name="omacron" unicode="&#x14d;" horiz-adv-x="1142" 
d="M1018 1456l-21 -145h-616l18 145h619zM494 -20q-220 0 -330 150t-76 392q34 248 188 401.5t373 153.5q220 0 329 -153.5t75 -399.5q-31 -242 -184 -393t-375 -151zM520 125q90 0 161 58t110.5 147t54.5 200t-1 200.5t-72 146.5t-146 57q-69 0 -127 -32.5t-98 -89
t-66 -128t-37 -154.5q-16 -111 -0.5 -200t72 -147t149.5 -58z" />
    <glyph glyph-name="Obreve" unicode="&#x14e;" horiz-adv-x="1507" 
d="M1235 1903q-44 -99 -136 -164.5t-210 -65.5q-123 0 -198.5 61t-84.5 169h131q15 -24 25.5 -37.5t30.5 -33t45.5 -29t56.5 -9.5q111 0 188 109h152zM678 -20q-295 0 -435 199t-91 556q49 360 246 563t489 203q291 0 433 -202.5t93 -561.5q-51 -357 -246.5 -557
t-488.5 -200zM707 160q194 0 317 141.5t162 433.5q39 296 -45.5 441t-276.5 145q-195 0 -320 -145t-165 -441q-39 -292 46.5 -433.5t281.5 -141.5z" />
    <glyph glyph-name="obreve" unicode="&#x14f;" horiz-adv-x="1142" 
d="M1020 1479q-44 -99 -136.5 -164.5t-211.5 -65.5q-122 0 -197.5 61t-85.5 169h133q15 -24 25.5 -37.5t30.5 -33t45.5 -29t56.5 -9.5q107 0 188 109h152zM494 -20q-220 0 -330 150t-76 392q34 248 188 401.5t373 153.5q220 0 329 -153.5t75 -399.5q-31 -242 -184 -393
t-375 -151zM520 125q90 0 161 58t110.5 147t54.5 200t-1 200.5t-72 146.5t-146 57q-69 0 -127 -32.5t-98 -89t-66 -128t-37 -154.5q-16 -111 -0.5 -200t72 -147t149.5 -58z" />
    <glyph glyph-name="Ohungarumlaut" unicode="&#x150;" horiz-adv-x="1507" 
d="M901 1931l90 -133l-334 -235l-65 88zM1237 1931l90 -133l-334 -235l-65 88zM678 -20q-295 0 -435 199t-91 556q49 360 246 563t489 203q291 0 433 -202.5t93 -561.5q-51 -357 -246.5 -557t-488.5 -200zM707 160q194 0 317 141.5t162 433.5q39 296 -45.5 441t-276.5 145
q-195 0 -320 -145t-165 -441q-39 -292 46.5 -433.5t281.5 -141.5z" />
    <glyph glyph-name="ohungarumlaut" unicode="&#x151;" horiz-adv-x="1142" 
d="M684 1507l92 -133l-334 -235l-65 88zM1022 1507l88 -133l-332 -235l-65 88zM494 -20q-220 0 -330 150t-76 392q34 248 188 401.5t373 153.5q220 0 329 -153.5t75 -399.5q-31 -242 -184 -393t-375 -151zM520 125q90 0 161 58t110.5 147t54.5 200t-1 200.5t-72 146.5
t-146 57q-69 0 -127 -32.5t-98 -89t-66 -128t-37 -154.5q-16 -111 -0.5 -200t72 -147t149.5 -58z" />
    <glyph glyph-name="OE" unicode="&#x152;" horiz-adv-x="2238" 
d="M2056 180l-22 -180h-897l-17 164q-156 -184 -424 -184q-305 0 -448 201.5t-94 563.5q49 358 245.5 557t497.5 199q267 0 373 -190l55 170h885l-27 -181h-706l-62 -464h510l-27 -179h-507l-64 -477h729zM698 156q195 0 309 144t154 443q41 300 -30 442t-259 142
q-394 0 -475 -604q-40 -293 34 -430t267 -137z" />
    <glyph glyph-name="oe" unicode="&#x153;" horiz-adv-x="1957" 
d="M520 -20q-227 0 -345.5 153.5t-84.5 401.5q34 243 190.5 392.5t374.5 149.5q126 0 217 -55.5t134 -155.5q18 -16 38 17q72 91 174 142.5t214 51.5q223 0 333.5 -158t75.5 -434h-762q-18 -151 56 -251.5t196 -100.5q180 0 316 170l147 -76q-104 -133 -219.5 -190
t-269.5 -57q-122 0 -214 53.5t-137 148.5q-19 19 -39 -20q-76 -87 -177.5 -134.5t-217.5 -47.5zM1438 936q-125 0 -221 -92.5t-113 -233.5l553 4q9 83 -13 156t-76 119.5t-130 46.5zM526 129q138 0 232.5 109t120.5 301q26 185 -35 288t-193 103q-137 0 -231.5 -110
t-120.5 -304q-25 -184 35 -285.5t192 -101.5z" />
    <glyph glyph-name="Racute" unicode="&#x154;" horiz-adv-x="1370" 
d="M1075 1931l33 -157l-518 -152l-25 104zM1165 0h-215l-172 625h-364l-86 -625h-207l203 1481h567q233 0 338 -108.5t78 -303.5q-40 -292 -328 -407zM739 797q152 0 245 67t110 195q17 123 -49 187.5t-199 64.5h-340l-68 -514h301z" />
    <glyph glyph-name="racute" unicode="&#x155;" horiz-adv-x="784" 
d="M791 1507l32 -157l-520 -152l-24 105zM82 0l143 1057h199l-31 -230q65 107 178 178.5t228 71.5l-27 -200q-157 11 -271 -69.5t-130 -186.5l-80 -621h-209z" />
    <glyph glyph-name="uni0156" unicode="&#x156;" horiz-adv-x="1370" 
d="M1165 0h-215l-172 625h-364l-86 -625h-207l203 1481h567q233 0 338 -108.5t78 -303.5q-40 -292 -328 -407zM739 797q152 0 245 67t110 195q17 123 -49 187.5t-199 64.5h-340l-68 -514h301zM457 -479l114 160h-84l27 182h170l-25 -191l-124 -151h-78z" />
    <glyph glyph-name="uni0157" unicode="&#x157;" horiz-adv-x="776" 
d="M76 0l143 1057h197l-31 -230q65 107 178 178.5t228 71.5l-27 -200q-156 11 -270 -69.5t-129 -186.5l-82 -621h-207zM39 -479l115 160h-84l26 182h170l-24 -191l-125 -151h-78z" />
    <glyph glyph-name="Rcaron" unicode="&#x158;" horiz-adv-x="1370" 
d="M987 1905h199l-281 -244h-143l-223 244h159l131 -140zM1165 0h-215l-172 625h-364l-86 -625h-207l203 1481h567q233 0 338 -108.5t78 -303.5q-40 -292 -328 -407zM739 797q152 0 245 67t110 195q17 123 -49 187.5t-199 64.5h-340l-68 -514h301z" />
    <glyph glyph-name="rcaron" unicode="&#x159;" horiz-adv-x="780" 
d="M686 1481h199l-281 -244h-143l-223 244h159l131 -140zM68 0l143 1057h199l-33 -230q66 107 179 178.5t228 71.5l-26 -200q-157 11 -272 -69.5t-130 -186.5l-82 -621h-206z" />
    <glyph glyph-name="Sacute" unicode="&#x15a;" horiz-adv-x="1343" 
d="M1085 1931l33 -157l-520 -152l-25 104zM602 -20q-188 0 -323.5 73t-196.5 209l168 109q67 -112 143 -158.5t221 -46.5q150 0 245.5 51t109.5 164q10 73 -23.5 126.5t-140.5 94.5l-289 103q-150 53 -215 150t-47 222q25 189 181 306.5t386 117.5q157 0 276 -59.5
t183 -171.5l-164 -113q-52 79 -125 122.5t-192 43.5q-136 0 -222 -59t-100 -160q-3 -28 0.5 -52t17.5 -55t51.5 -59t96.5 -49l279 -92q162 -57 227.5 -154t46.5 -237q-28 -198 -187 -312t-407 -114z" />
    <glyph glyph-name="sacute" unicode="&#x15b;" horiz-adv-x="1081" 
d="M920 1507l34 -157l-520 -152l-24 105zM467 -20q-160 0 -272.5 68t-147.5 177l146 76q36 -76 112 -123t184 -47q88 0 171 44.5t92 103.5q6 52 -32.5 87.5t-129.5 61.5l-174 49q-275 75 -248 275q19 146 146 235.5t313 89.5q144 0 239.5 -57t137.5 -154l-144 -73
q-31 63 -99 99t-161 36q-91 0 -164 -43.5t-80 -104.5q-6 -42 26.5 -73t129.5 -62l211 -67q246 -70 223 -279q-22 -143 -156 -231t-323 -88z" />
    <glyph glyph-name="Scircumflex" unicode="&#x15c;" horiz-adv-x="1343" 
d="M977 1669l-119 141l-170 -141h-186l284 244h144l217 -244h-170zM602 -20q-188 0 -323.5 73t-196.5 209l168 109q67 -112 143 -158.5t221 -46.5q150 0 245.5 51t109.5 164q10 73 -23.5 126.5t-140.5 94.5l-289 103q-150 53 -215 150t-47 222q25 189 181 306.5t386 117.5
q157 0 276 -59.5t183 -171.5l-164 -113q-52 79 -125 122.5t-192 43.5q-136 0 -222 -59t-100 -160q-3 -28 0.5 -52t17.5 -55t51.5 -59t96.5 -49l279 -92q162 -57 227.5 -154t46.5 -237q-28 -198 -187 -312t-407 -114z" />
    <glyph glyph-name="scircumflex" unicode="&#x15d;" horiz-adv-x="1081" 
d="M817 1245l-117 141l-170 -141h-186l283 244h145l217 -244h-172zM467 -20q-160 0 -272.5 68t-147.5 177l146 76q36 -76 112 -123t184 -47q88 0 171 44.5t92 103.5q6 52 -32.5 87.5t-129.5 61.5l-174 49q-275 75 -248 275q19 146 146 235.5t313 89.5q144 0 239.5 -57
t137.5 -154l-144 -73q-31 63 -99 99t-161 36q-91 0 -164 -43.5t-80 -104.5q-6 -42 26.5 -73t129.5 -62l211 -67q246 -70 223 -279q-22 -143 -156 -231t-323 -88z" />
    <glyph glyph-name="Scedilla" unicode="&#x15e;" horiz-adv-x="1343" 
d="M922 797q162 -57 227.5 -154t46.5 -237q-26 -189 -173 -302t-376 -122l-45 -95q92 -4 129.5 -51t28.5 -112q-10 -69 -77 -108.5t-157 -39.5q-125 0 -196 68l37 59q62 -41 131 -41q55 0 87.5 22.5t37.5 61.5q6 41 -26.5 58.5t-115.5 19.5q-27 0 -20 20l78 138
q-164 12 -282 84t-175 196l168 109q67 -112 143 -158.5t221 -46.5q150 0 245.5 51t109.5 164q10 73 -23.5 126.5t-140.5 94.5l-289 103q-150 53 -215 150t-47 222q25 189 181 306.5t386 117.5q157 0 276 -59.5t183 -171.5l-164 -113q-52 79 -125 122.5t-192 43.5
q-136 0 -222 -59t-100 -160q-3 -28 0.5 -52t17.5 -55t51.5 -59t96.5 -49z" />
    <glyph glyph-name="scedilla" unicode="&#x15f;" horiz-adv-x="1081" 
d="M723 578q246 -70 223 -279q-22 -141 -154.5 -229t-318.5 -90l-49 -101q93 -4 130 -51t30 -113q-10 -69 -76.5 -108t-157.5 -39q-126 0 -196 67l34 60q62 -41 134 -41q54 0 86.5 22.5t37.5 61.5q6 41 -26.5 58.5t-114.5 19.5q-13 0 -19 5.5t-1 14.5l86 152
q-124 18 -209 82t-115 155l146 76q36 -76 112 -123t184 -47q88 0 171 44.5t92 103.5q6 52 -32.5 87.5t-129.5 61.5l-174 49q-275 75 -248 275q19 146 146 235.5t313 89.5q144 0 239.5 -57t137.5 -154l-144 -73q-31 63 -99 99t-161 36q-91 0 -164 -43.5t-80 -104.5
q-6 -42 26.5 -73t129.5 -62z" />
    <glyph glyph-name="Scaron" unicode="&#x160;" horiz-adv-x="1343" 
d="M995 1905h199l-279 -244h-145l-221 244h160l131 -140zM602 -20q-188 0 -323.5 73t-196.5 209l168 109q67 -112 143 -158.5t221 -46.5q150 0 245.5 51t109.5 164q10 73 -23.5 126.5t-140.5 94.5l-289 103q-150 53 -215 150t-47 222q25 189 181 306.5t386 117.5
q157 0 276 -59.5t183 -171.5l-164 -113q-52 79 -125 122.5t-192 43.5q-136 0 -222 -59t-100 -160q-3 -28 0.5 -52t17.5 -55t51.5 -59t96.5 -49l279 -92q162 -57 227.5 -154t46.5 -237q-28 -198 -187 -312t-407 -114z" />
    <glyph glyph-name="scaron" unicode="&#x161;" horiz-adv-x="1081" 
d="M831 1481h199l-280 -244h-144l-223 244h160l131 -140zM467 -20q-160 0 -272.5 68t-147.5 177l146 76q36 -76 112 -123t184 -47q88 0 171 44.5t92 103.5q6 52 -32.5 87.5t-129.5 61.5l-174 49q-275 75 -248 275q19 146 146 235.5t313 89.5q144 0 239.5 -57t137.5 -154
l-144 -73q-31 63 -99 99t-161 36q-91 0 -164 -43.5t-80 -104.5q-6 -42 26.5 -73t129.5 -62l211 -67q246 -70 223 -279q-22 -143 -156 -231t-323 -88z" />
    <glyph glyph-name="uni0162" unicode="&#x162;" horiz-adv-x="1163" 
d="M166 1481h1100l-27 -193h-434l-174 -1288h-39l-55 -113q92 -4 129 -51t28 -112q-10 -69 -75.5 -108.5t-155.5 -39.5q-128 0 -199 68l37 59q62 -41 131 -41q55 0 88 22.5t39 61.5q5 41 -27.5 59t-115.5 19q-13 0 -18.5 5.5t-2.5 14.5l88 156h-61l176 1288h-459z" />
    <glyph glyph-name="uni0163" unicode="&#x163;" horiz-adv-x="819" 
d="M541 907l-84 -635q-10 -75 9 -102t66 -27h154l-18 -131q-45 -18 -160 -18l-51 -107q93 -4 129.5 -51t27.5 -112q-10 -69 -75.5 -108.5t-155.5 -39.5q-125 0 -199 68l37 59q62 -41 131 -41q55 0 88 22.5t39 61.5q6 41 -26.5 58.5t-114.5 19.5q-15 0 -20.5 5.5t-2.5 14.5
l88 156q-104 18 -137.5 81t-19.5 179l88 647h-189l21 150h194l74 348h174l-47 -348h244l-23 -150h-241z" />
    <glyph glyph-name="Tcaron" unicode="&#x164;" horiz-adv-x="1163" 
d="M926 1905h196l-278 -244h-146l-221 244h160l131 -140zM139 1288l27 193h1100l-27 -193h-434l-174 -1288h-209l176 1288h-459z" />
    <glyph glyph-name="tcaron" unicode="&#x165;" horiz-adv-x="804" 
d="M700 1147l107 194l-53 9l28 206h160l-29 -221l-102 -188h-111zM782 907h-241l-84 -635q-10 -75 9 -102t66 -27h154l-18 -131q-49 -18 -170 -18q-162 0 -216 65t-36 201l88 647h-189l21 150h194l74 348h174l-47 -348h244z" />
    <glyph glyph-name="Tbar" unicode="&#x166;" horiz-adv-x="1163" 
d="M1239 1288h-434l-64 -469h340l-24 -164h-338l-88 -655h-209l90 655h-219l20 164h222l63 469h-459l27 193h1100z" />
    <glyph glyph-name="tbar" unicode="&#x167;" horiz-adv-x="823" 
d="M797 907h-244l-35 -260h174l-16 -127h-174l-33 -248q-10 -75 10 -102t68 -27h151l-18 -131q-49 -18 -168 -18q-163 0 -217.5 65t-34.5 201l35 260h-178l16 127h178l35 260h-188l20 150h195l73 348h175l-48 -348h244z" />
    <glyph glyph-name="Utilde" unicode="&#x168;" horiz-adv-x="1443" 
d="M1202 1759q-84 -47 -180 -47q-57 0 -133 26.5t-117 26.5q-32 0 -57 -8.5t-54 -26.5t-43 -24l-28 127q89 61 172 61q56 0 139.5 -28.5t122.5 -28.5q41 0 96 28t64 31zM1266 520q-38 -265 -186.5 -402.5t-426.5 -137.5q-142 0 -240 37t-150.5 108t-69.5 175.5t2 238.5
l129 942h213l-131 -969q-26 -175 45.5 -262.5t228.5 -87.5t254 87t123 263l129 969h209z" />
    <glyph glyph-name="utilde" unicode="&#x169;" horiz-adv-x="1169" 
d="M1001 1335q-84 -47 -178 -47q-58 0 -133.5 26.5t-116.5 26.5q-33 0 -58 -8.5t-52.5 -26t-42.5 -24.5l-31 127q47 31 85 46t89 15q55 0 138 -28.5t122 -28.5q41 0 95.5 28.5t64.5 31.5zM406 -18q-144 2 -224 86t-61 223l104 768h207l-100 -731q-12 -93 28.5 -144
t133.5 -51q80 0 143.5 36t150.5 118l105 772h209l-148 -1057h-159l2 168q-209 -191 -391 -188z" />
    <glyph glyph-name="Umacron" unicode="&#x16a;" horiz-adv-x="1443" 
d="M1212 1880l-22 -145h-617l21 145h618zM1266 520q-38 -265 -186.5 -402.5t-426.5 -137.5q-142 0 -240 37t-150.5 108t-69.5 175.5t2 238.5l129 942h213l-131 -969q-26 -175 45.5 -262.5t228.5 -87.5t254 87t123 263l129 969h209z" />
    <glyph glyph-name="umacron" unicode="&#x16b;" horiz-adv-x="1169" 
d="M1014 1456l-23 -145h-616l20 145h619zM406 -18q-144 2 -224 86t-61 223l104 768h207l-100 -731q-12 -93 28.5 -144t133.5 -51q80 0 143.5 36t150.5 118l105 772h209l-148 -1057h-159l2 168q-209 -191 -391 -188z" />
    <glyph glyph-name="Ubreve" unicode="&#x16c;" horiz-adv-x="1443" 
d="M1214 1903q-44 -99 -136.5 -164.5t-211.5 -65.5q-122 0 -197 61t-85 169h133q16 -24 25.5 -37t29.5 -33t45.5 -29.5t56.5 -9.5q108 0 189 109h151zM1266 520q-38 -265 -186.5 -402.5t-426.5 -137.5q-142 0 -240 37t-150.5 108t-69.5 175.5t2 238.5l129 942h213l-131 -969
q-26 -175 45.5 -262.5t228.5 -87.5t254 87t123 263l129 969h209z" />
    <glyph glyph-name="ubreve" unicode="&#x16d;" horiz-adv-x="1169" 
d="M1014 1479q-44 -99 -136.5 -164.5t-211.5 -65.5q-122 0 -197.5 61t-85.5 169h133q15 -24 25.5 -37.5t30.5 -33t45.5 -29t56.5 -9.5q107 0 188 109h152zM406 -18q-144 2 -224 86t-61 223l104 768h207l-100 -731q-12 -93 28.5 -144t133.5 -51q80 0 143.5 36t150.5 118
l105 772h209l-148 -1057h-159l2 168q-209 -191 -391 -188z" />
    <glyph glyph-name="Uring" unicode="&#x16e;" horiz-adv-x="1443" 
d="M1100 1802q-12 -87 -76.5 -143.5t-151.5 -56.5q-90 0 -142.5 65.5t-39.5 161.5q9 81 74.5 136.5t148.5 55.5q91 0 145 -63.5t42 -155.5zM997 1823q6 42 -17 69t-65 27q-46 0 -85.5 -34.5t-45.5 -84.5q-4 -40 21 -69t63 -29q47 0 85 36.5t44 84.5zM1266 520
q-38 -265 -186.5 -402.5t-426.5 -137.5q-142 0 -240 37t-150.5 108t-69.5 175.5t2 238.5l129 942h213l-131 -969q-26 -175 45.5 -262.5t228.5 -87.5t254 87t123 263l129 969h209z" />
    <glyph glyph-name="uring" unicode="&#x16f;" horiz-adv-x="1169" 
d="M899 1378q-12 -87 -76 -143.5t-151 -56.5q-90 0 -143 65.5t-40 161.5q9 81 75 136.5t149 55.5q91 0 144.5 -63.5t41.5 -155.5zM797 1399q6 42 -17 69t-65 27q-46 0 -85.5 -34.5t-45.5 -84.5q-4 -40 21 -69t63 -29q47 0 85 36.5t44 84.5zM406 -18q-144 2 -224 86t-61 223
l104 768h207l-100 -731q-12 -93 28.5 -144t133.5 -51q80 0 143.5 36t150.5 118l105 772h209l-148 -1057h-159l2 168q-209 -191 -391 -188z" />
    <glyph glyph-name="Uhungarumlaut" unicode="&#x170;" horiz-adv-x="1443" 
d="M879 1931l90 -133l-334 -235l-66 88zM1214 1931l91 -133l-334 -235l-66 88zM1266 520q-38 -265 -186.5 -402.5t-426.5 -137.5q-142 0 -240 37t-150.5 108t-69.5 175.5t2 238.5l129 942h213l-131 -969q-26 -175 45.5 -262.5t228.5 -87.5t254 87t123 263l129 969h209z" />
    <glyph glyph-name="uhungarumlaut" unicode="&#x171;" horiz-adv-x="1169" 
d="M678 1507l90 -133l-334 -235l-65 88zM1014 1507l90 -133l-334 -235l-65 88zM406 -18q-144 2 -224 86t-61 223l104 768h207l-100 -731q-12 -93 28.5 -144t133.5 -51q80 0 143.5 36t150.5 118l105 772h209l-148 -1057h-159l2 168q-209 -191 -391 -188z" />
    <glyph glyph-name="Uogonek" unicode="&#x172;" horiz-adv-x="1443" 
d="M1186 1481h209l-129 -961q-33 -228 -146.5 -362t-320.5 -168q-90 -37 -133.5 -75t-49.5 -85q-5 -34 13 -51t61 -17q14 0 28 1.5t28 5t23 6t23 8.5t18.5 8t19.5 9l14 7l-17 -118q-83 -31 -186 -31q-100 0 -148.5 46.5t-37.5 127.5q13 94 127 150q-238 18 -329 157.5
t-58 399.5l129 942h213l-131 -969q-26 -175 45.5 -262.5t228.5 -87.5t254 87t123 263z" />
    <glyph glyph-name="uogonek" unicode="&#x173;" horiz-adv-x="1171" 
d="M737 -170q-5 -33 12.5 -49.5t59.5 -16.5q13 0 26 1.5t23 3t22.5 5t19.5 5.5t19 7.5t16.5 7t16 7t13.5 6.5l-17 -118q-95 -31 -186 -31q-100 0 -149.5 47t-37.5 127q8 61 56.5 105.5t163.5 80.5l2 152q-209 -191 -391 -188q-144 2 -224 86t-61 223l104 768h207l-100 -731
q-12 -93 28.5 -144t133.5 -51q80 0 143.5 36t150.5 118l105 772h209l-148 -1057h-10q-107 -44 -154 -82.5t-53 -89.5z" />
    <glyph glyph-name="Wcircumflex" unicode="&#x174;" horiz-adv-x="1908" 
d="M1257 1669l-116 141l-170 -141h-187l283 244h145l218 -244h-173zM1993 1481l-621 -1481h-184l-154 1114l-459 -1114h-180l-213 1481h205l156 -1143l463 1143h159l156 -1143l465 1143h207z" />
    <glyph glyph-name="wcircumflex" unicode="&#x175;" horiz-adv-x="1589" 
d="M1038 1245l-116 141l-170 -141h-187l283 244h145l217 -244h-172zM1604 1057l-467 -1057h-181l-127 756l-325 -756h-185l-184 1057h199l127 -783l336 783h155l131 -783l332 783h189z" />
    <glyph glyph-name="Ycircumflex" unicode="&#x176;" horiz-adv-x="1220" 
d="M926 1669l-117 141l-170 -141h-186l282 244h146l217 -244h-172zM1337 1481l-604 -852l-86 -629h-207l86 631l-376 850h221l282 -668l459 668h225z" />
    <glyph glyph-name="ycircumflex" unicode="&#x177;" horiz-adv-x="1087" 
d="M811 1245l-119 141l-170 -141h-184l283 244h145l215 -244h-170zM152 -338q-56 0 -97 7t-54 15l-13 7l20 135l107 -4q54 -2 95 7.5t66 30t37.5 37t24.5 40.5l45 92l-260 1028h207l182 -793l399 793h201l-580 -1123q-83 -153 -173 -212.5t-207 -59.5z" />
    <glyph glyph-name="Ydieresis" unicode="&#x178;" horiz-adv-x="1220" 
d="M754 1905l-31 -232h-197l33 232h195zM1073 1905l-31 -232h-194l31 232h194zM1337 1481l-604 -852l-86 -629h-207l86 631l-376 850h221l282 -668l459 668h225z" />
    <glyph glyph-name="Zacute" unicode="&#x179;" horiz-adv-x="1273" 
d="M1069 1931l33 -157l-520 -152l-25 104zM33 0l14 113l934 1185h-735l24 183h1028l-12 -109l-946 -1190h778l-24 -182h-1061z" />
    <glyph glyph-name="zacute" unicode="&#x17a;" horiz-adv-x="1003" 
d="M872 1507l33 -157l-520 -152l-25 105zM8 0l17 123l686 795h-537l21 139h786l-16 -123l-684 -793h585l-18 -141h-840z" />
    <glyph glyph-name="Zdotaccent" unicode="&#x17b;" horiz-adv-x="1273" 
d="M963 1905l-33 -254h-221l34 254h220zM33 0l14 113l934 1185h-735l24 183h1028l-12 -109l-946 -1190h778l-24 -182h-1061z" />
    <glyph glyph-name="zdotaccent" unicode="&#x17c;" horiz-adv-x="1003" 
d="M764 1481l-33 -254h-221l35 254h219zM8 0l17 123l686 795h-537l21 139h786l-16 -123l-684 -793h585l-18 -141h-840z" />
    <glyph glyph-name="Zcaron" unicode="&#x17d;" horiz-adv-x="1273" 
d="M981 1905h199l-279 -244h-145l-224 244h162l129 -140zM33 0l14 113l934 1185h-735l24 183h1028l-12 -109l-946 -1190h778l-24 -182h-1061z" />
    <glyph glyph-name="zcaron" unicode="&#x17e;" horiz-adv-x="1003" 
d="M782 1481h199l-279 -244h-145l-223 244h162l129 -140zM8 0l17 123l686 795h-537l21 139h786l-16 -123l-684 -793h585l-18 -141h-840z" />
    <glyph glyph-name="uni018F" unicode="&#x18f;" horiz-adv-x="1503" 
d="M1163 795q6 47 8.5 91.5t-0.5 97t-13.5 97.5t-33 88t-55.5 73t-84.5 48.5t-116.5 18.5q-69 0 -129 -19.5t-99 -46.5t-76.5 -70t-56.5 -74t-44 -77t-35 -61l-201 96q27 45 45.5 74.5t56.5 80.5t72.5 86t87.5 76.5t108 66.5t128 42.5t152 17.5q97 0 178.5 -23t139.5 -64
t103 -97.5t69.5 -124t39.5 -144t13 -156.5t-11 -161q-21 -151 -79.5 -285t-149 -239t-219 -166t-277.5 -61q-112 0 -201 28.5t-150 80.5t-103.5 125.5t-61 164t-22 196t13.5 220.5h1003zM1141 637l-748 -6q-9 -58 -6.5 -115.5t11 -110t32 -97.5t57 -78.5t85.5 -52.5t118 -19
q365 0 451 479z" />
    <glyph glyph-name="florin" unicode="&#x192;" horiz-adv-x="925" 
d="M860 1057l-45 -150h-242l-303 -987q-39 -127 -122.5 -194.5t-208.5 -67.5h-191l43 145l113 2q66 2 105 38.5t65 123.5l286 940h-165l49 150h164l51 168q38 125 123 190.5t209 65.5h208l-45 -148h-139q-51 0 -96 -41t-64 -104l-41 -131h246z" />
    <glyph glyph-name="Ohorn" unicode="&#x1a0;" horiz-adv-x="1427" 
d="M1194 1421q137 -89 194.5 -264t24.5 -420q-51 -357 -246.5 -557t-488.5 -200q-295 0 -435 199t-91 556q49 360 246 563t489 203q71 0 135 -12q111 0 168 121h149q-44 -127 -145 -189zM1186 735q39 296 -45.5 441t-276.5 145q-195 0 -320 -145t-165 -441
q-39 -292 46.5 -433.5t281.5 -141.5q194 0 317 141.5t162 433.5z" />
    <glyph glyph-name="ohorn" unicode="&#x1a1;" horiz-adv-x="1142" 
d="M930 977q80 -72 111.5 -189.5t11.5 -263.5q-31 -242 -184 -393t-375 -151q-220 0 -330 150t-76 392q34 248 188 401.5t373 153.5q80 0 148 -22q92 14 137 119h151q-46 -131 -155 -197zM846 530q15 111 -1 200.5t-72 146.5t-146 57q-69 0 -127 -32.5t-98 -89t-66 -128
t-37 -154.5q-16 -111 -0.5 -200t72 -147t149.5 -58q90 0 161 58t110.5 147t54.5 200z" />
    <glyph glyph-name="Uhorn" unicode="&#x1af;" horiz-adv-x="1386" 
d="M1681 1614q-34 -102 -112 -168.5t-189 -73.5l-114 -852q-38 -265 -186.5 -402.5t-426.5 -137.5q-142 0 -240 37t-150.5 108t-69.5 175.5t2 238.5l129 942h213l-131 -969q-26 -175 45.5 -262.5t228.5 -87.5t254 87t123 263l129 969h178v12q113 0 168 121h149z" />
    <glyph glyph-name="uhorn" unicode="&#x1b0;" horiz-adv-x="1169" 
d="M1321 1176q-29 -85 -90 -146t-146 -84l-131 -944h-159l2 168q-209 -191 -391 -188q-144 2 -224 86t-61 223l104 768h207l-100 -731q-12 -93 28.5 -144t133.5 -51q80 0 143.5 36t150.5 118l105 772h149q84 19 127 117h152z" />
    <glyph glyph-name="uni01EA" unicode="&#x1ea;" horiz-adv-x="1507" 
d="M887 1501q291 0 433 -202.5t93 -561.5q-42 -303 -191.5 -494.5t-377.5 -244.5q-106 -42 -153.5 -80.5t-51.5 -89.5q-5 -34 12.5 -51t59.5 -17q14 0 28 1.5t27.5 5t23 6t22.5 8t19 8t18.5 9t14.5 7.5l-16 -118q-91 -31 -184 -31q-100 0 -150 47t-39 127q8 48 37.5 85
t95.5 67q-260 25 -380.5 221t-75.5 532q49 360 246 563t489 203zM1186 735q39 296 -45.5 441t-276.5 145q-195 0 -320 -145t-165 -441q-39 -292 46.5 -433.5t281.5 -141.5q194 0 317 141.5t162 433.5z" />
    <glyph glyph-name="uni01EB" unicode="&#x1eb;" horiz-adv-x="1142" 
d="M649 1077q220 0 329 -153.5t75 -399.5q-25 -194 -131 -332.5t-267 -187.5l15 -2q-108 -41 -157.5 -81t-55.5 -91q-3 -35 14 -51.5t59 -16.5q14 0 28 1.5t28 5t23 6t23 8.5t18.5 8t19.5 9l14 7l-16 -120q-91 -31 -187 -31q-99 0 -148 47t-38 129q13 95 133 152
q-189 23 -280 169t-60 369q34 248 188 401.5t373 153.5zM846 530q15 111 -1 200.5t-72 146.5t-146 57q-69 0 -127 -32.5t-98 -89t-66 -128t-37 -154.5q-16 -111 -0.5 -200t72 -147t149.5 -58q90 0 161 58t110.5 147t54.5 200z" />
    <glyph glyph-name="Aringacute" unicode="&#x1fa;" horiz-adv-x="1384" 
d="M958 1444l279 -1444h-240l-75 399h-531l-186 -399h-213l684 1456q-51 64 -39 154q7 70 60 121.5t124 62.5l47 129h154l-86 -143q54 -25 81.5 -78t18.5 -119q-12 -86 -78 -139zM725 1581q-4 -38 21.5 -67t62.5 -29q47 0 86 36.5t45 82.5q5 44 -18 71t-66 27
q-46 0 -85.5 -35t-45.5 -86zM465 584h430l-123 663z" />
    <glyph glyph-name="aringacute" unicode="&#x1fb;" horiz-adv-x="1130" 
d="M432 1198l-24 105l77 30q-7 40 -2 72q10 81 76.5 136.5t149.5 55.5q57 0 102.5 -29t67.5 -77l41 16l32 -157l-69 -21q-25 -68 -84 -109.5t-131 -41.5q-78 0 -129 51zM580 1376v-4l204 82q-20 41 -75 41q-45 0 -84 -34.5t-45 -84.5zM645 1077q202 0 290 -89t66 -249
l-98 -739h-176l6 164q-144 -184 -371 -184q-152 0 -234 82.5t-62 226.5q23 174 154 256t401 96l172 12l10 72q12 97 -39 154t-150 57q-168 0 -286 -166l-162 33q69 126 194 200t285 74zM750 348l24 187l-141 -11q-177 -13 -264 -59t-101 -158q-13 -83 37 -131.5t141 -48.5
q100 0 197 69t107 152z" />
    <glyph glyph-name="AEacute" unicode="&#x1fc;" horiz-adv-x="2064" 
d="M1776 1931l32 -157l-520 -152l-24 104zM1882 180l-22 -180h-945l56 399h-477l-269 -399h-221l993 1481h1041l-27 -181h-684l-61 -464h499l-26 -179h-498l-63 -477h704zM997 584l99 733l-496 -733h397z" />
    <glyph glyph-name="aeacute" unicode="&#x1fd;" horiz-adv-x="1859" 
d="M1264 1507l32 -157l-520 -152l-24 105zM981 485q-15 -143 58.5 -248.5t193.5 -105.5q103 0 173 44t144 128l144 -76q-184 -247 -490 -247q-248 0 -373 215q-4 1 -10 -5t-8 -14q-45 -42 -86 -72.5t-97 -61t-124 -46.5t-146 -16q-158 0 -235 84t-57 225q42 307 544 344
l187 14l12 80q17 102 -37 155.5t-156 53.5q-146 0 -274 -168l-184 59q157 250 481 250q272 0 326 -174q143 174 370 174q220 0 333 -156.5t73 -435.5h-762zM1335 936q-124 0 -218.5 -90t-112.5 -236h567q14 133 -54 229.5t-182 96.5zM780 522l-145 -10
q-157 -14 -253.5 -73.5t-109.5 -159.5q-11 -75 33 -118t135 -40q118 5 212 70t106 155z" />
    <glyph glyph-name="Oslashacute" unicode="&#x1fe;" horiz-adv-x="1478" 
d="M1145 1931l33 -157l-521 -152l-24 104zM82 -29l-100 115l198 186q-85 193 -43 473q49 357 241.5 556.5t481.5 199.5q273 0 412 -178l182 182l100 -114l-204 -191q85 -193 43 -475q-47 -352 -239.5 -548.5t-483.5 -196.5q-271 0 -410 172zM389 453l727 731
q-70 141 -262 141q-378 0 -465 -565q-24 -179 0 -307zM680 158q192 0 306 139.5t157 429.5q24 176 -2 293l-725 -729q72 -133 264 -133z" />
    <glyph glyph-name="oslashacute" unicode="&#x1ff;" horiz-adv-x="1173" 
d="M956 1350l-520 -152l-24 105l512 204zM1184 975l-170 -150q46 -124 24 -301q-33 -242 -185.5 -393t-373.5 -151q-193 0 -301 114l-123 -106l-75 92l131 115q-64 137 -37 327q32 248 186 401.5t373 153.5q209 0 323 -143l150 131zM283 530q-15 -96 -2 -186l526 459
q-57 131 -197 131q-91 0 -162 -57.5t-110.5 -146t-54.5 -200.5zM829 530q11 93 7 140l-512 -449q60 -96 180 -96q90 0 160.5 58t110 147t54.5 200z" />
    <glyph glyph-name="uni0200" unicode="&#x200;" horiz-adv-x="1419" 
d="M575 1931l242 -295l-67 -69l-287 250zM909 1931l244 -295l-70 -69l-286 250zM4 0l721 1481h229l316 -1481h-211l-80 393h-573l-193 -393h-209zM483 584h467l-139 690z" />
    <glyph glyph-name="uni0201" unicode="&#x201;" horiz-adv-x="1130" 
d="M369 1507l243 -295l-69 -69l-285 250zM705 1507l241 -295l-69 -69l-285 250zM362 -20q-152 0 -234 82.5t-62 226.5q23 174 154 256t401 96l172 12l10 72q12 97 -39 154t-150 57q-168 0 -286 -166l-162 33q69 126 194 200t285 74q202 0 290 -89t66 -249l-98 -739h-176
l6 164q-144 -184 -371 -184zM446 127q100 0 197 69t107 152l24 187l-141 -11q-177 -13 -264 -59t-101 -158q-13 -83 37 -131.5t141 -48.5z" />
    <glyph glyph-name="uni0202" unicode="&#x202;" horiz-adv-x="1419" 
d="M555 1675q42 100 131 165t207 65q122 0 199.5 -62t91.5 -168h-133q-14 23 -25.5 38.5t-30.5 33.5t-45 27.5t-57 9.5q-60 0 -108 -30.5t-78 -78.5h-152zM4 0l721 1481h229l316 -1481h-211l-80 393h-573l-193 -393h-209zM483 584h467l-139 690z" />
    <glyph glyph-name="uni0203" unicode="&#x203;" horiz-adv-x="1138" 
d="M358 1251q42 100 131 165t207 65q123 0 201 -62t92 -168h-135q-17 31 -33 51.5t-49 39t-74 18.5q-61 0 -109.5 -30.5t-78.5 -78.5h-152zM362 -20q-152 0 -234 82.5t-62 226.5q23 174 154 256t401 96l172 12l10 72q12 97 -39 154t-150 57q-168 0 -286 -166l-162 33
q69 126 194 200t285 74q202 0 290 -89t66 -249l-98 -739h-176l6 164q-144 -184 -371 -184zM446 127q100 0 197 69t107 152l24 187l-141 -11q-177 -13 -264 -59t-101 -158q-13 -83 37 -131.5t141 -48.5z" />
    <glyph glyph-name="uni0204" unicode="&#x204;" horiz-adv-x="1267" 
d="M524 1931l242 -295l-68 -69l-286 250zM858 1931l244 -295l-70 -69l-287 250zM121 0l203 1481h921l-26 -185h-713l-64 -460h637l-22 -181h-639l-64 -469l733 -2l-26 -184h-940z" />
    <glyph glyph-name="uni0205" unicode="&#x205;" horiz-adv-x="1146" 
d="M379 1507l244 -295l-68 -69l-287 250zM715 1507l241 -295l-67 -69l-287 250zM297 469q-21 -150 42.5 -246t201.5 -96q173 0 276 160l160 -47q-72 -127 -191 -193.5t-264 -66.5q-109 0 -196 37t-144.5 105.5t-81 170t-6.5 225.5q34 250 185.5 404.5t373.5 154.5
q217 0 320 -145t69 -389l-12 -74h-733zM319 618h535q20 142 -36 230t-185 88q-91 0 -160.5 -46.5t-106.5 -116.5t-47 -155z" />
    <glyph glyph-name="uni0206" unicode="&#x206;" horiz-adv-x="1267" 
d="M504 1675q42 100 131 165t207 65q122 0 199.5 -62t91.5 -168h-134q-19 32 -34.5 51.5t-48.5 38.5t-74 19q-60 0 -108.5 -30.5t-78.5 -78.5h-151zM121 0l203 1481h921l-26 -185h-713l-64 -460h637l-22 -181h-639l-64 -469l733 -2l-26 -184h-940z" />
    <glyph glyph-name="uni0207" unicode="&#x207;" horiz-adv-x="1146" 
d="M371 1251q42 100 131 165t207 65q122 0 199 -62t91 -168h-135q-17 31 -33 51.5t-48.5 39t-73.5 18.5q-59 0 -108 -30.5t-81 -78.5h-149zM297 469q-21 -150 42.5 -246t201.5 -96q173 0 276 160l160 -47q-72 -127 -191 -193.5t-264 -66.5q-109 0 -196 37t-144.5 105.5
t-81 170t-6.5 225.5q34 250 185.5 404.5t373.5 154.5q217 0 320 -145t69 -389l-12 -74h-733zM319 618h535q20 142 -36 230t-185 88q-91 0 -160.5 -46.5t-106.5 -116.5t-47 -155z" />
    <glyph glyph-name="uni0208" unicode="&#x208;" horiz-adv-x="595" 
d="M160 1931l241 -295l-67 -69l-287 250zM494 1931l243 -295l-69 -69l-287 250zM326 1481h206l-200 -1481h-207z" />
    <glyph glyph-name="uni0209" unicode="&#x209;" horiz-adv-x="507" 
d="M53 1507l242 -295l-68 -69l-284 250zM389 1507l242 -295l-70 -69l-285 250zM426 1057l-145 -1057h-209l145 1057h209z" />
    <glyph glyph-name="uni020A" unicode="&#x20a;" horiz-adv-x="598" 
d="M141 1675q42 100 131 165t207 65q122 0 199.5 -62t91.5 -168h-133q-14 24 -25 39t-30 33t-45 27.5t-58 9.5q-60 0 -108 -30.5t-78 -78.5h-152zM328 1481h207l-201 -1481h-207z" />
    <glyph glyph-name="uni020B" unicode="&#x20b;" horiz-adv-x="514" 
d="M66 1251q43 100 131 165t206 65q122 0 199.5 -62t91.5 -168h-133q-14 23 -25.5 38.5t-30.5 33.5t-45 27.5t-57 9.5q-59 0 -107.5 -30.5t-80.5 -78.5h-149zM449 1057l-148 -1057h-207l146 1057h209z" />
    <glyph glyph-name="uni020C" unicode="&#x20c;" horiz-adv-x="1507" 
d="M596 1931l242 -295l-68 -69l-287 250zM932 1931l242 -295l-70 -69l-287 250zM678 -20q-295 0 -435 199t-91 556q49 360 246 563t489 203q291 0 433 -202.5t93 -561.5q-51 -357 -246.5 -557t-488.5 -200zM707 160q194 0 317 141.5t162 433.5q39 296 -45.5 441t-276.5 145
q-195 0 -320 -145t-165 -441q-39 -292 46.5 -433.5t281.5 -141.5z" />
    <glyph glyph-name="uni020D" unicode="&#x20d;" horiz-adv-x="1142" 
d="M381 1507l242 -295l-68 -69l-287 250zM715 1507l243 -295l-69 -69l-287 250zM494 -20q-220 0 -330 150t-76 392q34 248 188 401.5t373 153.5q220 0 329 -153.5t75 -399.5q-31 -242 -184 -393t-375 -151zM520 125q90 0 161 58t110.5 147t54.5 200t-1 200.5t-72 146.5
t-146 57q-69 0 -127 -32.5t-98 -89t-66 -128t-37 -154.5q-16 -111 -0.5 -200t72 -147t149.5 -58z" />
    <glyph glyph-name="uni020E" unicode="&#x20e;" horiz-adv-x="1507" 
d="M586 1675q42 100 131 165t207 65q122 0 199 -62t91 -168h-133q-14 24 -25 38.5t-30 33.5t-44.5 28t-57.5 9q-60 0 -108.5 -30.5t-78.5 -78.5h-151zM678 -20q-295 0 -435 199t-91 556q49 360 246 563t489 203q291 0 433 -202.5t93 -561.5q-51 -357 -246.5 -557
t-488.5 -200zM707 160q194 0 317 141.5t162 433.5q39 296 -45.5 441t-276.5 145q-195 0 -320 -145t-165 -441q-39 -292 46.5 -433.5t281.5 -141.5z" />
    <glyph glyph-name="uni020F" unicode="&#x20f;" horiz-adv-x="1142" 
d="M371 1251q42 100 131 165t207 65q122 0 199 -62t91 -168h-133q-19 32 -34.5 51.5t-48.5 38.5t-74 19q-60 0 -108.5 -30.5t-78.5 -78.5h-151zM494 -20q-220 0 -330 150t-76 392q34 248 188 401.5t373 153.5q220 0 329 -153.5t75 -399.5q-31 -242 -184 -393t-375 -151z
M520 125q90 0 161 58t110.5 147t54.5 200t-1 200.5t-72 146.5t-146 57q-69 0 -127 -32.5t-98 -89t-66 -128t-37 -154.5q-16 -111 -0.5 -200t72 -147t149.5 -58z" />
    <glyph glyph-name="uni0210" unicode="&#x210;" horiz-adv-x="1370" 
d="M524 1931l244 -295l-68 -69l-286 250zM860 1931l242 -295l-68 -69l-286 250zM1165 0h-215l-172 625h-364l-86 -625h-207l203 1481h567q233 0 338 -108.5t78 -303.5q-40 -292 -328 -407zM739 797q152 0 245 67t110 195q17 123 -49 187.5t-199 64.5h-340l-68 -514h301z" />
    <glyph glyph-name="uni0211" unicode="&#x211;" horiz-adv-x="782" 
d="M225 1507l244 -295l-68 -69l-286 250zM561 1507l242 -295l-68 -69l-286 250zM70 0l143 1057h199l-33 -230q66 107 179 178.5t228 71.5l-26 -200q-157 11 -272 -69.5t-130 -186.5l-82 -621h-206z" />
    <glyph glyph-name="uni0212" unicode="&#x212;" horiz-adv-x="1370" 
d="M514 1675q42 100 131.5 165t208.5 65q122 0 199.5 -62t91.5 -168h-135q-17 31 -33 51.5t-49 39t-74 18.5q-116 0 -188 -109h-152zM1165 0h-215l-172 625h-364l-86 -625h-207l203 1481h567q233 0 338 -108.5t78 -303.5q-40 -292 -328 -407zM739 797q152 0 245 67t110 195
q17 123 -49 187.5t-199 64.5h-340l-68 -514h301z" />
    <glyph glyph-name="uni0213" unicode="&#x213;" horiz-adv-x="825" 
d="M252 1251q42 100 131 165t207 65q122 0 199.5 -62t91.5 -168h-136q-17 31 -33 51.5t-48.5 39t-73.5 18.5q-59 0 -108 -30.5t-81 -78.5h-149zM104 0l144 1057h198l-32 -230q66 107 179 178.5t228 71.5l-26 -200q-157 11 -272 -69.5t-130 -186.5l-82 -621h-207z" />
    <glyph glyph-name="uni0214" unicode="&#x214;" horiz-adv-x="1443" 
d="M575 1931l242 -295l-67 -69l-287 250zM909 1931l244 -295l-70 -69l-286 250zM1266 520q-38 -265 -186.5 -402.5t-426.5 -137.5q-142 0 -240 37t-150.5 108t-69.5 175.5t2 238.5l129 942h213l-131 -969q-26 -175 45.5 -262.5t228.5 -87.5t254 87t123 263l129 969h209z" />
    <glyph glyph-name="uni0215" unicode="&#x215;" horiz-adv-x="1169" 
d="M373 1507l241 -295l-67 -69l-285 250zM709 1507l241 -295l-69 -69l-285 250zM406 -18q-145 2 -225 86t-62 223l104 768h209l-100 -731q-14 -93 26.5 -144t135.5 -51q80 0 143.5 36t150.5 118l105 772h209l-148 -1057h-159v168q-206 -191 -389 -188z" />
    <glyph glyph-name="uni0216" unicode="&#x216;" horiz-adv-x="1443" 
d="M563 1675q42 100 131 165t207 65q122 0 199.5 -62t91.5 -168h-133q-14 24 -25 39t-30 33t-45 27.5t-58 9.5q-60 0 -108 -30.5t-78 -78.5h-152zM1266 520q-38 -265 -186.5 -402.5t-426.5 -137.5q-142 0 -240 37t-150.5 108t-69.5 175.5t2 238.5l129 942h213l-131 -969
q-26 -175 45.5 -262.5t228.5 -87.5t254 87t123 263l129 969h209z" />
    <glyph glyph-name="uni0217" unicode="&#x217;" horiz-adv-x="1169" 
d="M354 1251q42 100 131 165t207 65q122 0 199.5 -62t91.5 -168h-133q-14 23 -25.5 38.5t-30.5 33.5t-45 27.5t-57 9.5q-60 0 -108 -30.5t-78 -78.5h-152zM406 -18q-144 2 -224 86t-61 223l104 768h207l-100 -731q-12 -93 28.5 -144t133.5 -51q80 0 143.5 36t150.5 118
l105 772h209l-148 -1057h-159l2 168q-209 -191 -391 -188z" />
    <glyph glyph-name="uni0218" unicode="&#x218;" horiz-adv-x="1343" 
d="M602 -20q-188 0 -323.5 73t-196.5 209l168 109q67 -112 143 -158.5t221 -46.5q150 0 245.5 51t109.5 164q10 73 -23.5 126.5t-140.5 94.5l-289 103q-150 53 -215 150t-47 222q25 189 181 306.5t386 117.5q157 0 276 -59.5t183 -171.5l-164 -113q-52 79 -125 122.5
t-192 43.5q-136 0 -222 -59t-100 -160q-3 -28 0.5 -52t17.5 -55t51.5 -59t96.5 -49l279 -92q162 -57 227.5 -154t46.5 -237q-28 -198 -187 -312t-407 -114zM444 -479l113 160h-82l27 182h168l-25 -191l-125 -151h-76z" />
    <glyph glyph-name="uni0219" unicode="&#x219;" horiz-adv-x="1081" 
d="M467 -20q-160 0 -272.5 68t-147.5 177l146 76q36 -76 112 -123t184 -47q88 0 171 44.5t92 103.5q6 52 -32.5 87.5t-129.5 61.5l-174 49q-275 75 -248 275q19 146 146 235.5t313 89.5q144 0 239.5 -57t137.5 -154l-144 -73q-31 63 -99 99t-161 36q-91 0 -164 -43.5
t-80 -104.5q-6 -42 26.5 -73t129.5 -62l211 -67q246 -70 223 -279q-22 -143 -156 -231t-323 -88zM268 -487l115 159h-84l27 183h170l-25 -191l-125 -151h-78z" />
    <glyph glyph-name="uni021A" unicode="&#x21a;" horiz-adv-x="1163" 
d="M139 1288l27 193h1100l-27 -193h-434l-174 -1288h-209l176 1288h-459zM379 -479l115 160h-84l26 182h170l-24 -191l-125 -151h-78z" />
    <glyph glyph-name="uni021B" unicode="&#x21b;" horiz-adv-x="845" 
d="M782 907h-241l-84 -635q-10 -75 9 -102t66 -27h154l-18 -131q-49 -18 -170 -18q-162 0 -216 65t-36 201l88 647h-189l21 150h194l74 348h174l-47 -348h244zM299 -479l115 160h-84l26 182h170l-24 -191l-125 -151h-78z" />
    <glyph glyph-name="uni0237" unicode="&#x237;" horiz-adv-x="518" 
d="M274 -43q-24 -157 -98 -227t-231 -70q-50 0 -83.5 7t-41.5 13l-8 7l18 139l102 6q67 6 97.5 42.5t40.5 107.5l147 1075h209z" />
    <glyph glyph-name="uni0259" unicode="&#x259;" horiz-adv-x="1146" 
d="M850 590q21 150 -42.5 246t-201.5 96q-173 0 -276 -160l-160 47q72 127 191 193.5t264 66.5q109 0 196 -37t144.5 -105.5t81 -170t6.5 -225.5q-34 -250 -185.5 -404.5t-373.5 -154.5q-217 0 -320.5 145t-69.5 389l13 74h733zM827 440h-532q-21 -142 34.5 -229.5
t184.5 -87.5q69 0 126 26.5t95 71.5t61 100.5t31 118.5z" />
    <glyph glyph-name="uni02BC" unicode="&#x2bc;" horiz-adv-x="333" 
d="M131 926l111 274l-58 10l37 271h162l-35 -267l-121 -288h-96z" />
    <glyph glyph-name="circumflex" unicode="&#x2c6;" horiz-adv-x="681" 
d="M586 1245l-117 141l-170 -141h-186l282 244h146l217 -244h-172z" />
    <glyph glyph-name="caron" unicode="&#x2c7;" horiz-adv-x="681" 
d="M592 1481h199l-279 -244h-145l-224 244h162l129 -140z" />
    <glyph glyph-name="breve" unicode="&#x2d8;" horiz-adv-x="692" 
d="M791 1479q-44 -99 -137 -164.5t-212 -65.5q-122 0 -197 61t-85 169h133q15 -24 25.5 -37.5t30.5 -33t45.5 -29t56.5 -9.5q107 0 188 109h152z" />
    <glyph glyph-name="dotaccent" unicode="&#x2d9;" horiz-adv-x="286" 
d="M381 1481l-33 -254h-221l35 254h219z" />
    <glyph glyph-name="ring" unicode="&#x2da;" horiz-adv-x="479" 
d="M561 1370q-12 -88 -76.5 -144.5t-150.5 -56.5q-90 0 -142.5 66t-39.5 162q9 81 74.5 136.5t148.5 55.5q91 0 144.5 -63.5t41.5 -155.5zM459 1391q6 42 -17 69t-65 27q-46 0 -85.5 -34.5t-45.5 -84.5q-4 -40 21 -69t63 -29q47 0 85 36.5t44 84.5z" />
    <glyph glyph-name="ogonek" unicode="&#x2db;" horiz-adv-x="458" 
d="M-68 -166q8 60 57 105t165 81l151 -16q-106 -42 -155.5 -81.5t-55.5 -90.5q-5 -34 13 -51t61 -17q17 0 34 2.5t29 5.5t29 9.5t22.5 9t22 11t17.5 8.5l-17 -119q-83 -31 -186 -31q-100 0 -149 46.5t-38 127.5z" />
    <glyph glyph-name="tilde" unicode="&#x2dc;" horiz-adv-x="729" 
d="M786 1335q-84 -47 -178 -47q-58 0 -133.5 26.5t-116.5 26.5q-33 0 -58 -8.5t-52.5 -26t-42.5 -24.5l-31 127q47 31 85 46t89 15q55 0 137.5 -28.5t122.5 -28.5q41 0 95.5 28.5t64.5 31.5z" />
    <glyph glyph-name="hungarumlaut" unicode="&#x2dd;" horiz-adv-x="825" 
d="M459 1507l90 -133l-334 -235l-65 88zM795 1507l90 -133l-334 -235l-66 88z" />
    <glyph glyph-name="gravecomb" unicode="&#x300;" 
d="M-389 1503l465 -211l-49 -94l-484 154z" />
    <glyph glyph-name="acutecomb" unicode="&#x301;" 
d="M53 1507l33 -157l-520 -152l-25 105z" />
    <glyph glyph-name="uni0302" unicode="&#x302;" 
d="M-96 1245l-117 141l-170 -141h-186l282 244h146l219 -244h-174z" />
    <glyph glyph-name="tildecomb" unicode="&#x303;" 
d="M57 1335q-84 -47 -178 -47q-58 0 -133.5 26.5t-116.5 26.5q-33 0 -58 -8.5t-52.5 -26t-42.5 -24.5l-31 127q47 31 85 46t89 15q55 0 138 -28.5t122 -28.5q41 0 95.5 28.5t64.5 31.5z" />
    <glyph glyph-name="uni0304" unicode="&#x304;" 
d="M92 1456l-22 -145h-617l21 145h618z" />
    <glyph glyph-name="uni0306" unicode="&#x306;" 
d="M98 1479q-44 -99 -136.5 -164.5t-211.5 -65.5q-122 0 -197 61t-85 169h133q16 -24 25.5 -37t29.5 -33t45.5 -29.5t56.5 -9.5q108 0 189 109h151z" />
    <glyph glyph-name="uni0307" unicode="&#x307;" 
d="M94 1481l-33 -254h-221l35 254h219z" />
    <glyph glyph-name="uni0308" unicode="&#x308;" 
d="M-225 1481l-33 -232h-195l33 232h195zM94 1481l-31 -232h-196l33 232h194z" />
    <glyph glyph-name="hookabovecomb" unicode="&#x309;" 
d="M-633 1497l35 -100q70 47 117 47q31 0 49 -12.5t14 -42.5q-6 -27 -33 -55.5t-88 -76.5l52 -79q6 5 27 23.5t28 24.5t24.5 22.5t24 24t20 22t19 24.5t13 23.5t11 26.5t5.5 26q10 70 -32 112.5t-118 42.5q-71 0 -168 -53z" />
    <glyph glyph-name="uni030A" unicode="&#x30a;" 
d="M82 1370q-12 -88 -76.5 -144.5t-150.5 -56.5q-90 0 -143 66t-40 162q9 81 75 136.5t149 55.5q91 0 144.5 -63.5t41.5 -155.5zM-20 1391q6 42 -17 69t-65 27q-46 0 -85.5 -34.5t-45.5 -84.5q-5 -40 20 -69t63 -29q47 0 85.5 36.5t44.5 84.5z" />
    <glyph glyph-name="uni030B" unicode="&#x30b;" 
d="M-367 1507l91 -133l-334 -235l-66 88zM-31 1507l90 -133l-333 -235l-66 88z" />
    <glyph glyph-name="uni030C" unicode="&#x30c;" 
d="M-90 1481h199l-279 -244h-145l-224 244h162l129 -140z" />
    <glyph glyph-name="uni030F" unicode="&#x30f;" 
d="M-535 1507l242 -295l-67 -69l-287 250zM-201 1507l244 -295l-70 -69l-286 250z" />
    <glyph glyph-name="uni0311" unicode="&#x311;" 
d="M-522 1251q42 100 131 165t207 65q122 0 199 -62t91 -168h-133q-19 32 -34.5 51.5t-48.5 38.5t-74 19q-60 0 -108.5 -30.5t-78.5 -78.5h-151z" />
    <glyph glyph-name="uni031B" unicode="&#x31b;" 
d="M-266 1178q-35 -106 -120.5 -173t-205.5 -67l8 119q113 0 168 121h150z" />
    <glyph glyph-name="dotbelowcomb" unicode="&#x323;" 
d="M-129 -104l-29 -226h-182l35 226h176z" />
    <glyph glyph-name="uni0326" unicode="&#x326;" 
d="M-360 -479l114 160h-84l27 182h170l-25 -191l-125 -151h-77z" />
    <glyph glyph-name="uni0327" unicode="&#x327;" 
d="M-150 -276q-10 -69 -76.5 -108.5t-156.5 -39.5q-126 0 -197 68l35 59q62 -41 133 -41q54 0 87 22.5t38 61.5q6 41 -26.5 58.5t-114.5 19.5q-14 0 -19.5 5.5t-1.5 14.5l95 166h104l-59 -123q93 -4 129.5 -50.5t29.5 -112.5z" />
    <glyph glyph-name="uni0328" unicode="&#x328;" 
d="M-526 -166q8 61 56.5 105.5t164.5 80.5l151 -16q-106 -42 -155.5 -81.5t-55.5 -90.5q-5 -34 13 -51t61 -17q17 0 34 2.5t29 5.5t29 9.5t22.5 9t22 11t17.5 8.5l-17 -119q-83 -31 -186 -31q-100 0 -148.5 46.5t-37.5 127.5z" />
    <glyph glyph-name="pi" unicode="&#x3c0;" horiz-adv-x="1320" 
d="M1313 907h-217l-123 -907h-201l121 907h-397q-34 -240 -100 -499t-132 -408h-203q72 178 139 425t99 472q2 6 -0.5 8t-11.5 2h-181l21 150h1206z" />
    <glyph glyph-name="uni1E0C" unicode="&#x1e0c;" horiz-adv-x="1437" 
d="M324 1481q231 0 352 -2q386 -7 540.5 -190.5t106.5 -540.5q-102 -748 -864 -748h-338zM510 1303l-152 -1125h125q128 0 230 30.5t184.5 96t135.5 176t73 264.5t-1 262.5t-83.5 173t-154.5 93.5t-222 29h-135zM633 -104l-29 -226h-182l35 226h176z" />
    <glyph glyph-name="uni1E0D" unicode="&#x1e0d;" horiz-adv-x="1165" 
d="M446 -20q-200 0 -293.5 140.5t-58.5 399.5q34 255 167 406t333 151q184 0 278 -149l82 592h207l-207 -1520h-155v166q-21 -29 -50 -56.5t-73 -59t-104.5 -51t-125.5 -19.5zM518 129q106 0 187.5 80.5t95.5 191.5l47 340q-29 96 -82.5 140.5t-134.5 44.5
q-127 0 -213 -100.5t-111 -299.5q-28 -202 31 -299.5t180 -97.5zM588 -104l-29 -226h-182l35 226h176z" />
    <glyph glyph-name="uni1E24" unicode="&#x1e24;" horiz-adv-x="1441" 
d="M1061 674h-641l-92 -674h-207l203 1481h204l-84 -625h643l84 625h209l-202 -1481h-207zM719 -104l-29 -226h-182l35 226h176z" />
    <glyph glyph-name="uni1E25" unicode="&#x1e25;" horiz-adv-x="1171" 
d="M84 0l207 1520h201l-89 -641q106 103 201.5 150.5t194.5 47.5q150 0 218.5 -82t47.5 -225l-104 -770h-207l98 731q14 89 -25.5 138t-130.5 49q-74 0 -139.5 -34.5t-163.5 -115.5l-102 -768h-207zM616 -104l-28 -226h-180l32 226h176z" />
    <glyph glyph-name="uni1E44" unicode="&#x1e44;" horiz-adv-x="1527" 
d="M1079 1905l-32 -254h-220l35 254h217zM1260 1481h206l-200 -1481h-187l-596 1139l-155 -1139h-207l203 1481h198l586 -1121z" />
    <glyph glyph-name="uni1E45" unicode="&#x1e45;" horiz-adv-x="1171" 
d="M852 1481l-33 -254h-221l37 254h217zM82 0l143 1057h201l-23 -176q108 102 198.5 149t195.5 47q146 0 216.5 -82.5t51.5 -222.5l-107 -772h-206l100 731q12 88 -31 137.5t-133 49.5q-75 0 -145 -36.5t-152 -111.5l-102 -770h-207z" />
    <glyph glyph-name="uni1E5A" unicode="&#x1e5a;" horiz-adv-x="1370" 
d="M1165 0h-215l-172 625h-364l-86 -625h-207l203 1481h567q233 0 338 -108.5t78 -303.5q-40 -292 -328 -407zM739 797q152 0 245 67t110 195q17 123 -49 187.5t-199 64.5h-340l-68 -514h301zM688 -104l-29 -226h-182l35 226h176z" />
    <glyph glyph-name="uni1E5B" unicode="&#x1e5b;" horiz-adv-x="778" 
d="M76 0l143 1057h199l-31 -230q65 107 178 178.5t228 71.5l-27 -200q-157 11 -271 -69.5t-130 -186.5l-80 -621h-209zM272 -104l-30 -226h-181l35 226h176z" />
    <glyph glyph-name="uni1E62" unicode="&#x1e62;" horiz-adv-x="1343" 
d="M602 -20q-188 0 -323.5 73t-196.5 209l168 109q67 -112 143 -158.5t221 -46.5q150 0 245.5 51t109.5 164q10 73 -23.5 126.5t-140.5 94.5l-289 103q-150 53 -215 150t-47 222q25 189 181 306.5t386 117.5q157 0 276 -59.5t183 -171.5l-164 -113q-52 79 -125 122.5
t-192 43.5q-136 0 -222 -59t-100 -160q-3 -28 0.5 -52t17.5 -55t51.5 -59t96.5 -49l279 -92q162 -57 227.5 -154t46.5 -237q-28 -198 -187 -312t-407 -114zM676 -104l-29 -226h-182l35 226h176z" />
    <glyph glyph-name="uni1E63" unicode="&#x1e63;" horiz-adv-x="1081" 
d="M467 -20q-160 0 -272.5 68t-147.5 177l146 76q36 -76 112 -123t184 -47q88 0 171 44.5t92 103.5q6 52 -32.5 87.5t-129.5 61.5l-174 49q-275 75 -248 275q19 146 146 235.5t313 89.5q144 0 239.5 -57t137.5 -154l-144 -73q-31 63 -99 99t-161 36q-91 0 -164 -43.5
t-80 -104.5q-6 -42 26.5 -73t129.5 -62l211 -67q246 -70 223 -279q-22 -143 -156 -231t-323 -88zM500 -113l-29 -225h-182l35 225h176z" />
    <glyph glyph-name="uni1E6C" unicode="&#x1e6c;" horiz-adv-x="1163" 
d="M139 1288l27 193h1100l-27 -193h-434l-174 -1288h-209l176 1288h-459zM610 -104l-28 -226h-183l35 226h176z" />
    <glyph glyph-name="uni1E6D" unicode="&#x1e6d;" horiz-adv-x="845" 
d="M782 907h-241l-84 -635q-10 -75 9 -102t66 -27h154l-18 -131q-49 -18 -170 -18q-162 0 -216 65t-36 201l88 647h-189l21 150h194l74 348h174l-47 -348h244zM530 -104l-28 -226h-183l35 226h176z" />
    <glyph glyph-name="Wgrave" unicode="&#x1e80;" horiz-adv-x="1908" 
d="M913 1927l465 -211l-49 -94l-485 154zM1993 1481l-621 -1481h-184l-154 1114l-459 -1114h-180l-213 1481h205l156 -1143l463 1143h159l156 -1143l465 1143h207z" />
    <glyph glyph-name="wgrave" unicode="&#x1e81;" horiz-adv-x="1589" 
d="M690 1503l465 -211l-49 -94l-483 154zM1604 1057l-467 -1057h-181l-127 756l-325 -756h-185l-184 1057h199l127 -783l336 783h155l131 -783l332 783h189z" />
    <glyph glyph-name="Wacute" unicode="&#x1e82;" horiz-adv-x="1908" 
d="M1368 1931l33 -157l-520 -152l-25 104zM1993 1481l-621 -1481h-184l-154 1114l-459 -1114h-180l-213 1481h205l156 -1143l463 1143h159l156 -1143l465 1143h207z" />
    <glyph glyph-name="wacute" unicode="&#x1e83;" horiz-adv-x="1589" 
d="M1147 1507l33 -157l-521 -152l-24 105zM1604 1057l-467 -1057h-181l-127 756l-325 -756h-185l-184 1057h199l127 -783l336 783h155l131 -783l332 783h189z" />
    <glyph glyph-name="Wdieresis" unicode="&#x1e84;" horiz-adv-x="1908" 
d="M1087 1905l-32 -232h-195l33 232h194zM1407 1905l-31 -232h-196l32 232h195zM1993 1481l-621 -1481h-184l-154 1114l-459 -1114h-180l-213 1481h205l156 -1143l463 1143h159l156 -1143l465 1143h207z" />
    <glyph glyph-name="wdieresis" unicode="&#x1e85;" horiz-adv-x="1589" 
d="M866 1481l-32 -232h-195l33 232h194zM1186 1481l-31 -232h-197l33 232h195zM1604 1057l-467 -1057h-181l-127 756l-325 -756h-185l-184 1057h199l127 -783l336 783h155l131 -783l332 783h189z" />
    <glyph glyph-name="uni1E92" unicode="&#x1e92;" horiz-adv-x="1273" 
d="M33 0l14 113l934 1185h-735l24 183h1028l-12 -109l-946 -1190h778l-24 -182h-1061zM655 -104l-28 -226h-183l35 226h176z" />
    <glyph glyph-name="uni1E93" unicode="&#x1e93;" horiz-adv-x="983" 
d="M8 0l17 123l686 795h-537l21 139h786l-16 -123l-684 -793h585l-18 -141h-840zM508 -104l-29 -226h-180l33 226h176z" />
    <glyph glyph-name="uni1EA0" unicode="&#x1ea0;" horiz-adv-x="1341" 
d="M4 0l721 1481h229l316 -1481h-211l-80 393h-573l-193 -393h-209zM483 584h467l-139 690zM727 -104l-29 -226h-180l33 226h176z" />
    <glyph glyph-name="uni1EA1" unicode="&#x1ea1;" horiz-adv-x="1079" 
d="M352 -20q-152 0 -234.5 82.5t-62.5 226.5q23 174 154 256t401 96l172 12l11 72q12 97 -38 154t-149 57q-168 0 -289 -166l-161 33q71 127 195 200.5t284 73.5q202 0 290.5 -89t67.5 -249l-100 -739h-176l8 164q-144 -184 -373 -184zM436 127q101 0 197 68.5t108 152.5
l25 187l-143 -11q-177 -13 -264 -59t-101 -158q-13 -83 37 -131.5t141 -48.5zM506 -104l-29 -226h-180l33 226h176z" />
    <glyph glyph-name="uni1EA2" unicode="&#x1ea2;" horiz-adv-x="1419" 
d="M717 1921l35 -100q70 47 116 47q31 0 49.5 -13t14.5 -43q-6 -27 -32.5 -54.5t-88.5 -76.5l51 -79q6 5 27 23.5t28 24.5t24.5 22.5t24 24t20 22t19 24.5t13 23.5t11 26.5t5.5 26q10 70 -31.5 112.5t-117.5 42.5q-71 0 -168 -53zM4 0l721 1481h229l316 -1481h-211l-80 393
h-573l-193 -393h-209zM483 584h467l-139 690z" />
    <glyph glyph-name="uni1EA3" unicode="&#x1ea3;" horiz-adv-x="1140" 
d="M506 1497l35 -100q66 47 114 47q33 0 51.5 -12.5t12.5 -42.5q-4 -27 -31.5 -56t-89.5 -76l51 -79q95 82 124 116q43 51 50 101q10 70 -31.5 112.5t-117.5 42.5q-71 0 -168 -53zM362 -20q-152 0 -234 82.5t-62 226.5q23 174 154 256t401 96l172 12l10 72q12 97 -39 154
t-150 57q-168 0 -286 -166l-162 33q69 126 194 200t285 74q202 0 290 -89t66 -249l-98 -739h-176l6 164q-144 -184 -371 -184zM446 127q100 0 197 69t107 152l24 187l-141 -11q-177 -13 -264 -59t-101 -158q-13 -83 37 -131.5t141 -48.5z" />
    <glyph glyph-name="uni1EA4" unicode="&#x1ea4;" horiz-adv-x="1419" 
d="M1165 2249l33 -158l-520 -152l-25 105zM1018 1669l-119 141l-170 -141h-186l284 244h144l217 -244h-170zM4 0l721 1481h229l316 -1481h-211l-80 393h-573l-193 -393h-209zM483 584h467l-139 690z" />
    <glyph glyph-name="uni1EA5" unicode="&#x1ea5;" horiz-adv-x="1140" 
d="M958 1825l33 -158l-520 -151l-25 104zM811 1245l-119 141l-170 -141h-186l285 244h143l217 -244h-170zM362 -20q-152 0 -234 82.5t-62 226.5q23 174 154 256t401 96l172 12l10 72q12 97 -39 154t-150 57q-168 0 -286 -166l-162 33q69 126 194 200t285 74q202 0 290 -89
t66 -249l-98 -739h-176l6 164q-144 -184 -371 -184zM446 127q100 0 197 69t107 152l24 187l-141 -11q-177 -13 -264 -59t-101 -158q-13 -83 37 -131.5t141 -48.5z" />
    <glyph glyph-name="uni1EA6" unicode="&#x1ea6;" horiz-adv-x="1419" 
d="M711 2245l465 -209l-50 -97l-483 154zM1018 1669l-119 141l-168 -141h-186l282 244h146l217 -244h-172zM4 0l721 1481h229l316 -1481h-211l-80 393h-573l-193 -393h-209zM483 584h467l-139 690z" />
    <glyph glyph-name="uni1EA7" unicode="&#x1ea7;" horiz-adv-x="1140" 
d="M502 1821l465 -209l-49 -96l-484 153zM811 1245l-119 141l-170 -141h-186l285 244h143l217 -244h-170zM362 -20q-152 0 -234 82.5t-62 226.5q23 174 154 256t401 96l172 12l10 72q12 97 -39 154t-150 57q-168 0 -286 -166l-162 33q69 126 194 200t285 74q202 0 290 -89
t66 -249l-98 -739h-176l6 164q-144 -184 -371 -184zM446 127q100 0 197 69t107 152l24 187l-141 -11q-177 -13 -264 -59t-101 -158q-13 -83 37 -131.5t141 -48.5z" />
    <glyph glyph-name="uni1EA8" unicode="&#x1ea8;" horiz-adv-x="1419" 
d="M1059 2107l35 -98q72 45 114 45q34 0 52 -11.5t14 -41.5q-6 -29 -33 -57t-88 -74l51 -82q9 8 34.5 31t35 32t29.5 28t28.5 31t20 29.5t17 33.5t7.5 34q10 70 -31.5 112t-117.5 42q-69 0 -168 -54zM1018 1669l-119 141l-170 -141h-186l284 244h144l217 -244h-170zM4 0
l721 1481h229l316 -1481h-211l-80 393h-573l-193 -393h-209zM483 584h467l-139 690z" />
    <glyph glyph-name="uni1EA9" unicode="&#x1ea9;" horiz-adv-x="1140" 
d="M856 1683l35 -98q68 45 115 45q33 0 51 -11.5t12 -41.5q-4 -29 -31.5 -57t-89.5 -74l51 -82q7 6 31 27t31.5 28t27 25t26.5 27t20.5 25.5t19 28.5t11.5 27.5t8 30.5q10 70 -32 112t-118 42q-69 0 -168 -54zM811 1245l-119 141l-170 -141h-186l285 244h143l217 -244h-170z
M362 -20q-152 0 -234 82.5t-62 226.5q23 174 154 256t401 96l172 12l10 72q12 97 -39 154t-150 57q-168 0 -286 -166l-162 33q69 126 194 200t285 74q202 0 290 -89t66 -249l-98 -739h-176l6 164q-144 -184 -371 -184zM446 127q100 0 197 69t107 152l24 187l-141 -11
q-177 -13 -264 -59t-101 -158q-13 -83 37 -131.5t141 -48.5z" />
    <glyph glyph-name="uni1EAA" unicode="&#x1eaa;" horiz-adv-x="1419" 
d="M1243 2079q-84 -47 -180 -47q-57 0 -133 26.5t-117 26.5q-32 0 -56.5 -9t-54.5 -28t-43 -25l-28 127q90 62 172 62q56 0 139.5 -27.5t122.5 -27.5q41 0 96.5 27.5t63.5 29.5zM1018 1669l-119 141l-170 -141h-186l284 244h144l217 -244h-170zM4 0l721 1481h229l316 -1481
h-211l-80 393h-573l-193 -393h-209zM483 584h467l-139 690z" />
    <glyph glyph-name="uni1EAB" unicode="&#x1eab;" horiz-adv-x="1140" 
d="M1036 1655q-84 -47 -180 -47q-57 0 -133 26.5t-117 26.5q-32 0 -56.5 -9t-54 -27.5t-42.5 -25.5l-29 127q90 62 172 62q56 0 139.5 -27.5t122.5 -27.5q41 0 96.5 27.5t63.5 29.5zM811 1245l-119 141l-170 -141h-186l285 244h143l217 -244h-170zM362 -20q-152 0 -234 82.5
t-62 226.5q23 174 154 256t401 96l172 12l10 72q12 97 -39 154t-150 57q-168 0 -286 -166l-162 33q69 126 194 200t285 74q202 0 290 -89t66 -249l-98 -739h-176l6 164q-144 -184 -371 -184zM446 127q100 0 197 69t107 152l24 187l-141 -11q-177 -13 -264 -59t-101 -158
q-13 -83 37 -131.5t141 -48.5z" />
    <glyph glyph-name="uni1EAC" unicode="&#x1eac;" horiz-adv-x="1341" 
d="M1018 1669l-119 141l-170 -141h-184l282 244h144l217 -244h-170zM4 0l721 1481h229l316 -1481h-211l-80 393h-573l-193 -393h-209zM483 584h467l-139 690zM727 -104l-29 -226h-180l33 226h176z" />
    <glyph glyph-name="uni1EAD" unicode="&#x1ead;" horiz-adv-x="1079" 
d="M811 1245l-119 141l-170 -141h-186l285 244h143l217 -244h-170zM362 -20q-152 0 -234 82.5t-62 226.5q23 174 154 256t401 96l172 12l10 72q12 97 -39 154t-150 57q-168 0 -286 -166l-162 33q69 126 194 200t285 74q202 0 290 -89t66 -249l-98 -739h-176l6 164
q-144 -184 -371 -184zM446 127q100 0 197 69t107 152l24 187l-141 -11q-177 -13 -264 -59t-101 -158q-13 -83 37 -131.5t141 -48.5zM506 -104l-29 -226h-180l33 226h176z" />
    <glyph glyph-name="uni1EAE" unicode="&#x1eae;" horiz-adv-x="1419" 
d="M1165 2281l33 -159l-520 -152l-25 105zM1217 1903q-42 -99 -135.5 -164.5t-211.5 -65.5q-123 0 -198 61t-84 169h131q15 -24 25.5 -37.5t30.5 -33t45.5 -29t56.5 -9.5q111 0 188 109h152zM4 0l721 1481h229l316 -1481h-211l-80 393h-573l-193 -393h-209zM483 584h467
l-139 690z" />
    <glyph glyph-name="uni1EAF" unicode="&#x1eaf;" horiz-adv-x="1140" 
d="M958 1858l33 -160l-520 -152l-25 105zM1010 1479q-44 -99 -136.5 -164.5t-211.5 -65.5q-123 0 -198.5 61t-84.5 169h131q15 -24 25.5 -37.5t30.5 -33t45.5 -29t56.5 -9.5q109 0 190 109h152zM362 -20q-152 0 -234 82.5t-62 226.5q23 174 154 256t401 96l172 12l10 72
q12 97 -39 154t-150 57q-168 0 -286 -166l-162 33q69 126 194 200t285 74q202 0 290 -89t66 -249l-98 -739h-176l6 164q-144 -184 -371 -184zM446 127q100 0 197 69t107 152l24 187l-141 -11q-177 -13 -264 -59t-101 -158q-13 -83 37 -131.5t141 -48.5z" />
    <glyph glyph-name="uni1EB0" unicode="&#x1eb0;" horiz-adv-x="1419" 
d="M709 2277l465 -211l-50 -94l-485 152zM1217 1903q-44 -99 -137 -164.5t-212 -65.5q-123 0 -197 60.5t-85 169.5h133q16 -25 25.5 -37.5t29.5 -32.5t45.5 -29.5t57.5 -9.5q107 0 188 109h152zM4 0l721 1481h229l316 -1481h-211l-80 393h-573l-193 -393h-209zM483 584h467
l-139 690z" />
    <glyph glyph-name="uni1EB1" unicode="&#x1eb1;" horiz-adv-x="1140" 
d="M502 1853l465 -211l-49 -94l-484 152zM1010 1479q-44 -99 -136.5 -164.5t-211.5 -65.5q-123 0 -198.5 61t-84.5 169h131q15 -24 25.5 -37.5t30.5 -33t45.5 -29t56.5 -9.5q109 0 190 109h152zM362 -20q-152 0 -234 82.5t-62 226.5q23 174 154 256t401 96l172 12l10 72
q12 97 -39 154t-150 57q-168 0 -286 -166l-162 33q69 126 194 200t285 74q202 0 290 -89t66 -249l-98 -739h-176l6 164q-144 -184 -371 -184zM446 127q100 0 197 69t107 152l24 187l-141 -11q-177 -13 -264 -59t-101 -158q-13 -83 37 -131.5t141 -48.5z" />
    <glyph glyph-name="uni1EB2" unicode="&#x1eb2;" horiz-adv-x="1419" 
d="M735 2212l35 -98q72 45 117 45q32 0 49.5 -13t13.5 -43q-4 -27 -30.5 -54t-90.5 -77l52 -80q7 6 27.5 24t28 25t24.5 22.5t24.5 23.5t20 22.5t18.5 24.5t13.5 23.5t11.5 26.5t6 27q10 69 -33 111.5t-119 42.5q-67 0 -168 -53zM1217 1903q-44 -99 -136.5 -164.5
t-210.5 -65.5q-123 0 -198 61t-84 169h131q15 -24 25.5 -37.5t30.5 -33t45.5 -29t56.5 -9.5q111 0 188 109h152zM4 0l721 1481h229l316 -1481h-211l-80 393h-573l-193 -393h-209zM483 584h467l-139 690z" />
    <glyph glyph-name="uni1EB3" unicode="&#x1eb3;" horiz-adv-x="1140" 
d="M543 1845l35 -98q67 45 116 45q33 0 50.5 -11.5t13.5 -41.5q-3 -20 -20.5 -41.5t-36 -37t-64.5 -52.5l51 -82q94 83 120 113q46 54 54 106q10 70 -32.5 113t-118.5 43q-68 0 -168 -56zM1010 1479q-44 -99 -136.5 -164.5t-211.5 -65.5q-123 0 -198.5 61t-84.5 169h131
q15 -24 25.5 -37.5t30.5 -33t45.5 -29t56.5 -9.5q109 0 190 109h152zM362 -20q-152 0 -234 82.5t-62 226.5q23 174 154 256t401 96l172 12l10 72q12 97 -39 154t-150 57q-168 0 -286 -166l-162 33q69 126 194 200t285 74q202 0 290 -89t66 -249l-98 -739h-176l6 164
q-144 -184 -371 -184zM446 127q100 0 197 69t107 152l24 187l-141 -11q-177 -13 -264 -59t-101 -158q-13 -83 37 -131.5t141 -48.5z" />
    <glyph glyph-name="uni1EB4" unicode="&#x1eb4;" horiz-adv-x="1419" 
d="M1243 2109q-84 -47 -180 -47q-57 0 -133 27t-117 27q-32 0 -57 -9t-53.5 -26.5t-43.5 -24.5l-28 127q90 62 172 62q56 0 139.5 -29t122.5 -29q41 0 95.5 28.5t64.5 31.5zM1217 1903q-42 -99 -135.5 -164.5t-211.5 -65.5q-123 0 -198 61t-84 169h131q15 -24 25.5 -37.5
t30.5 -33t45.5 -29t56.5 -9.5q111 0 188 109h152zM4 0l721 1481h229l316 -1481h-211l-80 393h-573l-193 -393h-209zM483 584h467l-139 690z" />
    <glyph glyph-name="uni1EB5" unicode="&#x1eb5;" horiz-adv-x="1140" 
d="M1036 1686q-86 -48 -180 -48q-57 0 -133 27t-117 27q-33 0 -58 -9t-52.5 -26.5t-42.5 -24.5l-29 127q90 62 172 62q56 0 139 -29t121 -29q42 0 97.5 28.5t64.5 31.5zM1010 1479q-44 -99 -136.5 -164.5t-211.5 -65.5q-123 0 -198.5 61t-84.5 169h131q15 -24 25.5 -37.5
t30.5 -33t45.5 -29t56.5 -9.5q109 0 190 109h152zM362 -20q-152 0 -234 82.5t-62 226.5q23 174 154 256t401 96l172 12l10 72q12 97 -39 154t-150 57q-168 0 -286 -166l-162 33q69 126 194 200t285 74q202 0 290 -89t66 -249l-98 -739h-176l6 164q-144 -184 -371 -184z
M446 127q100 0 197 69t107 152l24 187l-141 -11q-177 -13 -264 -59t-101 -158q-13 -83 37 -131.5t141 -48.5z" />
    <glyph glyph-name="uni1EB6" unicode="&#x1eb6;" horiz-adv-x="1341" 
d="M1217 1903q-44 -99 -137 -164.5t-212 -65.5q-123 0 -197 60.5t-85 169.5h133q16 -25 25.5 -37.5t29.5 -32.5t45.5 -29.5t57.5 -9.5q107 0 188 109h152zM4 0l721 1481h229l316 -1481h-211l-80 393h-573l-193 -393h-209zM483 584h467l-139 690zM727 -104l-29 -226h-180
l33 226h176z" />
    <glyph glyph-name="uni1EB7" unicode="&#x1eb7;" horiz-adv-x="1079" 
d="M1010 1479q-44 -99 -136.5 -164.5t-211.5 -65.5q-123 0 -198.5 61t-84.5 169h131q15 -24 25.5 -37.5t30.5 -33t45.5 -29t56.5 -9.5q109 0 190 109h152zM362 -20q-152 0 -234 82.5t-62 226.5q23 174 154 256t401 96l172 12l10 72q12 97 -39 154t-150 57q-168 0 -286 -166
l-162 33q69 126 194 200t285 74q202 0 290 -89t66 -249l-98 -739h-176l6 164q-144 -184 -371 -184zM446 127q100 0 197 69t107 152l24 187l-141 -11q-177 -13 -264 -59t-101 -158q-13 -83 37 -131.5t141 -48.5zM506 -104l-29 -226h-180l33 226h176z" />
    <glyph glyph-name="uni1EB8" unicode="&#x1eb8;" horiz-adv-x="1267" 
d="M121 0l203 1481h921l-26 -185h-713l-64 -460h637l-22 -181h-639l-64 -469l733 -2l-26 -184h-940zM692 -104l-28 -226h-183l35 226h176z" />
    <glyph glyph-name="uni1EB9" unicode="&#x1eb9;" horiz-adv-x="1146" 
d="M297 469q-21 -150 42.5 -246t201.5 -96q173 0 276 160l160 -47q-72 -127 -191 -193.5t-264 -66.5q-109 0 -196 37t-144.5 105.5t-81 170t-6.5 225.5q34 250 185.5 404.5t373.5 154.5q217 0 320 -145t69 -389l-12 -74h-733zM319 618h535q20 142 -36 230t-185 88
q-91 0 -160.5 -46.5t-106.5 -116.5t-47 -155zM578 -104l-29 -226h-182l34 226h177z" />
    <glyph glyph-name="uni1EBA" unicode="&#x1eba;" horiz-adv-x="1267" 
d="M666 1921l34 -100q70 47 117 47q31 0 49.5 -13t14.5 -43q-6 -27 -32.5 -54.5t-88.5 -76.5l51 -79q6 5 27 23.5t28 24.5t24.5 22.5t24 24t20 22t19 24.5t13 23.5t11 26.5t5.5 26q10 70 -31.5 112.5t-117.5 42.5q-71 0 -168 -53zM121 0l203 1481h921l-26 -185h-713
l-64 -460h637l-22 -181h-639l-64 -469l733 -2l-26 -184h-940z" />
    <glyph glyph-name="uni1EBB" unicode="&#x1ebb;" horiz-adv-x="1148" 
d="M516 1497l35 -100q70 47 117 47q31 0 49 -12.5t14 -42.5q-6 -27 -33 -55.5t-88 -76.5l52 -79q6 5 27 23.5t28 24.5t24.5 22.5t24 24t20 22t19 24.5t13 23.5t11 26.5t5.5 26q10 70 -32 112.5t-118 42.5q-71 0 -168 -53zM297 469q-21 -150 42.5 -246t201.5 -96
q173 0 276 160l160 -47q-72 -127 -191 -193.5t-264 -66.5q-109 0 -196 37t-144.5 105.5t-81 170t-6.5 225.5q34 250 185.5 404.5t373.5 154.5q217 0 320 -145t69 -389l-12 -74h-733zM319 618h535q20 142 -36 230t-185 88q-91 0 -160.5 -46.5t-106.5 -116.5t-47 -155z" />
    <glyph glyph-name="uni1EBC" unicode="&#x1ebc;" horiz-adv-x="1267" 
d="M1151 1759q-84 -47 -178 -47q-58 0 -133.5 26.5t-116.5 26.5q-33 0 -58 -8.5t-53.5 -26.5t-42.5 -24l-30 127q47 31 85 46t89 15q55 0 138 -28.5t122 -28.5q41 0 96 28t64 31zM121 0l203 1481h921l-26 -185h-713l-64 -460h637l-22 -181h-639l-64 -469l733 -2l-26 -184
h-940z" />
    <glyph glyph-name="uni1EBD" unicode="&#x1ebd;" horiz-adv-x="1146" 
d="M1008 1335q-80 -47 -179 -47q-58 0 -133 26.5t-116 26.5q-33 0 -58 -8.5t-53.5 -26.5t-42.5 -24l-29 127q89 61 172 61q56 0 138.5 -28.5t121.5 -28.5q41 0 97 29t63 31zM297 469q-21 -150 42.5 -246t201.5 -96q173 0 276 160l160 -47q-72 -127 -191 -193.5t-264 -66.5
q-109 0 -196 37t-144.5 105.5t-81 170t-6.5 225.5q34 250 185.5 404.5t373.5 154.5q217 0 320 -145t69 -389l-12 -74h-733zM319 618h535q20 142 -36 230t-185 88q-91 0 -160.5 -46.5t-106.5 -116.5t-47 -155z" />
    <glyph glyph-name="uni1EBE" unicode="&#x1ebe;" horiz-adv-x="1267" 
d="M1114 2249l33 -158l-520 -152l-25 105zM967 1669l-119 141l-170 -141h-186l284 244h144l217 -244h-170zM121 0l203 1481h921l-26 -185h-713l-64 -460h637l-22 -181h-639l-64 -469l733 -2l-26 -184h-940z" />
    <glyph glyph-name="uni1EBF" unicode="&#x1ebf;" horiz-adv-x="1148" 
d="M969 1825l32 -158l-520 -151l-24 104zM821 1245l-119 141l-170 -141h-184l283 244h143l217 -244h-170zM297 469q-21 -150 42.5 -246t201.5 -96q173 0 276 160l160 -47q-72 -127 -191 -193.5t-264 -66.5q-109 0 -196 37t-144.5 105.5t-81 170t-6.5 225.5
q34 250 185.5 404.5t373.5 154.5q217 0 320 -145t69 -389l-12 -74h-733zM319 618h535q20 142 -36 230t-185 88q-91 0 -160.5 -46.5t-106.5 -116.5t-47 -155z" />
    <glyph glyph-name="uni1EC0" unicode="&#x1ec0;" horiz-adv-x="1267" 
d="M657 2245l465 -209l-49 -97l-483 154zM965 1669l-119 141l-168 -141h-186l282 244h146l217 -244h-172zM121 0l203 1481h921l-26 -185h-713l-64 -460h637l-22 -181h-639l-64 -469l733 -2l-26 -184h-940z" />
    <glyph glyph-name="uni1EC1" unicode="&#x1ec1;" horiz-adv-x="1148" 
d="M514 1821l465 -209l-49 -96l-486 153zM821 1245l-119 141l-170 -141h-184l283 244h143l217 -244h-170zM297 469q-21 -150 42.5 -246t201.5 -96q173 0 276 160l160 -47q-72 -127 -191 -193.5t-264 -66.5q-109 0 -196 37t-144.5 105.5t-81 170t-6.5 225.5
q34 250 185.5 404.5t373.5 154.5q217 0 320 -145t69 -389l-12 -74h-733zM319 618h535q20 142 -36 230t-185 88q-91 0 -160.5 -46.5t-106.5 -116.5t-47 -155z" />
    <glyph glyph-name="uni1EC2" unicode="&#x1ec2;" horiz-adv-x="1267" 
d="M1008 2107l34 -98q72 45 115 45q34 0 52 -11.5t14 -41.5q-6 -29 -33 -57t-88 -74l51 -82q9 8 34.5 31t35 32t29.5 28t28.5 31t20 29.5t17 33.5t7.5 34q10 70 -31.5 112t-117.5 42q-69 0 -168 -54zM967 1669l-119 141l-170 -141h-186l284 244h144l217 -244h-170zM121 0
l203 1481h921l-26 -185h-713l-64 -460h637l-22 -181h-639l-64 -469l733 -2l-26 -184h-940z" />
    <glyph glyph-name="uni1EC3" unicode="&#x1ec3;" horiz-adv-x="1148" 
d="M866 1683l35 -98q72 45 117 45q32 0 49.5 -11.5t13.5 -41.5q-6 -29 -33 -57t-87 -74l51 -82q9 8 34.5 31t35 32t29.5 28t28.5 31t20 29.5t17 33.5t7.5 34q10 70 -32 112t-118 42q-69 0 -168 -54zM821 1245l-119 141l-170 -141h-184l283 244h143l217 -244h-170zM297 469
q-21 -150 42.5 -246t201.5 -96q173 0 276 160l160 -47q-72 -127 -191 -193.5t-264 -66.5q-109 0 -196 37t-144.5 105.5t-81 170t-6.5 225.5q34 250 185.5 404.5t373.5 154.5q217 0 320 -145t69 -389l-12 -74h-733zM319 618h535q20 142 -36 230t-185 88q-91 0 -160.5 -46.5
t-106.5 -116.5t-47 -155z" />
    <glyph glyph-name="uni1EC4" unicode="&#x1ec4;" horiz-adv-x="1267" 
d="M1192 2079q-84 -47 -180 -47q-57 0 -133 26.5t-117 26.5q-32 0 -56.5 -9t-54.5 -28t-43 -25l-28 127q90 62 172 62q56 0 139.5 -27.5t122.5 -27.5q41 0 96.5 27.5t63.5 29.5zM967 1669l-119 141l-170 -141h-186l284 244h144l217 -244h-170zM121 0l203 1481h921l-26 -185
h-713l-64 -460h637l-22 -181h-639l-64 -469l733 -2l-26 -184h-940z" />
    <glyph glyph-name="uni1EC5" unicode="&#x1ec5;" horiz-adv-x="1148" 
d="M1047 1655q-84 -47 -179 -47q-58 0 -134 26.5t-118 26.5q-32 0 -56 -9t-52.5 -27.5t-42.5 -25.5l-31 127q90 62 174 62q54 0 137 -27.5t123 -27.5q41 0 96.5 27.5t63.5 29.5zM821 1245l-119 141l-170 -141h-184l283 244h143l217 -244h-170zM297 469q-21 -150 42.5 -246
t201.5 -96q173 0 276 160l160 -47q-72 -127 -191 -193.5t-264 -66.5q-109 0 -196 37t-144.5 105.5t-81 170t-6.5 225.5q34 250 185.5 404.5t373.5 154.5q217 0 320 -145t69 -389l-12 -74h-733zM319 618h535q20 142 -36 230t-185 88q-91 0 -160.5 -46.5t-106.5 -116.5
t-47 -155z" />
    <glyph glyph-name="uni1EC6" unicode="&#x1ec6;" horiz-adv-x="1267" 
d="M965 1669l-117 141l-170 -141h-186l282 244h146l217 -244h-172zM121 0l203 1481h921l-26 -185h-713l-64 -460h637l-22 -181h-639l-64 -469l733 -2l-26 -184h-940zM692 -104l-28 -226h-183l35 226h176z" />
    <glyph glyph-name="uni1EC7" unicode="&#x1ec7;" horiz-adv-x="1148" 
d="M821 1245l-119 141l-170 -141h-184l283 244h143l217 -244h-170zM297 469q-21 -150 42.5 -246t201.5 -96q173 0 276 160l160 -47q-72 -127 -191 -193.5t-264 -66.5q-109 0 -196 37t-144.5 105.5t-81 170t-6.5 225.5q34 250 185.5 404.5t373.5 154.5q217 0 320 -145
t69 -389l-12 -74h-733zM319 618h535q20 142 -36 230t-185 88q-91 0 -160.5 -46.5t-106.5 -116.5t-47 -155zM578 -104l-29 -226h-182l34 226h177z" />
    <glyph glyph-name="uni1EC8" unicode="&#x1ec8;" horiz-adv-x="589" 
d="M297 1921l35 -100q70 47 117 47q31 0 49 -13t14 -43q-6 -27 -32.5 -54.5t-88.5 -76.5l51 -79q6 5 27 23.5t28 24.5t24.5 22.5t24 24t20 22t19 24.5t13 23.5t11 26.5t5.5 26q10 70 -31.5 112.5t-117.5 42.5q-71 0 -168 -53zM324 1481h204l-200 -1481h-207z" />
    <glyph glyph-name="uni1EC9" unicode="&#x1ec9;" horiz-adv-x="534" 
d="M205 1497l35 -100q66 47 114 47q33 0 51.5 -12.5t12.5 -42.5q-4 -27 -31.5 -56t-89.5 -76l51 -79q95 82 124 116q43 51 50 101q10 70 -31.5 112.5t-117.5 42.5q-71 0 -168 -53zM440 1057l-145 -1057h-207l143 1057h209z" />
    <glyph glyph-name="uni1ECA" unicode="&#x1eca;" horiz-adv-x="589" 
d="M324 1481h204l-200 -1481h-207zM307 -104l-28 -226h-183l35 226h176z" />
    <glyph glyph-name="uni1ECB" unicode="&#x1ecb;" horiz-adv-x="548" 
d="M518 1520l-37 -252h-219l37 252h219zM446 1057l-143 -1057h-207l146 1057h204zM281 -104l-29 -226h-182l34 226h177z" />
    <glyph glyph-name="uni1ECC" unicode="&#x1ecc;" horiz-adv-x="1507" 
d="M678 -20q-295 0 -435 199t-91 556q49 360 246 563t489 203q291 0 433 -202.5t93 -561.5q-51 -357 -246.5 -557t-488.5 -200zM707 160q194 0 317 141.5t162 433.5q39 296 -45.5 441t-276.5 145q-195 0 -320 -145t-165 -441q-39 -292 46.5 -433.5t281.5 -141.5zM745 -104
l-28 -226h-182l34 226h176z" />
    <glyph glyph-name="uni1ECD" unicode="&#x1ecd;" horiz-adv-x="1142" 
d="M494 -20q-220 0 -330 150t-76 392q34 248 188 401.5t373 153.5q220 0 329 -153.5t75 -399.5q-31 -242 -184 -393t-375 -151zM520 125q90 0 161 58t110.5 147t54.5 200t-1 200.5t-72 146.5t-146 57q-69 0 -127 -32.5t-98 -89t-66 -128t-37 -154.5q-16 -111 -0.5 -200
t72 -147t149.5 -58zM578 -104l-29 -226h-180l32 226h177z" />
    <glyph glyph-name="uni1ECE" unicode="&#x1ece;" horiz-adv-x="1456" 
d="M727 1921l35 -100q70 47 115 47q33 0 51 -13t14 -43q-6 -27 -32.5 -54.5t-88.5 -76.5l51 -79q6 5 27 23.5t28 24.5t24.5 22.5t24 24t20 22t19 24.5t13 23.5t11 26.5t5.5 26q10 70 -31.5 112.5t-117.5 42.5q-71 0 -168 -53zM678 -20q-295 0 -435 199t-91 556
q49 360 246 563t489 203q291 0 433 -202.5t93 -561.5q-51 -357 -246.5 -557t-488.5 -200zM707 160q194 0 317 141.5t162 433.5q39 296 -45.5 441t-276.5 145q-195 0 -320 -145t-165 -441q-39 -292 46.5 -433.5t281.5 -141.5z" />
    <glyph glyph-name="uni1ECF" unicode="&#x1ecf;" horiz-adv-x="1150" 
d="M516 1497l35 -100q70 47 117 47q33 0 50 -12.5t13 -42.5q-6 -27 -33 -55.5t-88 -76.5l52 -79q95 82 124 116q43 51 50 101q9 70 -33.5 112.5t-118.5 42.5q-71 0 -168 -53zM494 -20q-220 0 -330 150t-76 392q34 248 188 401.5t373 153.5q220 0 329 -153.5t75 -399.5
q-31 -242 -184 -393t-375 -151zM520 125q90 0 161 58t110.5 147t54.5 200t-1 200.5t-72 146.5t-146 57q-69 0 -127 -32.5t-98 -89t-66 -128t-37 -154.5q-16 -111 -0.5 -200t72 -147t149.5 -58z" />
    <glyph glyph-name="uni1ED0" unicode="&#x1ed0;" horiz-adv-x="1456" 
d="M1180 2249l32 -158l-520 -152l-24 105zM1032 1669l-119 141l-170 -141h-184l283 244h143l217 -244h-170zM678 -20q-295 0 -435 199t-91 556q49 360 246 563t489 203q291 0 433 -202.5t93 -561.5q-51 -357 -246.5 -557t-488.5 -200zM707 160q194 0 317 141.5t162 433.5
q39 296 -45.5 441t-276.5 145q-195 0 -320 -145t-165 -441q-39 -292 46.5 -433.5t281.5 -141.5z" />
    <glyph glyph-name="uni1ED1" unicode="&#x1ed1;" horiz-adv-x="1150" 
d="M969 1825l35 -158l-521 -151l-24 104zM821 1245l-119 141l-170 -141h-184l283 244h145l215 -244h-170zM494 -20q-220 0 -330 150t-76 392q34 248 188 401.5t373 153.5q220 0 329 -153.5t75 -399.5q-31 -242 -184 -393t-375 -151zM520 125q90 0 161 58t110.5 147t54.5 200
t-1 200.5t-72 146.5t-146 57q-69 0 -127 -32.5t-98 -89t-66 -128t-37 -154.5q-16 -111 -0.5 -200t72 -147t149.5 -58z" />
    <glyph glyph-name="uni1ED2" unicode="&#x1ed2;" horiz-adv-x="1456" 
d="M725 2245l465 -209l-49 -97l-486 154zM1032 1669l-119 141l-170 -141h-184l283 244h143l217 -244h-170zM678 -20q-295 0 -435 199t-91 556q49 360 246 563t489 203q291 0 433 -202.5t93 -561.5q-51 -357 -246.5 -557t-488.5 -200zM707 160q194 0 317 141.5t162 433.5
q39 296 -45.5 441t-276.5 145q-195 0 -320 -145t-165 -441q-39 -292 46.5 -433.5t281.5 -141.5z" />
    <glyph glyph-name="uni1ED3" unicode="&#x1ed3;" horiz-adv-x="1150" 
d="M514 1821l465 -209l-49 -96l-486 153zM821 1245l-119 141l-170 -141h-184l283 244h145l215 -244h-170zM494 -20q-220 0 -330 150t-76 392q34 248 188 401.5t373 153.5q220 0 329 -153.5t75 -399.5q-31 -242 -184 -393t-375 -151zM520 125q90 0 161 58t110.5 147t54.5 200
t-1 200.5t-72 146.5t-146 57q-69 0 -127 -32.5t-98 -89t-66 -128t-37 -154.5q-16 -111 -0.5 -200t72 -147t149.5 -58z" />
    <glyph glyph-name="uni1ED4" unicode="&#x1ed4;" horiz-adv-x="1456" 
d="M1073 2107l35 -98q72 45 117 45q33 0 50 -11.5t13 -41.5q-6 -29 -33 -57t-88 -74l52 -82q7 6 27.5 24t28 25t24.5 22.5t24.5 23.5t20 22.5t18.5 24.5t13.5 23.5t11.5 26.5t6 27q9 70 -33.5 112t-118.5 42q-69 0 -168 -54zM1032 1669l-119 141l-170 -141h-184l283 244h143
l217 -244h-170zM678 -20q-295 0 -435 199t-91 556q49 360 246 563t489 203q291 0 433 -202.5t93 -561.5q-51 -357 -246.5 -557t-488.5 -200zM707 160q194 0 317 141.5t162 433.5q39 296 -45.5 441t-276.5 145q-195 0 -320 -145t-165 -441q-39 -292 46.5 -433.5t281.5 -141.5
z" />
    <glyph glyph-name="uni1ED5" unicode="&#x1ed5;" horiz-adv-x="1150" 
d="M866 1683l35 -98q72 45 117 45q33 0 50 -11.5t13 -41.5q-6 -29 -33 -57t-87 -74l51 -82q7 6 27.5 24t28 25t24.5 22.5t24.5 23.5t20 22.5t18.5 24.5t13.5 23.5t11.5 26.5t6 27q9 70 -33.5 112t-118.5 42q-69 0 -168 -54zM821 1245l-119 141l-170 -141h-184l283 244h145
l215 -244h-170zM494 -20q-220 0 -330 150t-76 392q34 248 188 401.5t373 153.5q220 0 329 -153.5t75 -399.5q-31 -242 -184 -393t-375 -151zM520 125q90 0 161 58t110.5 147t54.5 200t-1 200.5t-72 146.5t-146 57q-69 0 -127 -32.5t-98 -89t-66 -128t-37 -154.5
q-16 -111 -0.5 -200t72 -147t149.5 -58z" />
    <glyph glyph-name="uni1ED6" unicode="&#x1ed6;" horiz-adv-x="1456" 
d="M1257 2079q-84 -47 -180 -47q-57 0 -133 26.5t-117 26.5q-32 0 -56.5 -8.5t-53.5 -28t-41 -25.5l-31 127q90 62 174 62q55 0 138 -27.5t122 -27.5q41 0 96.5 27.5t63.5 29.5zM1032 1669l-119 141l-170 -141h-184l283 244h143l217 -244h-170zM678 -20q-295 0 -435 199
t-91 556q49 360 246 563t489 203q291 0 433 -202.5t93 -561.5q-51 -357 -246.5 -557t-488.5 -200zM707 160q194 0 317 141.5t162 433.5q39 296 -45.5 441t-276.5 145q-195 0 -320 -145t-165 -441q-39 -292 46.5 -433.5t281.5 -141.5z" />
    <glyph glyph-name="uni1ED7" unicode="&#x1ed7;" horiz-adv-x="1150" 
d="M1047 1655q-84 -47 -179 -47q-58 0 -133.5 26.5t-116.5 26.5q-33 0 -57.5 -9t-53 -27.5t-42.5 -25.5l-29 127q45 31 83 46.5t89 15.5q56 0 138.5 -27.5t121.5 -27.5q42 0 99 28t61 29zM821 1245l-119 141l-170 -141h-184l283 244h145l215 -244h-170zM494 -20
q-220 0 -330 150t-76 392q34 248 188 401.5t373 153.5q220 0 329 -153.5t75 -399.5q-31 -242 -184 -393t-375 -151zM520 125q90 0 161 58t110.5 147t54.5 200t-1 200.5t-72 146.5t-146 57q-69 0 -127 -32.5t-98 -89t-66 -128t-37 -154.5q-16 -111 -0.5 -200t72 -147
t149.5 -58z" />
    <glyph glyph-name="uni1ED8" unicode="&#x1ed8;" horiz-adv-x="1456" 
d="M1032 1669l-119 141l-170 -141h-184l283 244h143l217 -244h-170zM678 -20q-295 0 -435 199t-91 556q49 360 246 563t489 203q291 0 433 -202.5t93 -561.5q-51 -357 -246.5 -557t-488.5 -200zM707 160q194 0 317 141.5t162 433.5q39 296 -45.5 441t-276.5 145
q-195 0 -320 -145t-165 -441q-39 -292 46.5 -433.5t281.5 -141.5zM739 -104l-28 -226h-181l33 226h176z" />
    <glyph glyph-name="uni1ED9" unicode="&#x1ed9;" horiz-adv-x="1150" 
d="M821 1245l-119 141l-170 -141h-184l283 244h145l215 -244h-170zM494 -20q-220 0 -330 150t-76 392q34 248 188 401.5t373 153.5q220 0 329 -153.5t75 -399.5q-31 -242 -184 -393t-375 -151zM520 125q90 0 161 58t110.5 147t54.5 200t-1 200.5t-72 146.5t-146 57
q-69 0 -127 -32.5t-98 -89t-66 -128t-37 -154.5q-16 -111 -0.5 -200t72 -147t149.5 -58zM578 -104l-29 -226h-180l32 226h177z" />
    <glyph glyph-name="uni1EDA" unicode="&#x1eda;" horiz-adv-x="1427" 
d="M1198 1774l-520 -152l-25 104l512 205zM1194 1421q137 -89 194.5 -264t24.5 -420q-51 -357 -246.5 -557t-488.5 -200q-295 0 -435 199t-91 556q49 360 246 563t489 203q71 0 135 -12q111 0 168 121h149q-44 -127 -145 -189zM1186 735q39 296 -45.5 441t-276.5 145
q-195 0 -320 -145t-165 -441q-39 -292 46.5 -433.5t281.5 -141.5q194 0 317 141.5t162 433.5z" />
    <glyph glyph-name="uni1EDB" unicode="&#x1edb;" horiz-adv-x="1142" 
d="M961 1350l-521 -152l-24 105l512 204zM930 977q80 -72 111.5 -189.5t11.5 -263.5q-31 -242 -184 -393t-375 -151q-220 0 -330 150t-76 392q34 248 188 401.5t373 153.5q80 0 148 -22q92 14 137 119h151q-46 -131 -155 -197zM846 530q15 111 -1 200.5t-72 146.5t-146 57
q-69 0 -127 -32.5t-98 -89t-66 -128t-37 -154.5q-16 -111 -0.5 -200t72 -147t149.5 -58q90 0 161 58t110.5 147t54.5 200z" />
    <glyph glyph-name="uni1EDC" unicode="&#x1edc;" horiz-adv-x="1427" 
d="M1176 1716l-50 -94l-485 154l70 151zM1194 1421q137 -89 194.5 -264t24.5 -420q-51 -357 -246.5 -557t-488.5 -200q-295 0 -435 199t-91 556q49 360 246 563t489 203q71 0 135 -12q111 0 168 121h149q-44 -127 -145 -189zM1186 735q39 296 -45.5 441t-276.5 145
q-195 0 -320 -145t-165 -441q-39 -292 46.5 -433.5t281.5 -141.5q194 0 317 141.5t162 433.5z" />
    <glyph glyph-name="uni1EDD" unicode="&#x1edd;" horiz-adv-x="1142" 
d="M938 1292l-49 -94l-486 154l70 151zM930 977q80 -72 111.5 -189.5t11.5 -263.5q-31 -242 -184 -393t-375 -151q-220 0 -330 150t-76 392q34 248 188 401.5t373 153.5q80 0 148 -22q92 14 137 119h151q-46 -131 -155 -197zM846 530q15 111 -1 200.5t-72 146.5t-146 57
q-69 0 -127 -32.5t-98 -89t-66 -128t-37 -154.5q-16 -111 -0.5 -200t72 -147t149.5 -58q90 0 161 58t110.5 147t54.5 200z" />
    <glyph glyph-name="uni1EDE" unicode="&#x1ede;" horiz-adv-x="1427" 
d="M901 1868q-49 0 -115 -47l-34 100q97 53 168 53q76 0 117.5 -42.5t31.5 -112.5q-4 -36 -31 -74.5t-47.5 -58.5t-77.5 -68q-12 -11 -18 -16l-49 79q62 49 88.5 76.5t30.5 54.5q6 30 -12.5 43t-51.5 13zM1194 1421q137 -89 194.5 -264t24.5 -420q-51 -357 -246.5 -557
t-488.5 -200q-295 0 -435 199t-91 556q49 360 246 563t489 203q71 0 135 -12q111 0 168 121h149q-44 -127 -145 -189zM1186 735q39 296 -45.5 441t-276.5 145q-195 0 -320 -145t-165 -441q-39 -292 46.5 -433.5t281.5 -141.5q194 0 317 141.5t162 433.5z" />
    <glyph glyph-name="uni1EDF" unicode="&#x1edf;" horiz-adv-x="1142" 
d="M664 1444q-49 0 -115 -47l-35 100q97 53 168 53q76 0 117.5 -42.5t31.5 -112.5q-2 -13 -5.5 -26t-11 -26.5t-13 -23.5t-19 -24.5t-20 -22t-24 -24t-24.5 -22.5t-28 -24.5t-27 -23.5l-51 79q61 48 88 76.5t33 55.5q4 30 -14 42.5t-51 12.5zM930 977q80 -72 111.5 -189.5
t11.5 -263.5q-31 -242 -184 -393t-375 -151q-220 0 -330 150t-76 392q34 248 188 401.5t373 153.5q80 0 148 -22q92 14 137 119h151q-46 -131 -155 -197zM846 530q15 111 -1 200.5t-72 146.5t-146 57q-69 0 -127 -32.5t-98 -89t-66 -128t-37 -154.5q-16 -111 -0.5 -200
t72 -147t149.5 -58q90 0 161 58t110.5 147t54.5 200z" />
    <glyph glyph-name="uni1EE0" unicode="&#x1ee0;" horiz-adv-x="1427" 
d="M813 1765q-32 0 -56.5 -9t-52 -26t-42.5 -24l-31 127q89 61 174 61q55 0 138 -28.5t122 -28.5q41 0 96 28t64 31l18 -137q-84 -47 -178 -47q-58 0 -134.5 26.5t-117.5 26.5zM1194 1421q137 -89 194.5 -264t24.5 -420q-51 -357 -246.5 -557t-488.5 -200q-295 0 -435 199
t-91 556q49 360 246 563t489 203q71 0 135 -12q111 0 168 121h149q-44 -127 -145 -189zM1186 735q39 296 -45.5 441t-276.5 145q-195 0 -320 -145t-165 -441q-39 -292 46.5 -433.5t281.5 -141.5q194 0 317 141.5t162 433.5z" />
    <glyph glyph-name="uni1EE1" unicode="&#x1ee1;" horiz-adv-x="1142" 
d="M575 1341q-32 0 -56.5 -9t-52 -26t-42.5 -24l-31 127q89 61 174 61q55 0 137.5 -28.5t122.5 -28.5q41 0 95.5 28.5t64.5 31.5l19 -138q-84 -47 -179 -47q-58 0 -134 26.5t-118 26.5zM930 977q80 -72 111.5 -189.5t11.5 -263.5q-31 -242 -184 -393t-375 -151
q-220 0 -330 150t-76 392q34 248 188 401.5t373 153.5q80 0 148 -22q92 14 137 119h151q-46 -131 -155 -197zM846 530q15 111 -1 200.5t-72 146.5t-146 57q-69 0 -127 -32.5t-98 -89t-66 -128t-37 -154.5q-16 -111 -0.5 -200t72 -147t149.5 -58q90 0 161 58t110.5 147
t54.5 200z" />
    <glyph glyph-name="uni1EE2" unicode="&#x1ee2;" horiz-adv-x="1427" 
d="M1194 1421q137 -89 194.5 -264t24.5 -420q-51 -357 -246.5 -557t-488.5 -200q-295 0 -435 199t-91 556q49 360 246 563t489 203q71 0 135 -12q111 0 168 121h149q-44 -127 -145 -189zM1186 735q39 296 -45.5 441t-276.5 145q-195 0 -320 -145t-165 -441
q-39 -292 46.5 -433.5t281.5 -141.5q194 0 317 141.5t162 433.5zM532 -330l33 226h176l-28 -226h-181z" />
    <glyph glyph-name="uni1EE3" unicode="&#x1ee3;" horiz-adv-x="1142" 
d="M930 977q80 -72 111.5 -189.5t11.5 -263.5q-31 -242 -184 -393t-375 -151q-220 0 -330 150t-76 392q34 248 188 401.5t373 153.5q80 0 148 -22q92 14 137 119h151q-46 -131 -155 -197zM846 530q15 111 -1 200.5t-72 146.5t-146 57q-69 0 -127 -32.5t-98 -89t-66 -128
t-37 -154.5q-16 -111 -0.5 -200t72 -147t149.5 -58q90 0 161 58t110.5 147t54.5 200zM371 -330l35 226h176l-29 -226h-182z" />
    <glyph glyph-name="uni1EE4" unicode="&#x1ee4;" horiz-adv-x="1404" 
d="M1266 520q-38 -265 -186.5 -402.5t-426.5 -137.5q-142 0 -240 37t-150.5 108t-69.5 175.5t2 238.5l129 942h213l-131 -969q-26 -175 45.5 -262.5t228.5 -87.5t254 87t123 263l129 969h209zM694 -104l-28 -226h-183l35 226h176z" />
    <glyph glyph-name="uni1EE5" unicode="&#x1ee5;" horiz-adv-x="1169" 
d="M406 -18q-144 2 -224 86t-61 223l104 768h207l-100 -731q-12 -93 28.5 -144t133.5 -51q80 0 143.5 36t150.5 118l105 772h209l-148 -1057h-159l2 168q-209 -191 -391 -188zM592 -104l-29 -226h-182l35 226h176z" />
    <glyph glyph-name="uni1EE6" unicode="&#x1ee6;" horiz-adv-x="1443" 
d="M711 1921l32 -100q70 47 117 47q33 0 50.5 -13t13.5 -43q-4 -27 -30.5 -54t-90.5 -77l51 -79q95 82 124 116q43 51 50 101q10 69 -32 112t-117 43q-71 0 -168 -53zM1266 520q-38 -265 -186.5 -402.5t-426.5 -137.5q-142 0 -240 37t-150.5 108t-69.5 175.5t2 238.5
l129 942h213l-131 -969q-26 -175 45.5 -262.5t228.5 -87.5t254 87t123 263l129 969h209z" />
    <glyph glyph-name="uni1EE7" unicode="&#x1ee7;" horiz-adv-x="1169" 
d="M516 1497l35 -100q70 47 117 47q31 0 49 -12.5t14 -42.5q-6 -27 -33 -55.5t-88 -76.5l52 -79q6 5 27 23.5t28 24.5t24.5 22.5t24 24t20 22t19 24.5t13 23.5t11 26.5t5.5 26q10 70 -32 112.5t-118 42.5q-71 0 -168 -53zM406 -18q-144 2 -224 86t-61 223l104 768h207
l-100 -731q-12 -93 28.5 -144t133.5 -51q80 0 143.5 36t150.5 118l105 772h209l-148 -1057h-159l2 168q-209 -191 -391 -188z" />
    <glyph glyph-name="uni1EE8" unicode="&#x1ee8;" horiz-adv-x="1386" 
d="M1155 1774l-520 -152l-25 104l512 205zM1681 1614q-34 -102 -112 -168.5t-189 -73.5l-114 -852q-38 -265 -186.5 -402.5t-426.5 -137.5q-142 0 -240 37t-150.5 108t-69.5 175.5t2 238.5l129 942h213l-131 -969q-26 -175 45.5 -262.5t228.5 -87.5t254 87t123 263l129 969
h178v12q113 0 168 121h149z" />
    <glyph glyph-name="uni1EE9" unicode="&#x1ee9;" horiz-adv-x="1169" 
d="M956 1350l-520 -152l-24 105l512 204zM1321 1176q-29 -85 -90 -146t-146 -84l-131 -944h-159l2 168q-209 -191 -391 -188q-144 2 -224 86t-61 223l104 768h207l-100 -731q-12 -93 28.5 -144t133.5 -51q80 0 143.5 36t150.5 118l105 772h149q84 19 127 117h152z" />
    <glyph glyph-name="uni1EEA" unicode="&#x1eea;" horiz-adv-x="1386" 
d="M1133 1716l-50 -94l-485 154l70 151zM1681 1614q-34 -102 -112 -168.5t-189 -73.5l-114 -852q-38 -265 -186.5 -402.5t-426.5 -137.5q-142 0 -240 37t-150.5 108t-69.5 175.5t2 238.5l129 942h213l-131 -969q-26 -175 45.5 -262.5t228.5 -87.5t254 87t123 263l129 969
h178v12q113 0 168 121h149z" />
    <glyph glyph-name="uni1EEB" unicode="&#x1eeb;" horiz-adv-x="1169" 
d="M932 1292l-49 -94l-486 154l70 151zM1321 1176q-29 -85 -90 -146t-146 -84l-131 -944h-159l2 168q-209 -191 -391 -188q-144 2 -224 86t-61 223l104 768h207l-100 -731q-12 -93 28.5 -144t133.5 -51q80 0 143.5 36t150.5 118l105 772h149q84 19 127 117h152z" />
    <glyph glyph-name="uni1EEC" unicode="&#x1eec;" horiz-adv-x="1386" 
d="M858 1868q-49 0 -115 -47l-34 100q97 53 168 53q76 0 117.5 -42.5t31.5 -112.5q-5 -36 -31 -74t-51.5 -62t-77.5 -69q-9 -8 -14 -12l-49 79q62 49 88.5 76.5t30.5 54.5q6 30 -12.5 43t-51.5 13zM1681 1614q-34 -102 -112 -168.5t-189 -73.5l-114 -852
q-38 -265 -186.5 -402.5t-426.5 -137.5q-142 0 -240 37t-150.5 108t-69.5 175.5t2 238.5l129 942h213l-131 -969q-26 -175 45.5 -262.5t228.5 -87.5t254 87t123 263l129 969h178v12q113 0 168 121h149z" />
    <glyph glyph-name="uni1EED" unicode="&#x1eed;" horiz-adv-x="1169" 
d="M664 1444q-49 0 -115 -47l-35 100q97 53 168 53q76 0 117.5 -42.5t31.5 -112.5q-2 -13 -5.5 -26t-11 -26.5t-13 -23.5t-19 -24.5t-20 -22t-24 -24t-24.5 -22.5t-28 -24.5t-27 -23.5l-51 79q61 48 88 76.5t33 55.5q4 30 -14 42.5t-51 12.5zM1321 1176q-29 -85 -90 -146
t-146 -84l-131 -944h-159l2 168q-209 -191 -391 -188q-144 2 -224 86t-61 223l104 768h207l-100 -731q-12 -93 28.5 -144t133.5 -51q80 0 143.5 36t150.5 118l105 772h149q84 19 127 117h152z" />
    <glyph glyph-name="uni1EEE" unicode="&#x1eee;" horiz-adv-x="1386" 
d="M770 1765q-32 0 -56.5 -8.5t-53.5 -26.5t-42 -24l-30 127q89 61 174 61q54 0 137 -28.5t123 -28.5q41 0 96 28t64 31l18 -137q-84 -47 -180 -47q-57 0 -133 26.5t-117 26.5zM1681 1614q-34 -102 -112 -168.5t-189 -73.5l-114 -852q-38 -265 -186.5 -402.5t-426.5 -137.5
q-142 0 -240 37t-150.5 108t-69.5 175.5t2 238.5l129 942h213l-131 -969q-26 -175 45.5 -262.5t228.5 -87.5t254 87t123 263l129 969h178v12q113 0 168 121h149z" />
    <glyph glyph-name="uni1EEF" unicode="&#x1eef;" horiz-adv-x="1169" 
d="M571 1341q-33 0 -58 -8.5t-52.5 -26t-42.5 -24.5l-29 127q45 31 83 46t89 15q56 0 138.5 -28.5t121.5 -28.5q41 0 97 29t63 31l18 -138q-84 -47 -178 -47q-58 0 -133.5 26.5t-116.5 26.5zM1321 1176q-29 -85 -90 -146t-146 -84l-131 -944h-159l2 168q-209 -191 -391 -188
q-144 2 -224 86t-61 223l104 768h207l-100 -731q-12 -93 28.5 -144t133.5 -51q80 0 143.5 36t150.5 118l105 772h149q84 19 127 117h152z" />
    <glyph glyph-name="uni1EF0" unicode="&#x1ef0;" horiz-adv-x="1386" 
d="M1681 1614q-34 -102 -112 -168.5t-189 -73.5l-114 -852q-38 -265 -186.5 -402.5t-426.5 -137.5q-142 0 -240 37t-150.5 108t-69.5 175.5t2 238.5l129 942h213l-131 -969q-26 -175 45.5 -262.5t228.5 -87.5t254 87t123 263l129 969h178v12q113 0 168 121h149zM502 -330
l33 226h176l-29 -226h-180z" />
    <glyph glyph-name="uni1EF1" unicode="&#x1ef1;" horiz-adv-x="1169" 
d="M1321 1176q-29 -85 -90 -146t-146 -84l-131 -944h-159l2 168q-209 -191 -391 -188q-144 2 -224 86t-61 223l104 768h207l-100 -731q-12 -93 28.5 -144t133.5 -51q80 0 143.5 36t150.5 118l105 772h149q84 19 127 117h152zM367 -330l34 226h177l-29 -226h-182z" />
    <glyph glyph-name="Ygrave" unicode="&#x1ef2;" horiz-adv-x="1220" 
d="M580 1927l464 -211l-49 -94l-485 154zM1337 1481l-604 -852l-86 -629h-207l86 631l-376 850h221l282 -668l459 668h225z" />
    <glyph glyph-name="ygrave" unicode="&#x1ef3;" horiz-adv-x="1087" 
d="M465 1503l465 -211l-49 -94l-486 154zM152 -338q-56 0 -97 7t-54 15l-13 7l20 135l107 -4q54 -2 95 7.5t66 30t37.5 37t24.5 40.5l45 92l-260 1028h207l182 -793l399 793h201l-580 -1123q-83 -153 -173 -212.5t-207 -59.5z" />
    <glyph glyph-name="uni1EF4" unicode="&#x1ef4;" horiz-adv-x="1202" 
d="M1337 1481l-604 -852l-86 -629h-207l86 631l-376 850h221l282 -668l459 668h225zM512 -104l-29 -226h-182l35 226h176z" />
    <glyph glyph-name="uni1EF5" unicode="&#x1ef5;" horiz-adv-x="1030" 
d="M141 -338q-56 0 -97 7t-54 15l-13 7l21 135l106 -4q55 -2 96 7.5t66.5 30.5t37.5 36.5t26 40.5l43 92l-260 1028h206l185 -793l397 793h203l-582 -1123q-83 -153 -173.5 -212.5t-207.5 -59.5zM807 -104l-29 -226h-182l35 226h176z" />
    <glyph glyph-name="uni1EF6" unicode="&#x1ef6;" horiz-adv-x="1210" 
d="M621 1921l34 -100q70 47 117 47q33 0 50.5 -13t13.5 -43q-6 -27 -32.5 -54.5t-88.5 -76.5l51 -79q95 82 123 116q43 51 49 101q10 70 -32 112.5t-118 42.5q-70 0 -167 -53zM1337 1481l-604 -852l-86 -629h-207l86 631l-376 850h221l282 -668l459 668h225z" />
    <glyph glyph-name="uni1EF7" unicode="&#x1ef7;" horiz-adv-x="1097" 
d="M512 1497l35 -100q66 47 115 47q33 0 51 -12.5t12 -42.5q-4 -27 -31.5 -56t-89.5 -76l51 -79q95 82 124 116q43 51 50 101q10 70 -31.5 112.5t-117.5 42.5q-71 0 -168 -53zM152 -338q-56 0 -97 7t-54 15l-13 7l20 135l107 -4q54 -2 95 7.5t66 30t37.5 37t24.5 40.5l45 92
l-260 1028h207l182 -793l399 793h201l-580 -1123q-83 -153 -173 -212.5t-207 -59.5z" />
    <glyph glyph-name="uni1EF8" unicode="&#x1ef8;" horiz-adv-x="1220" 
d="M1112 1759q-80 -47 -178 -47q-57 0 -133 26.5t-117 26.5q-33 0 -58 -8.5t-53.5 -26.5t-42.5 -24l-28 127q89 61 172 61q56 0 138.5 -28.5t121.5 -28.5q42 0 98 28.5t62 30.5zM1337 1481l-604 -852l-86 -629h-207l86 631l-376 850h221l282 -668l459 668h225z" />
    <glyph glyph-name="uni1EF9" unicode="&#x1ef9;" horiz-adv-x="1087" 
d="M997 1335q-84 -47 -178 -47q-58 0 -134 26.5t-118 26.5q-32 0 -56.5 -9t-52 -26t-42.5 -24l-31 127q89 61 174 61q55 0 137.5 -28.5t122.5 -28.5q41 0 95.5 28.5t64.5 31.5zM152 -338q-56 0 -97 7t-54 15l-13 7l20 135l107 -4q54 -2 95 7.5t66 30t37.5 37t24.5 40.5
l45 92l-260 1028h207l182 -793l399 793h201l-580 -1123q-83 -153 -173 -212.5t-207 -59.5z" />
    <glyph glyph-name="endash" unicode="&#x2013;" horiz-adv-x="1136" 
d="M1010 594l-23 -162h-874l22 160z" />
    <glyph glyph-name="emdash" unicode="&#x2014;" horiz-adv-x="1761" 
d="M1634 594l-20 -162h-1501l22 160z" />
    <glyph glyph-name="quoteleft" unicode="&#x2018;" horiz-adv-x="495" 
d="M512 1546l-147 -258l88 -6l-33 -238h-242l27 207l217 295h90z" />
    <glyph glyph-name="quoteright" unicode="&#x2019;" horiz-adv-x="452" 
d="M164 979l147 258l-88 6l33 238h242l-27 -207l-217 -295h-90z" />
    <glyph glyph-name="quotesinglbase" unicode="&#x201a;" horiz-adv-x="477" 
d="M-14 -260l151 254l-94 8l33 238h243l-28 -199l-221 -301h-84z" />
    <glyph glyph-name="quotedblleft" unicode="&#x201c;" horiz-adv-x="862" 
d="M178 979l29 209l217 293h90l-145 -258l86 -4l-33 -240h-244zM551 979l29 209l217 293h90l-148 -258l88 -4l-32 -240h-244z" />
    <glyph glyph-name="quotedblright" unicode="&#x201d;" horiz-adv-x="882" 
d="M164 979l147 258l-88 6l33 238h242l-27 -207l-217 -295h-90zM537 979l147 258l-88 6l31 238h245l-30 -207l-215 -295h-90z" />
    <glyph glyph-name="quotedblbase" unicode="&#x201e;" horiz-adv-x="987" 
d="M6 -260l189 254l-93 8l66 238h244l-56 -199l-266 -301h-84zM397 -260l189 254l-92 8l65 238h244l-58 -199l-264 -301h-84z" />
    <glyph glyph-name="dagger" unicode="&#x2020;" horiz-adv-x="935" 
d="M952 979l-26 -195l-355 33l-114 -1147h-211l196 1143l-368 -31l28 195l353 -29l37 533h213l-105 -531z" />
    <glyph glyph-name="daggerdbl" unicode="&#x2021;" horiz-adv-x="940" 
d="M569 799l-63 -477l362 30l-26 -194l-350 28l-35 -516h-213l102 512l-356 -26l26 192l357 -31l67 480l-368 -33l28 194l353 -26l39 549h213l-107 -547l354 27l-28 -193z" />
    <glyph glyph-name="bullet" unicode="&#x2022;" horiz-adv-x="659" 
d="M334 543q-88 0 -141 64.5t-41 156.5q10 83 76 141t149 58q87 0 140.5 -65.5t41.5 -156.5q-10 -83 -76 -140.5t-149 -57.5z" />
    <glyph glyph-name="ellipsis" unicode="&#x2026;" horiz-adv-x="1607" 
d="M338 256l-35 -256h-242l35 256h242zM907 256l-33 -256h-241l35 256h239zM1479 256l-33 -256h-244l37 256h240z" />
    <glyph glyph-name="perthousand" unicode="&#x2030;" horiz-adv-x="2629" 
d="M584 1503q152 0 234 -121.5t56 -314.5q-24 -184 -133.5 -297t-255.5 -113q-155 0 -239 121t-58 314q26 183 137 297t259 114zM1638 1497l-1171 -1505l-145 2l1173 1503h143zM481 774q94 0 157.5 86t82.5 230q19 138 -17 218.5t-122 80.5q-91 0 -155 -89.5t-85 -234.5
q-18 -135 17.5 -213t121.5 -78zM1397 823q153 0 236 -120.5t57 -311.5q-26 -185 -135 -298t-255 -113q-155 0 -237.5 120t-56.5 314q26 183 135.5 296t255.5 113zM2198 823q154 0 237 -121t55 -311q-26 -186 -134.5 -298.5t-254.5 -112.5q-155 0 -238.5 120.5t-56.5 313.5
q24 182 135 295.5t257 113.5zM1298 94q90 0 154 87.5t86 230.5q18 136 -19 217.5t-120 81.5q-89 0 -155 -90t-85 -232q-18 -133 19 -214t120 -81zM2099 94q90 0 154.5 88t83.5 230q19 136 -17.5 217.5t-121.5 81.5q-88 0 -153.5 -90.5t-84.5 -231.5q-19 -133 17.5 -214
t121.5 -81z" />
    <glyph glyph-name="guilsinglleft" unicode="&#x2039;" horiz-adv-x="571" 
d="M260 502l137 -361h-104l-209 379l303 383h127z" />
    <glyph glyph-name="guilsinglright" unicode="&#x203a;" horiz-adv-x="575" 
d="M301 522l-137 381h106l207 -401l-301 -361h-123z" />
    <glyph glyph-name="fraction" unicode="&#x2044;" horiz-adv-x="493" 
d="M928 1497l-1174 -1505l-145 2l1175 1503h144z" />
    <glyph glyph-name="uni2070" unicode="&#x2070;" horiz-adv-x="825" 
d="M545 1729q153 0 231.5 -129t48.5 -353q-32 -223 -144 -349t-267 -126q-156 0 -234.5 125.5t-48.5 349.5q32 224 146 353t268 129zM430 883q201 0 250 364q27 190 -14 281.5t-138 91.5q-199 0 -252 -373q-49 -364 154 -364z" />
    <glyph glyph-name="uni2074" unicode="&#x2074;" horiz-adv-x="827" 
d="M623 1710h133l-82 -584h139l-14 -106h-137l-35 -242h-129l32 242h-417l14 110zM242 1126h301l57 426z" />
    <glyph glyph-name="uni2075" unicode="&#x2075;" horiz-adv-x="796" 
d="M305 1710h555l-22 -113h-439l-61 -286q64 30 110.5 44.5t106.5 14.5q134 0 210.5 -73t57.5 -214q-21 -148 -129 -232.5t-266 -84.5q-104 0 -188 41t-131 115l106 73q50 -63 94 -92t117 -29q105 0 173.5 57t80.5 148q12 87 -35 135t-133 48q-35 0 -74.5 -11.5t-62 -22.5
t-64.5 -34q-4 -2 -6.5 -3t-4.5 -2t-3.5 0t-2 1t-3.5 2.5t-4 3.5l-82 49z" />
    <glyph glyph-name="uni2076" unicode="&#x2076;" horiz-adv-x="811" 
d="M567 1733q95 0 156.5 -46t83.5 -108l-119 -45q-24 44 -54 66t-79 22q-113 0 -188.5 -91t-90.5 -251q94 41 142 54.5t102 13.5q138 0 208 -76.5t52 -196.5q-19 -131 -122.5 -215t-241.5 -84q-165 0 -241.5 123t-47.5 340q31 230 148 362t292 132zM481 1243q-45 0 -102 -15
t-92 -36q-14 -9 -20 -19.5t-9 -33.5q-8 -61 6 -117.5t56.5 -97.5t107.5 -41q78 0 138 54t71 132q11 75 -33 124.5t-123 49.5z" />
    <glyph glyph-name="uni2077" unicode="&#x2077;" horiz-adv-x="727" 
d="M225 1710h645l-18 -137q-141 -164 -277 -405.5t-169 -389.5h-144q45 157 165 386t296 433h-514z" />
    <glyph glyph-name="uni2078" unicode="&#x2078;" horiz-adv-x="798" 
d="M543 1731q137 0 212 -72t58 -186q-6 -45 -28 -84t-52.5 -63.5t-49.5 -36t-36 -19.5q57 -29 65 -35q101 -66 83 -197q-17 -122 -122.5 -193t-264.5 -71q-155 0 -237 64t-67 178q9 71 60 130.5t141 98.5q-12 5 -23.5 11t-33 24t-35.5 39.5t-22.5 58t-2.5 78.5
q15 117 114.5 196t240.5 79zM530 1624q-77 0 -133.5 -43.5t-66.5 -110.5q-12 -104 94 -131l113 -28q35 -11 89.5 44.5t61.5 117.5q9 67 -33 109t-125 42zM430 879q92 0 152 41t69 110q6 54 -17 86.5t-85 50.5l-139 37q-37 12 -100.5 -42t-73.5 -126q-11 -75 38.5 -116
t155.5 -41z" />
    <glyph glyph-name="uni2079" unicode="&#x2079;" horiz-adv-x="811" 
d="M375 776q-97 0 -160 45.5t-86 108.5l117 45q24 -43 56.5 -65.5t86.5 -22.5q118 0 191 101t88 296q-39 -62 -103.5 -93.5t-142.5 -31.5q-137 0 -206 77t-54 198q19 131 122.5 215t241.5 84q164 0 240 -123t47 -340q-32 -230 -149 -362t-289 -132zM461 1264q76 0 140 45
t73 108q-3 209 -160 209q-77 0 -138 -53.5t-71 -132.5q-9 -76 34 -126t122 -50z" />
    <glyph glyph-name="colonmonetary" unicode="&#x20a1;" horiz-adv-x="1193" 
d="M688 1141q-131 0 -224 -111t-116 -291q-25 -181 39 -291t195 -110q83 0 142 50.5t122 150.5l166 -45q-42 -90 -111.5 -159.5t-157.5 -105.5l-94 -229l-131 4l76 189q-21 -3 -43 -3q-13 0 -70 5l-78 -195l-131 4l90 225q-126 59 -185.5 192.5t-33.5 313.5
q31 225 167 375.5t329 173.5l78 195l133 2l-76 -197q54 -9 100 -31l91 226l131 2l-117 -303q72 -78 94 -191l-184 -43q-25 56 -39 82.5t-38.5 58t-54 44t-69.5 12.5z" />
    <glyph glyph-name="franc" unicode="&#x20a3;" horiz-adv-x="1222" 
d="M1229 1300h-719l-68 -487h590l-24 -176h-590l-33 -242h317l-16 -127h-317l-37 -268h-236l37 266h-184l18 129h183l149 1086h956z" />
    <glyph glyph-name="lira" unicode="&#x20a4;" horiz-adv-x="1245" 
d="M1114 299q-64 -148 -179.5 -223.5t-272.5 -75.5h-703l25 178h69q73 0 131 64.5t80 189.5q4 10 15 76q0 4 -5 3q-4 -1 -8 -1h-215l17 127h213l-5 172h-184l17 127h167l-2 74q1 130 39.5 227t105.5 153.5t150 83.5t181 27q136 0 246.5 -71.5t136.5 -186.5l-175 -57
q-47 139 -188 139q-99 0 -172 -62.5t-86 -166.5q-4 -17 -4 -152q0 -8 16 -8h307l-16 -125l-303 -2l2 -172h279l-19 -125h-266q-17 -92 -55.5 -181.5t-98.5 -150.5h310q97 0 162.5 39t105.5 127z" />
    <glyph glyph-name="uni20A6" unicode="&#x20a6;" horiz-adv-x="1486" 
d="M1511 897h-168l-34 -266h166l-15 -119h-168l-69 -512h-187l-268 512l-414 -2l-69 -510h-207l69 510h-129l15 121h131l35 264h-129l16 119h129l64 467h200l244 -467l430 2l61 465h209l-63 -465h168zM440 1139l-16 -125h82zM1102 631l35 266l-353 -2l140 -264h178zM371 631
h336l-140 264h-159zM1065 360l20 152h-100z" />
    <glyph glyph-name="uni20A9" unicode="&#x20a9;" horiz-adv-x="2152" 
d="M2185 993h-364l-80 -192h420l-17 -127h-456l-283 -674h-184l-93 674h-243l-277 -674h-180l-96 674h-246l18 127h209l-28 192h-156l18 127h119l-51 361h207l49 -361h422l147 361h158l49 -361h426l148 361h204l-151 -361h330zM487 993l27 -192h250l78 192h-355zM938 801
h172l-27 192h-65zM1542 801l80 192h-358l26 -192h252zM575 338l138 336h-183zM1354 338l137 336h-182z" />
    <glyph glyph-name="dong" unicode="&#x20ab;" horiz-adv-x="1021" 
d="M1102 1354l-15 -107h-122l-134 -977h-174l15 103q-30 -26 -45.5 -38.5t-53 -35.5t-81 -34t-93.5 -11q-157 0 -240 118t-53 333q27 201 144.5 324.5t273.5 123.5q142 0 236 -117l28 211h-251l14 107h252l16 125h178l-16 -125h121zM690 559l53 375q-68 88 -170 88
q-110 0 -185 -92.5t-97 -243.5q-21 -156 28 -231.5t146 -75.5q84 0 150.5 57t74.5 123zM57 0l17 115h741l-16 -115h-742z" />
    <glyph glyph-name="Euro" unicode="&#x20ac;" horiz-adv-x="1226" 
d="M885 1325q-143 0 -247.5 -89t-162.5 -265h373l-17 -127h-391l-18 -113q-8 -63 -10 -88h393l-19 -127h-376q9 -176 89.5 -264t223.5 -88q71 0 139.5 32t120.5 80l109 -145q-187 -151 -404 -151q-227 0 -362 142t-154 394h-184l18 125h166q4 77 10 115q5 41 15 88h-162
l14 125h180q79 252 249 392t396 140q115 0 211.5 -46t159.5 -126l-141 -108q-53 49 -104 76.5t-115 27.5z" />
    <glyph glyph-name="uni20B9" unicode="&#x20b9;" horiz-adv-x="1191" 
d="M1262 1362h-275q76 -76 82 -193h168l-16 -118h-164q-53 -238 -312 -334q-10 0 -16 -8t-6 -15l172 -694h-250l-145 682h-447l21 160h387q144 0 230.5 50.5t119.5 158.5h-707l17 118h706q-3 185 -256 185h-430l21 127l1118 2z" />
    <glyph glyph-name="uni20BA" unicode="&#x20ba;" horiz-adv-x="1177" 
d="M946 526l195 -47q-224 -479 -707 -479h-260l62 449l-152 -54l-33 133l207 72l25 182l-172 -61l-31 133l223 80l76 547h233l-61 -459l270 96l31 -133l-322 -115l-24 -182l287 100l34 -131l-342 -120l-47 -357h82q265 3 426 346z" />
    <glyph glyph-name="uni2113" unicode="&#x2113;" horiz-adv-x="1032" 
d="M399 440l-2 -39q-20 -142 12.5 -200t120.5 -58t166 58l-209 -221q-56 0 -101.5 12.5t-75 30.5t-52.5 49t-35 55.5t-20.5 63t-10.5 59.5t-4.5 56.5t-3.5 43.5q-1 2 -2.5 0t-3.5 -6t-4 -6l-100 -64l-43 136l172 116l69 500q32 237 147 356t279 119q102 0 166.5 -46
t85.5 -120.5t6 -171.5q-9 -62 -32.5 -124.5t-51.5 -113t-76 -109.5t-85.5 -99.5t-101.5 -98t-102 -89.5t-108 -89zM475 989l-41 -332q64 51 120.5 106.5t114 126.5t96.5 152.5t50 161.5q22 156 -104 156q-89 0 -148.5 -86t-87.5 -285zM811 315q-55 -71 -115 -114l121 125z
" />
    <glyph glyph-name="uni2116" unicode="&#x2116;" horiz-adv-x="2310" 
d="M2030 1499q148 0 222 -99t54 -259q-21 -147 -115.5 -237.5t-236.5 -90.5q-147 0 -221.5 97.5t-53.5 252.5q22 151 119 243.5t232 92.5zM1260 1481h206l-200 -1481h-187l-596 1139l-155 -1139h-207l203 1481h198l586 -1121zM2032 1395q-84 0 -137 -65.5t-68 -182.5
q-17 -111 14.5 -170t110.5 -59q85 0 138 65.5t71 185.5q14 108 -18.5 167t-110.5 59z" />
    <glyph glyph-name="uni2117" unicode="&#x2117;" horiz-adv-x="1638" 
d="M748 -20q-152 0 -281.5 61t-215 164t-125 246t-17.5 301q20 153 96 291.5t187.5 238.5t254.5 159.5t293 59.5q201 0 358 -104t233.5 -281.5t49.5 -386.5q-28 -205 -149.5 -377.5t-303 -272t-380.5 -99.5zM750 115q169 0 316.5 77.5t248.5 224t127 335.5q18 136 -12.5 252
t-99 195.5t-170 124t-222.5 44.5q-171 0 -319.5 -79.5t-248 -226t-124.5 -333.5q-19 -139 10.5 -254.5t97 -194t169.5 -122t227 -43.5zM522 340l111 793h307q131 0 203.5 -61t58.5 -181q-17 -121 -99 -183.5t-206 -62.5h-190l-41 -305h-144zM723 756h174q61 0 107 39.5
t55 97.5q8 70 -29.5 99.5t-103.5 29.5h-168z" />
    <glyph glyph-name="uni2120" unicode="&#x2120;" horiz-adv-x="1900" 
d="M348 -12q-118 0 -202.5 45t-122.5 131l104 67q43 -70 91 -99.5t138 -29.5q93 0 153 32.5t69 103.5q7 46 -14.5 79.5t-88.5 59.5l-180 63q-94 33 -134.5 94t-29.5 140q15 118 112.5 191t241.5 73q99 0 173 -37.5t114 -107.5l-102 -70q-34 50 -79 77t-120 27
q-84 0 -138 -37t-63 -100q-2 -18 0.5 -33t11.5 -34t32.5 -36t60.5 -30l174 -59q195 -70 170 -244q-17 -124 -116 -195t-255 -71zM829 0l127 926h183l153 -746l363 746h180l-127 -926h-131l100 739l-350 -739h-117l-147 733l-100 -733h-134z" />
    <glyph glyph-name="trademark" unicode="&#x2122;" horiz-adv-x="1839" 
d="M59 805l17 121h688l-16 -121h-273l-108 -805h-131l110 805h-287zM768 0l127 926h180l156 -746l362 746h181l-127 -926h-134l103 739l-352 -739h-115l-150 733l-98 -733h-133z" />
    <glyph glyph-name="uni2126" unicode="&#x2126;" horiz-adv-x="1495" 
d="M866 1325q-191 0 -321.5 -152t-163.5 -391q-7 -52 -7.5 -102t5 -92t17 -83t24.5 -73.5t31.5 -65t35.5 -56.5t38.5 -49t37.5 -41.5t35 -35.5q36 -19 31 -59l-17 -125h-526l27 182h313q-330 265 -270 652q17 130 75 249t148 212.5t219 149.5t276 56q152 0 268 -60
t180.5 -158.5t90 -220t8.5 -249.5q-8 -63 -27.5 -124t-42.5 -109t-56 -97t-59 -81.5t-63 -70.5t-57.5 -56t-51.5 -44.5t-36 -31.5q-23 -15 -4 -17h266l-26 -182h-525l27 182q367 238 422 627q20 149 -8 264t-108.5 183.5t-205.5 68.5z" />
    <glyph glyph-name="estimated" unicode="&#x212e;" horiz-adv-x="1636" 
d="M1403 303q-133 -148 -303.5 -235.5t-351.5 -87.5q-152 0 -281.5 61t-215 164t-125 246t-17.5 301q20 153 96 291.5t187.5 238.5t254.5 159.5t293 59.5q197 0 355 -100.5t236.5 -272.5t51.5 -372q-1 -12 -4.5 -14.5t-17.5 -2.5h-1078l-80 -583q135 -99 338 -99
q151 0 295.5 68.5t243.5 177.5h123zM946 1419q-193 0 -360 -100q-24 -9 -31 -37l-61 -459h704l70 516q-147 80 -322 80z" />
    <glyph glyph-name="uni2153" unicode="&#x2153;" horiz-adv-x="1871" 
d="M182 565l105 778l-181 -59l15 98l239 115h82l-127 -932h-133zM1518 1497l-1174 -1505l-145 2l1173 1503h146zM1223 801q53 62 142 99.5t179 37.5q138 0 216.5 -67t64.5 -171q-20 -148 -201 -208q87 -28 133.5 -88.5t34.5 -149.5q-17 -120 -128.5 -196t-262.5 -76
q-206 0 -307 153l106 74q47 -64 98.5 -90.5t124.5 -26.5q95 0 157 44t71 114q11 79 -44.5 124.5t-144.5 47.5l-123 2l17 106l102 2q88 3 152 48t73 112q8 58 -35.5 97.5t-117.5 39.5q-67 0 -122 -26t-112 -82z" />
    <glyph glyph-name="uni2154" unicode="&#x2154;" horiz-adv-x="2033" 
d="M45 571l14 109l328 285q124 103 171 161t56 121q10 76 -34 115t-111 39q-143 0 -233 -131l-95 55q143 191 353 191q133 0 204.5 -72.5t53.5 -196.5q-12 -77 -60.5 -142.5t-167.5 -172.5l-274 -246h434l-14 -115h-625zM1679 1497l-1173 -1505l-146 2l1174 1503h145z
M1386 801q52 62 141 99.5t181 37.5q137 0 215 -67.5t64 -170.5q-20 -148 -201 -208q89 -28 135 -88.5t33 -149.5q-17 -120 -128.5 -196t-262.5 -76q-205 0 -306 153l105 74q47 -64 98.5 -90.5t124.5 -26.5q96 0 157 43.5t70 114.5q11 79 -44 124.5t-142 47.5l-123 2l15 106
l102 2q88 3 152 48t73 112q8 58 -35 97.5t-116 39.5q-68 0 -122 -26t-112 -82z" />
    <glyph glyph-name="oneeighth" unicode="&#x215b;" horiz-adv-x="1894" 
d="M182 565l105 778l-181 -59l15 98l239 115h82l-127 -932h-133zM1518 1497l-1174 -1505l-145 2l1173 1503h146zM1528 936q136 0 210.5 -72t59.5 -186q-6 -45 -28 -84t-52.5 -63.5t-49.5 -36t-36 -19.5l17 -8.5t21.5 -11t24 -14t24.5 -18t23 -22.5t19.5 -28.5t14 -35
t7 -42.5t-2.5 -51q-17 -122 -122.5 -193t-264.5 -71q-156 0 -238 63.5t-65 177.5q9 71 59.5 131t138.5 99q-133 67 -114 211q15 118 113.5 196t240.5 78zM1516 829q-77 0 -134.5 -43t-66.5 -110q-12 -104 94 -131l113 -29q35 -11 89.5 44.5t61.5 117.5q9 67 -33 109t-124 42
zM1415 84q92 0 151 41.5t70 110.5q6 53 -17.5 85.5t-84.5 51.5l-139 37q-38 12 -101 -42t-73 -126q-11 -75 38.5 -116.5t155.5 -41.5z" />
    <glyph glyph-name="threeeighths" unicode="&#x215c;" horiz-adv-x="2088" 
d="M209 1378q52 62 140.5 100t180.5 38q137 0 215 -67t66 -171q-20 -149 -201 -209q87 -28 133 -88.5t33 -149.5q-17 -120 -127.5 -196t-261.5 -76q-205 0 -307 154l104 73q46 -63 98.5 -89.5t127.5 -26.5q95 0 155.5 43.5t69.5 113.5q11 79 -44 124.5t-142 47.5l-123 2
l14 107l102 2q89 3 154 48t72 112q8 58 -35 97.5t-117 39.5q-68 0 -121.5 -26t-111.5 -83zM1710 1497l-1173 -1505l-146 2l1174 1503h145zM1720 936q137 0 212.5 -72t58.5 -186q-6 -45 -28 -84t-52.5 -63.5t-49.5 -36t-36 -19.5l17 -8.5t21.5 -11t24 -14t24 -18l22.5 -22.5
t19.5 -28.5t14 -35t7 -42.5t-2.5 -51q-17 -122 -122.5 -193t-264.5 -71q-155 0 -236.5 63.5t-66.5 177.5q9 71 59.5 131t139.5 99q-134 67 -115 211q15 117 114 195.5t240 78.5zM1708 829q-77 0 -134 -43t-67 -110q-12 -103 95 -131l112 -29q35 -11 90 44.5t62 117.5
q9 67 -33.5 109t-124.5 42zM1608 84q92 0 152 41.5t69 110.5q6 54 -17.5 86.5t-85.5 50.5l-139 37q-38 12 -101 -42t-73 -126q-11 -75 39 -116.5t156 -41.5z" />
    <glyph glyph-name="fiveeighths" unicode="&#x215d;" horiz-adv-x="2091" 
d="M276 1497h555l-22 -113h-440l-62 -286q64 30 111.5 44.5t107.5 14.5q134 0 211 -73t58 -214q-21 -148 -129.5 -232.5t-266.5 -84.5q-105 0 -189 41t-130 115l106 73q47 -62 92.5 -91t118.5 -29q105 0 173.5 56.5t80.5 147.5q10 87 -37 135t-133 48q-33 0 -68.5 -10
t-59 -21t-59.5 -30q-9 -5 -13 -7q-13 -5 -14 -5t-11 7l-82 49zM1712 1497l-1173 -1505l-146 2l1174 1503h145zM1722 936q137 0 212.5 -72t58.5 -186q-6 -45 -28 -84t-52.5 -63.5t-49.5 -36t-36 -19.5l17 -8.5t21.5 -11t24 -14t24 -18l22.5 -22.5t19.5 -28.5t14 -35t7 -42.5
t-2.5 -51q-17 -122 -122.5 -193t-264.5 -71q-155 0 -236.5 63.5t-66.5 177.5q9 71 59.5 131t139.5 99q-134 67 -115 211q15 117 114 195.5t240 78.5zM1710 829q-77 0 -134 -43t-67 -110q-12 -103 95 -131l112 -29q35 -11 90 44.5t62 117.5q9 67 -33.5 109t-124.5 42z
M1610 84q92 0 152 41.5t69 110.5q6 54 -17 86.5t-85 50.5l-140 37q-38 12 -101 -42t-73 -126q-11 -75 39 -116.5t156 -41.5z" />
    <glyph glyph-name="seveneighths" unicode="&#x215e;" horiz-adv-x="2019" 
d="M1640 1497l-1173 -1505l-145 2l1173 1503h145zM195 1495h645l-19 -137q-141 -164 -277 -405.5t-169 -389.5h-144q45 157 165 386t296 433h-514zM1651 936q137 0 212 -72t58 -186q-6 -45 -28 -84t-52.5 -63.5t-49.5 -36t-36 -19.5l17 -8.5t21.5 -11t24 -14t24.5 -18
t23 -22.5t19.5 -28.5t14 -35t7 -42.5t-2.5 -51q-17 -122 -122.5 -193t-264.5 -71q-155 0 -237 63.5t-67 177.5q9 71 59.5 131t139.5 99q-134 67 -115 211q15 117 114.5 195.5t240.5 78.5zM1638 829q-77 0 -133.5 -43t-66.5 -110q-12 -104 94 -131l113 -29q35 -11 89.5 44.5
t61.5 117.5q9 67 -33.5 109t-124.5 42zM1538 84q92 0 152 41.5t69 110.5q6 54 -17 86.5t-85 50.5l-139 37q-38 12 -101.5 -42t-73.5 -126q-11 -75 39 -116.5t156 -41.5z" />
    <glyph glyph-name="partialdiff" unicode="&#x2202;" horiz-adv-x="1175" 
d="M315 1229l-53 147q60 51 169.5 88t225.5 37q126 0 221.5 -48t156.5 -144t80 -241.5t-7 -340.5q-48 -353 -206 -550t-406 -197q-215 0 -327.5 138t-84.5 351q28 200 168.5 321t355.5 121q68 0 121 -15.5t81.5 -33.5t74.5 -55q17 -9 27 0.5t12 26.5q30 231 -49.5 365
t-268.5 134q-64 0 -122.5 -18t-89.5 -35.5t-79 -50.5zM492 141h2q126 0 230.5 118.5t147.5 309.5q6 28 7 39.5t-5 32.5q-34 48 -105.5 82.5t-150.5 34.5q-126 0 -219.5 -92t-113.5 -232q-19 -127 41 -210t166 -83z" />
    <glyph glyph-name="emptyset" unicode="&#x2205;" horiz-adv-x="1163" 
d="M1126 1094l-135 -113q58 -114 41 -248q-25 -177 -164 -300.5t-311 -123.5q-150 0 -250 94l-149 -124l-76 92l151 127q-63 114 -45 258q25 177 162 299.5t309 122.5q155 0 263 -103l133 111zM293 733q-12 -92 24 -166l521 437q-69 63 -176 63q-133 0 -241 -98.5
t-128 -235.5zM926 756q11 77 -19 153l-516 -434q68 -55 166 -55q133 0 241.5 99t127.5 237z" />
    <glyph glyph-name="uni2206" unicode="&#x2206;" horiz-adv-x="1296" 
d="M-10 0l28 178l641 1305l234 -2l289 -1329l-21 -152h-1171zM238 178h723l-216 1073z" />
    <glyph glyph-name="product" unicode="&#x220f;" horiz-adv-x="1323" 
d="M1415 1481l-26 -181h-193l-176 -1300h-219l178 1300h-426l-176 -1300h-219l178 1300h-193l25 181h1247z" />
    <glyph glyph-name="summation" unicode="&#x2211;" horiz-adv-x="1075" 
d="M942 0h-960l22 145l506 600l-320 594l21 142h897l-25 -174h-622l309 -559l-481 -566h678z" />
    <glyph glyph-name="minus" unicode="&#x2212;" horiz-adv-x="1130" 
d="M1040 825l-22 -159l-873 -2l23 159z" />
    <glyph glyph-name="radical" unicode="&#x221a;" horiz-adv-x="1290" 
d="M1450 1688l-793 -2018h-213l-200 901l-156 -57l-35 133l330 121l186 -883l695 1803h186z" />
    <glyph glyph-name="infinity" unicode="&#x221e;" horiz-adv-x="1484" 
d="M1384 555l-2 -4q-21 -158 -123.5 -249t-236.5 -91q-53 0 -94.5 14.5t-76 46t-55.5 59.5t-53 77q-12 4 -16.5 1t-19.5 -22l-42 -39q-42 -38 -75 -62.5t-94.5 -49.5t-122.5 -25q-133 0 -213.5 98t-59.5 252q20 147 124 236.5t247 89.5q44 0 80.5 -10t61 -23t50.5 -40
t41 -47t41 -58q19 -12 27 -8.5t23 24.5q87 78 130 105q91 57 189 57q137 0 213.5 -91.5t56.5 -240.5zM391 358h6q60 0 125 47.5t111 106.5q23 23 25.5 36.5t-11.5 47.5q-40 74 -85.5 111.5t-104.5 37.5q-82 0 -141 -57t-70 -145q-10 -82 31 -133.5t114 -51.5zM1100 745h-2
q-43 0 -90.5 -27.5t-78.5 -57t-73 -76.5q-38 -33 -20 -80q88 -146 204 -146q77 0 131.5 63t65.5 144q11 74 -26 127t-111 53z" />
    <glyph glyph-name="integral" unicode="&#x222b;" horiz-adv-x="886" 
d="M406 1284q29 211 127.5 317.5t254.5 106.5q82 0 132 -17t92 -55l-64 -149q-85 31 -151 31q-74 0 -127.5 -57.5t-67.5 -172.5q-27 -202 -47.5 -616t-44.5 -592q-27 -212 -126.5 -321t-252.5 -109q-80 0 -128.5 16.5t-94.5 52.5l65 154q79 -33 152 -33q71 0 122.5 57
t65.5 175q28 204 48.5 620t44.5 592z" />
    <glyph glyph-name="approxequal" unicode="&#x2248;" horiz-adv-x="1169" 
d="M1090 915q-45 -60 -117 -95.5t-154 -35.5q-53 0 -103 17.5t-83 38t-78 38t-88 17.5q-123 0 -238 -127l-55 133q82 67 146.5 101t144.5 34q53 0 104 -17t84.5 -38t78 -38t85.5 -17q119 0 219 125zM1036 506q-49 -60 -120.5 -95.5t-153.5 -35.5q-54 0 -105 17t-84 38
t-77 38t-86 17q-123 0 -236 -129l-57 136q81 67 147 101t144 34q53 0 104 -17.5t84.5 -38t78.5 -38t87 -17.5q124 0 217 125z" />
    <glyph glyph-name="notequal" unicode="&#x2260;" horiz-adv-x="1183" 
d="M1063 860h-256l-166 -295h381l-21 -159l-450 -3l-166 -292h-129l168 292h-297l20 160h367l170 297h-496l21 160h565l160 278h121l-158 -278h188z" />
    <glyph glyph-name="lessequal" unicode="&#x2264;" horiz-adv-x="1122" 
d="M987 641l-24 -182l-809 344l26 186l903 346l-28 -200l-647 -242zM946 264l-22 -160l-875 2l21 160z" />
    <glyph glyph-name="greaterequal" unicode="&#x2265;" horiz-adv-x="1126" 
d="M158 649l649 244l-582 250l25 186l807 -346l-25 -188l-899 -342zM96 264l875 2l-23 -160l-872 -2z" />
    <glyph glyph-name="lozenge" unicode="&#x25ca;" horiz-adv-x="1011" 
d="M520 0h-153l-232 750l432 731h154l235 -750zM629 1317l-324 -582l156 -571l321 581z" />
    <glyph glyph-name="i.loclTRK" horiz-adv-x="526" 
d="M512 1481l-35 -254h-219l35 254h219zM442 1057l-147 -1057h-207l145 1057h209z" />
    <glyph glyph-name="g.001" horiz-adv-x="1187" 
d="M958 98q-62 -448 -526 -448q-137 0 -242.5 54t-166.5 136l102 90q46 -60 122.5 -96t164.5 -37q141 0 231 65t107 191l18 121q-43 -71 -134.5 -120.5t-197.5 -49.5q-166 0 -264 109t-98 313q0 100 21 194.5t64 177.5t103 145t143 98t179 36q86 0 163 -40.5t117 -127.5
l25 148h203zM795 375l53 411q-24 67 -83.5 106.5t-127.5 39.5q-74 0 -135.5 -32.5t-101.5 -85t-68 -120t-40.5 -135.5t-12.5 -135q0 -140 63.5 -209.5t167.5 -69.5q103 0 189.5 74t95.5 156z" />
    <glyph glyph-name="l.ss01" horiz-adv-x="595" 
d="M123 0l207 1520h207l-205 -1520h-209z" />
    <glyph glyph-name="one.osf" horiz-adv-x="796" 
d="M276 0l166 1237l-284 -94l20 155l383 183h129l-203 -1481h-211z" />
    <glyph glyph-name="two.osf" horiz-adv-x="1183" 
d="M16 0l25 174l520 453q200 168 275 258.5t88 189.5q14 120 -56 182t-176 62q-232 0 -373 -209l-147 86q225 305 559 305q210 0 323.5 -114.5t86.5 -311.5q-18 -123 -95.5 -227.5t-265.5 -274.5l-438 -391h692l-24 -182h-994z" />
    <glyph glyph-name="three.osf" horiz-adv-x="1261" 
d="M246 1288q84 99 226 159t286 60q220 0 343 -106.5t101 -272.5q-33 -234 -319 -331q139 -42 213 -139t53 -238q-17 -126 -105.5 -226t-223.5 -154t-292 -54q-160 0 -284.5 62.5t-202.5 182.5l168 115q75 -99 156.5 -141.5t197.5 -42.5q152 0 249 69.5t112 182.5
q19 126 -69.5 198t-227.5 74l-195 2l23 172l163 4q140 3 243 74t116 178q12 92 -57 155.5t-187 63.5q-106 0 -192.5 -42t-178.5 -130z" />
    <glyph glyph-name="four.osf" horiz-adv-x="1249" 
d="M877 1481h208l-127 -926h222l-25 -172h-219l-53 -383h-207l53 383h-663l22 176zM272 555h478l90 676z" />
    <glyph glyph-name="five.osf" horiz-adv-x="1304" 
d="M367 1481h880l-37 -181h-696l-98 -454q74 34 112 49.5t103.5 31t130.5 15.5q102 0 185.5 -28t143.5 -83t86.5 -144t10.5 -202q-32 -235 -204 -370t-423 -135q-167 0 -300.5 65t-207.5 182l168 117q52 -65 91 -101.5t102 -62.5t143 -26q167 0 276 89.5t128 233.5
q18 138 -57 213.5t-212 75.5q-43 0 -83.5 -8t-87 -27.5t-70.5 -31t-78 -40.5q-8 -4 -12 -5.5t-7.5 -1t-5 1t-6 4.5t-8.5 6l-129 77z" />
    <glyph glyph-name="six.osf" horiz-adv-x="1261" 
d="M819 1499q150 0 248 -72.5t133 -171.5l-188 -69q-37 69 -86 104t-129 35q-179 0 -297.5 -144.5t-143.5 -398.5q150 66 226 87.5t159 21.5q221 0 332 -122t84 -314q-29 -207 -194 -340t-385 -133q-264 0 -385 194.5t-74 540.5q50 366 236 574t464 208zM680 725
q-70 0 -159.5 -25t-147.5 -59q-23 -15 -31.5 -31t-13.5 -51q-6 -56 -3.5 -113.5t23.5 -111t52 -95.5t82.5 -67t115.5 -25q123 0 218 86.5t112 212.5q17 121 -51.5 200t-196.5 79z" />
    <glyph glyph-name="seven.osf" horiz-adv-x="1159" 
d="M205 1481h1026l-31 -217q-224 -261 -440 -645t-268 -619h-230q30 109 89 251t147.5 315.5t218.5 368t278 365.5h-817z" />
    <glyph glyph-name="eight.osf" horiz-adv-x="1257" 
d="M756 1501q218 0 337.5 -113.5t94.5 -295.5q-8 -59 -34.5 -112t-57.5 -87t-69 -63t-61 -41.5t-42 -20.5q7 -3 23 -11q99 -48 145 -100q88 -99 67 -258q-28 -193 -195.5 -306t-420.5 -113q-247 0 -377.5 102t-106.5 285q15 111 96 206t222 156q-214 104 -184 336
q27 185 183.5 310.5t379.5 125.5zM737 1333q-122 0 -212 -69.5t-107 -176.5q-18 -162 151 -208l179 -48q26 -7 65 13.5t75.5 57.5t65.5 89t35 101q14 107 -53.5 174t-198.5 67zM580 147q146 0 240.5 65.5t109.5 174.5q9 85 -28.5 137.5t-133.5 79.5l-221 60q-27 9 -71 -9
t-87 -52.5t-78 -90t-43 -115.5q-17 -119 62.5 -184.5t249.5 -65.5z" />
    <glyph glyph-name="nine.osf" horiz-adv-x="1257" 
d="M496 -18q-155 0 -255 71.5t-137 171.5l189 72q36 -70 88.5 -105.5t138.5 -35.5q186 0 302 161t139 471q-62 -98 -163.5 -148t-226.5 -50q-218 0 -328 122t-83 314q18 138 100 246.5t207 167.5t270 59q261 0 382.5 -195t74.5 -540q-51 -365 -237 -573.5t-461 -208.5z
M633 756q122 0 223.5 71.5t114.5 171.5q0 165 -65 249.5t-187 84.5q-123 0 -219 -85.5t-113 -211.5q-17 -122 51 -201t195 -79z" />
    <glyph glyph-name="zero.tf" horiz-adv-x="1394" 
d="M844 1501q119 0 212.5 -51t153.5 -149t81.5 -240t-3.5 -324q-49 -355 -227.5 -555t-425.5 -200t-371 199t-78 554q50 356 231.5 561t426.5 205zM662 158q320 0 397 579q30 207 7 338t-84.5 191.5t-162.5 60.5q-153 0 -256.5 -144t-146.5 -446q-77 -579 246 -579z" />
    <glyph glyph-name="one.tf" horiz-adv-x="1562" 
d="M938 201h397v-201h-1040v201h420v1050l-406 -149v192l506 189h123v-1282z" />
    <glyph glyph-name="two.tf" horiz-adv-x="1402" 
d="M160 0l24 174l521 453q198 166 272.5 257t87.5 191q8 62 -8.5 110.5t-51 76.5t-78.5 42.5t-93 14.5q-230 0 -371 -209l-150 86q225 305 559 305q212 0 325.5 -114.5t84.5 -311.5q-17 -123 -93.5 -227.5t-264.5 -274.5l-439 -391h693l-25 -182h-993z" />
    <glyph glyph-name="three.tf" horiz-adv-x="1366" 
d="M328 1282q84 99 226 159t286 60q219 0 342.5 -106.5t103.5 -272.5q-33 -233 -319 -331q138 -42 212 -139t54 -238q-18 -126 -106.5 -226t-223.5 -154t-293 -54q-160 0 -284.5 62.5t-202.5 182.5l168 115q76 -100 158 -142t198 -42q151 0 248 70t111 182q19 125 -69 197.5
t-226 74.5l-197 2l25 172l161 4q140 3 243 74t116 178q12 92 -56.5 155.5t-185.5 63.5q-108 0 -193.5 -41.5t-177.5 -130.5z" />
    <glyph glyph-name="four.tf" horiz-adv-x="1394" 
d="M979 1481h211l-129 -926h221l-25 -172h-219l-51 -383h-209l53 383h-663l22 176zM375 555h477l92 676z" />
    <glyph glyph-name="five.tf" horiz-adv-x="1392" 
d="M438 1481h881l-35 -181h-698l-97 -454q73 34 112 49.5t104.5 31t130.5 15.5q102 0 185 -28t143 -83t86.5 -144t11.5 -202q-22 -157 -109 -272t-220.5 -174t-297.5 -59q-168 0 -301 65t-207 182l168 117q52 -65 91 -101.5t102 -62.5t143 -26q167 0 274.5 89.5t128.5 233.5
q18 138 -57 213.5t-211 75.5q-56 0 -117.5 -18t-99.5 -36t-103 -53q-8 -4 -12.5 -5.5t-8 -1t-5 1t-5.5 4.5t-7 6l-132 77z" />
    <glyph glyph-name="six.tf" horiz-adv-x="1409" 
d="M905 1499q150 0 248 -72.5t133 -171.5l-188 -69q-37 69 -86 104t-129 35q-178 0 -297 -145t-144 -398q150 66 226 87.5t159 21.5q221 0 332 -122t84 -314q-29 -207 -194 -340t-385 -133q-264 0 -385 194.5t-74 540.5q50 366 236 574t464 208zM766 725q-70 0 -159.5 -25
t-147.5 -59q-23 -15 -31.5 -31t-13.5 -51q-6 -56 -3.5 -113.5t23.5 -111t52 -95.5t82.5 -67t115.5 -25q123 0 218 86.5t112 212.5q19 121 -50.5 200t-197.5 79z" />
    <glyph glyph-name="seven.tf" horiz-adv-x="1421" 
d="M258 1481h1102v-217q-189 -261 -353 -645t-186 -619h-239q15 108 54.5 248t104.5 310.5t168 363t228 364.5h-879v195z" />
    <glyph glyph-name="eight.tf" horiz-adv-x="1394" 
d="M846 1501q218 0 337.5 -113.5t94.5 -295.5q-8 -59 -34.5 -112t-57.5 -87t-69 -63t-61 -41.5t-42 -20.5q7 -3 23 -11q99 -48 145 -100q88 -99 67 -258q-28 -193 -195.5 -306t-420.5 -113q-247 0 -377.5 102t-105.5 285q16 111 96.5 206t222.5 156q-20 9 -36.5 18
t-51.5 38.5t-57 63t-36 91.5t-5 125q27 185 183.5 310.5t379.5 125.5zM827 1333q-122 0 -212 -69.5t-105 -176.5q-21 -161 149 -208l179 -48q26 -7 65.5 13.5t76 57.5t65 89t34.5 101q14 107 -53.5 174t-198.5 67zM670 147q146 0 240.5 65.5t109.5 174.5q9 85 -28.5 137.5
t-133.5 79.5l-221 60q-27 9 -71 -9t-87 -52.5t-78 -90t-43 -115.5q-17 -119 62.5 -184.5t249.5 -65.5z" />
    <glyph glyph-name="nine.tf" horiz-adv-x="1402" 
d="M588 -18q-154 0 -254 71.5t-137 171.5l188 72q36 -70 88.5 -105.5t138.5 -35.5q186 0 302 161t139 471q-62 -98 -163.5 -148t-225.5 -50q-218 0 -328.5 122t-83.5 314q18 138 100 246.5t207 167.5t270 59q261 0 382.5 -195t74.5 -540q-51 -365 -237 -573.5t-461 -208.5z
M723 756q123 0 225 71.5t115 171.5q0 165 -65 249.5t-187 84.5q-123 0 -219 -85.5t-113 -211.5q-17 -122 51 -201t193 -79z" />
    <glyph glyph-name="zero.subs" horiz-adv-x="827" 
d="M387 596q153 0 232 -128.5t49 -352.5q-32 -223 -144.5 -349t-267.5 -126q-156 0 -234.5 125.5t-48.5 349.5q32 224 146 352.5t268 128.5zM272 -250q200 0 250 365q53 372 -151 372q-199 0 -252 -372q-50 -365 153 -365z" />
    <glyph glyph-name="one.subs" horiz-adv-x="610" 
d="M55 -338l105 778l-180 -59l14 98l239 115h82l-127 -932h-133z" />
    <glyph glyph-name="two.subs" horiz-adv-x="768" 
d="M-82 -338l14 109l328 284q124 103 171 161t56 122q10 76 -34 115t-111 39q-142 0 -233 -132l-95 56q142 190 353 190q133 0 204.5 -72t53.5 -196q-12 -77 -60.5 -142.5t-167.5 -172.5l-274 -246h434l-14 -115h-625z" />
    <glyph glyph-name="three.subs" horiz-adv-x="776" 
d="M80 463q52 62 140.5 99.5t180.5 37.5q137 0 215 -67t66 -171q-20 -148 -201 -208q87 -28 133 -88.5t33 -149.5q-17 -120 -127.5 -196t-261.5 -76q-206 0 -307 153l104 74q47 -64 99 -90.5t127 -26.5q95 0 155.5 44t69.5 114q11 79 -44.5 124.5t-142.5 47.5l-122 2l14 107
l102 2q89 3 154 47.5t72 111.5q8 58 -35 98t-117 40q-68 0 -121.5 -26t-111.5 -83z" />
    <glyph glyph-name="four.subs" horiz-adv-x="827" 
d="M465 594h133l-82 -584h139l-14 -106h-137l-35 -242h-129l33 242h-418l14 110zM84 10h301l57 426z" />
    <glyph glyph-name="five.subs" horiz-adv-x="796" 
d="M147 588h555l-22 -113h-438l-62 -287q44 21 69.5 31.5t66 19.5t81.5 9q134 0 211 -73t58 -214q-21 -148 -129.5 -232.5t-266.5 -84.5q-104 0 -188 40.5t-131 114.5l106 74q50 -63 94 -92t117 -29q105 0 173.5 57t80.5 148q12 87 -35 134.5t-133 47.5q-35 0 -74 -11.5
t-62 -22.5t-64 -33q-13 -5 -15 -5t-10 7l-82 49z" />
    <glyph glyph-name="six.subs" horiz-adv-x="811" 
d="M408 596q95 0 156 -46t83 -108l-119 -45q-24 44 -54 66t-79 22q-113 0 -188 -91t-90 -251q94 41 141.5 54.5t101.5 13.5q138 0 208.5 -76t52.5 -196q-19 -131 -123 -215t-242 -84q-166 0 -242 122.5t-47 339.5q31 230 148.5 362t292.5 132zM322 106q-45 0 -102.5 -15
t-92.5 -36q-14 -9 -20 -19.5t-9 -33.5q-8 -61 6 -117.5t56.5 -97.5t107.5 -41q78 0 138 54t71 132q11 76 -32.5 125t-122.5 49z" />
    <glyph glyph-name="seven.subs" horiz-adv-x="727" 
d="M70 594h645l-21 -137q-140 -165 -275.5 -406t-168.5 -389h-144q42 154 162.5 384t296.5 435h-512z" />
    <glyph glyph-name="eight.subs" horiz-adv-x="798" 
d="M383 600q137 0 212 -72t58 -186q-6 -45 -28 -84t-52.5 -63.5t-49.5 -36t-36 -19.5q4 -2 15.5 -7.5t19 -9.5t21.5 -12t22 -14.5t21.5 -18t19.5 -23t15.5 -28t11 -33t5 -39.5t-2.5 -46q-17 -122 -122.5 -193t-264.5 -71q-155 0 -236.5 63.5t-66.5 177.5q9 71 59.5 131
t140.5 99q-12 5 -23.5 11t-32.5 24t-35 39.5t-22.5 58t-2.5 78.5q15 117 114 195.5t240 78.5zM371 494q-77 0 -134 -43.5t-67 -110.5q-12 -104 94 -131l113 -29q35 -11 89.5 44.5t61.5 117.5q9 68 -32.5 110t-124.5 42zM270 -252q92 0 152.5 41.5t69.5 110.5
q6 54 -17.5 86.5t-85.5 50.5l-139 37q-37 12 -100.5 -42t-73.5 -126q-11 -75 38.5 -116.5t155.5 -41.5z" />
    <glyph glyph-name="nine.subs" horiz-adv-x="811" 
d="M215 -360q-97 0 -160 45.5t-86 107.5l117 45q24 -43 56.5 -65.5t86.5 -22.5q118 0 191 101t88 296q-39 -61 -103 -92.5t-143 -31.5q-137 0 -206 76.5t-54 197.5q19 131 123 215t242 84q164 0 239.5 -123t46.5 -340q-32 -230 -149 -361.5t-289 -131.5zM301 127
q76 0 140 45t73 109q-3 208 -160 208q-77 0 -138 -53.5t-71 -132.5q-9 -76 34 -126t122 -50z" />
    <glyph glyph-name="zero.dnom" horiz-adv-x="827" 
d="M434 934q153 0 232 -128.5t49 -352.5q-32 -223 -144.5 -349.5t-267.5 -126.5q-156 0 -234.5 126t-48.5 350q32 224 146 352.5t268 128.5zM319 88q200 0 250 365q53 372 -151 372q-199 0 -252 -372q-50 -365 153 -365z" />
    <glyph glyph-name="one.dnom" horiz-adv-x="608" 
d="M102 0l105 778l-180 -59l14 98l240 115h81l-126 -932h-134z" />
    <glyph glyph-name="two.dnom" horiz-adv-x="768" 
d="M-35 0l15 109l327 284q124 103 171.5 161.5t56.5 121.5q10 76 -34.5 114.5t-111.5 38.5q-143 0 -233 -131l-95 56q142 190 353 190q133 0 204.5 -72t53.5 -196q-12 -77 -61 -143t-167 -173l-274 -245h434l-14 -115h-625z" />
    <glyph glyph-name="three.dnom" horiz-adv-x="774" 
d="M127 801q52 62 141 99.5t181 37.5q137 0 214.5 -67t65.5 -171q-20 -148 -201 -208q87 -28 133 -88.5t33 -149.5q-17 -120 -127.5 -196t-261.5 -76q-206 0 -307 153l104 74q47 -64 99 -90.5t127 -26.5q95 0 155.5 44t69.5 114q11 79 -44 124.5t-142 47.5l-123 2l14 106
l102 2q89 3 154 48t72 112q8 58 -35 97.5t-117 39.5q-68 0 -121.5 -26t-111.5 -82z" />
    <glyph glyph-name="four.dnom" horiz-adv-x="827" 
d="M514 932h131l-80 -584h140l-17 -106h-137l-33 -242h-131l33 242h-418l16 110zM133 348h301l58 426z" />
    <glyph glyph-name="five.dnom" horiz-adv-x="796" 
d="M195 926h555l-23 -113h-438l-62 -287q44 21 69.5 31.5t66 19.5t81.5 9q134 0 211 -73t58 -214q-21 -148 -129.5 -232.5t-266.5 -84.5q-104 0 -188 40.5t-131 114.5l106 74q50 -63 94 -92t117 -29q105 0 173.5 57t80.5 148q12 87 -35 134.5t-133 47.5q-35 0 -74 -11.5
t-62 -22.5t-64 -33q-13 -5 -15 -5t-10 7l-82 49z" />
    <glyph glyph-name="six.dnom" horiz-adv-x="813" 
d="M457 934q93 0 154.5 -45.5t84.5 -108.5l-118 -45q-24 44 -54.5 66t-81.5 22q-113 0 -187 -91t-89 -251q92 41 140 54.5t102 13.5q138 0 207.5 -76.5t54.5 -196.5q-19 -131 -123.5 -215t-243.5 -84q-164 0 -241 123.5t-46 339.5q31 230 148.5 362t292.5 132zM369 444
q-45 0 -101.5 -15t-91.5 -36q-15 -9 -20.5 -19.5t-8.5 -33.5q-8 -61 5.5 -117.5t56 -97.5t108.5 -41q76 0 136 54t71 132q11 76 -31.5 125t-123.5 49z" />
    <glyph glyph-name="seven.dnom" horiz-adv-x="727" 
d="M117 932h645l-21 -137q-140 -165 -275.5 -406t-168.5 -389h-143q42 154 162 384t296 435h-512z" />
    <glyph glyph-name="eight.dnom" horiz-adv-x="798" 
d="M430 936q137 0 212 -72t58 -186q-5 -37 -21.5 -70.5t-35.5 -54.5t-43.5 -39t-38 -25.5t-26.5 -13.5q4 -2 15.5 -7.5t19 -9.5t21.5 -12t22 -14.5t21 -18.5t19 -23t16 -27.5t11 -33t4.5 -39.5t-2.5 -46q-17 -122 -122.5 -193t-264.5 -71q-155 0 -236.5 63.5t-66.5 177.5
q9 71 60 131t141 99q-12 5 -23.5 11t-33 24t-35.5 39.5t-22.5 58t-2.5 78.5q15 117 114 195.5t240 78.5zM418 829q-77 0 -134 -43t-67 -110q-12 -104 94 -131l113 -29q35 -11 89.5 44.5t61.5 117.5q9 67 -32.5 109t-124.5 42zM317 84q92 0 152.5 41.5t69.5 110.5
q6 54 -17.5 86.5t-85.5 50.5l-139 37q-37 12 -100.5 -42t-73.5 -126q-11 -75 38.5 -116.5t155.5 -41.5z" />
    <glyph glyph-name="nine.dnom" horiz-adv-x="811" 
d="M262 -23q-97 0 -160 45.5t-86 108.5l117 45q24 -43 56.5 -65.5t86.5 -22.5q118 0 191 101t88 296q-39 -62 -103.5 -93.5t-142.5 -31.5q-137 0 -206 77t-54 198q19 131 123 215t242 84q164 0 239.5 -123t46.5 -340q-32 -230 -149 -362t-289 -132zM348 465q76 0 140 45
t73 108q-3 209 -160 209q-77 0 -137.5 -53.5t-70.5 -132.5q-9 -76 34 -126t121 -50z" />
    <glyph glyph-name="zero.numr" horiz-adv-x="827" 
d="M516 1516q153 0 232 -129t49 -353q-32 -223 -144.5 -349t-267.5 -126q-156 0 -234.5 125.5t-48.5 349.5q32 224 146 353t268 129zM401 670q201 0 250 364q27 191 -13.5 282t-137.5 91q-199 0 -252 -373q-49 -364 153 -364z" />
    <glyph glyph-name="one.numr" horiz-adv-x="610" 
d="M182 565l105 778l-181 -59l15 98l239 115h82l-127 -932h-133z" />
    <glyph glyph-name="two.numr" horiz-adv-x="768" 
d="M45 571l14 109l328 285q124 103 171 161t56 121q10 76 -34 115t-111 39q-143 0 -233 -131l-95 55q143 191 353 191q133 0 204.5 -72.5t53.5 -196.5q-12 -77 -60.5 -142.5t-167.5 -172.5l-274 -246h434l-14 -115h-625z" />
    </font>
</defs>
</svg>
