<?xml version="1.0" standalone="no"?>
<!DOCTYPE svg PUBLIC "-//W3C//DTD SVG 1.1//EN" "http://www.w3.org/Graphics/SVG/1.1/DTD/svg11.dtd" >
<svg xmlns="http://www.w3.org/2000/svg" xmlns:xlink="http://www.w3.org/1999/xlink" version="1.1">
<metadata>
Created by FontForge 20201107 at Thu Jun 12 13:50:22 2025
 By 
copyright missing
</metadata>
<defs>
<font id="PublicSans-Regular" horiz-adv-x="1187" >
  <font-face 
    font-family="Public Sans"
    font-weight="400"
    font-stretch="normal"
    units-per-em="2048"
    panose-1="0 0 5 0 0 0 0 0 0 0"
    ascent="1597"
    descent="-451"
    x-height="1059"
    cap-height="1481"
    bbox="-756 -477 2603 2019"
    underline-thickness="102"
    underline-position="-204"
    unicode-range="U+000D-FB02"
  />
<missing-glyph horiz-adv-x="1404" 
d="M1178 1692q36 0 36 -43v-1921q0 -31 -16 -44.5t-51 -13.5h-893q-31 0 -43 11.5t-12 37.5v1926q0 47 39 47h940zM1110 1556q0 15 -9 25t-22 10h-702l733 -1708v1673zM303 -188q0 -21 10 -31t35 -10h688l-733 1695v-1654z" />
    <glyph glyph-name="fi" unicode="fi" horiz-adv-x="1345" 
d="M1178 1522v-240h-193v240h193zM739 1059v-133h-260v-926h-180v926h-227v133h227v166q0 126 63.5 191t190.5 65h195l2 -129h-160q-64 0 -89.5 -34.5t-25.5 -107.5v-151h264zM1171 1059v-1059h-180v1059h180z" />
    <glyph glyph-name="fl" unicode="fl" horiz-adv-x="1439" 
d="M1243 -12q-64 0 -112 15.5t-76 40.5t-45 62.5t-23 76t-6 87.5v1252h176v-1235q0 -159 119 -166l59 -2v-115q-50 -16 -92 -16zM739 1059v-133h-260v-926h-180v926h-227v133h227v166q0 126 63.5 191t190.5 65h195l2 -129h-160q-64 0 -89.5 -34.5t-25.5 -107.5v-151h264z
" />
    <glyph glyph-name="f_f.liga" unicode="ff" horiz-adv-x="1648" 
d="M1544 1059v-133h-262v-926h-180v926h-225v133h225v166q0 125 64.5 190.5t191.5 65.5h194l2 -129h-159q-65 0 -90 -34t-25 -108v-151h264zM739 1059v-133h-260v-926h-180v926h-227v133h227v151q0 126 63.5 191t190.5 65h195l2 -129h-160q-64 0 -89.5 -33.5t-25.5 -107.5
v-137h264z" />
    <glyph glyph-name="colon_one_eight_F_colon.liga" unicode="&#x3a;&#x31;&#x38;F&#x3a;" horiz-adv-x="1581" 
d="M35 1559h1511q23 0 23 -25v-1507q0 -12 -7 -19.5t-16 -7.5h-1511q-23 0 -23 27v1507q0 25 23 25zM764 479q72 0 124 52t52 124q0 91 -76 144q54 51 54 119q0 63 -45.5 108t-108.5 45q-67 0 -111.5 -44.5t-44.5 -108.5q0 -63 56 -119q-76 -51 -76 -144q0 -72 51.5 -124
t124.5 -52zM502 498v557q0 10 -8 10h-140q-6 0 -6 -10v-54q0 -8 6 -8h76v-495q0 -9 6 -9h58q8 0 8 9zM1257 1001v54q0 10 -8 10h-215q-8 0 -8 -10v-557q0 -9 8 -9h53q13 0 13 9v254h125q6 0 6 8v51q0 10 -6 10h-125v172h149q8 0 8 8zM764 836q-36 0 -61 23t-25 59
q0 35 25 59t61 24q35 0 59.5 -24t24.5 -59q0 -36 -24 -59t-60 -23zM764 760q44 0 74 -30.5t30 -74.5q0 -43 -30 -73.5t-74 -30.5q-43 0 -74 30.5t-31 73.5q0 44 31 74.5t74 30.5z" />
    <glyph glyph-name="colon_f_l_a_g_two_colon.liga" unicode="&#x3a;flag&#x32;&#x3a;" horiz-adv-x="2367" 
d="M92 1559h2183v-1557h-2183v1557zM2148 1321v109h-1095v-109h1095zM285 1198h129v121h-129v-121zM768 1198h125v121h-125v-121zM528 1079h125v119h-125v-119zM1053 1081h1095v113h-1095v-113zM289 958h125v121h-125v-121zM893 1079h-125v-121h125v121zM653 958h-125v-118
h125v118zM1053 842h1095v112h-1095v-112zM414 840h-125v-121h125v121zM893 840h-125v-121h125v121zM1053 602h1095v113h-1095v-113zM2148 475h-1931v-113h1931v113zM219 129h1929v107h-1929v-107z" />
    <glyph glyph-name="colon_f_l_a_g_colon.liga" unicode="&#x3a;flag&#x3a;" horiz-adv-x="2367" 
d="M92 1559h2183v-1557h-2183v1557zM2157 1438h-1946v-838h1946v119h-1106v121h1106v118h-1106v121h1106v119h-1106v121h1106v119zM451 1319v-121h-119v121h119zM930 1319v-121h-119v121h119zM690 1198v-119h-119v119h119zM451 1079v-121h-119v121h119zM930 1079v-121h-119
v121h119zM690 958v-118h-119v118h119zM451 840v-121h-119v121h119zM930 840v-121h-119v121h119zM2157 479h-1946v-119h1946v119zM211 121h1946v119h-1946v-119z" />
    <glyph glyph-name=".notdef" horiz-adv-x="1404" 
d="M1178 1692q36 0 36 -43v-1921q0 -31 -16 -44.5t-51 -13.5h-893q-31 0 -43 11.5t-12 37.5v1926q0 47 39 47h940zM1110 1556q0 15 -9 25t-22 10h-702l733 -1708v1673zM303 -188q0 -21 10 -31t35 -10h688l-733 1695v-1654z" />
    <glyph glyph-name="uni0000" horiz-adv-x="63" 
 />
    <glyph glyph-name="nonmarkingreturn" horiz-adv-x="682" 
 />
    <glyph glyph-name="CR" unicode="&#xd;" horiz-adv-x="485" 
 />
    <glyph glyph-name="space" unicode=" " horiz-adv-x="499" 
 />
    <glyph glyph-name="exclam" unicode="!" horiz-adv-x="520" 
d="M365 1481l-48 -1112h-120l-47 1112h215zM365 231v-231h-218v231h218z" />
    <glyph glyph-name="quotedbl" unicode="&#x22;" horiz-adv-x="858" 
d="M391 1481l-61 -469h-105l-57 469h223zM745 1481l-59 -469h-104l-58 469h221z" />
    <glyph glyph-name="numbersign" unicode="#" horiz-adv-x="1232" 
d="M1151 901h-238l-47 -307h219v-113h-235l-74 -485l-112 16l71 469h-303l-74 -485l-112 16l71 469h-239v113h256l47 307h-238v113h254l72 469l113 -13l-70 -456h303l72 469l112 -13l-69 -456h221v-113zM752 594l47 307h-303l-47 -307h303z" />
    <glyph glyph-name="dollar" unicode="$" horiz-adv-x="1349" 
d="M1223 381q0 -161 -123 -269.5t-326 -127.5v-201h-168v201q-201 19 -327 119.5t-152 273.5l188 12q32 -127 131 -191.5t248 -64.5q88 0 164 30t124 86.5t48 127.5q0 99 -58.5 159.5t-185.5 94.5l-256 69q-355 89 -358 369q0 173 122 288.5t324 137.5v209h168v-211
q182 -23 292 -138.5t118 -271.5l-182 -12q-47 275 -312 275q-88 0 -162.5 -28.5t-123.5 -89t-49 -141.5q0 -82 56.5 -129.5t205.5 -93.5l248 -71q346 -98 346 -412z" />
    <glyph glyph-name="percent" unicode="%" horiz-adv-x="1857" 
d="M467 1503q151 0 247.5 -116t96.5 -308q0 -193 -95.5 -307.5t-248.5 -114.5t-251.5 115t-98.5 307t98.5 308t251.5 116zM1528 1497l-996 -1505l-122 2l999 1503h119zM465 760q98 0 153.5 87t55.5 232q0 147 -56 235.5t-153 88.5q-98 0 -153.5 -89.5t-55.5 -234.5
t55.5 -232t153.5 -87zM1391 827q151 0 247.5 -116.5t96.5 -307.5q0 -194 -95.5 -308.5t-248.5 -114.5q-155 0 -253 115t-98 308q0 191 99 307.5t252 116.5zM1389 84q95 0 151.5 88.5t56.5 228.5q0 143 -57 233.5t-151 90.5q-95 0 -152 -91t-57 -233q0 -140 57 -228.5
t152 -88.5z" />
    <glyph glyph-name="ampersand" unicode="&#x26;" horiz-adv-x="1441" 
d="M631 1503q108 0 199 -38t146.5 -110.5t55.5 -166.5q0 -214 -352 -402l334 -389q43 61 84 164t49 232h174q-18 -145 -73 -261.5t-144 -242.5l246 -289h-211l-146 166q-210 -176 -458 -176q-211 0 -328 104.5t-117 278.5q0 142 84.5 247t265.5 201q-94 99 -140 182.5
t-46 176.5q0 138 106 230.5t271 92.5zM637 1378q-94 -1 -148.5 -56t-54.5 -132q0 -69 40.5 -140.5t88.5 -121.5l35 -39q156 90 213 156.5t57 138.5q0 68 -35 113.5t-85.5 63.5t-110.5 17zM530 711q-251 -139 -243 -336q6 -108 87.5 -174t196.5 -66q87 0 175.5 38.5
t156.5 105.5z" />
    <glyph glyph-name="quotesingle" unicode="'" horiz-adv-x="518" 
d="M371 1481l-62 -469h-104l-58 469h224z" />
    <glyph glyph-name="parenleft" unicode="(" horiz-adv-x="622" 
d="M565 1481q-110 -211 -174.5 -446t-64.5 -468q0 -428 223 -897h-123q-138 236 -207 445t-69 454q0 244 78.5 478t213.5 434h123z" />
    <glyph glyph-name="parenright" unicode=")" horiz-adv-x="636" 
d="M33 1481h123q136 -200 214.5 -434.5t78.5 -477.5q0 -245 -69.5 -454t-207.5 -445h-123q223 469 223 897q0 233 -64.5 468t-174.5 446z" />
    <glyph glyph-name="asterisk" unicode="*" horiz-adv-x="802" 
d="M567 801l-159 256l-164 -262l-109 73l193 238l-267 78l41 114l254 -102l-18 285h135l-18 -285l258 109l37 -113l-261 -84l187 -229z" />
    <glyph glyph-name="plus" unicode="+" horiz-adv-x="1142" 
d="M1008 815v-141h-367v-367h-141v367h-369v139h369v371h139v-369h369z" />
    <glyph glyph-name="comma" unicode="," horiz-adv-x="491" 
d="M90 -254l115 250l-88 4v221h229v-190l-170 -285h-86z" />
    <glyph glyph-name="hyphen" unicode="-" horiz-adv-x="788" 
d="M649 600v-141l-516 -2v143h516z" />
    <glyph glyph-name="period" unicode="." horiz-adv-x="466" 
d="M338 233v-233h-217v233h217z" />
    <glyph glyph-name="slash" unicode="/" horiz-adv-x="716" 
d="M29 -84l512 1565h143l-514 -1565h-141z" />
    <glyph glyph-name="zero" unicode="0" horiz-adv-x="1314" 
d="M659 1501q120 0 220.5 -49t175 -142.5t116 -240t41.5 -332.5q0 -185 -41 -330t-115.5 -237t-175.5 -140t-223 -48q-250 0 -401.5 194t-151.5 559q0 186 41.5 332.5t116.5 241t175.5 143.5t221.5 49zM659 135q168 0 261.5 147t93.5 455q0 312 -95 461.5t-262 149.5
q-166 0 -261 -150.5t-95 -460.5q0 -307 95 -454.5t263 -147.5z" />
    <glyph glyph-name="one" unicode="1" horiz-adv-x="794" 
d="M365 0v1270l-289 -103v138l354 176h121v-1481h-186z" />
    <glyph glyph-name="two" unicode="2" horiz-adv-x="1191" 
d="M92 0v158l479 465q178 168 243 262t65 198q0 54 -17.5 98t-46 73.5t-67 49.5t-78.5 28.5t-82 8.5q-107 0 -198.5 -50.5t-143.5 -157.5l-162 38q58 159 188.5 244.5t323.5 85.5q211 0 341.5 -111.5t129.5 -308.5q0 -124 -67.5 -232t-243.5 -284l-410 -405h737v-160h-991z
" />
    <glyph glyph-name="three" unicode="3" horiz-adv-x="1306" 
d="M135 1208q45 146 187.5 219.5t324.5 73.5q223 0 365.5 -106.5t142.5 -268.5q0 -236 -285 -338q152 -41 241 -139t89 -237q0 -189 -160 -310.5t-409 -121.5q-135 0 -234.5 26.5t-179 93t-127.5 176.5l164 41q120 -182 373 -182q172 0 272 76t100 197q0 88 -53 154.5
t-135 99t-178 32.5l-199 2v152l168 2q153 2 256 77t103 187q0 101 -91 168.5t-225 67.5q-249 0 -352 -183z" />
    <glyph glyph-name="four" unicode="4" horiz-adv-x="1280" 
d="M782 1481h185v-936h229v-162h-229v-383h-181v383h-692v170zM283 545h499v672z" />
    <glyph glyph-name="five" unicode="5" horiz-adv-x="1333" 
d="M248 1481h891l-13 -156h-725l-39 -489q70 35 108.5 52t107 33.5t139.5 16.5q101 0 189 -27.5t158 -81t110 -142t40 -202.5q0 -235 -157.5 -370t-411.5 -135q-164 0 -305 61t-236 174l134 104q47 -48 83 -78t82.5 -57.5t99.5 -40t118 -12.5q184 0 289.5 96.5t105.5 251.5
q0 149 -94 227t-240 78q-64 0 -130.5 -19.5t-104 -38t-101.5 -54.5q-6 -3 -9.5 -4.5t-6 -2.5t-5 0t-4 1.5t-5.5 3t-7 4.5l-123 69z" />
    <glyph glyph-name="six" unicode="6" horiz-adv-x="1267" 
d="M694 1513q176 0 296.5 -81t156.5 -213l-152 -43q-36 60 -69.5 97t-92.5 63t-137 26q-201 0 -305.5 -185t-87.5 -526q41 114 148.5 181t242.5 67q111 0 201 -34.5t148.5 -95t90 -141t31.5 -173.5q0 -208 -143 -334.5t-365 -126.5q-262 0 -409.5 194.5t-147.5 542.5
q0 366 157.5 574t436.5 208zM668 752q-139 0 -238.5 -73.5t-99.5 -191.5q28 -172 110.5 -259t214.5 -87q137 0 227.5 85t90.5 218q0 131 -84.5 219.5t-220.5 88.5z" />
    <glyph glyph-name="seven" unicode="7" horiz-adv-x="1183" 
d="M76 1481h1038v-185q-197 -272 -370 -667.5t-201 -628.5h-201q19 111 63 257t113 322.5t175.5 374.5t230.5 371h-848v156z" />
    <glyph glyph-name="eight" unicode="8" horiz-adv-x="1282" 
d="M639 1501q220 0 354.5 -113t134.5 -296q0 -60 -21 -114t-47.5 -88t-64.5 -64.5t-57.5 -42t-40.5 -21.5q5 -2 29 -12t39 -17t41.5 -21t45 -28.5t42.5 -35.5t40 -46.5t30.5 -56t22 -69t7.5 -81.5q0 -191 -154 -303t-409 -112q-250 0 -395.5 102t-145.5 285q0 108 68 206
t209 164q-19 7 -40.5 17t-59.5 38t-66 62.5t-50 92t-22 124.5q0 183 143 306.5t367 123.5zM641 1354q-134 0 -224.5 -76t-90.5 -191q0 -174 200 -221l199 -49q39 -8 92.5 31t94 108.5t40.5 139.5q0 115 -85 186.5t-226 71.5zM641 129q163 0 258.5 69.5t95.5 188.5
q0 91 -49 146.5t-158 82.5l-253 62q-30 8 -74.5 -11.5t-87 -56.5t-73 -96t-30.5 -123q0 -124 96 -193t275 -69z" />
    <glyph glyph-name="nine" unicode="9" horiz-adv-x="1267" 
d="M567 -18q-174 0 -295 81t-159 211l157 43q50 -90 115 -138t176 -48q207 0 317 180t95 537q-38 -119 -145.5 -189.5t-249.5 -70.5q-222 0 -352 128t-130 324q0 207 144 333t366 126q261 0 409 -194t148 -541q0 -376 -157 -579t-439 -203zM594 741q137 0 238.5 77
t101.5 188q-28 172 -111.5 259t-216.5 87q-135 0 -223 -85t-88 -218q0 -129 82.5 -218.5t216.5 -89.5z" />
    <glyph glyph-name="colon" unicode=":" horiz-adv-x="466" 
d="M338 1016v-234h-217v234h217zM338 238v-232h-217v232h217z" />
    <glyph glyph-name="semicolon" unicode=";" horiz-adv-x="509" 
d="M123 778v236h217v-236h-217zM98 -291l117 291h-84v231h217v-204l-170 -318h-80z" />
    <glyph glyph-name="less" unicode="&#x3c;" horiz-adv-x="1130" 
d="M977 459v-168l-856 336v164l858 342v-172l-643 -252z" />
    <glyph glyph-name="equal" unicode="=" horiz-adv-x="1142" 
d="M1008 1014v-142l-877 -2v142zM1008 559v-139l-877 -2v141h877z" />
    <glyph glyph-name="greater" unicode="&#x3e;" horiz-adv-x="1130" 
d="M147 459l641 250l-641 252v172l857 -342v-164l-857 -336v168z" />
    <glyph glyph-name="question" unicode="?" horiz-adv-x="1077" 
d="M55 1208q64 138 192.5 215.5t291.5 77.5q204 0 328 -99t124 -257q0 -70 -22.5 -133.5t-58.5 -112t-80 -95t-87.5 -92.5t-79.5 -94.5t-58.5 -111.5t-22.5 -133h-156q0 79 21 150t54.5 124.5t74.5 102.5t81.5 94t74 89t54.5 97t21 109q0 102 -73.5 162.5t-194.5 60.5
q-102 0 -195 -58.5t-127 -144.5zM612 231v-231h-217v231h217z" />
    <glyph glyph-name="at" unicode="@" horiz-adv-x="1691" 
d="M1350 -72q-201 -153 -473 -153q-177 0 -324.5 58.5t-244.5 160t-150.5 237t-53.5 289.5q0 161 58.5 307t161.5 255t254.5 173t328.5 64q106 0 206.5 -23t192 -74t159.5 -124t108.5 -181.5t40.5 -238.5q0 -227 -110 -371.5t-277 -144.5q-150 0 -180 106q-8 22 -25 2
q-104 -137 -277 -137q-117 0 -199.5 98t-82.5 254q0 126 49 232t138 168.5t200 62.5q153 0 229 -125q3 -5 8.5 -3t6.5 9l16 68h125l-76 -457q-14 -85 5.5 -120t72.5 -35q99 0 169.5 104.5t70.5 276.5q0 112 -33 203.5t-88.5 151.5t-130 101t-154.5 58.5t-166 17.5
q-156 0 -283.5 -54t-210 -147t-127 -215.5t-44.5 -261.5q0 -134 44 -248t126 -198.5t209.5 -132t285.5 -47.5q66 0 119 9t99 29.5t77 39t78 51.5zM614 496q0 -106 42.5 -169t119.5 -63q96 0 170.5 82t89.5 195q18 130 -36.5 204t-139.5 74q-107 0 -176.5 -93.5t-69.5 -229.5
z" />
    <glyph glyph-name="A" unicode="A" horiz-adv-x="1454" 
d="M88 0l539 1481h204l535 -1481h-184l-148 412h-610l-152 -412h-184zM469 578h516l-256 725z" />
    <glyph glyph-name="B" unicode="B" horiz-adv-x="1376" 
d="M199 0v1481h471q267 0 407 -99t140 -286q0 -124 -64.5 -206.5t-212.5 -133.5q311 -69 311 -359q0 -397 -567 -397h-485zM379 825h326q63 0 119 12t106.5 39t80 77.5t29.5 119.5q0 128 -97.5 193t-264.5 65h-299v-506zM379 152h303q389 0 389 254q0 69 -28.5 121.5
t-79 83.5t-115.5 46t-143 15h-326v-520z" />
    <glyph glyph-name="C" unicode="C" horiz-adv-x="1431" 
d="M750 1501q232 0 386 -128t175 -318l-191 -11q-26 138 -120.5 218.5t-251.5 80.5q-205 0 -312.5 -150t-107.5 -452q0 -299 108 -451.5t322 -152.5q136 0 232.5 80t125.5 215l191 -16q-23 -188 -170.5 -312t-376.5 -124q-296 0 -462.5 203.5t-166.5 559.5t163.5 557
t455.5 201z" />
    <glyph glyph-name="D" unicode="D" horiz-adv-x="1425" 
d="M199 1481q211 0 336 -2q401 -4 585.5 -186t184.5 -543q0 -374 -195 -562t-596 -188h-315v1481zM385 1325v-1169h129q145 0 253.5 31.5t188 100.5t120 183.5t40.5 273.5q0 161 -39.5 274t-118 180t-185 96.5t-251.5 29.5h-137z" />
    <glyph glyph-name="E" unicode="E" horiz-adv-x="1282" 
d="M199 0v1481h925v-160h-745v-494h674v-159h-674v-504l766 -2v-162h-946z" />
    <glyph glyph-name="F" unicode="F" horiz-adv-x="1200" 
d="M199 1481h915v-158h-729v-500h657v-157h-657v-666h-186v1481z" />
    <glyph glyph-name="G" unicode="G" horiz-adv-x="1515" 
d="M754 -20q-289 0 -456 202.5t-167 552.5q0 358 171.5 562t461.5 204q107 0 207 -36.5t173 -97t119 -142t52 -168.5l-195 -10q-22 127 -121 210.5t-239 83.5q-203 0 -319.5 -153.5t-116.5 -439.5q0 -303 118 -454t324 -151q90 0 164.5 33.5t120 87t71 113.5t27.5 119l4 135
h-365v133l551 -2v-762h-135v229q-152 -249 -450 -249z" />
    <glyph glyph-name="H" unicode="H" horiz-adv-x="1452" 
d="M1081 686h-702v-686h-180v1481h180v-635h702v635h179v-1481h-179v686z" />
    <glyph glyph-name="I" unicode="I" horiz-adv-x="571" 
d="M199 1481h180v-1481h-180v1481z" />
    <glyph glyph-name="J" unicode="J" horiz-adv-x="790" 
d="M600 344q0 -91 -14 -155t-48 -113t-95 -72.5t-152 -23.5q-124 0 -238 47l15 172q5 -2 40.5 -17t67 -22.5t70.5 -7.5q98 0 136 54.5t38 188.5v1086h180v-1137z" />
    <glyph glyph-name="K" unicode="K" horiz-adv-x="1392" 
d="M1321 0h-207l-469 768l-258 -297v-471h-188v1481h188v-774l674 774h215l-494 -578z" />
    <glyph glyph-name="L" unicode="L" horiz-adv-x="1155" 
d="M199 1481h186v-1317h705v-164h-891v1481z" />
    <glyph glyph-name="M" unicode="M" horiz-adv-x="1802" 
d="M199 0v1481h247l457 -1239l463 1239h244v-1481h-185v1202l-438 -1202h-170l-432 1192v-1192h-186z" />
    <glyph glyph-name="N" unicode="N" horiz-adv-x="1533" 
d="M1163 1481h178v-1481h-159l-803 1182v-1182h-180v1481h170l794 -1166v1166z" />
    <glyph glyph-name="O" unicode="O" horiz-adv-x="1533" 
d="M768 -20q-299 0 -468 197.5t-169 557.5q0 362 171 564t468 202q296 0 465.5 -201t169.5 -563q0 -360 -169.5 -558.5t-467.5 -198.5zM772 137q212 0 324 147.5t112 450.5q0 307 -113 457.5t-325 150.5q-214 0 -328 -151t-114 -457q0 -303 114.5 -450.5t329.5 -147.5z" />
    <glyph glyph-name="P" unicode="P" horiz-adv-x="1314" 
d="M199 0v1481h497q244 0 395.5 -122.5t151.5 -344.5q0 -218 -143 -341.5t-379 -123.5h-336v-549h-186zM383 702h334q157 0 253.5 87t96.5 235t-97.5 226.5t-262.5 78.5h-324v-627z" />
    <glyph glyph-name="Q" unicode="Q" horiz-adv-x="1509" 
d="M104 737q0 363 170.5 563.5t466.5 200.5q297 0 467 -200t170 -564q0 -237 -70.5 -401t-222.5 -260q37 -82 111.5 -124.5t169.5 -45.5v-154q-299 0 -448 246q-102 -18 -177 -18q-296 0 -466.5 196.5t-170.5 560.5zM301 733q0 -596 440 -596q441 0 441 598
q0 304 -112.5 456t-328.5 152q-215 0 -327.5 -152.5t-112.5 -457.5z" />
    <glyph glyph-name="R" unicode="R" horiz-adv-x="1394" 
d="M1249 0h-190l-273 643h-407v-643h-180v1481h569q235 0 357 -105t122 -297q0 -298 -291 -403zM707 795q173 0 264.5 69t91.5 205q0 130 -81 197t-230 67h-373v-538h328z" />
    <glyph glyph-name="S" unicode="S" horiz-adv-x="1421" 
d="M715 -20q-145 0 -269.5 43.5t-212 135.5t-106.5 218l188 12q28 -125 138.5 -192.5t261.5 -67.5q165 0 271 68t106 180q0 202 -263 262l-299 70q-355 78 -358 360q0 190 150.5 310t384.5 120q125 0 227.5 -34t169 -93t105.5 -132.5t48 -156.5l-182 -12q-12 74 -45.5 128.5
t-83.5 85.5t-109 46t-130 15q-88 0 -163.5 -28.5t-126 -89t-50.5 -141.5q0 -84 57.5 -135.5t204.5 -87.5l291 -67q360 -81 360 -416q0 -173 -152.5 -287t-412.5 -114z" />
    <glyph glyph-name="T" unicode="T" horiz-adv-x="1181" 
d="M35 1315v166h1112v-166h-453v-1315h-180v1315h-479z" />
    <glyph glyph-name="U" unicode="U" horiz-adv-x="1462" 
d="M1274 506q0 -259 -131 -392.5t-408 -133.5q-280 0 -408 136.5t-128 411.5v953h186v-981q0 -180 90 -271.5t260 -91.5q173 0 265 90.5t92 272.5v981h182v-975z" />
    <glyph glyph-name="V" unicode="V" horiz-adv-x="1320" 
d="M1292 1481l-526 -1481h-219l-516 1481h178l448 -1278l457 1278h178z" />
    <glyph glyph-name="W" unicode="W" horiz-adv-x="1961" 
d="M1909 1481l-432 -1481h-170l-328 1163l-336 -1163h-164l-426 1481h183l333 -1198l338 1198h144l338 -1198l337 1198h183z" />
    <glyph glyph-name="X" unicode="X" horiz-adv-x="1341" 
d="M1288 0h-227l-404 612l-401 -612h-203l504 756l-483 725h227l371 -570l370 570h203l-475 -707z" />
    <glyph glyph-name="Y" unicode="Y" horiz-adv-x="1224" 
d="M1204 1481l-499 -850v-631h-181v633l-504 848h197l397 -688l394 688h196z" />
    <glyph glyph-name="Z" unicode="Z" horiz-adv-x="1286" 
d="M111 0v100l817 1223h-785v158h1035v-97l-824 -1226h820v-158h-1063z" />
    <glyph glyph-name="bracketleft" unicode="[" horiz-adv-x="618" 
d="M190 1481h375v-117h-215v-1577h213v-117h-370z" />
    <glyph glyph-name="backslash" unicode="\" horiz-adv-x="716" 
d="M537 -84l-510 1565h141l512 -1565h-143z" />
    <glyph glyph-name="bracketright" unicode="]" horiz-adv-x="647" 
d="M412 1481l-2 -1811h-371v117h213v1577h-215v117h375z" />
    <glyph glyph-name="asciicircum" unicode="^" horiz-adv-x="974" 
d="M723 264l-240 604l-243 -602h-142l303 740q28 70 79.5 72t82.5 -72l305 -742h-145z" />
    <glyph glyph-name="underscore" unicode="_" horiz-adv-x="1067" 
d="M930 -96v-142l-797 -2v142z" />
    <glyph glyph-name="grave" unicode="`" horiz-adv-x="598" 
d="M70 1499l497 -196l-30 -95l-514 152z" />
    <glyph glyph-name="a" unicode="a" horiz-adv-x="1159" 
d="M459 -20q-158 0 -253 81t-95 224q0 178 122 263t392 91l194 6v84q0 102 -67 159.5t-181 57.5q-98 -2 -169 -49t-89 -135h-159q8 138 123.5 227.5t302.5 89.5q199 0 306 -91t107 -249v-739h-153l-15 193q-59 -117 -150.5 -165t-215.5 -48zM510 111q71 0 143 33.5t118.5 89
t47.5 114.5v182l-162 -2q-192 -3 -282 -55.5t-90 -169.5q0 -89 62.5 -140.5t162.5 -51.5z" />
    <glyph glyph-name="b" unicode="b" horiz-adv-x="1210" 
d="M657 -20q-67 0 -127.5 18.5t-102 47t-69 56.5t-41.5 54l-18 -156h-137v1522h180v-609q15 24 43 50t70.5 53.5t103.5 45t127 17.5q106 0 188.5 -41t134 -115t77.5 -172t26 -216q0 -257 -120 -406t-335 -149zM618 119q138 0 224 104t86 312q0 195 -77.5 299t-219.5 104
q-96 0 -172.5 -53.5t-116.5 -145.5v-327q0 -125 83.5 -209t192.5 -84z" />
    <glyph glyph-name="c" unicode="c" horiz-adv-x="1118" 
d="M588 1079q166 0 282.5 -93.5t139.5 -256.5l-160 -2q-26 99 -93.5 153t-160.5 54q-146 0 -231.5 -110t-85.5 -296q0 -188 86 -299.5t233 -111.5q96 0 164.5 56.5t87.5 148.5h158q-24 -164 -140 -253t-280 -89q-218 0 -350 150t-132 394q0 247 132 401t350 154z" />
    <glyph glyph-name="d" unicode="d" 
d="M545 -20q-204 0 -321.5 140.5t-117.5 397.5q0 256 116 408.5t325 152.5q178 0 313 -135v578h180v-1522h-141l-14 205q-93 -225 -340 -225zM582 119q116 0 197 82.5t81 185.5v379q-100 172 -268 172q-143 0 -225 -106t-82 -308q0 -204 81.5 -304.5t215.5 -100.5z" />
    <glyph glyph-name="e" unicode="e" horiz-adv-x="1153" 
d="M287 485q0 -104 33 -184.5t104.5 -130t173.5 -49.5q208 0 270 186h170q-37 -159 -157.5 -243t-280.5 -84q-223 0 -358.5 144t-135.5 394q0 255 128 408t354 153q218 0 337 -139.5t119 -384.5v-70h-757zM289 610h583q0 148 -72.5 239t-213.5 91q-97 0 -166.5 -49.5
t-100.5 -122.5t-30 -158z" />
    <glyph glyph-name="f" unicode="f" horiz-adv-x="815" 
d="M739 1059v-133h-260v-926h-180v926h-227v133h227v166q0 126 63.5 191t190.5 65h195l2 -129h-160q-64 0 -89.5 -34.5t-25.5 -107.5v-151h264z" />
    <glyph glyph-name="g" unicode="g" horiz-adv-x="1253" 
d="M596 -350q-252 0 -387 75t-135 205q0 43 17 80t45.5 63t53 42.5t52.5 30.5t30 16q-1 1 -19.5 12t-25 15.5t-21.5 17.5t-21.5 23.5t-12.5 28t-6 36.5q0 51 47 91t137 60q-103 53 -149.5 124.5t-46.5 168.5q0 158 124.5 247t331.5 89q98 0 169 -22.5t136 -69.5l267 111
v-170l-187 -37q14 -28 24.5 -72.5t10.5 -73.5q0 -144 -112 -238.5t-324 -94.5q-44 0 -62 2q-104 -3 -150 -23.5t-46 -50.5t43 -42t160 -20q31 -2 112 -7t119 -7q174 -10 259 -84.5t85 -200.5q0 -152 -135 -238.5t-383 -86.5zM598 524q128 0 194 55t66 158q0 106 -67 166
t-193 60q-125 0 -194.5 -60.5t-69.5 -165.5q0 -101 69 -157t195 -56zM629 -233q158 0 233.5 45t75.5 137q0 141 -197 155l-301 19q-64 5 -126 -47.5t-62 -124.5q0 -184 377 -184z" />
    <glyph glyph-name="h" unicode="h" 
d="M162 0v1522h176v-613q43 72 127.5 118t204.5 46q159 0 264.5 -87.5t105.5 -225.5v-760h-180v725q0 93 -65.5 147t-173.5 54q-117 0 -198 -56t-81 -157v-713h-180z" />
    <glyph glyph-name="i" unicode="i" horiz-adv-x="530" 
d="M362 1522v-240h-192v240h192zM356 1059v-1059h-180v1059h180z" />
    <glyph glyph-name="j" unicode="j" horiz-adv-x="542" 
d="M379 1522v-240h-195v240h195zM373 -53q0 -150 -65 -218.5t-222 -68.5q-51 0 -84 6t-40 12l-7 5v120l106 4q72 4 102 38.5t30 109.5v1104h180v-1112z" />
    <glyph glyph-name="k" unicode="k" horiz-adv-x="1155" 
d="M1083 0h-190l-336 539l-215 -224v-315h-180v1522h180v-1008l514 545h201l-381 -402z" />
    <glyph glyph-name="l" unicode="l" horiz-adv-x="624" 
d="M428 -12q-64 0 -112 15.5t-76 40.5t-45 62.5t-23 76t-6 87.5v1252h176v-1235q0 -159 119 -166l59 -2v-115q-50 -16 -92 -16z" />
    <glyph glyph-name="m" unicode="m" horiz-adv-x="1830" 
d="M162 0v1059h174v-148q45 74 128.5 121t199.5 47q114 0 201.5 -42.5t125.5 -125.5q52 79 137.5 123.5t194.5 44.5q53 0 101 -10t96.5 -36t83.5 -67t57 -108t22 -153v-705h-180v690q0 248 -235 248q-53 0 -97 -12t-80.5 -38t-57.5 -72.5t-21 -110.5v-705h-181v748
q0 91 -66.5 140.5t-168.5 49.5q-60 0 -115.5 -21t-97 -71t-41.5 -121v-725h-180z" />
    <glyph glyph-name="n" unicode="n" 
d="M162 0v1059h174v-148q108 164 334 164q159 0 264.5 -101t105.5 -280v-694h-180v678q0 118 -64.5 183t-172.5 65q-118 0 -199.5 -55.5t-81.5 -157.5v-713h-180z" />
    <glyph glyph-name="o" unicode="o" horiz-adv-x="1157" 
d="M580 -20q-225 0 -353.5 149t-128.5 393q0 249 130.5 403t353.5 154q222 0 350.5 -153.5t128.5 -401.5q0 -160 -56.5 -282.5t-166 -192t-258.5 -69.5zM584 123q148 0 222.5 112.5t74.5 294.5q0 119 -31 208.5t-99.5 143.5t-168.5 54q-150 0 -228 -112.5t-78 -293.5
q0 -118 32 -207.5t103 -144.5t173 -55z" />
    <glyph glyph-name="p" unicode="p" horiz-adv-x="1208" 
d="M162 -330v1389h178v-148q129 168 330 168q194 0 318 -137.5t124 -396.5q0 -264 -131.5 -414.5t-339.5 -150.5q-91 0 -164.5 38.5t-134.5 126.5v-475h-180zM612 119q144 0 235 112t91 308q0 99 -25.5 176.5t-70 125.5t-100 72.5t-119.5 24.5q-117 0 -199 -79t-82 -167
v-407q112 -166 270 -166z" />
    <glyph glyph-name="q" unicode="q" horiz-adv-x="1204" 
d="M1057 -330h-180v430q-76 -64 -150 -92t-160 -28q-208 0 -334.5 150t-126.5 415q0 131 34.5 234.5t95 168t139.5 98t172 33.5q61 0 115 -14t94.5 -40t63.5 -45t50 -45l9 -9v133h178v-1389zM612 113q156 0 265 198v359q0 110 -78 192t-197 82q-135 0 -223 -102t-88 -301
q0 -197 89.5 -312.5t231.5 -115.5z" />
    <glyph glyph-name="r" unicode="r" horiz-adv-x="792" 
d="M162 0v1059h170v-223q55 105 163.5 174t225.5 69l2 -174q-104 6 -193.5 -33.5t-138.5 -102t-49 -128.5v-641h-180z" />
    <glyph glyph-name="s" unicode="s" horiz-adv-x="1064" 
d="M543 -20q-110 0 -204 35t-160 108.5t-81 175.5h162q25 -94 100 -139t185 -45q115 0 182.5 44.5t67.5 123.5q0 59 -41 94.5t-123 56.5l-217 55q-136 33 -207.5 98.5t-71.5 178.5q0 97 57.5 169.5t149 108t201.5 35.5q176 0 282.5 -88.5t108.5 -214.5h-162q-12 82 -75 126
t-156 44q-42 0 -82 -8.5t-76.5 -27t-59 -53t-22.5 -81.5q0 -57 43.5 -90.5t134.5 -56.5l217 -56q73 -19 125.5 -51t80 -70.5t40 -77.5t12.5 -81q0 -147 -118 -230t-293 -83z" />
    <glyph glyph-name="t" unicode="t" horiz-adv-x="817" 
d="M696 926h-239v-660q0 -81 25 -110t79 -29h146v-115q-52 -18 -156 -18q-155 0 -215 63t-60 197v672h-172v133h177l18 307h158v-307h239v-133z" />
    <glyph glyph-name="u" unicode="u" 
d="M559 -18q-55 0 -109 12t-106.5 39.5t-92.5 68t-64.5 102.5t-24.5 138v719h180v-701q0 -52 15.5 -93.5t40.5 -68t59 -44t68.5 -24.5t70.5 -7q109 0 186 65.5t78 182.5v690h180l-2 -1059h-143l-14 215q-13 -65 -45.5 -112.5t-77.5 -73.5t-94.5 -38t-104.5 -11z" />
    <glyph glyph-name="v" unicode="v" horiz-adv-x="1040" 
d="M985 1059l-381 -1059h-168l-381 1059h170l285 -836h18l289 836h168z" />
    <glyph glyph-name="w" unicode="w" horiz-adv-x="1628" 
d="M1556 1059l-317 -1059h-182l-246 795l-231 -795h-181l-327 1059h168l245 -828h17l243 828h138l254 -826h16l236 826h167z" />
    <glyph glyph-name="x" unicode="x" horiz-adv-x="1155" 
d="M1087 0h-196l-313 422l-312 -422h-196l407 551l-375 508h197l279 -379l280 379h199l-379 -508z" />
    <glyph glyph-name="y" unicode="y" horiz-adv-x="1101" 
d="M264 -338q-55 0 -95 6t-53 12l-12 7v116l109 -2q55 -1 95.5 8.5t64 29.5t35 37.5t22.5 43.5l39 103l-414 1036h183l317 -830l315 830h174l-446 -1145q-57 -140 -138 -196t-196 -56z" />
    <glyph glyph-name="z" unicode="z" horiz-adv-x="1013" 
d="M90 0v113l612 821h-569v125h785v-115l-613 -819h623v-125h-838z" />
    <glyph glyph-name="braceleft" unicode="{" horiz-adv-x="663" 
d="M250 1274q0 95 72.5 151t187.5 56h98v-117h-71q-73 0 -100 -26t-27 -81v-436q-1 -108 -58.5 -166.5t-142.5 -66.5q-8 -1 -11.5 -4t-0.5 -6.5t12 -4.5q85 -7 142.5 -62.5t58.5 -170.5v-442q0 -59 28 -85t101 -26h69v-117h-94q-120 0 -192 57t-72 154v447q0 79 -60.5 137.5
t-171.5 58.5v111q116 1 174 56.5t58 150.5v432z" />
    <glyph glyph-name="bar" unicode="|" horiz-adv-x="532" 
d="M340 -330h-139l-2 2022h141v-2022z" />
    <glyph glyph-name="braceright" unicode="}" horiz-adv-x="684" 
d="M397 1274v-432q0 -95 58 -150.5t174 -56.5v-111q-111 0 -171.5 -58.5t-60.5 -137.5v-447q0 -97 -72 -154t-192 -57h-94v117h70q73 0 101 26t28 85v442q1 115 58 170.5t142 62.5q9 1 12 4.5t-0.5 6.5t-11.5 4q-84 8 -141.5 66.5t-58.5 166.5v436q0 55 -27 81t-100 26h-72
v117h98q115 0 187.5 -56t72.5 -151z" />
    <glyph glyph-name="asciitilde" unicode="~" horiz-adv-x="1167" 
d="M1034 764q-37 -60 -103 -95.5t-153 -35.5q-69 0 -134.5 26t-126.5 52t-118 26q-70 0 -121.5 -30.5t-99.5 -81.5l-53 102q70 68 129.5 102.5t142.5 34.5q65 0 131.5 -26.5t129 -53t118.5 -26.5q119 0 205 110z" />
    <glyph glyph-name="uni00A0" unicode="&#xa0;" horiz-adv-x="477" 
 />
    <glyph glyph-name="exclamdown" unicode="&#xa1;" horiz-adv-x="520" 
d="M365 827h-215v232h215v-232zM367 -330h-217l49 1018h120z" />
    <glyph glyph-name="cent" unicode="&#xa2;" horiz-adv-x="1116" 
d="M616 344q97 0 165 56.5t89 148.5h158q-24 -150 -124 -238t-245 -102v-209h-135v213q-184 29 -291.5 174.5t-107.5 364.5q0 220 107.5 368.5t291.5 179.5v181h135v-176q145 -14 246.5 -107t122.5 -242l-160 -2q-26 99 -92.5 153t-159.5 54q-147 0 -233 -109.5t-86 -295.5
q0 -188 86 -300t233 -112z" />
    <glyph glyph-name="sterling" unicode="&#xa3;" horiz-adv-x="1259" 
d="M35 0v156h78q82 0 133 71.5t51 214.5q0 92 -23 263h-206v116h184l-31 168q-25 120 -0.5 215t85.5 161t147 101t184 35q142 0 256 -67t156 -170l-160 -60q-35 73 -89 107.5t-141 34.5q-108 0 -178.5 -62.5t-70.5 -169.5q0 -133 49 -291h334v-116h-318q20 -137 12 -238
q-7 -200 -118 -311h364q106 0 168.5 37.5t97.5 128.5l154 -41q-95 -283 -410 -283h-708z" />
    <glyph glyph-name="currency" unicode="&#xa4;" horiz-adv-x="1103" 
d="M549 358q-118 0 -213 64q-16 9 -27 -2l-108 -113l-88 94l118 119q-67 101 -67 225q0 118 61 209q8 15 -4 27l-108 111l90 90l121 -125q99 71 223 71q122 0 211 -63q13 -9 24 2l111 111l88 -91l-121 -120q72 -101 72 -222q0 -119 -64 -208q-9 -13 0 -25l113 -106l-88 -91
l-119 119q-107 -76 -225 -76zM551 498q104 0 175 73t71 174q0 100 -71 174t-175 74q-105 0 -177.5 -74t-72.5 -174q0 -101 72 -174t178 -73z" />
    <glyph glyph-name="yen" unicode="&#xa5;" horiz-adv-x="1249" 
d="M1235 1481l-479 -789h291v-117h-314v-182h314v-114h-314v-279h-205v276h-313v115h313v184h-313v115h270l-471 791h234l395 -684l399 684h193z" />
    <glyph glyph-name="brokenbar" unicode="&#xa6;" horiz-adv-x="532" 
d="M340 872h-139l-2 820h141v-820zM340 -330h-139l-2 819h141v-819z" />
    <glyph glyph-name="section" unicode="&#xa7;" horiz-adv-x="1003" 
d="M516 -145q-147 0 -266 65t-172 170l119 66q48 -79 130.5 -127.5t188.5 -48.5q103 0 166 39.5t63 111.5q0 57 -44 102.5t-156 88.5l-178 67q-138 54 -201.5 126t-63.5 173q0 91 55 159.5t148 106.5q-112 59 -154 122t-42 141q0 123 104.5 203.5t275.5 80.5
q130 0 234.5 -59.5t159.5 -147.5l-121 -65q-114 145 -262 145q-104 0 -164 -38.5t-60 -102.5q0 -101 164 -166l170 -68q158 -64 228.5 -142t70.5 -185q0 -95 -49 -156.5t-135 -105.5q95 -54 142.5 -117.5t47.5 -145.5q0 -129 -108.5 -210.5t-290.5 -81.5zM563 481
q76 -6 132.5 44t54.5 120q-3 67 -40.5 112.5t-136.5 84.5l-114 45q-82 -7 -140.5 -59.5t-58.5 -116.5q0 -58 36.5 -96.5t143.5 -82.5z" />
    <glyph glyph-name="dieresis" unicode="&#xa8;" horiz-adv-x="542" 
d="M205 1481v-224h-174v224h174zM508 1481v-224h-176v224h176z" />
    <glyph glyph-name="copyright" unicode="&#xa9;" horiz-adv-x="1683" 
d="M840 -20q-208 0 -383 101t-277 276.5t-102 383.5q0 154 60 294.5t162 242.5t243.5 162.5t296.5 60.5q154 0 294.5 -60.5t242 -162.5t162 -242.5t60.5 -294.5q0 -156 -60 -297.5t-162 -242.5t-242.5 -161t-294.5 -60zM840 104q172 0 314 77t228 224t86 336
q0 140 -50 260.5t-135.5 203t-200 129t-242.5 46.5q-176 0 -319 -79t-227.5 -226t-84.5 -334q0 -190 84.5 -336.5t227.5 -223.5t319 -77zM844 1174q117 0 200.5 -62.5t135.5 -161.5l-133 -35q-78 146 -197 146q-107 0 -173.5 -84.5t-66.5 -228.5q0 -147 67.5 -231.5
t176.5 -84.5q143 0 227 158l103 -39q-49 -99 -135 -165.5t-205 -66.5q-173 0 -282 117.5t-109 306.5q0 190 110 310.5t281 120.5z" />
    <glyph glyph-name="ordfeminine" unicode="&#xaa;" horiz-adv-x="868" 
d="M332 811q-104 0 -162.5 49.5t-58.5 134.5q0 97 86 155.5t245 68.5l115 10v47q0 127 -149 127q-58 0 -98 -21t-72 -77l-111 32q77 160 289 160q132 0 198 -58t66 -163v-240q0 -79 8 -139l12 -74h-129l-16 88q-55 -53 -106.5 -76.5t-116.5 -23.5zM375 901q79 0 133 51
q49 43 49 84v109l-96 -6q-109 -7 -165 -43t-56 -95q0 -46 36.5 -73t98.5 -27z" />
    <glyph glyph-name="guillemotleft" unicode="&#xab;" horiz-adv-x="925" 
d="M248 514l207 -369h-101l-270 369l270 385h105zM608 514l207 -369h-102l-271 369l271 385h104z" />
    <glyph glyph-name="logicalnot" unicode="&#xac;" horiz-adv-x="1142" 
d="M131 813l877 2v-432h-152l-2 291h-723v139z" />
    <glyph glyph-name="uni00AD" unicode="&#xad;" horiz-adv-x="768" 
d="M670 600v-141l-516 -2v143h516z" />
    <glyph glyph-name="registered" unicode="&#xae;" horiz-adv-x="1114" 
d="M555 549q-199 0 -338 138.5t-139 336.5t139 337.5t338 139.5q97 0 184.5 -37.5t151.5 -101.5t101.5 -152.5t37.5 -185.5t-37.5 -185t-101.5 -151.5t-151.5 -101t-184.5 -37.5zM555 641q168 0 272.5 104.5t104.5 278.5q0 173 -104.5 279t-272.5 106q-170 0 -274.5 -106
t-104.5 -279q0 -174 104 -278.5t275 -104.5zM373 784v473h213q77 0 119.5 -30t42.5 -88q0 -94 -101 -127l92 -228h-92l-80 220h-108v-220h-86zM459 1071h114q84 0 84 59q0 60 -90 60h-108v-119z" />
    <glyph glyph-name="macron" unicode="&#xaf;" horiz-adv-x="667" 
d="M631 1454v-129h-600v129h600z" />
    <glyph glyph-name="degree" unicode="&#xb0;" horiz-adv-x="952" 
d="M793 1393q0 -139 -91.5 -229.5t-228.5 -90.5q-138 0 -228.5 90.5t-90.5 229.5t90.5 230t228.5 91q137 0 228.5 -91t91.5 -230zM664 1391q0 90 -52.5 145t-142.5 55q-88 0 -141.5 -55.5t-51.5 -144.5q2 -90 54.5 -145.5t140.5 -55.5t140.5 55.5t52.5 145.5z" />
    <glyph glyph-name="plusminus" unicode="&#xb1;" horiz-adv-x="1142" 
d="M639 971h369v-142h-369v-366h-139v366h-369v140h369v370h139v-368zM131 123v141h877v-139z" />
    <glyph glyph-name="uni00B2" unicode="&#xb2;" horiz-adv-x="782" 
d="M43 786v99l301 293q111 104 152 163.5t41 124.5q0 82 -55 123t-128 41q-68 0 -126 -32t-91 -99l-100 25q36 99 117.5 153t203.5 54q132 0 214.5 -71t82.5 -194q0 -78 -42 -144.5t-154 -178.5l-258 -256h465v-101h-623z" />
    <glyph glyph-name="uni00B3" unicode="&#xb3;" horiz-adv-x="813" 
d="M88 1546q20 63 71 105.5t115 61t138 18.5q140 0 229.5 -67t89.5 -169q0 -150 -180 -213q96 -25 152.5 -87t56.5 -151q0 -118 -101 -194t-258 -76q-129 0 -212.5 42.5t-127.5 144.5l103 24q76 -115 233 -115q108 0 172 48.5t64 123.5q0 82 -68.5 131.5t-161.5 51.5h-127
v94l107 2q96 2 160.5 49t64.5 117q0 64 -56 106.5t-140 42.5q-159 0 -224 -114z" />
    <glyph glyph-name="acute" unicode="&#xb4;" horiz-adv-x="598" 
d="M524 1499l45 -139l-514 -152l-30 95z" />
    <glyph glyph-name="paragraph" unicode="&#xb6;" horiz-adv-x="1144" 
d="M997 1370h-125v-1540h-118v1540h-103v-1540h-123v778q-193 6 -311.5 126t-118.5 298q0 88 30 168t86.5 143t148 100.5t204.5 37.5h430v-111z" />
    <glyph glyph-name="periodcentered" unicode="&#xb7;" horiz-adv-x="440" 
d="M330 856v-219h-230v219h230z" />
    <glyph glyph-name="cedilla" unicode="&#xb8;" horiz-adv-x="473" 
d="M438 -264q0 -72 -64 -114t-157 -42q-114 0 -190 51l30 76q61 -47 140 -47q110 0 110 76q0 45 -38.5 67t-123.5 23q-18 0 -12 14l74 170h98l-49 -123q96 -6 139 -49t43 -102z" />
    <glyph glyph-name="uni00B9" unicode="&#xb9;" horiz-adv-x="614" 
d="M188 778v799l-180 -66v88l221 111h76v-932h-117z" />
    <glyph glyph-name="ordmasculine" unicode="&#xba;" horiz-adv-x="835" 
d="M416 1499q147 0 234 -95.5t87 -250.5q0 -152 -86.5 -246t-234.5 -94t-233 94t-85 246q0 155 87.5 250.5t230.5 95.5zM416 1403q-89 0 -136 -64t-47 -180q0 -120 46.5 -185t136.5 -65q91 0 138.5 65t47.5 185q0 116 -47.5 180t-138.5 64z" />
    <glyph glyph-name="guillemotright" unicode="&#xbb;" horiz-adv-x="925" 
d="M313 514l-211 385h105l270 -385l-270 -369h-101zM672 514l-209 385h102l271 -385l-271 -369h-100z" />
    <glyph glyph-name="onequarter" unicode="&#xbc;" horiz-adv-x="1980" 
d="M188 565v799l-180 -66v88l221 111h76v-932h-117zM1427 1497l-995 -1505l-123 2l998 1503h120zM1620 932h115v-590h145v-100h-145v-242h-113v242h-436v106zM1305 342h315v424z" />
    <glyph glyph-name="onehalf" unicode="&#xbd;" horiz-adv-x="1916" 
d="M188 565v799l-180 -66v88l221 111h76v-932h-117zM1427 1497l-995 -1505l-123 2l998 1503h120zM1178 0v98l301 293q110 104 151 164t41 125q0 82 -55 123t-127 41q-68 0 -126 -32t-91 -99l-101 24q36 99 118 153t204 54q132 0 214.5 -70.5t82.5 -193.5q0 -78 -42.5 -145
t-154.5 -179l-258 -256h465v-100h-622z" />
    <glyph glyph-name="threequarters" unicode="&#xbe;" horiz-adv-x="2181" 
d="M88 1331q20 63 71 105.5t115 61t138 18.5q140 0 229.5 -67t89.5 -169q0 -150 -180 -213q96 -25 152.5 -87t56.5 -151q0 -118 -101 -194t-258 -76q-129 0 -212.5 42t-127.5 144l103 25q76 -115 233 -115q108 0 172 48.5t64 123.5q0 82 -68.5 131.5t-161.5 51.5h-127v94
l107 2q96 2 160.5 49t64.5 117q0 64 -56 106.5t-140 42.5q-159 0 -224 -114zM1626 1497l-995 -1505l-123 2l997 1503h121zM1819 932h114v-590h146v-100h-146v-242h-112v242h-437v106zM1503 342h316v424z" />
    <glyph glyph-name="questiondown" unicode="&#xbf;" horiz-adv-x="1062" 
d="M444 827v232h218v-232h-218zM1001 -57q-65 -137 -193 -215t-290 -78q-211 0 -331.5 99t-120.5 259q0 68 22.5 125.5t58.5 98.5t80 78.5t87.5 75.5t79.5 79.5t58.5 99.5t22.5 127h156q0 -79 -21 -145t-54.5 -113t-73.5 -88t-80.5 -77t-74 -72.5t-54.5 -83t-21 -99.5
q0 -101 73 -162t193 -61q101 0 194.5 58t127.5 143z" />
    <glyph glyph-name="Agrave" unicode="&#xc0;" horiz-adv-x="1454" 
d="M485 1921l498 -197l-31 -94l-514 152zM88 0l539 1481h204l535 -1481h-184l-148 412h-610l-152 -412h-184zM469 578h516l-256 725z" />
    <glyph glyph-name="Aacute" unicode="&#xc1;" horiz-adv-x="1454" 
d="M965 1921l45 -139l-514 -152l-31 94zM88 0l539 1481h204l535 -1481h-184l-148 412h-610l-152 -412h-184zM469 578h516l-256 725z" />
    <glyph glyph-name="Acircumflex" unicode="&#xc2;" horiz-adv-x="1454" 
d="M879 1677l-144 138l-155 -138h-162l254 232h131l250 -232h-174zM88 0l539 1481h204l535 -1481h-184l-148 412h-610l-152 -412h-184zM469 578h516l-256 725z" />
    <glyph glyph-name="Atilde" unicode="&#xc3;" horiz-adv-x="1454" 
d="M1024 1772q-71 -46 -154 -46q-58 0 -136 27t-122 27q-27 0 -52 -8t-35 -14t-36 -23q-21 -12 -28 10l-19 57q-8 16 7 29q40 31 73 46t82 15q50 0 136 -27.5t130 -27.5q49 0 117 39q24 15 33 -8l18 -68q8 -14 -14 -28zM88 0l539 1481h204l535 -1481h-184l-148 412h-610
l-152 -412h-184zM469 578h516l-256 725z" />
    <glyph glyph-name="Adieresis" unicode="&#xc4;" horiz-adv-x="1454" 
d="M672 1903v-224h-174v224h174zM975 1903v-224h-176v224h176zM88 0l539 1481h204l535 -1481h-184l-148 412h-610l-152 -412h-184zM469 578h516l-256 725z" />
    <glyph glyph-name="Aring" unicode="&#xc5;" horiz-adv-x="1454" 
d="M948 1812q0 -88 -61 -148t-150 -60q-88 0 -148.5 62t-60.5 151q0 84 61 143t148 59q89 0 150 -59.5t61 -147.5zM846 1812q0 49 -32 80t-79 31q-45 0 -77.5 -31.5t-32.5 -79.5q0 -44 33 -78t77 -34q45 0 78 33.5t33 78.5zM88 0l539 1481h204l535 -1481h-184l-148 412h-610
l-152 -412h-184zM469 578h516l-256 725z" />
    <glyph glyph-name="AE" unicode="&#xc6;" horiz-adv-x="2084" 
d="M1948 158v-158h-936v416h-508l-232 -416h-184l821 1481h1014l-2 -156h-704v-500h526v-155h-526v-512h731zM1012 578v772l-437 -772h437z" />
    <glyph glyph-name="Ccedilla" unicode="&#xc7;" horiz-adv-x="1431" 
d="M758 137q136 0 232.5 80t125.5 215l191 -16q-21 -179 -157 -301.5t-349 -132.5l-37 -95q96 -6 139 -49t43 -102q0 -72 -64 -114t-157 -42q-114 0 -190 51l30 76q61 -47 140 -47q110 0 110 76q0 45 -38.5 67t-123.5 23q-18 0 -12 14l61 142q-271 20 -421 221t-150 540
q0 356 163.5 557t455.5 201q232 0 386 -128t175 -318l-191 -11q-26 138 -120.5 218.5t-251.5 80.5q-205 0 -312.5 -150t-107.5 -452q0 -299 108 -451.5t322 -152.5z" />
    <glyph glyph-name="Egrave" unicode="&#xc8;" horiz-adv-x="1282" 
d="M432 1921l498 -197l-31 -94l-514 152zM199 0v1481h925v-160h-745v-494h674v-159h-674v-504l766 -2v-162h-946z" />
    <glyph glyph-name="Eacute" unicode="&#xc9;" horiz-adv-x="1282" 
d="M909 1921l45 -139l-514 -152l-30 94zM199 0v1481h925v-160h-745v-494h674v-159h-674v-504l766 -2v-162h-946z" />
    <glyph glyph-name="Ecircumflex" unicode="&#xca;" horiz-adv-x="1282" 
d="M825 1677l-143 138l-156 -138h-161l253 232h132l249 -232h-174zM199 0v1481h925v-160h-745v-494h674v-159h-674v-504l766 -2v-162h-946z" />
    <glyph glyph-name="Edieresis" unicode="&#xcb;" horiz-adv-x="1282" 
d="M618 1903v-224h-174v224h174zM922 1903v-224h-177v224h177zM199 0v1481h925v-160h-745v-494h674v-159h-674v-504l766 -2v-162h-946z" />
    <glyph glyph-name="Igrave" unicode="&#xcc;" horiz-adv-x="571" 
d="M45 1921l498 -197l-31 -94l-514 152zM199 1481h180v-1481h-180v1481z" />
    <glyph glyph-name="Iacute" unicode="&#xcd;" horiz-adv-x="571" 
d="M522 1921l45 -139l-514 -152l-30 94zM199 1481h180v-1481h-180v1481z" />
    <glyph glyph-name="Icircumflex" unicode="&#xce;" horiz-adv-x="571" 
d="M438 1677l-143 138l-156 -138h-164l256 232h131l250 -232h-174zM199 1481h180v-1481h-180v1481z" />
    <glyph glyph-name="Idieresis" unicode="&#xcf;" horiz-adv-x="571" 
d="M231 1903v-224h-174v224h174zM535 1903v-224h-177v224h177zM199 1481h180v-1481h-180v1481z" />
    <glyph glyph-name="Eth" unicode="&#xd0;" horiz-adv-x="1456" 
d="M563 1479q401 -4 586.5 -186t185.5 -543q0 -373 -195 -561.5t-595 -188.5h-316v668h-127q-17 0 -23.5 6.5t-6.5 21.5v90q0 27 22 27h135v668q211 0 334 -2zM543 156q145 0 253.5 31.5t188 100.5t120 183.5t40.5 273.5q0 161 -39.5 274t-118 180t-185 96.5t-251.5 29.5
h-137v-512h315q19 0 19 -25v-88q0 -18 -8 -25t-29 -7h-297v-512h129z" />
    <glyph glyph-name="Ntilde" unicode="&#xd1;" horiz-adv-x="1533" 
d="M1077 1772q-71 -46 -153 -46q-58 0 -136 27t-122 27q-27 0 -52 -8t-35 -14t-36 -23q-22 -12 -29 10l-18 57q-8 17 6 29q40 31 73 46t82 15q50 0 136.5 -27.5t130.5 -27.5q48 0 116 39q24 15 33 -8l19 -68q8 -14 -15 -28zM1163 1481h178v-1481h-159l-803 1182v-1182h-180
v1481h170l794 -1166v1166z" />
    <glyph glyph-name="Ograve" unicode="&#xd2;" horiz-adv-x="1533" 
d="M520 1921l498 -197l-31 -94l-514 152zM768 -20q-299 0 -468 197.5t-169 557.5q0 362 171 564t468 202q296 0 465.5 -201t169.5 -563q0 -360 -169.5 -558.5t-467.5 -198.5zM772 137q212 0 324 147.5t112 450.5q0 307 -113 457.5t-325 150.5q-214 0 -328 -151t-114 -457
q0 -303 114.5 -450.5t329.5 -147.5z" />
    <glyph glyph-name="Oacute" unicode="&#xd3;" horiz-adv-x="1533" 
d="M997 1921l45 -139l-514 -152l-30 94zM768 -20q-299 0 -468 197.5t-169 557.5q0 362 171 564t468 202q296 0 465.5 -201t169.5 -563q0 -360 -169.5 -558.5t-467.5 -198.5zM772 137q212 0 324 147.5t112 450.5q0 307 -113 457.5t-325 150.5q-214 0 -328 -151t-114 -457
q0 -303 114.5 -450.5t329.5 -147.5z" />
    <glyph glyph-name="Ocircumflex" unicode="&#xd4;" horiz-adv-x="1533" 
d="M913 1677l-143 138l-156 -138h-161l254 232h131l249 -232h-174zM768 -20q-299 0 -468 197.5t-169 557.5q0 362 171 564t468 202q296 0 465.5 -201t169.5 -563q0 -360 -169.5 -558.5t-467.5 -198.5zM772 137q212 0 324 147.5t112 450.5q0 307 -113 457.5t-325 150.5
q-214 0 -328 -151t-114 -457q0 -303 114.5 -450.5t329.5 -147.5z" />
    <glyph glyph-name="Otilde" unicode="&#xd5;" horiz-adv-x="1533" 
d="M1059 1772q-71 -46 -154 -46q-58 0 -136 27t-122 27q-27 0 -52 -8t-35 -14t-36 -23q-21 -12 -28 10l-19 57q-8 17 6 29q40 31 73.5 46t82.5 15q50 0 136 -27.5t130 -27.5q49 0 117 39q24 15 33 -8l18 -68q8 -14 -14 -28zM768 -20q-299 0 -468 197.5t-169 557.5
q0 362 171 564t468 202q296 0 465.5 -201t169.5 -563q0 -360 -169.5 -558.5t-467.5 -198.5zM772 137q212 0 324 147.5t112 450.5q0 307 -113 457.5t-325 150.5q-214 0 -328 -151t-114 -457q0 -303 114.5 -450.5t329.5 -147.5z" />
    <glyph glyph-name="Odieresis" unicode="&#xd6;" horiz-adv-x="1533" 
d="M707 1903v-224h-175v224h175zM1010 1903v-224h-176v224h176zM768 -20q-299 0 -468 197.5t-169 557.5q0 362 171 564t468 202q296 0 465.5 -201t169.5 -563q0 -360 -169.5 -558.5t-467.5 -198.5zM772 137q212 0 324 147.5t112 450.5q0 307 -113 457.5t-325 150.5
q-214 0 -328 -151t-114 -457q0 -303 114.5 -450.5t329.5 -147.5z" />
    <glyph glyph-name="multiply" unicode="&#xd7;" horiz-adv-x="1110" 
d="M973 1069l-322 -324l322 -321l-101 -100l-321 321l-320 -321l-100 100l320 319l-322 322l100 100l322 -321l321 323z" />
    <glyph glyph-name="Oslash" unicode="&#xd8;" horiz-adv-x="1488" 
d="M1434 1427q14 -18 0 -32l-164 -183q108 -184 108 -475q0 -359 -170 -558t-467 -199q-278 0 -440 170l-137 -150q-21 -27 -53 -2l-48 47q-24 24 -8 43l158 174q-109 183 -109 473q0 362 171 564t468 202q274 0 441 -176l145 160q19 22 35 6zM322 735q0 -190 51 -309
l684 768q-104 152 -314 152q-213 0 -317 -150t-104 -461zM1159 735q0 195 -51 314l-682 -766q109 -148 317 -148q213 0 314.5 146t101.5 454z" />
    <glyph glyph-name="Ugrave" unicode="&#xd9;" horiz-adv-x="1462" 
d="M477 1921l498 -197l-31 -94l-514 152zM1274 506q0 -259 -131 -392.5t-408 -133.5q-280 0 -408 136.5t-128 411.5v953h186v-981q0 -180 90 -271.5t260 -91.5q173 0 265 90.5t92 272.5v981h182v-975z" />
    <glyph glyph-name="Uacute" unicode="&#xda;" horiz-adv-x="1462" 
d="M954 1921l45 -139l-514 -152l-30 94zM1274 506q0 -259 -131 -392.5t-408 -133.5q-280 0 -408 136.5t-128 411.5v953h186v-981q0 -180 90 -271.5t260 -91.5q173 0 265 90.5t92 272.5v981h182v-975z" />
    <glyph glyph-name="Ucircumflex" unicode="&#xdb;" horiz-adv-x="1462" 
d="M870 1677l-143 138l-156 -138h-161l254 232h131l249 -232h-174zM1274 506q0 -259 -131 -392.5t-408 -133.5q-280 0 -408 136.5t-128 411.5v953h186v-981q0 -180 90 -271.5t260 -91.5q173 0 265 90.5t92 272.5v981h182v-975z" />
    <glyph glyph-name="Udieresis" unicode="&#xdc;" horiz-adv-x="1462" 
d="M664 1903v-224h-175v224h175zM967 1903v-224h-176v224h176zM1274 506q0 -259 -131 -392.5t-408 -133.5q-280 0 -408 136.5t-128 411.5v953h186v-981q0 -180 90 -271.5t260 -91.5q173 0 265 90.5t92 272.5v981h182v-975z" />
    <glyph glyph-name="Yacute" unicode="&#xdd;" horiz-adv-x="1224" 
d="M850 1921l45 -139l-514 -152l-31 94zM1204 1481l-499 -850v-631h-181v633l-504 848h197l397 -688l394 688h196z" />
    <glyph glyph-name="Thorn" unicode="&#xde;" horiz-adv-x="1366" 
d="M1296 768q0 -144 -68.5 -242.5t-185 -143t-274.5 -44.5h-362v-338h-207v1481h207v-305h337q121 0 220.5 -24.5t174.5 -73.5t116.5 -128t41.5 -182zM1085 770q0 250 -352 250h-327v-528h339q161 0 250.5 69t89.5 209z" />
    <glyph glyph-name="germandbls" unicode="&#xdf;" horiz-adv-x="1259" 
d="M657 1481q178 0 266.5 -80.5t88.5 -202.5q0 -45 -13 -82t-32 -63t-54 -51.5t-65 -41.5t-80 -40q-70 -37 -93.5 -57.5t-23.5 -55.5q0 -34 23 -50t90 -38q140 -52 195 -83q178 -101 187 -285q1 -10 1 -21q0 -166 -112.5 -258t-289.5 -92q-77 0 -152.5 19t-125.5 52l63 121
q51 -31 96 -47t107 -16q114 0 180 53t66 149q0 35 -8.5 64t-28 51.5t-39 39t-53.5 32.5t-58 25t-67 24q-49 17 -80.5 32t-67 41.5t-53.5 65t-18 88.5q0 73 41 122.5t133 104.5q7 4 32 20t34 22t29 21t28 26.5t19.5 28.5t15.5 36t4 41q0 72 -53 114t-148 42
q-121 0 -192.5 -73t-71.5 -210v-1069h-176v905h-140v133h138q2 199 120.5 321t337.5 122z" />
    <glyph glyph-name="agrave" unicode="&#xe0;" horiz-adv-x="1159" 
d="M330 1499l497 -196l-30 -95l-514 152zM459 -20q-158 0 -253 81t-95 224q0 178 122 263t392 91l194 6v84q0 102 -67 159.5t-181 57.5q-98 -2 -169 -49t-89 -135h-159q8 138 123.5 227.5t302.5 89.5q199 0 306 -91t107 -249v-739h-153l-15 193q-59 -117 -150.5 -165
t-215.5 -48zM510 111q71 0 143 33.5t118.5 89t47.5 114.5v182l-162 -2q-192 -3 -282 -55.5t-90 -169.5q0 -89 62.5 -140.5t162.5 -51.5z" />
    <glyph glyph-name="aacute" unicode="&#xe1;" horiz-adv-x="1159" 
d="M809 1499l45 -139l-514 -152l-31 95zM459 -20q-158 0 -253 81t-95 224q0 178 122 263t392 91l194 6v84q0 102 -67 159.5t-181 57.5q-98 -2 -169 -49t-89 -135h-159q8 138 123.5 227.5t302.5 89.5q199 0 306 -91t107 -249v-739h-153l-15 193q-59 -117 -150.5 -165
t-215.5 -48zM510 111q71 0 143 33.5t118.5 89t47.5 114.5v182l-162 -2q-192 -3 -282 -55.5t-90 -169.5q0 -89 62.5 -140.5t162.5 -51.5z" />
    <glyph glyph-name="acircumflex" unicode="&#xe2;" horiz-adv-x="1159" 
d="M723 1255l-143 138l-156 -138h-162l254 232h131l250 -232h-174zM459 -20q-158 0 -253 81t-95 224q0 178 122 263t392 91l194 6v84q0 102 -67 159.5t-181 57.5q-98 -2 -169 -49t-89 -135h-159q8 138 123.5 227.5t302.5 89.5q199 0 306 -91t107 -249v-739h-153l-15 193
q-59 -117 -150.5 -165t-215.5 -48zM510 111q71 0 143 33.5t118.5 89t47.5 114.5v182l-162 -2q-192 -3 -282 -55.5t-90 -169.5q0 -89 62.5 -140.5t162.5 -51.5z" />
    <glyph glyph-name="atilde" unicode="&#xe3;" horiz-adv-x="1159" 
d="M868 1350q-70 -45 -153 -45q-58 0 -136 26.5t-122 26.5q-27 0 -52 -8t-35 -14t-36 -23q-22 -12 -29 10l-18 57q-8 17 6 29q40 31 73.5 46t82.5 15q50 0 136 -27.5t130 -27.5q48 0 116 39q24 15 33 -8l19 -68q8 -14 -15 -28zM459 -20q-158 0 -253 81t-95 224
q0 178 122 263t392 91l194 6v84q0 102 -67 159.5t-181 57.5q-98 -2 -169 -49t-89 -135h-159q8 138 123.5 227.5t302.5 89.5q199 0 306 -91t107 -249v-739h-153l-15 193q-59 -117 -150.5 -165t-215.5 -48zM510 111q71 0 143 33.5t118.5 89t47.5 114.5v182l-162 -2
q-192 -3 -282 -55.5t-90 -169.5q0 -89 62.5 -140.5t162.5 -51.5z" />
    <glyph glyph-name="adieresis" unicode="&#xe4;" horiz-adv-x="1159" 
d="M516 1481v-224h-174v224h174zM819 1481v-224h-176v224h176zM459 -20q-158 0 -253 81t-95 224q0 178 122 263t392 91l194 6v84q0 102 -67 159.5t-181 57.5q-98 -2 -169 -49t-89 -135h-159q8 138 123.5 227.5t302.5 89.5q199 0 306 -91t107 -249v-739h-153l-15 193
q-59 -117 -150.5 -165t-215.5 -48zM510 111q71 0 143 33.5t118.5 89t47.5 114.5v182l-162 -2q-192 -3 -282 -55.5t-90 -169.5q0 -89 62.5 -140.5t162.5 -51.5z" />
    <glyph glyph-name="aring" unicode="&#xe5;" horiz-adv-x="1159" 
d="M793 1391q0 -88 -61 -148.5t-150 -60.5q-88 0 -148.5 62t-60.5 151q0 84 61 143t148 59q89 0 150 -59t61 -147zM690 1391q0 49 -31.5 79.5t-78.5 30.5q-46 0 -78.5 -31t-32.5 -79q0 -44 33.5 -78.5t77.5 -34.5q45 0 77.5 34t32.5 79zM459 -20q-158 0 -253 81t-95 224
q0 178 122 263t392 91l194 6v84q0 102 -67 159.5t-181 57.5q-98 -2 -169 -49t-89 -135h-159q8 138 123.5 227.5t302.5 89.5q199 0 306 -91t107 -249v-739h-153l-15 193q-59 -117 -150.5 -165t-215.5 -48zM510 111q71 0 143 33.5t118.5 89t47.5 114.5v182l-162 -2
q-192 -3 -282 -55.5t-90 -169.5q0 -89 62.5 -140.5t162.5 -51.5z" />
    <glyph glyph-name="ae" unicode="&#xe6;" horiz-adv-x="1910" 
d="M997 492q0 -148 100 -262.5t238 -114.5q62 0 112 14t89.5 42.5t65.5 55t57 66.5l119 -62q-144 -251 -461 -251q-78 0 -145.5 19.5t-118 54.5t-83 66.5t-65.5 72.5q-6 9 -12 0q-40 -45 -75.5 -76.5t-90 -66t-125.5 -52.5t-156 -18q-158 0 -246.5 79t-88.5 217
q0 153 127 244t380 109l205 16v80q0 106 -64 165.5t-184 59.5q-172 0 -286 -174l-150 51q131 252 449 252q282 0 358 -190q123 190 371 190q219 0 352 -155.5t133 -431.5h-805zM1319 952q-135 0 -226 -94t-92 -250l621 -2q0 140 -84.5 243t-218.5 103zM823 530l-172 -12
q-174 -12 -267 -70.5t-93 -160.5q0 -85 58.5 -135t162.5 -46q129 6 220 74t91 164v186z" />
    <glyph glyph-name="ccedilla" unicode="&#xe7;" horiz-adv-x="1124" 
d="M598 117q96 0 164.5 56.5t87.5 148.5h158q-23 -152 -125.5 -240.5t-251.5 -99.5l-37 -95q96 -6 139 -49t43 -102q0 -72 -64 -114t-157 -42q-114 0 -190 51l30 76q64 -47 140 -47q110 0 110 76q0 45 -38.5 67t-123.5 23q-18 0 -12 14l64 142q-195 20 -312 167.5
t-117 374.5q0 247 132 401t350 154q166 0 282.5 -93.5t139.5 -256.5l-160 -2q-26 99 -93.5 153t-160.5 54q-146 0 -231.5 -110t-85.5 -296q0 -188 86 -299.5t233 -111.5z" />
    <glyph glyph-name="egrave" unicode="&#xe8;" horiz-adv-x="1163" 
d="M336 1499l498 -196l-31 -95l-512 152zM287 485q0 -104 33 -184.5t104.5 -130t173.5 -49.5q208 0 270 186h170q-37 -159 -157.5 -243t-280.5 -84q-223 0 -358.5 144t-135.5 394q0 255 128 408t354 153q218 0 337 -139.5t119 -384.5v-70h-757zM289 610h583q0 148 -72.5 239
t-213.5 91q-97 0 -166.5 -49.5t-100.5 -122.5t-30 -158z" />
    <glyph glyph-name="eacute" unicode="&#xe9;" horiz-adv-x="1163" 
d="M815 1499l45 -139l-514 -152l-31 95zM287 485q0 -104 33 -184.5t104.5 -130t173.5 -49.5q208 0 270 186h170q-37 -159 -157.5 -243t-280.5 -84q-223 0 -358.5 144t-135.5 394q0 255 128 408t354 153q218 0 337 -139.5t119 -384.5v-70h-757zM289 610h583q0 148 -72.5 239
t-213.5 91q-97 0 -166.5 -49.5t-100.5 -122.5t-30 -158z" />
    <glyph glyph-name="ecircumflex" unicode="&#xea;" horiz-adv-x="1163" 
d="M731 1255l-143 138l-156 -138h-164l256 232h129l252 -232h-174zM287 485q0 -104 33 -184.5t104.5 -130t173.5 -49.5q208 0 270 186h170q-37 -159 -157.5 -243t-280.5 -84q-223 0 -358.5 144t-135.5 394q0 255 128 408t354 153q218 0 337 -139.5t119 -384.5v-70h-757z
M289 610h583q0 148 -72.5 239t-213.5 91q-97 0 -166.5 -49.5t-100.5 -122.5t-30 -158z" />
    <glyph glyph-name="edieresis" unicode="&#xeb;" horiz-adv-x="1163" 
d="M522 1481v-224h-174v224h174zM825 1481v-224h-174v224h174zM287 485q0 -104 33 -184.5t104.5 -130t173.5 -49.5q208 0 270 186h170q-37 -159 -157.5 -243t-280.5 -84q-223 0 -358.5 144t-135.5 394q0 255 128 408t354 153q218 0 337 -139.5t119 -384.5v-70h-757zM289 610
h583q0 148 -72.5 239t-213.5 91q-97 0 -166.5 -49.5t-100.5 -122.5t-30 -158z" />
    <glyph glyph-name="igrave" unicode="&#xec;" horiz-adv-x="518" 
d="M10 1499l498 -196l-31 -95l-514 152zM350 1059v-1059h-180v1059h180z" />
    <glyph glyph-name="iacute" unicode="&#xed;" horiz-adv-x="518" 
d="M489 1499l46 -139l-515 -152l-30 95zM350 1059v-1059h-180v1059h180z" />
    <glyph glyph-name="icircumflex" unicode="&#xee;" horiz-adv-x="518" 
d="M403 1255l-143 138l-156 -138h-163l256 232h131l250 -232h-175zM350 1059v-1059h-180v1059h180z" />
    <glyph glyph-name="idieresis" unicode="&#xef;" horiz-adv-x="518" 
d="M197 1481v-224h-174v224h174zM500 1481v-224h-176v224h176zM350 1059v-1059h-180v1059h180z" />
    <glyph glyph-name="eth" unicode="&#xf0;" horiz-adv-x="1210" 
d="M1114 526q0 -246 -138.5 -396t-373.5 -150q-224 0 -364 147t-140 377q0 233 140 383.5t354 150.5q146 0 239 -90q-89 183 -274 309l-309 -174l-49 78l274 150q-100 56 -231 106l114 86q140 -48 256 -112l207 116l43 -80l-164 -92q416 -283 416 -809zM608 113
q144 0 233 110.5t89 286.5q0 174 -91 286.5t-233 112.5t-233.5 -112.5t-91.5 -286.5q0 -175 91 -286t236 -111z" />
    <glyph glyph-name="ntilde" unicode="&#xf1;" 
d="M903 1350q-70 -45 -153 -45q-58 0 -136 26.5t-122 26.5q-27 0 -52 -8t-35 -14t-36 -23q-22 -12 -29 10l-18 57q-8 17 6 29q40 31 73 46t82 15q50 0 136.5 -27.5t130.5 -27.5q48 0 116 39q24 15 33 -8l19 -68q8 -14 -15 -28zM162 0v1059h174v-148q108 164 334 164
q159 0 264.5 -101t105.5 -280v-694h-180v678q0 118 -64.5 183t-172.5 65q-118 0 -199.5 -55.5t-81.5 -157.5v-713h-180z" />
    <glyph glyph-name="ograve" unicode="&#xf2;" horiz-adv-x="1157" 
d="M332 1499l497 -196l-30 -95l-514 152zM580 -20q-225 0 -353.5 149t-128.5 393q0 249 130.5 403t353.5 154q222 0 350.5 -153.5t128.5 -401.5q0 -160 -56.5 -282.5t-166 -192t-258.5 -69.5zM584 123q148 0 222.5 112.5t74.5 294.5q0 119 -31 208.5t-99.5 143.5t-168.5 54
q-150 0 -228 -112.5t-78 -293.5q0 -118 32 -207.5t103 -144.5t173 -55z" />
    <glyph glyph-name="oacute" unicode="&#xf3;" horiz-adv-x="1157" 
d="M811 1499l45 -139l-514 -152l-31 95zM580 -20q-225 0 -353.5 149t-128.5 393q0 249 130.5 403t353.5 154q222 0 350.5 -153.5t128.5 -401.5q0 -160 -56.5 -282.5t-166 -192t-258.5 -69.5zM584 123q148 0 222.5 112.5t74.5 294.5q0 119 -31 208.5t-99.5 143.5t-168.5 54
q-150 0 -228 -112.5t-78 -293.5q0 -118 32 -207.5t103 -144.5t173 -55z" />
    <glyph glyph-name="ocircumflex" unicode="&#xf4;" horiz-adv-x="1157" 
d="M725 1255l-143 138l-156 -138h-162l254 232h131l250 -232h-174zM580 -20q-225 0 -353.5 149t-128.5 393q0 249 130.5 403t353.5 154q222 0 350.5 -153.5t128.5 -401.5q0 -160 -56.5 -282.5t-166 -192t-258.5 -69.5zM584 123q148 0 222.5 112.5t74.5 294.5
q0 119 -31 208.5t-99.5 143.5t-168.5 54q-150 0 -228 -112.5t-78 -293.5q0 -118 32 -207.5t103 -144.5t173 -55z" />
    <glyph glyph-name="otilde" unicode="&#xf5;" horiz-adv-x="1157" 
d="M870 1350q-70 -45 -153 -45q-58 0 -136 26.5t-122 26.5q-27 0 -52 -8t-35 -14t-36 -23q-22 -12 -29 10l-18 57q-8 17 6 29q40 31 73.5 46t82.5 15q50 0 136 -27.5t130 -27.5q49 0 117 39q23 15 32 -8l19 -68q8 -14 -15 -28zM580 -20q-225 0 -353.5 149t-128.5 393
q0 249 130.5 403t353.5 154q222 0 350.5 -153.5t128.5 -401.5q0 -160 -56.5 -282.5t-166 -192t-258.5 -69.5zM584 123q148 0 222.5 112.5t74.5 294.5q0 119 -31 208.5t-99.5 143.5t-168.5 54q-150 0 -228 -112.5t-78 -293.5q0 -118 32 -207.5t103 -144.5t173 -55z" />
    <glyph glyph-name="odieresis" unicode="&#xf6;" horiz-adv-x="1157" 
d="M518 1481v-224h-174v224h174zM821 1481v-224h-176v224h176zM580 -20q-225 0 -353.5 149t-128.5 393q0 249 130.5 403t353.5 154q222 0 350.5 -153.5t128.5 -401.5q0 -160 -56.5 -282.5t-166 -192t-258.5 -69.5zM584 123q148 0 222.5 112.5t74.5 294.5q0 119 -31 208.5
t-99.5 143.5t-168.5 54q-150 0 -228 -112.5t-78 -293.5q0 -118 32 -207.5t103 -144.5t173 -55z" />
    <glyph glyph-name="divide" unicode="&#xf7;" horiz-adv-x="1142" 
d="M686 1212v-223h-231v223h231zM1008 815v-141h-877v139zM686 500v-224h-231v224h231z" />
    <glyph glyph-name="oslash" unicode="&#xf8;" horiz-adv-x="1202" 
d="M1151 987l-141 -137q75 -138 75 -326q0 -160 -56.5 -282.5t-166 -192t-258.5 -69.5q-218 0 -346 141l-139 -133l-76 80l150 145q-70 134 -70 309q0 249 130 403t353 154q212 0 338 -139l133 127zM301 530q0 -105 27 -188l501 485q-79 109 -223 109q-150 0 -227.5 -112.5
t-77.5 -293.5zM905 530q0 114 -26 193l-502 -485q81 -115 229 -115q101 0 169.5 55t99 144.5t30.5 207.5z" />
    <glyph glyph-name="ugrave" unicode="&#xf9;" 
d="M332 1499l497 -196l-30 -95l-514 152zM559 -18q-55 0 -109 12t-106.5 39.5t-92.5 68t-64.5 102.5t-24.5 138v719h180v-701q0 -52 15.5 -93.5t40.5 -68t59 -44t68.5 -24.5t70.5 -7q109 0 186 65.5t78 182.5v690h180l-2 -1059h-143l-14 215q-13 -65 -45.5 -112.5
t-77.5 -73.5t-94.5 -38t-104.5 -11z" />
    <glyph glyph-name="uacute" unicode="&#xfa;" 
d="M811 1499l45 -139l-514 -152l-31 95zM559 -18q-55 0 -109 12t-106.5 39.5t-92.5 68t-64.5 102.5t-24.5 138v719h180v-701q0 -52 15.5 -93.5t40.5 -68t59 -44t68.5 -24.5t70.5 -7q109 0 186 65.5t78 182.5v690h180l-2 -1059h-143l-14 215q-13 -65 -45.5 -112.5
t-77.5 -73.5t-94.5 -38t-104.5 -11z" />
    <glyph glyph-name="ucircumflex" unicode="&#xfb;" 
d="M725 1255l-143 138l-156 -138h-162l254 232h131l250 -232h-174zM559 -18q-55 0 -109 12t-106.5 39.5t-92.5 68t-64.5 102.5t-24.5 138v719h180v-701q0 -52 15.5 -93.5t40.5 -68t59 -44t68.5 -24.5t70.5 -7q109 0 186 65.5t78 182.5v690h180l-2 -1059h-143l-14 215
q-13 -65 -45.5 -112.5t-77.5 -73.5t-94.5 -38t-104.5 -11z" />
    <glyph glyph-name="udieresis" unicode="&#xfc;" 
d="M518 1481v-224h-174v224h174zM821 1481v-224h-176v224h176zM559 -18q-55 0 -109 12t-106.5 39.5t-92.5 68t-64.5 102.5t-24.5 138v719h180v-701q0 -52 15.5 -93.5t40.5 -68t59 -44t68.5 -24.5t70.5 -7q109 0 186 65.5t78 182.5v690h180l-2 -1059h-143l-14 215
q-13 -65 -45.5 -112.5t-77.5 -73.5t-94.5 -38t-104.5 -11z" />
    <glyph glyph-name="yacute" unicode="&#xfd;" horiz-adv-x="1101" 
d="M797 1499l45 -139l-514 -152l-31 95zM264 -338q-55 0 -95 6t-53 12l-12 7v116l109 -2q55 -1 95.5 8.5t64 29.5t35 37.5t22.5 43.5l39 103l-414 1036h183l317 -830l315 830h174l-446 -1145q-57 -140 -138 -196t-196 -56z" />
    <glyph glyph-name="thorn" unicode="&#xfe;" horiz-adv-x="1208" 
d="M340 1481v-570q24 28 35 40t45.5 41.5t65.5 44.5t82 28.5t108 13.5q192 0 314 -137.5t122 -396.5q0 -265 -125.5 -415t-331.5 -150q-163 0 -282 100q-19 17 -25 14.5t-6 -26.5v-398h-180v1811h178zM342 236q127 -130 262 -130q146 0 235 113t89 324q0 206 -88 306.5
t-226 100.5q-115 0 -193.5 -71t-78.5 -152v-491z" />
    <glyph glyph-name="ydieresis" unicode="&#xff;" horiz-adv-x="1101" 
d="M504 1481v-224h-174v224h174zM807 1481v-224h-176v224h176zM264 -338q-55 0 -95 6t-53 12l-12 7v116l109 -2q55 -1 95.5 8.5t64 29.5t35 37.5t22.5 43.5l39 103l-414 1036h183l317 -830l315 830h174l-446 -1145q-57 -140 -138 -196t-196 -56z" />
    <glyph glyph-name="Amacron" unicode="&#x100;" horiz-adv-x="1454" 
d="M1036 1876v-129h-600v129h600zM88 0l539 1481h204l535 -1481h-184l-148 412h-610l-152 -412h-184zM469 578h516l-256 725z" />
    <glyph glyph-name="amacron" unicode="&#x101;" horiz-adv-x="1159" 
d="M881 1454v-129h-600v129h600zM459 -20q-158 0 -253 81t-95 224q0 178 122 263t392 91l194 6v84q0 102 -67 159.5t-181 57.5q-98 -2 -169 -49t-89 -135h-159q8 138 123.5 227.5t302.5 89.5q199 0 306 -91t107 -249v-739h-153l-15 193q-59 -117 -150.5 -165t-215.5 -48z
M510 111q71 0 143 33.5t118.5 89t47.5 114.5v182l-162 -2q-192 -3 -282 -55.5t-90 -169.5q0 -89 62.5 -140.5t162.5 -51.5z" />
    <glyph glyph-name="Abreve" unicode="&#x102;" horiz-adv-x="1454" 
d="M1044 1903q-27 -90 -108.5 -153.5t-198.5 -63.5q-118 0 -198.5 61t-104.5 156h133q65 -107 170 -107q58 0 102 32t68 75h137zM88 0l539 1481h204l535 -1481h-184l-148 412h-610l-152 -412h-184zM469 578h516l-256 725z" />
    <glyph glyph-name="abreve" unicode="&#x103;" horiz-adv-x="1159" 
d="M889 1481q-27 -90 -108.5 -153.5t-198.5 -63.5q-118 0 -198.5 61t-104.5 156h133q65 -107 170 -107q58 0 102 32t68 75h137zM459 -20q-158 0 -253 81t-95 224q0 178 122 263t392 91l194 6v84q0 102 -67 159.5t-181 57.5q-98 -2 -169 -49t-89 -135h-159q8 138 123.5 227.5
t302.5 89.5q199 0 306 -91t107 -249v-739h-153l-15 193q-59 -117 -150.5 -165t-215.5 -48zM510 111q71 0 143 33.5t118.5 89t47.5 114.5v182l-162 -2q-192 -3 -282 -55.5t-90 -169.5q0 -89 62.5 -140.5t162.5 -51.5z" />
    <glyph glyph-name="Aogonek" unicode="&#x104;" horiz-adv-x="1454" 
d="M1399 -215q22 14 22 -10v-60q0 -14 -14 -22q-68 -35 -174 -35q-98 0 -149.5 43.5t-51.5 118.5q0 59 36.5 102t127.5 78h-14l-148 412h-610l-152 -412h-184l539 1481h204l533 -1477h10q-1 -1 -4 -2t-4 -2h-2q-100 -42 -143 -79.5t-43 -86.5q0 -39 23 -57.5t73 -18.5
q63 0 125 27zM469 578h516l-256 725z" />
    <glyph glyph-name="aogonek" unicode="&#x105;" horiz-adv-x="1159" 
d="M1012 -211q22 14 22 -10v-60q0 -14 -14 -22q-68 -35 -174 -35q-98 0 -149.5 43.5t-51.5 118.5q0 64 42.5 109.5t150.5 80.5l-13 179q-59 -117 -150.5 -165t-215.5 -48q-158 0 -253 81t-95 224q0 178 122 263t392 91l194 6v84q0 102 -67 159.5t-181 57.5q-98 -2 -169 -49
t-89 -135h-159q8 138 123.5 227.5t302.5 89.5q199 0 306 -91t107 -249v-739h-26q-94 -40 -135 -77.5t-41 -84.5q0 -39 23 -57.5t73 -18.5q63 0 125 27zM819 348v182l-162 -2q-192 -3 -282 -55.5t-90 -169.5q0 -89 62.5 -140.5t162.5 -51.5q71 0 143 33.5t118.5 89
t47.5 114.5z" />
    <glyph glyph-name="Cacute" unicode="&#x106;" horiz-adv-x="1431" 
d="M987 1921l45 -139l-514 -152l-31 94zM750 1501q232 0 386 -128t175 -318l-191 -11q-26 138 -120.5 218.5t-251.5 80.5q-205 0 -312.5 -150t-107.5 -452q0 -299 108 -451.5t322 -152.5q136 0 232.5 80t125.5 215l191 -16q-23 -188 -170.5 -312t-376.5 -124
q-296 0 -462.5 203.5t-166.5 559.5t163.5 557t455.5 201z" />
    <glyph glyph-name="cacute" unicode="&#x107;" horiz-adv-x="1124" 
d="M813 1499l47 -139l-514 -152l-31 95zM588 1079q166 0 282.5 -93.5t139.5 -256.5l-160 -2q-26 99 -93.5 153t-160.5 54q-146 0 -231.5 -110t-85.5 -296q0 -188 86 -299.5t233 -111.5q96 0 164.5 56.5t87.5 148.5h158q-24 -164 -140 -253t-280 -89q-218 0 -350 150
t-132 394q0 247 132 401t350 154z" />
    <glyph glyph-name="Ccircumflex" unicode="&#x108;" horiz-adv-x="1431" 
d="M903 1677l-143 138l-156 -138h-162l254 232h131l250 -232h-174zM750 1501q232 0 386 -128t175 -318l-191 -11q-26 138 -120.5 218.5t-251.5 80.5q-205 0 -312.5 -150t-107.5 -452q0 -299 108 -451.5t322 -152.5q136 0 232.5 80t125.5 215l191 -16q-23 -188 -170.5 -312
t-376.5 -124q-296 0 -462.5 203.5t-166.5 559.5t163.5 557t455.5 201z" />
    <glyph glyph-name="ccircumflex" unicode="&#x109;" horiz-adv-x="1124" 
d="M731 1255l-145 138l-154 -138h-164l256 232h129l250 -232h-172zM588 1079q166 0 282.5 -93.5t139.5 -256.5l-160 -2q-26 99 -93.5 153t-160.5 54q-146 0 -231.5 -110t-85.5 -296q0 -188 86 -299.5t233 -111.5q96 0 164.5 56.5t87.5 148.5h158q-24 -164 -140 -253
t-280 -89q-218 0 -350 150t-132 394q0 247 132 401t350 154z" />
    <glyph glyph-name="Cdotaccent" unicode="&#x10a;" horiz-adv-x="1431" 
d="M856 1903v-238h-192v238h192zM750 1501q232 0 386 -128t175 -318l-191 -11q-26 138 -120.5 218.5t-251.5 80.5q-205 0 -312.5 -150t-107.5 -452q0 -299 108 -451.5t322 -152.5q136 0 232.5 80t125.5 215l191 -16q-23 -188 -170.5 -312t-376.5 -124q-296 0 -462.5 203.5
t-166.5 559.5t163.5 557t455.5 201z" />
    <glyph glyph-name="cdotaccent" unicode="&#x10b;" horiz-adv-x="1124" 
d="M684 1481v-238h-192v238h192zM588 1079q166 0 282.5 -93.5t139.5 -256.5l-160 -2q-26 99 -93.5 153t-160.5 54q-146 0 -231.5 -110t-85.5 -296q0 -188 86 -299.5t233 -111.5q96 0 164.5 56.5t87.5 148.5h158q-24 -164 -140 -253t-280 -89q-218 0 -350 150t-132 394
q0 247 132 401t350 154z" />
    <glyph glyph-name="Ccaron" unicode="&#x10c;" horiz-adv-x="1431" 
d="M903 1903h174l-250 -232h-131l-256 232h164l156 -138zM750 1501q232 0 386 -128t175 -318l-191 -11q-26 138 -120.5 218.5t-251.5 80.5q-205 0 -312.5 -150t-107.5 -452q0 -299 108 -451.5t322 -152.5q136 0 232.5 80t125.5 215l191 -16q-23 -188 -170.5 -312
t-376.5 -124q-296 0 -462.5 203.5t-166.5 559.5t163.5 557t455.5 201z" />
    <glyph glyph-name="ccaron" unicode="&#x10d;" horiz-adv-x="1124" 
d="M731 1481h172l-250 -232h-131l-256 232h166l154 -138zM588 1079q166 0 282.5 -93.5t139.5 -256.5l-160 -2q-26 99 -93.5 153t-160.5 54q-146 0 -231.5 -110t-85.5 -296q0 -188 86 -299.5t233 -111.5q96 0 164.5 56.5t87.5 148.5h158q-24 -164 -140 -253t-280 -89
q-218 0 -350 150t-132 394q0 247 132 401t350 154z" />
    <glyph glyph-name="Dcaron" unicode="&#x10e;" horiz-adv-x="1425" 
d="M840 1903h174l-250 -232h-131l-256 232h164l155 -138zM199 1481q211 0 336 -2q401 -4 585.5 -186t184.5 -543q0 -374 -195 -562t-596 -188h-315v1481zM385 1325v-1169h129q145 0 253.5 31.5t188 100.5t120 183.5t40.5 273.5q0 161 -39.5 274t-118 180t-185 96.5
t-251.5 29.5h-137z" />
    <glyph glyph-name="dcaron" unicode="&#x10f;" 
d="M545 -20q-204 0 -321.5 140.5t-117.5 397.5q0 256 116 408.5t325 152.5q178 0 313 -135v578h180v-1522h-141l-14 205q-93 -225 -340 -225zM1081 956q-7 0 -11 6.5t-1 14.5l59 143q5 12 3.5 18t-11.5 9l-14 2q-23 3 -23 20v162q0 19 17 19h121q14 0 14 -15v-186
q0 -3 -1 -7t-1 -5l-70 -160q-6 -21 -37 -21h-45zM582 119q116 0 197 82.5t81 185.5v379q-100 172 -268 172q-143 0 -225 -106t-82 -308q0 -204 81.5 -304.5t215.5 -100.5z" />
    <glyph glyph-name="Dcroat" unicode="&#x110;" horiz-adv-x="1456" 
d="M563 1479q401 -4 586.5 -186t185.5 -543q0 -373 -195 -561.5t-595 -188.5h-316v668h-127q-17 0 -23.5 6.5t-6.5 21.5v90q0 27 22 27h135v668q211 0 334 -2zM543 156q145 0 253.5 31.5t188 100.5t120 183.5t40.5 273.5q0 161 -39.5 274t-118 180t-185 96.5t-251.5 29.5
h-137v-512h315q19 0 19 -25v-88q0 -18 -8 -25t-29 -7h-297v-512h129z" />
    <glyph glyph-name="dcroat" unicode="&#x111;" horiz-adv-x="1226" 
d="M1161 1337v-114h-121v-1223h-141l-14 205q-93 -225 -340 -225q-204 0 -321.5 140.5t-117.5 397.5q0 256 116 408.5t325 152.5q178 0 313 -135v279h-325v114h325v185h180v-185h121zM860 387v379q-100 172 -268 172q-143 0 -225 -106t-82 -308q0 -204 81.5 -304.5
t215.5 -100.5q116 0 197 82.5t81 185.5z" />
    <glyph glyph-name="Emacron" unicode="&#x112;" horiz-adv-x="1282" 
d="M981 1876v-129h-600v129h600zM199 0v1481h925v-160h-745v-494h674v-159h-674v-504l766 -2v-162h-946z" />
    <glyph glyph-name="emacron" unicode="&#x113;" horiz-adv-x="1163" 
d="M887 1454v-129h-600v129h600zM287 485q0 -104 33 -184.5t104.5 -130t173.5 -49.5q208 0 270 186h170q-37 -159 -157.5 -243t-280.5 -84q-223 0 -358.5 144t-135.5 394q0 255 128 408t354 153q218 0 337 -139.5t119 -384.5v-70h-757zM289 610h583q0 148 -72.5 239
t-213.5 91q-97 0 -166.5 -49.5t-100.5 -122.5t-30 -158z" />
    <glyph glyph-name="Ebreve" unicode="&#x114;" horiz-adv-x="1282" 
d="M989 1903q-27 -90 -108.5 -153.5t-198.5 -63.5q-118 0 -198.5 61t-104.5 156h133q65 -107 170 -107q58 0 102 32t68 75h137zM199 0v1481h925v-160h-745v-494h674v-159h-674v-504l766 -2v-162h-946z" />
    <glyph glyph-name="ebreve" unicode="&#x115;" horiz-adv-x="1163" 
d="M895 1481q-27 -90 -108.5 -153.5t-198.5 -63.5q-120 0 -199.5 61t-103.5 156h133q65 -107 170 -107q57 0 100.5 31.5t69.5 75.5h137zM287 485q0 -104 33 -184.5t104.5 -130t173.5 -49.5q208 0 270 186h170q-37 -159 -157.5 -243t-280.5 -84q-223 0 -358.5 144t-135.5 394
q0 255 128 408t354 153q218 0 337 -139.5t119 -384.5v-70h-757zM289 610h583q0 148 -72.5 239t-213.5 91q-97 0 -166.5 -49.5t-100.5 -122.5t-30 -158z" />
    <glyph glyph-name="Edotaccent" unicode="&#x116;" horiz-adv-x="1282" 
d="M780 1903v-238h-192v238h192zM199 0v1481h925v-160h-745v-494h674v-159h-674v-504l766 -2v-162h-946z" />
    <glyph glyph-name="edotaccent" unicode="&#x117;" horiz-adv-x="1163" 
d="M684 1481v-238h-192v238h192zM287 485q0 -104 33 -184.5t104.5 -130t173.5 -49.5q208 0 270 186h170q-37 -159 -157.5 -243t-280.5 -84q-223 0 -358.5 144t-135.5 394q0 255 128 408t354 153q218 0 337 -139.5t119 -384.5v-70h-757zM289 610h583q0 148 -72.5 239
t-213.5 91q-97 0 -166.5 -49.5t-100.5 -122.5t-30 -158z" />
    <glyph glyph-name="Eogonek" unicode="&#x118;" horiz-adv-x="1282" 
d="M1178 -215q22 14 22 -10v-60q0 -14 -14 -22q-68 -35 -174 -35q-98 0 -149.5 43.5t-51.5 118.5q0 59 36.5 102t127.5 78h-776v1481h925v-160h-745v-494h674v-159h-674v-504l766 -2v-158h8q-1 -1 -4 -2t-4 -2h-2q-100 -42 -143.5 -79.5t-43.5 -86.5q0 -76 97 -76
q63 0 125 27z" />
    <glyph glyph-name="eogonek" unicode="&#x119;" horiz-adv-x="1163" 
d="M1044 555v-70h-757q0 -104 33 -184.5t104.5 -130t173.5 -49.5q208 0 270 186h170q-48 -200 -223 -282h6q-105 -44 -149.5 -82t-44.5 -88q0 -39 22.5 -57.5t73.5 -18.5q65 0 125 26q12 6 16 3.5t4 -13.5v-59q0 -18 -12 -23q-72 -35 -176 -35q-98 0 -149.5 43t-51.5 119
q0 87 82 142q-206 12 -330.5 154.5t-124.5 381.5q0 255 128 408t354 153q218 0 337 -139.5t119 -384.5zM289 610h583q0 148 -72.5 239t-213.5 91q-97 0 -166.5 -49.5t-100.5 -122.5t-30 -158z" />
    <glyph glyph-name="Ecaron" unicode="&#x11a;" horiz-adv-x="1282" 
d="M825 1903h174l-249 -232h-132l-256 232h164l156 -138zM199 0v1481h925v-160h-745v-494h674v-159h-674v-504l766 -2v-162h-946z" />
    <glyph glyph-name="ecaron" unicode="&#x11b;" horiz-adv-x="1163" 
d="M731 1481h174l-252 -232h-129l-258 232h166l156 -138zM287 485q0 -104 33 -184.5t104.5 -130t173.5 -49.5q208 0 270 186h170q-37 -159 -157.5 -243t-280.5 -84q-223 0 -358.5 144t-135.5 394q0 255 128 408t354 153q218 0 337 -139.5t119 -384.5v-70h-757zM289 610h583
q0 148 -72.5 239t-213.5 91q-97 0 -166.5 -49.5t-100.5 -122.5t-30 -158z" />
    <glyph glyph-name="Gcircumflex" unicode="&#x11c;" horiz-adv-x="1515" 
d="M899 1677l-143 138l-156 -138h-162l254 232h131l250 -232h-174zM754 -20q-289 0 -456 202.5t-167 552.5q0 358 171.5 562t461.5 204q107 0 207 -36.5t173 -97t119 -142t52 -168.5l-195 -10q-22 127 -121 210.5t-239 83.5q-203 0 -319.5 -153.5t-116.5 -439.5
q0 -303 118 -454t324 -151q90 0 164.5 33.5t120 87t71 113.5t27.5 119l4 135h-365v133l551 -2v-762h-135v229q-152 -249 -450 -249z" />
    <glyph glyph-name="gcircumflex" unicode="&#x11d;" horiz-adv-x="1253" 
d="M750 1255l-144 138l-155 -138h-162l254 232h131l250 -232h-174zM596 -350q-252 0 -387 75t-135 205q0 43 17 80t45.5 63t53 42.5t52.5 30.5t30 16q-1 1 -19.5 12t-25 15.5t-21.5 17.5t-21.5 23.5t-12.5 28t-6 36.5q0 51 47 91t137 60q-103 53 -149.5 124.5t-46.5 168.5
q0 158 124.5 247t331.5 89q98 0 169 -22.5t136 -69.5l267 111v-170l-187 -37q14 -28 24.5 -72.5t10.5 -73.5q0 -144 -112 -238.5t-324 -94.5q-44 0 -62 2q-104 -3 -150 -23.5t-46 -50.5t43 -42t160 -20q31 -2 112 -7t119 -7q174 -10 259 -84.5t85 -200.5q0 -152 -135 -238.5
t-383 -86.5zM598 524q128 0 194 55t66 158q0 106 -67 166t-193 60q-125 0 -194.5 -60.5t-69.5 -165.5q0 -101 69 -157t195 -56zM629 -233q158 0 233.5 45t75.5 137q0 141 -197 155l-301 19q-64 5 -126 -47.5t-62 -124.5q0 -184 377 -184z" />
    <glyph glyph-name="Gbreve" unicode="&#x11e;" horiz-adv-x="1515" 
d="M1065 1903q-27 -90 -108.5 -153.5t-198.5 -63.5q-118 0 -198.5 61t-104.5 156h133q65 -107 170 -107q58 0 102 32t68 75h137zM754 -20q-289 0 -456 202.5t-167 552.5q0 358 171.5 562t461.5 204q107 0 207 -36.5t173 -97t119 -142t52 -168.5l-195 -10q-22 127 -121 210.5
t-239 83.5q-203 0 -319.5 -153.5t-116.5 -439.5q0 -303 118 -454t324 -151q90 0 164.5 33.5t120 87t71 113.5t27.5 119l4 135h-365v133l551 -2v-762h-135v229q-152 -249 -450 -249z" />
    <glyph glyph-name="gbreve" unicode="&#x11f;" horiz-adv-x="1253" 
d="M913 1481q-27 -90 -108.5 -153.5t-198.5 -63.5q-118 0 -198.5 61t-104.5 156h133q65 -107 170 -107q58 0 102 32t68 75h137zM596 -350q-252 0 -387 75t-135 205q0 43 17 80t45.5 63t53 42.5t52.5 30.5t30 16q-1 1 -19.5 12t-25 15.5t-21.5 17.5t-21.5 23.5t-12.5 28
t-6 36.5q0 51 47 91t137 60q-103 53 -149.5 124.5t-46.5 168.5q0 158 124.5 247t331.5 89q98 0 169 -22.5t136 -69.5l267 111v-170l-187 -37q14 -28 24.5 -72.5t10.5 -73.5q0 -144 -112 -238.5t-324 -94.5q-44 0 -62 2q-104 -3 -150 -23.5t-46 -50.5t43 -42t160 -20
q31 -2 112 -7t119 -7q174 -10 259 -84.5t85 -200.5q0 -152 -135 -238.5t-383 -86.5zM598 524q128 0 194 55t66 158q0 106 -67 166t-193 60q-125 0 -194.5 -60.5t-69.5 -165.5q0 -101 69 -157t195 -56zM629 -233q158 0 233.5 45t75.5 137q0 141 -197 155l-301 19
q-64 5 -126 -47.5t-62 -124.5q0 -184 377 -184z" />
    <glyph glyph-name="Gdotaccent" unicode="&#x120;" horiz-adv-x="1515" 
d="M854 1903v-238h-192v238h192zM754 -20q-289 0 -456 202.5t-167 552.5q0 358 171.5 562t461.5 204q107 0 207 -36.5t173 -97t119 -142t52 -168.5l-195 -10q-22 127 -121 210.5t-239 83.5q-203 0 -319.5 -153.5t-116.5 -439.5q0 -303 118 -454t324 -151q90 0 164.5 33.5
t120 87t71 113.5t27.5 119l4 135h-365v133l551 -2v-762h-135v229q-152 -249 -450 -249z" />
    <glyph glyph-name="gdotaccent" unicode="&#x121;" horiz-adv-x="1253" 
d="M705 1481v-238h-193v238h193zM596 -350q-252 0 -387 75t-135 205q0 43 17 80t45.5 63t53 42.5t52.5 30.5t30 16q-1 1 -19.5 12t-25 15.5t-21.5 17.5t-21.5 23.5t-12.5 28t-6 36.5q0 51 47 91t137 60q-103 53 -149.5 124.5t-46.5 168.5q0 158 124.5 247t331.5 89
q98 0 169 -22.5t136 -69.5l267 111v-170l-187 -37q14 -28 24.5 -72.5t10.5 -73.5q0 -144 -112 -238.5t-324 -94.5q-44 0 -62 2q-104 -3 -150 -23.5t-46 -50.5t43 -42t160 -20q31 -2 112 -7t119 -7q174 -10 259 -84.5t85 -200.5q0 -152 -135 -238.5t-383 -86.5zM598 524
q128 0 194 55t66 158q0 106 -67 166t-193 60q-125 0 -194.5 -60.5t-69.5 -165.5q0 -101 69 -157t195 -56zM629 -233q158 0 233.5 45t75.5 137q0 141 -197 155l-301 19q-64 5 -126 -47.5t-62 -124.5q0 -184 377 -184z" />
    <glyph glyph-name="uni0122" unicode="&#x122;" horiz-adv-x="1515" 
d="M754 -20q-289 0 -456 202.5t-167 552.5q0 358 171.5 562t461.5 204q107 0 207 -36.5t173 -97t119 -142t52 -168.5l-195 -10q-22 127 -121 210.5t-239 83.5q-203 0 -319.5 -153.5t-116.5 -439.5q0 -303 118 -454t324 -151q90 0 164.5 33.5t120 87t71 113.5t27.5 119l4 135
h-365v133l551 -2v-762h-135v229q-152 -249 -450 -249zM698 -477q-9 0 -12.5 7.5t0.5 16.5l55 101q7 12 3 21t-15 9h-16q-25 0 -25 27v129q0 23 19 23h120q21 0 21 -21v-158q0 -4 -2 -10l-2 -6l-76 -123q-11 -16 -41 -16h-29z" />
    <glyph glyph-name="uni0123" unicode="&#x123;" horiz-adv-x="1253" 
d="M481 1241v189l92 145h86l-90 -156h72v-178h-160zM596 -350q-252 0 -387 75t-135 205q0 43 17 80t45.5 63t53 42.5t52.5 30.5t30 16q-1 1 -19.5 12t-25 15.5t-21.5 17.5t-21.5 23.5t-12.5 28t-6 36.5q0 51 47 91t137 60q-103 53 -149.5 124.5t-46.5 168.5q0 158 124.5 247
t331.5 89q98 0 169 -22.5t136 -69.5l267 111v-170l-187 -37q14 -28 24.5 -72.5t10.5 -73.5q0 -144 -112 -238.5t-324 -94.5q-44 0 -62 2q-104 -3 -150 -23.5t-46 -50.5t43 -42t160 -20q31 -2 112 -7t119 -7q174 -10 259 -84.5t85 -200.5q0 -152 -135 -238.5t-383 -86.5z
M598 524q128 0 194 55t66 158q0 106 -67 166t-193 60q-125 0 -194.5 -60.5t-69.5 -165.5q0 -101 69 -157t195 -56zM629 -233q158 0 233.5 45t75.5 137q0 141 -197 155l-301 19q-64 5 -126 -47.5t-62 -124.5q0 -184 377 -184z" />
    <glyph glyph-name="Hcircumflex" unicode="&#x124;" horiz-adv-x="1452" 
d="M872 1677l-143 138l-156 -138h-161l254 232h131l250 -232h-175zM1081 686h-702v-686h-180v1481h180v-635h702v635h179v-1481h-179v686z" />
    <glyph glyph-name="hcircumflex" unicode="&#x125;" 
d="M162 0v1522h176v-613q43 72 127.5 118t204.5 46q159 0 264.5 -87.5t105.5 -225.5v-760h-180v725q0 93 -65.5 147t-173.5 54q-117 0 -198 -56t-81 -157v-713h-180zM877 1255l-144 138l-155 -138h-162l254 232h131l250 -232h-174z" />
    <glyph glyph-name="Hbar" unicode="&#x126;" horiz-adv-x="1495" 
d="M1452 1260q21 0 21 -23v-68q0 -17 -7.5 -22.5t-27.5 -5.5h-146v-1141h-180v686h-702v-686h-179v1141h-186q-17 0 -23 5.5t-6 20.5v68q0 25 21 25h194v221h179v-221h702v221h180v-221h160zM1112 846v295h-702v-295h702z" />
    <glyph glyph-name="hbar" unicode="&#x127;" horiz-adv-x="1216" 
d="M700 1073q157 0 263 -87.5t106 -225.5v-760h-180v725q0 93 -66 147t-174 54q-117 0 -197.5 -56t-80.5 -157v-713h-181v1223h-147v114h147v185h177v-185h305v-114h-305v-314q43 72 128 118t205 46z" />
    <glyph glyph-name="Itilde" unicode="&#x128;" horiz-adv-x="571" 
d="M584 1772q-71 -46 -154 -46q-58 0 -136 27t-122 27q-27 0 -52 -8t-35 -14t-36 -23q-22 -12 -29 10l-18 57q-8 17 6 29q40 31 73.5 46t82.5 15q50 0 136 -27.5t130 -27.5q49 0 117 39q24 15 33 -8l18 -68q8 -14 -14 -28zM199 1481h180v-1481h-180v1481z" />
    <glyph glyph-name="itilde" unicode="&#x129;" horiz-adv-x="518" 
d="M549 1350q-70 -45 -154 -45q-58 0 -136 26.5t-122 26.5q-27 0 -52 -8t-35 -14t-36 -23q-21 -12 -28 10l-19 57q-8 17 6 29q40 31 73.5 46t82.5 15q50 0 136 -27.5t130 -27.5q49 0 117 39q24 15 33 -8l18 -68q8 -14 -14 -28zM350 1059v-1059h-180v1059h180z" />
    <glyph glyph-name="Imacron" unicode="&#x12a;" horiz-adv-x="571" 
d="M594 1876v-129h-600v129h600zM199 1481h180v-1481h-180v1481z" />
    <glyph glyph-name="imacron" unicode="&#x12b;" horiz-adv-x="518" 
d="M561 1454v-129h-600v129h600zM350 1059v-1059h-180v1059h180z" />
    <glyph glyph-name="Ibreve" unicode="&#x12c;" horiz-adv-x="571" 
d="M602 1903q-27 -90 -108.5 -153.5t-198.5 -63.5q-118 0 -198.5 61t-104.5 156h133q65 -107 170 -107q58 0 102 32t68 75h137zM199 1481h180v-1481h-180v1481z" />
    <glyph glyph-name="ibreve" unicode="&#x12d;" horiz-adv-x="518" 
d="M569 1481q-27 -90 -108.5 -153.5t-198.5 -63.5q-118 0 -198.5 61t-104.5 156h133q65 -107 170 -107q58 0 102 32t68 75h137zM350 1059v-1059h-180v1059h180z" />
    <glyph glyph-name="Iogonek" unicode="&#x12e;" horiz-adv-x="571" 
d="M399 -221q23 14 23 -10v-60q0 -14 -14 -22q-68 -35 -175 -35q-98 0 -149 43.5t-51 118.5q0 61 40 106t140 80h-14v1481h180v-1481h-27l23 -2q-107 -44 -152 -82t-45 -88q0 -39 23 -57.5t73 -18.5q63 0 125 27z" />
    <glyph glyph-name="iogonek" unicode="&#x12f;" horiz-adv-x="518" 
d="M358 1481v-238h-192v238h192zM367 -213q22 14 22 -10v-60q0 -14 -14 -22q-68 -35 -174 -35q-98 0 -149.5 43.5t-51.5 118.5q0 59 37.5 103t132.5 79v1055h180v-1059h-22q-99 -42 -141 -79t-42 -85q0 -76 97 -76q63 0 125 27z" />
    <glyph glyph-name="Idotaccent" unicode="&#x130;" horiz-adv-x="571" 
d="M393 1903v-238h-192v238h192zM199 1481h180v-1481h-180v1481z" />
    <glyph glyph-name="dotlessi" unicode="&#x131;" horiz-adv-x="518" 
d="M350 1059v-1059h-180v1059h180z" />
    <glyph glyph-name="IJ" unicode="&#x132;" horiz-adv-x="1361" 
d="M199 1481h180v-1481h-180v1481zM1171 344q0 -91 -14 -155t-48 -113t-95 -72.5t-152 -23.5q-123 0 -237 47l14 172q5 -2 40.5 -17t67 -22.5t70.5 -7.5q98 0 136 54.5t38 188.5v1086h180v-1137z" />
    <glyph glyph-name="ij" unicode="&#x133;" horiz-adv-x="1060" 
d="M377 1522v-240h-191v240h191zM911 1522v-240h-194v240h194zM373 1059v-1059h-180v1059h180zM905 -53q0 -150 -65.5 -218.5t-221.5 -68.5q-51 0 -84 6t-40 12l-7 5v120l107 4q72 4 101.5 38.5t29.5 109.5v1104h180v-1112z" />
    <glyph glyph-name="Jcircumflex" unicode="&#x134;" horiz-adv-x="790" 
d="M625 1677l-144 138l-155 -138h-162l254 232h131l250 -232h-174zM600 344q0 -91 -14 -155t-48 -113t-95 -72.5t-152 -23.5q-124 0 -238 47l15 172q5 -2 40.5 -17t67 -22.5t70.5 -7.5q98 0 136 54.5t38 188.5v1086h180v-1137z" />
    <glyph glyph-name="jcircumflex" unicode="&#x135;" horiz-adv-x="516" 
d="M397 1255l-143 138l-156 -138h-164l256 232h132l249 -232h-174zM346 -53q0 -150 -65.5 -218.5t-221.5 -68.5q-131 0 -131 23l-2 120l109 4q70 4 100.5 38.5t30.5 109.5v1104h180v-1112z" />
    <glyph glyph-name="uni0136" unicode="&#x136;" horiz-adv-x="1392" 
d="M1321 0h-207l-469 768l-258 -297v-471h-188v1481h188v-774l674 774h215l-494 -578zM633 -477q-9 0 -13 7.5t1 16.5l55 101q7 12 3 21t-15 9h-17q-13 0 -18.5 6t-5.5 21v129q0 23 18 23h121q20 0 20 -21v-158q0 -4 -2 -10l-2 -6l-76 -123q-11 -16 -40 -16h-29z" />
    <glyph glyph-name="uni0137" unicode="&#x137;" horiz-adv-x="1155" 
d="M1083 0h-190l-336 539l-215 -224v-315h-180v1522h180v-1008l514 545h201l-381 -402zM508 -477q-9 0 -12.5 7.5t0.5 16.5l55 101q7 12 3 21t-15 9h-17q-13 0 -18.5 6t-5.5 21v129q0 23 18 23h121q20 0 20 -21v-158q0 -4 -2 -10l-2 -6l-75 -123q-11 -16 -41 -16h-29z" />
    <glyph glyph-name="kgreenlandic" unicode="&#x138;" horiz-adv-x="1175" 
d="M1104 0h-211l-315 551l-236 -236v-315h-180v1059h180v-551l526 551h199l-367 -371z" />
    <glyph glyph-name="Lacute" unicode="&#x139;" horiz-adv-x="1155" 
d="M518 1921l45 -139l-514 -152l-31 94zM199 1481h186v-1317h705v-164h-891v1481z" />
    <glyph glyph-name="lacute" unicode="&#x13a;" horiz-adv-x="632" 
d="M485 2003l45 -139l-514 -152l-30 92zM428 -12q-64 0 -112 15.5t-76 40.5t-45 62.5t-23 76t-6 87.5v1252h176v-1235q0 -159 119 -166l59 -2v-115q-50 -16 -92 -16z" />
    <glyph glyph-name="uni013B" unicode="&#x13b;" horiz-adv-x="1155" 
d="M199 1481h186v-1317h705v-164h-891v1481zM569 -477q-9 0 -13 7.5t1 16.5l55 101q7 12 3 21t-15 9h-16q-25 0 -25 27v129q0 23 19 23h120q21 0 21 -21v-158q0 -4 -2 -10l-2 -6l-76 -123q-11 -16 -41 -16h-29z" />
    <glyph glyph-name="uni013C" unicode="&#x13c;" horiz-adv-x="632" 
d="M428 -12q-64 0 -112 15.5t-76 40.5t-45 62.5t-23 76t-6 87.5v1252h176v-1235q0 -159 119 -166l59 -2v-115q-50 -16 -92 -16zM184 -477q-9 0 -13.5 7.5t-0.5 16.5l55 101q7 12 4 21t-14 9h-18q-23 0 -23 27v129q0 23 19 23h120q19 0 19 -21v-158q0 -12 -4 -16l-76 -123
q-9 -16 -39 -16h-29z" />
    <glyph glyph-name="Lcaron" unicode="&#x13d;" horiz-adv-x="1155" 
d="M199 1481h186v-1317h705v-164h-891v1481zM752 1087q-8 0 -12 7t-1 14l60 143q5 12 3.5 18t-11.5 9l-15 2q-12 2 -17 6t-5 14v162q0 19 16 19h121q14 0 14 -15v-186q0 -4 -1 -8l-1 -4l-69 -160q-6 -21 -37 -21h-45z" />
    <glyph glyph-name="lcaron" unicode="&#x13e;" horiz-adv-x="624" 
d="M428 -12q-64 0 -112 15.5t-76 40.5t-45 62.5t-23 76t-6 87.5v1252h176v-1235q0 -159 119 -166l59 -2v-115q-50 -16 -92 -16zM467 1114q-7 0 -11 6.5t-1 14.5l59 143q5 12 3.5 18t-11.5 9l-14 2q-23 3 -23 20v162q0 18 16 18h121q15 0 15 -14v-186q0 -3 -1 -8l-2 -5
l-69 -159q-6 -21 -37 -21h-45z" />
    <glyph glyph-name="Ldot" unicode="&#x13f;" horiz-adv-x="1193" 
d="M199 1481h186v-1317h705v-164h-891v1481zM1090 915v-219h-230v219h230z" />
    <glyph glyph-name="ldot" unicode="&#x140;" horiz-adv-x="712" 
d="M428 -12q-64 0 -112 15.5t-76 40.5t-45 62.5t-23 76t-6 87.5v1252h176v-1235q0 -159 119 -166l59 -2v-115q-50 -16 -92 -16zM739 696v-221h-229v221h229z" />
    <glyph glyph-name="Lslash" unicode="&#x141;" horiz-adv-x="1173" 
d="M401 164h705v-164h-891v664l-139 -37q-27 -8 -27 16v109q0 18 19 26l147 39v664h186v-617l308 80q24 6 24 -18v-103q0 -20 -20 -26l-312 -84v-549z" />
    <glyph glyph-name="lslash" unicode="&#x142;" horiz-adv-x="573" 
d="M528 121l60 -2v-115q-53 -16 -94 -16q-79 0 -132.5 22t-80.5 63.5t-37.5 88t-10.5 108.5v230l-202 -170v168l202 166v858h177v-715l149 121v-158l-149 -125v-358q0 -159 118 -166z" />
    <glyph glyph-name="Nacute" unicode="&#x143;" horiz-adv-x="1533" 
d="M1018 1921l45 -139l-514 -152l-31 94zM1163 1481h178v-1481h-159l-803 1182v-1182h-180v1481h170l794 -1166v1166z" />
    <glyph glyph-name="nacute" unicode="&#x144;" 
d="M844 1499l45 -139l-514 -152l-31 95zM162 0v1059h174v-148q108 164 334 164q159 0 264.5 -101t105.5 -280v-694h-180v678q0 118 -64.5 183t-172.5 65q-118 0 -199.5 -55.5t-81.5 -157.5v-713h-180z" />
    <glyph glyph-name="uni0145" unicode="&#x145;" horiz-adv-x="1533" 
d="M1163 1481h178v-1481h-159l-803 1182v-1182h-180v1481h170l794 -1166v1166zM672 -477q-9 0 -13 7.5t0 16.5l56 101q7 12 2.5 21t-15.5 9h-16q-13 0 -18.5 6t-5.5 21v129q0 23 18 23h121q20 0 20 -21v-158q0 -4 -2 -10l-2 -6l-76 -123q-11 -16 -41 -16h-28z" />
    <glyph glyph-name="uni0146" unicode="&#x146;" 
d="M162 0v1059h174v-148q108 164 334 164q159 0 264.5 -101t105.5 -280v-694h-180v678q0 118 -64.5 183t-172.5 65q-118 0 -199.5 -55.5t-81.5 -157.5v-713h-180zM539 -477q-9 0 -13 7.5t0 16.5l56 101q7 12 2.5 21t-15.5 9h-16q-25 0 -25 27v129q0 23 19 23h121
q20 0 20 -21v-158q0 -4 -2 -10l-2 -6l-76 -123q-11 -16 -41 -16h-28z" />
    <glyph glyph-name="Ncaron" unicode="&#x147;" horiz-adv-x="1533" 
d="M932 1903h174l-250 -232h-131l-256 232h164l155 -138zM1163 1481h178v-1481h-159l-803 1182v-1182h-180v1481h170l794 -1166v1166z" />
    <glyph glyph-name="ncaron" unicode="&#x148;" 
d="M758 1481h174l-250 -232h-131l-256 232h164l155 -138zM162 0v1059h174v-148q108 164 334 164q159 0 264.5 -101t105.5 -280v-694h-180v678q0 118 -64.5 183t-172.5 65q-118 0 -199.5 -55.5t-81.5 -157.5v-713h-180z" />
    <glyph glyph-name="napostrophe" unicode="&#x149;" horiz-adv-x="1306" 
d="M90 932q-8 0 -12 6.5t-2 13.5l61 232q9 26 -8 26l-12 2q-25 0 -25 21v229q0 19 19 19h120q15 0 15 -15v-254q0 -4 -1 -8l-1 -4l-72 -248q-6 -20 -37 -20h-45zM281 0v1059h174v-148q108 164 333 164q104 0 187 -42.5t133.5 -130.5t50.5 -208v-694h-178v678
q0 118 -65.5 183t-174.5 65q-118 0 -199 -55.5t-81 -157.5v-713h-180z" />
    <glyph glyph-name="Eng" unicode="&#x14a;" horiz-adv-x="1525" 
d="M1311 1481q12 0 17 -5t5 -18v-1493q0 -158 -77 -236.5t-242 -78.5q-107 0 -193 28q-27 9 -24 39l8 107q3 24 26 18q91 -22 134 -22q82 0 123.5 41t41.5 137v80l-737 1042q-6 9 -10 11t-6 -1t-2 -10v-1093q3 -27 -29 -27h-119q-28 0 -28 27v1427q0 27 26 27h131
q24 0 41 -19l733 -1052q12 -13 20.5 -9.5t8.5 17.5v1038q0 25 27 25h125z" />
    <glyph glyph-name="eng" unicode="&#x14b;" horiz-adv-x="1204" 
d="M758 -340q-119 0 -119 21v120l92 4q70 3 100.5 37t30.5 111v776q0 209 -209 209q-151 0 -311 -160v-778h-180l2 1059h172v-162q115 99 201.5 140.5t183.5 41.5q148 0 233.5 -83t85.5 -220v-815q0 -143 -72.5 -222t-209.5 -79z" />
    <glyph glyph-name="Omacron" unicode="&#x14c;" horiz-adv-x="1533" 
d="M1071 1876v-129h-600v129h600zM768 -20q-299 0 -468 197.5t-169 557.5q0 362 171 564t468 202q296 0 465.5 -201t169.5 -563q0 -360 -169.5 -558.5t-467.5 -198.5zM772 137q212 0 324 147.5t112 450.5q0 307 -113 457.5t-325 150.5q-214 0 -328 -151t-114 -457
q0 -303 114.5 -450.5t329.5 -147.5z" />
    <glyph glyph-name="omacron" unicode="&#x14d;" horiz-adv-x="1157" 
d="M883 1454v-129h-600v129h600zM580 -20q-225 0 -353.5 149t-128.5 393q0 249 130.5 403t353.5 154q222 0 350.5 -153.5t128.5 -401.5q0 -160 -56.5 -282.5t-166 -192t-258.5 -69.5zM584 123q148 0 222.5 112.5t74.5 294.5q0 119 -31 208.5t-99.5 143.5t-168.5 54
q-150 0 -228 -112.5t-78 -293.5q0 -118 32 -207.5t103 -144.5t173 -55z" />
    <glyph glyph-name="Obreve" unicode="&#x14e;" horiz-adv-x="1533" 
d="M1077 1903q-27 -90 -108.5 -153.5t-198.5 -63.5q-118 0 -198.5 61t-104.5 156h133q65 -107 170 -107q58 0 102 32t68 75h137zM768 -20q-299 0 -468 197.5t-169 557.5q0 362 171 564t468 202q296 0 465.5 -201t169.5 -563q0 -360 -169.5 -558.5t-467.5 -198.5zM772 137
q212 0 324 147.5t112 450.5q0 307 -113 457.5t-325 150.5q-214 0 -328 -151t-114 -457q0 -303 114.5 -450.5t329.5 -147.5z" />
    <glyph glyph-name="obreve" unicode="&#x14f;" horiz-adv-x="1157" 
d="M891 1481q-27 -90 -108.5 -153.5t-198.5 -63.5q-118 0 -198.5 61t-104.5 156h133q65 -107 170 -107q58 0 102 32t68 75h137zM580 -20q-225 0 -353.5 149t-128.5 393q0 249 130.5 403t353.5 154q222 0 350.5 -153.5t128.5 -401.5q0 -160 -56.5 -282.5t-166 -192
t-258.5 -69.5zM584 123q148 0 222.5 112.5t74.5 294.5q0 119 -31 208.5t-99.5 143.5t-168.5 54q-150 0 -228 -112.5t-78 -293.5q0 -118 32 -207.5t103 -144.5t173 -55z" />
    <glyph glyph-name="Ohungarumlaut" unicode="&#x150;" horiz-adv-x="1533" 
d="M776 1911l62 -74q18 -24 -7 -41l-258 -211q-23 -16 -36 2l-35 39q-7 8 -7 17t5 12l250 256q6 7 13.5 6.5t12.5 -6.5zM1106 1911l63 -74q8 -11 7 -21t-15 -20l-260 -211q-21 -16 -37 2l-30 39q-9 9 -9 17.5t6 11.5l248 256q15 15 27 0zM768 -20q-299 0 -468 197.5
t-169 557.5q0 362 171 564t468 202q296 0 465.5 -201t169.5 -563q0 -360 -169.5 -558.5t-467.5 -198.5zM772 137q212 0 324 147.5t112 450.5q0 307 -113 457.5t-325 150.5q-214 0 -328 -151t-114 -457q0 -303 114.5 -450.5t329.5 -147.5z" />
    <glyph glyph-name="ohungarumlaut" unicode="&#x151;" horiz-adv-x="1157" 
d="M590 1489l61 -74q18 -24 -6 -41l-258 -211q-24 -16 -37 2l-35 39q-7 8 -7 17t5 12l250 256q6 7 14 6.5t13 -6.5zM920 1489l63 -74q8 -11 7 -21t-15 -20l-260 -211q-21 -16 -37 2l-31 39q-9 8 -9 17t7 12l248 256q15 15 27 0zM580 -20q-225 0 -353.5 149t-128.5 393
q0 249 130.5 403t353.5 154q222 0 350.5 -153.5t128.5 -401.5q0 -160 -56.5 -282.5t-166 -192t-258.5 -69.5zM584 123q148 0 222.5 112.5t74.5 294.5q0 119 -31 208.5t-99.5 143.5t-168.5 54q-150 0 -228 -112.5t-78 -293.5q0 -118 32 -207.5t103 -144.5t173 -55z" />
    <glyph glyph-name="OE" unicode="&#x152;" horiz-adv-x="2295" 
d="M2159 158v-158h-914l-33 193q-136 -213 -436 -213q-304 0 -474.5 197.5t-170.5 557.5q0 364 173 565t480 201q296 0 428 -215l41 195h879v-156h-735v-500h542v-155h-542v-512h762zM772 135q212 0 314 146t102 454q0 312 -104 462.5t-314 150.5q-426 0 -426 -613
q0 -307 106.5 -453.5t321.5 -146.5z" />
    <glyph glyph-name="oe" unicode="&#x153;" horiz-adv-x="2021" 
d="M604 -20q-227 0 -366.5 149.5t-139.5 392.5q0 248 141.5 402.5t366.5 154.5q130 0 233.5 -58.5t164.5 -162.5q10 -12 17.5 -12t16.5 12q59 104 160.5 162.5t226.5 58.5q227 0 358.5 -156t131.5 -431h-805q0 -159 99.5 -268t240.5 -109q196 0 319 178l121 -62
q-82 -132 -192 -191.5t-264 -59.5q-129 0 -232.5 55.5t-167.5 154.5q-16 30 -35 -6q-64 -98 -165.5 -151t-229.5 -53zM1434 950q-138 0 -228.5 -95t-89.5 -247l621 -2q0 141 -84 242.5t-219 101.5zM608 113q151 0 236.5 110.5t85.5 304.5t-87 306t-237 112t-237.5 -112
t-87.5 -306q0 -193 88 -304t239 -111z" />
    <glyph glyph-name="Racute" unicode="&#x154;" horiz-adv-x="1394" 
d="M901 1921l45 -139l-514 -152l-31 94zM1249 0h-190l-273 643h-407v-643h-180v1481h569q235 0 357 -105t122 -297q0 -298 -291 -403zM707 795q173 0 264.5 69t91.5 205q0 130 -81 197t-230 67h-373v-538h328z" />
    <glyph glyph-name="racute" unicode="&#x155;" horiz-adv-x="792" 
d="M662 1499l45 -139l-514 -152l-31 95zM162 0v1059h170v-223q55 105 163.5 174t225.5 69l2 -174q-104 6 -193.5 -33.5t-138.5 -102t-49 -128.5v-641h-180z" />
    <glyph glyph-name="uni0156" unicode="&#x156;" horiz-adv-x="1394" 
d="M1249 0h-190l-273 643h-407v-643h-180v1481h569q235 0 357 -105t122 -297q0 -298 -291 -403zM707 795q173 0 264.5 69t91.5 205q0 130 -81 197t-230 67h-373v-538h328zM625 -477q-9 0 -13 7.5t0 16.5l56 101q7 12 2.5 21t-15.5 9h-16q-25 0 -25 27v129q0 23 19 23h121
q20 0 20 -21v-158q0 -4 -2 -10l-2 -6l-76 -123q-11 -16 -41 -16h-28z" />
    <glyph glyph-name="uni0157" unicode="&#x157;" horiz-adv-x="792" 
d="M162 0v1059h170v-223q55 105 163.5 174t225.5 69l2 -174q-104 6 -193.5 -33.5t-138.5 -102t-49 -128.5v-641h-180zM193 -477q-9 0 -13 7.5t0 16.5l56 101q7 12 2.5 21t-15.5 9h-16q-25 0 -25 27v129q0 23 19 23h121q20 0 20 -21v-158q0 -4 -2 -10l-2 -6l-76 -123
q-11 -16 -41 -16h-28z" />
    <glyph glyph-name="Rcaron" unicode="&#x158;" horiz-adv-x="1394" 
d="M817 1903h174l-250 -232h-131l-256 232h164l156 -138zM1249 0h-190l-273 643h-407v-643h-180v1481h569q235 0 357 -105t122 -297q0 -298 -291 -403zM707 795q173 0 264.5 69t91.5 205q0 130 -81 197t-230 67h-373v-538h328z" />
    <glyph glyph-name="rcaron" unicode="&#x159;" horiz-adv-x="792" 
d="M578 1481h174l-250 -232h-131l-256 232h164l155 -138zM162 0v1059h170v-223q55 105 163.5 174t225.5 69l2 -174q-104 6 -193.5 -33.5t-138.5 -102t-49 -128.5v-641h-180z" />
    <glyph glyph-name="Sacute" unicode="&#x15a;" horiz-adv-x="1421" 
d="M932 1921l45 -139l-514 -152l-31 94zM715 -20q-145 0 -269.5 43.5t-212 135.5t-106.5 218l188 12q28 -125 138.5 -192.5t261.5 -67.5q165 0 271 68t106 180q0 202 -263 262l-299 70q-355 78 -358 360q0 190 150.5 310t384.5 120q125 0 227.5 -34t169 -93t105.5 -132.5
t48 -156.5l-182 -12q-12 74 -45.5 128.5t-83.5 85.5t-109 46t-130 15q-88 0 -163.5 -28.5t-126 -89t-50.5 -141.5q0 -84 57.5 -135.5t204.5 -87.5l291 -67q360 -81 360 -416q0 -173 -152.5 -287t-412.5 -114z" />
    <glyph glyph-name="sacute" unicode="&#x15b;" horiz-adv-x="1064" 
d="M741 1499l45 -139l-514 -152l-30 95zM543 -20q-110 0 -204 35t-160 108.5t-81 175.5h162q25 -94 100 -139t185 -45q115 0 182.5 44.5t67.5 123.5q0 59 -41 94.5t-123 56.5l-217 55q-136 33 -207.5 98.5t-71.5 178.5q0 97 57.5 169.5t149 108t201.5 35.5
q176 0 282.5 -88.5t108.5 -214.5h-162q-12 82 -75 126t-156 44q-42 0 -82 -8.5t-76.5 -27t-59 -53t-22.5 -81.5q0 -57 43.5 -90.5t134.5 -56.5l217 -56q73 -19 125.5 -51t80 -70.5t40 -77.5t12.5 -81q0 -147 -118 -230t-293 -83z" />
    <glyph glyph-name="Scircumflex" unicode="&#x15c;" horiz-adv-x="1421" 
d="M848 1677l-143 138l-156 -138h-162l254 232h131l250 -232h-174zM715 -20q-145 0 -269.5 43.5t-212 135.5t-106.5 218l188 12q28 -125 138.5 -192.5t261.5 -67.5q165 0 271 68t106 180q0 202 -263 262l-299 70q-355 78 -358 360q0 190 150.5 310t384.5 120
q125 0 227.5 -34t169 -93t105.5 -132.5t48 -156.5l-182 -12q-12 74 -45.5 128.5t-83.5 85.5t-109 46t-130 15q-88 0 -163.5 -28.5t-126 -89t-50.5 -141.5q0 -84 57.5 -135.5t204.5 -87.5l291 -67q360 -81 360 -416q0 -173 -152.5 -287t-412.5 -114z" />
    <glyph glyph-name="scircumflex" unicode="&#x15d;" horiz-adv-x="1064" 
d="M655 1255l-143 138l-156 -138h-161l254 232h131l249 -232h-174zM543 -20q-110 0 -204 35t-160 108.5t-81 175.5h162q25 -94 100 -139t185 -45q115 0 182.5 44.5t67.5 123.5q0 59 -41 94.5t-123 56.5l-217 55q-136 33 -207.5 98.5t-71.5 178.5q0 97 57.5 169.5t149 108
t201.5 35.5q176 0 282.5 -88.5t108.5 -214.5h-162q-12 82 -75 126t-156 44q-42 0 -82 -8.5t-76.5 -27t-59 -53t-22.5 -81.5q0 -57 43.5 -90.5t134.5 -56.5l217 -56q73 -19 125.5 -51t80 -70.5t40 -77.5t12.5 -81q0 -147 -118 -230t-293 -83z" />
    <glyph glyph-name="Scedilla" unicode="&#x15e;" horiz-adv-x="1421" 
d="M1280 381q0 -169 -146.5 -282t-396.5 -119l-37 -93q96 -6 139.5 -49t43.5 -102q0 -72 -64 -114t-157 -42q-115 0 -191 51l31 76q61 -47 139 -47q111 0 111 76q0 45 -38.5 67t-123.5 23q-18 0 -12 14l61 144q-129 10 -236.5 56.5t-183 133.5t-92.5 203l188 12
q28 -125 138.5 -192.5t261.5 -67.5q165 0 271 68t106 180q0 202 -263 262l-299 70q-355 78 -358 360q0 190 150.5 310t384.5 120q125 0 227.5 -34t169 -93t105.5 -132.5t48 -156.5l-182 -12q-12 74 -45.5 128.5t-83.5 85.5t-109 46t-130 15q-88 0 -163.5 -28.5t-126 -89
t-50.5 -141.5q0 -84 57.5 -135.5t204.5 -87.5l291 -67q360 -81 360 -416z" />
    <glyph glyph-name="scedilla" unicode="&#x15f;" horiz-adv-x="1064" 
d="M954 293q0 -143 -111 -225t-278 -88l-37 -93q96 -6 139.5 -49t43.5 -102q0 -72 -64 -114t-158 -42q-114 0 -190 51l31 76q61 -47 139 -47q111 0 111 76q0 45 -38.5 67t-123.5 23q-18 0 -12 14l61 144q-94 12 -171 50t-131 106.5t-67 158.5h162q25 -94 100 -139t185 -45
q115 0 182.5 44.5t67.5 123.5q0 59 -41 94.5t-123 56.5l-217 55q-136 33 -207.5 98.5t-71.5 178.5q0 97 57.5 169.5t149 108t201.5 35.5q176 0 282.5 -88.5t108.5 -214.5h-162q-12 82 -75 126t-156 44q-42 0 -82 -8.5t-76.5 -27t-59 -53t-22.5 -81.5q0 -57 43.5 -90.5
t134.5 -56.5l217 -56q73 -19 125.5 -51t80 -70.5t40 -77.5t12.5 -81z" />
    <glyph glyph-name="Scaron" unicode="&#x160;" horiz-adv-x="1421" 
d="M848 1903h174l-250 -232h-131l-256 232h164l156 -138zM715 -20q-145 0 -269.5 43.5t-212 135.5t-106.5 218l188 12q28 -125 138.5 -192.5t261.5 -67.5q165 0 271 68t106 180q0 202 -263 262l-299 70q-355 78 -358 360q0 190 150.5 310t384.5 120q125 0 227.5 -34t169 -93
t105.5 -132.5t48 -156.5l-182 -12q-12 74 -45.5 128.5t-83.5 85.5t-109 46t-130 15q-88 0 -163.5 -28.5t-126 -89t-50.5 -141.5q0 -84 57.5 -135.5t204.5 -87.5l291 -67q360 -81 360 -416q0 -173 -152.5 -287t-412.5 -114z" />
    <glyph glyph-name="scaron" unicode="&#x161;" horiz-adv-x="1064" 
d="M655 1481h174l-249 -232h-131l-256 232h163l156 -138zM543 -20q-110 0 -204 35t-160 108.5t-81 175.5h162q25 -94 100 -139t185 -45q115 0 182.5 44.5t67.5 123.5q0 59 -41 94.5t-123 56.5l-217 55q-136 33 -207.5 98.5t-71.5 178.5q0 97 57.5 169.5t149 108t201.5 35.5
q176 0 282.5 -88.5t108.5 -214.5h-162q-12 82 -75 126t-156 44q-42 0 -82 -8.5t-76.5 -27t-59 -53t-22.5 -81.5q0 -57 43.5 -90.5t134.5 -56.5l217 -56q73 -19 125.5 -51t80 -70.5t40 -77.5t12.5 -81q0 -147 -118 -230t-293 -83z" />
    <glyph glyph-name="uni0162" unicode="&#x162;" horiz-adv-x="1181" 
d="M694 0h-30l-46 -113q96 -6 139.5 -49t43.5 -102q0 -72 -64 -114t-157 -42q-115 0 -191 51l31 76q61 -47 139 -47q111 0 111 76q0 45 -38.5 67t-123.5 23q-18 0 -12 14l69 160h-51v1315h-479v166h1112v-166h-453v-1315z" />
    <glyph glyph-name="uni0163" unicode="&#x163;" horiz-adv-x="817" 
d="M549 -113q96 -6 139 -49t43 -102q0 -72 -64 -114t-157 -42q-115 0 -191 51l31 76q61 -47 139 -47q111 0 111 76q0 45 -38.5 67t-123.5 23q-18 0 -12 14l68 156q-121 12 -169.5 74.5t-48.5 183.5v672h-172v133h177l18 307h158v-307h239v-133h-239v-660q0 -81 25 -110
t79 -29h146v-115q-34 -12 -115 -18z" />
    <glyph glyph-name="Tcaron" unicode="&#x164;" horiz-adv-x="1181" 
d="M756 1903h174l-250 -232h-131l-256 232h164l155 -138zM35 1315v166h1112v-166h-453v-1315h-180v1315h-479z" />
    <glyph glyph-name="tcaron" unicode="&#x165;" horiz-adv-x="817" 
d="M655 1151q-7 0 -11 6.5t-1 13.5l59 144q5 12 3.5 17.5t-11.5 8.5l-14 2q-23 3 -23 21v162q0 18 17 18h121q14 0 14 -14v-187q0 -3 -1 -7t-1 -5l-70 -160q-6 -20 -37 -20h-45zM696 926h-239v-660q0 -81 25 -110t79 -29h146v-115q-52 -18 -156 -18q-155 0 -215 63t-60 197
v672h-172v133h177l18 307h158v-307h239v-133z" />
    <glyph glyph-name="Tbar" unicode="&#x166;" horiz-adv-x="1181" 
d="M1147 1315h-453v-500h336v-145h-336v-670h-180v670h-260v145h260v500h-479v166h1112v-166z" />
    <glyph glyph-name="tbar" unicode="&#x167;" horiz-adv-x="792" 
d="M588 127h145v-115q-52 -18 -155 -18q-154 0 -214.5 63t-60.5 197v274h-205v115h205v283h-172v133h178l19 307h155v-307h240v-133h-240v-283h160v-115h-160v-262q0 -81 25.5 -110t79.5 -29z" />
    <glyph glyph-name="Utilde" unicode="&#x168;" horiz-adv-x="1462" 
d="M1016 1772q-71 -46 -154 -46q-58 0 -136 27t-122 27q-27 0 -52 -8t-35 -14t-36 -23q-21 -12 -28 10l-19 57q-8 17 6 29q40 31 73.5 46t82.5 15q50 0 136 -27.5t130 -27.5q49 0 117 39q24 15 33 -8l18 -68q8 -14 -14 -28zM1274 506q0 -259 -131 -392.5t-408 -133.5
q-280 0 -408 136.5t-128 411.5v953h186v-981q0 -180 90 -271.5t260 -91.5q173 0 265 90.5t92 272.5v981h182v-975z" />
    <glyph glyph-name="utilde" unicode="&#x169;" 
d="M870 1350q-70 -45 -153 -45q-58 0 -136 26.5t-122 26.5q-27 0 -52 -8t-35 -14t-36 -23q-22 -12 -29 10l-18 57q-8 17 6 29q40 31 73.5 46t82.5 15q50 0 136 -27.5t130 -27.5q49 0 117 39q23 15 32 -8l19 -68q8 -14 -15 -28zM559 -18q-55 0 -109 12t-106.5 39.5t-92.5 68
t-64.5 102.5t-24.5 138v719h180v-701q0 -52 15.5 -93.5t40.5 -68t59 -44t68.5 -24.5t70.5 -7q109 0 186 65.5t78 182.5v690h180l-2 -1059h-143l-14 215q-13 -65 -45.5 -112.5t-77.5 -73.5t-94.5 -38t-104.5 -11z" />
    <glyph glyph-name="Umacron" unicode="&#x16a;" horiz-adv-x="1462" 
d="M1028 1876v-129h-600v129h600zM1274 506q0 -259 -131 -392.5t-408 -133.5q-280 0 -408 136.5t-128 411.5v953h186v-981q0 -180 90 -271.5t260 -91.5q173 0 265 90.5t92 272.5v981h182v-975z" />
    <glyph glyph-name="umacron" unicode="&#x16b;" 
d="M883 1454v-129h-600v129h600zM559 -18q-55 0 -109 12t-106.5 39.5t-92.5 68t-64.5 102.5t-24.5 138v719h180v-701q0 -52 15.5 -93.5t40.5 -68t59 -44t68.5 -24.5t70.5 -7q109 0 186 65.5t78 182.5v690h180l-2 -1059h-143l-14 215q-13 -65 -45.5 -112.5t-77.5 -73.5
t-94.5 -38t-104.5 -11z" />
    <glyph glyph-name="Ubreve" unicode="&#x16c;" horiz-adv-x="1462" 
d="M1034 1903q-27 -90 -108.5 -153.5t-198.5 -63.5q-118 0 -198.5 61t-104.5 156h133q65 -107 170 -107q58 0 102 32t68 75h137zM1274 506q0 -259 -131 -392.5t-408 -133.5q-280 0 -408 136.5t-128 411.5v953h186v-981q0 -180 90 -271.5t260 -91.5q173 0 265 90.5t92 272.5
v981h182v-975z" />
    <glyph glyph-name="ubreve" unicode="&#x16d;" 
d="M891 1481q-27 -90 -108.5 -153.5t-198.5 -63.5q-118 0 -198.5 61t-104.5 156h133q65 -107 170 -107q58 0 102 32t68 75h137zM559 -18q-55 0 -109 12t-106.5 39.5t-92.5 68t-64.5 102.5t-24.5 138v719h180v-701q0 -52 15.5 -93.5t40.5 -68t59 -44t68.5 -24.5t70.5 -7
q109 0 186 65.5t78 182.5v690h180l-2 -1059h-143l-14 215q-13 -65 -45.5 -112.5t-77.5 -73.5t-94.5 -38t-104.5 -11z" />
    <glyph glyph-name="Uring" unicode="&#x16e;" horiz-adv-x="1462" 
d="M938 1812q0 -88 -61 -148t-150 -60q-88 0 -148.5 62t-60.5 151q0 84 61 143t148 59q89 0 150 -59.5t61 -147.5zM836 1812q0 49 -32 80t-79 31q-45 0 -78 -31.5t-33 -79.5q0 -44 33.5 -78t77.5 -34q45 0 78 33.5t33 78.5zM1274 506q0 -259 -131 -392.5t-408 -133.5
q-280 0 -408 136.5t-128 411.5v953h186v-981q0 -180 90 -271.5t260 -91.5q173 0 265 90.5t92 272.5v981h182v-975z" />
    <glyph glyph-name="uring" unicode="&#x16f;" 
d="M795 1391q0 -88 -61 -148.5t-150 -60.5q-88 0 -148.5 62t-60.5 151q0 84 61 143t148 59q89 0 150 -59t61 -147zM692 1391q0 49 -31.5 79.5t-78.5 30.5q-46 0 -78.5 -31t-32.5 -79q0 -44 33.5 -78.5t77.5 -34.5q45 0 77.5 34t32.5 79zM559 -18q-55 0 -109 12t-106.5 39.5
t-92.5 68t-64.5 102.5t-24.5 138v719h180v-701q0 -52 15.5 -93.5t40.5 -68t59 -44t68.5 -24.5t70.5 -7q109 0 186 65.5t78 182.5v690h180l-2 -1059h-143l-14 215q-13 -65 -45.5 -112.5t-77.5 -73.5t-94.5 -38t-104.5 -11z" />
    <glyph glyph-name="Uhungarumlaut" unicode="&#x170;" horiz-adv-x="1462" 
d="M733 1911l62 -74q18 -24 -7 -41l-258 -211q-23 -16 -36 2l-35 39q-7 8 -7 17t5 12l250 256q6 7 13.5 6.5t12.5 -6.5zM1063 1911l63 -74q8 -11 7 -21t-15 -20l-260 -211q-21 -16 -37 2l-30 39q-9 9 -9 17.5t6 11.5l248 256q15 15 27 0zM1274 506q0 -259 -131 -392.5
t-408 -133.5q-280 0 -408 136.5t-128 411.5v953h186v-981q0 -180 90 -271.5t260 -91.5q173 0 265 90.5t92 272.5v981h182v-975z" />
    <glyph glyph-name="uhungarumlaut" unicode="&#x171;" 
d="M590 1489l61 -74q18 -24 -6 -41l-258 -211q-24 -16 -37 2l-35 39q-7 8 -7 17t5 12l250 256q6 7 14 6.5t13 -6.5zM920 1489l63 -74q8 -11 7 -21t-15 -20l-260 -211q-21 -16 -37 2l-31 39q-9 8 -9 17t7 12l248 256q15 15 27 0zM559 -18q-55 0 -109 12t-106.5 39.5t-92.5 68
t-64.5 102.5t-24.5 138v719h180v-701q0 -52 15.5 -93.5t40.5 -68t59 -44t68.5 -24.5t70.5 -7q109 0 186 65.5t78 182.5v690h180l-2 -1059h-143l-14 215q-13 -65 -45.5 -112.5t-77.5 -73.5t-94.5 -38t-104.5 -11z" />
    <glyph glyph-name="Uogonek" unicode="&#x172;" horiz-adv-x="1462" 
d="M1092 1481h182v-975q0 -226 -99 -356t-307 -162q-85 -37 -122 -72.5t-37 -81.5q0 -39 23 -57.5t73 -18.5q63 0 125 27q22 14 22 -10v-60q0 -14 -14 -22q-68 -35 -174 -35q-98 0 -149.5 43.5t-51.5 118.5q0 104 119 162q-252 12 -367.5 148t-115.5 398v953h186v-981
q0 -180 90 -271.5t260 -91.5q173 0 265 90.5t92 272.5v981z" />
    <glyph glyph-name="uogonek" unicode="&#x173;" 
d="M1055 -215q22 14 22 -10v-60q0 -14 -14 -22q-68 -35 -174 -35q-98 0 -149.5 43.5t-51.5 118.5q0 65 45.5 111t161.5 83l-14 203q-13 -65 -45.5 -112.5t-77.5 -73.5t-94.5 -38t-104.5 -11q-55 0 -109 12t-106.5 39.5t-92.5 68t-64.5 102.5t-24.5 138v719h180v-701
q0 -52 15.5 -93.5t40.5 -68t59 -44t68.5 -24.5t70.5 -7q109 0 186 65.5t78 182.5v690h180l-2 -1059h-12q-105 -44 -148.5 -81t-43.5 -87q0 -39 23 -57.5t73 -18.5q63 0 125 27z" />
    <glyph glyph-name="Wcircumflex" unicode="&#x174;" horiz-adv-x="1961" 
d="M1130 1677l-143 138l-156 -138h-161l254 232h131l250 -232h-175zM1909 1481l-432 -1481h-170l-328 1163l-336 -1163h-164l-426 1481h183l333 -1198l338 1198h144l338 -1198l337 1198h183z" />
    <glyph glyph-name="wcircumflex" unicode="&#x175;" horiz-adv-x="1628" 
d="M965 1255l-144 138l-155 -138h-162l254 232h131l250 -232h-174zM1556 1059l-317 -1059h-182l-246 795l-231 -795h-181l-327 1059h168l245 -828h17l243 828h138l254 -826h16l236 826h167z" />
    <glyph glyph-name="Ycircumflex" unicode="&#x176;" horiz-adv-x="1224" 
d="M766 1677l-143 138l-156 -138h-162l254 232h131l250 -232h-174zM1204 1481l-499 -850v-631h-181v633l-504 848h197l397 -688l394 688h196z" />
    <glyph glyph-name="ycircumflex" unicode="&#x177;" horiz-adv-x="1101" 
d="M711 1255l-144 138l-155 -138h-162l254 232h131l250 -232h-174zM264 -338q-55 0 -95 6t-53 12l-12 7v116l109 -2q55 -1 95.5 8.5t64 29.5t35 37.5t22.5 43.5l39 103l-414 1036h183l317 -830l315 830h174l-446 -1145q-57 -140 -138 -196t-196 -56z" />
    <glyph glyph-name="Ydieresis" unicode="&#x178;" horiz-adv-x="1224" 
d="M557 1903v-224h-174v224h174zM860 1903v-224h-176v224h176zM1204 1481l-499 -850v-631h-181v633l-504 848h197l397 -688l394 688h196z" />
    <glyph glyph-name="Zacute" unicode="&#x179;" horiz-adv-x="1286" 
d="M895 1921l45 -139l-514 -152l-31 94zM111 0v100l817 1223h-785v158h1035v-97l-824 -1226h820v-158h-1063z" />
    <glyph glyph-name="zacute" unicode="&#x17a;" horiz-adv-x="1013" 
d="M764 1499l45 -139l-514 -152l-31 95zM90 0v113l612 821h-569v125h785v-115l-613 -819h623v-125h-838z" />
    <glyph glyph-name="Zdotaccent" unicode="&#x17b;" horiz-adv-x="1286" 
d="M764 1903v-238h-193v238h193zM111 0v100l817 1223h-785v158h1035v-97l-824 -1226h820v-158h-1063z" />
    <glyph glyph-name="zdotaccent" unicode="&#x17c;" horiz-adv-x="1013" 
d="M635 1481v-238h-193v238h193zM90 0v113l612 821h-569v125h785v-115l-613 -819h623v-125h-838z" />
    <glyph glyph-name="Zcaron" unicode="&#x17d;" horiz-adv-x="1286" 
d="M811 1903h174l-250 -232h-131l-256 232h164l156 -138zM111 0v100l817 1223h-785v158h1035v-97l-824 -1226h820v-158h-1063z" />
    <glyph glyph-name="zcaron" unicode="&#x17e;" horiz-adv-x="1013" 
d="M680 1481h174l-250 -232h-131l-256 232h164l156 -138zM90 0v113l612 821h-569v125h785v-115l-613 -819h623v-125h-838z" />
    <glyph glyph-name="uni018F" unicode="&#x18f;" horiz-adv-x="1531" 
d="M1182 809q0 47 -4 92t-15.5 98.5t-30 99.5t-50.5 90t-74 75t-103.5 50t-136.5 19q-78 0 -141.5 -21t-102 -50t-71.5 -73t-48.5 -77.5t-33 -76t-25.5 -56.5q-5 -8 -27 0l-137 59q-18 5 -6 33q59 127 106 192q174 238 484 238q140 0 251 -44.5t182 -118t118 -174
t66.5 -205.5t19.5 -220q0 -151 -39.5 -285t-115.5 -241t-200.5 -170t-281.5 -63q-137 0 -245.5 39.5t-181 108.5t-120 167.5t-68 211.5t-20.5 245q0 14 1 19.5t6.5 10t17.5 4.5h1005q21 0 21 23zM1180 641l-801 2q-25 0 -25 -20q0 -74 12 -141t42.5 -131.5t76 -111.5
t117 -75.5t162.5 -28.5q397 0 416 506z" />
    <glyph glyph-name="florin" unicode="&#x192;" horiz-adv-x="929" 
d="M782 1059l-24 -133h-260l-176 -1002q-22 -127 -99 -196.5t-203 -69.5h-167l18 129h117q72 2 107 37.5t50 124.5l172 977h-172l25 133h170l29 166q23 124 100.5 190t200.5 66h194l-20 -129h-152q-55 0 -96 -41t-53 -107l-27 -145h266z" />
    <glyph glyph-name="uni01C4" unicode="&#x1c4;" horiz-adv-x="2711" 
d="M2236 1903h174l-251 -232h-129l-258 232h165l156 -138zM199 1481q211 0 336 -2q401 -4 585.5 -186t184.5 -543q0 -374 -195 -562t-596 -188h-315v1481zM1536 0v100l817 1223h-784v158h1034v-97l-823 -1226h819v-158h-1063zM385 1325v-1169h129q145 0 253.5 31.5
t188 100.5t120 183.5t40.5 273.5q0 161 -39.5 274t-118 180t-185 96.5t-251.5 29.5h-137z" />
    <glyph glyph-name="uni01C5" unicode="&#x1c5;" horiz-adv-x="2441" 
d="M199 1481q211 0 336 -2q401 -4 585.5 -186t184.5 -543q0 -374 -195 -562t-596 -188h-315v1481zM2105 1481h174l-251 -232h-130l-256 232h164l156 -138zM385 1325v-1169h129q145 0 253.5 31.5t188 100.5t120 183.5t40.5 273.5q0 161 -39.5 274t-118 180t-185 96.5
t-251.5 29.5h-137zM1516 0v113l612 821h-569v125h784v-115l-612 -819h622v-125h-837z" />
    <glyph glyph-name="uni01C6" unicode="&#x1c6;" horiz-adv-x="2201" 
d="M545 -20q-204 0 -321.5 140.5t-117.5 397.5q0 256 116 408.5t325 152.5q178 0 313 -135v578h180v-1522h-141l-14 205q-93 -225 -340 -225zM1868 1481h174l-252 -232h-129l-256 232h164l155 -138zM1278 0v113l612 821h-569v125h784v-115l-612 -819h623v-125h-838zM582 119
q116 0 197 82.5t81 185.5v379q-100 172 -268 172q-143 0 -225 -106t-82 -308q0 -204 81.5 -304.5t215.5 -100.5z" />
    <glyph glyph-name="uni01C7" unicode="&#x1c7;" horiz-adv-x="2013" 
d="M199 1481h186v-1317h705v-164h-891v1481zM1823 344q0 -91 -14 -155t-48.5 -113t-95.5 -72.5t-152 -23.5q-123 0 -237 47l14 172q5 -2 40.5 -17t67 -22.5t70.5 -7.5q98 0 136 54.5t38 188.5v1086h181v-1137z" />
    <glyph glyph-name="uni01C8" unicode="&#x1c8;" horiz-adv-x="1697" 
d="M1534 1522v-240h-195v240h195zM199 1481h186v-1317h705v-164h-891v1481zM1528 -53q0 -150 -65 -218.5t-222 -68.5q-51 0 -84 6t-40 12l-7 5v120l107 4q72 4 101.5 38.5t29.5 109.5v1104h180v-1112z" />
    <glyph glyph-name="uni01C9" unicode="&#x1c9;" horiz-adv-x="1159" 
d="M442 -12q-64 0 -111.5 15.5t-75.5 40.5t-45.5 62.5t-23.5 76t-6 87.5v1252h178v-1235q0 -160 119 -166l60 -2v-115q-53 -16 -95 -16zM1010 1522v-240h-193v240h193zM1004 -53q0 -150 -65 -218.5t-222 -68.5q-51 0 -84 6t-40 12l-7 5v120l106 4q72 4 101.5 38.5
t29.5 109.5v1104h181v-1112z" />
    <glyph glyph-name="uni01CA" unicode="&#x1ca;" horiz-adv-x="2332" 
d="M1163 1481h178v-1481h-159l-803 1182v-1182h-180v1481h170l794 -1166v1166zM2134 344q0 -91 -14 -155t-48 -113t-95 -72.5t-152 -23.5q-124 0 -238 47l15 172q5 -2 40.5 -17t67 -22.5t70.5 -7.5q98 0 136 54.5t38 188.5v1086h180v-1137z" />
    <glyph glyph-name="uni01CB" unicode="&#x1cb;" horiz-adv-x="2076" 
d="M1913 1522v-240h-195v240h195zM1163 1481h178v-1481h-159l-803 1182v-1182h-180v1481h170l794 -1166v1166zM1907 -53q0 -150 -65 -218.5t-222 -68.5q-51 0 -84 6t-40 12l-7 5v120l106 4q72 4 101.5 38.5t29.5 109.5v1104h181v-1112z" />
    <glyph glyph-name="uni01CC" unicode="&#x1cc;" horiz-adv-x="1712" 
d="M1563 1522v-240h-193v240h193zM176 0v1059h174v-148q108 164 336 164q159 0 265 -101t106 -280v-694h-180v678q0 118 -65.5 183t-174.5 65q-118 0 -199.5 -55.5t-81.5 -157.5v-713h-180zM1556 -53q0 -150 -64.5 -218.5t-221.5 -68.5q-51 0 -84 6t-40 12l-7 5v120l106 4
q72 4 101.5 38.5t29.5 109.5v1104h180v-1112z" />
    <glyph glyph-name="uni01EA" unicode="&#x1ea;" horiz-adv-x="1533" 
d="M938 -2q-101 -42 -144.5 -79.5t-43.5 -86.5q0 -39 23 -57.5t73 -18.5q63 0 125 27q22 14 22 -10v-60q0 -14 -14 -22q-68 -35 -174 -35q-98 0 -149.5 43.5t-51.5 118.5q0 52 28 92t95 72q-281 14 -438.5 210t-157.5 543q0 362 171 564t468 202q296 0 465.5 -201
t169.5 -563q0 -305 -122.5 -495.5t-344.5 -243.5zM328 735q0 -303 114.5 -450.5t329.5 -147.5q212 0 324 147.5t112 450.5q0 307 -113 457.5t-325 150.5q-214 0 -328 -151t-114 -457z" />
    <glyph glyph-name="uni01EB" unicode="&#x1eb;" horiz-adv-x="1157" 
d="M725 -2q-99 -40 -141.5 -77.5t-42.5 -86.5q0 -39 23 -57.5t73 -18.5q63 0 125 27q22 14 22 -10v-60q0 -14 -14 -22q-68 -35 -174 -35q-98 0 -149.5 43.5t-51.5 118.5q0 52 28 92t95 72q-198 20 -309 166t-111 372q0 249 130.5 403t353.5 154q222 0 350.5 -153.5
t128.5 -401.5q0 -200 -88.5 -340.5t-247.5 -185.5zM276 530q0 -118 32 -207.5t103 -144.5t173 -55q148 0 222.5 112.5t74.5 294.5q0 119 -31 208.5t-99.5 143.5t-168.5 54q-150 0 -228 -112.5t-78 -293.5z" />
    <glyph glyph-name="uni01F1" unicode="&#x1f1;" horiz-adv-x="2711" 
d="M199 1481q211 0 336 -2q401 -4 585.5 -186t184.5 -543q0 -374 -195 -562t-596 -188h-315v1481zM1536 0v100l817 1223h-784v158h1034v-97l-823 -1226h819v-158h-1063zM385 1325v-1169h129q145 0 253.5 31.5t188 100.5t120 183.5t40.5 273.5q0 161 -39.5 274t-118 180
t-185 96.5t-251.5 29.5h-137z" />
    <glyph glyph-name="uni01F2" unicode="&#x1f2;" horiz-adv-x="2441" 
d="M199 1481q211 0 336 -2q401 -4 585.5 -186t184.5 -543q0 -374 -195 -562t-596 -188h-315v1481zM385 1325v-1169h129q145 0 253.5 31.5t188 100.5t120 183.5t40.5 273.5q0 161 -39.5 274t-118 180t-185 96.5t-251.5 29.5h-137zM1516 0v113l612 821h-569v125h784v-115
l-612 -819h622v-125h-837z" />
    <glyph glyph-name="uni01F3" unicode="&#x1f3;" horiz-adv-x="2201" 
d="M545 -20q-204 0 -321.5 140.5t-117.5 397.5q0 256 116 408.5t325 152.5q178 0 313 -135v578h180v-1522h-141l-14 205q-93 -225 -340 -225zM1278 0v113l612 821h-569v125h784v-115l-612 -819h623v-125h-838zM582 119q116 0 197 82.5t81 185.5v379q-100 172 -268 172
q-143 0 -225 -106t-82 -308q0 -204 81.5 -304.5t215.5 -100.5z" />
    <glyph glyph-name="uni01F4" unicode="&#x1f4;" horiz-adv-x="1515" 
d="M985 1921l45 -139l-514 -152l-31 94zM754 -20q-289 0 -456 202.5t-167 552.5q0 358 171.5 562t461.5 204q107 0 207 -36.5t173 -97t119 -142t52 -168.5l-195 -10q-22 127 -121 210.5t-239 83.5q-203 0 -319.5 -153.5t-116.5 -439.5q0 -303 118 -454t324 -151
q90 0 164.5 33.5t120 87t71 113.5t27.5 119l4 135h-365v133l551 -2v-762h-135v229q-152 -249 -450 -249z" />
    <glyph glyph-name="uni01F5" unicode="&#x1f5;" horiz-adv-x="1277" 
d="M850 1499l45 -139l-514 -152l-31 95zM612 -350q-252 0 -388 75t-136 205q0 43 17.5 80t46.5 63t54 42.5t52.5 30.5t30.5 16q-3 2 -20 12t-25 15t-22.5 17.5t-22 24t-13.5 28.5t-6 36q0 51 48 91t137 60q-102 53 -148.5 124.5t-46.5 168.5q0 157 125 246.5t332 89.5
q99 0 169.5 -22.5t133.5 -69.5l266 111v-170l-186 -37q14 -29 25.5 -73.5t11.5 -72.5q0 -144 -112.5 -238.5t-326.5 -94.5q-43 0 -59 2q-105 -3 -152 -23.5t-47 -50.5t43.5 -42t161.5 -20q23 -2 57.5 -4t86 -5t87.5 -5q173 -10 257.5 -84.5t84.5 -200.5
q0 -152 -134.5 -238.5t-381.5 -86.5zM614 524q127 0 193.5 55t66.5 158q0 106 -67.5 166t-192.5 60t-195.5 -60.5t-70.5 -165.5q0 -101 69.5 -157t196.5 -56zM643 -233q158 0 233.5 45t75.5 137q0 70 -45.5 109t-148.5 46l-303 19q-62 5 -125.5 -48t-63.5 -124
q0 -184 377 -184z" />
    <glyph glyph-name="Aringacute" unicode="&#x1fa;" horiz-adv-x="1398" 
d="M831 1442l490 -1440h-213l-141 416h-574l-143 -416h-180l499 1436q-77 58 -77 164q0 73 47 126.5t120 65.5l31 131h139l-59 -139q60 -22 96.5 -73t36.5 -116q0 -93 -72 -155zM694 1706q-45 0 -77.5 -31.5t-32.5 -79.5q0 -43 33 -77.5t77 -34.5q45 0 78 34t33 78
q0 49 -32 80t-79 31zM436 580h486l-242 708z" />
    <glyph glyph-name="aringacute" unicode="&#x1fb;" horiz-adv-x="1159" 
d="M340 1208l-31 95l72 28q-8 40 -8 64q0 84 61 143t148 59q62 0 112.5 -30.5t75.5 -81.5l39 14l45 -139l-68 -21q-18 -69 -74 -113t-130 -44q-84 0 -142 55zM469 1391q0 -17 2 -25l205 80q-28 55 -96 55q-46 0 -78.5 -31t-32.5 -79zM580 1278q35 0 59 18l-64 -18h5z
M580 1079q199 0 306 -91t107 -249v-739h-153l-15 193q-59 -117 -150.5 -165t-215.5 -48q-158 0 -253 81t-95 224q0 178 122 263t392 91l194 6v84q0 102 -67 159.5t-181 57.5q-98 -2 -169 -49t-89 -135h-159q8 138 123.5 227.5t302.5 89.5zM819 348v182l-162 -2
q-192 -3 -282 -55.5t-90 -169.5q0 -89 62.5 -140.5t162.5 -51.5q71 0 143 33.5t118.5 89t47.5 114.5z" />
    <glyph glyph-name="AEacute" unicode="&#x1fc;" horiz-adv-x="2084" 
d="M1626 1921l45 -139l-514 -152l-31 94zM1948 158v-158h-936v416h-508l-232 -416h-184l821 1481h1014l-2 -156h-704v-500h526v-155h-526v-512h731zM1012 578v772l-437 -772h437z" />
    <glyph glyph-name="aeacute" unicode="&#x1fd;" horiz-adv-x="1918" 
d="M1165 1499l47 -139l-514 -152l-30 95zM997 492q0 -148 100 -262.5t238 -114.5q62 0 112 14t89.5 42.5t65.5 55t57 66.5l119 -62q-144 -251 -461 -251q-78 0 -145.5 19.5t-118 54.5t-83 66.5t-65.5 72.5q-6 9 -12 0q-40 -45 -75.5 -76.5t-90 -66t-125.5 -52.5t-156 -18
q-158 0 -246.5 79t-88.5 217q0 153 127 244t380 109l205 16v80q0 106 -64 165.5t-184 59.5q-172 0 -286 -174l-150 51q131 252 449 252q282 0 358 -190q123 190 371 190q219 0 352 -155.5t133 -431.5h-805zM1319 952q-135 0 -226 -94t-92 -250l621 -2q0 140 -84.5 243
t-218.5 103zM823 530l-172 -12q-174 -12 -267 -70.5t-93 -160.5q0 -85 58.5 -135t162.5 -46q129 6 220 74t91 164v186z" />
    <glyph glyph-name="Oslashacute" unicode="&#x1fe;" horiz-adv-x="1488" 
d="M969 1921l45 -139l-514 -152l-31 94zM1434 1427q14 -18 0 -32l-164 -183q108 -184 108 -475q0 -359 -170 -558t-467 -199q-278 0 -440 170l-137 -150q-21 -27 -53 -2l-48 47q-24 24 -8 43l158 174q-109 183 -109 473q0 362 171 564t468 202q274 0 441 -176l145 160
q19 22 35 6zM322 735q0 -190 51 -309l684 768q-104 152 -314 152q-213 0 -317 -150t-104 -461zM1159 735q0 195 -51 314l-682 -766q109 -148 317 -148q213 0 314.5 146t101.5 454z" />
    <glyph glyph-name="oslashacute" unicode="&#x1ff;" horiz-adv-x="1202" 
d="M870 1360l-514 -152l-30 95l499 196zM1151 987l-141 -137q75 -138 75 -326q0 -160 -56.5 -282.5t-166 -192t-258.5 -69.5q-218 0 -346 141l-139 -133l-76 80l150 145q-70 134 -70 309q0 249 130 403t353 154q212 0 338 -139l133 127zM301 530q0 -105 27 -188l501 485
q-79 109 -223 109q-150 0 -227.5 -112.5t-77.5 -293.5zM905 530q0 114 -26 193l-502 -485q81 -115 229 -115q101 0 169.5 55t99 144.5t30.5 207.5z" />
    <glyph glyph-name="uni0200" unicode="&#x200;" horiz-adv-x="1454" 
d="M397 1925l275 -280l-60 -76l-309 243zM725 1925l276 -280l-61 -76l-307 243zM88 0l539 1481h204l535 -1481h-184l-148 412h-610l-152 -412h-184zM469 578h516l-256 725z" />
    <glyph glyph-name="uni0201" unicode="&#x201;" horiz-adv-x="1159" 
d="M242 1503l274 -280l-59 -76l-310 244zM569 1503l277 -280l-62 -76l-307 244zM459 -20q-158 0 -253 81t-95 224q0 178 122 263t392 91l194 6v84q0 102 -67 159.5t-181 57.5q-98 -2 -169 -49t-89 -135h-159q8 138 123.5 227.5t302.5 89.5q199 0 306 -91t107 -249v-739h-153
l-15 193q-59 -117 -150.5 -165t-215.5 -48zM510 111q71 0 143 33.5t118.5 89t47.5 114.5v182l-162 -2q-192 -3 -282 -55.5t-90 -169.5q0 -89 62.5 -140.5t162.5 -51.5z" />
    <glyph glyph-name="uni0202" unicode="&#x202;" horiz-adv-x="1454" 
d="M1061 1767h-137q-26 44 -69.5 75.5t-102.5 31.5q-105 0 -170 -107h-133q24 95 104.5 156.5t198.5 61.5q119 0 200.5 -63.5t108.5 -154.5zM88 0l539 1481h204l535 -1481h-184l-148 412h-610l-152 -412h-184zM469 578h516l-256 725z" />
    <glyph glyph-name="uni0203" unicode="&#x203;" horiz-adv-x="1159" 
d="M905 1346h-137q-26 43 -69.5 73.5t-102.5 30.5q-107 0 -170 -104h-133q24 95 104.5 156t198.5 61q119 0 200.5 -63t108.5 -154zM459 -20q-158 0 -253 81t-95 224q0 178 122 263t392 91l194 6v84q0 102 -67 159.5t-181 57.5q-98 -2 -169 -49t-89 -135h-159
q8 138 123.5 227.5t302.5 89.5q199 0 306 -91t107 -249v-739h-153l-15 193q-59 -117 -150.5 -165t-215.5 -48zM510 111q71 0 143 33.5t118.5 89t47.5 114.5v182l-162 -2q-192 -3 -282 -55.5t-90 -169.5q0 -89 62.5 -140.5t162.5 -51.5z" />
    <glyph glyph-name="uni0204" unicode="&#x204;" horiz-adv-x="1282" 
d="M344 1925l274 -280l-59 -76l-309 243zM672 1925l276 -280l-61 -76l-307 243zM199 0v1481h925v-160h-745v-494h674v-159h-674v-504l766 -2v-162h-946z" />
    <glyph glyph-name="uni0205" unicode="&#x205;" horiz-adv-x="1163" 
d="M248 1503l276 -280l-61 -76l-307 244zM578 1503l276 -280l-61 -76l-310 244zM287 485q0 -104 33 -184.5t104.5 -130t173.5 -49.5q208 0 270 186h170q-37 -159 -157.5 -243t-280.5 -84q-223 0 -358.5 144t-135.5 394q0 255 128 408t354 153q218 0 337 -139.5t119 -384.5
v-70h-757zM289 610h583q0 148 -72.5 239t-213.5 91q-97 0 -166.5 -49.5t-100.5 -122.5t-30 -158z" />
    <glyph glyph-name="uni0206" unicode="&#x206;" horiz-adv-x="1282" 
d="M1008 1767h-138q-26 44 -69.5 75.5t-102.5 31.5q-105 0 -170 -107h-133q24 95 104.5 156.5t198.5 61.5q119 0 201 -63.5t109 -154.5zM199 0v1481h925v-160h-745v-494h674v-159h-674v-504l766 -2v-162h-946z" />
    <glyph glyph-name="uni0207" unicode="&#x207;" horiz-adv-x="1163" 
d="M911 1346h-137q-26 43 -69.5 73.5t-102.5 30.5q-102 0 -170 -104h-133q26 95 105.5 156t197.5 61q119 0 200.5 -63t108.5 -154zM287 485q0 -104 33 -184.5t104.5 -130t173.5 -49.5q208 0 270 186h170q-37 -159 -157.5 -243t-280.5 -84q-223 0 -358.5 144t-135.5 394
q0 255 128 408t354 153q218 0 337 -139.5t119 -384.5v-70h-757zM289 610h583q0 148 -72.5 239t-213.5 91q-97 0 -166.5 -49.5t-100.5 -122.5t-30 -158z" />
    <glyph glyph-name="uni0208" unicode="&#x208;" horiz-adv-x="571" 
d="M-43 1925l274 -280l-59 -76l-309 243zM285 1925l276 -280l-61 -76l-307 243zM199 1481h180v-1481h-180v1481z" />
    <glyph glyph-name="uni0209" unicode="&#x209;" horiz-adv-x="518" 
d="M-78 1503l275 -280l-60 -76l-309 244zM250 1503l276 -280l-61 -76l-307 244zM350 1059v-1059h-180v1059h180z" />
    <glyph glyph-name="uni020A" unicode="&#x20a;" horiz-adv-x="571" 
d="M621 1767h-138q-26 44 -69.5 75.5t-102.5 31.5q-105 0 -170 -107h-133q24 95 104.5 156.5t198.5 61.5q119 0 201 -63.5t109 -154.5zM199 1481h180v-1481h-180v1481z" />
    <glyph glyph-name="uni020B" unicode="&#x20b;" horiz-adv-x="518" 
d="M586 1346h-137q-26 43 -70 73.5t-103 30.5q-107 0 -170 -104h-133q24 95 104.5 156t198.5 61q119 0 201 -63.5t109 -153.5zM350 1059v-1059h-180v1059h180z" />
    <glyph glyph-name="uni020C" unicode="&#x20c;" horiz-adv-x="1533" 
d="M432 1925l275 -280l-60 -76l-309 243zM760 1925l276 -280l-61 -76l-307 243zM768 -20q-299 0 -468 197.5t-169 557.5q0 362 171 564t468 202q296 0 465.5 -201t169.5 -563q0 -360 -169.5 -558.5t-467.5 -198.5zM772 137q212 0 324 147.5t112 450.5q0 307 -113 457.5
t-325 150.5q-214 0 -328 -151t-114 -457q0 -303 114.5 -450.5t329.5 -147.5z" />
    <glyph glyph-name="uni020D" unicode="&#x20d;" horiz-adv-x="1157" 
d="M244 1503l274 -280l-59 -76l-309 244zM571 1503l277 -280l-62 -76l-307 244zM580 -20q-225 0 -353.5 149t-128.5 393q0 249 130.5 403t353.5 154q222 0 350.5 -153.5t128.5 -401.5q0 -160 -56.5 -282.5t-166 -192t-258.5 -69.5zM584 123q148 0 222.5 112.5t74.5 294.5
q0 119 -31 208.5t-99.5 143.5t-168.5 54q-150 0 -228 -112.5t-78 -293.5q0 -118 32 -207.5t103 -144.5t173 -55z" />
    <glyph glyph-name="uni020E" unicode="&#x20e;" horiz-adv-x="1533" 
d="M1096 1767h-138q-26 44 -69.5 75.5t-102.5 31.5q-105 0 -170 -107h-133q24 95 104.5 156.5t198.5 61.5q119 0 201 -63.5t109 -154.5zM768 -20q-299 0 -468 197.5t-169 557.5q0 362 171 564t468 202q296 0 465.5 -201t169.5 -563q0 -360 -169.5 -558.5t-467.5 -198.5z
M772 137q212 0 324 147.5t112 450.5q0 307 -113 457.5t-325 150.5q-214 0 -328 -151t-114 -457q0 -303 114.5 -450.5t329.5 -147.5z" />
    <glyph glyph-name="uni020F" unicode="&#x20f;" horiz-adv-x="1157" 
d="M907 1346h-137q-26 43 -69.5 73.5t-102.5 30.5q-107 0 -170 -104h-133q24 95 104.5 156t198.5 61q119 0 200.5 -63t108.5 -154zM580 -20q-225 0 -353.5 149t-128.5 393q0 249 130.5 403t353.5 154q222 0 350.5 -153.5t128.5 -401.5q0 -160 -56.5 -282.5t-166 -192
t-258.5 -69.5zM584 123q148 0 222.5 112.5t74.5 294.5q0 119 -31 208.5t-99.5 143.5t-168.5 54q-150 0 -228 -112.5t-78 -293.5q0 -118 32 -207.5t103 -144.5t173 -55z" />
    <glyph glyph-name="uni0210" unicode="&#x210;" horiz-adv-x="1394" 
d="M336 1925l274 -280l-59 -76l-309 243zM664 1925l276 -280l-61 -76l-308 243zM1249 0h-190l-273 643h-407v-643h-180v1481h569q235 0 357 -105t122 -297q0 -298 -291 -403zM707 795q173 0 264.5 69t91.5 205q0 130 -81 197t-230 67h-373v-538h328z" />
    <glyph glyph-name="uni0211" unicode="&#x211;" horiz-adv-x="792" 
d="M94 1503l275 -280l-60 -76l-309 244zM422 1503l276 -280l-61 -76l-307 244zM162 0v1059h170v-223q55 105 163.5 174t225.5 69l2 -174q-104 6 -193.5 -33.5t-138.5 -102t-49 -128.5v-641h-180z" />
    <glyph glyph-name="uni0212" unicode="&#x212;" horiz-adv-x="1394" 
d="M997 1767h-137q-26 44 -69.5 75.5t-102.5 31.5q-105 0 -170 -107h-133q24 95 104.5 156.5t198.5 61.5q119 0 200.5 -63.5t108.5 -154.5zM1249 0h-190l-273 643h-407v-643h-180v1481h569q235 0 357 -105t122 -297q0 -298 -291 -403zM707 795q173 0 264.5 69t91.5 205
q0 130 -81 197t-230 67h-373v-538h328z" />
    <glyph glyph-name="uni0213" unicode="&#x213;" horiz-adv-x="792" 
d="M758 1346h-137q-26 43 -69.5 73.5t-102.5 30.5q-107 0 -170 -104h-134q24 95 104.5 156t199.5 61t200.5 -63t108.5 -154zM162 0v1059h170v-223q55 105 163.5 174t225.5 69l2 -174q-104 6 -193.5 -33.5t-138.5 -102t-49 -128.5v-641h-180z" />
    <glyph glyph-name="uni0214" unicode="&#x214;" horiz-adv-x="1462" 
d="M389 1925l275 -280l-60 -76l-309 243zM717 1925l276 -280l-61 -76l-307 243zM1274 506q0 -259 -131 -392.5t-408 -133.5q-280 0 -408 136.5t-128 411.5v953h186v-981q0 -180 90 -271.5t260 -91.5q173 0 265 90.5t92 272.5v981h182v-975z" />
    <glyph glyph-name="uni0215" unicode="&#x215;" 
d="M244 1503l274 -280l-59 -76l-309 244zM571 1503l277 -280l-62 -76l-307 244zM559 -18q-55 0 -109 12t-106.5 39.5t-92.5 68t-64.5 102.5t-24.5 138v719h180v-701q0 -52 15.5 -93.5t40.5 -68t59 -44t68.5 -24.5t70.5 -7q109 0 186 65.5t78 182.5v690h180l-2 -1059h-143
l-14 215q-13 -65 -45.5 -112.5t-77.5 -73.5t-94.5 -38t-104.5 -11z" />
    <glyph glyph-name="uni0216" unicode="&#x216;" horiz-adv-x="1462" 
d="M1053 1767h-138q-26 44 -69.5 75.5t-102.5 31.5q-105 0 -170 -107h-133q24 95 104.5 156.5t198.5 61.5q119 0 201 -63.5t109 -154.5zM1274 506q0 -259 -131 -392.5t-408 -133.5q-280 0 -408 136.5t-128 411.5v953h186v-981q0 -180 90 -271.5t260 -91.5q173 0 265 90.5
t92 272.5v981h182v-975z" />
    <glyph glyph-name="uni0217" unicode="&#x217;" 
d="M907 1346h-137q-26 43 -69.5 73.5t-102.5 30.5q-107 0 -170 -104h-133q24 95 104.5 156t198.5 61q119 0 200.5 -63t108.5 -154zM559 -18q-55 0 -109 12t-106.5 39.5t-92.5 68t-64.5 102.5t-24.5 138v719h180v-701q0 -52 15.5 -93.5t40.5 -68t59 -44t68.5 -24.5t70.5 -7
q109 0 186 65.5t78 182.5v690h180l-2 -1059h-143l-14 215q-13 -65 -45.5 -112.5t-77.5 -73.5t-94.5 -38t-104.5 -11z" />
    <glyph glyph-name="uni0218" unicode="&#x218;" horiz-adv-x="1421" 
d="M715 -20q-145 0 -269.5 43.5t-212 135.5t-106.5 218l188 12q28 -125 138.5 -192.5t261.5 -67.5q165 0 271 68t106 180q0 202 -263 262l-299 70q-355 78 -358 360q0 190 150.5 310t384.5 120q125 0 227.5 -34t169 -93t105.5 -132.5t48 -156.5l-182 -12q-12 74 -45.5 128.5
t-83.5 85.5t-109 46t-130 15q-88 0 -163.5 -28.5t-126 -89t-50.5 -141.5q0 -84 57.5 -135.5t204.5 -87.5l291 -67q360 -81 360 -416q0 -173 -152.5 -287t-412.5 -114zM631 -477q-9 0 -13 7.5t0 16.5l56 101q7 12 3 21t-15 9h-17q-13 0 -18.5 6t-5.5 21v129q0 23 18 23h121
q20 0 20 -21v-158q0 -4 -2 -10l-2 -6l-76 -123q-11 -16 -41 -16h-28z" />
    <glyph glyph-name="uni0219" unicode="&#x219;" horiz-adv-x="1064" 
d="M543 -20q-110 0 -204 35t-160 108.5t-81 175.5h162q25 -94 100 -139t185 -45q115 0 182.5 44.5t67.5 123.5q0 59 -41 94.5t-123 56.5l-217 55q-136 33 -207.5 98.5t-71.5 178.5q0 97 57.5 169.5t149 108t201.5 35.5q176 0 282.5 -88.5t108.5 -214.5h-162q-12 82 -75 126
t-156 44q-42 0 -82 -8.5t-76.5 -27t-59 -53t-22.5 -81.5q0 -57 43.5 -90.5t134.5 -56.5l217 -56q73 -19 125.5 -51t80 -70.5t40 -77.5t12.5 -81q0 -147 -118 -230t-293 -83zM459 -477q-9 0 -13 7.5t0 16.5l56 101q7 12 2.5 21t-15.5 9h-16q-13 0 -18.5 6t-5.5 21v129
q0 23 18 23h121q20 0 20 -21v-158q0 -4 -2 -10l-2 -6l-76 -123q-11 -16 -41 -16h-28z" />
    <glyph glyph-name="uni021A" unicode="&#x21a;" horiz-adv-x="1181" 
d="M35 1315v166h1112v-166h-453v-1315h-180v1315h-479zM547 -477q-9 0 -13 7.5t1 16.5l55 101q7 12 3 21t-15 9h-17q-13 0 -18.5 6t-5.5 21v129q0 23 18 23h121q20 0 20 -21v-158q0 -4 -2 -10l-2 -6l-76 -123q-11 -16 -41 -16h-28z" />
    <glyph glyph-name="uni021B" unicode="&#x21b;" horiz-adv-x="817" 
d="M696 926h-239v-660q0 -81 25 -110t79 -29h146v-115q-52 -18 -156 -18q-155 0 -215 63t-60 197v672h-172v133h177l18 307h158v-307h239v-133zM479 -477q-9 0 -13 7.5t1 16.5l55 101q7 12 3 21t-15 9h-16q-25 0 -25 27v129q0 23 18 23h121q21 0 21 -21v-158q0 -4 -2 -10
l-2 -6l-76 -123q-11 -16 -41 -16h-29z" />
    <glyph glyph-name="uni0237" unicode="&#x237;" horiz-adv-x="516" 
d="M346 -53q0 -150 -65.5 -218.5t-221.5 -68.5q-131 0 -131 23l-2 120l109 4q70 4 100.5 38.5t30.5 109.5v1104h180v-1112z" />
    <glyph glyph-name="uni0259" unicode="&#x259;" horiz-adv-x="1155" 
d="M866 573q0 161 -79.5 263t-229.5 102q-210 0 -272 -186h-168q37 159 156.5 243t279.5 84q223 0 359.5 -144t136.5 -394q0 -255 -128 -408t-354 -153q-219 0 -338.5 140t-119.5 384v69h757zM866 449h-585q0 -147 73 -238.5t215 -91.5q73 0 131.5 28.5t93.5 76t53.5 105.5
t18.5 120z" />
    <glyph glyph-name="uni02BC" unicode="&#x2bc;" horiz-adv-x="323" 
d="M90 932q-8 0 -12 6.5t-2 13.5l61 232q9 26 -8 26l-12 2q-25 0 -25 21v229q0 19 19 19h120q15 0 15 -15v-254q0 -4 -1 -8l-1 -4l-72 -248q-6 -20 -37 -20h-45z" />
    <glyph glyph-name="circumflex" unicode="&#x2c6;" horiz-adv-x="671" 
d="M475 1255l-143 138l-156 -138h-162l254 232h131l250 -232h-174z" />
    <glyph glyph-name="caron" unicode="&#x2c7;" horiz-adv-x="671" 
d="M475 1481h174l-250 -232h-131l-256 232h164l156 -138z" />
    <glyph glyph-name="breve" unicode="&#x2d8;" horiz-adv-x="673" 
d="M639 1481q-27 -90 -108.5 -153.5t-198.5 -63.5q-118 0 -198.5 61t-104.5 156h133q65 -107 170 -107q58 0 102 32t68 75h137z" />
    <glyph glyph-name="dotaccent" unicode="&#x2d9;" horiz-adv-x="258" 
d="M223 1481v-238h-192v238h192z" />
    <glyph glyph-name="ring" unicode="&#x2da;" horiz-adv-x="485" 
d="M451 1384q0 -88 -61 -148t-150 -60q-88 0 -148.5 62t-60.5 151q0 84 61 143t148 59q89 0 150 -59.5t61 -147.5zM348 1384q0 49 -31.5 80t-78.5 31q-45 0 -78 -31.5t-33 -79.5q0 -44 33.5 -78t77.5 -34q45 0 77.5 33.5t32.5 78.5z" />
    <glyph glyph-name="ogonek" unicode="&#x2db;" horiz-adv-x="454" 
d="M31 -178q0 66 46.5 113t164.5 83l131 -12q-107 -44 -152 -82t-45 -88q0 -39 23 -57.5t73 -18.5q63 0 125 27q23 14 23 -10v-60q0 -14 -14 -22q-68 -35 -175 -35q-98 0 -149 43.5t-51 118.5z" />
    <glyph glyph-name="tilde" unicode="&#x2dc;" horiz-adv-x="700" 
d="M633 1350q-70 -45 -154 -45q-58 0 -136 26.5t-122 26.5q-27 0 -52 -8t-35 -14t-36 -23q-21 -12 -28 10l-19 57q-8 17 6 29q40 31 73.5 46t82.5 15q50 0 136 -27.5t130 -27.5q49 0 117 39q24 15 33 -8l18 -68q8 -14 -14 -28z" />
    <glyph glyph-name="hungarumlaut" unicode="&#x2dd;" horiz-adv-x="800" 
d="M338 1489l61 -74q18 -24 -6 -41l-258 -211q-24 -16 -37 2l-35 39q-7 8 -7 17t5 12l250 256q6 7 14 6.5t13 -6.5zM668 1489l63 -74q8 -11 7 -21t-15 -20l-260 -211q-21 -16 -37 2l-31 39q-9 8 -9 17t7 12l248 256q15 15 27 0z" />
    <glyph glyph-name="gravecomb" unicode="&#x300;" horiz-adv-x="0" 
d="M-528 1499l497 -196l-30 -95l-514 152z" />
    <glyph glyph-name="acutecomb" unicode="&#x301;" horiz-adv-x="0" 
d="M-74 1499l45 -139l-514 -152l-30 95z" />
    <glyph glyph-name="uni0302" unicode="&#x302;" horiz-adv-x="0" 
d="M-197 1255l-143 138l-156 -138h-161l254 232h131l249 -232h-174z" />
    <glyph glyph-name="tildecomb" unicode="&#x303;" horiz-adv-x="0" 
d="M-68 1350q-70 -45 -153 -45q-58 0 -136 26.5t-122 26.5q-27 0 -52 -8t-35 -14t-36 -23q-22 -12 -29 10l-18 57q-8 17 6 29q40 31 73.5 46t82.5 15q50 0 136 -27.5t130 -27.5q49 0 117 39q23 15 32 -8l19 -68q8 -14 -15 -28z" />
    <glyph glyph-name="uni0304" unicode="&#x304;" horiz-adv-x="0" 
d="M-37 1454v-129h-600v129h600z" />
    <glyph glyph-name="uni0306" unicode="&#x306;" horiz-adv-x="0" 
d="M-35 1481q-27 -90 -108.5 -153.5t-198.5 -63.5q-118 0 -198.5 61t-104.5 156h133q65 -107 170 -107q58 0 102 32t68 75h137z" />
    <glyph glyph-name="uni0307" unicode="&#x307;" horiz-adv-x="0" 
d="M-35 1481v-238h-192v238h192z" />
    <glyph glyph-name="uni0308" unicode="&#x308;" horiz-adv-x="0" 
d="M-338 1481v-224h-174v224h174zM-35 1481v-224h-176v224h176z" />
    <glyph glyph-name="uni030A" unicode="&#x30a;" horiz-adv-x="0" 
d="M-35 1384q0 -88 -61 -148t-150 -60q-88 0 -148.5 62t-60.5 151q0 84 61 143t148 59q89 0 150 -59.5t61 -147.5zM-137 1384q0 49 -32 80t-79 31q-45 0 -77.5 -31.5t-32.5 -79.5q0 -44 33 -78t77 -34q45 0 78 33.5t33 78.5z" />
    <glyph glyph-name="uni030B" unicode="&#x30b;" horiz-adv-x="0" 
d="M-463 1489l62 -74q18 -24 -7 -41l-258 -211q-23 -16 -36 2l-35 39q-7 8 -7 17t5 12l250 256q6 7 13.5 6.5t12.5 -6.5zM-133 1489l63 -74q8 -11 7 -21t-15 -20l-260 -211q-21 -16 -37 2l-31 39q-8 8 -8 17t6 12l248 256q15 15 27 0z" />
    <glyph glyph-name="uni030C" unicode="&#x30c;" horiz-adv-x="0" 
d="M-197 1481h174l-249 -232h-131l-256 232h163l156 -138z" />
    <glyph glyph-name="uni030F" unicode="&#x30f;" horiz-adv-x="0" 
d="M-662 1503l275 -280l-59 -76l-310 244zM-334 1503l277 -280l-62 -76l-307 244z" />
    <glyph glyph-name="uni0311" unicode="&#x311;" horiz-adv-x="0" 
d="M10 1346h-137q-26 43 -69.5 73.5t-102.5 30.5q-107 0 -170 -104h-133q24 95 104.5 156t198.5 61q119 0 200.5 -63t108.5 -154z" />
    <glyph glyph-name="dotbelowcomb" unicode="&#x323;" horiz-adv-x="0" 
d="M-37 -133v-166q0 -18 -6.5 -24.5t-24.5 -6.5h-106q-25 0 -25 27v168q0 15 4 20.5t15 5.5h125q10 0 14 -5t4 -19z" />
    <glyph glyph-name="uni0326" unicode="&#x326;" horiz-adv-x="0" 
d="M-184 -477q-9 0 -13 7.5t0 16.5l56 101q7 12 2.5 21t-15.5 9h-16q-25 0 -25 27v129q0 23 19 23h121q20 0 20 -21v-158q0 -4 -2 -10l-2 -6l-76 -123q-11 -16 -41 -16h-28z" />
    <glyph glyph-name="uni0327" unicode="&#x327;" horiz-adv-x="0" 
d="M-35 -264q0 -72 -64 -114t-157 -42q-114 0 -190 51l30 76q61 -47 140 -47q110 0 110 76q0 45 -38.5 67t-123.5 23q-18 0 -12 14l74 170h98l-49 -123q96 -6 139 -49t43 -102z" />
    <glyph glyph-name="uni0328" unicode="&#x328;" horiz-adv-x="0" 
d="M-424 -178q0 66 46.5 113t164.5 83l131 -12q-107 -44 -152 -82t-45 -88q0 -76 97 -76q63 0 125 27q22 14 22 -10v-60q0 -14 -14 -22q-68 -35 -174 -35q-98 0 -149.5 43.5t-51.5 118.5z" />
    <glyph glyph-name="uni0394" unicode="&#x394;" horiz-adv-x="1337" 
d="M74 0v141l489 1342l207 -2l487 -1336v-145h-1183zM266 158h793l-395 1126z" />
    <glyph glyph-name="uni03A9" unicode="&#x3a9;" horiz-adv-x="1556" 
d="M776 1346q-140 0 -242.5 -75t-152 -197.5t-49.5 -276.5q0 -98 24.5 -187.5t59 -152t85.5 -122t89.5 -93t85.5 -68.5q16 -14 22.5 -26t6.5 -33v-115h-523v160h318q-84 67 -111 92q-260 242 -260 569q0 105 27 204.5t81.5 185.5t130.5 151t181.5 102t226.5 37
q153 0 278 -58.5t203.5 -155t121 -216.5t42.5 -248q0 -55 -8.5 -108.5t-21 -97.5t-33.5 -88.5t-40 -77.5t-46 -68.5t-46.5 -58t-47 -49.5t-41 -39t-36 -31t-24.5 -21q-10 -10 -7.5 -17t13.5 -7h285v-160h-522v150q41 30 75 58.5t80.5 73.5t81.5 97t67 115t49.5 142t17.5 165
q0 152 -48.5 273.5t-150 196.5t-242.5 75z" />
    <glyph glyph-name="uni03BC" unicode="&#x3bc;" horiz-adv-x="1181" 
d="M543 119q145 0 311 172v768h180l-2 -1059h-172v164q-103 -91 -178.5 -131.5t-155.5 -46.5q-122 -3 -184 51v-367h-180v1389h180v-758q0 -75 58.5 -128.5t142.5 -53.5z" />
    <glyph glyph-name="pi" unicode="&#x3c0;" horiz-adv-x="1349" 
d="M1286 926h-233v-926h-174l-2 926h-445q0 -251 -35 -513.5t-86 -412.5h-164q49 187 82 431t33 474q0 21 -16 21h-189v133h1229v-133z" />
    <glyph glyph-name="uni1E0C" unicode="&#x1e0c;" horiz-adv-x="1449" 
d="M199 1481q211 0 336 -2q401 -4 585.5 -186t184.5 -543q0 -374 -195 -562t-596 -188h-315v1481zM385 1325v-1169h129q145 0 253.5 31.5t188 100.5t120 183.5t40.5 273.5q0 161 -39.5 274t-118 180t-185 96.5t-251.5 29.5h-137zM805 -133v-166q0 -18 -6.5 -24.5t-24.5 -6.5
h-106q-25 0 -25 27v168q0 15 4 20.5t15 5.5h124q19 0 19 -24z" />
    <glyph glyph-name="uni1E0D" unicode="&#x1e0d;" 
d="M545 -20q-204 0 -321.5 140.5t-117.5 397.5q0 256 116 408.5t325 152.5q178 0 313 -135v578h180v-1522h-141l-14 205q-93 -225 -340 -225zM582 119q116 0 197 82.5t81 185.5v379q-100 172 -268 172q-143 0 -225 -106t-82 -308q0 -204 81.5 -304.5t215.5 -100.5zM678 -133
v-166q0 -18 -6.5 -24.5t-24.5 -6.5h-106q-25 0 -25 27v168q0 15 4 20.5t15 5.5h124q19 0 19 -24z" />
    <glyph glyph-name="uni1E24" unicode="&#x1e24;" horiz-adv-x="1452" 
d="M1081 686h-702v-686h-180v1481h180v-635h702v635h179v-1481h-179v686zM809 -133v-166q0 -18 -6.5 -24.5t-24.5 -6.5h-106q-25 0 -25 27v168q0 15 4 20.5t15 5.5h125q10 0 14 -5t4 -19z" />
    <glyph glyph-name="uni1E25" unicode="&#x1e25;" 
d="M162 0v1522h176v-613q43 72 127.5 118t204.5 46q159 0 264.5 -87.5t105.5 -225.5v-760h-180v725q0 93 -65.5 147t-173.5 54q-117 0 -198 -56t-81 -157v-713h-180zM696 -133v-166q0 -18 -6 -24.5t-24 -6.5h-107q-14 0 -19 6.5t-5 20.5v168q0 15 4 20.5t14 5.5h125
q10 0 14 -5t4 -19z" />
    <glyph glyph-name="uni1E44" unicode="&#x1e44;" horiz-adv-x="1533" 
d="M887 1903v-238h-193v238h193zM1163 1481h178v-1481h-159l-803 1182v-1182h-180v1481h170l794 -1166v1166z" />
    <glyph glyph-name="uni1E45" unicode="&#x1e45;" 
d="M713 1481v-238h-193v238h193zM162 0v1059h174v-148q108 164 334 164q159 0 264.5 -101t105.5 -280v-694h-180v678q0 118 -64.5 183t-172.5 65q-118 0 -199.5 -55.5t-81.5 -157.5v-713h-180z" />
    <glyph glyph-name="uni1E5A" unicode="&#x1e5a;" horiz-adv-x="1394" 
d="M1249 0h-190l-273 643h-407v-643h-180v1481h569q235 0 357 -105t122 -297q0 -298 -291 -403zM707 795q173 0 264.5 69t91.5 205q0 130 -81 197t-230 67h-373v-538h328zM770 -133v-166q0 -18 -6.5 -24.5t-24.5 -6.5h-106q-25 0 -25 27v168q0 15 4 20.5t15 5.5h125
q10 0 14 -5t4 -19z" />
    <glyph glyph-name="uni1E5B" unicode="&#x1e5b;" horiz-adv-x="792" 
d="M162 0v1059h170v-223q55 105 163.5 174t225.5 69l2 -174q-104 6 -193.5 -33.5t-138.5 -102t-49 -128.5v-641h-180zM340 -133v-166q0 -18 -6.5 -24.5t-24.5 -6.5h-106q-25 0 -25 27v168q0 15 4 20.5t15 5.5h125q10 0 14 -5t4 -19z" />
    <glyph glyph-name="uni1E62" unicode="&#x1e62;" horiz-adv-x="1421" 
d="M715 -20q-145 0 -269.5 43.5t-212 135.5t-106.5 218l188 12q28 -125 138.5 -192.5t261.5 -67.5q165 0 271 68t106 180q0 202 -263 262l-299 70q-355 78 -358 360q0 190 150.5 310t384.5 120q125 0 227.5 -34t169 -93t105.5 -132.5t48 -156.5l-182 -12q-12 74 -45.5 128.5
t-83.5 85.5t-109 46t-130 15q-88 0 -163.5 -28.5t-126 -89t-50.5 -141.5q0 -84 57.5 -135.5t204.5 -87.5l291 -67q360 -81 360 -416q0 -173 -152.5 -287t-412.5 -114zM776 -133v-166q0 -18 -6.5 -24.5t-24.5 -6.5h-106q-25 0 -25 27v168q0 15 4 20.5t15 5.5h125q10 0 14 -5
t4 -19z" />
    <glyph glyph-name="uni1E63" unicode="&#x1e63;" horiz-adv-x="1064" 
d="M543 -20q-110 0 -204 35t-160 108.5t-81 175.5h162q25 -94 100 -139t185 -45q115 0 182.5 44.5t67.5 123.5q0 59 -41 94.5t-123 56.5l-217 55q-136 33 -207.5 98.5t-71.5 178.5q0 97 57.5 169.5t149 108t201.5 35.5q176 0 282.5 -88.5t108.5 -214.5h-162q-12 82 -75 126
t-156 44q-42 0 -82 -8.5t-76.5 -27t-59 -53t-22.5 -81.5q0 -57 43.5 -90.5t134.5 -56.5l217 -56q73 -19 125.5 -51t80 -70.5t40 -77.5t12.5 -81q0 -147 -118 -230t-293 -83zM606 -133v-166q0 -18 -6.5 -24.5t-24.5 -6.5h-106q-25 0 -25 27v168q0 15 4 20.5t15 5.5h125
q10 0 14 -5t4 -19z" />
    <glyph glyph-name="uni1E6C" unicode="&#x1e6c;" horiz-adv-x="1181" 
d="M35 1315v166h1112v-166h-453v-1315h-180v1315h-479zM694 -133v-166q0 -18 -6 -24.5t-24 -6.5h-107q-25 0 -25 27v168q0 15 4 20.5t15 5.5h125q10 0 14 -5t4 -19z" />
    <glyph glyph-name="uni1E6D" unicode="&#x1e6d;" horiz-adv-x="817" 
d="M696 926h-239v-660q0 -81 25 -110t79 -29h146v-115q-52 -18 -156 -18q-155 0 -215 63t-60 197v672h-172v133h177l18 307h158v-307h239v-133zM625 -133v-166q0 -18 -6.5 -24.5t-24.5 -6.5h-107q-14 0 -19 6.5t-5 20.5v168q0 15 4 20.5t14 5.5h125q19 0 19 -24z" />
    <glyph glyph-name="Wgrave" unicode="&#x1e80;" horiz-adv-x="1961" 
d="M737 1921l498 -197l-31 -94l-514 152zM1909 1481l-432 -1481h-170l-328 1163l-336 -1163h-164l-426 1481h183l333 -1198l338 1198h144l338 -1198l337 1198h183z" />
    <glyph glyph-name="wgrave" unicode="&#x1e81;" horiz-adv-x="1628" 
d="M571 1499l498 -196l-31 -95l-514 152zM1556 1059l-317 -1059h-182l-246 795l-231 -795h-181l-327 1059h168l245 -828h17l243 828h138l254 -826h16l236 826h167z" />
    <glyph glyph-name="Wacute" unicode="&#x1e82;" horiz-adv-x="1961" 
d="M1214 1921l46 -139l-515 -152l-30 94zM1909 1481l-432 -1481h-170l-328 1163l-336 -1163h-164l-426 1481h183l333 -1198l338 1198h144l338 -1198l337 1198h183z" />
    <glyph glyph-name="wacute" unicode="&#x1e83;" horiz-adv-x="1628" 
d="M1051 1499l45 -139l-514 -152l-31 95zM1556 1059l-317 -1059h-182l-246 795l-231 -795h-181l-327 1059h168l245 -828h17l243 828h138l254 -826h16l236 826h167z" />
    <glyph glyph-name="Wdieresis" unicode="&#x1e84;" horiz-adv-x="1961" 
d="M924 1903v-224h-174v224h174zM1227 1903v-224h-176v224h176zM1909 1481l-432 -1481h-170l-328 1163l-336 -1163h-164l-426 1481h183l333 -1198l338 1198h144l338 -1198l337 1198h183z" />
    <glyph glyph-name="wdieresis" unicode="&#x1e85;" horiz-adv-x="1628" 
d="M758 1481v-224h-174v224h174zM1061 1481v-224h-176v224h176zM1556 1059l-317 -1059h-182l-246 795l-231 -795h-181l-327 1059h168l245 -828h17l243 828h138l254 -826h16l236 826h167z" />
    <glyph glyph-name="uni1E92" unicode="&#x1e92;" horiz-adv-x="1286" 
d="M111 0v100l817 1223h-785v158h1035v-97l-824 -1226h820v-158h-1063zM743 -133v-166q0 -18 -6 -24.5t-24 -6.5h-107q-14 0 -19 6.5t-5 20.5v168q0 15 4 20.5t14 5.5h125q10 0 14 -5t4 -19z" />
    <glyph glyph-name="uni1E93" unicode="&#x1e93;" horiz-adv-x="983" 
d="M94 0v113l615 821h-570v125h785v-115l-613 -819h623v-125h-840zM604 -133v-166q0 -18 -6.5 -24.5t-24.5 -6.5h-106q-25 0 -25 27v168q0 15 4 20.5t15 5.5h125q18 0 18 -24z" />
    <glyph glyph-name="uni1EB8" unicode="&#x1eb8;" horiz-adv-x="1282" 
d="M199 0v1481h925v-160h-745v-494h674v-159h-674v-504l766 -2v-162h-946zM788 -133v-166q0 -18 -6 -24.5t-24 -6.5h-107q-14 0 -19 6.5t-5 20.5v168q0 15 4 20.5t14 5.5h125q10 0 14 -5t4 -19z" />
    <glyph glyph-name="uni1EB9" unicode="&#x1eb9;" horiz-adv-x="1163" 
d="M287 485q0 -104 33 -184.5t104.5 -130t173.5 -49.5q208 0 270 186h170q-37 -159 -157.5 -243t-280.5 -84q-223 0 -358.5 144t-135.5 394q0 255 128 408t354 153q218 0 337 -139.5t119 -384.5v-70h-757zM289 610h583q0 148 -72.5 239t-213.5 91q-97 0 -166.5 -49.5
t-100.5 -122.5t-30 -158zM657 -133v-166q0 -18 -6 -24.5t-24 -6.5h-105q-16 0 -21 6t-5 21v168q0 15 4 20.5t14 5.5h125q10 0 14 -5t4 -19z" />
    <glyph glyph-name="uni1EBC" unicode="&#x1ebc;" horiz-adv-x="1282" 
d="M971 1772q-71 -46 -154 -46q-58 0 -136 27t-122 27q-27 0 -52 -8t-35 -14t-36 -23q-21 -12 -28 10l-19 57q-8 17 6 29q40 31 73.5 46t82.5 15q50 0 136 -27.5t130 -27.5q49 0 117 39q24 15 33 -8l18 -68q8 -14 -14 -28zM199 0v1481h925v-160h-745v-494h674v-159h-674
v-504l766 -2v-162h-946z" />
    <glyph glyph-name="uni1EBD" unicode="&#x1ebd;" horiz-adv-x="1163" 
d="M874 1350q-70 -45 -153 -45q-57 0 -135.5 26.5t-122.5 26.5q-27 0 -50.5 -7.5t-36 -15t-34.5 -22.5q-12 -7 -18.5 -5t-10.5 15l-20 57q-6 19 8 29q37 30 71 45.5t83 15.5q51 0 136.5 -27.5t129.5 -27.5q49 0 117 39q23 15 32 -8l21 -68q6 -14 -17 -28zM287 485
q0 -104 33 -184.5t104.5 -130t173.5 -49.5q208 0 270 186h170q-37 -159 -157.5 -243t-280.5 -84q-223 0 -358.5 144t-135.5 394q0 255 128 408t354 153q218 0 337 -139.5t119 -384.5v-70h-757zM289 610h583q0 148 -72.5 239t-213.5 91q-97 0 -166.5 -49.5t-100.5 -122.5
t-30 -158z" />
    <glyph glyph-name="uni1ECA" unicode="&#x1eca;" horiz-adv-x="571" 
d="M199 1481h180v-1481h-180v1481zM379 -133v-166q0 -18 -6.5 -24.5t-24.5 -6.5h-106q-25 0 -25 27v168q0 15 4 20.5t15 5.5h124q19 0 19 -24z" />
    <glyph glyph-name="uni1ECB" unicode="&#x1ecb;" horiz-adv-x="567" 
d="M362 1522v-240h-192v240h192zM356 1059v-1059h-180v1059h180zM399 -133v-166q0 -18 -6 -24.5t-24 -6.5h-107q-14 0 -19 6.5t-5 20.5v168q0 15 4 20.5t14 5.5h125q10 0 14 -5t4 -19z" />
    <glyph glyph-name="uni1ECC" unicode="&#x1ecc;" horiz-adv-x="1533" 
d="M768 -20q-299 0 -468 197.5t-169 557.5q0 362 171 564t468 202q296 0 465.5 -201t169.5 -563q0 -360 -169.5 -558.5t-467.5 -198.5zM772 137q212 0 324 147.5t112 450.5q0 307 -113 457.5t-325 150.5q-214 0 -328 -151t-114 -457q0 -303 114.5 -450.5t329.5 -147.5z
M854 -133v-166q0 -18 -6.5 -24.5t-24.5 -6.5h-106q-25 0 -25 27v168q0 15 4 20.5t15 5.5h125q10 0 14 -5t4 -19z" />
    <glyph glyph-name="uni1ECD" unicode="&#x1ecd;" horiz-adv-x="1157" 
d="M580 -20q-225 0 -353.5 149t-128.5 393q0 249 130.5 403t353.5 154q222 0 350.5 -153.5t128.5 -401.5q0 -160 -56.5 -282.5t-166 -192t-258.5 -69.5zM584 123q148 0 222.5 112.5t74.5 294.5q0 119 -31 208.5t-99.5 143.5t-168.5 54q-150 0 -228 -112.5t-78 -293.5
q0 -118 32 -207.5t103 -144.5t173 -55zM657 -133v-166q0 -18 -6 -24.5t-24 -6.5h-107q-14 0 -19 6.5t-5 20.5v168q0 15 4 20.5t14 5.5h125q10 0 14 -5t4 -19z" />
    <glyph glyph-name="uni1EE4" unicode="&#x1ee4;" horiz-adv-x="1421" 
d="M1278 506q0 -259 -130.5 -392.5t-406.5 -133.5q-280 0 -408 136.5t-128 411.5v953h186v-981q0 -180 89.5 -271.5t260.5 -91.5q173 0 265 90.5t92 272.5v981h180v-975zM815 -133v-166q0 -17 -7 -24t-24 -7h-106q-27 0 -27 27v168q0 26 19 26h125q20 0 20 -24z" />
    <glyph glyph-name="uni1EE5" unicode="&#x1ee5;" 
d="M559 -18q-55 0 -109 12t-106.5 39.5t-92.5 68t-64.5 102.5t-24.5 138v719h180v-701q0 -52 15.5 -93.5t40.5 -68t59 -44t68.5 -24.5t70.5 -7q109 0 186 65.5t78 182.5v690h180l-2 -1059h-143l-14 215q-13 -65 -45.5 -112.5t-77.5 -73.5t-94.5 -38t-104.5 -11zM680 -133
v-166q0 -18 -6.5 -24.5t-24.5 -6.5h-106q-25 0 -25 27v168q0 15 4 20.5t15 5.5h125q10 0 14 -5t4 -19z" />
    <glyph glyph-name="Ygrave" unicode="&#x1ef2;" horiz-adv-x="1224" 
d="M371 1921l497 -197l-30 -94l-514 152zM1204 1481l-499 -850v-631h-181v633l-504 848h197l397 -688l394 688h196z" />
    <glyph glyph-name="ygrave" unicode="&#x1ef3;" horiz-adv-x="1101" 
d="M317 1499l498 -196l-31 -95l-514 152zM264 -338q-55 0 -95 6t-53 12l-12 7v116l109 -2q55 -1 95.5 8.5t64 29.5t35 37.5t22.5 43.5l39 103l-414 1036h183l317 -830l315 830h174l-446 -1145q-57 -140 -138 -196t-196 -56z" />
    <glyph glyph-name="uni1EF8" unicode="&#x1ef8;" horiz-adv-x="1224" 
d="M909 1772q-71 -46 -153 -46q-58 0 -136 27t-122 27q-27 0 -52 -8t-35 -14t-36 -23q-22 -12 -29 10l-18 57q-8 17 6 29q40 31 73 46t82 15q50 0 136.5 -27.5t130.5 -27.5q48 0 116 39q24 15 33 -8l19 -68q8 -14 -15 -28zM1204 1481l-499 -850v-631h-181v633l-504 848h197
l397 -688l394 688h196z" />
    <glyph glyph-name="uni1EF9" unicode="&#x1ef9;" horiz-adv-x="1101" 
d="M856 1350q-70 -45 -154 -45q-58 0 -136 26.5t-122 26.5q-10 0 -18.5 -0.5t-17 -2.5t-14.5 -3t-14 -5t-11.5 -5.5t-12.5 -7t-11 -6.5t-12 -7.5t-11 -7.5q-22 -12 -29 10l-19 57q-8 16 7 29q40 31 73 46t82 15q50 0 136 -27.5t130 -27.5q49 0 117 39q24 15 33 -8l18 -68
q8 -14 -14 -28zM264 -338q-55 0 -95 6t-53 12l-12 7v116l109 -2q55 -1 95.5 8.5t64 29.5t35 37.5t22.5 43.5l39 103l-414 1036h183l317 -830l315 830h174l-446 -1145q-57 -140 -138 -196t-196 -56z" />
    <glyph glyph-name="endash" unicode="&#x2013;" horiz-adv-x="1146" 
d="M1010 586v-142l-877 -2v142z" />
    <glyph glyph-name="emdash" unicode="&#x2014;" horiz-adv-x="1792" 
d="M1653 586v-142l-1520 -2v142z" />
    <glyph glyph-name="quoteleft" unicode="&#x2018;" horiz-adv-x="493" 
d="M365 1546l-113 -252l86 -4v-219h-229v191l170 284h86z" />
    <glyph glyph-name="quoteright" unicode="&#x2019;" horiz-adv-x="446" 
d="M104 1006l113 251l-86 5v219h229v-191l-170 -284h-86z" />
    <glyph glyph-name="quotesinglbase" unicode="&#x201a;" horiz-adv-x="475" 
d="M98 -254l113 252l-86 4v221h229v-192l-170 -285h-86z" />
    <glyph glyph-name="quotedblleft" unicode="&#x201c;" horiz-adv-x="847" 
d="M121 1006v192l172 283h86l-115 -250l86 -4v-221h-229zM481 1006v192l172 283h86l-114 -250l88 -4v-221h-232z" />
    <glyph glyph-name="quotedblright" unicode="&#x201d;" horiz-adv-x="864" 
d="M104 1006l113 251l-86 5v219h229v-191l-170 -284h-86zM463 1006l115 251l-86 5v219h229v-191l-172 -284h-86z" />
    <glyph glyph-name="quotedblbase" unicode="&#x201e;" horiz-adv-x="888" 
d="M119 -254l112 252l-86 4v221h230v-192l-170 -285h-86zM487 -254l115 252l-88 4v221h231v-192l-172 -285h-86z" />
    <glyph glyph-name="dagger" unicode="&#x2020;" horiz-adv-x="931" 
d="M893 967v-170l-373 26l39 -1153h-188l35 1153l-373 -26v170l364 -23l-28 537h190l-31 -537z" />
    <glyph glyph-name="daggerdbl" unicode="&#x2021;" horiz-adv-x="931" 
d="M522 809v-494l371 29v-172l-365 25l31 -527h-190l28 527l-364 -25v172l370 -29v494l-370 -25v168l364 -22l-28 551h190l-31 -551l365 22v-168z" />
    <glyph glyph-name="bullet" unicode="&#x2022;" horiz-adv-x="655" 
d="M324 557q-82 0 -138.5 57.5t-56.5 139.5q0 80 57 137t138 57q80 0 137 -57t57 -137q0 -82 -57 -139.5t-137 -57.5z" />
    <glyph glyph-name="ellipsis" unicode="&#x2026;" horiz-adv-x="1548" 
d="M358 233v-233h-217v233h217zM905 233v-233h-217v233h217zM1454 233v-233h-217v233h217z" />
    <glyph glyph-name="perthousand" unicode="&#x2030;" horiz-adv-x="2676" 
d="M467 1503q151 0 247.5 -116t96.5 -308q0 -193 -95.5 -307.5t-248.5 -114.5t-251.5 115t-98.5 307t98.5 308t251.5 116zM1528 1497l-996 -1505l-122 2l999 1503h119zM465 760q98 0 153.5 87t55.5 232q0 147 -56 235.5t-153 88.5q-98 0 -153.5 -89.5t-55.5 -234.5
t55.5 -232t153.5 -87zM1391 827q151 0 247.5 -116.5t96.5 -307.5q0 -194 -95.5 -308.5t-248.5 -114.5q-155 0 -253 115t-98 308q0 191 99 307.5t252 116.5zM2208 827q151 0 247.5 -116.5t96.5 -307.5q0 -194 -95.5 -308.5t-248.5 -114.5q-155 0 -252.5 114.5t-97.5 308.5
q0 191 98.5 307.5t251.5 116.5zM1389 84q95 0 151.5 88.5t56.5 228.5q0 143 -57 233.5t-151 90.5q-95 0 -152 -91t-57 -233q0 -140 57 -228.5t152 -88.5zM2206 84q95 0 152 88.5t57 228.5q0 143 -57.5 233.5t-151.5 90.5q-95 0 -152 -91t-57 -233q0 -140 57 -228.5
t152 -88.5z" />
    <glyph glyph-name="guilsinglleft" unicode="&#x2039;" horiz-adv-x="567" 
d="M248 514l207 -369h-101l-270 369l270 385h105z" />
    <glyph glyph-name="guilsinglright" unicode="&#x203a;" horiz-adv-x="569" 
d="M315 514l-211 385h103l270 -385l-268 -369h-103z" />
    <glyph glyph-name="fraction" unicode="&#x2044;" horiz-adv-x="520" 
d="M813 1497l-995 -1505l-123 2l997 1503h121z" />
    <glyph glyph-name="uni2070" unicode="&#x2070;" horiz-adv-x="847" 
d="M387 1729q156 0 253 -125t97 -357q0 -229 -96 -352t-254 -123t-253 122t-95 353t96.5 356.5t251.5 125.5zM389 870q106 0 164.5 91.5t58.5 285.5q0 197 -59.5 291t-165.5 94q-104 0 -163.5 -95t-59.5 -290q0 -192 59.5 -284.5t165.5 -92.5z" />
    <glyph glyph-name="uni2074" unicode="&#x2074;" horiz-adv-x="847" 
d="M485 1710h115v-590h145v-100h-145v-242h-113v242h-436v106zM170 1120h315v424z" />
    <glyph glyph-name="uni2075" unicode="&#x2075;" horiz-adv-x="817" 
d="M152 1710h561l-8 -98h-455l-27 -307q45 22 69.5 32.5t67 20.5t86.5 10q135 0 224.5 -72.5t89.5 -212.5q0 -148 -99.5 -232.5t-259.5 -84.5q-102 0 -191 38.5t-149 108.5l84 66q62 -62 113 -90.5t129 -28.5q116 0 182 60.5t66 158.5q0 93 -59 143t-152 50q-40 0 -81 -12
t-66.5 -25t-63.5 -35q-4 -3 -7 -4t-4 -0.5t-5 3t-7 3.5l-77 45z" />
    <glyph glyph-name="uni2076" unicode="&#x2076;" horiz-adv-x="823" 
d="M408 1741q111 0 186.5 -51.5t99.5 -135.5l-96 -26q-33 58 -75 87.5t-113 29.5q-127 0 -192 -116t-56 -331q26 71 94 113.5t152 42.5q138 0 217.5 -80t79.5 -201q0 -130 -90.5 -209.5t-229.5 -79.5q-164 0 -257 122.5t-93 340.5q0 231 99 362.5t274 131.5zM391 1262
q-87 0 -150 -46.5t-63 -119.5q38 -219 207 -219q85 0 142 54t57 138q0 81 -53.5 137t-139.5 56z" />
    <glyph glyph-name="uni2077" unicode="&#x2077;" horiz-adv-x="745" 
d="M68 1710h651v-117q-123 -170 -232.5 -419.5t-126.5 -395.5h-127q29 161 123.5 394t243.5 440h-532v98z" />
    <glyph glyph-name="uni2078" unicode="&#x2078;" horiz-adv-x="817" 
d="M387 1731q138 0 223.5 -71t85.5 -185q0 -47 -18 -87t-46.5 -65t-46 -37t-34.5 -20q1 -1 20 -9l28.5 -12t30 -16t32 -23t28 -29t25.5 -38t15.5 -47t6.5 -58q0 -119 -96.5 -189.5t-257.5 -70.5q-158 0 -249 64t-91 180q0 68 42.5 129.5t131.5 101.5q-13 5 -25.5 11t-37 24
t-42 39.5t-31 58t-13.5 78.5q0 115 90 193t229 78zM389 1638q-85 0 -142 -48t-57 -120q0 -112 127 -139l125 -31q39 -8 91.5 50.5t52.5 124.5q0 73 -53.5 118t-143.5 45zM389 866q103 0 163 44.5t60 119.5q0 111 -131 144l-157 38q-42 12 -105 -45t-63 -135t60.5 -122
t172.5 -44z" />
    <glyph glyph-name="uni2079" unicode="&#x2079;" horiz-adv-x="823" 
d="M338 776q-109 0 -186 52.5t-101 134.5l99 26q32 -58 73 -88.5t111 -30.5q130 0 199 113.5t59 337.5q-23 -73 -91 -117.5t-157 -44.5q-139 0 -221 80t-82 205q0 130 90 209.5t229 79.5q165 0 259 -122.5t94 -340.5q0 -237 -99.5 -365.5t-275.5 -128.5zM354 1255
q86 0 149.5 48.5t63.5 117.5q-34 217 -205 217q-87 0 -141.5 -53t-54.5 -137q0 -81 51.5 -137t136.5 -56z" />
    <glyph glyph-name="colonmonetary" unicode="&#x20a1;" horiz-adv-x="1200" 
d="M618 328q97 0 165 56t89 148h158q-22 -142 -111.5 -227t-222.5 -108l-53 -197l-119 2l51 191q-65 3 -114 20l-58 -213l-116 2l67 258q-108 68 -167.5 191.5t-59.5 283.5q0 205 94.5 350t257.5 189l56 205l118 2l-49 -191h6q56 0 109 -12l55 201l117 2l-64 -242
q82 -44 136 -121t67 -178l-160 -2q-26 99 -92.5 153t-159.5 54q-147 0 -233 -110t-86 -296q0 -188 86 -299.5t233 -111.5z" />
    <glyph glyph-name="franc" unicode="&#x20a3;" horiz-adv-x="1251" 
d="M1143 1325h-754v-524h639v-154h-639v-256h336v-115h-336v-276h-205v274h-190v117h190v1090h961z" />
    <glyph glyph-name="lira" unicode="&#x20a4;" horiz-adv-x="1259" 
d="M1153 283q-45 -138 -151.5 -210.5t-258.5 -72.5h-708v156h78q76 -2 127 66.5t55 201.5q3 29 0 78q-3 12 -16 12h-220v115h220l-31 184h-189v117h170l-8 59q-18 112 -3 197t50.5 145t94 98t126.5 55t148 17q133 0 251.5 -67t162.5 -170l-162 -60q-68 142 -230 142
q-108 0 -178.5 -62.5t-70.5 -169.5q0 -22 20 -166q3 -18 23 -18h325v-115l-325 -2l28 -184h297v-115h-293q2 -98 -27.5 -196t-90.5 -160h366q105 0 169 38t97 128z" />
    <glyph glyph-name="uni20A6" unicode="&#x20a6;" horiz-adv-x="1503" 
d="M1481 895h-101v-260h101v-109h-101v-526h-161l-357 526l-446 -2v-524h-178v524h-220v109h220v260h-220v108h220v480h170l325 -480l467 3v477h180v-477h101v-109zM416 1182v-181h123zM1200 635v260h-393l176 -260h217zM416 633l372 2l-176 258h-196v-260zM1200 315v211
h-143z" />
    <glyph glyph-name="uni20A9" unicode="&#x20a9;" horiz-adv-x="2136" 
d="M2105 971h-274l-59 -205h333v-115h-368l-189 -651h-170l-184 651l-293 -2l-186 -649h-164l-186 649h-330v115h297l-60 205h-237v114h205l-115 398h182l111 -398h448l113 398h141l113 -396h453l112 396h180l-114 -396h241v-114zM1049 1163l-23 -80l45 2zM1595 766l58 205
h-389l59 -205h272zM934 764l227 2l-57 205l-111 -2zM449 969l57 -205h270l58 205h-385zM1458 283l105 368h-209zM639 283l104 366h-206z" />
    <glyph glyph-name="dong" unicode="&#x20ab;" horiz-adv-x="1040" 
d="M877 1352h127v-99h-127v-983h-152v121q-23 -27 -39.5 -43.5t-51 -42t-81.5 -38.5t-104 -13q-159 0 -261 113.5t-102 322.5q0 208 107 336.5t274 128.5q76 0 128 -24.5t101 -69.5q10 -7 15.5 -8t7.5 3.5t2 16.5v180h-275v99h275v127h156v-127zM717 551v385q-95 98 -209 98
t-184 -88t-70 -250q0 -163 69 -245t179 -82q91 0 153 57t62 125zM133 0v104h752v-104h-752z" />
    <glyph glyph-name="Euro" unicode="&#x20ac;" horiz-adv-x="1232" 
d="M1049 242l100 -117q-166 -145 -375 -145q-240 0 -397 143t-205 399h-186v117h172q-4 66 -4 104q0 39 4 105h-172v115h186q47 255 203 396.5t391 141.5q107 0 205 -38.5t172 -108.5l-125 -115q-120 107 -238 107q-327 0 -397 -383l410 2v-115l-424 -2q-4 -66 -4 -107
q0 -36 4 -102h424v-115l-410 -2q74 -381 412 -381q70 0 137.5 28.5t116.5 72.5z" />
    <glyph glyph-name="uni20B9" unicode="&#x20b9;" horiz-adv-x="1191" 
d="M1149 1483v-109h-283q95 -79 113 -205h170v-108h-168q-14 -133 -94 -214t-195 -118q-14 -4 -6 -20l270 -709h-221l-252 692h-460v144h391q167 0 253 53t101 172l-743 -2v108l741 2q-34 197 -309 197h-434v115z" />
    <glyph glyph-name="uni20BA" unicode="&#x20ba;" horiz-adv-x="1155" 
d="M958 510l168 -39q-75 -224 -231.5 -347.5t-396.5 -123.5h-252v455l-154 -56l-41 119l195 72v198l-166 -59l-43 117l209 76v559h205v-484l278 101l45 -117l-323 -117v-200l290 106l43 -119l-333 -121v-372h100q140 2 240 86.5t167 265.5z" />
    <glyph glyph-name="uni2113" unicode="&#x2113;" horiz-adv-x="1028" 
d="M395 408q0 -154 45.5 -218.5t141.5 -64.5q83 0 145 43l-172 -188q-65 0 -117 15.5t-85.5 44t-57 59.5t-37.5 71.5t-21.5 69t-13.5 64t-8 44.5q-2 12 -10 4l-96 -67l-56 112l160 117v518q0 230 101 349.5t261 119.5q144 0 217.5 -88.5t73.5 -232.5q0 -62 -15.5 -124
t-38 -114t-63 -111t-75 -101t-90.5 -98.5t-92.5 -90.5t-96.5 -88v-45zM395 997v-376q338 300 338 579q0 84 -37 129t-110 45q-95 0 -143 -85.5t-48 -291.5zM727 168l125 137l-12 -16q-67 -90 -113 -121z" />
    <glyph glyph-name="uni2116" unicode="&#x2116;" horiz-adv-x="2369" 
d="M1950 1499q147 0 234 -95.5t87 -250.5q0 -152 -86.5 -246t-234.5 -94t-233 94t-85 246q0 155 87.5 250.5t230.5 95.5zM1163 1481h178v-1481h-159l-803 1182v-1182h-180v1481h170l794 -1166v1166zM1950 1403q-89 0 -136 -64t-47 -180q0 -120 46.5 -185t136.5 -65
q91 0 138.5 65t47.5 185q0 116 -47.5 180t-138.5 64z" />
    <glyph glyph-name="uni2117" unicode="&#x2117;" horiz-adv-x="1683" 
d="M840 -20q-208 0 -383 101t-277 276.5t-102 383.5q0 154 60 294.5t162 242.5t243.5 162.5t296.5 60.5q154 0 294.5 -60.5t242 -162.5t162 -242.5t60.5 -294.5q0 -156 -60 -297.5t-162 -242.5t-242.5 -161t-294.5 -60zM840 104q172 0 314 77t228 224t86 336
q0 140 -50 260.5t-135.5 203t-200 129t-242.5 46.5q-176 0 -319 -79t-227.5 -226t-84.5 -334q0 -190 84.5 -336.5t227.5 -223.5t319 -77zM1178 909q0 -124 -78 -190t-207 -66h-193v-313h-131v795h312q135 0 216 -56.5t81 -169.5zM1044 895q0 137 -170 137h-174v-276h183
q71 0 116 35.5t45 103.5z" />
    <glyph glyph-name="uni2120" unicode="&#x2120;" horiz-adv-x="2019" 
d="M446 -12q-90 0 -167.5 27t-132 84.5t-66.5 136.5l117 8q18 -77 86.5 -119.5t162.5 -42.5q103 0 169.5 42.5t66.5 111.5q0 124 -164 163l-186 43q-223 50 -223 226q-1 119 92.5 194.5t240.5 75.5q153 0 243 -76t101 -186l-114 -6q-14 90 -76 131t-154 41
q-86 0 -149.5 -43.5t-63.5 -118.5q0 -53 36 -84.5t128 -54.5l180 -43q66 -15 113 -43.5t70.5 -65.5t34 -73.5t10.5 -77.5q0 -108 -96 -179t-259 -71zM1012 0v926h155l285 -774l289 774h153v-926h-114v752l-275 -752h-106l-271 745v-745h-116z" />
    <glyph glyph-name="trademark" unicode="&#x2122;" horiz-adv-x="1869" 
d="M20 821v105h697v-105h-283v-821h-112v821h-302zM862 0v926h156l285 -774l288 774h154v-926h-117v752l-272 -752h-107l-270 745v-745h-117z" />
    <glyph glyph-name="uni2153" unicode="&#x2153;" horiz-adv-x="1947" 
d="M188 565v799l-180 -66v88l221 111h76v-932h-117zM1427 1497l-995 -1505l-123 2l998 1503h120zM1223 754q20 63 71 105.5t114.5 60.5t137.5 18q140 0 230 -67t90 -169q0 -150 -180 -213q96 -25 152 -86.5t56 -150.5q0 -118 -100.5 -194t-257.5 -76q-129 0 -212.5 42
t-127.5 144l102 25q76 -115 234 -115q108 0 171.5 48.5t63.5 123.5q0 82 -68 131t-161 51h-127v94l107 2q96 2 160.5 49t64.5 117q0 64 -56.5 107t-140.5 43q-157 0 -223 -115z" />
    <glyph glyph-name="uni2154" unicode="&#x2154;" horiz-adv-x="2115" 
d="M43 571v99l301 293q111 104 152 163.5t41 124.5q0 82 -55 123t-128 41q-68 0 -126 -32t-91 -99l-100 25q36 99 117.5 153t203.5 54q132 0 214.5 -71t82.5 -194q0 -78 -42 -144.5t-154 -178.5l-258 -256h465v-101h-623zM1595 1497l-995 -1505l-123 2l998 1503h120z
M1391 754q20 63 71 105.5t114.5 60.5t137.5 18q140 0 230 -67t90 -169q0 -150 -181 -213q96 -25 152.5 -86.5t56.5 -150.5q0 -118 -100.5 -194t-257.5 -76q-129 0 -212.5 42t-127.5 144l102 25q76 -115 234 -115q108 0 171.5 48.5t63.5 123.5q0 82 -68 131t-161 51h-127v94
l107 2q96 2 160.5 49t64.5 117q0 64 -56.5 107t-140.5 43q-157 0 -223 -115z" />
    <glyph glyph-name="oneeighth" unicode="&#x215b;" horiz-adv-x="1951" 
d="M188 565v799l-180 -66v88l221 111h76v-932h-117zM1427 1497l-995 -1505l-123 2l998 1503h120zM1522 936q138 0 223.5 -71t85.5 -185q0 -47 -18 -87t-46.5 -65t-46 -37t-34.5 -20q2 -1 20.5 -8.5t28 -12t29.5 -16.5t32.5 -22.5t28.5 -29t25 -38t15.5 -46.5t6.5 -58
q0 -119 -96.5 -189.5t-257.5 -70.5q-158 0 -249 63.5t-91 179.5q0 68 42.5 130t131.5 102q-14 5 -26 11t-37 24t-42 39.5t-31 58t-14 78.5q0 115 90 192.5t230 77.5zM1524 844q-85 0 -142 -48t-57 -120q0 -112 127 -139l125 -31q39 -8 91 50t52 124q0 73 -53 118.5
t-143 45.5zM1524 72q103 0 163 44.5t60 119.5q0 56 -31.5 91t-99.5 52l-158 39q-42 12 -105 -45t-63 -135t60.5 -122t173.5 -44z" />
    <glyph glyph-name="threeeighths" unicode="&#x215c;" horiz-adv-x="2150" 
d="M88 1331q20 63 71 105.5t115 61t138 18.5q140 0 229.5 -67t89.5 -169q0 -150 -180 -213q96 -25 152.5 -87t56.5 -151q0 -118 -101 -194t-258 -76q-129 0 -212.5 42t-127.5 144l103 25q76 -115 233 -115q108 0 172 48.5t64 123.5q0 82 -68.5 131.5t-161.5 51.5h-127v94
l107 2q96 2 160.5 49t64.5 117q0 64 -56 106.5t-140 42.5q-159 0 -224 -114zM1626 1497l-995 -1505l-123 2l997 1503h121zM1720 936q138 0 224 -71t86 -185q0 -38 -13.5 -72.5t-30.5 -56t-40.5 -40.5t-36 -26.5t-25.5 -13.5q2 -1 20.5 -8.5t28.5 -12t29.5 -16.5t32 -22.5
t28.5 -29t25.5 -38t16 -46.5t6.5 -58q0 -119 -97 -189.5t-258 -70.5q-158 0 -249 63.5t-91 179.5q0 68 42.5 130t131.5 102q-13 5 -25.5 11t-37 24t-42 39.5t-31 58t-13.5 78.5q0 115 89.5 192.5t229.5 77.5zM1722 844q-85 0 -141.5 -48t-56.5 -120q0 -112 127 -139l125 -31
q39 -8 91 50t52 124q0 73 -53.5 118.5t-143.5 45.5zM1722 72q103 0 163.5 44.5t60.5 119.5q0 56 -31.5 91t-99.5 52l-158 39q-42 12 -105 -45t-63 -135t60.5 -122t172.5 -44z" />
    <glyph glyph-name="fiveeighths" unicode="&#x215d;" horiz-adv-x="2154" 
d="M152 1497h561l-8 -98h-455l-27 -307q45 22 69.5 32.5t67 20.5t86.5 10q135 0 224.5 -72.5t89.5 -212.5q0 -148 -99.5 -232.5t-259.5 -84.5q-102 0 -191 38.5t-149 108.5l84 66q62 -62 113 -90.5t129 -28.5q116 0 182 60.5t66 158.5q0 93 -59 143t-152 50q-40 0 -81 -12
t-66.5 -25t-63.5 -35q-4 -3 -7 -4t-4 -0.5t-5 3t-7 3.5l-77 45zM1630 1497l-995 -1505l-123 2l997 1503h121zM1724 936q138 0 224 -71t86 -185q0 -38 -13.5 -72.5t-30.5 -56t-40.5 -40.5t-36 -26.5t-25.5 -13.5q2 -1 20.5 -8.5t28.5 -12t29.5 -16.5t32 -22.5t28.5 -29
t25.5 -38t16 -46.5t6.5 -58q0 -119 -97 -189.5t-258 -70.5q-158 0 -249 63.5t-91 179.5q0 68 42.5 130t131.5 102q-13 5 -25.5 11t-37 24t-42 39.5t-31 58t-13.5 78.5q0 115 89.5 192.5t229.5 77.5zM1726 844q-85 0 -141.5 -48t-56.5 -120q0 -112 127 -139l125 -31
q39 -8 91 50t52 124q0 73 -53.5 118.5t-143.5 45.5zM1726 72q103 0 163.5 44.5t60.5 119.5q0 56 -31.5 91t-99.5 52l-158 39q-42 12 -105 -45t-63 -135t60.5 -122t172.5 -44z" />
    <glyph glyph-name="seveneighths" unicode="&#x215e;" horiz-adv-x="2082" 
d="M1559 1497l-996 -1505l-123 2l998 1503h121zM68 1495h651v-117q-123 -170 -232.5 -419.5t-126.5 -395.5h-127q29 161 123.5 394t243.5 440h-532v98zM1653 936q138 0 223.5 -71t85.5 -185q0 -47 -18 -87t-46.5 -65t-46 -37t-34.5 -20q2 -1 20.5 -8.5t28 -12t29.5 -16.5
t32.5 -22.5t28.5 -29t25 -38t15.5 -46.5t6.5 -58q0 -119 -96.5 -189.5t-257.5 -70.5q-158 0 -249 63.5t-91 179.5q0 68 42.5 130t131.5 102q-14 5 -26 11t-37 24t-42 39.5t-31 58t-14 78.5q0 115 90 192.5t230 77.5zM1655 844q-85 0 -142 -48t-57 -120q0 -112 127 -139
l125 -31q39 -8 91 50t52 124q0 73 -53 118.5t-143 45.5zM1655 72q103 0 163 44.5t60 119.5q0 56 -31.5 91t-99.5 52l-158 39q-42 12 -105 -45t-63 -135t60.5 -122t173.5 -44z" />
    <glyph glyph-name="partialdiff" unicode="&#x2202;" horiz-adv-x="1206" 
d="M219 1253l-55 113q53 56 161.5 95.5t227.5 39.5q257 0 404 -192.5t147 -565.5q0 -362 -136.5 -562.5t-389.5 -200.5q-214 0 -346 134.5t-132 340.5q0 202 131 325t357 123q69 0 126 -14.5t90.5 -31.5t90.5 -52q29 -19 29 6q0 255 -106 398t-310 143q-63 0 -120.5 -16.5
t-87.5 -33t-81 -49.5zM563 123h2q136 0 232 120.5t116 317.5q3 31 0.5 45t-12.5 27q-44 55 -131 93t-176 38q-137 0 -224 -90.5t-87 -229.5q0 -136 81.5 -228.5t198.5 -92.5z" />
    <glyph glyph-name="emptyset" unicode="&#x2205;" horiz-adv-x="1189" 
d="M1067 1098l-123 -113q76 -110 76 -240q0 -177 -125.5 -302.5t-300.5 -125.5q-146 0 -268 97l-136 -125l-75 78l137 125q-84 114 -84 253q0 175 125 300.5t301 125.5q158 0 280 -106l121 111zM270 745q0 -99 56 -184l473 434q-90 74 -205 74q-134 0 -229 -95.5t-95 -228.5
zM920 745q0 91 -50 170l-469 -432q81 -63 193 -63q135 0 230.5 95t95.5 230z" />
    <glyph glyph-name="product" unicode="&#x220f;" horiz-adv-x="1337" 
d="M1296 1481v-158h-204v-1323h-191v1323h-471v-1323h-190v1323h-203v158h1259z" />
    <glyph glyph-name="summation" unicode="&#x2211;" horiz-adv-x="1081" 
d="M1024 0h-967v119l441 618l-414 613v131h903v-154h-655l391 -573l-426 -596h727v-158z" />
    <glyph glyph-name="minus" unicode="&#x2212;" horiz-adv-x="1142" 
d="M1008 815v-141h-877v139z" />
    <glyph glyph-name="uni2219" unicode="&#x2219;" horiz-adv-x="655" 
d="M324 629q-52 0 -88.5 36t-36.5 87q0 52 36 87t89 35q51 0 86.5 -35t35.5 -87q0 -51 -35.5 -87t-86.5 -36z" />
    <glyph glyph-name="radical" unicode="&#x221a;" horiz-adv-x="1300" 
d="M1296 1690l-528 -2020h-193l-339 924l-154 -59l-43 116l307 115l320 -905l473 1829h157z" />
    <glyph glyph-name="infinity" unicode="&#x221e;" horiz-adv-x="1490" 
d="M1384 561v-4q0 -155 -93 -246.5t-230 -91.5q-51 0 -93 13t-80.5 42.5t-63.5 55t-64 71.5q-11 11 -16.5 12t-18.5 -12q-2 -3 -21.5 -25t-34.5 -38t-45 -40.5t-58.5 -40t-69.5 -27t-84 -11.5q-130 0 -221 92t-91 238q0 148 93.5 239t240.5 91q52 0 93 -11t78.5 -38
t61 -49.5t64.5 -67.5q15 -15 24 -15t23 15q31 36 54 58t61.5 50.5t85 43t100.5 14.5q133 0 219 -87t86 -231zM420 354h6q64 0 125 45t102 103q20 28 19 40.5t-23 45.5q-56 82 -109.5 123t-121.5 41q-81 0 -131.5 -55t-50.5 -142q0 -88 53 -144.5t131 -56.5zM1073 752h-2
q-46 0 -92 -26.5t-74 -55t-67 -76.5q-33 -38 0 -80q113 -160 241 -160q78 0 124 60.5t46 138.5q0 81 -48.5 140t-127.5 59z" />
    <glyph glyph-name="integral" unicode="&#x222b;" horiz-adv-x="907" 
d="M319 1298q0 200 87.5 306t240.5 106q82 0 131 -12t101 -43l-43 -162q-51 27 -88 38t-84 11q-76 0 -123 -54.5t-47 -166.5q0 -214 40.5 -640.5t40.5 -612.5q0 -204 -87 -311t-234 -107q-81 0 -129 12t-102 43l45 160q87 -47 170 -47q73 0 119 54t46 169q0 212 -42 640
t-42 617z" />
    <glyph glyph-name="approxequal" unicode="&#x2248;" horiz-adv-x="1167" 
d="M1034 928q-37 -59 -103 -94t-153 -35q-65 0 -130 25.5t-127.5 51t-121.5 25.5q-120 0 -221 -113l-53 105q47 44 78.5 68.5t83.5 45.5t110 21q65 0 131.5 -26t129 -52t118.5 -26q122 0 205 110zM1034 524q-37 -59 -103 -95t-153 -36q-55 0 -109 16.5t-90 36t-85 36
t-95 16.5q-120 0 -221 -113l-53 104q70 68 129.5 102t142.5 34q52 0 105.5 -16.5t91.5 -37t87.5 -37t94.5 -16.5q118 0 205 111z" />
    <glyph glyph-name="notequal" unicode="&#x2260;" horiz-adv-x="1200" 
d="M1024 872h-340l-137 -313h477v-139l-541 -2l-129 -293h-108l131 293h-230v141h291l140 311h-431v142l494 2l123 274h104l-120 -274h276v-142z" />
    <glyph glyph-name="lessequal" unicode="&#x2264;" horiz-adv-x="1130" 
d="M981 639v-168l-856 336v166l856 340v-172l-639 -250zM989 258v-139l-876 2v139z" />
    <glyph glyph-name="greaterequal" unicode="&#x2265;" horiz-adv-x="1130" 
d="M141 639l641 252l-641 250v172l856 -340v-166l-856 -336v168zM133 258l877 2v-139l-877 -2v139z" />
    <glyph glyph-name="lozenge" unicode="&#x25ca;" horiz-adv-x="999" 
d="M575 0h-145l-330 739l340 742h146l329 -738zM510 1337l-250 -589l250 -607l248 598z" />
    <glyph glyph-name="i.loclTRK" horiz-adv-x="518" 
d="M358 1481v-238h-192v238h192zM350 1059v-1059h-180v1059h180z" />
    <glyph glyph-name="p.001" horiz-adv-x="1236" 
d="M184 -330v1389h178v-148q57 64 94 92q103 76 242 76q94 0 172.5 -33.5t138 -98t93 -167.5t33.5 -235q0 -266 -124.5 -415.5t-332.5 -149.5q-85 0 -158.5 29.5t-154.5 99.5v-439h-181zM629 113q145 0 233 111.5t88 316.5q0 105 -25 185t-68.5 126.5t-97.5 69t-118 22.5
q-120 0 -198 -77.5t-78 -184.5v-387q104 -182 264 -182z" />
    <glyph glyph-name="q.001" horiz-adv-x="1204" 
d="M1057 -330h-180v439q-81 -70 -154.5 -99.5t-159.5 -29.5q-208 0 -332.5 149.5t-124.5 415.5q0 260 121 397t314 137q65 0 119.5 -15t96 -43.5t63 -48t49.5 -50.5q7 -8 10 -11v148h178v-1389zM612 113q161 0 265 182v387q0 107 -78.5 184.5t-198.5 77.5q-64 0 -118 -22.5
t-97.5 -69t-68.5 -126.5t-25 -185q0 -205 88.5 -316.5t232.5 -111.5z" />
    <glyph glyph-name="l.ss01" horiz-adv-x="579" 
d="M199 0v1522h180v-1522h-180z" />
    <glyph glyph-name="zero.osf" horiz-adv-x="1314" 
d="M659 1501q120 0 220.5 -49t175 -142.5t116 -240t41.5 -332.5q0 -185 -41 -330t-115.5 -237t-175.5 -140t-223 -48q-250 0 -401.5 194t-151.5 559q0 186 41.5 332.5t116.5 241t175.5 143.5t221.5 49zM659 135q168 0 261.5 147t93.5 455q0 312 -95 461.5t-262 149.5
q-166 0 -261 -150.5t-95 -460.5q0 -307 95 -454.5t263 -147.5z" />
    <glyph glyph-name="one.osf" horiz-adv-x="794" 
d="M365 0v1270l-289 -103v138l354 176h121v-1481h-186z" />
    <glyph glyph-name="two.osf" horiz-adv-x="1191" 
d="M92 0v158l479 465q178 168 243 262t65 198q0 54 -17.5 98t-46 73.5t-67 49.5t-78.5 28.5t-82 8.5q-107 0 -198.5 -50.5t-143.5 -157.5l-162 38q58 159 188.5 244.5t323.5 85.5q211 0 341.5 -111.5t129.5 -308.5q0 -124 -67.5 -232t-243.5 -284l-410 -405h737v-160h-991z
" />
    <glyph glyph-name="three.osf" horiz-adv-x="1306" 
d="M135 1217q23 75 74.5 132t122 91t150 50.5t165.5 16.5q223 0 365.5 -106t142.5 -268q0 -238 -285 -336q152 -42 241 -141t89 -238q0 -189 -160 -310.5t-409 -121.5q-135 0 -234.5 26.5t-179 93.5t-127.5 177l164 41q123 -183 373 -183q171 0 271.5 76.5t100.5 196.5
q0 88 -53 155t-135 100t-178 33l-199 3v149l168 4q153 2 256 76.5t103 187.5q0 101 -91 168.5t-225 67.5q-248 0 -352 -182z" />
    <glyph glyph-name="four.osf" horiz-adv-x="1280" 
d="M782 1481h185v-936h229v-162h-229v-383h-181v383h-692v170zM283 545h499v672z" />
    <glyph glyph-name="five.osf" horiz-adv-x="1333" 
d="M248 1481h891l-13 -156h-725l-39 -489q70 35 108.5 52t107 33.5t139.5 16.5q101 0 189 -27.5t158 -81t110 -142t40 -202.5q0 -235 -157.5 -370t-411.5 -135q-164 0 -305 61t-236 174l134 104q47 -48 83 -78t82.5 -57.5t99.5 -40t118 -12.5q184 0 289.5 96.5t105.5 251.5
q0 149 -94 227t-240 78q-64 0 -130.5 -19.5t-104 -38t-101.5 -54.5q-6 -3 -9.5 -4.5t-6 -2.5t-5 0t-4 1.5t-5.5 3t-7 4.5l-123 69z" />
    <glyph glyph-name="six.osf" horiz-adv-x="1267" 
d="M694 1513q176 0 296.5 -81t156.5 -213l-152 -43q-36 60 -69.5 97t-92.5 63t-137 26q-201 0 -305.5 -185t-87.5 -526q41 114 148.5 181t242.5 67q111 0 201 -34.5t148.5 -95t90 -141t31.5 -173.5q0 -208 -143 -334.5t-365 -126.5q-262 0 -409.5 194.5t-147.5 542.5
q0 366 157.5 574t436.5 208zM668 752q-139 0 -238.5 -73.5t-99.5 -191.5q28 -172 110.5 -259t214.5 -87q137 0 227.5 85t90.5 218q0 131 -84.5 219.5t-220.5 88.5z" />
    <glyph glyph-name="seven.osf" horiz-adv-x="1183" 
d="M76 1481h1038v-185q-197 -272 -370 -667.5t-201 -628.5h-201q19 111 63 257t113 322.5t175.5 374.5t230.5 371h-848v156z" />
    <glyph glyph-name="eight.osf" horiz-adv-x="1282" 
d="M639 1501q220 0 354.5 -113t134.5 -296q0 -60 -21 -114t-47.5 -88t-64.5 -64.5t-57.5 -42t-40.5 -21.5q5 -2 29 -12t39 -17t41.5 -21t45 -28.5t42.5 -35.5t40 -46.5t30.5 -56t22 -69t7.5 -81.5q0 -191 -154 -303t-409 -112q-250 0 -395.5 102t-145.5 285q0 108 68 206
t209 164q-19 7 -40.5 17t-59.5 38t-66 62.5t-50 92t-22 124.5q0 183 143 306.5t367 123.5zM641 1354q-134 0 -224.5 -76t-90.5 -191q0 -174 200 -221l199 -49q39 -8 92.5 31t94 108.5t40.5 139.5q0 115 -85 186.5t-226 71.5zM641 129q163 0 258.5 69.5t95.5 188.5
q0 91 -49 146.5t-158 82.5l-253 62q-30 8 -74.5 -11.5t-87 -56.5t-73 -96t-30.5 -123q0 -124 96 -193t275 -69z" />
    <glyph glyph-name="nine.osf" horiz-adv-x="1267" 
d="M567 -18q-174 0 -295 81t-159 211l157 43q50 -90 115 -138t176 -48q207 0 317 180t95 537q-38 -119 -145.5 -189.5t-249.5 -70.5q-222 0 -352 128t-130 324q0 207 144 333t366 126q261 0 409 -194t148 -541q0 -376 -157 -579t-439 -203zM594 741q137 0 238.5 77
t101.5 188q-28 172 -111.5 259t-216.5 87q-135 0 -223 -85t-88 -218q0 -129 82.5 -218.5t216.5 -89.5z" />
    <glyph glyph-name="zero.tf" horiz-adv-x="1429" 
d="M731 1501q120 0 220.5 -49t175.5 -142.5t117 -240.5t42 -332t-41.5 -330t-116.5 -237t-175.5 -140t-221.5 -48q-122 0 -223 47.5t-175.5 140t-115.5 237t-41 328.5q0 186 42 332.5t117 241t175.5 143.5t220.5 49zM733 135q168 0 261 146.5t93 455.5q0 312 -94.5 461.5
t-261.5 149.5t-261.5 -150t-94.5 -461q0 -307 95 -454.5t263 -147.5z" />
    <glyph glyph-name="one.tf" horiz-adv-x="1429" 
d="M846 174h432v-174h-1071v174h446v1110l-430 -162v170l508 191h115v-1309z" />
    <glyph glyph-name="two.tf" horiz-adv-x="1429" 
d="M252 0v158l479 465q177 169 242 262.5t65 197.5q0 67 -26 118.5t-69.5 81t-93 44t-101.5 14.5q-108 0 -199.5 -50t-145.5 -158l-159 38q58 159 188.5 244.5t323.5 85.5q209 0 340 -111.5t131 -308.5q-1 -124 -69 -231.5t-245 -284.5l-407 -405h735v-160h-989z" />
    <glyph glyph-name="three.tf" horiz-adv-x="1429" 
d="M229 1208q24 75 76.5 132.5t122.5 92t149.5 51.5t165.5 17q223 0 365.5 -106.5t142.5 -268.5q0 -237 -286 -338q153 -41 242 -139t89 -237q0 -189 -160.5 -310.5t-410.5 -121.5q-203 0 -336 67.5t-203 228.5l164 41q120 -182 371 -182q174 0 274.5 76t100.5 197
q0 87 -53 154t-135.5 99.5t-178.5 32.5l-199 2v152l168 2q153 2 256 77t103 187q0 101 -91 168.5t-225 67.5q-251 0 -352 -183z" />
    <glyph glyph-name="four.tf" horiz-adv-x="1429" 
d="M895 1481h182v-936h232v-162h-232v-383h-180l2 383h-692v170zM395 545h500v672z" />
    <glyph glyph-name="five.tf" horiz-adv-x="1429" 
d="M330 1481h891l-13 -156h-723l-41 -489q77 37 111.5 52.5t103.5 32.5t140 17q102 0 190 -27.5t157.5 -81t109.5 -142t40 -202.5q0 -235 -157.5 -370t-411.5 -135q-162 0 -303 61t-236 174l131 104q65 -65 111.5 -101t116.5 -61.5t155 -25.5q186 0 292 96.5t106 251.5
q0 149 -94.5 227t-241.5 78q-64 0 -130.5 -19.5t-104 -38t-101.5 -54.5q-5 -3 -8.5 -4.5t-6 -2.5t-5 0t-4 1.5t-6 3t-7.5 4.5l-123 69z" />
    <glyph glyph-name="six.tf" horiz-adv-x="1429" 
d="M791 1513q176 0 296 -81t156 -213l-151 -43q-52 91 -119 138.5t-180 47.5q-201 0 -305 -185t-87 -526q39 114 147.5 181t242.5 67q220 0 346.5 -126t126.5 -318q0 -138 -67 -243.5t-182.5 -161.5t-260.5 -56q-262 0 -409.5 194.5t-147.5 542.5q0 366 157.5 574t436.5 208
zM766 752q-140 0 -240 -73.5t-100 -191.5q28 -172 111.5 -259t216.5 -87q136 0 226.5 85.5t90.5 217.5q0 130 -85 219t-220 89z" />
    <glyph glyph-name="seven.tf" horiz-adv-x="1429" 
d="M131 1481h1124v-185q-196 -272 -368.5 -667.5t-200.5 -628.5h-211q20 111 64 255t113 318.5t175 370.5t230 369h-926v168z" />
    <glyph glyph-name="eight.tf" horiz-adv-x="1429" 
d="M737 1501q220 0 355 -113t135 -296q0 -60 -21 -114t-47.5 -88t-64 -64.5t-57 -42t-40.5 -21.5q3 -1 33.5 -14t45 -20t47 -26t51 -36t44 -46t39.5 -59.5t24.5 -74t10.5 -91.5q0 -191 -153 -303t-408 -112q-251 0 -396 102t-145 285q0 70 27 135.5t90.5 128t159.5 106.5
q-19 7 -40.5 17t-59.5 38t-66 62.5t-50 92t-22 124.5q0 183 142.5 306.5t365.5 123.5zM739 1354q-134 0 -224.5 -76t-90.5 -191q0 -174 201 -221l200 -49q38 -8 91.5 31t94 109t40.5 139q0 115 -85.5 186.5t-226.5 71.5zM741 129q163 0 259 70t96 188q0 90 -50 146t-159 83
l-252 62q-30 8 -74.5 -11.5t-87 -56.5t-72.5 -96t-30 -123q0 -124 95 -193t275 -69z" />
    <glyph glyph-name="nine.tf" horiz-adv-x="1429" 
d="M674 -18q-176 0 -297.5 81t-157.5 211l156 43q24 -42 48 -72.5t58.5 -58t81 -41.5t105.5 -14q207 0 316.5 180t92.5 537q-37 -119 -144 -189.5t-249 -70.5q-223 0 -352 128t-129 324q0 138 66.5 243t181.5 160.5t260 55.5q262 0 409.5 -193.5t147.5 -541.5
q0 -377 -156 -579.5t-438 -202.5zM700 741q137 0 237.5 77t100.5 188q-26 171 -109.5 258.5t-215.5 87.5q-136 0 -225 -85t-89 -218q0 -129 83 -218.5t218 -89.5z" />
    <glyph glyph-name="zero.subs" horiz-adv-x="847" 
d="M387 596q157 0 253.5 -124.5t96.5 -356.5q0 -229 -96 -352t-254 -123t-253 122t-95 353q0 230 96.5 355.5t251.5 125.5zM389 -262q106 0 164.5 91.5t58.5 285.5q0 197 -59.5 291t-165.5 94q-104 0 -163.5 -95t-59.5 -290q0 -192 59.5 -284.5t165.5 -92.5z" />
    <glyph glyph-name="one.subs" horiz-adv-x="614" 
d="M188 -338v799l-180 -66v88l221 111h76v-932h-117z" />
    <glyph glyph-name="two.subs" horiz-adv-x="782" 
d="M43 -338v98l301 293q110 104 151.5 164t41.5 125q0 82 -55 123t-128 41q-68 0 -126 -32t-91 -99l-100 24q36 99 117.5 153t203.5 54q132 0 214.5 -70.5t82.5 -193.5q0 -78 -42.5 -145.5t-153.5 -178.5l-258 -256h465v-100h-623z" />
    <glyph glyph-name="three.subs" horiz-adv-x="813" 
d="M88 416q20 63 71.5 105.5t115 60.5t137.5 18q140 0 229.5 -66.5t89.5 -168.5q0 -150 -180 -213q96 -25 152.5 -87t56.5 -151q0 -118 -101 -194t-258 -76q-129 0 -212.5 42t-127.5 144l103 25q76 -115 233 -115q108 0 172 48.5t64 123.5q0 82 -68 131t-162 51h-127v94
l107 2q96 2 160.5 49t64.5 117q0 64 -56.5 107t-139.5 43q-158 0 -224 -115z" />
    <glyph glyph-name="four.subs" horiz-adv-x="847" 
d="M485 594h115v-590h145v-100h-145v-242h-113v242h-436v106zM170 4h315v424z" />
    <glyph glyph-name="five.subs" horiz-adv-x="817" 
d="M152 588h561l-8 -99h-455l-27 -307q47 23 70 33t66 20.5t87 10.5q135 0 224.5 -72.5t89.5 -212.5q0 -148 -99.5 -232.5t-259.5 -84.5q-102 0 -191 38.5t-149 108.5l84 66q62 -62 113 -90.5t129 -28.5q116 0 182 60.5t66 158.5q0 93 -59 143t-152 50q-40 0 -81 -12
t-66.5 -25t-63.5 -35q-4 -3 -7 -4t-4 -0.5t-5 3t-7 3.5l-77 45z" />
    <glyph glyph-name="six.subs" horiz-adv-x="823" 
d="M408 604q111 0 186.5 -51t99.5 -135l-96 -27q-33 58 -75 87.5t-113 29.5q-127 0 -192 -116t-56 -331q26 71 94 113.5t152 42.5q138 0 217.5 -79.5t79.5 -200.5q0 -130 -90.5 -209.5t-229.5 -79.5q-164 0 -257 122.5t-93 340.5q0 230 99 361.5t274 131.5zM391 125
q-87 0 -150 -46.5t-63 -119.5q38 -219 207 -219q85 0 142 54t57 138q0 81 -53.5 137t-139.5 56z" />
    <glyph glyph-name="seven.subs" horiz-adv-x="745" 
d="M68 594h651v-117q-123 -170 -232.5 -419.5t-126.5 -395.5h-127q29 161 123.5 394t243.5 440h-532v98z" />
    <glyph glyph-name="eight.subs" horiz-adv-x="817" 
d="M387 600q138 0 223.5 -71t85.5 -185q0 -47 -18 -87t-46.5 -65t-46 -37t-34.5 -20q2 -1 20.5 -8.5t28 -12t29.5 -16.5t32.5 -22.5t28.5 -29t25 -38t15.5 -46.5t6.5 -58q0 -119 -96.5 -189.5t-257.5 -70.5q-158 0 -249 63.5t-91 179.5q0 68 42.5 130t131.5 102
q-13 5 -25.5 11t-37 24t-42 39.5t-31 58t-13.5 78.5q0 115 89.5 192.5t229.5 77.5zM389 508q-85 0 -142 -48t-57 -120q0 -112 127 -139l125 -31q39 -8 91.5 50t52.5 124q0 73 -53.5 118.5t-143.5 45.5zM389 -264q103 0 163 44.5t60 119.5q0 56 -31.5 91t-99.5 52l-157 39
q-42 12 -105 -45t-63 -135t60.5 -122t172.5 -44z" />
    <glyph glyph-name="nine.subs" horiz-adv-x="823" 
d="M338 -360q-109 0 -186 52t-101 134l99 27q32 -58 73 -88.5t111 -30.5q130 0 199 113t59 337q-23 -73 -91 -117t-157 -44q-139 0 -221 80t-82 204q0 130 90 209.5t229 79.5q165 0 259 -122.5t94 -340.5q0 -237 -99 -365t-276 -128zM354 119q86 0 149.5 48.5t63.5 117.5
q-34 217 -205 217q-86 0 -141 -53t-55 -138q0 -81 51.5 -136.5t136.5 -55.5z" />
    <glyph glyph-name="zero.dnom" horiz-adv-x="847" 
d="M387 934q157 0 253.5 -124.5t96.5 -356.5q0 -229 -96 -352.5t-254 -123.5t-253 122.5t-95 353.5q0 230 96.5 355.5t251.5 125.5zM389 76q106 0 164.5 91.5t58.5 285.5q0 197 -59.5 291t-165.5 94q-104 0 -163.5 -95t-59.5 -290q0 -192 59.5 -284.5t165.5 -92.5z" />
    <glyph glyph-name="one.dnom" horiz-adv-x="614" 
d="M188 0v799l-180 -66v88l221 111h76v-932h-117z" />
    <glyph glyph-name="two.dnom" horiz-adv-x="782" 
d="M43 0v98l301 293q110 104 151.5 164t41.5 125q0 82 -55 123t-128 41q-68 0 -126 -32t-91 -99l-100 24q36 99 117.5 153t203.5 54q132 0 214.5 -70.5t82.5 -193.5q0 -78 -42.5 -145.5t-153.5 -178.5l-258 -256h465v-100h-623z" />
    <glyph glyph-name="three.dnom" horiz-adv-x="813" 
d="M88 754q20 63 71.5 105.5t115 60.5t137.5 18q140 0 229.5 -67t89.5 -169q0 -150 -180 -213q96 -25 152.5 -86.5t56.5 -150.5q0 -118 -101 -194t-258 -76q-129 0 -212.5 42t-127.5 144l103 25q76 -115 233 -115q108 0 172 48.5t64 123.5q0 82 -68 131t-162 51h-127v94
l107 2q96 2 160.5 49t64.5 117q0 64 -56.5 107t-139.5 43q-158 0 -224 -115z" />
    <glyph glyph-name="four.dnom" horiz-adv-x="847" 
d="M485 932h115v-590h145v-100h-145v-242h-113v242h-436v106zM170 342h315v424z" />
    <glyph glyph-name="five.dnom" horiz-adv-x="817" 
d="M152 926h561l-8 -99h-455l-27 -307q47 23 70 33t66 20.5t87 10.5q135 0 224.5 -72.5t89.5 -212.5q0 -148 -99.5 -232.5t-259.5 -84.5q-102 0 -191 38.5t-149 108.5l84 66q62 -62 113 -90.5t129 -28.5q116 0 182 60.5t66 158.5q0 93 -58.5 142.5t-152.5 49.5
q-58 0 -106 -18.5t-105 -52.5q-4 -3 -7 -4t-4 -0.5t-5 3t-7 3.5l-77 45z" />
    <glyph glyph-name="six.dnom" horiz-adv-x="823" 
d="M408 942q111 0 186.5 -51t99.5 -135l-96 -27q-33 58 -75 87.5t-113 29.5q-127 0 -192 -116t-56 -331q26 71 94 113.5t152 42.5q138 0 217.5 -80t79.5 -201q0 -130 -90.5 -209t-229.5 -79q-164 0 -257 122.5t-93 340.5q0 230 99 361.5t274 131.5zM391 463
q-87 0 -150 -46.5t-63 -119.5q38 -219 207 -219q85 0 142 54t57 138q0 81 -53.5 137t-139.5 56z" />
    <glyph glyph-name="seven.dnom" horiz-adv-x="745" 
d="M68 932h651v-117q-123 -170 -232.5 -419.5t-126.5 -395.5h-127q29 161 123.5 394t243.5 440h-532v98z" />
    <glyph glyph-name="eight.dnom" horiz-adv-x="817" 
d="M387 936q138 0 223.5 -71t85.5 -185q0 -47 -18 -87t-46.5 -65t-46 -37t-34.5 -20q2 -1 20.5 -8.5t28 -12t29.5 -16.5t32.5 -22.5t28.5 -29t25 -38t15.5 -46.5t6.5 -58q0 -119 -96.5 -189.5t-257.5 -70.5q-158 0 -249 63.5t-91 179.5q0 68 42.5 130t131.5 102
q-13 5 -25.5 11t-37 24t-42 39.5t-31 58t-13.5 78.5q0 115 89.5 192.5t229.5 77.5zM389 844q-85 0 -142 -48t-57 -120q0 -112 127 -139l125 -31q39 -8 91.5 50t52.5 124q0 73 -53.5 118.5t-143.5 45.5zM389 72q103 0 163 44.5t60 119.5q0 56 -31.5 91t-99.5 52l-157 39
q-42 12 -105 -45t-63 -135t60.5 -122t172.5 -44z" />
    <glyph glyph-name="nine.dnom" horiz-adv-x="823" 
d="M338 -23q-109 0 -186 52.5t-101 134.5l99 26q32 -57 73 -87.5t111 -30.5q130 0 199 113t59 337q-23 -73 -91 -117.5t-157 -44.5q-139 0 -221 80t-82 205q0 130 90 209.5t229 79.5q165 0 259 -122.5t94 -340.5q0 -237 -99.5 -365.5t-275.5 -128.5zM354 457
q86 0 149.5 48.5t63.5 117.5q-34 217 -205 217q-86 0 -141 -53t-55 -138q0 -81 51.5 -136.5t136.5 -55.5z" />
    <glyph glyph-name="zero.numr" horiz-adv-x="847" 
d="M387 1516q156 0 253 -125t97 -357q0 -229 -96 -352t-254 -123t-253 122t-95 353t96.5 356.5t251.5 125.5zM389 657q106 0 164.5 91.5t58.5 285.5q0 197 -59.5 291t-165.5 94q-104 0 -163.5 -95t-59.5 -290q0 -192 59.5 -284.5t165.5 -92.5z" />
    <glyph glyph-name="one.numr" horiz-adv-x="614" 
d="M188 565v799l-180 -66v88l221 111h76v-932h-117z" />
    <glyph glyph-name="two.numr" horiz-adv-x="782" 
d="M43 571v99l301 293q111 104 152 163.5t41 124.5q0 82 -55 123t-128 41q-68 0 -126 -32t-91 -99l-100 25q36 99 117.5 153t203.5 54q132 0 214.5 -71t82.5 -194q0 -78 -42 -144.5t-154 -178.5l-258 -256h465v-101h-623z" />
    <glyph glyph-name="three.numr" horiz-adv-x="813" 
d="M88 1331q20 63 71 105.5t115 61t138 18.5q140 0 229.5 -67t89.5 -169q0 -150 -180 -213q96 -25 152.5 -87t56.5 -151q0 -118 -101 -194t-258 -76q-129 0 -212.5 42t-127.5 144l103 25q76 -115 233 -115q108 0 172 48.5t64 123.5q0 82 -68.5 131.5t-161.5 51.5h-127v94
l107 2q96 2 160.5 49t64.5 117q0 64 -56 106.5t-140 42.5q-159 0 -224 -114z" />
    <glyph glyph-name="four.numr" horiz-adv-x="847" 
d="M485 1497h115v-590h145v-100h-145v-242h-113v242h-436v106zM170 907h315v424z" />
    <glyph glyph-name="five.numr" horiz-adv-x="817" 
d="M152 1497h561l-8 -98h-455l-27 -307q45 22 69.5 32.5t67 20.5t86.5 10q135 0 224.5 -72.5t89.5 -212.5q0 -148 -99.5 -232.5t-259.5 -84.5q-102 0 -191 38.5t-149 108.5l84 66q62 -62 113 -90.5t129 -28.5q116 0 182 60.5t66 158.5q0 93 -59 143t-152 50q-40 0 -81 -12
t-66.5 -25t-63.5 -35q-4 -3 -7 -4t-4 -0.5t-5 3t-7 3.5l-77 45z" />
    <glyph glyph-name="six.numr" horiz-adv-x="823" 
d="M408 1526q111 0 186.5 -51.5t99.5 -135.5l-96 -26q-33 58 -75 87.5t-113 29.5q-127 0 -192 -116t-56 -331q26 71 94 113.5t152 42.5q138 0 217.5 -80t79.5 -201q0 -130 -90.5 -209.5t-229.5 -79.5q-164 0 -257 122.5t-93 340.5q0 231 99 362.5t274 131.5zM391 1047
q-87 0 -150 -46.5t-63 -119.5q38 -219 207 -219q85 0 142 54t57 138q0 81 -53.5 137t-139.5 56z" />
    <glyph glyph-name="seven.numr" horiz-adv-x="745" 
d="M68 1495h651v-117q-123 -170 -232.5 -419.5t-126.5 -395.5h-127q29 161 123.5 394t243.5 440h-532v98z" />
    <glyph glyph-name="eight.numr" horiz-adv-x="817" 
d="M387 1516q138 0 223.5 -71t85.5 -185q0 -47 -18 -87t-46.5 -65t-46 -37t-34.5 -20q1 -1 20 -9l28.5 -12t30 -16t32 -23t28 -29t25.5 -38t15.5 -47t6.5 -58q0 -119 -96.5 -189.5t-257.5 -70.5q-158 0 -249 64t-91 180q0 68 42.5 129.5t131.5 101.5q-13 5 -25.5 11t-37 24
t-42 39.5t-31 58t-13.5 78.5q0 115 90 193t229 78zM389 1423q-85 0 -142 -48t-57 -120q0 -112 127 -139l125 -31q39 -8 91.5 50.5t52.5 124.5q0 73 -53.5 118t-143.5 45zM389 651q103 0 163 44.5t60 119.5q0 56 -31.5 91t-99.5 52l-157 39q-42 12 -105 -45t-63 -135
t60.5 -122t172.5 -44z" />
    <glyph glyph-name="nine.numr" horiz-adv-x="823" 
d="M338 561q-109 0 -186 52.5t-101 134.5l99 26q32 -58 73 -88.5t111 -30.5q130 0 199 113.5t59 337.5q-23 -73 -91 -117.5t-157 -44.5q-139 0 -221 80t-82 205q0 130 90 209.5t229 79.5q165 0 259 -122.5t94 -340.5q0 -237 -99.5 -365.5t-275.5 -128.5zM354 1040
q86 0 149.5 48.5t63.5 117.5q-34 217 -205 217q-87 0 -141.5 -53t-54.5 -137q0 -81 51.5 -137t136.5 -56z" />
    <glyph glyph-name="period.tf" horiz-adv-x="600" 
d="M438 233v-233h-217v233h217z" />
    <glyph glyph-name="comma.tf" horiz-adv-x="600" 
d="M199 -254l114 250l-88 4v221h232v-190l-172 -285h-86z" />
    <glyph glyph-name="bullet.uc" horiz-adv-x="655" 
d="M324 557q-82 0 -138.5 57.5t-56.5 139.5q0 80 57 137t138 57q80 0 137 -57t57 -137q0 -82 -57 -139.5t-137 -57.5z" />
    <glyph glyph-name="caroncomb.alt" horiz-adv-x="0" 
d="M-207 1087q-7 0 -11 6.5t-1 14.5l59 143q5 12 3.5 18t-11.5 9l-14 2q-23 3 -23 20v162q0 19 17 19h120q15 0 15 -15v-186q0 -4 -1 -8l-1 -4l-70 -160q-6 -21 -37 -21h-45z" />
    </font>
</defs>
</svg>
