<?xml version="1.0" standalone="no"?>
<!DOCTYPE svg PUBLIC "-//W3C//DTD SVG 1.1//EN" "http://www.w3.org/Graphics/SVG/1.1/DTD/svg11.dtd" >
<svg xmlns="http://www.w3.org/2000/svg" xmlns:xlink="http://www.w3.org/1999/xlink" version="1.1">
<metadata>
Created by FontForge 20201107 at Thu Jun 12 13:50:22 2025
 By 
copyright missing
</metadata>
<defs>
<font id="PublicSans-SemiBold" horiz-adv-x="1206" >
  <font-face 
    font-family="Public Sans SemiBold"
    font-weight="600"
    font-stretch="normal"
    units-per-em="2048"
    panose-1="0 0 7 0 0 0 0 0 0 0"
    ascent="1597"
    descent="-451"
    x-height="1059"
    cap-height="1481"
    bbox="-825 -481 2693 2023"
    underline-thickness="102"
    underline-position="-204"
    unicode-range="U+000D-FB02"
  />
<missing-glyph horiz-adv-x="1372" 
d="M1159 1692q37 0 37 -43v-1921q0 -31 -16.5 -44.5t-51.5 -13.5h-892q-31 0 -43.5 11.5t-12.5 37.5v1926q0 47 39 47h940zM1092 1556q0 15 -9 25t-22 10h-703l734 -1708v1673zM285 -188q0 -21 10 -31t35 -10h688l-733 1695v-1654z" />
    <glyph glyph-name="fi" unicode="fi" horiz-adv-x="1361" 
d="M1219 1522v-271h-258v271h258zM754 1059v-176h-238v-883h-250v883h-209v176h209v158q0 128 71 196t204 68h223v-170h-148q-60 0 -83 -30t-23 -99v-123h244zM1214 1059v-1059h-249v1059h249z" />
    <glyph glyph-name="fl" unicode="fl" horiz-adv-x="1458" 
d="M1264 -16q-79 0 -137 17.5t-90 44.5t-51 69.5t-24.5 81t-5.5 90.5v1235h246v-1209q0 -138 119 -149l53 -2v-156q-58 -22 -110 -22zM754 1059v-176h-238v-883h-250v883h-209v176h209v158q0 128 71 196t204 68h223v-170h-148q-60 0 -83 -30t-23 -99v-123h244z" />
    <glyph glyph-name="f_f.liga" unicode="ff" horiz-adv-x="1718" 
d="M1599 1059v-176h-239v-883h-250v883h-209v176h209v158q0 128 70.5 196t203.5 68h224l2 -170h-148q-60 0 -84 -30t-24 -99v-123h245zM770 1059v-176h-240v-883h-249v883h-211v176h211v135q0 127 70.5 195.5t201.5 68.5h225v-172h-147q-60 0 -83.5 -29.5t-23.5 -97.5v-100
h246z" />
    <glyph glyph-name="colon_one_eight_F_colon.liga" unicode="&#x3a;&#x31;&#x38;F&#x3a;" horiz-adv-x="1591" 
d="M41 1559h1509q23 0 23 -25v-1507q0 -27 -23 -27h-1509q-25 0 -25 27v1507q0 25 25 25zM770 479q71 0 122.5 52t51.5 124q0 93 -76 144q56 53 56 119q0 63 -46 108t-108 45q-67 0 -112.5 -44.5t-45.5 -108.5q0 -63 56 -119q-76 -51 -76 -144q0 -73 52 -124.5t126 -51.5z
M506 498v557q0 10 -8 10h-138q-8 0 -8 -10v-54q0 -8 8 -8h74v-495q0 -9 8 -9h56q8 0 8 9zM1262 1001v54q0 10 -9 10h-215q-8 0 -8 -10v-557q0 -9 8 -9h54q12 0 12 9v254h125q8 0 8 8v51q0 10 -8 10h-125v172h149q9 0 9 8zM770 836q-37 0 -61.5 23t-24.5 59q0 35 24.5 59
t61.5 24q34 0 58 -24t24 -59q0 -36 -24 -59t-58 -23zM770 760q43 0 72.5 -30.5t29.5 -74.5q0 -43 -29.5 -73.5t-72.5 -30.5q-44 0 -75 30.5t-31 73.5q0 44 31 74.5t75 30.5z" />
    <glyph glyph-name="colon_f_l_a_g_two_colon.liga" unicode="&#x3a;flag&#x32;&#x3a;" horiz-adv-x="2377" 
d="M96 1559h2185v-1557h-2185v1557zM2152 1321v109h-1095v-109h1095zM291 1198h127v121h-127v-121zM772 1198h125v121h-125v-121zM532 1079h125v119h-125v-119zM1057 1081h1095v113h-1095v-113zM293 958h125v121h-125v-121zM897 1079h-125v-121h125v121zM657 958h-125v-118
h125v118zM1057 842h1095v112h-1095v-112zM418 840h-125v-121h125v121zM897 840h-125v-121h125v121zM1057 602h1095v113h-1095v-113zM2152 475h-1931v-113h1931v113zM223 129h1929v107h-1929v-107z" />
    <glyph glyph-name="colon_f_l_a_g_colon.liga" unicode="&#x3a;flag&#x3a;" horiz-adv-x="2377" 
d="M96 1559h2185v-1557h-2185v1557zM2161 1438h-1946v-838h1946v119h-1106v121h1106v118h-1106v121h1106v119h-1106v121h1106v119zM455 1319v-121h-119v121h119zM934 1319v-121h-119v121h119zM694 1198v-119h-119v119h119zM455 1079v-121h-119v121h119zM934 1079v-121h-119
v121h119zM694 958v-118h-119v118h119zM455 840v-121h-119v121h119zM934 840v-121h-119v121h119zM2161 479h-1946v-119h1946v119zM215 121h1946v119h-1946v-119z" />
    <glyph glyph-name=".notdef" horiz-adv-x="1372" 
d="M1159 1692q37 0 37 -43v-1921q0 -31 -16.5 -44.5t-51.5 -13.5h-892q-31 0 -43.5 11.5t-12.5 37.5v1926q0 47 39 47h940zM1092 1556q0 15 -9 25t-22 10h-703l734 -1708v1673zM285 -188q0 -21 10 -31t35 -10h688l-733 1695v-1654z" />
    <glyph glyph-name="uni0000" horiz-adv-x="59" 
 />
    <glyph glyph-name="nonmarkingreturn" horiz-adv-x="682" 
 />
    <glyph glyph-name="CR" unicode="&#xd;" horiz-adv-x="489" 
 />
    <glyph glyph-name="space" unicode=" " horiz-adv-x="477" 
 />
    <glyph glyph-name="exclam" unicode="!" horiz-adv-x="555" 
d="M418 1481l-66 -1061h-159l-70 1061h295zM410 283v-283h-281v283h281z" />
    <glyph glyph-name="quotedbl" unicode="&#x22;" horiz-adv-x="931" 
d="M432 1481l-72 -531h-131l-67 531h270zM842 1481l-72 -531h-131l-70 531h273z" />
    <glyph glyph-name="numbersign" unicode="#" horiz-adv-x="1249" 
d="M1174 889h-242l-43 -283h219v-137h-240l-69 -473l-140 18l68 455h-287l-69 -473l-138 18l68 455h-235v137h256l43 283h-234v137h254l68 459l137 -17l-66 -442h287l70 459l137 -17l-66 -442h222v-137zM748 606l43 283h-287l-43 -283h287z" />
    <glyph glyph-name="dollar" unicode="$" horiz-adv-x="1376" 
d="M1264 393q0 -164 -120 -273t-325 -134v-191h-221v191q-209 22 -335.5 126t-149.5 287l260 9q27 -111 115.5 -168.5t222.5 -57.5q122 0 205 59t83 150q0 87 -53 136t-172 79l-250 60q-173 38 -269 135.5t-97 255.5q-1 175 122.5 292t325.5 144v205h221v-207
q189 -30 299.5 -148t110.5 -276l-252 -8q-18 118 -81 177.5t-185 59.5q-128 0 -210.5 -57.5t-82.5 -155.5q0 -73 49 -114.5t180 -77.5l244 -64q365 -95 365 -434z" />
    <glyph glyph-name="percent" unicode="%" horiz-adv-x="1898" 
d="M471 1503q155 0 257.5 -119.5t102.5 -304.5q0 -183 -102 -300t-258 -117q-158 0 -261.5 117t-103.5 300q0 185 104.5 304.5t260.5 119.5zM1563 1497l-996 -1505l-153 2l999 1503h150zM469 793q86 0 131 75.5t45 210.5q0 137 -45.5 215t-130.5 78q-86 0 -131 -78t-45 -215
q0 -134 45 -210t131 -76zM1421 823q156 0 259.5 -120t103.5 -304t-103 -301.5t-260 -117.5q-158 0 -261 117.5t-103 301.5t104 304t260 120zM1419 113q85 0 130.5 77t45.5 207q0 134 -46.5 214.5t-129.5 80.5t-128.5 -80.5t-45.5 -214.5q0 -130 45.5 -207t128.5 -77z" />
    <glyph glyph-name="ampersand" unicode="&#x26;" horiz-adv-x="1540" 
d="M688 1503q119 0 217 -39t156.5 -112.5t58.5 -167.5q0 -95 -81 -197t-257 -201l273 -321q97 164 114 356h252q-18 -86 -60 -180t-75.5 -150t-94.5 -149q-10 -15 -15 -23l272 -319h-287l-135 154q-212 -164 -469 -164q-225 0 -344 104t-119 277q0 145 87 249t276 205
q-94 103 -137.5 177.5t-43.5 164.5q0 144 115.5 240t296.5 96zM698 1346q-80 -1 -127 -48t-47 -114q0 -57 33.5 -118t79.5 -108l39 -43q127 78 175 137.5t48 123.5q0 85 -59 128.5t-142 41.5zM580 680q-222 -127 -209 -297q9 -91 80 -146t165 -55q72 0 151 32.5t138 88.5z
" />
    <glyph glyph-name="quotesingle" unicode="'" horiz-adv-x="528" 
d="M399 1481l-71 -531h-129l-70 531h270z" />
    <glyph glyph-name="parenleft" unicode="(" horiz-adv-x="659" 
d="M600 1481q-111 -209 -174.5 -443.5t-63.5 -470.5q0 -224 56.5 -441t169.5 -456h-172q-142 241 -212.5 447.5t-70.5 451.5q0 246 78 479.5t215 432.5h174z" />
    <glyph glyph-name="parenright" unicode=")" horiz-adv-x="669" 
d="M25 1481h174q136 -198 213 -431.5t77 -480.5q0 -246 -69.5 -453t-210.5 -446h-172q113 239 169 455.5t56 441.5q0 236 -63.5 471t-173.5 443z" />
    <glyph glyph-name="asterisk" unicode="*" horiz-adv-x="903" 
d="M618 725l-165 270l-168 -276l-140 96l205 246l-287 82l54 149l272 -114l-20 303h170l-25 -305l277 120l47 -149l-279 -84l199 -240z" />
    <glyph glyph-name="plus" unicode="+" horiz-adv-x="1179" 
d="M1051 838v-187h-371v-370h-184v370h-375v187h373v372h186v-372h371z" />
    <glyph glyph-name="comma" unicode="," horiz-adv-x="536" 
d="M94 -272l117 266l-98 8v260h272v-229l-190 -305h-101z" />
    <glyph glyph-name="hyphen" unicode="-" horiz-adv-x="804" 
d="M668 621v-187h-541v187h541z" />
    <glyph glyph-name="period" unicode="." horiz-adv-x="520" 
d="M393 287v-287h-282v287h282z" />
    <glyph glyph-name="slash" unicode="/" horiz-adv-x="755" 
d="M25 -57l516 1538h180l-516 -1538h-180z" />
    <glyph glyph-name="zero" unicode="0" horiz-adv-x="1345" 
d="M674 1503q127 0 233 -50t183 -145.5t120 -241.5t43 -329q0 -363 -157.5 -559t-421.5 -196q-265 0 -423.5 195.5t-158.5 557.5q0 365 160.5 566.5t421.5 201.5zM674 186q151 0 228 131t77 418q0 565 -305 565q-307 0 -307 -565q0 -549 307 -549z" />
    <glyph glyph-name="one" unicode="1" horiz-adv-x="821" 
d="M342 0v1198l-274 -86v176l385 193h143v-1481h-254z" />
    <glyph glyph-name="two" unicode="2" horiz-adv-x="1239" 
d="M86 0v197l471 436q185 167 247 252t62 180q0 56 -21.5 100.5t-58 71t-81 40t-93.5 13.5q-102 0 -185 -51.5t-126 -161.5l-227 27q39 185 179 291t368 106q230 0 368.5 -117t138.5 -319q-1 -120 -63.5 -219t-226.5 -260l-383 -373h688v-213h-1057z" />
    <glyph glyph-name="three" unicode="3" horiz-adv-x="1347" 
d="M106 1143q16 95 70 166.5t133.5 112t170.5 60t194 19.5q232 0 385 -108t153 -273q0 -232 -278 -329q143 -38 234.5 -134t91.5 -237q0 -131 -83.5 -233t-218.5 -154.5t-296 -52.5q-94 0 -170.5 10.5t-146 36t-120.5 67t-89.5 104.5t-57.5 146l229 27q94 -187 342 -187
q151 0 241.5 66t90.5 168q0 109 -92.5 177.5t-222.5 68.5l-201 2v200l170 6q135 3 222 68t87 162q0 86 -81 143.5t-195 57.5q-264 0 -334 -187z" />
    <glyph glyph-name="four" unicode="4" horiz-adv-x="1292" 
d="M752 1481h252v-912h225v-219h-225v-350h-250v350h-678v219zM336 569h416v559z" />
    <glyph glyph-name="five" unicode="5" horiz-adv-x="1355" 
d="M240 1481h929l-14 -209h-713l-34 -412q134 57 191 71q68 17 142 17q108 0 200.5 -29.5t162.5 -86t109.5 -146t39.5 -203.5q0 -234 -160 -368.5t-423 -134.5q-183 0 -336 69.5t-246 192.5l186 135q46 -50 78.5 -79.5t77 -59t96 -43t113.5 -13.5q159 0 250.5 82t91.5 211
q0 125 -82 196.5t-217 71.5q-76 0 -141.5 -24t-151.5 -72q-7 -3 -11 -4.5t-6.5 -2.5t-6 0t-5 1.5t-6.5 3t-8 4.5l-170 96z" />
    <glyph glyph-name="six" unicode="6" horiz-adv-x="1306" 
d="M702 1509q197 0 332 -95.5t160 -252.5l-217 -31q-43 89 -104.5 134t-163.5 45q-177 0 -268 -158.5t-72 -433.5q46 89 144 139.5t216 50.5q224 0 354.5 -125t130.5 -319q0 -209 -152 -340t-386 -131q-276 0 -432 195t-156 536q0 368 164 577t450 209zM678 715
q-117 0 -205 -62.5t-88 -152.5q18 -156 92 -236t193 -80q118 0 199 75.5t81 191.5q0 118 -76.5 191t-195.5 73z" />
    <glyph glyph-name="seven" unicode="7" horiz-adv-x="1202" 
d="M68 1481h1077v-254q-191 -251 -355.5 -620.5t-181.5 -606.5h-274q14 105 51.5 242.5t102.5 307.5t172.5 362t238.5 360h-831v209z" />
    <glyph glyph-name="eight" unicode="8" horiz-adv-x="1304" 
d="M647 1501q229 0 373.5 -115t144.5 -296q0 -57 -20 -107.5t-46.5 -83.5t-62 -60.5t-58 -39.5t-42.5 -21q6 -3 36.5 -17t46 -22t47 -27.5t50 -36.5t43.5 -46t38.5 -59.5t23.5 -72.5t10 -89q0 -198 -162 -313t-430 -115q-258 0 -409.5 101.5t-151.5 283.5q0 117 70.5 207.5
t201.5 148.5q-15 7 -23.5 11t-35.5 20.5t-46 32.5t-45 45t-42.5 60t-28.5 75t-12 92q0 189 146 316.5t384 127.5zM651 1309q-115 0 -191.5 -63t-76.5 -159q0 -144 168 -188l176 -47q60 -15 130.5 65t70.5 170q0 98 -74.5 160t-202.5 62zM655 174q139 0 220 58t81 157
q0 76 -43 125t-141 76l-217 57q-40 13 -95 -15.5t-98 -91t-43 -134.5q0 -111 85 -171.5t251 -60.5z" />
    <glyph glyph-name="nine" unicode="9" horiz-adv-x="1306" 
d="M598 -18q-194 0 -332 97.5t-164 250.5l228 28q77 -176 258 -176q185 0 285 149.5t83 452.5q-41 -98 -139.5 -154.5t-228.5 -56.5q-226 0 -364 128t-138 327q0 139 70.5 247t193.5 166t277 58q275 0 431 -194.5t156 -536.5q0 -385 -162.5 -585.5t-453.5 -200.5zM625 776
q115 0 204 64.5t89 148.5q-18 159 -92 238.5t-193 79.5q-118 0 -195.5 -75.5t-77.5 -191.5q0 -114 74 -189t191 -75z" />
    <glyph glyph-name="colon" unicode=":" horiz-adv-x="520" 
d="M393 1026v-285h-282v285h282zM393 289v-283h-282v283h282z" />
    <glyph glyph-name="semicolon" unicode=";" horiz-adv-x="548" 
d="M113 733v289h282v-289h-282zM94 -305l127 305h-102v285h280v-252l-200 -338h-105z" />
    <glyph glyph-name="less" unicode="&#x3c;" horiz-adv-x="1171" 
d="M1018 465v-219l-907 352v213l909 358v-221l-627 -243z" />
    <glyph glyph-name="equal" unicode="=" horiz-adv-x="1179" 
d="M1051 1034v-186h-930v186h930zM1051 571v-184l-930 -2v186h930z" />
    <glyph glyph-name="greater" unicode="&#x3e;" horiz-adv-x="1171" 
d="M143 465l627 240l-629 243v221l910 -358v-213l-908 -352v219z" />
    <glyph glyph-name="question" unicode="?" horiz-adv-x="1095" 
d="M39 1184q64 152 196.5 234.5t309.5 82.5q211 0 341 -99.5t130 -252.5q0 -69 -22 -129.5t-57.5 -106t-78.5 -88.5t-86 -85.5t-78.5 -86.5t-57.5 -102.5t-22 -124.5h-204q0 78 19.5 147t51 120.5t69.5 98t76 87t69.5 80t51 85t19.5 93.5q0 85 -62 135.5t-161 50.5
q-92 0 -174 -55t-115 -142zM653 283v-283h-280v283h280z" />
    <glyph glyph-name="at" unicode="@" horiz-adv-x="1703" 
d="M1362 -70q-89 -70 -213.5 -112.5t-271.5 -42.5q-144 0 -268.5 38t-217.5 106.5t-159.5 161.5t-100 205.5t-33.5 235.5q0 161 58.5 306t162 254t257.5 173t335 64q109 0 210.5 -23t194 -73.5t161 -123.5t109 -181.5t40.5 -239.5q0 -228 -110 -372t-281 -144
q-151 0 -186 100q-8 12 -12 11.5t-13 -11.5q-103 -129 -272 -129q-125 0 -209.5 98t-83.5 256q0 124 48.5 229t139.5 168.5t207 63.5q143 0 223 -112q3 -5 8.5 -3t6.5 11l14 53h151l-73 -446q-13 -75 4.5 -107.5t62.5 -32.5q87 0 150 95.5t63 259.5q0 109 -31.5 196.5
t-84.5 144.5t-125 95.5t-149.5 55t-162.5 16.5q-158 0 -283.5 -52t-203.5 -142.5t-119 -207t-41 -250.5q0 -276 170 -442t473 -166q87 0 158 18.5t111.5 41t103.5 65.5zM645 502q0 -94 39 -151.5t111 -57.5q90 0 157 76.5t78 179.5q10 109 -37.5 174t-124.5 65
q-96 0 -159.5 -82.5t-63.5 -203.5z" />
    <glyph glyph-name="A" unicode="A" horiz-adv-x="1468" 
d="M68 0l532 1481h270l533 -1481h-252l-131 371h-565l-136 -371h-251zM512 594h446l-221 645z" />
    <glyph glyph-name="B" unicode="B" horiz-adv-x="1398" 
d="M180 0v1481h510q279 0 420 -99t141 -288q0 -119 -60.5 -200t-203.5 -136q87 -21 147.5 -58.5t92.5 -87t45.5 -101t13.5 -112.5q0 -203 -140.5 -301t-434.5 -98h-531zM430 850h301q54 0 102 11.5t88.5 35t64.5 66t24 98.5q0 109 -81.5 166t-219.5 57h-279v-434zM430 199
h283q158 0 239.5 56.5t81.5 164.5q0 112 -83.5 169.5t-219.5 57.5h-301v-448z" />
    <glyph glyph-name="C" unicode="C" horiz-adv-x="1462" 
d="M766 1501q242 0 404 -135.5t184 -341.5l-262 -6q-24 127 -108 200.5t-224 73.5q-178 0 -273.5 -134t-95.5 -413t96.5 -418t280.5 -139q124 0 209.5 78t112.5 205l260 -10q-13 -102 -53.5 -187t-109.5 -152t-175 -104.5t-240 -37.5q-304 0 -478.5 208.5t-174.5 559.5
t171.5 552t475.5 201z" />
    <glyph glyph-name="D" unicode="D" horiz-adv-x="1456" 
d="M180 1481q273 0 400 -2q396 -7 582 -193.5t186 -537.5q0 -361 -195.5 -554.5t-587.5 -193.5h-385v1481zM434 1276v-1069h133q94 0 171.5 18t142.5 58.5t109.5 102.5t69.5 153.5t25 208.5q0 279 -131 403.5t-381 124.5h-139z" />
    <glyph glyph-name="E" unicode="E" horiz-adv-x="1302" 
d="M180 0v1481h979v-213h-727v-416h643v-211h-645v-424l746 -2v-215h-996z" />
    <glyph glyph-name="F" unicode="F" horiz-adv-x="1228" 
d="M180 1481h971l-2 -211h-715v-426h631v-209h-631v-635h-254v1481z" />
    <glyph glyph-name="G" unicode="G" horiz-adv-x="1544" 
d="M766 -20q-297 0 -472 204.5t-175 550.5q0 353 181 559.5t480 206.5q120 0 227 -39.5t183 -105t122 -152t50 -178.5l-264 -8q-22 117 -109 192.5t-213 75.5q-178 0 -282.5 -135.5t-104.5 -402.5q0 -145 30 -253t85 -171t124.5 -93t155.5 -30q74 0 136.5 27t102 69.5t63 91
t28.5 96.5l8 111h-329v176l591 -4v-768h-178v209q-151 -229 -440 -229z" />
    <glyph glyph-name="H" unicode="H" horiz-adv-x="1476" 
d="M1051 657h-621v-657h-250v1481h250v-611h621v611h249v-1481h-249v657z" />
    <glyph glyph-name="I" unicode="I" horiz-adv-x="606" 
d="M180 1481h250v-1481h-250v1481z" />
    <glyph glyph-name="J" unicode="J" horiz-adv-x="815" 
d="M651 383q0 -104 -15.5 -174.5t-54 -124.5t-107.5 -79t-173 -25q-120 0 -250 38l10 232q7 -2 31.5 -10t40 -12.5t41.5 -8.5t51 -4q99 0 137.5 53.5t38.5 182.5v1030h250v-1098z" />
    <glyph glyph-name="K" unicode="K" horiz-adv-x="1439" 
d="M1376 0h-276l-424 723l-236 -279v-444h-260v1481h260v-719l596 719h289l-467 -574z" />
    <glyph glyph-name="L" unicode="L" horiz-adv-x="1165" 
d="M180 1481h254v-1266h668v-215h-922v1481z" />
    <glyph glyph-name="M" unicode="M" horiz-adv-x="1847" 
d="M180 0v1481h357l389 -1133l391 1133h354v-1481h-252v1161l-391 -1161h-207l-387 1153v-1153h-254z" />
    <glyph glyph-name="N" unicode="N" horiz-adv-x="1574" 
d="M1149 1481h250v-1481h-223l-746 1085v-1085h-250v1481h244l725 -1057v1057z" />
    <glyph glyph-name="O" unicode="O" horiz-adv-x="1560" 
d="M782 -20q-310 0 -486.5 200t-176.5 555q0 358 179 562t484 204q304 0 483 -203.5t179 -560.5q0 -355 -177.5 -556t-484.5 -201zM784 188q387 0 387 545q0 284 -101 421.5t-288 137.5t-289 -137.5t-102 -421.5q0 -278 102 -411.5t291 -133.5z" />
    <glyph glyph-name="P" unicode="P" horiz-adv-x="1331" 
d="M180 0v1481h527q247 0 402 -126t155 -351q0 -219 -143 -343t-382 -124h-305v-537h-254zM432 735h301q129 0 212 78.5t83 202.5q0 125 -84.5 196.5t-218.5 71.5h-293v-549z" />
    <glyph glyph-name="Q" unicode="Q" horiz-adv-x="1542" 
d="M90 737q0 358 178.5 561t485.5 203t485 -203t178 -561q0 -436 -266 -633q28 -70 97.5 -109t158.5 -42v-203q-72 0 -129 9t-120.5 33.5t-121.5 75.5t-110 128q-91 -16 -172 -16q-307 0 -485.5 200t-178.5 557zM365 733q0 -545 389 -545q391 0 391 547q0 282 -100.5 419.5
t-290.5 137.5q-389 0 -389 -559z" />
    <glyph glyph-name="R" unicode="R" horiz-adv-x="1417" 
d="M1288 0h-260l-254 602h-344v-602h-250v1481h602q248 0 373 -113t125 -313q0 -293 -274 -412zM725 799q141 0 221 65.5t80 182.5q0 114 -72.5 176.5t-195.5 62.5h-328v-487h295z" />
    <glyph glyph-name="S" unicode="S" horiz-adv-x="1439" 
d="M727 -20q-112 0 -215 26t-188.5 76.5t-141.5 132t-69 184.5l260 9q24 -110 120 -170t232 -60q146 0 241 56.5t95 156.5q0 163 -258 221l-279 58q-174 36 -269.5 132.5t-96.5 254.5q-1 198 157.5 320t403.5 122q127 0 234 -35.5t178.5 -96t114.5 -137.5t52 -163l-251 -8
q-34 237 -324 237q-128 0 -212.5 -58t-84.5 -155q0 -75 49.5 -118.5t179.5 -73.5l273 -60q391 -79 391 -438q0 -177 -163.5 -295t-428.5 -118z" />
    <glyph glyph-name="T" unicode="T" horiz-adv-x="1222" 
d="M33 1255v226h1155v-226h-443v-1255h-249v1255h-463z" />
    <glyph glyph-name="U" unicode="U" horiz-adv-x="1484" 
d="M1319 541q0 -273 -136.5 -417t-432.5 -144q-300 0 -435 145.5t-135 429.5v926h256v-951q0 -169 82 -253t232 -84t233.5 84t83.5 253v951h252v-940z" />
    <glyph glyph-name="V" unicode="V" horiz-adv-x="1372" 
d="M1346 1481l-519 -1481h-288l-510 1481h239l416 -1194l420 1194h242z" />
    <glyph glyph-name="W" unicode="W" horiz-adv-x="1978" 
d="M1931 1481l-434 -1481h-211l-299 1051l-303 -1051h-205l-432 1481h248l299 -1069l301 1069h186l303 -1069l302 1069h245z" />
    <glyph glyph-name="X" unicode="X" horiz-adv-x="1400" 
d="M1354 0h-314l-362 565l-359 -565h-272l498 754l-482 727h314l325 -516l326 516h270l-464 -697z" />
    <glyph glyph-name="Y" unicode="Y" horiz-adv-x="1302" 
d="M1284 1481l-508 -854v-627h-250v627l-510 854h271l366 -637l359 637h272z" />
    <glyph glyph-name="Z" unicode="Z" horiz-adv-x="1337" 
d="M104 0v127l779 1143h-736v211h1090v-121l-788 -1147h782v-213h-1127z" />
    <glyph glyph-name="bracketleft" unicode="[" horiz-adv-x="659" 
d="M168 1481h430v-148h-219l-2 -1515h221v-148h-428z" />
    <glyph glyph-name="backslash" unicode="\" horiz-adv-x="755" 
d="M535 -57l-515 1538h181l516 -1538h-182z" />
    <glyph glyph-name="bracketright" unicode="]" horiz-adv-x="677" 
d="M461 1481v-1811h-428v148h219l-2 1515h-219v148h430z" />
    <glyph glyph-name="asciicircum" unicode="^" horiz-adv-x="987" 
d="M711 256l-226 557l-225 -555h-176l313 748q18 45 52.5 63t70 1.5t55.5 -62.5l314 -752h-178z" />
    <glyph glyph-name="underscore" unicode="_" horiz-adv-x="1107" 
d="M975 -78v-186h-850v184z" />
    <glyph glyph-name="grave" unicode="`" horiz-adv-x="630" 
d="M84 1501l510 -205l-39 -112l-530 145z" />
    <glyph glyph-name="a" unicode="a" horiz-adv-x="1165" 
d="M446 -20q-158 0 -256 84t-98 231q0 177 128.5 265t402.5 91l157 4v72q0 87 -54.5 133.5t-150.5 44.5q-82 0 -145 -38.5t-84 -114.5h-211q7 151 131.5 239t321.5 88q219 0 325.5 -89t106.5 -249v-741h-209l-20 184q-54 -112 -139 -158t-206 -46zM526 150q95 0 174.5 62
t79.5 138v168l-129 -2q-319 -3 -319 -197q0 -78 54.5 -123.5t139.5 -45.5z" />
    <glyph glyph-name="b" unicode="b" horiz-adv-x="1224" 
d="M686 -20q-120 0 -210.5 53t-125.5 121l-24 -154h-183v1522h250v-613q41 67 127.5 118.5t198.5 51.5q206 0 315 -149t109 -395q0 -256 -120.5 -405.5t-336.5 -149.5zM627 164q118 0 189 91.5t71 281.5q0 181 -65.5 268.5t-184.5 87.5q-89 0 -153 -56t-91 -161v-223
q0 -131 68 -210t166 -79z" />
    <glyph glyph-name="c" unicode="c" horiz-adv-x="1114" 
d="M588 1079q180 0 298.5 -105.5t135.5 -277.5l-211 -2q-21 87 -77 140t-140 53q-125 0 -197.5 -96t-72.5 -263q0 -168 73.5 -267t198.5 -99q86 0 143.5 55t73.5 133h207q-17 -168 -135.5 -269t-296.5 -101q-222 0 -361 151t-139 393q0 246 139 400.5t361 154.5z" />
    <glyph glyph-name="d" unicode="d" 
d="M532 -20q-208 0 -326 143t-118 401q0 255 114.5 405t317.5 150q190 0 307 -137v580h250v-1522h-186l-25 209q-87 -229 -334 -229zM588 164q102 0 170.5 74.5t68.5 181.5v287q-66 186 -233 186q-121 0 -191.5 -90t-70.5 -273q0 -187 70.5 -276.5t185.5 -89.5z" />
    <glyph glyph-name="e" unicode="e" horiz-adv-x="1159" 
d="M336 471q0 -139 67.5 -222t192.5 -83q183 0 240 158h227q-22 -109 -92 -188.5t-165 -117.5t-204 -38q-231 0 -372.5 145t-141.5 393q0 164 58.5 290t173 198.5t268.5 72.5q229 0 353 -144t124 -388v-76h-729zM336 627h495q0 121 -62.5 196.5t-180.5 75.5t-185 -81.5
t-67 -190.5z" />
    <glyph glyph-name="f" unicode="f" horiz-adv-x="811" 
d="M754 1059v-176h-238v-883h-250v883h-209v176h209v158q0 128 71 196t204 68h223v-170h-148q-60 0 -83 -30t-23 -99v-123h244z" />
    <glyph glyph-name="g" unicode="g" horiz-adv-x="1265" 
d="M606 -350q-268 0 -410.5 72.5t-142.5 195.5q0 41 18 76.5t47.5 58.5t55.5 38.5t53 27t29 12.5q-2 1 -17.5 9.5t-22.5 13t-22 15t-23 20.5t-17.5 23.5t-14 30.5t-4.5 36q0 56 52.5 99.5t150.5 63.5q-205 100 -205 299q0 156 134 245t347 89q101 0 171.5 -22t136.5 -66
l292 119l-2 -205l-184 -33q12 -26 20.5 -63.5t8.5 -61.5q0 -69 -29 -130t-85 -109.5t-145.5 -76.5t-201.5 -28q-40 0 -86 4q-143 -5 -143 -57q0 -25 41 -35t151 -18q105 -4 223 -12q186 -12 277.5 -90t91.5 -205q0 -155 -142 -245.5t-403 -90.5zM602 547q105 0 162 49
t57 139q0 92 -58 146.5t-161 54.5q-102 0 -161.5 -55t-59.5 -146q0 -88 58.5 -138t162.5 -50zM647 -203q139 0 201.5 35.5t62.5 108.5q0 119 -174 131l-268 18q-67 3 -119.5 -40t-52.5 -103q0 -150 350 -150z" />
    <glyph glyph-name="h" unicode="h" 
d="M143 0v1522h246v-607q102 154 316 154q157 0 263.5 -91t106.5 -235v-743h-250v705q0 77 -56.5 122t-145.5 45q-95 0 -162.5 -47t-67.5 -131v-694h-250z" />
    <glyph glyph-name="i" unicode="i" horiz-adv-x="550" 
d="M408 1522v-271h-258v271h258zM403 1059v-1059h-249v1059h249z" />
    <glyph glyph-name="j" unicode="j" horiz-adv-x="575" 
d="M430 1522v-271h-260v271h260zM424 -18q0 -165 -77 -243.5t-251 -78.5q-50 0 -83.5 7t-41.5 13l-8 7v166l92 8q66 6 92.5 35t26.5 92v1071h250v-1077z" />
    <glyph glyph-name="k" unicode="k" horiz-adv-x="1177" 
d="M1124 0h-254l-305 492l-172 -181v-311h-250v1522h250v-955l451 492h260l-383 -414z" />
    <glyph glyph-name="l" unicode="l" horiz-adv-x="647" 
d="M453 -16q-79 0 -137 17.5t-90 44.5t-51 69.5t-24.5 81t-5.5 90.5v1235h246v-1209q0 -138 119 -149l53 -2v-156q-58 -22 -110 -22z" />
    <glyph glyph-name="m" unicode="m" horiz-adv-x="1851" 
d="M143 0v1059h244v-141q48 72 132 116.5t200 44.5q105 0 190 -40t127 -121q53 75 139.5 118t188.5 43q66 0 125.5 -19t113 -59t85.5 -113.5t32 -170.5v-717h-250v692q0 108 -54.5 154.5t-143.5 46.5q-101 0 -159 -51t-58 -160v-682h-248v731q0 76 -58.5 119t-142.5 43
q-80 0 -146.5 -46t-66.5 -130v-717h-250z" />
    <glyph glyph-name="n" unicode="n" 
d="M143 0v1059h244v-141q53 71 128 112t192 41q154 0 262 -101t108 -270v-700h-250v674q0 93 -56 145.5t-146 52.5q-96 0 -164 -46.5t-68 -129.5v-696h-250z" />
    <glyph glyph-name="o" unicode="o" horiz-adv-x="1163" 
d="M582 -20q-230 0 -365 149.5t-135 392.5q0 249 137.5 403t364.5 154q229 0 363 -154.5t134 -400.5q0 -243 -134.5 -393.5t-364.5 -150.5zM586 168q87 0 145 52t81.5 131t23.5 181q0 76 -14 139t-43.5 113.5t-79 78.5t-115.5 28q-88 0 -147.5 -50.5t-84 -129t-24.5 -179.5
q0 -75 14.5 -138.5t44.5 -115t81 -81t118 -29.5z" />
    <glyph glyph-name="p" unicode="p" horiz-adv-x="1224" 
d="M143 -330v1389h248v-139q51 67 130.5 113t187.5 46q91 0 168.5 -33.5t136.5 -98t93 -169t34 -237.5q0 -137 -36.5 -245.5t-100.5 -176.5t-147.5 -103.5t-180.5 -35.5q-88 0 -157.5 39t-125.5 131v-480h-250zM631 164q120 0 197 98t77 275q0 171 -77.5 263.5t-190.5 92.5
q-100 0 -172 -72.5t-72 -154.5v-328q35 -78 98.5 -126t139.5 -48z" />
    <glyph glyph-name="q" unicode="q" horiz-adv-x="1218" 
d="M1087 -330h-249v430q-136 -120 -301 -120q-200 0 -324.5 144.5t-124.5 416.5q0 133 34 237.5t93 169t136.5 98t168.5 33.5q73 0 141.5 -25.5t103.5 -50.5t75 -61v117h247v-1389zM612 152q76 0 134 61t92 172v244q0 120 -64.5 198t-169.5 78q-113 0 -187.5 -92.5
t-74.5 -271.5q0 -180 75.5 -284.5t194.5 -104.5z" />
    <glyph glyph-name="r" unicode="r" horiz-adv-x="815" 
d="M143 0v1059h238v-246q51 117 153 191.5t226 74.5l2 -237q-171 11 -270 -64.5t-99 -179.5v-598h-250z" />
    <glyph glyph-name="s" unicode="s" horiz-adv-x="1079" 
d="M551 -20q-113 0 -209.5 34t-167.5 110.5t-88 186.5h215q44 -155 254 -155q100 0 156.5 36t56.5 99q0 50 -37.5 78t-112.5 47l-200 47q-142 31 -219 101t-78 190q-1 148 120.5 236.5t311.5 88.5q188 0 302 -91t114 -226h-213q-12 72 -69.5 109.5t-139.5 37.5
q-52 0 -95.5 -12t-76.5 -44.5t-33 -82.5q0 -46 42 -75t132 -48l191 -47q80 -20 137.5 -55t86.5 -77.5t41.5 -82.5t12.5 -82q0 -152 -123.5 -237.5t-310.5 -85.5z" />
    <glyph glyph-name="t" unicode="t" horiz-adv-x="843" 
d="M737 883h-235v-602q0 -66 22.5 -90.5t69.5 -24.5h151v-152q-53 -22 -172 -22q-93 0 -157 18.5t-99 55.5t-50 85t-15 115v617h-172v176h180l31 315h211v-313h235v-178z" />
    <glyph glyph-name="u" unicode="u" 
d="M539 -20q-69 1 -136 22t-126.5 62t-96.5 111t-37 159v727h250v-699q0 -98 62.5 -147t148.5 -49q93 0 156.5 54.5t64.5 150.5v690h252l-6 -1061h-190l-25 217q-13 -68 -46.5 -116.5t-79.5 -73.5t-92.5 -36t-98.5 -11z" />
    <glyph glyph-name="v" unicode="v" horiz-adv-x="1056" 
d="M1016 1059l-389 -1059h-197l-391 1059h229l254 -742h13l251 742h230z" />
    <glyph glyph-name="w" unicode="w" horiz-adv-x="1628" 
d="M1577 1059l-336 -1059h-215l-217 705l-211 -705h-211l-336 1059h225l220 -729h12l215 729h182l219 -727h13l213 727h227z" />
    <glyph glyph-name="x" unicode="x" horiz-adv-x="1183" 
d="M1135 0h-265l-278 377l-279 -377h-264l408 551l-373 508h264l246 -332l244 332h264l-375 -508z" />
    <glyph glyph-name="y" unicode="y" horiz-adv-x="1132" 
d="M283 -338q-60 0 -106 8t-61 16l-16 7v160l107 -3q60 -3 103 6.5t66 30.5t32 35.5t18 36.5l27 76l-414 1024h250l278 -748l283 748h244l-437 -1098q-69 -170 -158 -234.5t-216 -64.5z" />
    <glyph glyph-name="z" unicode="z" horiz-adv-x="1048" 
d="M78 0v137l575 760h-530v162h840v-135l-578 -760h584v-164h-891z" />
    <glyph glyph-name="braceleft" unicode="{" horiz-adv-x="733" 
d="M254 1253q0 106 84.5 167t206.5 61h127v-148h-82q-77 0 -102 -26t-25 -80v-418q-1 -53 -19.5 -94.5t-49.5 -67t-66 -39.5t-74 -18q-8 -1 -11.5 -4t-0.5 -6.5t12 -4.5q39 -3 73.5 -15.5t66 -37t50 -69t19.5 -103.5v-424q0 -59 28 -83.5t101 -24.5h80v-148h-123
q-127 0 -211 61.5t-84 170.5v428q0 78 -59 131t-172 53v135q231 0 231 195v409z" />
    <glyph glyph-name="bar" unicode="|" horiz-adv-x="542" 
d="M367 -330h-185l-2 2022h187v-2022z" />
    <glyph glyph-name="braceright" unicode="}" horiz-adv-x="749" 
d="M453 1253v-409q0 -195 231 -195v-135q-113 0 -172 -53t-59 -131v-428q0 -108 -84.5 -170t-210.5 -62h-125v148h82q72 0 99.5 25t27.5 83v424q3 113 63 165.5t146 59.5q9 1 12 4.5t-0.5 6.5t-11.5 4q-84 9 -145 63t-64 156v418q0 54 -25 80t-102 26h-82v148h129
q78 0 143 -25.5t106.5 -78.5t41.5 -124z" />
    <glyph glyph-name="asciitilde" unicode="~" horiz-adv-x="1220" 
d="M1087 768q-45 -76 -118.5 -119t-163.5 -43q-55 0 -109.5 18.5t-91.5 41t-86 41t-94 18.5q-70 0 -122.5 -35t-108.5 -98l-72 131q82 82 148.5 123t154.5 41q54 0 108 -18.5t91.5 -41t86.5 -41t93 -18.5q127 0 211 131z" />
    <glyph glyph-name="uni00A0" unicode="&#xa0;" horiz-adv-x="483" 
 />
    <glyph glyph-name="exclamdown" unicode="&#xa1;" horiz-adv-x="555" 
d="M414 776h-281v283h281v-283zM422 -330h-295l68 967h159z" />
    <glyph glyph-name="cent" unicode="&#xa2;" horiz-adv-x="1136" 
d="M623 389q86 0 143 55.5t72 133.5h206q-15 -148 -110.5 -245.5t-243.5 -119.5v-213h-170v215q-184 31 -294.5 176t-110.5 361q0 219 110 367t295 179v183h170v-181q150 -22 246 -122.5t113 -253.5l-213 -2q-21 87 -77 139.5t-141 52.5q-125 0 -197.5 -95.5t-72.5 -262.5
q0 -168 75 -267.5t200 -99.5z" />
    <glyph glyph-name="sterling" unicode="&#xa3;" horiz-adv-x="1300" 
d="M39 0v209h72q81 0 130.5 60.5t49.5 183.5q0 80 -23 245h-207v146h179l-25 178q-18 111 11 203t93 151.5t151.5 92t186.5 32.5q156 0 277 -73t174 -197l-217 -72q-35 73 -80.5 106t-118.5 33q-88 0 -144 -52.5t-56 -145.5q0 -109 40 -254h314v-146h-295q17 -135 4 -225
q-8 -98 -39 -157.5t-80 -106.5h312q102 0 156.5 37t88.5 129l213 -49q-100 -328 -440 -328h-727z" />
    <glyph glyph-name="currency" unicode="&#xa4;" horiz-adv-x="1155" 
d="M573 326q-122 0 -223 63q-20 10 -31 -4l-116 -117l-109 115l129 127q-71 109 -71 233q0 126 61 220q9 16 -2 30l-117 117l111 113l131 -133q106 73 233 73q123 0 226 -65q13 -6 24 2l111 114l110 -114l-125 -121q74 -110 74 -234q0 -135 -65 -223q-7 -11 0 -18l116 -113
l-108 -112l-123 122q-112 -75 -236 -75zM573 498q104 0 175 73.5t71 173.5q0 99 -71 173.5t-175 74.5t-175.5 -74.5t-71.5 -173.5q0 -100 71.5 -173.5t175.5 -73.5z" />
    <glyph glyph-name="yen" unicode="&#xa5;" horiz-adv-x="1310" 
d="M1309 1481l-475 -776h278v-144h-309v-170h309v-141h-309v-250h-285v250h-307v141h307v168h-307v143h256l-467 779h324l360 -631l360 631h265z" />
    <glyph glyph-name="brokenbar" unicode="&#xa6;" horiz-adv-x="542" 
d="M367 862h-185l-2 830h187v-830zM367 -330h-185l-2 830h187v-830z" />
    <glyph glyph-name="section" unicode="&#xa7;" horiz-adv-x="1032" 
d="M524 -154q-159 0 -283 67t-175 171l157 80q108 -158 297 -158q92 0 147.5 33t55.5 94q0 49 -39 87.5t-137 76.5l-166 63q-154 59 -222.5 133t-68.5 183q0 91 50.5 159.5t138.5 106.5q-99 57 -139 118.5t-40 137.5q0 132 109.5 217.5t290.5 85.5q141 0 251 -62.5
t164 -154.5l-157 -80q-116 137 -248 137q-87 0 -135.5 -32t-48.5 -88q0 -79 135 -134l164 -63q168 -66 241.5 -144t73.5 -192q0 -168 -174 -266q94 -54 138 -114.5t44 -143.5q0 -141 -113.5 -229.5t-310.5 -88.5zM575 508q67 -6 113 38t41 107q-3 55 -39 94t-125 74l-100 39
q-73 -6 -120.5 -50t-47.5 -101q0 -50 34 -83t134 -73z" />
    <glyph glyph-name="dieresis" unicode="&#xa8;" horiz-adv-x="665" 
d="M260 1481v-242h-225v242h225zM621 1481v-242h-228v242h228z" />
    <glyph glyph-name="copyright" unicode="&#xa9;" horiz-adv-x="1695" 
d="M842 -20q-155 0 -295.5 60t-242.5 161.5t-162 242.5t-60 297q0 154 60 294.5t162 242.5t242.5 162.5t295.5 60.5t296 -60.5t243 -162.5t162.5 -242.5t60.5 -294.5q0 -156 -60.5 -297.5t-162.5 -242.5t-243 -161t-296 -60zM842 129q169 0 305 74.5t215.5 215t79.5 322.5
q0 181 -79.5 322t-216 217t-304.5 76q-128 0 -238.5 -44.5t-190.5 -124t-125.5 -195t-45.5 -251.5q0 -183 78 -323t214 -214.5t308 -74.5zM848 1171q129 0 217.5 -71.5t130.5 -175.5l-176 -29q-30 65 -69 101t-97 36q-92 0 -147.5 -74.5t-55.5 -209.5q0 -139 57.5 -214
t155.5 -75q128 0 205 147l129 -37q-19 -44 -46.5 -84.5t-69.5 -79.5t-102.5 -62.5t-131.5 -23.5q-178 0 -290 118t-112 306q0 189 113 308.5t289 119.5z" />
    <glyph glyph-name="ordfeminine" unicode="&#xaa;" horiz-adv-x="851" 
d="M313 813q-105 0 -163 49.5t-58 136.5q0 98 90.5 158.5t251.5 67.5l94 6v47q0 108 -125 108q-51 0 -87 -19.5t-62 -70.5l-145 35q40 83 111.5 125.5t189.5 42.5q278 -3 278 -217v-250q0 -100 8 -141l13 -66h-166l-15 78q-58 -48 -106 -69t-109 -21zM373 920q67 0 116 43
q39 36 39 69v105l-77 -4q-93 -6 -143 -38.5t-50 -86.5q0 -39 31.5 -63.5t83.5 -24.5z" />
    <glyph glyph-name="guillemotleft" unicode="&#xab;" horiz-adv-x="980" 
d="M301 514l182 -377h-135l-254 377l254 393h137zM678 514l182 -377h-135l-254 377l254 393h137z" />
    <glyph glyph-name="logicalnot" unicode="&#xac;" horiz-adv-x="1179" 
d="M121 838h930v-488h-205v301h-725v187z" />
    <glyph glyph-name="uni00AD" unicode="&#xad;" horiz-adv-x="790" 
d="M700 621v-187h-542v187h542z" />
    <glyph glyph-name="registered" unicode="&#xae;" horiz-adv-x="1126" 
d="M559 549q-199 0 -338 138.5t-139 336.5t139 337.5t338 139.5q97 0 184.5 -37.5t151.5 -101.5t101.5 -152.5t37.5 -185.5t-37.5 -185t-101.5 -151.5t-151.5 -101t-184.5 -37.5zM559 657q161 0 260 100.5t99 266.5q0 167 -99.5 268t-259.5 101q-164 0 -262 -100.5
t-98 -268.5q0 -167 98 -267t262 -100zM371 786v471h217q82 0 127 -31t45 -91q0 -93 -96 -127l92 -222h-113l-76 211h-92v-211h-104zM475 1073h105q33 0 53 13.5t20 39.5q0 56 -80 56h-98v-109z" />
    <glyph glyph-name="macron" unicode="&#xaf;" horiz-adv-x="749" 
d="M705 1462v-164h-670v164h670z" />
    <glyph glyph-name="degree" unicode="&#xb0;" horiz-adv-x="964" 
d="M809 1378q0 -145 -94.5 -238t-237.5 -93q-145 0 -239.5 92.5t-94.5 238.5t94.5 240t239.5 94q143 0 237.5 -94t94.5 -240zM651 1376q0 83 -48 134t-130 51q-81 0 -129.5 -51.5t-46.5 -133.5q2 -83 49 -133.5t129 -50.5q81 0 128.5 50.5t47.5 133.5z" />
    <glyph glyph-name="plusminus" unicode="&#xb1;" horiz-adv-x="1179" 
d="M680 1004h371v-185h-371v-373h-184v371h-375v187h373v372h186v-372zM121 94v185l930 2v-187h-930z" />
    <glyph glyph-name="uni00B2" unicode="&#xb2;" horiz-adv-x="794" 
d="M41 786v123l297 275q116 106 155 159t39 113q0 69 -46.5 105t-112.5 36q-64 0 -117 -32t-80 -101l-143 17q25 117 112.5 183.5t231.5 66.5t231.5 -73.5t87.5 -201.5q0 -75 -39 -137t-143 -164l-242 -233h435v-136h-666z" />
    <glyph glyph-name="uni00B3" unicode="&#xb3;" horiz-adv-x="825" 
d="M74 1505q10 60 44 105t84 70.5t107.5 38t122.5 12.5q146 0 242 -68t96 -172q0 -147 -174 -207q89 -25 146 -85t57 -148q0 -124 -109.5 -200.5t-265.5 -76.5q-153 0 -245.5 51t-123.5 176l146 19q59 -117 215 -117q95 0 152 41.5t57 104.5q0 70 -58 112.5t-141 42.5
l-125 2v125l107 4q84 1 139 42.5t55 101.5q0 55 -51 91t-123 36q-166 0 -211 -117z" />
    <glyph glyph-name="acute" unicode="&#xb4;" horiz-adv-x="630" 
d="M539 1501l57 -172l-530 -145l-37 112z" />
    <glyph glyph-name="paragraph" unicode="&#xb6;" horiz-adv-x="1191" 
d="M1061 1335h-127v-1505h-156v1505h-112v-1505h-158v780q-188 11 -307 127t-119 301q0 90 31 169t89 140.5t150 97.5t205 36h504v-146z" />
    <glyph glyph-name="periodcentered" unicode="&#xb7;" horiz-adv-x="501" 
d="M381 879v-265h-275v265h275z" />
    <glyph glyph-name="cedilla" unicode="&#xb8;" horiz-adv-x="526" 
d="M481 -266q0 -75 -67.5 -119.5t-165.5 -44.5q-135 0 -217 55l37 90q71 -49 149 -49q51 0 79 18t28 50q0 44 -39.5 65.5t-130.5 22.5q-13 0 -16 3t1 13l74 172h119l-47 -121q101 -4 148.5 -49t47.5 -106z" />
    <glyph glyph-name="uni00B9" unicode="&#xb9;" horiz-adv-x="624" 
d="M178 778v754l-174 -55v112l242 121h92v-932h-160z" />
    <glyph glyph-name="ordmasculine" unicode="&#xba;" horiz-adv-x="823" 
d="M412 1501q148 0 238.5 -96.5t90.5 -249.5q0 -151 -90 -245.5t-239 -94.5q-151 0 -240.5 94.5t-89.5 245.5q0 154 92 250t238 96zM412 1384q-77 0 -116.5 -57.5t-39.5 -167.5q0 -111 39.5 -170t116.5 -59t117 59t40 170q0 110 -40 167.5t-117 57.5z" />
    <glyph glyph-name="guillemotright" unicode="&#xbb;" horiz-adv-x="980" 
d="M295 514l-186 393h137l254 -393l-254 -377h-135zM672 514l-187 393h138l254 -393l-254 -377h-136z" />
    <glyph glyph-name="onequarter" unicode="&#xbc;" horiz-adv-x="2011" 
d="M178 565v754l-174 -55v112l242 121h92v-932h-160zM1452 1497l-995 -1505l-154 2l1000 1503h149zM1620 932h158v-574h141v-137h-141v-221h-158v221h-426v137zM1358 358h262v351z" />
    <glyph glyph-name="onehalf" unicode="&#xbd;" horiz-adv-x="1945" 
d="M178 565v754l-174 -55v112l242 121h92v-932h-160zM1452 1497l-995 -1505l-154 2l1000 1503h149zM1192 0v123l297 274q116 106 155 159.5t39 113.5q0 69 -46.5 105t-112.5 36q-64 0 -117 -32t-80 -101l-143 16q25 117 112.5 183.5t231.5 66.5t231.5 -73.5t87.5 -200.5
q0 -75 -39 -137t-143 -164l-242 -234h435v-135h-666z" />
    <glyph glyph-name="threequarters" unicode="&#xbe;" horiz-adv-x="2209" 
d="M74 1290q10 60 44 105t84 70.5t107.5 38t122.5 12.5q146 0 242 -68t96 -172q0 -147 -174 -207q89 -25 146 -85t57 -148q0 -124 -109.5 -200.5t-265.5 -76.5q-153 0 -245.5 51t-123.5 176l146 19q59 -117 215 -117q95 0 152 41.5t57 104.5q0 70 -58 112.5t-141 42.5
l-125 2v125l107 4q84 1 139 42.5t55 101.5q0 55 -51 91t-123 36q-166 0 -211 -117zM1653 1497l-996 -1505l-153 2l999 1503h150zM1821 932h157v-574h142v-137h-142v-221h-157v221h-426v137zM1559 358h262v351z" />
    <glyph glyph-name="questiondown" unicode="&#xbf;" horiz-adv-x="1095" 
d="M432 776v283h281v-283h-281zM1047 -31q-66 -153 -197.5 -236t-308.5 -83q-224 0 -348.5 99t-124.5 255q0 67 22 123.5t57.5 96t78 75.5t85.5 70.5t78.5 72t57.5 89t22 112.5h205q0 -73 -19.5 -135.5t-51 -106.5t-69.5 -83t-76.5 -73t-70 -67t-51 -74.5t-19.5 -87.5
q0 -82 63.5 -133t162.5 -51q91 0 172.5 55t113.5 138z" />
    <glyph glyph-name="Agrave" unicode="&#xc0;" horiz-adv-x="1468" 
d="M508 1923l510 -205l-39 -112l-530 145zM68 0l532 1481h270l533 -1481h-252l-131 371h-565l-136 -371h-251zM512 594h446l-221 645z" />
    <glyph glyph-name="Aacute" unicode="&#xc1;" horiz-adv-x="1468" 
d="M977 1923l57 -172l-530 -145l-37 112zM68 0l532 1481h270l533 -1481h-252l-131 371h-565l-136 -371h-251zM512 594h446l-221 645z" />
    <glyph glyph-name="Acircumflex" unicode="&#xc2;" horiz-adv-x="1468" 
d="M889 1657l-139 145l-152 -145h-199l265 256h174l260 -256h-209zM68 0l532 1481h270l533 -1481h-252l-131 371h-565l-136 -371h-251zM512 594h446l-221 645z" />
    <glyph glyph-name="Atilde" unicode="&#xc3;" horiz-adv-x="1468" 
d="M1063 1747q-70 -49 -168 -49q-58 0 -145 27.5t-134 27.5q-39 0 -66 -10.5t-63 -34.5q-12 -10 -20 -8t-14 20l-23 72q-6 11 -4 20.5t14 20.5q39 33 76 50.5t90 17.5q57 0 151 -30t138 -30q61 0 129 45q28 18 37 -12l22 -86q6 -23 -20 -41zM68 0l532 1481h270l533 -1481
h-252l-131 371h-565l-136 -371h-251zM512 594h446l-221 645z" />
    <glyph glyph-name="Adieresis" unicode="&#xc4;" horiz-adv-x="1468" 
d="M682 1903v-242h-225v242h225zM1042 1903v-242h-227v242h227zM68 0l532 1481h270l533 -1481h-252l-131 371h-565l-136 -371h-251zM512 594h446l-221 645z" />
    <glyph glyph-name="Aring" unicode="&#xc5;" horiz-adv-x="1468" 
d="M969 1810q0 -92 -63 -154.5t-154 -62.5t-154 64t-63 158q0 87 63.5 147.5t153.5 60.5q91 0 154 -62t63 -151zM854 1808q0 46 -30 75.5t-74 29.5t-75.5 -30t-31.5 -75q0 -42 32.5 -74t74.5 -32q43 0 73.5 32t30.5 74zM68 0l532 1481h270l533 -1481h-252l-131 371h-565
l-136 -371h-251zM512 594h446l-221 645z" />
    <glyph glyph-name="AE" unicode="&#xc6;" horiz-adv-x="2152" 
d="M2023 211v-211h-1011v375h-490l-203 -375h-251l804 1481h1127v-211h-703v-420h498v-207h-498v-432h727zM1012 594v717l-396 -717h396z" />
    <glyph glyph-name="Ccedilla" unicode="&#xc7;" horiz-adv-x="1462" 
d="M768 188q124 0 209.5 78t112.5 205l260 -10q-12 -96 -49 -178t-100 -147.5t-159 -106t-217 -47.5l-34 -93q101 -4 148.5 -49t47.5 -106q0 -75 -67.5 -119.5t-165.5 -44.5q-135 0 -217 55l36 90q71 -49 150 -49q51 0 78.5 18t27.5 50q0 44 -39.5 65.5t-130.5 22.5
q-13 0 -15.5 3t1.5 13l62 144q-275 23 -431.5 228.5t-156.5 537.5q0 351 171.5 552t475.5 201q242 0 404 -135.5t184 -341.5l-262 -6q-24 127 -108 200.5t-224 73.5q-178 0 -273.5 -134t-95.5 -413t96.5 -418t280.5 -139z" />
    <glyph glyph-name="Egrave" unicode="&#xc8;" horiz-adv-x="1302" 
d="M440 1923l510 -205l-39 -112l-530 145zM180 0v1481h979v-213h-727v-416h643v-211h-645v-424l746 -2v-215h-996z" />
    <glyph glyph-name="Eacute" unicode="&#xc9;" horiz-adv-x="1302" 
d="M911 1923l58 -172l-531 -145l-37 112zM180 0v1481h979v-213h-727v-416h643v-211h-645v-424l746 -2v-215h-996z" />
    <glyph glyph-name="Ecircumflex" unicode="&#xca;" horiz-adv-x="1302" 
d="M823 1657l-139 145l-152 -145h-198l264 256h174l260 -256h-209zM180 0v1481h979v-213h-727v-416h643v-211h-645v-424l746 -2v-215h-996z" />
    <glyph glyph-name="Edieresis" unicode="&#xcb;" horiz-adv-x="1302" 
d="M616 1903v-242h-225v242h225zM977 1903v-242h-227v242h227zM180 0v1481h979v-213h-727v-416h643v-211h-645v-424l746 -2v-215h-996z" />
    <glyph glyph-name="Igrave" unicode="&#xcc;" horiz-adv-x="606" 
d="M68 1923l510 -205l-39 -112l-531 145zM180 1481h250v-1481h-250v1481z" />
    <glyph glyph-name="Iacute" unicode="&#xcd;" horiz-adv-x="606" 
d="M539 1923l57 -172l-530 -145l-37 112zM180 1481h250v-1481h-250v1481z" />
    <glyph glyph-name="Icircumflex" unicode="&#xce;" horiz-adv-x="606" 
d="M449 1657l-140 145l-151 -145h-199l264 256h174l260 -256h-208zM180 1481h250v-1481h-250v1481z" />
    <glyph glyph-name="Idieresis" unicode="&#xcf;" horiz-adv-x="606" 
d="M242 1903v-242h-226v242h226zM602 1903v-242h-227v242h227zM180 1481h250v-1481h-250v1481z" />
    <glyph glyph-name="Eth" unicode="&#xd0;" horiz-adv-x="1503" 
d="M627 1479q396 -7 582 -193.5t186 -537.5q0 -361 -195.5 -554.5t-587.5 -193.5h-385v641h-118q-21 0 -29 8t-8 29v119q0 32 26 32h129v652q273 0 400 -2zM616 207q118 0 210.5 29.5t163 91.5t108 168.5t37.5 251.5q0 279 -131 403.5t-383 124.5h-140v-447h285q27 0 27 -28
v-119q0 -23 -11.5 -32t-36.5 -9h-264v-434h135z" />
    <glyph glyph-name="Ntilde" unicode="&#xd1;" horiz-adv-x="1574" 
d="M1114 1747q-70 -49 -168 -49q-58 0 -144.5 27.5t-133.5 27.5q-39 0 -66 -10.5t-63 -34.5q-25 -19 -35 12l-23 72q-9 23 11 41q39 33 75.5 50.5t89.5 17.5q57 0 151 -30t138 -30q61 0 129 45q28 18 37 -12l23 -86q6 -22 -21 -41zM1149 1481h250v-1481h-223l-746 1085
v-1085h-250v1481h244l725 -1057v1057z" />
    <glyph glyph-name="Ograve" unicode="&#xd2;" horiz-adv-x="1560" 
d="M539 1923l510 -205l-39 -112l-531 145zM782 -20q-310 0 -486.5 200t-176.5 555q0 358 179 562t484 204q304 0 483 -203.5t179 -560.5q0 -355 -177.5 -556t-484.5 -201zM784 188q387 0 387 545q0 284 -101 421.5t-288 137.5t-289 -137.5t-102 -421.5q0 -278 102 -411.5
t291 -133.5z" />
    <glyph glyph-name="Oacute" unicode="&#xd3;" horiz-adv-x="1560" 
d="M1010 1923l57 -172l-530 -145l-37 112zM782 -20q-310 0 -486.5 200t-176.5 555q0 358 179 562t484 204q304 0 483 -203.5t179 -560.5q0 -355 -177.5 -556t-484.5 -201zM784 188q387 0 387 545q0 284 -101 421.5t-288 137.5t-289 -137.5t-102 -421.5q0 -278 102 -411.5
t291 -133.5z" />
    <glyph glyph-name="Ocircumflex" unicode="&#xd4;" horiz-adv-x="1560" 
d="M922 1657l-140 145l-151 -145h-199l264 256h174l260 -256h-208zM782 -20q-310 0 -486.5 200t-176.5 555q0 358 179 562t484 204q304 0 483 -203.5t179 -560.5q0 -355 -177.5 -556t-484.5 -201zM784 188q387 0 387 545q0 284 -101 421.5t-288 137.5t-289 -137.5
t-102 -421.5q0 -278 102 -411.5t291 -133.5z" />
    <glyph glyph-name="Otilde" unicode="&#xd5;" horiz-adv-x="1560" 
d="M1096 1747q-70 -49 -168 -49q-58 0 -145 27.5t-134 27.5q-39 0 -66 -10.5t-63 -34.5q-25 -19 -35 12l-22 72q-6 11 -4 20.5t14 20.5q39 33 76 50.5t90 17.5q57 0 151 -30t138 -30q61 0 129 45q28 18 37 -12l22 -86q6 -23 -20 -41zM782 -20q-310 0 -486.5 200t-176.5 555
q0 358 179 562t484 204q304 0 483 -203.5t179 -560.5q0 -355 -177.5 -556t-484.5 -201zM784 188q387 0 387 545q0 284 -101 421.5t-288 137.5t-289 -137.5t-102 -421.5q0 -278 102 -411.5t291 -133.5z" />
    <glyph glyph-name="Odieresis" unicode="&#xd6;" horiz-adv-x="1560" 
d="M715 1903v-242h-226v242h226zM1075 1903v-242h-227v242h227zM782 -20q-310 0 -486.5 200t-176.5 555q0 358 179 562t484 204q304 0 483 -203.5t179 -560.5q0 -355 -177.5 -556t-484.5 -201zM784 188q387 0 387 545q0 284 -101 421.5t-288 137.5t-289 -137.5t-102 -421.5
q0 -278 102 -411.5t291 -133.5z" />
    <glyph glyph-name="multiply" unicode="&#xd7;" horiz-adv-x="1157" 
d="M1026 1065l-319 -320l317 -317l-133 -133l-318 317l-317 -317l-129 133l315 315l-317 320l129 131l319 -317l320 319z" />
    <glyph glyph-name="Oslash" unicode="&#xd8;" horiz-adv-x="1533" 
d="M1477 1409q21 -21 0 -39l-160 -172q108 -187 108 -461q0 -354 -177.5 -555.5t-483.5 -201.5q-278 0 -447 161l-131 -137q-15 -18 -28.5 -18.5t-34.5 16.5l-57 59q-33 28 -9 52l152 161q-109 180 -109 461q0 358 179 562t485 204q275 0 448 -170l140 150q26 25 45 6z
M399 733q0 -137 35 -233l604 657q-90 141 -274 141q-187 0 -276 -137t-89 -428zM1124 733q0 142 -34 240l-603 -658q91 -131 277 -131q187 0 273.5 131.5t86.5 417.5z" />
    <glyph glyph-name="Ugrave" unicode="&#xd9;" horiz-adv-x="1484" 
d="M489 1923l510 -205l-38 -112l-531 145zM1319 541q0 -273 -136.5 -417t-432.5 -144q-300 0 -435 145.5t-135 429.5v926h256v-951q0 -169 82 -253t232 -84t233.5 84t83.5 253v951h252v-940z" />
    <glyph glyph-name="Uacute" unicode="&#xda;" horiz-adv-x="1484" 
d="M961 1923l57 -172l-531 -145l-36 112zM1319 541q0 -273 -136.5 -417t-432.5 -144q-300 0 -435 145.5t-135 429.5v926h256v-951q0 -169 82 -253t232 -84t233.5 84t83.5 253v951h252v-940z" />
    <glyph glyph-name="Ucircumflex" unicode="&#xdb;" horiz-adv-x="1484" 
d="M870 1657l-139 145l-151 -145h-199l264 256h174l260 -256h-209zM1319 541q0 -273 -136.5 -417t-432.5 -144q-300 0 -435 145.5t-135 429.5v926h256v-951q0 -169 82 -253t232 -84t233.5 84t83.5 253v951h252v-940z" />
    <glyph glyph-name="Udieresis" unicode="&#xdc;" horiz-adv-x="1484" 
d="M666 1903v-242h-226v242h226zM1026 1903v-242h-227v242h227zM1319 541q0 -273 -136.5 -417t-432.5 -144q-300 0 -435 145.5t-135 429.5v926h256v-951q0 -169 82 -253t232 -84t233.5 84t83.5 253v951h252v-940z" />
    <glyph glyph-name="Yacute" unicode="&#xdd;" horiz-adv-x="1302" 
d="M901 1923l57 -172l-530 -145l-37 112zM1284 1481l-508 -854v-627h-250v627l-510 854h271l366 -637l359 637h272z" />
    <glyph glyph-name="Thorn" unicode="&#xde;" horiz-adv-x="1419" 
d="M1352 760q0 -214 -146.5 -327.5t-390.5 -113.5h-350v-319h-285v1481h285v-293h317q122 0 224 -26.5t180 -78t122 -134.5t44 -189zM1061 764q0 110 -78.5 163.5t-216.5 53.5h-301v-455h313q132 0 207.5 61t75.5 177z" />
    <glyph glyph-name="germandbls" unicode="&#xdf;" horiz-adv-x="1306" 
d="M680 1481q192 0 291.5 -81t99.5 -214q0 -55 -16.5 -97.5t-52.5 -76.5t-78.5 -59.5t-108.5 -55.5l-38.5 -22t-23.5 -16.5t-16.5 -19.5t-3.5 -22q0 -25 17 -38t63 -27q148 -61 200 -92q161 -94 191 -242q8 -38 8 -80q0 -170 -115.5 -264t-303.5 -94q-166 0 -277 69l78 158
q31 -20 52.5 -31t58 -21t75.5 -10q93 0 149 44t56 124q0 34 -12 61.5t-28.5 45.5t-50 36.5t-58.5 28.5t-72 27q-48 19 -82.5 38.5t-68 49t-51 70.5t-17.5 92q0 73 36.5 124.5t112.5 102.5q6 4 26.5 18.5t27.5 19.5t24.5 19t24 21.5t18.5 22t16.5 26t8.5 27.5t4 33
q0 63 -46.5 100t-131.5 37q-107 0 -168.5 -64t-61.5 -180v-1069h-246v846h-131v176h129q2 97 31.5 178.5t88 145t153.5 99.5t219 36z" />
    <glyph glyph-name="agrave" unicode="&#xe0;" horiz-adv-x="1165" 
d="M344 1501l510 -205l-39 -112l-530 145zM446 -20q-158 0 -256 84t-98 231q0 177 128.5 265t402.5 91l157 4v72q0 87 -54.5 133.5t-150.5 44.5q-82 0 -145 -38.5t-84 -114.5h-211q7 151 131.5 239t321.5 88q219 0 325.5 -89t106.5 -249v-741h-209l-20 184
q-54 -112 -139 -158t-206 -46zM526 150q95 0 174.5 62t79.5 138v168l-129 -2q-319 -3 -319 -197q0 -78 54.5 -123.5t139.5 -45.5z" />
    <glyph glyph-name="aacute" unicode="&#xe1;" horiz-adv-x="1165" 
d="M815 1501l57 -172l-530 -145l-37 112zM446 -20q-158 0 -256 84t-98 231q0 177 128.5 265t402.5 91l157 4v72q0 87 -54.5 133.5t-150.5 44.5q-82 0 -145 -38.5t-84 -114.5h-211q7 151 131.5 239t321.5 88q219 0 325.5 -89t106.5 -249v-741h-209l-20 184
q-54 -112 -139 -158t-206 -46zM526 150q95 0 174.5 62t79.5 138v168l-129 -2q-319 -3 -319 -197q0 -78 54.5 -123.5t139.5 -45.5z" />
    <glyph glyph-name="acircumflex" unicode="&#xe2;" horiz-adv-x="1165" 
d="M727 1235l-139 145l-152 -145h-198l264 256h174l260 -256h-209zM446 -20q-158 0 -256 84t-98 231q0 177 128.5 265t402.5 91l157 4v72q0 87 -54.5 133.5t-150.5 44.5q-82 0 -145 -38.5t-84 -114.5h-211q7 151 131.5 239t321.5 88q219 0 325.5 -89t106.5 -249v-741h-209
l-20 184q-54 -112 -139 -158t-206 -46zM526 150q95 0 174.5 62t79.5 138v168l-129 -2q-319 -3 -319 -197q0 -78 54.5 -123.5t139.5 -45.5z" />
    <glyph glyph-name="atilde" unicode="&#xe3;" horiz-adv-x="1165" 
d="M901 1325q-70 -49 -168 -49q-58 0 -144.5 27.5t-133.5 27.5q-39 0 -66 -10.5t-63 -34.5q-25 -19 -35 12l-23 72q-9 23 11 41q39 33 75.5 50.5t89.5 17.5q57 0 151 -30t138 -30q61 0 129 45q28 18 37 -12l23 -86q6 -22 -21 -41zM446 -20q-158 0 -256 84t-98 231
q0 177 128.5 265t402.5 91l157 4v72q0 87 -54.5 133.5t-150.5 44.5q-82 0 -145 -38.5t-84 -114.5h-211q7 151 131.5 239t321.5 88q219 0 325.5 -89t106.5 -249v-741h-209l-20 184q-54 -112 -139 -158t-206 -46zM526 150q95 0 174.5 62t79.5 138v168l-129 -2
q-319 -3 -319 -197q0 -78 54.5 -123.5t139.5 -45.5z" />
    <glyph glyph-name="adieresis" unicode="&#xe4;" horiz-adv-x="1165" 
d="M520 1481v-242h-225v242h225zM881 1481v-242h-228v242h228zM446 -20q-158 0 -256 84t-98 231q0 177 128.5 265t402.5 91l157 4v72q0 87 -54.5 133.5t-150.5 44.5q-82 0 -145 -38.5t-84 -114.5h-211q7 151 131.5 239t321.5 88q219 0 325.5 -89t106.5 -249v-741h-209
l-20 184q-54 -112 -139 -158t-206 -46zM526 150q95 0 174.5 62t79.5 138v168l-129 -2q-319 -3 -319 -197q0 -78 54.5 -123.5t139.5 -45.5z" />
    <glyph glyph-name="aring" unicode="&#xe5;" horiz-adv-x="1165" 
d="M805 1389q0 -92 -63 -155t-154 -63t-154 64t-63 158q0 87 63.5 148t153.5 61q91 0 154 -62t63 -151zM690 1386q0 46 -30 75.5t-74 29.5t-75.5 -30t-31.5 -75q0 -42 32.5 -74t74.5 -32q43 0 73.5 32t30.5 74zM446 -20q-158 0 -256 84t-98 231q0 177 128.5 265t402.5 91
l157 4v72q0 87 -54.5 133.5t-150.5 44.5q-82 0 -145 -38.5t-84 -114.5h-211q7 151 131.5 239t321.5 88q219 0 325.5 -89t106.5 -249v-741h-209l-20 184q-54 -112 -139 -158t-206 -46zM526 150q95 0 174.5 62t79.5 138v168l-129 -2q-319 -3 -319 -197q0 -78 54.5 -123.5
t139.5 -45.5z" />
    <glyph glyph-name="ae" unicode="&#xe6;" horiz-adv-x="1894" 
d="M1036 479q0 -133 86.5 -228t210.5 -95q96 0 161.5 40.5t133.5 120.5l158 -73q-84 -137 -201.5 -200.5t-281.5 -63.5q-245 0 -412 196q-9 8 -17 0q-56 -59 -109.5 -98.5t-140.5 -68.5t-192 -29q-161 0 -250.5 81t-89.5 218q0 157 133.5 250t397.5 110l165 12v74
q0 91 -52.5 140.5t-153.5 49.5q-158 0 -250 -157l-211 55q65 134 177.5 200t295.5 66q274 -3 362 -155q125 155 344 155q226 0 365 -159.5t139 -438.5zM1309 918q-114 0 -190.5 -78.5t-76.5 -212.5l517 -2q0 113 -69.5 203t-180.5 90zM788 512l-137 -10q-141 -11 -226 -64
t-85 -143q0 -72 49.5 -114.5t138.5 -39.5q106 3 183 59t77 136v176z" />
    <glyph glyph-name="ccedilla" unicode="&#xe7;" horiz-adv-x="1120" 
d="M596 162q86 0 143.5 55t73.5 133h207q-15 -154 -118 -253.5t-259 -114.5l-37 -93q102 -4 149.5 -49.5t47.5 -105.5q0 -75 -68.5 -119.5t-167.5 -44.5q-133 0 -215 55l35 90q74 -49 152 -49q104 0 104 68q0 44 -39.5 65.5t-128.5 22.5q-13 0 -15.5 3t1.5 13l61 146
q-195 22 -314.5 169.5t-119.5 370.5q0 246 139 400.5t361 154.5q180 0 298.5 -105.5t135.5 -277.5l-211 -2q-21 87 -77 140t-140 53q-125 0 -197.5 -96t-72.5 -263q0 -168 73.5 -267t198.5 -99z" />
    <glyph glyph-name="egrave" unicode="&#xe8;" horiz-adv-x="1167" 
d="M346 1501l508 -205l-37 -112l-530 145zM336 471q0 -139 67.5 -222t192.5 -83q183 0 240 158h227q-22 -109 -92 -188.5t-165 -117.5t-204 -38q-231 0 -372.5 145t-141.5 393q0 164 58.5 290t173 198.5t268.5 72.5q229 0 353 -144t124 -388v-76h-729zM336 627h495
q0 121 -62.5 196.5t-180.5 75.5t-185 -81.5t-67 -190.5z" />
    <glyph glyph-name="eacute" unicode="&#xe9;" horiz-adv-x="1167" 
d="M817 1501l57 -172l-530 -145l-39 112zM336 471q0 -139 67.5 -222t192.5 -83q183 0 240 158h227q-22 -109 -92 -188.5t-165 -117.5t-204 -38q-231 0 -372.5 145t-141.5 393q0 164 58.5 290t173 198.5t268.5 72.5q229 0 353 -144t124 -388v-76h-729zM336 627h495
q0 121 -62.5 196.5t-180.5 75.5t-185 -81.5t-67 -190.5z" />
    <glyph glyph-name="ecircumflex" unicode="&#xea;" horiz-adv-x="1167" 
d="M727 1235l-139 145l-152 -145h-198l266 256h174l258 -256h-209zM336 471q0 -139 67.5 -222t192.5 -83q183 0 240 158h227q-22 -109 -92 -188.5t-165 -117.5t-204 -38q-231 0 -372.5 145t-141.5 393q0 164 58.5 290t173 198.5t268.5 72.5q229 0 353 -144t124 -388v-76
h-729zM336 627h495q0 121 -62.5 196.5t-180.5 75.5t-185 -81.5t-67 -190.5z" />
    <glyph glyph-name="edieresis" unicode="&#xeb;" horiz-adv-x="1167" 
d="M522 1481v-242h-227v242h227zM881 1481v-242h-228v242h228zM336 471q0 -139 67.5 -222t192.5 -83q183 0 240 158h227q-22 -109 -92 -188.5t-165 -117.5t-204 -38q-231 0 -372.5 145t-141.5 393q0 164 58.5 290t173 198.5t268.5 72.5q229 0 353 -144t124 -388v-76h-729z
M336 627h495q0 121 -62.5 196.5t-180.5 75.5t-185 -81.5t-67 -190.5z" />
    <glyph glyph-name="igrave" unicode="&#xec;" horiz-adv-x="542" 
d="M33 1501l510 -205l-39 -112l-531 145zM397 1059v-1059h-247v1059h247z" />
    <glyph glyph-name="iacute" unicode="&#xed;" horiz-adv-x="542" 
d="M504 1501l57 -172l-530 -145l-37 112zM397 1059v-1059h-247v1059h247z" />
    <glyph glyph-name="icircumflex" unicode="&#xee;" horiz-adv-x="542" 
d="M416 1235l-140 145l-151 -145h-199l264 256h175l260 -256h-209zM397 1059v-1059h-247v1059h247z" />
    <glyph glyph-name="idieresis" unicode="&#xef;" horiz-adv-x="542" 
d="M209 1481v-242h-225v242h225zM569 1481v-242h-227v242h227zM397 1059v-1059h-247v1059h247z" />
    <glyph glyph-name="eth" unicode="&#xf0;" horiz-adv-x="1212" 
d="M1130 539q0 -253 -143 -406t-383 -153q-230 0 -376 147.5t-146 376.5q0 233 146.5 383.5t369.5 150.5q105 0 164 -59q-76 146 -230 254l-280 -160l-55 88l239 131q-78 44 -217 99l143 112q150 -46 261 -106l196 110l47 -90l-145 -82q205 -140 307 -343.5t102 -452.5z
M608 152q124 0 196.5 97.5t72.5 260.5q0 164 -73 262t-196 98q-124 0 -198 -98t-74 -262q0 -163 74 -260.5t198 -97.5z" />
    <glyph glyph-name="ntilde" unicode="&#xf1;" 
d="M932 1325q-70 -49 -168 -49q-58 0 -145 27.5t-134 27.5q-39 0 -66 -10.5t-63 -34.5q-12 -10 -20 -8t-14 20l-23 72q-6 11 -4 20.5t14 20.5q39 33 76 50.5t90 17.5q57 0 151 -30t138 -30q61 0 129 45q28 18 37 -12l22 -86q6 -23 -20 -41zM143 0v1059h244v-141
q53 71 128 112t192 41q154 0 262 -101t108 -270v-700h-250v674q0 93 -56 145.5t-146 52.5q-96 0 -164 -46.5t-68 -129.5v-696h-250z" />
    <glyph glyph-name="ograve" unicode="&#xf2;" horiz-adv-x="1163" 
d="M342 1501l510 -205l-39 -112l-530 145zM582 -20q-230 0 -365 149.5t-135 392.5q0 249 137.5 403t364.5 154q229 0 363 -154.5t134 -400.5q0 -243 -134.5 -393.5t-364.5 -150.5zM586 168q87 0 145 52t81.5 131t23.5 181q0 76 -14 139t-43.5 113.5t-79 78.5t-115.5 28
q-88 0 -147.5 -50.5t-84 -129t-24.5 -179.5q0 -75 14.5 -138.5t44.5 -115t81 -81t118 -29.5z" />
    <glyph glyph-name="oacute" unicode="&#xf3;" horiz-adv-x="1163" 
d="M813 1501l57 -172l-530 -145l-37 112zM582 -20q-230 0 -365 149.5t-135 392.5q0 249 137.5 403t364.5 154q229 0 363 -154.5t134 -400.5q0 -243 -134.5 -393.5t-364.5 -150.5zM586 168q87 0 145 52t81.5 131t23.5 181q0 76 -14 139t-43.5 113.5t-79 78.5t-115.5 28
q-88 0 -147.5 -50.5t-84 -129t-24.5 -179.5q0 -75 14.5 -138.5t44.5 -115t81 -81t118 -29.5z" />
    <glyph glyph-name="ocircumflex" unicode="&#xf4;" horiz-adv-x="1163" 
d="M723 1235l-139 145l-152 -145h-199l265 256h174l260 -256h-209zM582 -20q-230 0 -365 149.5t-135 392.5q0 249 137.5 403t364.5 154q229 0 363 -154.5t134 -400.5q0 -243 -134.5 -393.5t-364.5 -150.5zM586 168q87 0 145 52t81.5 131t23.5 181q0 76 -14 139t-43.5 113.5
t-79 78.5t-115.5 28q-88 0 -147.5 -50.5t-84 -129t-24.5 -179.5q0 -75 14.5 -138.5t44.5 -115t81 -81t118 -29.5z" />
    <glyph glyph-name="otilde" unicode="&#xf5;" horiz-adv-x="1163" 
d="M897 1325q-70 -49 -168 -49q-58 0 -144.5 27.5t-133.5 27.5q-39 0 -66 -10.5t-63 -34.5q-25 -19 -35 12l-23 72q-6 11 -4 20.5t14 20.5q39 33 76 50.5t90 17.5q57 0 151 -30t138 -30q61 0 129 45q28 18 37 -12l23 -86q6 -22 -21 -41zM582 -20q-230 0 -365 149.5
t-135 392.5q0 249 137.5 403t364.5 154q229 0 363 -154.5t134 -400.5q0 -243 -134.5 -393.5t-364.5 -150.5zM586 168q87 0 145 52t81.5 131t23.5 181q0 76 -14 139t-43.5 113.5t-79 78.5t-115.5 28q-88 0 -147.5 -50.5t-84 -129t-24.5 -179.5q0 -75 14.5 -138.5t44.5 -115
t81 -81t118 -29.5z" />
    <glyph glyph-name="odieresis" unicode="&#xf6;" horiz-adv-x="1163" 
d="M518 1481v-242h-225v242h225zM879 1481v-242h-228v242h228zM582 -20q-230 0 -365 149.5t-135 392.5q0 249 137.5 403t364.5 154q229 0 363 -154.5t134 -400.5q0 -243 -134.5 -393.5t-364.5 -150.5zM586 168q87 0 145 52t81.5 131t23.5 181q0 76 -14 139t-43.5 113.5
t-79 78.5t-115.5 28q-88 0 -147.5 -50.5t-84 -129t-24.5 -179.5q0 -75 14.5 -138.5t44.5 -115t81 -81t118 -29.5z" />
    <glyph glyph-name="divide" unicode="&#xf7;" horiz-adv-x="1181" 
d="M727 1264v-269h-278v269h278zM1051 838v-187h-930v187h930zM727 496v-269h-278v269h278z" />
    <glyph glyph-name="oslash" unicode="&#xf8;" horiz-adv-x="1234" 
d="M1174 975l-132 -125q80 -141 80 -326q0 -243 -134.5 -393.5t-364.5 -150.5q-219 0 -351 135l-135 -129l-88 94l146 139q-70 131 -70 303q0 249 137 403t363 154q205 0 338 -127l122 117zM369 532q0 -75 14 -135l424 406q-66 88 -182 88q-87 0 -146.5 -50.5t-84.5 -129
t-25 -179.5zM879 532q0 82 -17 146l-428 -410q67 -100 193 -100q87 0 145.5 52t82.5 131t24 181z" />
    <glyph glyph-name="ugrave" unicode="&#xf9;" 
d="M354 1501l510 -205l-39 -112l-530 145zM539 -20q-69 1 -136 22t-126.5 62t-96.5 111t-37 159v727h250v-699q0 -98 62.5 -147t148.5 -49q93 0 156.5 54.5t64.5 150.5v690h252l-6 -1061h-190l-25 217q-13 -68 -46.5 -116.5t-79.5 -73.5t-92.5 -36t-98.5 -11z" />
    <glyph glyph-name="uacute" unicode="&#xfa;" 
d="M823 1501l58 -172l-531 -145l-37 112zM539 -20q-69 1 -136 22t-126.5 62t-96.5 111t-37 159v727h250v-699q0 -98 62.5 -147t148.5 -49q93 0 156.5 54.5t64.5 150.5v690h252l-6 -1061h-190l-25 217q-13 -68 -46.5 -116.5t-79.5 -73.5t-92.5 -36t-98.5 -11z" />
    <glyph glyph-name="ucircumflex" unicode="&#xfb;" 
d="M735 1235l-139 145l-152 -145h-198l264 256h174l260 -256h-209zM539 -20q-69 1 -136 22t-126.5 62t-96.5 111t-37 159v727h250v-699q0 -98 62.5 -147t148.5 -49q93 0 156.5 54.5t64.5 150.5v690h252l-6 -1061h-190l-25 217q-13 -68 -46.5 -116.5t-79.5 -73.5t-92.5 -36
t-98.5 -11z" />
    <glyph glyph-name="udieresis" unicode="&#xfc;" 
d="M528 1481v-242h-225v242h225zM889 1481v-242h-227v242h227zM539 -20q-69 1 -136 22t-126.5 62t-96.5 111t-37 159v727h250v-699q0 -98 62.5 -147t148.5 -49q93 0 156.5 54.5t64.5 150.5v690h252l-6 -1061h-190l-25 217q-13 -68 -46.5 -116.5t-79.5 -73.5t-92.5 -36
t-98.5 -11z" />
    <glyph glyph-name="yacute" unicode="&#xfd;" horiz-adv-x="1132" 
d="M821 1501l58 -172l-531 -145l-37 112zM283 -338q-60 0 -106 8t-61 16l-16 7v160l107 -3q60 -3 103 6.5t66 30.5t32 35.5t18 36.5l27 76l-414 1024h250l278 -748l283 748h244l-437 -1098q-69 -170 -158 -234.5t-216 -64.5z" />
    <glyph glyph-name="thorn" unicode="&#xfe;" horiz-adv-x="1224" 
d="M391 1481v-561q29 32 53 54t64.5 49t94 41.5t116.5 14.5q188 0 305 -137.5t117 -400.5q0 -273 -121 -417t-320 -144q-160 0 -274 102q-20 17 -26.5 15t-6.5 -27v-400h-250v1811h248zM393 256q101 -113 223 -113q126 0 198.5 99t72.5 301q0 193 -71.5 282.5t-192.5 89.5
q-97 0 -163.5 -59.5t-66.5 -130.5v-469z" />
    <glyph glyph-name="ydieresis" unicode="&#xff;" horiz-adv-x="1132" 
d="M526 1481v-242h-225v242h225zM887 1481v-242h-228v242h228zM283 -338q-60 0 -106 8t-61 16l-16 7v160l107 -3q60 -3 103 6.5t66 30.5t32 35.5t18 36.5l27 76l-414 1024h250l278 -748l283 748h244l-437 -1098q-69 -170 -158 -234.5t-216 -64.5z" />
    <glyph glyph-name="Amacron" unicode="&#x100;" horiz-adv-x="1468" 
d="M1085 1884v-164h-669v164h669zM68 0l532 1481h270l533 -1481h-252l-131 371h-565l-136 -371h-251zM512 594h446l-221 645z" />
    <glyph glyph-name="amacron" unicode="&#x101;" horiz-adv-x="1165" 
d="M922 1462v-164h-670v164h670zM446 -20q-158 0 -256 84t-98 231q0 177 128.5 265t402.5 91l157 4v72q0 87 -54.5 133.5t-150.5 44.5q-82 0 -145 -38.5t-84 -114.5h-211q7 151 131.5 239t321.5 88q219 0 325.5 -89t106.5 -249v-741h-209l-20 184q-54 -112 -139 -158
t-206 -46zM526 150q95 0 174.5 62t79.5 138v168l-129 -2q-319 -3 -319 -197q0 -78 54.5 -123.5t139.5 -45.5z" />
    <glyph glyph-name="Abreve" unicode="&#x102;" horiz-adv-x="1468" 
d="M1090 1903q-32 -107 -123 -175.5t-215 -68.5q-126 0 -216 66.5t-120 177.5h159q26 -46 71 -78.5t106 -32.5q55 0 101.5 32.5t72.5 78.5h164zM68 0l532 1481h270l533 -1481h-252l-131 371h-565l-136 -371h-251zM512 594h446l-221 645z" />
    <glyph glyph-name="abreve" unicode="&#x103;" horiz-adv-x="1165" 
d="M926 1481q-32 -107 -123 -175.5t-215 -68.5q-126 0 -216 66.5t-120 177.5h160q26 -46 70.5 -78.5t105.5 -32.5q55 0 101.5 32.5t72.5 78.5h164zM446 -20q-158 0 -256 84t-98 231q0 177 128.5 265t402.5 91l157 4v72q0 87 -54.5 133.5t-150.5 44.5q-82 0 -145 -38.5
t-84 -114.5h-211q7 151 131.5 239t321.5 88q219 0 325.5 -89t106.5 -249v-741h-209l-20 184q-54 -112 -139 -158t-206 -46zM526 150q95 0 174.5 62t79.5 138v168l-129 -2q-319 -3 -319 -197q0 -78 54.5 -123.5t139.5 -45.5z" />
    <glyph glyph-name="Aogonek" unicode="&#x104;" horiz-adv-x="1468" 
d="M1436 -193q26 13 26 -14v-74q0 -18 -16 -26q-68 -37 -189 -37q-103 0 -158 43t-55 123q0 57 36 100t126 78h-55l-131 371h-565l-136 -371h-251l532 1481h270l531 -1473l22 -2q-105 -41 -148.5 -77t-43.5 -81q0 -36 20 -52.5t64 -16.5q67 0 121 28zM512 594h446l-221 645z
" />
    <glyph glyph-name="aogonek" unicode="&#x105;" horiz-adv-x="1165" 
d="M1026 -188q27 14 27 -15v-73q0 -18 -17 -27q-68 -37 -188 -37q-103 0 -158 43t-55 123q0 59 39 103t137 79l-20 176q-54 -112 -139 -158t-206 -46q-158 0 -256 84t-98 231q0 177 128.5 265t402.5 91l157 4v72q0 87 -54.5 133.5t-150.5 44.5q-82 0 -145 -38.5t-84 -114.5
h-211q7 151 131.5 239t321.5 88q219 0 325.5 -89t106.5 -249v-741h-31q-92 -38 -130 -71.5t-38 -75.5q0 -70 84 -70q65 0 121 29zM780 350v168l-129 -2q-319 -3 -319 -197q0 -78 54.5 -123.5t139.5 -45.5q95 0 174.5 62t79.5 138z" />
    <glyph glyph-name="Cacute" unicode="&#x106;" horiz-adv-x="1462" 
d="M999 1923l58 -172l-531 -145l-37 112zM766 1501q242 0 404 -135.5t184 -341.5l-262 -6q-24 127 -108 200.5t-224 73.5q-178 0 -273.5 -134t-95.5 -413t96.5 -418t280.5 -139q124 0 209.5 78t112.5 205l260 -10q-13 -102 -53.5 -187t-109.5 -152t-175 -104.5t-240 -37.5
q-304 0 -478.5 208.5t-174.5 559.5t171.5 552t475.5 201z" />
    <glyph glyph-name="cacute" unicode="&#x107;" horiz-adv-x="1120" 
d="M815 1501l57 -172l-530 -145l-39 112zM588 1079q180 0 298.5 -105.5t135.5 -277.5l-211 -2q-21 87 -77 140t-140 53q-125 0 -197.5 -96t-72.5 -263q0 -168 73.5 -267t198.5 -99q86 0 143.5 55t73.5 133h207q-17 -168 -135.5 -269t-296.5 -101q-222 0 -361 151t-139 393
q0 246 139 400.5t361 154.5z" />
    <glyph glyph-name="Ccircumflex" unicode="&#x108;" horiz-adv-x="1462" 
d="M911 1657l-139 145l-151 -145h-199l264 256h174l260 -256h-209zM766 1501q242 0 404 -135.5t184 -341.5l-262 -6q-24 127 -108 200.5t-224 73.5q-178 0 -273.5 -134t-95.5 -413t96.5 -418t280.5 -139q124 0 209.5 78t112.5 205l260 -10q-13 -102 -53.5 -187t-109.5 -152
t-175 -104.5t-240 -37.5q-304 0 -478.5 208.5t-174.5 559.5t171.5 552t475.5 201z" />
    <glyph glyph-name="ccircumflex" unicode="&#x109;" horiz-adv-x="1120" 
d="M725 1235l-139 145l-152 -145h-198l264 256h176l258 -256h-209zM588 1079q180 0 298.5 -105.5t135.5 -277.5l-211 -2q-21 87 -77 140t-140 53q-125 0 -197.5 -96t-72.5 -263q0 -168 73.5 -267t198.5 -99q86 0 143.5 55t73.5 133h207q-17 -168 -135.5 -269t-296.5 -101
q-222 0 -361 151t-139 393q0 246 139 400.5t361 154.5z" />
    <glyph glyph-name="Cdotaccent" unicode="&#x10a;" horiz-adv-x="1462" 
d="M903 1903v-269h-258v269h258zM766 1501q242 0 404 -135.5t184 -341.5l-262 -6q-24 127 -108 200.5t-224 73.5q-178 0 -273.5 -134t-95.5 -413t96.5 -418t280.5 -139q124 0 209.5 78t112.5 205l260 -10q-13 -102 -53.5 -187t-109.5 -152t-175 -104.5t-240 -37.5
q-304 0 -478.5 208.5t-174.5 559.5t171.5 552t475.5 201z" />
    <glyph glyph-name="cdotaccent" unicode="&#x10b;" horiz-adv-x="1120" 
d="M717 1481v-269h-258v269h258zM588 1079q180 0 298.5 -105.5t135.5 -277.5l-211 -2q-21 87 -77 140t-140 53q-125 0 -197.5 -96t-72.5 -263q0 -168 73.5 -267t198.5 -99q86 0 143.5 55t73.5 133h207q-17 -168 -135.5 -269t-296.5 -101q-222 0 -361 151t-139 393
q0 246 139 400.5t361 154.5z" />
    <glyph glyph-name="Ccaron" unicode="&#x10c;" horiz-adv-x="1462" 
d="M911 1905h209l-260 -260h-174l-264 260h199l151 -148zM766 1501q242 0 404 -135.5t184 -341.5l-262 -6q-24 127 -108 200.5t-224 73.5q-178 0 -273.5 -134t-95.5 -413t96.5 -418t280.5 -139q124 0 209.5 78t112.5 205l260 -10q-13 -102 -53.5 -187t-109.5 -152
t-175 -104.5t-240 -37.5q-304 0 -478.5 208.5t-174.5 559.5t171.5 552t475.5 201z" />
    <glyph glyph-name="ccaron" unicode="&#x10d;" horiz-adv-x="1120" 
d="M725 1483h209l-258 -260h-176l-264 260h198l152 -148zM588 1079q180 0 298.5 -105.5t135.5 -277.5l-211 -2q-21 87 -77 140t-140 53q-125 0 -197.5 -96t-72.5 -263q0 -168 73.5 -267t198.5 -99q86 0 143.5 55t73.5 133h207q-17 -168 -135.5 -269t-296.5 -101
q-222 0 -361 151t-139 393q0 246 139 400.5t361 154.5z" />
    <glyph glyph-name="Dcaron" unicode="&#x10e;" horiz-adv-x="1456" 
d="M856 1905h209l-260 -260h-174l-264 260h198l152 -148zM180 1481q273 0 400 -2q396 -7 582 -193.5t186 -537.5q0 -361 -195.5 -554.5t-587.5 -193.5h-385v1481zM434 1276v-1069h133q94 0 171.5 18t142.5 58.5t109.5 102.5t69.5 153.5t25 208.5q0 279 -131 403.5
t-381 124.5h-139z" />
    <glyph glyph-name="dcaron" unicode="&#x10f;" 
d="M1208 1257q19 0 19 -18v-201q0 -4 -2 -9l-2 -5l-72 -168q-8 -22 -45 -22h-29v-834h-186l-25 209q-87 -229 -334 -229q-208 0 -326 143t-118 401q0 255 114.5 405t317.5 150q190 0 307 -137v580h250v-265h131zM1098 1004q6 15 4 22t-15 8l-10 2v-84zM827 420v287
q-66 186 -233 186q-121 0 -191.5 -90t-70.5 -273q0 -187 70.5 -276.5t185.5 -89.5q102 0 170.5 74.5t68.5 181.5z" />
    <glyph glyph-name="Dcroat" unicode="&#x110;" horiz-adv-x="1503" 
d="M627 1479q396 -7 582 -193.5t186 -537.5q0 -361 -195.5 -554.5t-587.5 -193.5h-385v641h-118q-21 0 -29 8t-8 29v119q0 32 26 32h129v652q273 0 400 -2zM616 207q118 0 210.5 29.5t163 91.5t108 168.5t37.5 251.5q0 279 -131 403.5t-383 124.5h-140v-447h285q27 0 27 -28
v-119q0 -23 -11.5 -32t-36.5 -9h-264v-434h135z" />
    <glyph glyph-name="dcroat" unicode="&#x111;" horiz-adv-x="1239" 
d="M1169 1348v-146h-92v-1202h-186l-25 209q-87 -229 -334 -229q-208 0 -326 143t-118 401q0 255 114.5 405t317.5 150q190 0 307 -137v260h-321v146h321v174h250v-174h92zM827 420v287q-66 186 -233 186q-121 0 -191.5 -90t-70.5 -273q0 -187 70.5 -276.5t185.5 -89.5
q102 0 170.5 74.5t68.5 181.5z" />
    <glyph glyph-name="Emacron" unicode="&#x112;" horiz-adv-x="1302" 
d="M1018 1884v-164h-670v164h670zM180 0v1481h979v-213h-727v-416h643v-211h-645v-424l746 -2v-215h-996z" />
    <glyph glyph-name="emacron" unicode="&#x113;" horiz-adv-x="1167" 
d="M924 1462v-164h-670v164h670zM336 471q0 -139 67.5 -222t192.5 -83q183 0 240 158h227q-22 -109 -92 -188.5t-165 -117.5t-204 -38q-231 0 -372.5 145t-141.5 393q0 164 58.5 290t173 198.5t268.5 72.5q229 0 353 -144t124 -388v-76h-729zM336 627h495q0 121 -62.5 196.5
t-180.5 75.5t-185 -81.5t-67 -190.5z" />
    <glyph glyph-name="Ebreve" unicode="&#x114;" horiz-adv-x="1302" 
d="M1024 1903q-32 -107 -123 -175.5t-215 -68.5q-126 0 -216 66.5t-120 177.5h160q26 -46 70.5 -78.5t105.5 -32.5q55 0 101.5 32.5t72.5 78.5h164zM180 0v1481h979v-213h-727v-416h643v-211h-645v-424l746 -2v-215h-996z" />
    <glyph glyph-name="ebreve" unicode="&#x115;" horiz-adv-x="1167" 
d="M928 1481q-32 -107 -123 -175.5t-215 -68.5q-126 0 -216 66.5t-120 177.5h160q26 -46 70.5 -78.5t105.5 -32.5q55 0 101.5 32.5t72.5 78.5h164zM336 471q0 -139 67.5 -222t192.5 -83q183 0 240 158h227q-22 -109 -92 -188.5t-165 -117.5t-204 -38q-231 0 -372.5 145
t-141.5 393q0 164 58.5 290t173 198.5t268.5 72.5q229 0 353 -144t124 -388v-76h-729zM336 627h495q0 121 -62.5 196.5t-180.5 75.5t-185 -81.5t-67 -190.5z" />
    <glyph glyph-name="Edotaccent" unicode="&#x116;" horiz-adv-x="1302" 
d="M815 1903v-269h-258v269h258zM180 0v1481h979v-213h-727v-416h643v-211h-645v-424l746 -2v-215h-996z" />
    <glyph glyph-name="edotaccent" unicode="&#x117;" horiz-adv-x="1167" 
d="M719 1481v-269h-258v269h258zM336 471q0 -139 67.5 -222t192.5 -83q183 0 240 158h227q-22 -109 -92 -188.5t-165 -117.5t-204 -38q-231 0 -372.5 145t-141.5 393q0 164 58.5 290t173 198.5t268.5 72.5q229 0 353 -144t124 -388v-76h-729zM336 627h495q0 121 -62.5 196.5
t-180.5 75.5t-185 -81.5t-67 -190.5z" />
    <glyph glyph-name="Eogonek" unicode="&#x118;" horiz-adv-x="1302" 
d="M1206 -193q27 13 27 -14v-74q0 -18 -16 -26q-68 -37 -189 -37q-103 0 -158 43t-55 123q0 57 36 100t126 78h-797v1481h979v-213h-727v-416h643v-211h-645v-424l746 -2v-209h18q-105 -41 -149 -77t-44 -81q0 -36 20 -52.5t64 -16.5q67 0 121 28z" />
    <glyph glyph-name="eogonek" unicode="&#x119;" horiz-adv-x="1167" 
d="M1065 547v-76h-729q0 -139 67.5 -222t192.5 -83q183 0 240 158h227q-43 -204 -229 -293h12q-105 -41 -149 -77t-44 -81q0 -70 84 -70q65 0 121 29q27 14 27 -14v-74q0 -18 -17 -27q-66 -36 -186 -36q-103 0 -159 42.5t-56 120.5q0 86 78 138q-208 19 -332.5 162
t-124.5 374q0 164 58.5 290t173 198.5t268.5 72.5q229 0 353 -144t124 -388zM336 627h495q0 121 -62.5 196.5t-180.5 75.5t-185 -81.5t-67 -190.5z" />
    <glyph glyph-name="Ecaron" unicode="&#x11a;" horiz-adv-x="1302" 
d="M823 1905h209l-260 -260h-174l-264 260h198l152 -148zM180 0v1481h979v-213h-727v-416h643v-211h-645v-424l746 -2v-215h-996z" />
    <glyph glyph-name="ecaron" unicode="&#x11b;" horiz-adv-x="1167" 
d="M727 1483h209l-258 -260h-176l-264 260h198l152 -148zM336 471q0 -139 67.5 -222t192.5 -83q183 0 240 158h227q-22 -109 -92 -188.5t-165 -117.5t-204 -38q-231 0 -372.5 145t-141.5 393q0 164 58.5 290t173 198.5t268.5 72.5q229 0 353 -144t124 -388v-76h-729z
M336 627h495q0 121 -62.5 196.5t-180.5 75.5t-185 -81.5t-67 -190.5z" />
    <glyph glyph-name="Gcircumflex" unicode="&#x11c;" horiz-adv-x="1544" 
d="M907 1657l-139 145l-152 -145h-198l264 256h174l260 -256h-209zM766 -20q-297 0 -472 204.5t-175 550.5q0 353 181 559.5t480 206.5q120 0 227 -39.5t183 -105t122 -152t50 -178.5l-264 -8q-22 117 -109 192.5t-213 75.5q-178 0 -282.5 -135.5t-104.5 -402.5
q0 -145 30 -253t85 -171t124.5 -93t155.5 -30q74 0 136.5 27t102 69.5t63 91t28.5 96.5l8 111h-329v176l591 -4v-768h-178v209q-151 -229 -440 -229z" />
    <glyph glyph-name="gcircumflex" unicode="&#x11d;" horiz-adv-x="1265" 
d="M752 1235l-140 145l-151 -145h-199l264 256h174l261 -256h-209zM606 -350q-268 0 -410.5 72.5t-142.5 195.5q0 41 18 76.5t47.5 58.5t55.5 38.5t53 27t29 12.5q-2 1 -17.5 9.5t-22.5 13t-22 15t-23 20.5t-17.5 23.5t-14 30.5t-4.5 36q0 56 52.5 99.5t150.5 63.5
q-205 100 -205 299q0 156 134 245t347 89q101 0 171.5 -22t136.5 -66l292 119l-2 -205l-184 -33q12 -26 20.5 -63.5t8.5 -61.5q0 -69 -29 -130t-85 -109.5t-145.5 -76.5t-201.5 -28q-40 0 -86 4q-143 -5 -143 -57q0 -25 41 -35t151 -18q105 -4 223 -12q186 -12 277.5 -90
t91.5 -205q0 -155 -142 -245.5t-403 -90.5zM602 547q105 0 162 49t57 139q0 92 -58 146.5t-161 54.5q-102 0 -161.5 -55t-59.5 -146q0 -88 58.5 -138t162.5 -50zM647 -203q139 0 201.5 35.5t62.5 108.5q0 119 -174 131l-268 18q-67 3 -119.5 -40t-52.5 -103q0 -150 350 -150
z" />
    <glyph glyph-name="Gbreve" unicode="&#x11e;" horiz-adv-x="1544" 
d="M1108 1903q-32 -107 -123 -175.5t-215 -68.5q-126 0 -216 66.5t-120 177.5h160q26 -46 70.5 -78.5t105.5 -32.5q55 0 101.5 32.5t72.5 78.5h164zM766 -20q-297 0 -472 204.5t-175 550.5q0 353 181 559.5t480 206.5q120 0 227 -39.5t183 -105t122 -152t50 -178.5l-264 -8
q-22 117 -109 192.5t-213 75.5q-178 0 -282.5 -135.5t-104.5 -402.5q0 -145 30 -253t85 -171t124.5 -93t155.5 -30q74 0 136.5 27t102 69.5t63 91t28.5 96.5l8 111h-329v176l591 -4v-768h-178v209q-151 -229 -440 -229z" />
    <glyph glyph-name="gbreve" unicode="&#x11f;" horiz-adv-x="1265" 
d="M952 1481q-32 -107 -123 -175.5t-215 -68.5q-126 0 -215.5 66.5t-119.5 177.5h159q26 -46 70.5 -78.5t105.5 -32.5q55 0 101.5 32.5t72.5 78.5h164zM606 -350q-268 0 -410.5 72.5t-142.5 195.5q0 41 18 76.5t47.5 58.5t55.5 38.5t53 27t29 12.5q-2 1 -17.5 9.5t-22.5 13
t-22 15t-23 20.5t-17.5 23.5t-14 30.5t-4.5 36q0 56 52.5 99.5t150.5 63.5q-205 100 -205 299q0 156 134 245t347 89q101 0 171.5 -22t136.5 -66l292 119l-2 -205l-184 -33q12 -26 20.5 -63.5t8.5 -61.5q0 -69 -29 -130t-85 -109.5t-145.5 -76.5t-201.5 -28q-40 0 -86 4
q-143 -5 -143 -57q0 -25 41 -35t151 -18q105 -4 223 -12q186 -12 277.5 -90t91.5 -205q0 -155 -142 -245.5t-403 -90.5zM602 547q105 0 162 49t57 139q0 92 -58 146.5t-161 54.5q-102 0 -161.5 -55t-59.5 -146q0 -88 58.5 -138t162.5 -50zM647 -203q139 0 201.5 35.5
t62.5 108.5q0 119 -174 131l-268 18q-67 3 -119.5 -40t-52.5 -103q0 -150 350 -150z" />
    <glyph glyph-name="Gdotaccent" unicode="&#x120;" horiz-adv-x="1544" 
d="M899 1903v-269h-258v269h258zM766 -20q-297 0 -472 204.5t-175 550.5q0 353 181 559.5t480 206.5q120 0 227 -39.5t183 -105t122 -152t50 -178.5l-264 -8q-22 117 -109 192.5t-213 75.5q-178 0 -282.5 -135.5t-104.5 -402.5q0 -145 30 -253t85 -171t124.5 -93t155.5 -30
q74 0 136.5 27t102 69.5t63 91t28.5 96.5l8 111h-329v176l591 -4v-768h-178v209q-151 -229 -440 -229z" />
    <glyph glyph-name="gdotaccent" unicode="&#x121;" horiz-adv-x="1265" 
d="M743 1481v-269h-258v269h258zM606 -350q-268 0 -410.5 72.5t-142.5 195.5q0 41 18 76.5t47.5 58.5t55.5 38.5t53 27t29 12.5q-2 1 -17.5 9.5t-22.5 13t-22 15t-23 20.5t-17.5 23.5t-14 30.5t-4.5 36q0 56 52.5 99.5t150.5 63.5q-205 100 -205 299q0 156 134 245t347 89
q101 0 171.5 -22t136.5 -66l292 119l-2 -205l-184 -33q12 -26 20.5 -63.5t8.5 -61.5q0 -69 -29 -130t-85 -109.5t-145.5 -76.5t-201.5 -28q-40 0 -86 4q-143 -5 -143 -57q0 -25 41 -35t151 -18q105 -4 223 -12q186 -12 277.5 -90t91.5 -205q0 -155 -142 -245.5t-403 -90.5z
M602 547q105 0 162 49t57 139q0 92 -58 146.5t-161 54.5q-102 0 -161.5 -55t-59.5 -146q0 -88 58.5 -138t162.5 -50zM647 -203q139 0 201.5 35.5t62.5 108.5q0 119 -174 131l-268 18q-67 3 -119.5 -40t-52.5 -103q0 -150 350 -150z" />
    <glyph glyph-name="uni0122" unicode="&#x122;" horiz-adv-x="1544" 
d="M766 -20q-297 0 -472 204.5t-175 550.5q0 353 181 559.5t480 206.5q120 0 227 -39.5t183 -105t122 -152t50 -178.5l-264 -8q-22 117 -109 192.5t-213 75.5q-178 0 -282.5 -135.5t-104.5 -402.5q0 -145 30 -253t85 -171t124.5 -93t155.5 -30q74 0 136.5 27t102 69.5t63 91
t28.5 96.5l8 111h-329v176l591 -4v-768h-178v209q-151 -229 -440 -229zM700 -481q-11 0 -16.5 9.5t0.5 18.5l59 99q9 15 4.5 27t-18.5 12h-16q-19 0 -25 6.5t-6 23.5v127q0 29 23 29h143q22 0 22 -23v-163q0 -5 -2 -12t-2 -9l-86 -125q-15 -20 -49 -20h-31z" />
    <glyph glyph-name="uni0123" unicode="&#x123;" horiz-adv-x="1265" 
d="M469 1227v198l104 154h103l-105 -166h88v-186h-190zM606 -350q-268 0 -410.5 72.5t-142.5 195.5q0 41 18 76.5t47.5 58.5t55.5 38.5t53 27t29 12.5q-2 1 -17.5 9.5t-22.5 13t-22 15t-23 20.5t-17.5 23.5t-14 30.5t-4.5 36q0 56 52.5 99.5t150.5 63.5q-205 100 -205 299
q0 156 134 245t347 89q101 0 171.5 -22t136.5 -66l292 119l-2 -205l-184 -33q12 -26 20.5 -63.5t8.5 -61.5q0 -69 -29 -130t-85 -109.5t-145.5 -76.5t-201.5 -28q-40 0 -86 4q-143 -5 -143 -57q0 -25 41 -35t151 -18q105 -4 223 -12q186 -12 277.5 -90t91.5 -205
q0 -155 -142 -245.5t-403 -90.5zM602 547q105 0 162 49t57 139q0 92 -58 146.5t-161 54.5q-102 0 -161.5 -55t-59.5 -146q0 -88 58.5 -138t162.5 -50zM647 -203q139 0 201.5 35.5t62.5 108.5q0 119 -174 131l-268 18q-67 3 -119.5 -40t-52.5 -103q0 -150 350 -150z" />
    <glyph glyph-name="Hcircumflex" unicode="&#x124;" horiz-adv-x="1476" 
d="M877 1657l-140 145l-151 -145h-199l264 256h174l260 -256h-208zM1051 657h-621v-657h-250v1481h250v-611h621v611h249v-1481h-249v657z" />
    <glyph glyph-name="hcircumflex" unicode="&#x125;" 
d="M143 0v1522h246v-607q102 154 316 154q157 0 263.5 -91t106.5 -235v-743h-250v705q0 77 -56.5 122t-145.5 45q-95 0 -162.5 -47t-67.5 -131v-694h-250zM928 1235l-140 145l-151 -145h-199l264 256h175l260 -256h-209z" />
    <glyph glyph-name="Hbar" unicode="&#x126;" horiz-adv-x="1546" 
d="M1495 1278q23 0 23 -29v-84q0 -20 -9.5 -27.5t-31.5 -7.5h-123v-1130h-250v657h-621v-657h-250v1130h-182q-19 0 -26 7t-7 26v84q0 31 23 31h192v203h250v-203h621v203h250v-203h141zM1104 870v260h-621v-260h621z" />
    <glyph glyph-name="hbar" unicode="&#x127;" horiz-adv-x="1253" 
d="M752 1069q157 0 263.5 -91t106.5 -235v-743h-250v705q0 77 -56.5 122t-145.5 45q-97 0 -164.5 -47t-67.5 -131v-694h-250v1202h-143v146h143v174h248v-174h273v-146h-273v-287q98 154 316 154z" />
    <glyph glyph-name="Itilde" unicode="&#x128;" horiz-adv-x="606" 
d="M623 1747q-70 -49 -168 -49q-58 0 -145 27.5t-134 27.5q-39 0 -66 -10.5t-63 -34.5q-25 -19 -35 12l-22 72q-6 11 -4 20.5t14 20.5q39 33 76 50.5t90 17.5q57 0 151 -30t138 -30q61 0 129 45q28 18 37 -12l22 -86q6 -23 -20 -41zM180 1481h250v-1481h-250v1481z" />
    <glyph glyph-name="itilde" unicode="&#x129;" horiz-adv-x="542" 
d="M590 1325q-70 -49 -168 -49q-58 0 -145 27.5t-134 27.5q-39 0 -66 -10.5t-63 -34.5q-12 -10 -20 -8t-14 20l-23 72q-6 11 -4 20.5t14 20.5q39 33 76 50.5t90 17.5q57 0 151 -30t138 -30q61 0 129 45q28 18 37 -12l22 -86q6 -23 -20 -41zM397 1059v-1059h-247v1059h247z
" />
    <glyph glyph-name="Imacron" unicode="&#x12a;" horiz-adv-x="606" 
d="M645 1884v-164h-670v164h670zM180 1481h250v-1481h-250v1481z" />
    <glyph glyph-name="imacron" unicode="&#x12b;" horiz-adv-x="542" 
d="M610 1462v-164h-669v164h669zM397 1059v-1059h-247v1059h247z" />
    <glyph glyph-name="Ibreve" unicode="&#x12c;" horiz-adv-x="606" 
d="M649 1903q-32 -107 -123 -175.5t-215 -68.5q-126 0 -216 66.5t-120 177.5h160q26 -46 70.5 -78.5t105.5 -32.5q55 0 101.5 32.5t72.5 78.5h164zM180 1481h250v-1481h-250v1481z" />
    <glyph glyph-name="ibreve" unicode="&#x12d;" horiz-adv-x="542" 
d="M616 1481q-32 -107 -122.5 -175.5t-214.5 -68.5q-126 0 -216 66.5t-120 177.5h159q26 -46 71 -78.5t106 -32.5q55 0 101.5 32.5t72.5 78.5h163zM397 1059v-1059h-247v1059h247z" />
    <glyph glyph-name="Iogonek" unicode="&#x12e;" horiz-adv-x="606" 
d="M438 -201q27 13 27 -14v-74q0 -18 -16 -26q-68 -37 -189 -37q-103 0 -158 43t-55 123q0 60 40 105t144 81h-51v1481h250v-1481h-47l43 -2q-105 -41 -149 -77t-44 -81q0 -36 20 -52.5t64 -16.5q67 0 121 28z" />
    <glyph glyph-name="iogonek" unicode="&#x12f;" horiz-adv-x="542" 
d="M408 1481v-269h-258v269h258zM401 -190q27 14 27 -15v-74q0 -18 -16 -26q-68 -37 -189 -37q-103 0 -158 43t-55 123q0 55 34.5 98t121.5 78h-16v1059h247v-1059h-28q-93 -38 -132.5 -72.5t-39.5 -77.5q0 -36 20 -52.5t64 -16.5q64 0 120 29z" />
    <glyph glyph-name="Idotaccent" unicode="&#x130;" horiz-adv-x="606" 
d="M440 1903v-269h-258v269h258zM180 1481h250v-1481h-250v1481z" />
    <glyph glyph-name="dotlessi" unicode="&#x131;" horiz-adv-x="542" 
d="M397 1059v-1059h-247v1059h247z" />
    <glyph glyph-name="IJ" unicode="&#x132;" horiz-adv-x="1421" 
d="M180 1481h250v-1481h-250v1481zM1257 383q0 -104 -15.5 -174.5t-54 -124.5t-107.5 -79t-173 -25q-120 0 -250 38l11 232q8 -2 32 -10t39 -12.5t41 -8.5t51 -4q100 0 138.5 54t38.5 182v1030h249v-1098z" />
    <glyph glyph-name="ij" unicode="&#x133;" horiz-adv-x="1105" 
d="M432 1522v-271h-258v271h258zM985 1522v-271h-260v271h260zM428 1059v-1059h-248v1059h248zM979 -18q0 -165 -77 -243.5t-251 -78.5q-49 0 -82.5 7t-42.5 13l-8 7v166l92 8q66 6 92.5 35t26.5 92v1071h250v-1077z" />
    <glyph glyph-name="Jcircumflex" unicode="&#x134;" horiz-adv-x="815" 
d="M612 1657l-139 145l-151 -145h-199l264 256h174l260 -256h-209zM651 383q0 -104 -15.5 -174.5t-54 -124.5t-107.5 -79t-173 -25q-120 0 -250 38l10 232q7 -2 31.5 -10t40 -12.5t41.5 -8.5t51 -4q99 0 137.5 53.5t38.5 182.5v1030h250v-1098z" />
    <glyph glyph-name="jcircumflex" unicode="&#x135;" horiz-adv-x="563" 
d="M416 1235l-140 145l-151 -145h-199l264 256h175l260 -256h-209zM401 -18q0 -165 -76.5 -243.5t-250.5 -78.5q-52 0 -84 5.5t-40.5 11t-8.5 10.5l-2 166l92 8q67 6 95 35.5t28 91.5v1071h247v-1077z" />
    <glyph glyph-name="uni0136" unicode="&#x136;" horiz-adv-x="1439" 
d="M1376 0h-276l-424 723l-236 -279v-444h-260v1481h260v-719l596 719h289l-467 -574zM639 -481q-11 0 -16.5 9.5t0.5 18.5l59 99q9 15 4.5 27t-18.5 12h-17q-18 0 -24 6t-6 24v127q0 29 22 29h143q23 0 23 -23v-163q0 -5 -2 -12t-2 -9l-86 -125q-15 -20 -49 -20h-31z" />
    <glyph glyph-name="uni0137" unicode="&#x137;" horiz-adv-x="1177" 
d="M1124 0h-254l-305 492l-172 -181v-311h-250v1522h250v-955l451 492h260l-383 -414zM514 -481q-11 0 -16.5 9.5t0.5 18.5l59 99q9 15 4.5 27t-18.5 12h-17q-18 0 -24 6t-6 24v127q0 29 22 29h144q22 0 22 -23v-163q0 -5 -2 -12t-2 -9l-86 -125q-15 -20 -49 -20h-31z" />
    <glyph glyph-name="kgreenlandic" unicode="&#x138;" horiz-adv-x="1212" 
d="M1157 0h-287l-272 514l-205 -203v-311h-250v1059h250v-504l471 504h260l-358 -363z" />
    <glyph glyph-name="Lacute" unicode="&#x139;" horiz-adv-x="1165" 
d="M526 1923l58 -172l-531 -145l-37 112zM180 1481h254v-1266h668v-215h-922v1481z" />
    <glyph glyph-name="lacute" unicode="&#x13a;" horiz-adv-x="655" 
d="M502 2007l59 -172l-532 -147l-37 114zM453 -16q-79 0 -137 17.5t-90 44.5t-51 69.5t-24.5 81t-5.5 90.5v1235h246v-1209q0 -138 119 -149l53 -2v-156q-58 -22 -110 -22z" />
    <glyph glyph-name="uni013B" unicode="&#x13b;" horiz-adv-x="1165" 
d="M180 1481h254v-1266h668v-215h-922v1481zM559 -481q-11 0 -16.5 9.5t0.5 18.5l59 99q9 15 4.5 27t-18.5 12h-17q-18 0 -24 6t-6 24v127q0 29 22 29h144q22 0 22 -23v-163q0 -5 -2 -12t-2 -9l-86 -125q-15 -20 -49 -20h-31z" />
    <glyph glyph-name="uni013C" unicode="&#x13c;" horiz-adv-x="655" 
d="M453 -16q-79 0 -137 17.5t-90 44.5t-51 69.5t-24.5 81t-5.5 90.5v1235h246v-1209q0 -138 119 -149l53 -2v-156q-58 -22 -110 -22zM186 -481q-12 0 -17 9.5t1 18.5l59 99q9 15 4.5 27t-18.5 12h-16q-19 0 -25 6.5t-6 23.5v127q0 29 22 29h144q22 0 22 -23v-163
q0 -5 -2 -12t-2 -9l-86 -125q-15 -20 -49 -20h-31z" />
    <glyph glyph-name="Lcaron" unicode="&#x13d;" horiz-adv-x="1165" 
d="M180 1481h254v-1266h668v-215h-922v1481zM772 1057q-9 0 -13 7t-1 15l59 148q7 15 5 22t-15 8l-16 5q-16 2 -21.5 6t-5.5 16v174q0 23 20 23h144q18 0 18 -19v-200q0 -4 -2 -9t-2 -6l-72 -168q-8 -22 -45 -22h-53z" />
    <glyph glyph-name="lcaron" unicode="&#x13e;" horiz-adv-x="647" 
d="M512 1102q-9 0 -13 7t-1 15l59 148q7 15 5 22.5t-15 8.5l-17 4q-15 2 -20.5 6t-5.5 16v174q0 23 20 23h144q18 0 18 -19v-200q0 -3 -2 -9l-2 -6l-72 -168q-8 -22 -45 -22h-53zM453 -16q-79 0 -137 17.5t-90 44.5t-51 69.5t-24.5 81t-5.5 90.5v1235h246v-1209
q0 -138 119 -149l53 -2v-156q-58 -22 -110 -22z" />
    <glyph glyph-name="Ldot" unicode="&#x13f;" horiz-adv-x="1226" 
d="M180 1481h254v-1266h668v-215h-922v1481zM1133 946v-262h-275v262h275z" />
    <glyph glyph-name="ldot" unicode="&#x140;" horiz-adv-x="796" 
d="M453 -16q-79 0 -137 17.5t-90 44.5t-51 69.5t-24.5 81t-5.5 90.5v1235h246v-1209q0 -138 119 -149l53 -2v-156q-58 -22 -110 -22zM821 713v-264h-272v264h272z" />
    <glyph glyph-name="Lslash" unicode="&#x141;" horiz-adv-x="1189" 
d="M461 215h667v-215h-921v643l-137 -37q-20 -4 -27.5 1.5t-7.5 23.5v147q0 28 24 35l148 39v629h254v-563l293 77q32 8 32 -24v-144q0 -24 -28 -32l-297 -82v-498z" />
    <glyph glyph-name="lslash" unicode="&#x142;" horiz-adv-x="653" 
d="M606 164l53 -2v-156q-58 -22 -110 -22q-79 0 -136.5 17.5t-90 44.5t-51 69.5t-24 81t-5.5 90.5v180l-195 -150v220l195 145v840h245v-656l125 95v-209l-125 -97v-342q0 -138 119 -149z" />
    <glyph glyph-name="Nacute" unicode="&#x143;" horiz-adv-x="1574" 
d="M1030 1923l57 -172l-530 -145l-37 112zM1149 1481h250v-1481h-223l-746 1085v-1085h-250v1481h244l725 -1057v1057z" />
    <glyph glyph-name="nacute" unicode="&#x144;" 
d="M846 1501l57 -172l-530 -145l-37 112zM143 0v1059h244v-141q53 71 128 112t192 41q154 0 262 -101t108 -270v-700h-250v674q0 93 -56 145.5t-146 52.5q-96 0 -164 -46.5t-68 -129.5v-696h-250z" />
    <glyph glyph-name="uni0145" unicode="&#x145;" horiz-adv-x="1574" 
d="M1149 1481h250v-1481h-223l-746 1085v-1085h-250v1481h244l725 -1057v1057zM692 -481q-11 0 -16.5 9.5t0.5 18.5l59 99q9 15 4.5 27t-18.5 12h-16q-19 0 -25 6.5t-6 23.5v127q0 29 22 29h144q22 0 22 -23v-163q0 -5 -2 -12t-2 -9l-86 -125q-15 -20 -49 -20h-31z" />
    <glyph glyph-name="uni0146" unicode="&#x146;" 
d="M143 0v1059h244v-141q53 71 128 112t192 41q154 0 262 -101t108 -270v-700h-250v674q0 93 -56 145.5t-146 52.5q-96 0 -164 -46.5t-68 -129.5v-696h-250zM537 -481q-11 0 -17 9.5t0 18.5l60 99q9 15 4 27t-19 12h-16q-19 0 -25 6.5t-6 23.5v127q0 29 23 29h143
q23 0 23 -23v-163q0 -5 -2.5 -12t-2.5 -9l-86 -125q-15 -20 -49 -20h-30z" />
    <glyph glyph-name="Ncaron" unicode="&#x147;" horiz-adv-x="1574" 
d="M940 1905h209l-260 -260h-174l-264 260h198l152 -148zM1149 1481h250v-1481h-223l-746 1085v-1085h-250v1481h244l725 -1057v1057z" />
    <glyph glyph-name="ncaron" unicode="&#x148;" 
d="M758 1483h209l-260 -260h-175l-264 260h199l151 -148zM143 0v1059h244v-141q53 71 128 112t192 41q154 0 262 -101t108 -270v-700h-250v674q0 93 -56 145.5t-146 52.5q-96 0 -164 -46.5t-68 -129.5v-696h-250z" />
    <glyph glyph-name="napostrophe" unicode="&#x149;" horiz-adv-x="1384" 
d="M100 920q-20 0 -16 22l61 225q5 17 2.5 24.5t-12.5 8.5l-16 2q-27 0 -27 25v231q0 23 21 23h145q18 0 18 -19v-260q0 -10 -4 -14l-73 -246q-5 -22 -43 -22h-56zM322 0v1059h243v-141q53 71 128 112t192 41q154 0 262 -101t108 -270v-700h-249v674q0 93 -56.5 145.5
t-146.5 52.5q-96 0 -164 -46.5t-68 -129.5v-696h-249z" />
    <glyph glyph-name="Eng" unicode="&#x14a;" horiz-adv-x="1548" 
d="M1348 1481q24 0 24 -27v-1448q0 -183 -89 -269.5t-277 -86.5q-96 0 -215 26q-38 8 -35 56l12 143q3 34 33 29q87 -21 129 -21q77 0 119 40.5t43 131.5v60l-654 895q-18 27 -18 -2v-977q0 -31 -37 -31h-166q-37 0 -37 31v1417q0 18 7.5 25.5t25.5 7.5h193q18 0 27.5 -5
t21.5 -20l653 -903q12 -14 20.5 -12t8.5 18v893q0 29 32 29h179z" />
    <glyph glyph-name="eng" unicode="&#x14b;" horiz-adv-x="1224" 
d="M754 -340q-121 0 -121 23v170l78 4q62 5 89 34t27 93v735q0 82 -42.5 128t-131.5 46q-133 0 -258 -141v-752h-252l2 1059h244v-164q101 96 187.5 140t183.5 44q145 0 231 -85t86 -224v-778q0 -156 -85.5 -244t-237.5 -88z" />
    <glyph glyph-name="Omacron" unicode="&#x14c;" horiz-adv-x="1560" 
d="M1118 1884v-164h-669v164h669zM782 -20q-310 0 -486.5 200t-176.5 555q0 358 179 562t484 204q304 0 483 -203.5t179 -560.5q0 -355 -177.5 -556t-484.5 -201zM784 188q387 0 387 545q0 284 -101 421.5t-288 137.5t-289 -137.5t-102 -421.5q0 -278 102 -411.5t291 -133.5
z" />
    <glyph glyph-name="omacron" unicode="&#x14d;" horiz-adv-x="1163" 
d="M920 1462v-164h-670v164h670zM582 -20q-230 0 -365 149.5t-135 392.5q0 249 137.5 403t364.5 154q229 0 363 -154.5t134 -400.5q0 -243 -134.5 -393.5t-364.5 -150.5zM586 168q87 0 145 52t81.5 131t23.5 181q0 76 -14 139t-43.5 113.5t-79 78.5t-115.5 28
q-88 0 -147.5 -50.5t-84 -129t-24.5 -179.5q0 -75 14.5 -138.5t44.5 -115t81 -81t118 -29.5z" />
    <glyph glyph-name="Obreve" unicode="&#x14e;" horiz-adv-x="1560" 
d="M1122 1903q-32 -107 -123 -175.5t-215 -68.5q-126 0 -215.5 66.5t-119.5 177.5h159q26 -46 70.5 -78.5t105.5 -32.5q55 0 101.5 32.5t72.5 78.5h164zM782 -20q-310 0 -486.5 200t-176.5 555q0 358 179 562t484 204q304 0 483 -203.5t179 -560.5q0 -355 -177.5 -556
t-484.5 -201zM784 188q387 0 387 545q0 284 -101 421.5t-288 137.5t-289 -137.5t-102 -421.5q0 -278 102 -411.5t291 -133.5z" />
    <glyph glyph-name="obreve" unicode="&#x14f;" horiz-adv-x="1163" 
d="M924 1481q-32 -107 -123 -175.5t-215 -68.5q-126 0 -216 66.5t-120 177.5h160q26 -46 70.5 -78.5t105.5 -32.5q55 0 101.5 32.5t72.5 78.5h164zM582 -20q-230 0 -365 149.5t-135 392.5q0 249 137.5 403t364.5 154q229 0 363 -154.5t134 -400.5q0 -243 -134.5 -393.5
t-364.5 -150.5zM586 168q87 0 145 52t81.5 131t23.5 181q0 76 -14 139t-43.5 113.5t-79 78.5t-115.5 28q-88 0 -147.5 -50.5t-84 -129t-24.5 -179.5q0 -75 14.5 -138.5t44.5 -115t81 -81t118 -29.5z" />
    <glyph glyph-name="Ohungarumlaut" unicode="&#x150;" horiz-adv-x="1560" 
d="M752 1909l73 -88q28 -32 -6 -52l-266 -194q-18 -11 -26.5 -11.5t-18.5 11.5l-45 49q-19 22 -4 37l260 250q20 17 33 -2zM1116 1909l76 -88q24 -31 -8 -52l-269 -194q-28 -20 -45 0l-43 49q-20 23 -2 37l258 250q7 8 17 7.5t16 -9.5zM782 -20q-310 0 -486.5 200
t-176.5 555q0 358 179 562t484 204q304 0 483 -203.5t179 -560.5q0 -355 -177.5 -556t-484.5 -201zM784 188q387 0 387 545q0 284 -101 421.5t-288 137.5t-289 -137.5t-102 -421.5q0 -278 102 -411.5t291 -133.5z" />
    <glyph glyph-name="ohungarumlaut" unicode="&#x151;" horiz-adv-x="1163" 
d="M553 1487l74 -88q28 -31 -6 -51l-267 -195q-18 -11 -26.5 -11.5t-18.5 11.5l-45 49q-19 22 -4 37l260 250q20 17 33 -2zM918 1487l75 -88q24 -31 -8 -51l-268 -195q-28 -20 -45 0l-43 49q-20 23 -2 37l258 250q7 8 17 7.5t16 -9.5zM582 -20q-230 0 -365 149.5t-135 392.5
q0 249 137.5 403t364.5 154q229 0 363 -154.5t134 -400.5q0 -243 -134.5 -393.5t-364.5 -150.5zM586 168q87 0 145 52t81.5 131t23.5 181q0 76 -14 139t-43.5 113.5t-79 78.5t-115.5 28q-88 0 -147.5 -50.5t-84 -129t-24.5 -179.5q0 -75 14.5 -138.5t44.5 -115t81 -81
t118 -29.5z" />
    <glyph glyph-name="OE" unicode="&#x152;" horiz-adv-x="2306" 
d="M2177 211v-211h-942l-53 131q-130 -151 -387 -151q-318 0 -497 199.5t-179 555.5q0 360 183.5 563t506.5 203q250 0 373 -153l67 133h905v-211h-722v-420h507v-207h-507v-432h745zM784 184q186 0 272.5 131t86.5 418q0 291 -88 428t-273 137q-186 0 -276 -137.5
t-90 -427.5q0 -284 89.5 -416.5t278.5 -132.5z" />
    <glyph glyph-name="oe" unicode="&#x153;" horiz-adv-x="1984" 
d="M606 -20q-233 0 -378.5 150.5t-145.5 391.5q0 249 147.5 403t378.5 154q120 0 216.5 -47.5t160.5 -134.5q19 -22 39 0q62 87 157 134.5t208 47.5q230 0 367.5 -160t137.5 -438h-768q0 -142 86 -233.5t211 -91.5q87 0 158 38.5t133 122.5l160 -73q-91 -144 -203 -204
t-276 -60q-119 0 -216.5 46t-162.5 130q-15 21 -35 -4q-65 -83 -161.5 -127.5t-213.5 -44.5zM1399 918q-116 0 -191.5 -80t-74.5 -211l516 -2q0 73 -28.5 139t-87 110t-134.5 44zM608 152q128 0 198.5 97.5t70.5 278.5q0 182 -71 281.5t-198 99.5q-128 0 -200 -99.5
t-72 -281.5q0 -180 72 -278t200 -98z" />
    <glyph glyph-name="Racute" unicode="&#x154;" horiz-adv-x="1417" 
d="M915 1923l58 -172l-531 -145l-36 112zM1288 0h-260l-254 602h-344v-602h-250v1481h602q248 0 373 -113t125 -313q0 -293 -274 -412zM725 799q141 0 221 65.5t80 182.5q0 114 -72.5 176.5t-195.5 62.5h-328v-487h295z" />
    <glyph glyph-name="racute" unicode="&#x155;" horiz-adv-x="815" 
d="M678 1501l57 -172l-530 -145l-37 112zM143 0v1059h238v-246q51 117 153 191.5t226 74.5l2 -237q-171 11 -270 -64.5t-99 -179.5v-598h-250z" />
    <glyph glyph-name="uni0156" unicode="&#x156;" horiz-adv-x="1417" 
d="M1288 0h-260l-254 602h-344v-602h-250v1481h602q248 0 373 -113t125 -313q0 -293 -274 -412zM725 799q141 0 221 65.5t80 182.5q0 114 -72.5 176.5t-195.5 62.5h-328v-487h295zM633 -481q-11 0 -17 9.5t0 18.5l60 99q9 15 4.5 27t-18.5 12h-17q-19 0 -25 6.5t-6 23.5v127
q0 29 23 29h143q23 0 23 -23v-163q0 -5 -2 -12t-2 -9l-86 -125q-15 -20 -49 -20h-31z" />
    <glyph glyph-name="uni0157" unicode="&#x157;" horiz-adv-x="815" 
d="M143 0v1059h238v-246q51 117 153 191.5t226 74.5l2 -237q-171 11 -270 -64.5t-99 -179.5v-598h-250zM207 -481q-11 0 -17 9.5t0 18.5l60 99q9 15 4.5 27t-18.5 12h-17q-19 0 -25 6.5t-6 23.5v127q0 29 23 29h143q23 0 23 -23v-163q0 -5 -2 -12t-2 -9l-86 -125
q-15 -20 -49 -20h-31z" />
    <glyph glyph-name="Rcaron" unicode="&#x158;" horiz-adv-x="1417" 
d="M827 1905h209l-260 -260h-174l-264 260h199l151 -148zM1288 0h-260l-254 602h-344v-602h-250v1481h602q248 0 373 -113t125 -313q0 -293 -274 -412zM725 799q141 0 221 65.5t80 182.5q0 114 -72.5 176.5t-195.5 62.5h-328v-487h295z" />
    <glyph glyph-name="rcaron" unicode="&#x159;" horiz-adv-x="815" 
d="M588 1483h209l-260 -260h-175l-264 260h199l152 -148zM143 0v1059h238v-246q51 117 153 191.5t226 74.5l2 -237q-171 11 -270 -64.5t-99 -179.5v-598h-250z" />
    <glyph glyph-name="Sacute" unicode="&#x15a;" horiz-adv-x="1439" 
d="M944 1923l57 -172l-530 -145l-37 112zM727 -20q-112 0 -215 26t-188.5 76.5t-141.5 132t-69 184.5l260 9q24 -110 120 -170t232 -60q146 0 241 56.5t95 156.5q0 163 -258 221l-279 58q-174 36 -269.5 132.5t-96.5 254.5q-1 198 157.5 320t403.5 122q127 0 234 -35.5
t178.5 -96t114.5 -137.5t52 -163l-251 -8q-34 237 -324 237q-128 0 -212.5 -58t-84.5 -155q0 -75 49.5 -118.5t179.5 -73.5l273 -60q391 -79 391 -438q0 -177 -163.5 -295t-428.5 -118z" />
    <glyph glyph-name="sacute" unicode="&#x15b;" horiz-adv-x="1079" 
d="M760 1501l57 -172l-530 -145l-37 112zM551 -20q-113 0 -209.5 34t-167.5 110.5t-88 186.5h215q44 -155 254 -155q100 0 156.5 36t56.5 99q0 50 -37.5 78t-112.5 47l-200 47q-142 31 -219 101t-78 190q-1 148 120.5 236.5t311.5 88.5q188 0 302 -91t114 -226h-213
q-12 72 -69.5 109.5t-139.5 37.5q-52 0 -95.5 -12t-76.5 -44.5t-33 -82.5q0 -46 42 -75t132 -48l191 -47q80 -20 137.5 -55t86.5 -77.5t41.5 -82.5t12.5 -82q0 -152 -123.5 -237.5t-310.5 -85.5z" />
    <glyph glyph-name="Scircumflex" unicode="&#x15c;" horiz-adv-x="1439" 
d="M856 1657l-139 145l-152 -145h-198l264 256h174l260 -256h-209zM727 -20q-112 0 -215 26t-188.5 76.5t-141.5 132t-69 184.5l260 9q24 -110 120 -170t232 -60q146 0 241 56.5t95 156.5q0 163 -258 221l-279 58q-174 36 -269.5 132.5t-96.5 254.5q-1 198 157.5 320
t403.5 122q127 0 234 -35.5t178.5 -96t114.5 -137.5t52 -163l-251 -8q-34 237 -324 237q-128 0 -212.5 -58t-84.5 -155q0 -75 49.5 -118.5t179.5 -73.5l273 -60q391 -79 391 -438q0 -177 -163.5 -295t-428.5 -118z" />
    <glyph glyph-name="scircumflex" unicode="&#x15d;" horiz-adv-x="1079" 
d="M670 1235l-140 145l-151 -145h-199l264 256h174l261 -256h-209zM551 -20q-113 0 -209.5 34t-167.5 110.5t-88 186.5h215q44 -155 254 -155q100 0 156.5 36t56.5 99q0 50 -37.5 78t-112.5 47l-200 47q-142 31 -219 101t-78 190q-1 148 120.5 236.5t311.5 88.5
q188 0 302 -91t114 -226h-213q-12 72 -69.5 109.5t-139.5 37.5q-52 0 -95.5 -12t-76.5 -44.5t-33 -82.5q0 -46 42 -75t132 -48l191 -47q80 -20 137.5 -55t86.5 -77.5t41.5 -82.5t12.5 -82q0 -152 -123.5 -237.5t-310.5 -85.5z" />
    <glyph glyph-name="Scedilla" unicode="&#x15e;" horiz-adv-x="1439" 
d="M1319 393q0 -170 -151.5 -286.5t-401.5 -126.5l-35 -91q102 -4 149.5 -49.5t47.5 -105.5q0 -75 -68 -119.5t-166 -44.5q-135 0 -217 55l37 90q71 -49 150 -49q51 0 78.5 18t27.5 50q0 44 -39.5 65.5t-130.5 22.5q-12 0 -15 3t1 13l61 146q-136 12 -248.5 60t-191.5 140
t-94 215l260 9q24 -110 120 -170t232 -60q146 0 241 56.5t95 156.5q0 163 -258 221l-279 58q-174 36 -269.5 132.5t-96.5 254.5q-1 198 157.5 320t403.5 122q127 0 234 -35.5t178.5 -96t114.5 -137.5t52 -163l-251 -8q-34 237 -324 237q-128 0 -212.5 -58t-84.5 -155
q0 -75 49.5 -118.5t179.5 -73.5l273 -60q391 -79 391 -438z" />
    <glyph glyph-name="scedilla" unicode="&#x15f;" horiz-adv-x="1079" 
d="M985 303q0 -144 -110.5 -228t-282.5 -93l-35 -93q102 -4 149.5 -49.5t47.5 -105.5q0 -75 -68 -119.5t-166 -44.5q-135 0 -217 55l37 90q71 -49 149 -49q51 0 79 18t28 50q0 44 -39.5 65.5t-130.5 22.5q-12 0 -15 3t1 13l61 146q-151 19 -258 101t-129 226h215
q44 -155 254 -155q100 0 156.5 36t56.5 99q0 50 -37.5 78t-112.5 47l-200 47q-142 31 -219 101t-78 190q-1 148 120.5 236.5t311.5 88.5q188 0 302 -91t114 -226h-213q-12 72 -69.5 109.5t-139.5 37.5q-52 0 -95.5 -12t-76.5 -44.5t-33 -82.5q0 -46 42 -75t132 -48l191 -47
q80 -20 137.5 -55t86.5 -77.5t41.5 -82.5t12.5 -82z" />
    <glyph glyph-name="Scaron" unicode="&#x160;" horiz-adv-x="1439" 
d="M856 1905h209l-260 -260h-174l-264 260h198l152 -148zM727 -20q-112 0 -215 26t-188.5 76.5t-141.5 132t-69 184.5l260 9q24 -110 120 -170t232 -60q146 0 241 56.5t95 156.5q0 163 -258 221l-279 58q-174 36 -269.5 132.5t-96.5 254.5q-1 198 157.5 320t403.5 122
q127 0 234 -35.5t178.5 -96t114.5 -137.5t52 -163l-251 -8q-34 237 -324 237q-128 0 -212.5 -58t-84.5 -155q0 -75 49.5 -118.5t179.5 -73.5l273 -60q391 -79 391 -438q0 -177 -163.5 -295t-428.5 -118z" />
    <glyph glyph-name="scaron" unicode="&#x161;" horiz-adv-x="1079" 
d="M670 1483h209l-261 -260h-174l-264 260h199l151 -148zM551 -20q-113 0 -209.5 34t-167.5 110.5t-88 186.5h215q44 -155 254 -155q100 0 156.5 36t56.5 99q0 50 -37.5 78t-112.5 47l-200 47q-142 31 -219 101t-78 190q-1 148 120.5 236.5t311.5 88.5q188 0 302 -91
t114 -226h-213q-12 72 -69.5 109.5t-139.5 37.5q-52 0 -95.5 -12t-76.5 -44.5t-33 -82.5q0 -46 42 -75t132 -48l191 -47q80 -20 137.5 -55t86.5 -77.5t41.5 -82.5t12.5 -82q0 -152 -123.5 -237.5t-310.5 -85.5z" />
    <glyph glyph-name="uni0162" unicode="&#x162;" horiz-adv-x="1222" 
d="M745 0h-53l-43 -111q102 -4 149.5 -49.5t47.5 -105.5q0 -75 -68 -119.5t-166 -44.5q-135 0 -217 55l37 90q71 -49 150 -49q51 0 78.5 18t27.5 50q0 44 -39.5 65.5t-130.5 22.5q-12 0 -15 3t1 13l69 162h-77v1255h-463v226h1155v-226h-443v-1255z" />
    <glyph glyph-name="uni0163" unicode="&#x163;" horiz-adv-x="843" 
d="M559 -111q102 -4 149.5 -49.5t47.5 -105.5q0 -75 -68 -119.5t-166 -44.5q-135 0 -217 55l37 90q71 -49 150 -49q51 0 78.5 18t27.5 50q0 44 -39.5 65.5t-130.5 22.5q-12 0 -15 3t1 13l67 160q-127 16 -178 83t-51 185v617h-172v176h180l31 315h211v-313h235v-178h-235
v-602q0 -66 22.5 -90.5t69.5 -24.5h151v-152q-53 -20 -145 -22z" />
    <glyph glyph-name="Tcaron" unicode="&#x164;" horiz-adv-x="1222" 
d="M770 1905h209l-260 -260h-174l-264 260h198l152 -148zM33 1255v226h1155v-226h-443v-1255h-249v1255h-463z" />
    <glyph glyph-name="tcaron" unicode="&#x165;" horiz-adv-x="843" 
d="M664 1147q-9 0 -13.5 7t-1.5 15l60 148q6 15 4 22.5t-15 8.5l-16 4q-16 2 -21.5 6t-5.5 16v174q0 23 21 23h143q19 0 19 -19v-200q0 -4 -2 -9t-2 -6l-72 -168q-8 -22 -45 -22h-53zM737 883h-235v-602q0 -66 22.5 -90.5t69.5 -24.5h151v-152q-53 -22 -172 -22
q-93 0 -157 18.5t-99 55.5t-50 85t-15 115v617h-172v176h180l31 315h211v-313h235v-178z" />
    <glyph glyph-name="Tbar" unicode="&#x166;" horiz-adv-x="1222" 
d="M1188 1255h-443v-432h302v-188h-302v-635h-249v635h-256v188h256v432h-463v226h1155v-226z" />
    <glyph glyph-name="tbar" unicode="&#x167;" horiz-adv-x="866" 
d="M637 166h151v-152q-53 -22 -172 -22q-93 0 -157 18.5t-99 55.5t-50 85t-15 115v242h-197v145h197v230h-172v176h180l33 315h209v-313h237v-178h-237v-230h162v-145h-162v-227q0 -66 23 -90.5t69 -24.5z" />
    <glyph glyph-name="Utilde" unicode="&#x168;" horiz-adv-x="1484" 
d="M1044 1747q-70 -49 -167 -49q-58 0 -145 27.5t-134 27.5q-39 0 -66 -10.5t-63 -34.5q-25 -19 -35 12l-22 72q-6 11 -4 20.5t14 20.5q39 33 76 50.5t90 17.5q57 0 151 -30t138 -30q61 0 129 45q27 17 36 -12l23 -86q6 -22 -21 -41zM1319 541q0 -273 -136.5 -417
t-432.5 -144q-300 0 -435 145.5t-135 429.5v926h256v-951q0 -169 82 -253t232 -84t233.5 84t83.5 253v951h252v-940z" />
    <glyph glyph-name="utilde" unicode="&#x169;" 
d="M909 1325q-70 -49 -168 -49q-58 0 -144.5 27.5t-133.5 27.5q-39 0 -66 -10.5t-63 -34.5q-25 -19 -35 12l-23 72q-9 23 11 41q39 33 76 50.5t90 17.5q57 0 150.5 -30t137.5 -30q61 0 129 45q28 18 37 -12l23 -86q6 -22 -21 -41zM539 -20q-69 1 -136 22t-126.5 62
t-96.5 111t-37 159v727h250v-699q0 -98 62.5 -147t148.5 -49q93 0 156.5 54.5t64.5 150.5v690h252l-6 -1061h-190l-25 217q-13 -68 -46.5 -116.5t-79.5 -73.5t-92.5 -36t-98.5 -11z" />
    <glyph glyph-name="Umacron" unicode="&#x16a;" horiz-adv-x="1484" 
d="M1067 1884v-164h-670v164h670zM1319 541q0 -273 -136.5 -417t-432.5 -144q-300 0 -435 145.5t-135 429.5v926h256v-951q0 -169 82 -253t232 -84t233.5 84t83.5 253v951h252v-940z" />
    <glyph glyph-name="umacron" unicode="&#x16b;" 
d="M932 1462v-164h-670v164h670zM539 -20q-69 1 -136 22t-126.5 62t-96.5 111t-37 159v727h250v-699q0 -98 62.5 -147t148.5 -49q93 0 156.5 54.5t64.5 150.5v690h252l-6 -1061h-190l-25 217q-13 -68 -46.5 -116.5t-79.5 -73.5t-92.5 -36t-98.5 -11z" />
    <glyph glyph-name="Ubreve" unicode="&#x16c;" horiz-adv-x="1484" 
d="M1071 1903q-32 -107 -123 -175.5t-215 -68.5q-126 0 -216 66.5t-120 177.5h160q26 -46 70.5 -78.5t105.5 -32.5q55 0 101.5 32.5t72.5 78.5h164zM1319 541q0 -273 -136.5 -417t-432.5 -144q-300 0 -435 145.5t-135 429.5v926h256v-951q0 -169 82 -253t232 -84t233.5 84
t83.5 253v951h252v-940z" />
    <glyph glyph-name="ubreve" unicode="&#x16d;" 
d="M936 1481q-32 -107 -123 -175.5t-215 -68.5q-126 0 -216 66.5t-120 177.5h160q26 -46 70.5 -78.5t105.5 -32.5q55 0 101.5 32.5t72.5 78.5h164zM539 -20q-69 1 -136 22t-126.5 62t-96.5 111t-37 159v727h250v-699q0 -98 62.5 -147t148.5 -49q93 0 156.5 54.5t64.5 150.5
v690h252l-6 -1061h-190l-25 217q-13 -68 -46.5 -116.5t-79.5 -73.5t-92.5 -36t-98.5 -11z" />
    <glyph glyph-name="Uring" unicode="&#x16e;" horiz-adv-x="1484" 
d="M950 1810q0 -92 -63 -154.5t-154 -62.5t-154 64t-63 158q0 87 63.5 147.5t153.5 60.5q91 0 154 -62t63 -151zM836 1808q0 45 -30 75t-75 30q-44 0 -75 -30t-31 -75q0 -42 32 -74t74 -32q43 0 74 32t31 74zM1319 541q0 -273 -136.5 -417t-432.5 -144q-300 0 -435 145.5
t-135 429.5v926h256v-951q0 -169 82 -253t232 -84t233.5 84t83.5 253v951h252v-940z" />
    <glyph glyph-name="uring" unicode="&#x16f;" 
d="M815 1389q0 -92 -63 -155t-154 -63t-154 64t-63 158q0 87 63.5 148t153.5 61q91 0 154 -62t63 -151zM700 1386q0 46 -30 75.5t-74 29.5t-75.5 -30t-31.5 -75q0 -42 32.5 -74t74.5 -32q43 0 73.5 32t30.5 74zM539 -20q-69 1 -136 22t-126.5 62t-96.5 111t-37 159v727h250
v-699q0 -98 62.5 -147t148.5 -49q93 0 156.5 54.5t64.5 150.5v690h252l-6 -1061h-190l-25 217q-13 -68 -46.5 -116.5t-79.5 -73.5t-92.5 -36t-98.5 -11z" />
    <glyph glyph-name="Uhungarumlaut" unicode="&#x170;" horiz-adv-x="1484" 
d="M700 1909l74 -88q28 -32 -6 -52l-266 -194q-18 -11 -26.5 -11.5t-18.5 11.5l-45 49q-19 22 -4 37l260 250q20 16 32 -2zM1065 1909l76 -88q24 -31 -8 -52l-269 -194q-28 -20 -45 0l-43 49q-20 23 -2 37l258 250q7 8 17 7.5t16 -9.5zM1319 541q0 -273 -136.5 -417
t-432.5 -144q-300 0 -435 145.5t-135 429.5v926h256v-951q0 -169 82 -253t232 -84t233.5 84t83.5 253v951h252v-940z" />
    <glyph glyph-name="uhungarumlaut" unicode="&#x171;" 
d="M565 1487l74 -88q28 -31 -6 -51l-266 -195q-18 -11 -26.5 -11.5t-18.5 11.5l-46 49q-19 22 -4 37l260 250q20 17 33 -2zM930 1487l76 -88q23 -30 -9 -51l-268 -195q-28 -20 -45 0l-43 49q-20 23 -2 37l258 250q7 8 17 7.5t16 -9.5zM539 -20q-69 1 -136 22t-126.5 62
t-96.5 111t-37 159v727h250v-699q0 -98 62.5 -147t148.5 -49q93 0 156.5 54.5t64.5 150.5v690h252l-6 -1061h-190l-25 217q-13 -68 -46.5 -116.5t-79.5 -73.5t-92.5 -36t-98.5 -11z" />
    <glyph glyph-name="Uogonek" unicode="&#x172;" horiz-adv-x="1484" 
d="M1067 1481h252v-940q0 -493 -436 -553q-77 -33 -110.5 -66t-33.5 -72q0 -36 20 -52.5t64 -16.5q65 0 121 29q27 14 27 -15v-74q0 -17 -17 -26q-68 -37 -188 -37q-103 0 -158 43t-55 123q0 100 117 158q-257 20 -373.5 164.5t-116.5 408.5v926h256v-951q0 -169 82 -253
t232 -84t233.5 84t83.5 253v951z" />
    <glyph glyph-name="uogonek" unicode="&#x173;" 
d="M1075 -190q27 14 27 -15v-74q0 -17 -17 -26q-68 -37 -188 -37q-103 0 -158 43t-55 123q0 61 42.5 107.5t152.5 82.5l-23 203q-13 -68 -46.5 -116.5t-79.5 -73.5t-92.5 -36t-98.5 -11q-69 1 -136 22t-126.5 62t-96.5 111t-37 159v727h250v-699q0 -98 62.5 -147t148.5 -49
q93 0 156.5 54.5t64.5 150.5v690h252l-6 -1061h-29q-93 -38 -132.5 -72.5t-39.5 -77.5q0 -36 20 -52.5t64 -16.5q65 0 121 29z" />
    <glyph glyph-name="Wcircumflex" unicode="&#x174;" horiz-adv-x="1978" 
d="M1133 1657l-140 145l-151 -145h-199l264 256h174l260 -256h-208zM1931 1481l-434 -1481h-211l-299 1051l-303 -1051h-205l-432 1481h248l299 -1069l301 1069h186l303 -1069l302 1069h245z" />
    <glyph glyph-name="wcircumflex" unicode="&#x175;" horiz-adv-x="1628" 
d="M961 1235l-140 145l-151 -145h-199l264 256h174l260 -256h-208zM1577 1059l-336 -1059h-215l-217 705l-211 -705h-211l-336 1059h225l220 -729h12l215 729h182l219 -727h13l213 727h227z" />
    <glyph glyph-name="Ycircumflex" unicode="&#x176;" horiz-adv-x="1302" 
d="M813 1657l-139 145l-152 -145h-198l264 256h174l260 -256h-209zM1284 1481l-508 -854v-627h-250v627l-510 854h271l366 -637l359 637h272z" />
    <glyph glyph-name="ycircumflex" unicode="&#x177;" horiz-adv-x="1132" 
d="M733 1235l-139 145l-152 -145h-198l264 256h174l260 -256h-209zM283 -338q-60 0 -106 8t-61 16l-16 7v160l107 -3q60 -3 103 6.5t66 30.5t32 35.5t18 36.5l27 76l-414 1024h250l278 -748l283 748h244l-437 -1098q-69 -170 -158 -234.5t-216 -64.5z" />
    <glyph glyph-name="Ydieresis" unicode="&#x178;" horiz-adv-x="1302" 
d="M606 1903v-242h-225v242h225zM967 1903v-242h-228v242h228zM1284 1481l-508 -854v-627h-250v627l-510 854h271l366 -637l359 637h272z" />
    <glyph glyph-name="Zacute" unicode="&#x179;" horiz-adv-x="1337" 
d="M932 1923l57 -172l-530 -145l-37 112zM104 0v127l779 1143h-736v211h1090v-121l-788 -1147h782v-213h-1127z" />
    <glyph glyph-name="zacute" unicode="&#x17a;" horiz-adv-x="1048" 
d="M776 1501l58 -172l-531 -145l-37 112zM78 0v137l575 760h-530v162h840v-135l-578 -760h584v-164h-891z" />
    <glyph glyph-name="Zdotaccent" unicode="&#x17b;" horiz-adv-x="1337" 
d="M834 1903v-269h-259v269h259zM104 0v127l779 1143h-736v211h1090v-121l-788 -1147h782v-213h-1127z" />
    <glyph glyph-name="zdotaccent" unicode="&#x17c;" horiz-adv-x="1048" 
d="M678 1481v-269h-258v269h258zM78 0v137l575 760h-530v162h840v-135l-578 -760h584v-164h-891z" />
    <glyph glyph-name="Zcaron" unicode="&#x17d;" horiz-adv-x="1337" 
d="M842 1905h209l-260 -260h-175l-264 260h199l151 -148zM104 0v127l779 1143h-736v211h1090v-121l-788 -1147h782v-213h-1127z" />
    <glyph glyph-name="zcaron" unicode="&#x17e;" horiz-adv-x="1048" 
d="M686 1483h209l-260 -260h-174l-264 260h198l152 -148zM78 0v137l575 760h-530v162h840v-135l-578 -760h584v-164h-891z" />
    <glyph glyph-name="uni018F" unicode="&#x18f;" horiz-adv-x="1558" 
d="M1137 836q0 48 -5.5 93t-18.5 97.5t-39 95.5t-63.5 79t-97 56.5t-133.5 20.5q-62 0 -114.5 -17t-85.5 -39t-64.5 -61t-46.5 -65.5t-37 -70t-31 -58.5q-8 -14 -36 -2l-181 84q-25 9 -6 41q28 59 57.5 107.5t82 108t113.5 99.5t151.5 68t195.5 28q137 0 249 -41.5t188 -113
t127.5 -168.5t74.5 -205.5t23 -227.5q0 -154 -45.5 -292.5t-129 -243.5t-210.5 -167t-279 -62q-137 0 -247 38t-186 106t-127 166t-74 215.5t-23 256.5q0 18 1 25.5t8.5 13.5t23.5 6h960q25 0 25 29zM1135 618h-680q-18 0 -24.5 -4.5t-6.5 -19.5q0 -62 11.5 -119.5t38 -111
t66 -93t100 -63t134.5 -23.5q78 0 139 23t100 61.5t65.5 95.5t39.5 118t17 136z" />
    <glyph glyph-name="florin" unicode="&#x192;" horiz-adv-x="1009" 
d="M870 1059l-30 -176h-240l-166 -955q-24 -127 -107.5 -198.5t-215.5 -71.5h-207l26 170h119q67 2 98 34t46 118l157 903h-170l31 176h170l29 158q23 127 106.5 195.5t212.5 68.5h223l-26 -170h-144q-49 0 -86.5 -37t-48.5 -96l-20 -119h243z" />
    <glyph glyph-name="uni01C4" unicode="&#x1c4;" horiz-adv-x="2793" 
d="M2298 1905h209l-258 -260h-176l-265 260h199l152 -148zM180 1481q273 0 400 -2q396 -7 582 -193.5t186 -537.5q0 -361 -195.5 -554.5t-587.5 -193.5h-385v1481zM1561 0v127l778 1143h-735v211h1089v-121l-788 -1147h782v-213h-1126zM434 1276v-1069h133q94 0 171.5 18
t142.5 58.5t109.5 102.5t69.5 153.5t25 208.5q0 279 -131 403.5t-381 124.5h-139z" />
    <glyph glyph-name="uni01C5" unicode="&#x1c5;" horiz-adv-x="2506" 
d="M2142 1483h209l-258 -260h-176l-264 260h198l152 -148zM180 1481q273 0 400 -2q396 -7 582 -193.5t186 -537.5q0 -361 -195.5 -554.5t-587.5 -193.5h-385v1481zM434 1276v-1069h133q94 0 171.5 18t142.5 58.5t109.5 102.5t69.5 153.5t25 208.5q0 279 -131 403.5
t-381 124.5h-139zM1534 0v137l575 760h-530v162h840v-135l-578 -760h584v-164h-891z" />
    <glyph glyph-name="uni01C6" unicode="&#x1c6;" horiz-adv-x="2256" 
d="M532 -20q-208 0 -326 143t-118 401q0 255 114.5 405t317.5 150q190 0 307 -137v580h250v-1522h-186l-25 209q-87 -229 -334 -229zM1892 1483h209l-258 -260h-176l-264 260h199l151 -148zM1284 0v137l576 760h-531v162h840v-135l-578 -760h584v-164h-891zM588 164
q102 0 170.5 74.5t68.5 181.5v287q-66 186 -233 186q-121 0 -191.5 -90t-70.5 -273q0 -187 70.5 -276.5t185.5 -89.5z" />
    <glyph glyph-name="uni01C7" unicode="&#x1c7;" horiz-adv-x="2052" 
d="M180 1481h254v-1266h668v-215h-922v1481zM1888 383q0 -104 -15.5 -174.5t-54 -124.5t-107.5 -79t-173 -25q-120 0 -250 38l10 232q7 -2 31.5 -10t40 -12.5t41.5 -8.5t51 -4q99 0 137.5 53.5t38.5 182.5v1030h250v-1098z" />
    <glyph glyph-name="uni01C8" unicode="&#x1c8;" horiz-adv-x="1740" 
d="M1595 1522v-271h-260v271h260zM180 1481h254v-1266h668v-215h-922v1481zM1589 -18q0 -165 -76.5 -243.5t-250.5 -78.5q-50 0 -83.5 7t-42.5 13l-8 7v166l93 8q66 6 92 35t26 92v1071h250v-1077z" />
    <glyph glyph-name="uni01C9" unicode="&#x1c9;" horiz-adv-x="1212" 
d="M479 -16q-79 0 -136.5 17.5t-90 44.5t-51 69.5t-24 81t-5.5 90.5v1235h246v-1209q0 -138 119 -149l53 -2v-156q-58 -22 -111 -22zM1092 1522v-271h-261v271h261zM1085 -18q0 -165 -76.5 -243.5t-250.5 -78.5q-49 0 -82.5 7t-41.5 13l-9 7v166l92 8q66 6 92.5 35t26.5 92
v1071h249v-1077z" />
    <glyph glyph-name="uni01CA" unicode="&#x1ca;" horiz-adv-x="2406" 
d="M1149 1481h250v-1481h-223l-746 1085v-1085h-250v1481h244l725 -1057v1057zM2224 383q0 -104 -15.5 -174.5t-54 -124.5t-107.5 -79t-173 -25q-118 0 -248 38l10 232q7 -2 31.5 -10t40 -12.5t41.5 -8.5t51 -4q99 0 136.5 53.5t37.5 182.5v1030h250v-1098z" />
    <glyph glyph-name="uni01CB" unicode="&#x1cb;" horiz-adv-x="2150" 
d="M2005 1522v-271h-260v271h260zM1149 1481h250v-1481h-223l-746 1085v-1085h-250v1481h244l725 -1057v1057zM1999 -18q0 -165 -77 -243.5t-251 -78.5q-50 0 -83.5 7t-41.5 13l-8 7v166l92 8q66 6 92.5 35t26.5 92v1071h250v-1077z" />
    <glyph glyph-name="uni01CC" unicode="&#x1cc;" horiz-adv-x="1751" 
d="M1630 1522v-271h-260v271h260zM168 0v1059h246v-141q53 71 127 112t190 41q155 0 263 -101t108 -270v-700h-250v674q0 93 -55.5 145.5t-145.5 52.5q-97 0 -165 -46.5t-68 -129.5v-696h-250zM1624 -18q0 -165 -77 -243.5t-251 -78.5q-49 0 -82.5 7t-41.5 13l-9 7v166l92 8
q66 6 92.5 35t26.5 92v1071h250v-1077z" />
    <glyph glyph-name="uni01EA" unicode="&#x1ea;" horiz-adv-x="1560" 
d="M961 0q-96 -40 -136.5 -74.5t-40.5 -77.5q0 -36 20 -52.5t64 -16.5q67 0 121 28q27 13 27 -14v-74q0 -17 -17 -26q-68 -37 -188 -37q-103 0 -158 43t-55 123q0 102 119 160q-281 22 -439.5 219.5t-158.5 533.5q0 358 179 562t484 204q304 0 483 -203.5t179 -560.5
q0 -298 -127.5 -490.5t-355.5 -246.5zM391 733q0 -278 102 -411.5t291 -133.5q387 0 387 545q0 284 -101 421.5t-288 137.5t-289 -137.5t-102 -421.5z" />
    <glyph glyph-name="uni01EB" unicode="&#x1eb;" horiz-adv-x="1163" 
d="M748 4q-103 -41 -145 -76.5t-42 -79.5q0 -36 20 -52.5t64 -16.5q67 0 121 28q27 13 27 -14v-74q0 -17 -17 -26q-68 -37 -188 -37q-103 0 -158 43t-55 123q0 104 125 164q-195 26 -306.5 171t-111.5 365q0 249 137.5 403t364.5 154q229 0 363 -154.5t134 -400.5
q0 -195 -88 -333t-245 -187zM328 532q0 -75 14.5 -138.5t44.5 -115t81 -81t118 -29.5q87 0 145 52t81.5 131t23.5 181q0 76 -14 139t-43.5 113.5t-79 78.5t-115.5 28q-88 0 -147.5 -50.5t-84 -129t-24.5 -179.5z" />
    <glyph glyph-name="uni01F1" unicode="&#x1f1;" horiz-adv-x="2793" 
d="M180 1481q273 0 400 -2q396 -7 582 -193.5t186 -537.5q0 -361 -195.5 -554.5t-587.5 -193.5h-385v1481zM1561 0v127l778 1143h-735v211h1089v-121l-788 -1147h782v-213h-1126zM434 1276v-1069h133q94 0 171.5 18t142.5 58.5t109.5 102.5t69.5 153.5t25 208.5
q0 279 -131 403.5t-381 124.5h-139z" />
    <glyph glyph-name="uni01F2" unicode="&#x1f2;" horiz-adv-x="2506" 
d="M180 1481q273 0 400 -2q396 -7 582 -193.5t186 -537.5q0 -361 -195.5 -554.5t-587.5 -193.5h-385v1481zM434 1276v-1069h133q94 0 171.5 18t142.5 58.5t109.5 102.5t69.5 153.5t25 208.5q0 279 -131 403.5t-381 124.5h-139zM1534 0v137l575 760h-530v162h840v-135
l-578 -760h584v-164h-891z" />
    <glyph glyph-name="uni01F3" unicode="&#x1f3;" horiz-adv-x="2256" 
d="M532 -20q-208 0 -326 143t-118 401q0 255 114.5 405t317.5 150q190 0 307 -137v580h250v-1522h-186l-25 209q-87 -229 -334 -229zM1284 0v137l576 760h-531v162h840v-135l-578 -760h584v-164h-891zM588 164q102 0 170.5 74.5t68.5 181.5v287q-66 186 -233 186
q-121 0 -191.5 -90t-70.5 -273q0 -187 70.5 -276.5t185.5 -89.5z" />
    <glyph glyph-name="uni01F4" unicode="&#x1f4;" horiz-adv-x="1544" 
d="M997 1923l58 -172l-531 -145l-37 112zM766 -20q-297 0 -472 204.5t-175 550.5q0 353 181 559.5t480 206.5q120 0 227 -39.5t183 -105t122 -152t50 -178.5l-264 -8q-22 117 -109 192.5t-213 75.5q-178 0 -282.5 -135.5t-104.5 -402.5q0 -145 30 -253t85 -171t124.5 -93
t155.5 -30q74 0 136.5 27t102 69.5t63 91t28.5 96.5l8 111h-329v176l591 -4v-768h-178v209q-151 -229 -440 -229z" />
    <glyph glyph-name="uni01F5" unicode="&#x1f5;" horiz-adv-x="1308" 
d="M866 1501l60 -172l-533 -145l-37 112zM633 -350q-269 0 -412 72.5t-143 195.5q0 41 18 76.5t48 59t55 38t54 26.5t30 13q-2 1 -17.5 9.5t-22.5 13t-22 15t-23 20.5t-17.5 23.5t-14 30.5t-4.5 36q0 56 51.5 99.5t151.5 63.5q-207 101 -207 299q0 156 135 245t348 89
q99 0 170 -22t137 -66l293 119l-2 -205l-184 -33q28 -70 28 -125q0 -69 -29 -130t-84.5 -109.5t-145.5 -76.5t-203 -28q-38 0 -84 4q-146 -5 -146 -57q0 -25 42 -35t153 -18q105 -4 223 -12q186 -12 277.5 -90t91.5 -205q0 -155 -142 -245.5t-403 -90.5zM629 547
q105 0 162 49t57 139q0 92 -58 146.5t-161 54.5q-102 0 -161.5 -55t-59.5 -146q0 -88 58.5 -138t162.5 -50zM674 -203q139 0 201.5 35.5t62.5 108.5q0 120 -176 131l-266 18q-67 3 -119.5 -40t-52.5 -103q0 -150 350 -150z" />
    <glyph glyph-name="Aringacute" unicode="&#x1fa;" horiz-adv-x="1480" 
d="M903 1468l504 -1464h-297l-127 375h-541l-129 -375h-250l510 1460q-47 57 -47 135q0 71 45 124t115 67l31 135h160l-60 -143q58 -24 93.5 -74t35.5 -113q0 -71 -43 -127zM733 1698q-42 0 -74 -30t-32 -75q0 -43 32.5 -75.5t73.5 -32.5q44 0 75.5 32.5t31.5 75.5
q0 45 -31 75t-76 30zM500 596h424l-211 616z" />
    <glyph glyph-name="aringacute" unicode="&#x1fb;" horiz-adv-x="1165" 
d="M342 1184l-37 112l76 31q-10 33 -10 66q0 87 63.5 148t153.5 61q63 0 114.5 -31t77.5 -84l35 14l57 -172l-84 -22q-24 -61 -78 -98.5t-122 -37.5q-72 0 -131 43zM479 1386q0 -12 2 -18l193 76q-29 47 -88 47q-44 0 -75.5 -30t-31.5 -75zM588 1079q219 0 325.5 -89
t106.5 -249v-741h-209l-20 184q-54 -112 -139 -158t-206 -46q-158 0 -256 84t-98 231q0 177 128.5 265t402.5 91l157 4v72q0 87 -54.5 133.5t-150.5 44.5q-82 0 -145 -38.5t-84 -114.5h-211q7 151 131.5 239t321.5 88zM780 350v168l-129 -2q-319 -3 -319 -197
q0 -78 54.5 -123.5t139.5 -45.5q95 0 174.5 62t79.5 138z" />
    <glyph glyph-name="AEacute" unicode="&#x1fc;" horiz-adv-x="2152" 
d="M1638 1923l58 -172l-531 -145l-37 112zM2023 211v-211h-1011v375h-490l-203 -375h-251l804 1481h1127v-211h-703v-420h498v-207h-498v-432h727zM1012 594v717l-396 -717h396z" />
    <glyph glyph-name="aeacute" unicode="&#x1fd;" horiz-adv-x="1902" 
d="M1163 1501l60 -172l-531 -145l-39 112zM1036 479q0 -133 86.5 -228t210.5 -95q96 0 161.5 40.5t133.5 120.5l158 -73q-84 -137 -201.5 -200.5t-281.5 -63.5q-245 0 -412 196q-9 8 -17 0q-56 -59 -109.5 -98.5t-140.5 -68.5t-192 -29q-161 0 -250.5 81t-89.5 218
q0 157 133.5 250t397.5 110l165 12v74q0 91 -52.5 140.5t-153.5 49.5q-158 0 -250 -157l-211 55q65 134 177.5 200t295.5 66q274 -3 362 -155q125 155 344 155q226 0 365 -159.5t139 -438.5zM1309 918q-114 0 -190.5 -78.5t-76.5 -212.5l517 -2q0 113 -69.5 203t-180.5 90z
M788 512l-137 -10q-141 -11 -226 -64t-85 -143q0 -72 49.5 -114.5t138.5 -39.5q106 3 183 59t77 136v176z" />
    <glyph glyph-name="Oslashacute" unicode="&#x1fe;" horiz-adv-x="1533" 
d="M989 1923l58 -172l-531 -145l-37 112zM1477 1409q21 -21 0 -39l-160 -172q108 -187 108 -461q0 -354 -177.5 -555.5t-483.5 -201.5q-278 0 -447 161l-131 -137q-15 -18 -28.5 -18.5t-34.5 16.5l-57 59q-33 28 -9 52l152 161q-109 180 -109 461q0 358 179 562t485 204
q275 0 448 -170l140 150q26 25 45 6zM399 733q0 -137 35 -233l604 657q-90 141 -274 141q-187 0 -276 -137t-89 -428zM1124 733q0 142 -34 240l-603 -658q91 -131 277 -131q187 0 273.5 131.5t86.5 417.5z" />
    <glyph glyph-name="oslashacute" unicode="&#x1ff;" horiz-adv-x="1234" 
d="M897 1329l-530 -145l-37 112l510 205zM1174 975l-132 -125q80 -141 80 -326q0 -243 -134.5 -393.5t-364.5 -150.5q-219 0 -351 135l-135 -129l-88 94l146 139q-70 131 -70 303q0 249 137 403t363 154q205 0 338 -127l122 117zM369 532q0 -75 14 -135l424 406
q-66 88 -182 88q-87 0 -146.5 -50.5t-84.5 -129t-25 -179.5zM879 532q0 82 -17 146l-428 -410q67 -100 193 -100q87 0 145.5 52t82.5 131t24 181z" />
    <glyph glyph-name="uni0200" unicode="&#x200;" horiz-adv-x="1468" 
d="M406 1927l292 -280l-77 -91l-330 234zM770 1927l293 -280l-80 -91l-330 234zM68 0l532 1481h270l533 -1481h-252l-131 371h-565l-136 -371h-251zM512 594h446l-221 645z" />
    <glyph glyph-name="uni0201" unicode="&#x201;" horiz-adv-x="1165" 
d="M242 1505l293 -280l-78 -90l-330 233zM606 1505l293 -280l-80 -90l-330 233zM446 -20q-158 0 -256 84t-98 231q0 177 128.5 265t402.5 91l157 4v72q0 87 -54.5 133.5t-150.5 44.5q-82 0 -145 -38.5t-84 -114.5h-211q7 151 131.5 239t321.5 88q219 0 325.5 -89t106.5 -249
v-741h-209l-20 184q-54 -112 -139 -158t-206 -46zM526 150q95 0 174.5 62t79.5 138v168l-129 -2q-319 -3 -319 -197q0 -78 54.5 -123.5t139.5 -45.5z" />
    <glyph glyph-name="uni0202" unicode="&#x202;" horiz-adv-x="1468" 
d="M1114 1737h-164q-25 46 -72 78t-102 32q-113 0 -176 -110h-160q29 113 119 178t217 65q124 0 215 -68t123 -175zM68 0l532 1481h270l533 -1481h-252l-131 371h-565l-136 -371h-251zM512 594h446l-221 645z" />
    <glyph glyph-name="uni0203" unicode="&#x203;" horiz-adv-x="1165" 
d="M952 1315h-164q-25 46 -72 78t-102 32q-113 0 -176 -110h-159q29 113 118.5 178.5t216.5 65.5q124 0 215 -68.5t123 -175.5zM446 -20q-158 0 -256 84t-98 231q0 177 128.5 265t402.5 91l157 4v72q0 87 -54.5 133.5t-150.5 44.5q-82 0 -145 -38.5t-84 -114.5h-211
q7 151 131.5 239t321.5 88q219 0 325.5 -89t106.5 -249v-741h-209l-20 184q-54 -112 -139 -158t-206 -46zM526 150q95 0 174.5 62t79.5 138v168l-129 -2q-319 -3 -319 -197q0 -78 54.5 -123.5t139.5 -45.5z" />
    <glyph glyph-name="uni0204" unicode="&#x204;" horiz-adv-x="1302" 
d="M338 1927l293 -280l-78 -91l-330 234zM702 1927l293 -280l-80 -91l-329 234zM180 0v1481h979v-213h-727v-416h643v-211h-645v-424l746 -2v-215h-996z" />
    <glyph glyph-name="uni0205" unicode="&#x205;" horiz-adv-x="1167" 
d="M244 1505l293 -280l-78 -90l-330 233zM608 1505l291 -280l-78 -90l-329 233zM336 471q0 -139 67.5 -222t192.5 -83q183 0 240 158h227q-22 -109 -92 -188.5t-165 -117.5t-204 -38q-231 0 -372.5 145t-141.5 393q0 164 58.5 290t173 198.5t268.5 72.5q229 0 353 -144
t124 -388v-76h-729zM336 627h495q0 121 -62.5 196.5t-180.5 75.5t-185 -81.5t-67 -190.5z" />
    <glyph glyph-name="uni0206" unicode="&#x206;" horiz-adv-x="1302" 
d="M1049 1737h-164q-25 46 -72 78t-102 32q-113 0 -176 -110h-160q29 113 119 178t217 65q124 0 215 -68t123 -175zM180 0v1481h979v-213h-727v-416h643v-211h-645v-424l746 -2v-215h-996z" />
    <glyph glyph-name="uni0207" unicode="&#x207;" horiz-adv-x="1167" 
d="M952 1315h-161q-27 46 -74.5 78t-102.5 32q-113 0 -176 -110h-159q31 113 120.5 178.5t214.5 65.5t215.5 -68t122.5 -176zM336 471q0 -139 67.5 -222t192.5 -83q183 0 240 158h227q-22 -109 -92 -188.5t-165 -117.5t-204 -38q-231 0 -372.5 145t-141.5 393
q0 164 58.5 290t173 198.5t268.5 72.5q229 0 353 -144t124 -388v-76h-729zM336 627h495q0 121 -62.5 196.5t-180.5 75.5t-185 -81.5t-67 -190.5z" />
    <glyph glyph-name="uni0208" unicode="&#x208;" horiz-adv-x="606" 
d="M-35 1927l293 -280l-78 -91l-330 234zM330 1927l293 -280l-80 -91l-330 234zM180 1481h250v-1481h-250v1481z" />
    <glyph glyph-name="uni0209" unicode="&#x209;" horiz-adv-x="542" 
d="M-70 1505l293 -280l-78 -90l-329 233zM295 1505l293 -280l-80 -90l-330 233zM397 1059v-1059h-247v1059h247z" />
    <glyph glyph-name="uni020A" unicode="&#x20a;" horiz-adv-x="606" 
d="M674 1737h-164q-25 46 -72 78t-102 32q-113 0 -176 -110h-160q29 113 119 178t217 65q124 0 215 -68t123 -175zM180 1481h250v-1481h-250v1481z" />
    <glyph glyph-name="uni020B" unicode="&#x20b;" horiz-adv-x="542" 
d="M641 1315h-164q-25 46 -72 78t-102 32q-113 0 -176 -110h-160q29 113 119 178.5t217 65.5q124 0 215 -68.5t123 -175.5zM397 1059v-1059h-247v1059h247z" />
    <glyph glyph-name="uni020C" unicode="&#x20c;" horiz-adv-x="1560" 
d="M438 1927l293 -280l-78 -91l-329 234zM803 1927l293 -280l-80 -91l-330 234zM782 -20q-310 0 -486.5 200t-176.5 555q0 358 179 562t484 204q304 0 483 -203.5t179 -560.5q0 -355 -177.5 -556t-484.5 -201zM784 188q387 0 387 545q0 284 -101 421.5t-288 137.5
t-289 -137.5t-102 -421.5q0 -278 102 -411.5t291 -133.5z" />
    <glyph glyph-name="uni020D" unicode="&#x20d;" horiz-adv-x="1163" 
d="M240 1505l292 -280l-77 -90l-330 233zM604 1505l293 -280l-80 -90l-330 233zM582 -20q-230 0 -365 149.5t-135 392.5q0 249 137.5 403t364.5 154q229 0 363 -154.5t134 -400.5q0 -243 -134.5 -393.5t-364.5 -150.5zM586 168q87 0 145 52t81.5 131t23.5 181q0 76 -14 139
t-43.5 113.5t-79 78.5t-115.5 28q-88 0 -147.5 -50.5t-84 -129t-24.5 -179.5q0 -75 14.5 -138.5t44.5 -115t81 -81t118 -29.5z" />
    <glyph glyph-name="uni020E" unicode="&#x20e;" horiz-adv-x="1560" 
d="M1147 1737h-164q-25 46 -72 78t-102 32q-113 0 -176 -110h-160q29 113 119 178t217 65q124 0 215 -68t123 -175zM782 -20q-310 0 -486.5 200t-176.5 555q0 358 179 562t484 204q304 0 483 -203.5t179 -560.5q0 -355 -177.5 -556t-484.5 -201zM784 188q387 0 387 545
q0 284 -101 421.5t-288 137.5t-289 -137.5t-102 -421.5q0 -278 102 -411.5t291 -133.5z" />
    <glyph glyph-name="uni020F" unicode="&#x20f;" horiz-adv-x="1163" 
d="M948 1315h-164q-25 46 -72 78t-102 32q-113 0 -176 -110h-160q29 113 119 178.5t217 65.5q124 0 215 -68.5t123 -175.5zM582 -20q-230 0 -365 149.5t-135 392.5q0 249 137.5 403t364.5 154q229 0 363 -154.5t134 -400.5q0 -243 -134.5 -393.5t-364.5 -150.5zM586 168
q87 0 145 52t81.5 131t23.5 181q0 76 -14 139t-43.5 113.5t-79 78.5t-115.5 28q-88 0 -147.5 -50.5t-84 -129t-24.5 -179.5q0 -75 14.5 -138.5t44.5 -115t81 -81t118 -29.5z" />
    <glyph glyph-name="uni0210" unicode="&#x210;" horiz-adv-x="1417" 
d="M342 1927l293 -280l-78 -91l-330 234zM707 1927l292 -280l-79 -91l-330 234zM1288 0h-260l-254 602h-344v-602h-250v1481h602q248 0 373 -113t125 -313q0 -293 -274 -412zM725 799q141 0 221 65.5t80 182.5q0 114 -72.5 176.5t-195.5 62.5h-328v-487h295z" />
    <glyph glyph-name="uni0211" unicode="&#x211;" horiz-adv-x="815" 
d="M104 1505l293 -280l-78 -90l-329 233zM469 1505l293 -280l-80 -90l-330 233zM143 0v1059h238v-246q51 117 153 191.5t226 74.5l2 -237q-171 11 -270 -64.5t-99 -179.5v-598h-250z" />
    <glyph glyph-name="uni0212" unicode="&#x212;" horiz-adv-x="1417" 
d="M1053 1737h-164q-25 46 -72 78t-102 32q-113 0 -176 -110h-160q29 113 119 178t217 65q124 0 215 -68t123 -175zM1288 0h-260l-254 602h-344v-602h-250v1481h602q248 0 373 -113t125 -313q0 -293 -274 -412zM725 799q141 0 221 65.5t80 182.5q0 114 -72.5 176.5
t-195.5 62.5h-328v-487h295z" />
    <glyph glyph-name="uni0213" unicode="&#x213;" horiz-adv-x="815" 
d="M813 1315h-164q-25 46 -72 78t-102 32q-113 0 -176 -110h-160q29 113 119 178.5t217 65.5q124 0 215 -68.5t123 -175.5zM143 0v1059h238v-246q51 117 153 191.5t226 74.5l2 -237q-171 11 -270 -64.5t-99 -179.5v-598h-250z" />
    <glyph glyph-name="uni0214" unicode="&#x214;" horiz-adv-x="1484" 
d="M387 1927l293 -280l-78 -91l-330 234zM752 1927l292 -280l-79 -91l-330 234zM1319 541q0 -273 -136.5 -417t-432.5 -144q-300 0 -435 145.5t-135 429.5v926h256v-951q0 -169 82 -253t232 -84t233.5 84t83.5 253v951h252v-940z" />
    <glyph glyph-name="uni0215" unicode="&#x215;" 
d="M252 1505l293 -280l-78 -90l-330 233zM616 1505l293 -280l-80 -90l-329 233zM539 -20q-69 1 -136 22t-126.5 62t-96.5 111t-37 159v727h250v-699q0 -98 62.5 -147t148.5 -49q93 0 156.5 54.5t64.5 150.5v690h252l-6 -1061h-190l-25 217q-13 -68 -46.5 -116.5t-79.5 -73.5
t-92.5 -36t-98.5 -11z" />
    <glyph glyph-name="uni0216" unicode="&#x216;" horiz-adv-x="1484" 
d="M1096 1737h-164q-25 46 -72 78t-102 32q-113 0 -176 -110h-160q29 113 119 178t217 65q124 0 215 -68t123 -175zM1319 541q0 -273 -136.5 -417t-432.5 -144q-300 0 -435 145.5t-135 429.5v926h256v-951q0 -169 82 -253t232 -84t233.5 84t83.5 253v951h252v-940z" />
    <glyph glyph-name="uni0217" unicode="&#x217;" 
d="M961 1315h-164q-25 46 -72 78t-102 32q-61 0 -106 -32t-71 -78h-159q29 113 119 178.5t217 65.5q124 0 215 -68.5t123 -175.5zM539 -20q-69 1 -136 22t-126.5 62t-96.5 111t-37 159v727h250v-699q0 -98 62.5 -147t148.5 -49q93 0 156.5 54.5t64.5 150.5v690h252l-6 -1061
h-190l-25 217q-13 -68 -46.5 -116.5t-79.5 -73.5t-92.5 -36t-98.5 -11z" />
    <glyph glyph-name="uni0218" unicode="&#x218;" horiz-adv-x="1439" 
d="M727 -20q-112 0 -215 26t-188.5 76.5t-141.5 132t-69 184.5l260 9q24 -110 120 -170t232 -60q146 0 241 56.5t95 156.5q0 163 -258 221l-279 58q-174 36 -269.5 132.5t-96.5 254.5q-1 198 157.5 320t403.5 122q127 0 234 -35.5t178.5 -96t114.5 -137.5t52 -163l-251 -8
q-34 237 -324 237q-128 0 -212.5 -58t-84.5 -155q0 -75 49.5 -118.5t179.5 -73.5l273 -60q391 -79 391 -438q0 -177 -163.5 -295t-428.5 -118zM639 -481q-11 0 -16.5 9.5t0.5 18.5l59 99q9 15 4.5 27t-18.5 12h-17q-18 0 -24 6t-6 24v127q0 29 22 29h143q23 0 23 -23v-163
q0 -5 -2 -12t-2 -9l-86 -125q-15 -20 -49 -20h-31z" />
    <glyph glyph-name="uni0219" unicode="&#x219;" horiz-adv-x="1079" 
d="M551 -20q-113 0 -209.5 34t-167.5 110.5t-88 186.5h215q44 -155 254 -155q100 0 156.5 36t56.5 99q0 50 -37.5 78t-112.5 47l-200 47q-142 31 -219 101t-78 190q-1 148 120.5 236.5t311.5 88.5q188 0 302 -91t114 -226h-213q-12 72 -69.5 109.5t-139.5 37.5
q-52 0 -95.5 -12t-76.5 -44.5t-33 -82.5q0 -46 42 -75t132 -48l191 -47q80 -20 137.5 -55t86.5 -77.5t41.5 -82.5t12.5 -82q0 -152 -123.5 -237.5t-310.5 -85.5zM465 -481q-11 0 -16.5 9.5t0.5 18.5l59 99q9 15 4.5 27t-18.5 12h-17q-19 0 -25 6.5t-6 23.5v127q0 29 23 29
h143q23 0 23 -23v-163q0 -5 -2 -12t-2 -9l-86 -125q-15 -20 -49 -20h-31z" />
    <glyph glyph-name="uni021A" unicode="&#x21a;" horiz-adv-x="1222" 
d="M33 1255v226h1155v-226h-443v-1255h-249v1255h-463zM559 -481q-11 0 -16.5 9.5t0.5 18.5l59 99q9 15 4.5 27t-18.5 12h-17q-18 0 -24 6t-6 24v127q0 29 22 29h144q22 0 22 -23v-163q0 -5 -2 -12t-2 -9l-86 -125q-15 -20 -49 -20h-31z" />
    <glyph glyph-name="uni021B" unicode="&#x21b;" horiz-adv-x="843" 
d="M737 883h-235v-602q0 -66 22.5 -90.5t69.5 -24.5h151v-152q-53 -22 -172 -22q-93 0 -157 18.5t-99 55.5t-50 85t-15 115v617h-172v176h180l31 315h211v-313h235v-178zM467 -481q-11 0 -16.5 9.5t0.5 18.5l59 99q9 15 4.5 27t-18.5 12h-17q-18 0 -24 6t-6 24v127
q0 29 22 29h143q23 0 23 -23v-163q0 -5 -2 -12t-2 -9l-86 -125q-15 -20 -49 -20h-31z" />
    <glyph glyph-name="uni0237" unicode="&#x237;" horiz-adv-x="563" 
d="M401 -18q0 -165 -76.5 -243.5t-250.5 -78.5q-52 0 -84 5.5t-40.5 11t-8.5 10.5l-2 166l92 8q67 6 95 35.5t28 91.5v1071h247v-1077z" />
    <glyph glyph-name="uni0259" unicode="&#x259;" horiz-adv-x="1159" 
d="M823 588q0 139 -67.5 222t-192.5 83q-182 0 -239 -158h-228q22 109 92 188.5t165 117.5t204 38q231 0 372.5 -145t141.5 -393q0 -164 -58.5 -290t-173 -198.5t-268.5 -72.5q-229 0 -353 144t-124 388v76h729zM823 432h-495q0 -121 62.5 -196.5t180.5 -75.5t185 81.5
t67 190.5z" />
    <glyph glyph-name="uni02BC" unicode="&#x2bc;" horiz-adv-x="364" 
d="M100 920q-20 0 -16 22l61 225q5 17 2.5 24.5t-12.5 8.5l-16 2q-27 0 -27 25v231q0 23 21 23h145q18 0 18 -19v-260q0 -10 -4 -14l-73 -246q-5 -22 -43 -22h-56z" />
    <glyph glyph-name="circumflex" unicode="&#x2c6;" horiz-adv-x="745" 
d="M506 1235l-139 145l-152 -145h-199l265 256h174l260 -256h-209z" />
    <glyph glyph-name="caron" unicode="&#x2c7;" horiz-adv-x="745" 
d="M506 1483h209l-260 -260h-174l-265 260h199l152 -148z" />
    <glyph glyph-name="breve" unicode="&#x2d8;" horiz-adv-x="747" 
d="M707 1481q-32 -107 -123 -175.5t-215 -68.5q-126 0 -216 66.5t-120 177.5h160q26 -46 70.5 -78.5t105.5 -32.5q55 0 101.5 32.5t72.5 78.5h164z" />
    <glyph glyph-name="dotaccent" unicode="&#x2d9;" horiz-adv-x="335" 
d="M293 1481v-269h-258v269h258z" />
    <glyph glyph-name="ring" unicode="&#x2da;" horiz-adv-x="512" 
d="M469 1376q0 -92 -63 -154.5t-154 -62.5t-154 64t-63 157q0 87 63.5 148t153.5 61q91 0 154 -62t63 -151zM354 1374q0 46 -30 75.5t-74 29.5t-75.5 -30t-31.5 -75q0 -42 32.5 -74t74.5 -32q43 0 73.5 32t30.5 74z" />
    <glyph glyph-name="ogonek" unicode="&#x2db;" horiz-adv-x="495" 
d="M35 -176q0 62 44.5 109t158.5 83l176 -8q-105 -41 -149 -77t-44 -81q0 -36 20 -52.5t64 -16.5q65 0 121 29q27 14 27 -15v-74q0 -17 -17 -26q-68 -37 -188 -37q-103 0 -158 43t-55 123z" />
    <glyph glyph-name="tilde" unicode="&#x2dc;" horiz-adv-x="790" 
d="M700 1325q-70 -49 -168 -49q-58 0 -144.5 27.5t-133.5 27.5q-39 0 -66 -10.5t-63 -34.5q-25 -19 -35 12l-22 72q-6 11 -4 20.5t14 20.5q39 33 76 50.5t90 17.5q57 0 150.5 -30t137.5 -30q62 0 130 45q27 17 36 -12l23 -86q6 -22 -21 -41z" />
    <glyph glyph-name="hungarumlaut" unicode="&#x2dd;" horiz-adv-x="864" 
d="M350 1487l74 -88q28 -31 -6 -51l-266 -195q-18 -11 -27 -11.5t-19 11.5l-45 49q-19 22 -4 37l260 250q20 17 33 -2zM715 1487l76 -88q23 -30 -9 -51l-268 -195q-28 -20 -45 0l-43 49q-20 23 -2 37l258 250q7 8 17 7.5t16 -9.5z" />
    <glyph glyph-name="gravecomb" unicode="&#x300;" horiz-adv-x="0" 
d="M-547 1501l510 -205l-39 -112l-530 145z" />
    <glyph glyph-name="acutecomb" unicode="&#x301;" horiz-adv-x="0" 
d="M-92 1501l57 -172l-530 -145l-37 112z" />
    <glyph glyph-name="uni0302" unicode="&#x302;" horiz-adv-x="0" 
d="M-240 1235l-139 145l-151 -145h-199l264 256h174l260 -256h-209z" />
    <glyph glyph-name="tildecomb" unicode="&#x303;" horiz-adv-x="0" 
d="M-90 1325q-70 -49 -168 -49q-58 0 -145 27.5t-134 27.5q-39 0 -66 -10.5t-63 -34.5q-12 -10 -20 -8t-14 20l-23 72q-6 11 -4 20.5t14 20.5q39 33 76 50.5t90 17.5q57 0 151 -30t138 -30q61 0 129 45q28 18 37 -12l22 -86q6 -23 -20 -41z" />
    <glyph glyph-name="uni0304" unicode="&#x304;" horiz-adv-x="0" 
d="M-45 1462v-164h-670v164h670z" />
    <glyph glyph-name="uni0306" unicode="&#x306;" horiz-adv-x="0" 
d="M-41 1481q-32 -107 -123 -175.5t-215 -68.5q-126 0 -216 66.5t-120 177.5h160q26 -46 70.5 -78.5t105.5 -32.5q55 0 101.5 32.5t72.5 78.5h164z" />
    <glyph glyph-name="uni0307" unicode="&#x307;" horiz-adv-x="0" 
d="M-43 1481v-269h-258v269h258z" />
    <glyph glyph-name="uni0308" unicode="&#x308;" horiz-adv-x="0" 
d="M-406 1481v-242h-225v242h225zM-45 1481v-242h-227v242h227z" />
    <glyph glyph-name="uni030A" unicode="&#x30a;" horiz-adv-x="0" 
d="M-43 1376q0 -92 -63 -154.5t-154 -62.5t-154 64t-63 157q0 87 63.5 148t153.5 61q91 0 154 -62t63 -151zM-158 1374q0 46 -30 75.5t-74 29.5t-75.5 -30t-31.5 -75q0 -42 32.5 -74t74.5 -32q43 0 73.5 32t30.5 74z" />
    <glyph glyph-name="uni030B" unicode="&#x30b;" horiz-adv-x="0" 
d="M-514 1487l74 -88q28 -31 -6 -51l-267 -195q-18 -11 -26.5 -11.5t-18.5 11.5l-45 49q-19 22 -4 37l260 250q20 17 33 -2zM-150 1487l76 -88q24 -31 -8 -51l-268 -195q-28 -20 -45 0l-43 49q-20 23 -2 37l258 250q18 18 32 -2z" />
    <glyph glyph-name="uni030C" unicode="&#x30c;" horiz-adv-x="0" 
d="M-240 1483h209l-260 -260h-174l-264 260h199l151 -148z" />
    <glyph glyph-name="uni030F" unicode="&#x30f;" horiz-adv-x="0" 
d="M-711 1505l293 -280l-78 -90l-329 233zM-346 1505l293 -280l-80 -90l-330 233z" />
    <glyph glyph-name="uni0311" unicode="&#x311;" horiz-adv-x="0" 
d="M4 1315h-164q-25 46 -72 78t-102 32q-113 0 -176 -110h-160q29 113 119 178.5t217 65.5q124 0 215 -68.5t123 -175.5z" />
    <glyph glyph-name="dotbelowcomb" unicode="&#x323;" horiz-adv-x="0" 
d="M-43 -127v-168q0 -19 -8.5 -27t-28.5 -8h-139q-18 0 -23.5 7.5t-5.5 23.5v170q0 17 4.5 24t16.5 7h161q23 0 23 -29z" />
    <glyph glyph-name="uni0326" unicode="&#x326;" horiz-adv-x="0" 
d="M-215 -481q-11 0 -16.5 9.5t0.5 18.5l59 99q9 15 4.5 27t-18.5 12h-17q-18 0 -24 6t-6 24v127q0 29 22 29h143q23 0 23 -23v-163q0 -5 -2 -12t-2 -9l-86 -125q-15 -20 -49 -20h-31z" />
    <glyph glyph-name="uni0327" unicode="&#x327;" horiz-adv-x="0" 
d="M-45 -266q0 -75 -68 -119.5t-166 -44.5q-135 0 -217 55l37 90q71 -49 150 -49q51 0 78.5 18t27.5 50q0 44 -39.5 65.5t-130.5 22.5q-13 0 -15.5 3t1.5 13l74 172h118l-47 -121q102 -4 149.5 -49.5t47.5 -105.5z" />
    <glyph glyph-name="uni0328" unicode="&#x328;" horiz-adv-x="0" 
d="M-461 -176q0 62 44.5 109t158.5 83l176 -8q-105 -41 -148.5 -77t-43.5 -81q0 -36 20 -52.5t64 -16.5q64 0 120 29q27 14 27 -15v-74q0 -18 -16 -26q-68 -37 -189 -37q-103 0 -158 43t-55 123z" />
    <glyph glyph-name="uni0394" unicode="&#x394;" horiz-adv-x="1376" 
d="M68 0v172l475 1309h282l473 -1309v-172h-1230zM334 209h688l-342 1010z" />
    <glyph glyph-name="uni03A9" unicode="&#x3a9;" horiz-adv-x="1568" 
d="M782 1298q-178 0 -282.5 -138t-104.5 -369q0 -347 287 -572q35 -27 35 -65v-154h-559v213h293q-29 23 -48 39.5t-57.5 54t-65.5 71t-60 86t-53.5 104t-35 119.5t-14.5 138q0 130 45 250.5t127 215.5t210.5 152.5t282.5 57.5q127 0 235.5 -39t185.5 -105t131.5 -153
t81 -182.5t26.5 -194.5q0 -66 -13.5 -130.5t-32 -113.5t-50.5 -100.5t-55 -82.5t-60.5 -69.5t-53 -52.5t-44.5 -40q-9 -9 -6.5 -17t14.5 -8h260v-213h-559v190q321 233 321 607q0 226 -101.5 363.5t-279.5 137.5z" />
    <glyph glyph-name="uni03BC" unicode="&#x3bc;" horiz-adv-x="1202" 
d="M561 164q127 0 260 143v752h252l-4 -1059h-242v164q-87 -82 -156.5 -123t-142.5 -51q-89 -6 -135 22v-342h-250v1389h250v-740q0 -66 48 -110.5t120 -44.5z" />
    <glyph glyph-name="pi" unicode="&#x3c0;" horiz-adv-x="1370" 
d="M1307 883h-209v-883h-240l-2 883h-373q0 -222 -35.5 -478t-85.5 -405h-231q47 182 80 421t33 441q0 21 -17 21h-174v176h1254v-176z" />
    <glyph glyph-name="uni1E0C" unicode="&#x1e0c;" horiz-adv-x="1499" 
d="M180 1481q273 0 400 -2q396 -7 582 -193.5t186 -537.5q0 -361 -195.5 -554.5t-587.5 -193.5h-385v1481zM434 1276v-1069h133q94 0 171.5 18t142.5 58.5t109.5 102.5t69.5 153.5t25 208.5q0 279 -131 403.5t-381 124.5h-139zM850 -127v-168q0 -19 -8.5 -27t-28.5 -8h-139
q-18 0 -23.5 7.5t-5.5 23.5v170q0 17 4.5 24t16.5 7h161q23 0 23 -29z" />
    <glyph glyph-name="uni1E0D" unicode="&#x1e0d;" 
d="M532 -20q-208 0 -326 143t-118 401q0 255 114.5 405t317.5 150q190 0 307 -137v580h250v-1522h-186l-25 209q-87 -229 -334 -229zM588 164q102 0 170.5 74.5t68.5 181.5v287q-66 186 -233 186q-121 0 -191.5 -90t-70.5 -273q0 -187 70.5 -276.5t185.5 -89.5zM705 -127
v-168q0 -19 -8.5 -27t-28.5 -8h-140q-17 0 -22.5 7t-5.5 24v170q0 18 4 24.5t16 6.5h162q23 0 23 -29z" />
    <glyph glyph-name="uni1E24" unicode="&#x1e24;" horiz-adv-x="1476" 
d="M1051 657h-621v-657h-250v1481h250v-611h621v611h249v-1481h-249v657zM840 -127v-168q0 -19 -8.5 -27t-28.5 -8h-139q-18 0 -23.5 7.5t-5.5 23.5v170q0 18 4 24.5t16 6.5h162q23 0 23 -29z" />
    <glyph glyph-name="uni1E25" unicode="&#x1e25;" 
d="M143 0v1522h246v-607q102 154 316 154q157 0 263.5 -91t106.5 -235v-743h-250v705q0 77 -56.5 122t-145.5 45q-95 0 -162.5 -47t-67.5 -131v-694h-250zM723 -127v-168q0 -19 -8.5 -27t-28.5 -8h-139q-18 0 -23.5 7.5t-5.5 23.5v170q0 17 4.5 24t16.5 7h161q23 0 23 -29z
" />
    <glyph glyph-name="uni1E44" unicode="&#x1e44;" horiz-adv-x="1574" 
d="M932 1903v-269h-258v269h258zM1149 1481h250v-1481h-223l-746 1085v-1085h-250v1481h244l725 -1057v1057z" />
    <glyph glyph-name="uni1E45" unicode="&#x1e45;" 
d="M750 1481v-269h-258v269h258zM143 0v1059h244v-141q53 71 128 112t192 41q154 0 262 -101t108 -270v-700h-250v674q0 93 -56 145.5t-146 52.5q-96 0 -164 -46.5t-68 -129.5v-696h-250z" />
    <glyph glyph-name="uni1E5A" unicode="&#x1e5a;" horiz-adv-x="1417" 
d="M1288 0h-260l-254 602h-344v-602h-250v1481h602q248 0 373 -113t125 -313q0 -293 -274 -412zM725 799q141 0 221 65.5t80 182.5q0 114 -72.5 176.5t-195.5 62.5h-328v-487h295zM809 -127v-168q0 -19 -8.5 -27t-28.5 -8h-139q-18 0 -23.5 7.5t-5.5 23.5v170q0 17 4.5 24
t16.5 7h161q23 0 23 -29z" />
    <glyph glyph-name="uni1E5B" unicode="&#x1e5b;" horiz-adv-x="815" 
d="M143 0v1059h238v-246q51 117 153 191.5t226 74.5l2 -237q-171 11 -270 -64.5t-99 -179.5v-598h-250zM383 -127v-168q0 -19 -8.5 -27t-28.5 -8h-139q-18 0 -23.5 7.5t-5.5 23.5v170q0 17 4.5 24t16.5 7h161q23 0 23 -29z" />
    <glyph glyph-name="uni1E62" unicode="&#x1e62;" horiz-adv-x="1439" 
d="M727 -20q-112 0 -215 26t-188.5 76.5t-141.5 132t-69 184.5l260 9q24 -110 120 -170t232 -60q146 0 241 56.5t95 156.5q0 163 -258 221l-279 58q-174 36 -269.5 132.5t-96.5 254.5q-1 198 157.5 320t403.5 122q127 0 234 -35.5t178.5 -96t114.5 -137.5t52 -163l-251 -8
q-34 237 -324 237q-128 0 -212.5 -58t-84.5 -155q0 -75 49.5 -118.5t179.5 -73.5l273 -60q391 -79 391 -438q0 -177 -163.5 -295t-428.5 -118zM815 -127v-168q0 -19 -8.5 -27t-28.5 -8h-139q-18 0 -23.5 7.5t-5.5 23.5v170q0 17 4.5 24t16.5 7h162q22 0 22 -29z" />
    <glyph glyph-name="uni1E63" unicode="&#x1e63;" horiz-adv-x="1079" 
d="M551 -20q-113 0 -209.5 34t-167.5 110.5t-88 186.5h215q44 -155 254 -155q100 0 156.5 36t56.5 99q0 50 -37.5 78t-112.5 47l-200 47q-142 31 -219 101t-78 190q-1 148 120.5 236.5t311.5 88.5q188 0 302 -91t114 -226h-213q-12 72 -69.5 109.5t-139.5 37.5
q-52 0 -95.5 -12t-76.5 -44.5t-33 -82.5q0 -46 42 -75t132 -48l191 -47q80 -20 137.5 -55t86.5 -77.5t41.5 -82.5t12.5 -82q0 -152 -123.5 -237.5t-310.5 -85.5zM641 -127v-168q0 -19 -8.5 -27t-28.5 -8h-139q-18 0 -23.5 7.5t-5.5 23.5v170q0 17 4.5 24t16.5 7h161
q23 0 23 -29z" />
    <glyph glyph-name="uni1E6C" unicode="&#x1e6c;" horiz-adv-x="1222" 
d="M33 1255v226h1155v-226h-443v-1255h-249v1255h-463zM735 -127v-168q0 -19 -8.5 -27t-28.5 -8h-139q-18 0 -23.5 7.5t-5.5 23.5v170q0 17 4.5 24t16.5 7h162q22 0 22 -29z" />
    <glyph glyph-name="uni1E6D" unicode="&#x1e6d;" horiz-adv-x="843" 
d="M737 883h-235v-602q0 -66 22.5 -90.5t69.5 -24.5h151v-152q-53 -22 -172 -22q-93 0 -157 18.5t-99 55.5t-50 85t-15 115v617h-172v176h180l31 315h211v-313h235v-178zM643 -127v-168q0 -19 -8.5 -27t-28.5 -8h-139q-18 0 -23.5 7.5t-5.5 23.5v170q0 17 4.5 24t16.5 7h162
q22 0 22 -29z" />
    <glyph glyph-name="Wgrave" unicode="&#x1e80;" horiz-adv-x="1978" 
d="M750 1923l510 -205l-39 -112l-531 145zM1931 1481l-434 -1481h-211l-299 1051l-303 -1051h-205l-432 1481h248l299 -1069l301 1069h186l303 -1069l302 1069h245z" />
    <glyph glyph-name="wgrave" unicode="&#x1e81;" horiz-adv-x="1628" 
d="M580 1501l510 -205l-39 -112l-531 145zM1577 1059l-336 -1059h-215l-217 705l-211 -705h-211l-336 1059h225l220 -729h12l215 729h182l219 -727h13l213 727h227z" />
    <glyph glyph-name="Wacute" unicode="&#x1e82;" horiz-adv-x="1978" 
d="M1221 1923l57 -172l-530 -145l-37 112zM1931 1481l-434 -1481h-211l-299 1051l-303 -1051h-205l-432 1481h248l299 -1069l301 1069h186l303 -1069l302 1069h245z" />
    <glyph glyph-name="wacute" unicode="&#x1e83;" horiz-adv-x="1628" 
d="M1049 1501l57 -172l-531 -145l-36 112zM1577 1059l-336 -1059h-215l-217 705l-211 -705h-211l-336 1059h225l220 -729h12l215 729h182l219 -727h13l213 727h227z" />
    <glyph glyph-name="Wdieresis" unicode="&#x1e84;" horiz-adv-x="1978" 
d="M926 1903v-242h-226v242h226zM1286 1903v-242h-227v242h227zM1931 1481l-434 -1481h-211l-299 1051l-303 -1051h-205l-432 1481h248l299 -1069l301 1069h186l303 -1069l302 1069h245z" />
    <glyph glyph-name="wdieresis" unicode="&#x1e85;" horiz-adv-x="1628" 
d="M754 1481v-242h-226v242h226zM1114 1481v-242h-227v242h227zM1577 1059l-336 -1059h-215l-217 705l-211 -705h-211l-336 1059h225l220 -729h12l215 729h182l219 -727h13l213 727h227z" />
    <glyph glyph-name="uni1E92" unicode="&#x1e92;" horiz-adv-x="1337" 
d="M104 0v127l779 1143h-736v211h1090v-121l-788 -1147h782v-213h-1127zM788 -127v-168q0 -19 -8 -27t-28 -8h-140q-17 0 -22.5 7t-5.5 24v170q0 18 4 24.5t16 6.5h162q22 0 22 -29z" />
    <glyph glyph-name="uni1E93" unicode="&#x1e93;" horiz-adv-x="1046" 
d="M82 0v137l575 760h-530v162h838v-135l-576 -760h584v-164h-891zM659 -127v-168q0 -19 -7 -27t-27 -8h-140q-18 0 -24 7.5t-6 23.5v170q0 31 22 31h162q20 0 20 -29z" />
    <glyph glyph-name="uni1EB8" unicode="&#x1eb8;" horiz-adv-x="1302" 
d="M180 0v1481h979v-213h-727v-416h643v-211h-645v-424l746 -2v-215h-996zM805 -127v-168q0 -19 -8.5 -27t-28.5 -8h-139q-18 0 -23.5 7.5t-5.5 23.5v170q0 17 4.5 24t16.5 7h161q23 0 23 -29z" />
    <glyph glyph-name="uni1EB9" unicode="&#x1eb9;" horiz-adv-x="1167" 
d="M336 471q0 -139 67.5 -222t192.5 -83q183 0 240 158h227q-22 -109 -92 -188.5t-165 -117.5t-204 -38q-231 0 -372.5 145t-141.5 393q0 164 58.5 290t173 198.5t268.5 72.5q229 0 353 -144t124 -388v-76h-729zM336 627h495q0 121 -62.5 196.5t-180.5 75.5t-185 -81.5
t-67 -190.5zM686 -127v-168q0 -19 -8.5 -27t-28.5 -8h-139q-29 0 -29 31v170q0 31 21 31h162q22 0 22 -29z" />
    <glyph glyph-name="uni1EBC" unicode="&#x1ebc;" horiz-adv-x="1302" 
d="M997 1747q-70 -49 -168 -49q-58 0 -144.5 27.5t-133.5 27.5q-39 0 -66 -10.5t-63 -34.5q-25 -19 -35 12l-22 72q-6 11 -4 20.5t14 20.5q39 33 76 50.5t90 17.5q57 0 150.5 -30t137.5 -30q61 0 129 45q28 18 37 -12l23 -86q6 -22 -21 -41zM180 0v1481h979v-213h-727v-416
h643v-211h-645v-424l746 -2v-215h-996z" />
    <glyph glyph-name="uni1EBD" unicode="&#x1ebd;" horiz-adv-x="1167" 
d="M901 1325q-70 -49 -168 -49q-58 0 -144.5 27.5t-133.5 27.5q-39 0 -66 -10.5t-63 -34.5q-26 -19 -33 12l-25 72q-9 23 11 41q39 33 75.5 50.5t89.5 17.5q57 0 151 -30t138 -30q61 0 129 45q28 18 37 -12l23 -86q6 -22 -21 -41zM336 471q0 -139 67.5 -222t192.5 -83
q183 0 240 158h227q-22 -109 -92 -188.5t-165 -117.5t-204 -38q-231 0 -372.5 145t-141.5 393q0 164 58.5 290t173 198.5t268.5 72.5q229 0 353 -144t124 -388v-76h-729zM336 627h495q0 121 -62.5 196.5t-180.5 75.5t-185 -81.5t-67 -190.5z" />
    <glyph glyph-name="uni1ECA" unicode="&#x1eca;" horiz-adv-x="606" 
d="M180 1481h250v-1481h-250v1481zM422 -127v-168q0 -19 -8.5 -27t-28.5 -8h-139q-18 0 -23.5 7.5t-5.5 23.5v170q0 17 4.5 24t16.5 7h161q23 0 23 -29z" />
    <glyph glyph-name="uni1ECB" unicode="&#x1ecb;" horiz-adv-x="581" 
d="M408 1522v-271h-258v271h258zM403 1059v-1059h-249v1059h249zM438 -127v-168q0 -19 -8.5 -27t-28.5 -8h-139q-18 0 -23.5 7.5t-5.5 23.5v170q0 17 4.5 24t16.5 7h162q22 0 22 -29z" />
    <glyph glyph-name="uni1ECC" unicode="&#x1ecc;" horiz-adv-x="1560" 
d="M782 -20q-310 0 -486.5 200t-176.5 555q0 358 179 562t484 204q304 0 483 -203.5t179 -560.5q0 -355 -177.5 -556t-484.5 -201zM784 188q387 0 387 545q0 284 -101 421.5t-288 137.5t-289 -137.5t-102 -421.5q0 -278 102 -411.5t291 -133.5zM889 -127v-168
q0 -19 -8.5 -27t-28.5 -8h-139q-18 0 -23.5 7.5t-5.5 23.5v170q0 17 4.5 24t16.5 7h161q23 0 23 -29z" />
    <glyph glyph-name="uni1ECD" unicode="&#x1ecd;" horiz-adv-x="1163" 
d="M582 -20q-230 0 -365 149.5t-135 392.5q0 249 137.5 403t364.5 154q229 0 363 -154.5t134 -400.5q0 -243 -134.5 -393.5t-364.5 -150.5zM586 168q87 0 145 52t81.5 131t23.5 181q0 76 -14 139t-43.5 113.5t-79 78.5t-115.5 28q-88 0 -147.5 -50.5t-84 -129t-24.5 -179.5
q0 -75 14.5 -138.5t44.5 -115t81 -81t118 -29.5zM682 -127v-168q0 -19 -8.5 -27t-28.5 -8h-139q-18 0 -23.5 7.5t-5.5 23.5v170q0 17 4.5 24t16.5 7h161q23 0 23 -29z" />
    <glyph glyph-name="uni1EE4" unicode="&#x1ee4;" horiz-adv-x="1452" 
d="M1323 541q0 -273 -136.5 -417t-432.5 -144q-300 0 -435 145.5t-135 429.5v926h256v-951q0 -169 82 -253t232 -84t233.5 84t83.5 253v951h252v-940zM866 -127v-168q0 -19 -8 -27t-29 -8h-139q-16 0 -22 7.5t-6 23.5v170q0 31 20 31h164q20 0 20 -29z" />
    <glyph glyph-name="uni1EE5" unicode="&#x1ee5;" 
d="M539 -20q-69 1 -136 22t-126.5 62t-96.5 111t-37 159v727h250v-699q0 -98 62.5 -147t148.5 -49q93 0 156.5 54.5t64.5 150.5v690h252l-6 -1061h-190l-25 217q-13 -68 -46.5 -116.5t-79.5 -73.5t-92.5 -36t-98.5 -11zM711 -127v-168q0 -19 -8.5 -27t-28.5 -8h-139
q-18 0 -23.5 7.5t-5.5 23.5v170q0 18 4 24.5t16 6.5h162q23 0 23 -29z" />
    <glyph glyph-name="Ygrave" unicode="&#x1ef2;" horiz-adv-x="1302" 
d="M430 1923l510 -205l-39 -112l-530 145zM1284 1481l-508 -854v-627h-250v627l-510 854h271l366 -637l359 637h272z" />
    <glyph glyph-name="ygrave" unicode="&#x1ef3;" horiz-adv-x="1132" 
d="M350 1501l510 -205l-39 -112l-530 145zM283 -338q-60 0 -106 8t-61 16l-16 7v160l107 -3q60 -3 103 6.5t66 30.5t32 35.5t18 36.5l27 76l-414 1024h250l278 -748l283 748h244l-437 -1098q-69 -170 -158 -234.5t-216 -64.5z" />
    <glyph glyph-name="uni1EF8" unicode="&#x1ef8;" horiz-adv-x="1302" 
d="M987 1747q-70 -49 -168 -49q-58 0 -144.5 27.5t-133.5 27.5q-39 0 -66 -10.5t-63 -34.5q-25 -19 -35 12l-23 72q-9 23 11 41q39 33 75.5 50.5t89.5 17.5q57 0 151 -30t138 -30q61 0 129 45q28 18 37 -12l23 -86q6 -22 -21 -41zM1284 1481l-508 -854v-627h-250v627
l-510 854h271l366 -637l359 637h272z" />
    <glyph glyph-name="uni1EF9" unicode="&#x1ef9;" horiz-adv-x="1132" 
d="M907 1325q-70 -49 -168 -49q-58 0 -144.5 27.5t-133.5 27.5q-39 0 -66 -10.5t-63 -34.5q-25 -19 -35 12l-23 72q-9 23 11 41q39 33 76 50.5t90 17.5q57 0 150.5 -30t137.5 -30q61 0 129 45q28 18 37 -12l23 -86q6 -22 -21 -41zM283 -338q-60 0 -106 8t-61 16l-16 7v160
l107 -3q60 -3 103 6.5t66 30.5t32 35.5t18 36.5l27 76l-414 1024h250l278 -748l283 748h244l-437 -1098q-69 -170 -158 -234.5t-216 -64.5z" />
    <glyph glyph-name="endash" unicode="&#x2013;" horiz-adv-x="1187" 
d="M1055 604v-186h-930v186h930z" />
    <glyph glyph-name="emdash" unicode="&#x2014;" horiz-adv-x="1835" 
d="M1700 604v-186h-1575v186h1575z" />
    <glyph glyph-name="quoteleft" unicode="&#x2018;" horiz-adv-x="522" 
d="M381 1544l-117 -268l98 -6v-260h-272v227l191 307h100z" />
    <glyph glyph-name="quoteright" unicode="&#x2019;" horiz-adv-x="489" 
d="M102 946l117 268l-96 9v258h272v-228l-192 -307h-101z" />
    <glyph glyph-name="quotesinglbase" unicode="&#x201a;" horiz-adv-x="509" 
d="M100 -270l115 266l-96 8v260h272v-229l-190 -305h-101z" />
    <glyph glyph-name="quotedblleft" unicode="&#x201c;" horiz-adv-x="925" 
d="M111 946v230l192 305h100l-116 -267l96 -8v-260h-272zM520 946v230l193 305h100l-119 -267l99 -8v-260h-273z" />
    <glyph glyph-name="quotedblright" unicode="&#x201d;" horiz-adv-x="954" 
d="M102 946l117 268l-96 9v258h272v-228l-192 -307h-101zM510 946l119 268l-99 9v258h273v-228l-191 -307h-102z" />
    <glyph glyph-name="quotedblbase" unicode="&#x201e;" horiz-adv-x="993" 
d="M131 -270l117 266l-96 8v260h272v-229l-193 -305h-100zM551 -270l117 266l-99 8v260h273v-229l-191 -305h-100z" />
    <glyph glyph-name="dagger" unicode="&#x2020;" horiz-adv-x="1011" 
d="M950 991v-221l-375 35l50 -1135h-246l47 1135l-375 -35v221l365 -30l-39 520h250l-41 -520z" />
    <glyph glyph-name="daggerdbl" unicode="&#x2021;" horiz-adv-x="1011" 
d="M578 782v-456l372 34v-223l-366 33l43 -500h-250l41 500l-367 -33v223l373 -34v456l-373 -34v221l365 -31l-39 543h248l-39 -543l364 31v-221z" />
    <glyph glyph-name="bullet" unicode="&#x2022;" horiz-adv-x="698" 
d="M340 522q-95 0 -162 68t-67 164q0 95 67 163t162 68q96 0 163.5 -67.5t67.5 -163.5t-67.5 -164t-163.5 -68z" />
    <glyph glyph-name="ellipsis" unicode="&#x2026;" horiz-adv-x="1701" 
d="M426 287v-287h-283v287h283zM1026 287v-287h-281v287h281zM1628 287v-287h-280v287h280z" />
    <glyph glyph-name="perthousand" unicode="&#x2030;" horiz-adv-x="2734" 
d="M471 1503q155 0 257.5 -119.5t102.5 -304.5q0 -183 -102 -300t-258 -117q-158 0 -261.5 117t-103.5 300q0 185 104.5 304.5t260.5 119.5zM1563 1497l-996 -1505l-153 2l999 1503h150zM469 793q86 0 131 75.5t45 210.5q0 137 -45.5 215t-130.5 78q-86 0 -131 -78t-45 -215
q0 -134 45 -210t131 -76zM1421 823q156 0 259.5 -120t103.5 -304t-103 -301.5t-260 -117.5q-158 0 -261 117.5t-103 301.5t104 304t260 120zM2257 823q154 0 257 -120t103 -304t-102 -301.5t-258 -117.5q-159 0 -262 117.5t-103 301.5t104 304t261 120zM1419 113
q85 0 130.5 77t45.5 207q0 134 -46.5 214.5t-129.5 80.5t-128.5 -80.5t-45.5 -214.5q0 -130 45.5 -207t128.5 -77zM2255 113q85 0 130.5 77t45.5 207q0 134 -46.5 214.5t-129.5 80.5t-129.5 -81t-46.5 -214q0 -130 46.5 -207t129.5 -77z" />
    <glyph glyph-name="guilsinglleft" unicode="&#x2039;" horiz-adv-x="606" 
d="M301 514l182 -377h-135l-254 377l254 393h137z" />
    <glyph glyph-name="guilsinglright" unicode="&#x203a;" horiz-adv-x="606" 
d="M295 514l-184 393h135l254 -393l-254 -377h-133z" />
    <glyph glyph-name="fraction" unicode="&#x2044;" horiz-adv-x="526" 
d="M827 1497l-995 -1505l-154 2l1000 1503h149z" />
    <glyph glyph-name="uni2070" unicode="&#x2070;" horiz-adv-x="858" 
d="M401 1729q163 0 264 -126.5t101 -355.5q0 -227 -100.5 -351t-266.5 -124t-265 123.5t-99 351.5q0 229 101 355.5t265 126.5zM401 901q94 0 142.5 82.5t48.5 263.5q0 355 -193 355q-192 0 -192 -355q0 -346 194 -346z" />
    <glyph glyph-name="uni2074" unicode="&#x2074;" horiz-adv-x="858" 
d="M469 1710h158v-573h141v-138h-141v-221h-158v221h-426v138zM207 1137h262v350z" />
    <glyph glyph-name="uni2075" unicode="&#x2075;" horiz-adv-x="829" 
d="M150 1710h585l-8 -131h-451l-20 -260q44 20 68.5 29t63 17.5t79.5 8.5q140 0 230.5 -75.5t90.5 -215.5q0 -148 -100 -232.5t-266 -84.5q-116 0 -212.5 44t-154.5 120l117 86q59 -64 106.5 -93.5t122.5 -29.5q100 0 157.5 51t57.5 133q0 78 -51.5 123t-136.5 45
q-34 0 -68.5 -9.5t-55.5 -19.5t-60 -30q-11 -5 -14 -5t-13 7l-106 59z" />
    <glyph glyph-name="uni2076" unicode="&#x2076;" horiz-adv-x="833" 
d="M418 1737q123 0 208.5 -59.5t100.5 -157.5l-137 -21q-29 57 -67 85t-103 28q-110 0 -167.5 -100t-45.5 -273q29 56 90.5 87.5t136.5 31.5q139 0 222 -79t83 -200q0 -131 -96.5 -214t-243.5 -83q-173 0 -270.5 123t-97.5 338q0 232 102.5 363t284.5 131zM401 1239
q-73 0 -128.5 -39.5t-55.5 -95.5q12 -99 58 -149t120 -50q75 0 126.5 47.5t51.5 120.5q0 72 -49 119t-123 47z" />
    <glyph glyph-name="uni2077" unicode="&#x2077;" horiz-adv-x="755" 
d="M63 1710h678v-162q-120 -158 -224 -389.5t-114 -380.5h-170q10 90 46.5 211t118.5 286t190 304h-525v131z" />
    <glyph glyph-name="uni2078" unicode="&#x2078;" horiz-adv-x="829" 
d="M397 1731q144 0 234 -72.5t90 -185.5q0 -44 -17.5 -81.5t-44 -61t-46 -35.5t-35.5 -19q2 -1 20 -9t25 -12t25.5 -14t28.5 -19t25.5 -23t24 -29.5t18 -34.5t13.5 -42.5t4 -50.5q0 -125 -101 -196.5t-270 -71.5q-162 0 -258 64t-96 178q0 72 45.5 129.5t126.5 93.5
q-1 0 -10 4.5t-16 9t-20 12.5t-23.5 17.5t-22.5 22t-21.5 28t-17.5 33t-12.5 40t-4.5 46.5q0 118 93 198.5t243 80.5zM399 1610q-73 0 -121.5 -39.5t-48.5 -100.5q0 -90 107 -118l110 -29q38 -9 82.5 40.5t44.5 106.5q0 61 -47 100.5t-127 39.5zM401 895q88 0 138.5 37
t50.5 100q0 94 -115 125l-137 37q-39 12 -93.5 -36.5t-54.5 -115.5q0 -70 53.5 -108.5t157.5 -38.5z" />
    <glyph glyph-name="uni2079" unicode="&#x2079;" horiz-adv-x="833" 
d="M360 776q-122 0 -209 61.5t-102 157.5l141 19q25 -52 62.5 -81.5t101.5 -29.5q116 0 179 94.5t53 284.5q-26 -62 -88 -97.5t-144 -35.5q-143 0 -229 80.5t-86 206.5q0 131 96 213t244 82q173 0 271 -122t98 -337q0 -243 -102.5 -369.5t-285.5 -126.5zM377 1276
q71 0 127.5 41t56.5 94q-12 100 -58.5 150.5t-121.5 50.5q-74 0 -122 -47.5t-48 -122.5q0 -71 46.5 -118.5t119.5 -47.5z" />
    <glyph glyph-name="colonmonetary" unicode="&#x20a1;" horiz-adv-x="1220" 
d="M625 373q86 0 143 55t72 133h207q-13 -139 -99.5 -233.5t-220.5 -124.5l-53 -201l-144 2l50 189q-69 3 -121 20l-58 -211l-141 2l70 270q-101 72 -157 190.5t-56 270.5q0 198 91 340t249 193l57 211l141 2l-49 -191h8q62 0 117 -12l55 201l140 2l-66 -256
q80 -50 130.5 -132.5t60.5 -185.5l-213 -2q-21 87 -77 140t-140 53q-125 0 -198 -96t-73 -263q0 -168 75 -267t200 -99z" />
    <glyph glyph-name="franc" unicode="&#x20a3;" horiz-adv-x="1273" 
d="M1178 1270h-734v-441h578v-206h-578v-222h320v-143h-320v-258h-282v256h-185v143h185v1082h1016v-211z" />
    <glyph glyph-name="lira" unicode="&#x20a4;" horiz-adv-x="1300" 
d="M1206 328q-45 -159 -160 -243.5t-280 -84.5h-727v209h72q73 0 121 53.5t55 159.5q5 23 2 70q0 14 -17 14h-217v141h213l-24 158h-189v143h168l-8 74q-16 124 13.5 218.5t93.5 150t148.5 83t186.5 27.5q94 0 183 -30.5t162 -93t108 -146.5l-219 -72q-64 139 -199 139
q-88 0 -144 -52.5t-56 -145.5q0 -23 16 -129q3 -23 22 -23l297 2v-143l-295 -2l23 -158l272 2v-143h-272q-5 -82 -36.5 -162t-86.5 -133h316q98 0 156.5 38.5t88.5 127.5z" />
    <glyph glyph-name="uni20A6" unicode="&#x20a6;" horiz-adv-x="1560" 
d="M1532 899h-76v-272h76v-131h-76v-496h-225l-338 496l-406 -2v-494h-249v494h-218v133h218v272h-218v131h218v451h243l310 -451h415v451h250v-451h76v-131zM487 1085v-55h37zM487 627h314l-187 272h-127v-272zM1206 627v272h-325l186 -272h139zM1206 424v72h-49z" />
    <glyph glyph-name="uni20A9" unicode="&#x20a9;" horiz-adv-x="2238" 
d="M2206 1026h-293l-53 -176h346v-143h-387l-209 -707h-209l-201 707h-196l-205 -707h-207l-205 707h-356v141h315l-53 178h-262v141h221l-90 314h246l88 -314h426l88 314h184l88 -312h430l88 312h246l-92 -312h252v-143zM535 1026l49 -178h245l52 178h-346zM1044 848l115 2
l-51 176h-12zM1622 850l49 176h-348l49 -176h250zM707 412l84 295h-166zM1497 412l84 295h-168z" />
    <glyph glyph-name="dong" unicode="&#x20ab;" horiz-adv-x="1073" 
d="M909 1360h125v-117h-125v-973h-207v115q-25 -28 -44.5 -45.5t-53 -40t-77 -34t-95.5 -11.5q-156 0 -254 114.5t-98 325.5q0 206 106 334.5t265 128.5q71 0 122 -22.5t99 -67.5q14 -11 20 -9t6 19v166h-247v117h247v121h211v-121zM696 555v369q-83 86 -180 86
q-98 0 -156.5 -78.5t-58.5 -233.5q0 -154 57.5 -228.5t153.5 -74.5q77 0 130.5 49t53.5 111zM131 0v127h784v-127h-784z" />
    <glyph glyph-name="Euro" unicode="&#x20ac;" horiz-adv-x="1296" 
d="M821 195q70 0 138.5 33.5t115.5 82.5l135 -147q-77 -83 -186.5 -133.5t-232.5 -50.5q-231 0 -391 140t-214 386h-188v143h168q-4 66 -4 99q0 30 4 88h-168v143h186q53 246 211.5 384t390.5 138q126 0 236 -47.5t188 -132.5l-172 -139q-57 55 -110.5 85.5t-120.5 30.5
q-268 0 -336 -319h369v-141h-387q-2 -31 -2 -93q0 -34 4 -96h385v-143h-365q38 -156 126.5 -233.5t219.5 -77.5z" />
    <glyph glyph-name="uni20B9" unicode="&#x20b9;" horiz-adv-x="1267" 
d="M1217 1481v-131h-269q75 -72 96 -179h173v-131h-170q-16 -123 -92 -204.5t-185 -120.5q-15 -6 -8 -27l274 -688h-307l-240 668h-454v184h416q138 0 211 44.5t90 143.5h-715v131h713q-37 168 -273 168h-442v142h1182z" />
    <glyph glyph-name="uni20BA" unicode="&#x20ba;" horiz-adv-x="1269" 
d="M1012 547l223 -49q-30 -88 -72 -161.5t-102.5 -136.5t-135 -107t-172.5 -68.5t-212 -24.5h-275v451l-157 -58l-50 142l207 75v172l-178 -65l-51 141l229 84v539h285v-434l260 94l53 -142l-313 -114v-172l280 102l52 -141l-332 -121v-342h84q254 6 377 336z" />
    <glyph glyph-name="uni2113" unicode="&#x2113;" horiz-adv-x="1110" 
d="M465 406q0 -123 45.5 -179.5t134.5 -56.5q102 0 189 74l-238 -264q-103 0 -176 30.5t-113 93t-54 98t-30 102.5q-4 15 -6 22q-3 10 -12 4l-94 -64l-64 142l164 122v480q0 241 111 366t294 125q163 0 241.5 -92t78.5 -242q0 -63 -15 -124.5t-37 -112t-62 -107t-73.5 -97
t-90 -94.5t-93.5 -86.5t-100 -86.5v-53zM465 997v-329q301 276 301 518q0 75 -33 116t-98 41q-54 0 -90 -30t-58 -108.5t-22 -207.5zM834 244l92 104q-16 -18 -15 -18q-37 -49 -77 -86z" />
    <glyph glyph-name="uni2116" unicode="&#x2116;" horiz-adv-x="2398" 
d="M1987 1501q148 0 238.5 -96.5t90.5 -249.5q0 -151 -90 -245.5t-239 -94.5q-151 0 -240.5 94.5t-89.5 245.5q0 154 92 250t238 96zM1149 1481h250v-1481h-223l-746 1085v-1085h-250v1481h244l725 -1057v1057zM1987 1384q-77 0 -116.5 -57.5t-39.5 -167.5q0 -111 39.5 -170
t116.5 -59t117 59t40 170q0 110 -40 167.5t-117 57.5z" />
    <glyph glyph-name="uni2117" unicode="&#x2117;" horiz-adv-x="1695" 
d="M842 -20q-155 0 -295.5 60t-242.5 161.5t-162 242.5t-60 297q0 154 60 294.5t162 242.5t242.5 162.5t295.5 60.5t296 -60.5t243 -162.5t162.5 -242.5t60.5 -294.5q0 -156 -60.5 -297.5t-162.5 -242.5t-243 -161t-296 -60zM842 129q169 0 305 74.5t215.5 215t79.5 322.5
q0 181 -79.5 322t-216 217t-304.5 76q-128 0 -238.5 -44.5t-190.5 -124t-125.5 -195t-45.5 -251.5q0 -183 78 -323t214 -214.5t308 -74.5zM1200 893q0 -124 -78.5 -190t-208.5 -66h-186v-295h-166v793h336q135 0 219 -61t84 -181zM1032 887q0 123 -145 123h-160v-250h168
q61 0 99 33t38 94z" />
    <glyph glyph-name="uni2120" unicode="&#x2120;" horiz-adv-x="2058" 
d="M455 -12q-94 0 -175.5 28t-140 89t-69.5 145l163 6q15 -68 75 -105.5t145 -37.5q92 0 151.5 35t59.5 96q0 105 -162 139l-174 37q-109 21 -169 80.5t-61 158.5q-1 124 99 201.5t254 77.5q155 0 252 -79.5t110 -190.5l-160 -6q-19 149 -202 149q-79 0 -132 -37t-53 -98
q0 -46 31.5 -73.5t112.5 -45.5l170 -37q243 -50 243 -274q0 -111 -101 -184.5t-267 -73.5zM1014 0v926h223l242 -707l245 707h222v-926h-158v725l-244 -725h-131l-242 721v-721h-157z" />
    <glyph glyph-name="trademark" unicode="&#x2122;" horiz-adv-x="1921" 
d="M20 784v142h723v-142h-278v-784h-156v784h-289zM877 0v926h223l241 -707l246 707h221v-926h-157v725l-244 -725h-131l-242 721v-721h-157z" />
    <glyph glyph-name="uni2153" unicode="&#x2153;" horiz-adv-x="1976" 
d="M178 565v754l-174 -55v112l242 121h92v-932h-160zM1452 1497l-995 -1505l-154 2l1000 1503h149zM1225 713q14 79 69.5 131.5t128 73t160.5 20.5q146 0 242 -68t96 -172q0 -146 -174 -206q89 -25 146 -85.5t57 -148.5q0 -124 -109.5 -200t-265.5 -76q-153 0 -245.5 51
t-123.5 176l146 18q58 -116 215 -116q95 0 152 41t57 104q0 70 -58.5 113t-140.5 43l-125 2v125l107 4q84 1 139 42t55 101q0 55 -51 91t-123 36q-166 0 -211 -117z" />
    <glyph glyph-name="uni2154" unicode="&#x2154;" horiz-adv-x="2146" 
d="M41 571v123l297 275q116 106 155 159t39 113q0 69 -46.5 105t-112.5 36q-64 0 -117 -32t-80 -101l-143 17q25 117 112.5 183.5t231.5 66.5t231.5 -73.5t87.5 -201.5q0 -75 -39 -137t-143 -164l-242 -233h435v-136h-666zM1622 1497l-995 -1505l-154 2l1000 1503h149z
M1395 713q14 79 69.5 131.5t128 73t160.5 20.5q146 0 242 -68t96 -172q0 -146 -174 -206q89 -25 146 -85.5t57 -148.5q0 -124 -109.5 -200t-265.5 -76q-153 0 -245.5 51t-123.5 176l146 18q58 -116 215 -116q95 0 152 41t57 104q0 70 -58.5 113t-140.5 43l-125 2v125l107 4
q84 1 139 42t55 101q0 55 -51 91t-123 36q-166 0 -211 -117z" />
    <glyph glyph-name="oneeighth" unicode="&#x215b;" horiz-adv-x="1980" 
d="M178 565v754l-174 -55v112l242 121h92v-932h-160zM1452 1497l-995 -1505l-154 2l1000 1503h149zM1548 936q144 0 234 -72.5t90 -185.5q0 -44 -17.5 -81.5t-44 -61t-46 -35.5t-35.5 -19q3 -1 20 -9t25 -12t26 -14t28 -19t25.5 -22.5t24 -29t18 -34.5t13.5 -42.5t4 -50.5
q0 -125 -101 -196.5t-270 -71.5q-162 0 -258 63.5t-96 177.5q0 72 45.5 129.5t126.5 93.5q-1 0 -10 4.5t-16 9t-20 12.5t-23.5 17.5t-22.5 22t-21.5 28t-17.5 33t-12.5 40t-4.5 46.5q0 118 93 198.5t243 80.5zM1550 815q-73 0 -121.5 -39t-48.5 -100q0 -91 107 -119l110 -29
q38 -9 82.5 41t44.5 107q0 61 -47 100t-127 39zM1552 100q87 0 138 37.5t51 100.5q0 47 -27 77t-88 47l-137 37q-40 12 -94 -36t-54 -115q0 -70 53.5 -109t157.5 -39z" />
    <glyph glyph-name="threeeighths" unicode="&#x215c;" horiz-adv-x="2181" 
d="M74 1290q10 60 44 105t84 70.5t107.5 38t122.5 12.5q146 0 242 -68t96 -172q0 -147 -174 -207q89 -25 146 -85t57 -148q0 -124 -109.5 -200.5t-265.5 -76.5q-153 0 -245.5 51t-123.5 176l146 19q59 -117 215 -117q95 0 152 41.5t57 104.5q0 70 -58 112.5t-141 42.5
l-125 2v125l107 4q84 1 139 42.5t55 101.5q0 55 -51 91t-123 36q-166 0 -211 -117zM1653 1497l-996 -1505l-153 2l999 1503h150zM1749 936q144 0 234 -72.5t90 -185.5q0 -44 -17.5 -81.5t-44.5 -61t-46 -35.5t-36 -19q1 0 22.5 -10t29.5 -14t29.5 -17t31.5 -23.5t26.5 -29
t24.5 -37.5t14.5 -45.5t6.5 -56.5q0 -125 -101 -196.5t-270 -71.5q-162 0 -258 63.5t-96 177.5q0 72 45.5 129.5t126.5 93.5q-1 0 -10 4.5t-16 9t-20 12.5t-23.5 17.5t-22.5 22t-21.5 28t-17.5 33t-12.5 40t-4.5 46.5q0 118 93 198.5t243 80.5zM1751 815q-73 0 -121.5 -39
t-48.5 -100q0 -91 107 -119l110 -29q38 -9 82.5 41t44.5 107q0 61 -47 100t-127 39zM1753 100q87 0 138 37.5t51 100.5q0 47 -27 77t-88 47l-137 37q-40 12 -94 -36t-54 -115q0 -70 53.5 -109t157.5 -39z" />
    <glyph glyph-name="fiveeighths" unicode="&#x215d;" horiz-adv-x="2185" 
d="M150 1497h585l-8 -131h-451l-20 -260q44 20 68.5 29t63 17.5t79.5 8.5q140 0 230.5 -75.5t90.5 -215.5q0 -148 -100 -232.5t-266 -84.5q-116 0 -212.5 44t-154.5 120l117 86q59 -64 106.5 -93.5t122.5 -29.5q100 0 157.5 51t57.5 133q0 78 -51.5 123t-136.5 45
q-34 0 -68.5 -9.5t-55.5 -19.5t-60 -30q-11 -5 -14 -5t-13 7l-106 59zM1657 1497l-995 -1505l-154 2l999 1503h150zM1753 936q144 0 234 -72.5t90 -185.5q0 -44 -17.5 -81.5t-44.5 -61t-46 -35.5t-36 -19q1 0 22.5 -10t29.5 -14t29.5 -17t31.5 -23.5t26.5 -29t24.5 -37.5
t14.5 -45.5t6.5 -56.5q0 -125 -101 -196.5t-270 -71.5q-162 0 -258 63.5t-96 177.5q0 72 45.5 129.5t126.5 93.5q-1 0 -10 4.5t-16 9t-20 12.5t-23.5 17.5t-22.5 22t-21.5 28t-17.5 33t-12.5 40t-4.5 46.5q0 118 93 198.5t243 80.5zM1755 815q-73 0 -121.5 -39t-48.5 -100
q0 -91 107 -119l110 -29q38 -9 82.5 41t44.5 107q0 61 -47 100t-127 39zM1757 100q87 0 138 37.5t51 100.5q0 47 -27 77t-88 47l-137 37q-40 12 -94 -36t-54 -115q0 -70 53.5 -109t157.5 -39z" />
    <glyph glyph-name="seveneighths" unicode="&#x215e;" horiz-adv-x="2111" 
d="M1583 1497l-995 -1505l-154 2l1000 1503h149zM63 1495h678v-162q-120 -158 -224 -389.5t-114 -380.5h-170q10 90 46.5 211t118.5 286t190 304h-525v131zM1679 936q144 0 234 -72.5t90 -185.5q0 -44 -17.5 -81.5t-44 -61t-46 -35.5t-35.5 -19q3 -1 20 -9t25 -12t26 -14
t28 -19t25.5 -22.5t24 -29t18 -34.5t13.5 -42.5t4 -50.5q0 -125 -101 -196.5t-270 -71.5q-162 0 -258 63.5t-96 177.5q0 72 45.5 129.5t126.5 93.5q-1 0 -10 4.5t-16 9t-20 12.5t-23.5 17.5t-22.5 22t-21.5 28t-17.5 33t-12.5 40t-4.5 46.5q0 118 93 198.5t243 80.5z
M1681 815q-73 0 -121.5 -39t-48.5 -100q0 -91 107 -119l111 -29q38 -9 82 41t44 107q0 61 -47 100t-127 39zM1683 100q87 0 138 37.5t51 100.5q0 47 -27 77t-88 47l-137 37q-39 12 -93 -36t-54 -115q0 -70 53 -109t157 -39z" />
    <glyph glyph-name="partialdiff" unicode="&#x2202;" horiz-adv-x="1222" 
d="M215 1214l-72 150q53 53 164.5 95t239.5 42q268 0 424.5 -194t156.5 -570q0 -356 -140 -556.5t-406 -200.5q-223 0 -357.5 136.5t-134.5 344.5q0 206 130 335.5t353 129.5q66 0 122 -15t86 -31.5t81 -50.5q31 -21 31 9q0 135 -41 239.5t-132.5 169t-223.5 64.5
q-89 0 -152 -25.5t-129 -71.5zM571 164h2q120 0 202 107.5t99 283.5q3 31 1 44t-13 28q-37 52 -110 88.5t-150 36.5q-119 0 -194.5 -86t-75.5 -217q0 -126 69 -205.5t170 -79.5z" />
    <glyph glyph-name="emptyset" unicode="&#x2205;" horiz-adv-x="1210" 
d="M1098 1108l-123 -115q76 -113 76 -248q0 -186 -131.5 -317t-317.5 -131q-154 0 -274 96l-140 -129l-90 94l140 129q-82 116 -82 258q0 185 131 316t315 131q163 0 287 -105l123 113zM279 745q0 -98 51 -174l469 433q-87 65 -197 65q-133 0 -228 -96t-95 -228zM928 745
q0 88 -45 164l-465 -432q82 -57 184 -57q135 0 230.5 95t95.5 230z" />
    <glyph glyph-name="product" unicode="&#x220f;" horiz-adv-x="1392" 
d="M1346 1481v-209h-195v-1272h-258v1272h-404v-1272h-260v1272h-190v209h1307z" />
    <glyph glyph-name="summation" unicode="&#x2211;" horiz-adv-x="1138" 
d="M1071 0h-1012v156l433 579l-406 574v172h948v-205h-608l377 -514l-414 -549h682v-213z" />
    <glyph glyph-name="minus" unicode="&#x2212;" horiz-adv-x="1179" 
d="M1051 838v-187h-930v187h930z" />
    <glyph glyph-name="uni2219" unicode="&#x2219;" horiz-adv-x="698" 
d="M340 608q-59 0 -101 42t-42 102t42 101.5t101 41.5q60 0 101.5 -41.5t41.5 -101.5t-41.5 -102t-101.5 -42z" />
    <glyph glyph-name="radical" unicode="&#x221a;" horiz-adv-x="1366" 
d="M1360 1692l-531 -2022h-258l-323 879l-158 -60l-53 148l354 129l303 -854l453 1780h213z" />
    <glyph glyph-name="infinity" unicode="&#x221e;" horiz-adv-x="1566" 
d="M1460 561v-2q0 -165 -99.5 -261.5t-244.5 -96.5q-55 0 -99.5 13.5t-85 44.5t-66 57t-68.5 75q-11 13 -17 13.5t-20 -13.5q-2 -2 -23 -26.5t-36.5 -40t-48 -41.5t-62.5 -42t-73.5 -28t-88.5 -12q-138 0 -235 97t-97 251q0 157 100 253.5t255 96.5q45 0 84.5 -10t66 -22.5
t60.5 -40.5t51.5 -45.5t54.5 -57.5q15 -17 24.5 -17t22.5 17q35 39 59 62t65.5 53.5t90 45.5t105.5 15q142 0 233.5 -92.5t91.5 -245.5zM440 365h6q61 0 119 43t97 98q18 26 17 38t-20 42q-53 77 -105 115t-116 38q-76 0 -124 -51t-48 -133q0 -83 50.5 -136.5t123.5 -53.5z
M1124 739h-2q-63 0 -114.5 -39.5t-106.5 -107.5q-31 -38 0 -76q109 -151 229 -151q73 0 116.5 57.5t43.5 130.5q0 76 -46 131t-120 55z" />
    <glyph glyph-name="integral" unicode="&#x222b;" horiz-adv-x="942" 
d="M313 1243q0 231 93 350t268 119q141 0 231 -55l-53 -211q-81 43 -158 43q-147 0 -147 -215q0 -200 32.5 -596.5t32.5 -552.5q0 -235 -92 -356t-264 -121q-79 0 -130 13t-99 42l55 211q78 -43 156 -43q145 0 145 217q0 197 -35 597.5t-35 557.5z" />
    <glyph glyph-name="approxequal" unicode="&#x2248;" horiz-adv-x="1220" 
d="M1087 932q-45 -75 -119 -117.5t-163 -42.5q-53 0 -106.5 18.5t-91 40t-87.5 40t-96 18.5q-70 0 -122.5 -35t-108.5 -98l-72 131q82 82 148.5 123t154.5 41q54 0 108 -18.5t91.5 -40t86.5 -40t93 -18.5q127 0 211 131zM1087 514q-45 -76 -118.5 -119t-163.5 -43
q-55 0 -109.5 18.5t-91.5 40t-86 40t-94 18.5q-70 0 -122.5 -35.5t-106.5 -97.5l-74 133q81 81 148 121.5t155 40.5q54 0 108 -18.5t91.5 -40t86.5 -40t93 -18.5q127 0 211 131z" />
    <glyph glyph-name="notequal" unicode="&#x2260;" horiz-adv-x="1220" 
d="M1077 848h-366l-123 -277h489v-184l-569 -2l-129 -293h-135l129 293h-226v186h310l121 277h-431v186h515l122 279h129l-122 -279h286v-186z" />
    <glyph glyph-name="lessequal" unicode="&#x2264;" horiz-adv-x="1173" 
d="M1022 657v-221l-907 355v215l907 354v-221l-625 -242zM1036 270v-184l-930 2v184z" />
    <glyph glyph-name="greaterequal" unicode="&#x2265;" horiz-adv-x="1173" 
d="M139 657l627 240l-627 242v221l908 -354v-215l-908 -355v221zM127 270l930 2v-184l-930 -2v184z" />
    <glyph glyph-name="lozenge" unicode="&#x25ca;" horiz-adv-x="1083" 
d="M637 0h-176l-348 741l358 740h176l350 -736zM557 1294l-242 -546l242 -566l242 559z" />
    <glyph glyph-name="i.loclTRK" horiz-adv-x="542" 
d="M408 1481v-269h-258v269h258zM397 1059v-1059h-247v1059h247z" />
    <glyph glyph-name="p.001" horiz-adv-x="1269" 
d="M170 -330v1389h248v-139q30 33 54 54t65.5 49t94.5 42t116 14q187 0 303 -137.5t116 -400.5q0 -273 -119.5 -417t-318.5 -144q-84 0 -156 29t-153 102v-441h-250zM645 152q124 0 197 98t73 291q0 190 -73 277t-187 87q-106 0 -170.5 -70.5t-64.5 -185.5v-293
q67 -204 225 -204z" />
    <glyph glyph-name="q.001" horiz-adv-x="1218" 
d="M1087 -330h-249v441q-81 -73 -154 -102t-156 -29q-199 0 -319.5 144t-120.5 417q0 263 117 400.5t305 137.5q63 0 115.5 -14t94.5 -42.5t64.5 -48t55.5 -54.5v139h247v-1389zM612 152q159 0 226 204v293q0 115 -65 185.5t-171 70.5q-115 0 -187.5 -86.5t-72.5 -277.5
q0 -192 74 -290.5t196 -98.5z" />
    <glyph glyph-name="l.ss01" horiz-adv-x="616" 
d="M182 0v1522h250v-1522h-250z" />
    <glyph glyph-name="zero.osf" horiz-adv-x="1345" 
d="M674 1503q127 0 233 -50t183 -145.5t120 -241.5t43 -329q0 -363 -157.5 -559t-421.5 -196q-265 0 -423.5 195.5t-158.5 557.5q0 365 160.5 566.5t421.5 201.5zM674 186q151 0 228 131t77 418q0 565 -305 565q-307 0 -307 -565q0 -549 307 -549z" />
    <glyph glyph-name="one.osf" horiz-adv-x="821" 
d="M342 0v1198l-274 -86v176l385 193h143v-1481h-254z" />
    <glyph glyph-name="two.osf" horiz-adv-x="1239" 
d="M86 0v197l471 436q185 167 247 252t62 180q0 56 -21.5 100.5t-58 71t-81 40t-93.5 13.5q-102 0 -185 -51.5t-126 -161.5l-227 27q39 185 179 291t368 106q230 0 368.5 -117t138.5 -319q-1 -120 -63.5 -219t-226.5 -260l-383 -373h688v-213h-1057z" />
    <glyph glyph-name="three.osf" horiz-adv-x="1347" 
d="M106 1149q16 95 70 166t133.5 111.5t170.5 59.5t194 19q232 0 385 -108t153 -273q0 -232 -278 -329q142 -38 234 -134t92 -235q0 -131 -83.5 -233.5t-218.5 -155.5t-296 -53q-94 0 -170.5 10.5t-146 36t-120.5 67t-89.5 104.5t-57.5 146l229 29q94 -189 342 -189
q150 0 241 66.5t91 167.5q0 110 -92 178t-223 70l-201 2v200l170 5q135 3 222 67.5t87 161.5q0 87 -81 145t-195 58q-263 0 -334 -189z" />
    <glyph glyph-name="four.osf" horiz-adv-x="1292" 
d="M752 1481h252v-912h225v-219h-225v-350h-250v350h-678v219zM336 569h416v559z" />
    <glyph glyph-name="five.osf" horiz-adv-x="1355" 
d="M240 1481h929l-14 -209h-713l-34 -412q134 57 191 71q68 17 142 17q108 0 200.5 -29.5t162.5 -86t109.5 -146t39.5 -203.5q0 -234 -160 -368.5t-423 -134.5q-183 0 -336 69.5t-246 192.5l186 135q46 -50 78.5 -79.5t77 -59t96 -43t113.5 -13.5q159 0 250.5 82t91.5 211
q0 125 -82 196.5t-217 71.5q-76 0 -141.5 -24t-151.5 -72q-7 -3 -11 -4.5t-6.5 -2.5t-6 0t-5 1.5t-6.5 3t-8 4.5l-170 96z" />
    <glyph glyph-name="six.osf" horiz-adv-x="1306" 
d="M702 1509q197 0 332 -95.5t160 -252.5l-217 -31q-43 89 -104.5 134t-163.5 45q-177 0 -268 -158.5t-72 -433.5q46 89 144 139.5t216 50.5q224 0 354.5 -125t130.5 -319q0 -209 -152 -340t-386 -131q-276 0 -432 195t-156 536q0 368 164 577t450 209zM678 715
q-117 0 -205 -62.5t-88 -152.5q18 -156 92 -236t193 -80q118 0 199 75.5t81 191.5q0 118 -76.5 191t-195.5 73z" />
    <glyph glyph-name="seven.osf" horiz-adv-x="1202" 
d="M68 1481h1077v-254q-191 -251 -355.5 -620.5t-181.5 -606.5h-274q14 105 51.5 242.5t102.5 307.5t172.5 362t238.5 360h-831v209z" />
    <glyph glyph-name="eight.osf" horiz-adv-x="1304" 
d="M647 1501q229 0 373.5 -115t144.5 -296q0 -57 -20 -107.5t-46.5 -83.5t-62 -60.5t-58 -39.5t-42.5 -21q6 -3 36.5 -17t46 -22t47 -27.5t50 -36.5t43.5 -46t38.5 -59.5t23.5 -72.5t10 -89q0 -198 -162 -313t-430 -115q-258 0 -409.5 101.5t-151.5 283.5q0 117 70.5 207.5
t201.5 148.5q-15 7 -23.5 11t-35.5 20.5t-46 32.5t-45 45t-42.5 60t-28.5 75t-12 92q0 189 146 316.5t384 127.5zM651 1309q-115 0 -191.5 -63t-76.5 -159q0 -144 168 -188l176 -47q60 -15 130.5 65t70.5 170q0 98 -74.5 160t-202.5 62zM655 174q139 0 220 58t81 157
q0 76 -43 125t-141 76l-217 57q-40 13 -95 -15.5t-98 -91t-43 -134.5q0 -111 85 -171.5t251 -60.5z" />
    <glyph glyph-name="nine.osf" horiz-adv-x="1306" 
d="M598 -18q-194 0 -332 97.5t-164 250.5l228 28q77 -176 258 -176q185 0 285 149.5t83 452.5q-41 -98 -139.5 -154.5t-228.5 -56.5q-226 0 -364 128t-138 327q0 139 70.5 247t193.5 166t277 58q275 0 431 -194.5t156 -536.5q0 -385 -162.5 -585.5t-453.5 -200.5zM625 776
q115 0 204 64.5t89 148.5q-18 159 -92 238.5t-193 79.5q-118 0 -195.5 -75.5t-77.5 -191.5q0 -114 74 -189t191 -75z" />
    <glyph glyph-name="zero.tf" horiz-adv-x="1431" 
d="M733 1503q261 0 420.5 -201t159.5 -565q0 -363 -158 -559t-422 -196q-265 0 -423 195.5t-158 557.5q0 184 43 330.5t120.5 241.5t184 145.5t233.5 50.5zM733 186q151 0 228 131t77 418q0 565 -305 565q-307 0 -307 -565q0 -549 307 -549z" />
    <glyph glyph-name="one.tf" horiz-adv-x="1431" 
d="M883 236h389v-236h-1075v236h419v976l-407 -137v223l539 183h135v-1245z" />
    <glyph glyph-name="two.tf" horiz-adv-x="1431" 
d="M219 0v197l471 436q185 167 247 252t62 180q0 109 -75 167t-179 58q-102 0 -185 -51.5t-126 -161.5l-229 27q41 186 180.5 291.5t368.5 105.5t368 -117.5t138 -318.5q0 -120 -62.5 -219t-228.5 -260l-381 -373h688v-213h-1057z" />
    <glyph glyph-name="three.tf" horiz-adv-x="1431" 
d="M186 1143q16 95 69.5 166.5t133 112t171 60t194.5 19.5q232 0 385 -108t153 -273q0 -232 -278 -329q142 -38 232.5 -134t90.5 -237q0 -131 -83 -233t-217.5 -154.5t-295.5 -52.5q-119 0 -210.5 17.5t-169 58t-129 112.5t-76.5 176l231 27q94 -187 340 -187q152 0 243 66
t91 168q0 109 -93 177.5t-223 68.5l-200 2v200l170 6q135 3 222 68t87 162q0 86 -81 143.5t-195 57.5q-264 0 -334 -187z" />
    <glyph glyph-name="four.tf" horiz-adv-x="1431" 
d="M854 1481h252v-912h225v-219h-225v-350h-250v350h-678v219zM438 569h416v559z" />
    <glyph glyph-name="five.tf" horiz-adv-x="1431" 
d="M311 1481h928l-12 -209h-715l-33 -412q81 34 111.5 46t95 27t127.5 15q108 0 199.5 -29.5t161.5 -86t109.5 -146t39.5 -203.5q0 -235 -159.5 -369t-422.5 -134q-183 0 -336.5 70t-244.5 192l184 135q46 -50 78.5 -79.5t77 -59t96 -43t113.5 -13.5q160 0 252 82t92 211
q0 125 -82 196.5t-217 71.5q-54 0 -108.5 -15t-91 -32t-93.5 -49q-8 -4 -12 -5.5t-8.5 -1.5t-5.5 0.5t-8 3.5t-11 5l-170 96z" />
    <glyph glyph-name="six.tf" horiz-adv-x="1431" 
d="M786 1509q195 0 331 -96t161 -252l-219 -31q-43 89 -104.5 134t-163.5 45q-175 0 -266.5 -159t-71.5 -433q45 89 143 139.5t217 50.5q224 0 354.5 -125t130.5 -319q0 -209 -152.5 -340t-387.5 -131q-275 0 -430.5 195t-155.5 536q0 368 164 577t450 209zM762 715
q-117 0 -206 -62.5t-89 -152.5q20 -157 93.5 -236.5t191.5 -79.5q120 0 201 75.5t81 191.5q0 117 -77 190.5t-195 73.5z" />
    <glyph glyph-name="seven.tf" horiz-adv-x="1431" 
d="M125 1481h1143v-254q-191 -251 -355.5 -620.5t-181.5 -606.5h-289q14 104 52 239t103 300.5t171.5 354t237.5 357.5h-881v230z" />
    <glyph glyph-name="eight.tf" horiz-adv-x="1431" 
d="M737 1501q228 0 372 -115t144 -296q0 -57 -20 -107.5t-46.5 -83.5t-62 -60.5t-58 -39.5t-42.5 -21q3 -2 36.5 -17t47 -22t47 -27.5t50.5 -37t42.5 -45.5t38.5 -59.5t23 -72.5t10 -89q0 -198 -161 -313t-429 -115q-259 0 -411 101.5t-152 283.5q0 117 71.5 207.5
t202.5 148.5q-15 7 -23.5 11t-36 20.5t-46.5 32.5t-45.5 45t-43 60t-28.5 75t-12 92q0 189 147 316.5t385 127.5zM741 1309q-115 0 -191.5 -63t-76.5 -159q0 -144 168 -188l176 -47q59 -15 130 65t71 170q0 97 -75 159.5t-202 62.5zM745 174q139 0 220.5 58t81.5 157
q0 76 -43 125t-142 76l-217 57q-40 13 -95 -15.5t-97.5 -91t-42.5 -134.5q0 -111 84.5 -171.5t250.5 -60.5z" />
    <glyph glyph-name="nine.tf" horiz-adv-x="1431" 
d="M682 -18q-194 0 -331.5 97.5t-162.5 250.5l226 28q38 -83 98 -129.5t160 -46.5q187 0 286.5 149.5t81.5 452.5q-40 -98 -138 -154.5t-230 -56.5q-226 0 -363 128t-137 327q0 210 152.5 340.5t388.5 130.5q275 0 430 -194.5t155 -536.5q0 -385 -162 -585.5t-454 -200.5z
M709 776q114 0 203 64.5t89 148.5q-19 159 -91.5 238.5t-192.5 79.5q-118 0 -195.5 -75.5t-77.5 -191.5q0 -113 74.5 -188.5t190.5 -75.5z" />
    <glyph glyph-name="zero.subs" horiz-adv-x="858" 
d="M401 596q163 0 264 -126t101 -355q0 -227 -100.5 -351t-266.5 -124t-265 123.5t-99 351.5q0 229 101 355t265 126zM401 -231q94 0 142.5 82.5t48.5 263.5q0 354 -193 354q-192 0 -192 -354q0 -346 194 -346z" />
    <glyph glyph-name="one.subs" horiz-adv-x="624" 
d="M178 -338v754l-174 -56v113l242 121h92v-932h-160z" />
    <glyph glyph-name="two.subs" horiz-adv-x="794" 
d="M41 -338v123l297 274q116 106 155 159.5t39 113.5q0 69 -46.5 105t-112.5 36q-64 0 -117 -32t-80 -101l-143 16q25 117 112.5 183.5t231.5 66.5t231.5 -73.5t87.5 -200.5q0 -75 -39 -137t-143 -164l-242 -234h435v-135h-666z" />
    <glyph glyph-name="three.subs" horiz-adv-x="825" 
d="M74 375q14 79 69.5 131.5t128 73t160.5 20.5q146 0 242 -68t96 -172q0 -146 -174 -206q89 -25 146 -85.5t57 -148.5q0 -124 -109.5 -200t-265.5 -76q-153 0 -245.5 51t-123.5 176l146 18q58 -116 215 -116q95 0 152 41t57 104q0 70 -58.5 113t-140.5 43l-125 2v125l107 4
q84 1 139 42t55 101q0 55 -51 91t-123 36q-166 0 -211 -117z" />
    <glyph glyph-name="four.subs" horiz-adv-x="858" 
d="M469 594h158v-574h141v-137h-141v-221h-158v221h-426v137zM207 20h262v351z" />
    <glyph glyph-name="five.subs" horiz-adv-x="829" 
d="M150 588h585l-8 -131h-451l-20 -260q44 20 68.5 29t63 17.5t79.5 8.5q140 0 230.5 -75.5t90.5 -215.5q0 -148 -100 -232.5t-266 -84.5q-116 0 -212.5 43.5t-154.5 119.5l117 87q59 -64 106.5 -93.5t122.5 -29.5q100 0 157.5 51t57.5 133q0 78 -51.5 123t-136.5 45
q-34 0 -69 -10t-54.5 -19.5t-60.5 -30.5q-12 -5 -14 -4.5t-13 7.5l-106 59z" />
    <glyph glyph-name="six.subs" horiz-adv-x="833" 
d="M418 600q123 0 208.5 -59.5t100.5 -157.5l-137 -21q-29 57 -67 85t-103 28q-110 0 -167.5 -100t-45.5 -273q29 56 90.5 87.5t136.5 31.5q140 0 222.5 -78.5t82.5 -199.5q0 -131 -96.5 -214t-243.5 -83q-173 0 -270.5 123t-97.5 337q0 232 102.5 363t284.5 131zM401 102
q-73 0 -128.5 -39.5t-55.5 -95.5q12 -98 57.5 -148t120.5 -50t126.5 47.5t51.5 120.5q0 72 -49 118.5t-123 46.5z" />
    <glyph glyph-name="seven.subs" horiz-adv-x="755" 
d="M63 594h678v-162q-120 -158 -224 -389.5t-114 -380.5h-170q10 90 46.5 211t118.5 286t190 304h-525v131z" />
    <glyph glyph-name="eight.subs" horiz-adv-x="829" 
d="M397 600q144 0 234 -72.5t90 -185.5q0 -44 -17.5 -81.5t-44 -61t-46 -35.5t-35.5 -19q3 -1 20 -9t25 -12t26 -14t28 -19t25.5 -22.5t24 -29t18 -34.5t13.5 -42.5t4 -50.5q0 -125 -101 -196.5t-270 -71.5q-162 0 -258 63.5t-96 177.5q0 72 45.5 130t126.5 94q-1 0 -10 4.5
t-16 9t-20 12.5t-23.5 17.5t-22.5 22t-21.5 28t-17.5 33t-12.5 40t-4.5 46.5q0 118 93 198t243 80zM399 479q-73 0 -121.5 -39t-48.5 -100q0 -91 107 -119l110 -28q38 -9 82.5 40.5t44.5 106.5q0 61 -47 100t-127 39zM401 -236q87 0 138 37.5t51 100.5q0 94 -115 125
l-137 36q-40 12 -94 -36t-54 -115q0 -70 53.5 -109t157.5 -39z" />
    <glyph glyph-name="nine.subs" horiz-adv-x="833" 
d="M360 -360q-122 0 -209 61.5t-102 157.5l141 18q25 -52 62.5 -81t101.5 -29q116 0 179 94t53 284q-26 -62 -88 -97.5t-144 -35.5q-143 0 -229 80.5t-86 206.5q0 131 96 213t244 82q173 0 271 -122t98 -337q0 -243 -102 -369t-286 -126zM377 139q71 0 127.5 41t56.5 94
q-12 100 -58.5 150.5t-121.5 50.5q-74 0 -122 -47.5t-48 -122.5q0 -71 46.5 -118.5t119.5 -47.5z" />
    <glyph glyph-name="zero.dnom" horiz-adv-x="858" 
d="M401 934q163 0 264 -126t101 -355q0 -228 -100.5 -352t-266.5 -124q-165 0 -264.5 124t-99.5 352q0 229 101 355t265 126zM401 106q191 0 191 347q0 354 -193 354q-192 0 -192 -354q0 -347 194 -347z" />
    <glyph glyph-name="one.dnom" horiz-adv-x="624" 
d="M178 0v754l-174 -56v113l242 121h92v-932h-160z" />
    <glyph glyph-name="two.dnom" horiz-adv-x="794" 
d="M41 0v123l297 274q116 106 155 159.5t39 113.5q0 69 -46.5 105t-112.5 36q-64 0 -117 -32t-80 -101l-143 16q25 117 112.5 183.5t231.5 66.5t231.5 -73.5t87.5 -200.5q0 -75 -39 -137t-143 -164l-242 -234h435v-135h-666z" />
    <glyph glyph-name="three.dnom" horiz-adv-x="825" 
d="M74 713q14 79 69.5 131.5t128 73t160.5 20.5q146 0 242 -68t96 -172q0 -146 -174 -206q89 -25 146 -85.5t57 -148.5q0 -124 -109.5 -200t-265.5 -76q-153 0 -245.5 51t-123.5 176l146 18q58 -116 215 -116q95 0 152 41t57 104q0 70 -58.5 113t-140.5 43l-125 2v125l107 4
q84 1 139 42t55 101q0 55 -51 91t-123 36q-166 0 -211 -117z" />
    <glyph glyph-name="four.dnom" horiz-adv-x="858" 
d="M469 932h158v-574h141v-137h-141v-221h-158v221h-426v137zM207 358h262v351z" />
    <glyph glyph-name="five.dnom" horiz-adv-x="829" 
d="M150 926h585l-8 -131h-451l-20 -260q44 20 68.5 29t63 17.5t79.5 8.5q140 0 230.5 -75.5t90.5 -215.5q0 -148 -100 -232.5t-266 -84.5q-116 0 -212.5 43.5t-154.5 119.5l117 86q58 -64 106 -93t123 -29q100 0 157.5 51t57.5 133q0 78 -51.5 123t-136.5 45q-34 0 -69 -10
t-54.5 -19.5t-60.5 -30.5q-11 -5 -14 -5t-13 7l-106 60z" />
    <glyph glyph-name="six.dnom" horiz-adv-x="833" 
d="M418 938q123 0 208.5 -59.5t100.5 -157.5l-137 -21q-29 57 -67 85t-103 28q-110 0 -167.5 -100t-45.5 -273q29 56 90.5 87.5t136.5 31.5q140 0 222.5 -78.5t82.5 -199.5q0 -131 -96.5 -214t-243.5 -83q-173 0 -270.5 123t-97.5 337q0 232 102.5 363t284.5 131zM401 440
q-73 0 -128.5 -39.5t-55.5 -95.5q12 -99 58 -149t120 -50q75 0 126.5 47.5t51.5 120.5q0 72 -49 119t-123 47z" />
    <glyph glyph-name="seven.dnom" horiz-adv-x="755" 
d="M63 932h678v-162q-120 -158 -224 -389.5t-114 -380.5h-170q10 90 46.5 211t118.5 286t190 304h-525v131z" />
    <glyph glyph-name="eight.dnom" horiz-adv-x="829" 
d="M397 936q144 0 234 -72.5t90 -185.5q0 -44 -17.5 -81.5t-44 -61t-46 -35.5t-35.5 -19q3 -1 20 -9t25 -12t26 -14t28 -19t25.5 -22.5t24 -29t18 -34.5t13.5 -42.5t4 -50.5q0 -125 -101 -196.5t-270 -71.5q-162 0 -258 63.5t-96 177.5q0 72 45.5 129.5t126.5 93.5
q-1 0 -10 4.5t-16 9t-20 12.5t-23.5 17.5t-22.5 22t-21.5 28t-17.5 33t-12.5 40t-4.5 46.5q0 118 93 198.5t243 80.5zM399 815q-73 0 -121.5 -39t-48.5 -100q0 -91 107 -119l110 -29q38 -9 82.5 41t44.5 107q0 61 -47 100t-127 39zM401 100q87 0 138 37.5t51 100.5
q0 47 -27 77t-88 47l-137 37q-40 12 -94 -36t-54 -115q0 -70 53.5 -109t157.5 -39z" />
    <glyph glyph-name="nine.dnom" horiz-adv-x="833" 
d="M360 -23q-122 0 -209 62t-102 158l141 18q25 -52 62.5 -81.5t101.5 -29.5q116 0 179 94.5t53 284.5q-26 -62 -88 -97.5t-144 -35.5q-143 0 -229 80.5t-86 206.5q0 131 96 213t244 82q173 0 271 -122t98 -337q0 -243 -102.5 -369.5t-285.5 -126.5zM377 477q71 0 127.5 41
t56.5 94q-12 100 -58.5 150.5t-121.5 50.5q-74 0 -122 -47.5t-48 -122.5q0 -71 46.5 -118.5t119.5 -47.5z" />
    <glyph glyph-name="zero.numr" horiz-adv-x="858" 
d="M401 1516q163 0 264 -126.5t101 -355.5q0 -227 -100.5 -351t-266.5 -124t-265 123.5t-99 351.5q0 229 101 355.5t265 126.5zM401 688q94 0 142.5 82.5t48.5 263.5q0 355 -193 355q-192 0 -192 -355q0 -346 194 -346z" />
    <glyph glyph-name="one.numr" horiz-adv-x="624" 
d="M178 565v754l-174 -55v112l242 121h92v-932h-160z" />
    <glyph glyph-name="two.numr" horiz-adv-x="794" 
d="M41 571v123l297 275q116 106 155 159t39 113q0 69 -46.5 105t-112.5 36q-64 0 -117 -32t-80 -101l-143 17q25 117 112.5 183.5t231.5 66.5t231.5 -73.5t87.5 -201.5q0 -75 -39 -137t-143 -164l-242 -233h435v-136h-666z" />
    <glyph glyph-name="three.numr" horiz-adv-x="825" 
d="M74 1290q10 60 44 105t84 70.5t107.5 38t122.5 12.5q146 0 242 -68t96 -172q0 -147 -174 -207q89 -25 146 -85t57 -148q0 -124 -109.5 -200.5t-265.5 -76.5q-153 0 -245.5 51t-123.5 176l146 19q59 -117 215 -117q95 0 152 41.5t57 104.5q0 70 -58 112.5t-141 42.5
l-125 2v125l107 4q84 1 139 42.5t55 101.5q0 55 -51 91t-123 36q-166 0 -211 -117z" />
    <glyph glyph-name="four.numr" horiz-adv-x="858" 
d="M469 1497h158v-573h141v-138h-141v-221h-158v221h-426v138zM207 924h262v350z" />
    <glyph glyph-name="five.numr" horiz-adv-x="829" 
d="M150 1497h585l-8 -131h-451l-20 -260q44 20 68.5 29t63 17.5t79.5 8.5q140 0 230.5 -75.5t90.5 -215.5q0 -148 -100 -232.5t-266 -84.5q-116 0 -212.5 44t-154.5 120l117 86q59 -64 106.5 -93.5t122.5 -29.5q100 0 157.5 51t57.5 133q0 78 -51.5 123t-136.5 45
q-34 0 -68.5 -9.5t-55.5 -19.5t-60 -30q-11 -5 -14 -5t-13 7l-106 59z" />
    <glyph glyph-name="six.numr" horiz-adv-x="833" 
d="M418 1522q123 0 208.5 -59.5t100.5 -157.5l-137 -21q-29 57 -67 85t-103 28q-110 0 -167.5 -100t-45.5 -273q29 56 90.5 87.5t136.5 31.5q139 0 222 -79t83 -200q0 -131 -96.5 -214t-243.5 -83q-173 0 -270.5 123t-97.5 338q0 232 102.5 363t284.5 131zM401 1024
q-73 0 -128.5 -39.5t-55.5 -95.5q12 -99 58 -149t120 -50q75 0 126.5 47.5t51.5 120.5q0 72 -49 119t-123 47z" />
    <glyph glyph-name="seven.numr" horiz-adv-x="755" 
d="M63 1495h678v-162q-120 -158 -224 -389.5t-114 -380.5h-170q10 90 46.5 211t118.5 286t190 304h-525v131z" />
    <glyph glyph-name="eight.numr" horiz-adv-x="829" 
d="M397 1516q144 0 234 -73t90 -186q0 -44 -17.5 -81.5t-44.5 -60.5t-45.5 -35t-35.5 -19q2 -1 20 -9t25 -12t25.5 -14t28.5 -19t25.5 -23t24 -29.5t18 -34.5t13.5 -42.5t4 -50.5q0 -125 -101 -196.5t-270 -71.5q-162 0 -258 64t-96 178q0 72 45.5 129.5t126.5 93.5
q-1 0 -10 4.5t-16 9t-20 12.5t-23.5 17.5t-22.5 22t-21.5 28t-17.5 33t-12.5 40t-4.5 46.5q0 118 93 198.5t243 80.5zM399 1395q-73 0 -121.5 -39.5t-48.5 -100.5q0 -90 107 -118l110 -29q38 -9 82.5 40.5t44.5 106.5q0 61 -47 100.5t-127 39.5zM401 680q88 0 138.5 37
t50.5 100q0 94 -115 125l-137 37q-39 12 -93.5 -36.5t-54.5 -115.5q0 -70 53.5 -108.5t157.5 -38.5z" />
    <glyph glyph-name="nine.numr" horiz-adv-x="833" 
d="M360 561q-122 0 -209 61.5t-102 157.5l141 19q25 -52 62.5 -81.5t101.5 -29.5q116 0 179 94.5t53 284.5q-26 -62 -88 -97.5t-144 -35.5q-143 0 -229 80.5t-86 206.5q0 131 96 213t244 82q173 0 271 -122t98 -337q0 -243 -102.5 -369.5t-285.5 -126.5zM377 1061
q71 0 127.5 41t56.5 94q-12 100 -58.5 150.5t-121.5 50.5q-74 0 -122 -47.5t-48 -122.5q0 -71 46.5 -118.5t119.5 -47.5z" />
    <glyph glyph-name="period.tf" horiz-adv-x="610" 
d="M479 287v-287h-280v287h280z" />
    <glyph glyph-name="comma.tf" horiz-adv-x="610" 
d="M186 -272l117 266l-96 8v260h272v-229l-192 -305h-101z" />
    <glyph glyph-name="bullet.uc" horiz-adv-x="698" 
d="M340 522q-95 0 -162 68t-67 164q0 95 67 163t162 68q96 0 163.5 -67.5t67.5 -163.5t-67.5 -164t-163.5 -68z" />
    <glyph glyph-name="caroncomb.alt" horiz-adv-x="0" 
d="M-244 1057q-9 0 -13 7t-1 15l59 148q7 15 5 22t-15 8l-16 5q-16 2 -21.5 6t-5.5 16v174q0 23 21 23h143q18 0 18 -19v-200q0 -4 -2 -9t-2 -6l-71 -168q-8 -22 -45 -22h-54z" />
    </font>
</defs>
</svg>
