<?xml version="1.0" standalone="no"?>
<!DOCTYPE svg PUBLIC "-//W3C//DTD SVG 1.1//EN" "http://www.w3.org/Graphics/SVG/1.1/DTD/svg11.dtd" >
<svg xmlns="http://www.w3.org/2000/svg" xmlns:xlink="http://www.w3.org/1999/xlink" version="1.1">
<metadata>
Created by FontForge 20201107 at Thu Jun 12 13:50:23 2025
 By 
copyright missing
</metadata>
<defs>
<font id="PublicSans-SemiBoldItalic" horiz-adv-x="0" >
  <font-face 
    font-family="Public Sans SemiBold"
    font-weight="600"
    font-style="italic"
    font-stretch="normal"
    units-per-em="2048"
    panose-1="0 0 7 0 0 0 0 0 0 0"
    ascent="1597"
    descent="-451"
    x-height="1057"
    cap-height="1481"
    bbox="-864 -492 2547.96 2296"
    underline-thickness="102"
    underline-position="-204"
    slope="-8"
    unicode-range="U+000D-FB02"
  />
<missing-glyph horiz-adv-x="1355" 
d="M342 1690h991l-276 -2020h-989zM983 -121l236 1712h-721zM414 1466l-234 -1695h717z" />
    <glyph glyph-name="fi" unicode="fi" horiz-adv-x="1339" 
d="M1335 1520l-41 -269h-256l39 269h258zM813 1057l-27 -176h-229l-121 -881h-248l121 881h-205l27 176h201l22 160q17 127 96 195.5t209 68.5h220l-23 -170h-141q-59 0 -86 -30t-35 -99l-19 -125h238zM1264 1057l-144 -1057h-248l146 1057h246z" />
    <glyph glyph-name="fl" unicode="fl" horiz-adv-x="1431" 
d="M1163 -10q-78 0 -133 16.5t-82 45.5t-41 67.5t-11.5 82t7.5 89.5l168 1229h244l-164 -1201q-21 -139 94 -151l53 -2l-24 -156q-62 -20 -111 -20zM813 1057l-27 -176h-229l-121 -881h-248l121 881h-205l27 176h201l22 160q17 127 96 195.5t209 68.5h220l-23 -170h-141
q-59 0 -86 -30t-35 -99l-19 -125h238z" />
    <glyph glyph-name="colon_one_eight_F_colon.liga" unicode="&#x3a;&#x31;&#x38;F&#x3a;" horiz-adv-x="1763" 
d="M180 1556h1473q24 0 24 -24v-1505q0 -12 -6.5 -19.5t-17.5 -7.5h-1473q-24 0 -24 27v1505q0 24 24 24zM891 479q70 0 121 52t51 124q0 92 -74 144q51 48 51 116q0 64 -43.5 109t-105.5 45q-65 0 -108.5 -44.5t-43.5 -109.5t54 -116q-74 -50 -74 -144q0 -72 50 -124
t122 -52zM635 498v555q0 10 -8 10h-135q-9 0 -9 -10v-52q0 -10 9 -10h71v-493q0 -9 8 -9h56q8 0 8 9zM1372 1001v52q0 10 -8 10h-209q-8 0 -8 -10v-555q0 -9 8 -9h51q13 0 13 9v252h120q9 0 9 8v53q0 8 -9 8h-120v172h145q8 0 8 10zM891 834q-36 0 -60 23t-24 58
q0 37 24.5 61.5t59.5 24.5q34 0 58 -25t24 -61q0 -35 -24 -58t-58 -23zM891 760q43 0 72.5 -30.5t29.5 -74.5t-29.5 -74t-72.5 -30t-73 30t-30 74t30 74.5t73 30.5z" />
    <glyph glyph-name="colon_f_l_a_g_two_colon.liga" unicode="&#x3a;flag&#x32;&#x3a;" horiz-adv-x="2539" 
d="M238 1556h2132v-1554h-2132v1554zM2245 1321v109h-1069v-109h1069zM428 1198h125v119h-125v-119zM897 1198h123v119h-123v-119zM666 1077h120v121h-120v-121zM1176 1081h1069v113h-1069v-113zM432 958h121v119h-121v-119zM1020 1077h-123v-119h123v119zM786 958h-120
v-120h120v120zM1176 842h1069v112h-1069v-112zM553 838h-121v-119h121v119zM1020 838h-123v-119h123v119zM1176 602h1069v113h-1069v-113zM2245 475h-1885v-113h1885v113zM362 129h1883v107h-1883v-107z" />
    <glyph glyph-name="colon_f_l_a_g_colon.liga" unicode="&#x3a;flag&#x3a;" horiz-adv-x="2539" 
d="M238 1556h2132v-1554h-2132v1554zM2253 1436h-1897v-838h1897v121h-1079v119h1079v120h-1079v119h1079v121h-1079v119h1079v119zM590 1317v-119h-117v119h117zM1057 1317v-119h-117v119h117zM821 1198v-121h-114v121h114zM590 1077v-119h-117v119h117zM1057 1077v-119
h-117v119h117zM821 958v-120h-114v120h114zM590 838v-119h-117v119h117zM1057 838v-119h-117v119h117zM2253 479h-1897v-121h1897v121zM356 119h1897v121h-1897v-121z" />
    <glyph glyph-name=".notdef" horiz-adv-x="1355" 
d="M342 1690h991l-276 -2020h-989zM983 -121l236 1712h-721zM414 1466l-234 -1695h717z" />
    <glyph glyph-name="uni0000" horiz-adv-x="10" 
 />
    <glyph glyph-name="nonmarkingreturn" horiz-adv-x="682" 
 />
    <glyph glyph-name="CR" unicode="&#xd;" horiz-adv-x="415" 
 />
    <glyph glyph-name="space" unicode=" " horiz-adv-x="487" 
 />
    <glyph glyph-name="exclam" unicode="!" horiz-adv-x="548" 
d="M543 1481l-215 -1061h-156l78 1061h293zM369 283l-39 -283h-279l39 283h279z" />
    <glyph glyph-name="quotedbl" unicode="&#x22;" horiz-adv-x="923" 
d="M555 1481l-141 -531h-131l6 531h266zM963 1481l-140 -531h-131l4 531h267z" />
    <glyph glyph-name="numbersign" unicode="#" horiz-adv-x="1220" 
d="M1198 889h-235l-80 -283h211l-19 -137h-231l-135 -473l-136 20l129 453h-276l-133 -473l-139 20l129 453h-228l19 137h248l81 283h-225l19 135h243l131 457l138 -17l-125 -440h276l129 457l137 -17l-125 -440h216zM741 606l80 283h-276l-80 -283h276z" />
    <glyph glyph-name="dollar" unicode="$" horiz-adv-x="1273" 
d="M1159 389q-25 -175 -163.5 -288t-344.5 -113l-22 -152h-168l22 152q-169 7 -278.5 68t-190.5 180l146 129q69 -88 150.5 -137t199.5 -60l63 469q-235 62 -324 171.5t-65 272.5q25 169 172.5 286.5t331.5 117.5l21 133h165l-22 -139q225 -38 365 -193l-130 -129
q-65 71 -124 101.5t-138 35.5l-59 -446l108 -35q151 -54 228 -164.5t57 -259.5zM606 872l58 426q-110 -6 -183 -68.5t-82 -150.5q-6 -61 26 -103.5t114 -80.5zM674 178q110 6 183.5 64t82.5 143q12 77 -35 128.5t-172 92.5z" />
    <glyph glyph-name="percent" unicode="%" horiz-adv-x="1861" 
d="M586 1503q156 0 242.5 -124.5t60.5 -313.5q-25 -179 -136 -292.5t-261 -113.5q-158 0 -247 123.5t-63 311.5q26 178 141 293.5t263 115.5zM1647 1497l-1182 -1505l-166 2l1182 1503h166zM487 793q87 0 145 80.5t77 218.5q18 131 -13.5 204.5t-109.5 73.5
q-85 0 -143.5 -83.5t-77.5 -223.5q-18 -128 12 -199t110 -71zM1423 821q156 0 242.5 -123.5t60.5 -310.5q-25 -180 -137 -293.5t-262 -113.5q-157 0 -244.5 122t-62.5 312q26 179 139.5 293t263.5 114zM1325 113q84 0 142 81t79 218q18 130 -14 205t-109 75
q-85 0 -144 -84.5t-77 -222.5q-18 -126 14 -199t109 -73z" />
    <glyph glyph-name="ampersand" unicode="&#x26;" horiz-adv-x="1515" 
d="M844 1503q178 0 282.5 -86t83.5 -225q-14 -108 -113.5 -213.5t-285.5 -194.5l215 -315q117 163 158 350h254q-14 -40 -30.5 -79t-42 -82.5t-40.5 -69.5t-51 -75t-46 -63t-53 -70t-47 -61l224 -319h-289l-111 154q-232 -164 -483 -164q-219 0 -321 104t-78 277
q20 145 119 249t296 203q-26 36 -32 44t-26.5 37.5t-24.5 39t-17.5 34t-15.5 38t-7 35t-4 41.5t4 43q22 159 158 263.5t324 104.5zM831 1346q-88 -1 -148 -58t-71 -137q-7 -47 9 -84t61 -98l39 -54q134 69 197.5 133.5t72.5 135.5q9 79 -37 121.5t-123 40.5zM592 674
q-107 -51 -175 -126t-71 -165q-4 -90 57 -145.5t150 -55.5q72 0 153.5 32t145.5 87z" />
    <glyph glyph-name="quotesingle" unicode="'" horiz-adv-x="518" 
d="M526 1481l-141 -531h-131l6 531h266z" />
    <glyph glyph-name="parenleft" unicode="(" horiz-adv-x="655" 
d="M301 -330q-113 239 -156 449.5t-6 462.5q31 236 135.5 465.5t260.5 433.5h196q-306 -463 -371 -928q-23 -143 -17 -292.5t32 -289.5t76 -301h-150z" />
    <glyph glyph-name="parenright" unicode=")" horiz-adv-x="661" 
d="M-94 -330q303 463 368 928q29 231 6.5 437t-96.5 446h150q112 -236 154.5 -447.5t5.5 -464.5q-31 -237 -135 -466.5t-261 -432.5h-192z" />
    <glyph glyph-name="asterisk" unicode="*" horiz-adv-x="888" 
d="M645 723l-125 270l-203 -274l-131 104l232 242l-271 82l72 141l256 -117l23 310h168l-66 -303l283 120l28 -153l-290 -88l167 -244z" />
    <glyph glyph-name="plus" unicode="+" horiz-adv-x="1157" 
d="M1075 838l-28 -187h-361l-51 -370h-184l51 370h-363l25 187h362l52 370h184l-51 -370h364z" />
    <glyph glyph-name="comma" unicode="," horiz-adv-x="528" 
d="M-20 -272l151 266l-96 8l35 260h268l-29 -229l-229 -305h-100z" />
    <glyph glyph-name="hyphen" unicode="-" horiz-adv-x="792" 
d="M670 621l-29 -187h-528l24 184z" />
    <glyph glyph-name="period" unicode="." horiz-adv-x="514" 
d="M354 287l-39 -287h-280l41 287h278z" />
    <glyph glyph-name="slash" unicode="/" horiz-adv-x="743" 
d="M-57 -55l714 1536h189l-717 -1536h-186z" />
    <glyph glyph-name="zero" unicode="0" horiz-adv-x="1316" 
d="M795 1503q165 0 280.5 -91.5t164.5 -266.5t17 -408q-49 -351 -233 -553t-440 -202q-167 0 -283 88.5t-165 260.5t-17 404q49 353 235.5 560.5t440.5 207.5zM614 186q146 0 238 131t131 418q78 565 -217 565q-297 0 -375 -565q-74 -549 223 -549z" />
    <glyph glyph-name="one" unicode="1" horiz-adv-x="815" 
d="M264 0l164 1198l-281 -88l25 178l403 193h144l-203 -1481h-252z" />
    <glyph glyph-name="two" unicode="2" horiz-adv-x="1214" 
d="M12 0l27 195l516 438q206 166 278.5 251.5t84.5 180.5q14 110 -49 167.5t-164 57.5q-225 0 -367 -211l-176 97q237 325 588 325q223 0 340 -117.5t88 -318.5q-11 -82 -51 -154.5t-106 -143.5t-190 -181l-423 -373h669l-28 -213h-1037z" />
    <glyph glyph-name="three" unicode="3" horiz-adv-x="1284" 
d="M238 1276q85 102 232.5 163.5t299.5 61.5q226 0 355.5 -107.5t107.5 -275.5q-33 -229 -318 -327q134 -40 210 -135.5t55 -235.5q-18 -131 -112.5 -233t-232.5 -154.5t-294 -52.5q-166 0 -299.5 68.5t-206.5 191.5l196 131q77 -102 156.5 -144.5t194.5 -42.5
q139 0 227 63.5t102 166.5q18 113 -62.5 179.5t-209.5 68.5l-199 4l27 198l166 6q131 3 225 68.5t107 163.5q11 84 -52.5 141t-171.5 57q-104 0 -188 -40.5t-178 -129.5z" />
    <glyph glyph-name="four" unicode="4" horiz-adv-x="1263" 
d="M866 1481h248l-127 -914h219l-28 -198h-217l-52 -369h-247l51 369h-660l27 200zM295 567h444l86 629z" />
    <glyph glyph-name="five" unicode="5" horiz-adv-x="1325" 
d="M365 1481h907l-41 -209h-696l-89 -412q139 58 199 72q67 16 137 16q143 0 247 -50.5t157 -157t33 -257.5q-22 -156 -110 -270.5t-224 -173.5t-305 -59q-181 0 -321.5 69.5t-211.5 192.5l201 135q38 -50 65 -79.5t66.5 -59t87 -43t108.5 -13.5q155 0 254 82t117 211
q17 125 -52.5 196.5t-199.5 71.5q-74 0 -139.5 -24t-155.5 -72q-23 -8 -26 -8t-19 10l-155 94z" />
    <glyph glyph-name="six" unicode="6" horiz-adv-x="1288" 
d="M827 1499q85 0 157.5 -24.5t121.5 -64.5t80.5 -86.5t44.5 -94.5l-223 -76q-35 71 -81.5 107t-123.5 36q-168 0 -277 -133t-131 -366q144 61 216.5 80.5t154.5 19.5q222 0 336.5 -122.5t87.5 -313.5q-29 -209 -201 -344t-401 -135q-271 0 -396.5 195t-78.5 536
q49 366 240 576t474 210zM686 705q-64 0 -147 -23t-136 -53q-20 -14 -28.5 -29t-12.5 -49q-10 -68 0.5 -134t39 -121t82.5 -88.5t126 -33.5q114 0 202 79t103 196q17 113 -47 184.5t-182 71.5z" />
    <glyph glyph-name="seven" unicode="7" horiz-adv-x="1175" 
d="M199 1481h1054l-34 -256q-221 -249 -432 -618t-259 -607h-270q27 105 82.5 242t141.5 307.5t217.5 362.5t283.5 360h-813z" />
    <glyph glyph-name="eight" unicode="8" horiz-adv-x="1275" 
d="M766 1501q224 0 349 -115.5t99 -295.5q-7 -57 -33 -108t-56.5 -83.5t-68.5 -60.5t-61.5 -40t-42.5 -20q7 -4 23 -12q37 -18 59 -31t60 -45.5t58 -66.5t32.5 -91t3.5 -124q-29 -198 -202.5 -313t-436.5 -115q-252 0 -387 101.5t-109 283.5q15 117 97.5 207t220.5 147
q-66 36 -101 71q-105 106 -84 267q27 189 188 316.5t392 127.5zM743 1307q-110 0 -192.5 -62t-95.5 -158q-18 -147 135 -188l166 -47q35 -11 86 22t92 93t49 118q12 98 -51.5 160t-188.5 62zM594 174q133 0 219 58.5t100 156.5q9 77 -25 125.5t-126 75.5l-203 57
q-27 9 -68 -7t-80.5 -47.5t-71.5 -82.5t-40 -107q-15 -109 58.5 -169t236.5 -60z" />
    <glyph glyph-name="nine" unicode="9" horiz-adv-x="1284" 
d="M514 -18q-87 0 -161 24.5t-123.5 65t-81.5 86t-46 94.5l222 76q37 -72 86 -108t131 -36q172 0 280 149t125 421q-61 -84 -159 -127t-212 -43q-221 0 -334.5 122t-86.5 314q29 210 199 344.5t399 134.5q269 0 396 -195t81 -536q-51 -367 -242.5 -576.5t-472.5 -209.5z
M653 776q110 0 206 64t106 149q3 158 -57 238t-175 80q-114 0 -203 -79t-104 -196q-17 -113 47 -184.5t180 -71.5z" />
    <glyph glyph-name="colon" unicode=":" horiz-adv-x="518" 
d="M459 1024l-41 -283h-277l39 283h279zM356 289l-37 -283h-278l37 283h278z" />
    <glyph glyph-name="semicolon" unicode=";" horiz-adv-x="548" 
d="M143 733l39 289h279l-39 -289h-279zM-25 -305l170 305h-98l39 285h281l-41 -262l-232 -328h-119z" />
    <glyph glyph-name="less" unicode="&#x3c;" horiz-adv-x="1150" 
d="M987 459l-26 -211l-840 352l29 217l937 354l-30 -231l-645 -235z" />
    <glyph glyph-name="equal" unicode="=" horiz-adv-x="1159" 
d="M1102 1032l-25 -184l-911 -2l24 186h912zM1038 571l-26 -184l-910 -2l27 184z" />
    <glyph glyph-name="greater" unicode="&#x3e;" horiz-adv-x="1150" 
d="M135 469l641 236l-577 245l30 213l840 -356l-31 -215l-936 -352z" />
    <glyph glyph-name="question" unicode="?" horiz-adv-x="1079" 
d="M129 1186q83 152 222 233.5t313 81.5q210 0 327 -104t96 -262q-9 -66 -38.5 -125t-70.5 -103t-88 -86t-94.5 -84t-88.5 -86t-70.5 -101.5t-38.5 -123.5h-203q10 78 38.5 147t66.5 121t81 99t86 88.5t79 82t61.5 88t32.5 97.5q10 81 -39.5 127.5t-141.5 46.5
q-90 0 -178 -56t-129 -143zM616 283l-41 -283h-276l39 283h278z" />
    <glyph glyph-name="at" unicode="@" horiz-adv-x="1665" 
d="M1249 -84q-95 -64 -220.5 -102.5t-264.5 -38.5q-176 0 -314.5 60t-221 163.5t-117 241.5t-13.5 295q21 159 96.5 302t190.5 250t272 169.5t332 62.5q108 0 205.5 -24t182 -75.5t142 -127t82.5 -185.5t7 -243q-31 -223 -154 -362.5t-287 -139.5q-77 0 -119 28.5t-61 92.5
q-93 -150 -297 -150q-126 0 -197.5 102t-48.5 265q17 121 77 223t156.5 163.5t207.5 61.5q147 0 211 -131l32 78h156l-139 -457q-40 -127 39 -127q94 0 169 106.5t97 260.5q15 107 -3.5 192.5t-61 141t-107 92t-136.5 52t-155 15.5q-155 0 -286 -53t-221 -144.5
t-147.5 -210.5t-76.5 -255q-36 -271 105.5 -432.5t431.5 -161.5q66 0 119.5 9t99.5 29.5t78 40t79 52.5zM627 489q-12 -89 15 -142.5t93 -53.5q91 0 170 80t105 188q27 103 -8.5 165t-106.5 62q-97 0 -174 -87t-94 -212z" />
    <glyph glyph-name="A" unicode="A" horiz-adv-x="1435" 
d="M-8 0l723 1481h266l315 -1481h-247l-76 371h-549l-184 -371h-248zM510 594h432l-127 643z" />
    <glyph glyph-name="B" unicode="B" horiz-adv-x="1374" 
d="M111 0l202 1481h498q274 0 398.5 -99t97.5 -288q-16 -118 -86 -199.5t-217 -138.5q67 -17 115.5 -45t75 -62.5t41.5 -75.5t15 -84.5t-4 -89.5q-28 -203 -179 -301t-439 -98h-518zM475 850h291q113 0 198 51.5t101 159.5q15 107 -56.5 164t-203.5 57h-273zM387 199h272
q152 0 238.5 56.5t101.5 164.5q14 112 -58 169.5t-202 57.5h-293z" />
    <glyph glyph-name="C" unicode="C" horiz-adv-x="1429" 
d="M883 1501q238 0 378 -132.5t134 -336.5l-254 -20q-3 128 -73.5 204t-203.5 76q-174 0 -290.5 -136t-155.5 -413q-36 -276 43.5 -415.5t257.5 -139.5q120 0 212 77.5t136 205.5l246 -27q-27 -101 -78 -183.5t-128 -146.5t-185.5 -99t-239.5 -35q-197 0 -328.5 95t-184 268
t-22.5 405q47 350 243.5 551.5t492.5 201.5z" />
    <glyph glyph-name="D" unicode="D" horiz-adv-x="1429" 
d="M313 1481q269 0 392 -2q385 -9 541.5 -195.5t107.5 -538.5q-48 -360 -265 -552.5t-602 -192.5h-376zM537 1274l-146 -1067h129q113 0 206.5 29t170 91t128 167.5t71.5 250.5q37 280 -72.5 404.5t-351.5 124.5h-135z" />
    <glyph glyph-name="E" unicode="E" horiz-adv-x="1284" 
d="M111 0l202 1481h959l-31 -215h-709l-57 -416h625l-29 -209h-627l-55 -424l723 -2l-29 -215h-972z" />
    <glyph glyph-name="F" unicode="F" horiz-adv-x="1206" 
d="M313 1481h949l-31 -213h-696l-58 -424h613l-27 -209h-614l-89 -635h-249z" />
    <glyph glyph-name="G" unicode="G" horiz-adv-x="1515" 
d="M676 -20q-291 0 -434 204t-97 551q49 353 254 559.5t498 206.5q117 0 214 -38.5t160 -102.5t98.5 -144.5t37.5 -168.5l-268 -39q-9 126 -80.5 202t-194.5 76q-172 0 -292.5 -137t-157.5 -404q-17 -149 -3.5 -252.5t59 -168.5t108.5 -94t145 -29q72 0 134.5 24.5t106 66.5
t73 90.5t44.5 102.5l25 109h-322l27 176l578 -2l-107 -768h-172l27 209q-179 -229 -461 -229z" />
    <glyph glyph-name="H" unicode="H" horiz-adv-x="1460" 
d="M1047 655h-601l-88 -655h-247l202 1481h246l-82 -611h602l82 611h250l-205 -1481h-248z" />
    <glyph glyph-name="I" unicode="I" horiz-adv-x="610" 
d="M313 1481h246l-201 -1481h-247z" />
    <glyph glyph-name="J" unicode="J" horiz-adv-x="800" 
d="M616 383q-15 -104 -40 -174.5t-70.5 -124.5t-117 -79t-173.5 -25q-115 0 -238 38l46 232q2 -1 27 -10t37 -12.5t37 -8t48 -4.5q99 0 144 53.5t63 182.5l141 1030h248z" />
    <glyph glyph-name="K" unicode="K" horiz-adv-x="1417" 
d="M1284 0h-276l-312 719l-268 -279l-61 -440h-256l202 1481h256l-98 -719l676 719h291l-537 -578z" />
    <glyph glyph-name="L" unicode="L" horiz-adv-x="1144" 
d="M313 1481h250l-172 -1266h651l-30 -215h-901z" />
    <glyph glyph-name="M" unicode="M" horiz-adv-x="1820" 
d="M111 0l202 1481h355l219 -1133l534 1133h351l-203 -1481h-252l160 1161l-535 -1161h-207l-217 1153l-158 -1153h-249z" />
    <glyph glyph-name="N" unicode="N" horiz-adv-x="1556" 
d="M1257 1481h248l-200 -1481h-224l-575 1085l-148 -1085h-247l202 1481h242l559 -1057z" />
    <glyph glyph-name="O" unicode="O" horiz-adv-x="1529" 
d="M690 -20q-302 0 -448 200t-97 555q49 357 252 561.5t502 204.5q298 0 445 -203.5t98 -560.5q-49 -354 -251 -555.5t-501 -201.5zM721 188q181 0 297 133t153 412q39 284 -41 421.5t-260 137.5t-298 -138t-158 -421q-36 -278 45 -411.5t262 -133.5z" />
    <glyph glyph-name="P" unicode="P" horiz-adv-x="1304" 
d="M111 0l202 1481h514q118 0 212.5 -29t161 -85t95.5 -145t13 -202q-30 -215 -184 -331t-390 -116h-295l-80 -573h-249zM465 774h291q129 0 216.5 69t102.5 191q18 124 -52.5 186t-203.5 62h-284z" />
    <glyph glyph-name="Q" unicode="Q" horiz-adv-x="1509" 
d="M117 737q49 357 251 560.5t500 203.5q300 0 448 -203.5t99 -560.5q-62 -437 -348 -633q20 -70 82.5 -109t148.5 -42l-28 -203q-71 0 -126 9t-114 33.5t-109 75.5t-90 128q-93 -16 -169 -16q-301 0 -447.5 199t-97.5 558zM385 733q-36 -281 42.5 -413t264.5 -132
q379 0 451 547q39 282 -39 419.5t-262 137.5q-377 0 -457 -559z" />
    <glyph glyph-name="R" unicode="R" horiz-adv-x="1390" 
d="M1194 0h-256l-166 600h-332l-82 -600h-247l202 1481h588q243 0 349 -113t79 -313q-41 -294 -321 -412zM754 799q135 0 220.5 64t102.5 181q15 114 -46.5 177t-180.5 63h-318l-65 -485h287z" />
    <glyph glyph-name="S" unicode="S" horiz-adv-x="1370" 
d="M618 -20q-196 0 -340 75.5t-204 212.5l196 123q44 -71 85.5 -110.5t109 -62.5t166.5 -23q141 0 231 45.5t103 146.5q9 66 -21.5 114t-126.5 83l-295 98q-154 53 -225 153.5t-53 231.5q27 191 190 312.5t402 121.5q166 0 291.5 -61.5t187.5 -177.5l-195 -127
q-34 50 -68 82t-95.5 55.5t-143.5 23.5q-129 0 -208 -53t-93 -143q-15 -135 156 -193l286 -92q166 -56 234 -154.5t47 -242.5q-28 -203 -193.5 -320.5t-423.5 -117.5z" />
    <glyph glyph-name="T" unicode="T" horiz-adv-x="1193" 
d="M133 1253l33 228h1130l-30 -228h-435l-169 -1253h-248l170 1253h-451z" />
    <glyph glyph-name="U" unicode="U" horiz-adv-x="1462" 
d="M1300 541q-38 -273 -191.5 -417t-444.5 -144q-293 0 -404.5 145.5t-73.5 429.5l127 926h252l-129 -953q-24 -167 45 -251t213 -84q145 0 238 83.5t119 251.5l129 953h250z" />
    <glyph glyph-name="V" unicode="V" horiz-adv-x="1341" 
d="M1448 1481l-707 -1481h-286l-295 1481h239l242 -1194l569 1194h238z" />
    <glyph glyph-name="W" unicode="W" horiz-adv-x="1931" 
d="M2019 1481l-628 -1481h-207l-148 1051l-434 -1051h-205l-219 1481h244l147 -1069l437 1069h182l149 -1069l439 1069h243z" />
    <glyph glyph-name="X" unicode="X" horiz-adv-x="1370" 
d="M1251 0h-311l-272 565l-424 -565h-273l586 752l-367 729h310l243 -516l387 516h269l-547 -697z" />
    <glyph glyph-name="Y" unicode="Y" horiz-adv-x="1273" 
d="M1391 1481l-615 -854l-86 -627h-246l86 627l-383 854h267l270 -639l438 639h269z" />
    <glyph glyph-name="Z" unicode="Z" horiz-adv-x="1308" 
d="M29 0l18 127l914 1141h-715l28 213h1067l-16 -123l-926 -1145h762l-28 -213h-1104z" />
    <glyph glyph-name="bracketleft" unicode="[" horiz-adv-x="655" 
d="M53 -330l248 1811h422l-21 -148h-215l-208 -1515h215l-21 -148h-420z" />
    <glyph glyph-name="backslash" unicode="\" horiz-adv-x="735" 
d="M446 -55l-294 1536h170l296 -1536h-172z" />
    <glyph glyph-name="bracketright" unicode="]" horiz-adv-x="673" 
d="M-82 -330l21 148h215l208 1515h-217l23 148h418l-246 -1811h-422z" />
    <glyph glyph-name="asciicircum" unicode="^" horiz-adv-x="972" 
d="M668 256l-144 553l-293 -553h-188l416 756q24 45 60 59.5t67.5 -5t42.5 -67.5l207 -743h-168z" />
    <glyph glyph-name="underscore" unicode="_" horiz-adv-x="1087" 
d="M868 -78l-24 -186h-832l25 186h831z" />
    <glyph glyph-name="grave" unicode="`" horiz-adv-x="616" 
d="M213 1505l475 -215l-53 -106l-500 149z" />
    <glyph glyph-name="a" unicode="a" horiz-adv-x="1140" 
d="M358 -20q-154 0 -238 83.5t-63 231.5q23 175 158.5 259t409.5 95l153 10l8 66q11 90 -33.5 140t-136.5 50q-158 0 -266 -157l-194 30q69 134 198 211.5t297 77.5q215 0 305.5 -88t67.5 -248l-100 -741h-207l2 164q-135 -184 -361 -184zM461 150q92 0 177 61.5t97 138.5
l23 174l-127 -6q-155 -10 -238 -53t-96 -148q-12 -77 35 -122t129 -45z" />
    <glyph glyph-name="b" unicode="b" horiz-adv-x="1202" 
d="M602 -20q-60 0 -111.5 18.5t-86 49t-57.5 62t-36 64.5l-57 -174h-182l209 1520h247l-84 -613q51 69 142 119.5t200 50.5q198 0 283.5 -148t52.5 -394q-36 -258 -173 -406.5t-347 -148.5zM565 152q114 0 195.5 94t109.5 291q50 366 -192 366q-184 0 -264 -207l-37 -270
q-17 -124 38.5 -199t149.5 -75z" />
    <glyph glyph-name="c" unicode="c" horiz-adv-x="1118" 
d="M662 1077q86 0 156.5 -26.5t116 -72t72.5 -102.5t35 -122l-219 -43q-41 103 -61 133q-43 63 -119 63q-120 0 -205.5 -105t-107.5 -274q-23 -171 34.5 -274.5t178.5 -103.5q42 0 77.5 14.5t65 45.5t50.5 59.5t48 74.5l201 -43q-57 -140 -183.5 -230.5t-293.5 -90.5
q-143 0 -247 67.5t-150.5 192t-24.5 284.5q34 245 195.5 399t380.5 154z" />
    <glyph glyph-name="d" unicode="d" horiz-adv-x="1183" 
d="M442 -20q-203 0 -298 142.5t-58 399.5q34 256 166 405.5t332 149.5q188 0 274 -155l82 598h248l-207 -1520h-184l-4 170q-22 -31 -52 -60.5t-73.5 -60.5t-102.5 -50t-123 -19zM528 152q98 0 173 77t90 191l38 287q-18 104 -67 150t-127 46q-116 0 -194 -91.5t-103 -283.5
q-28 -194 25 -285t165 -91z" />
    <glyph glyph-name="e" unicode="e" horiz-adv-x="1159" 
d="M326 459q-19 -138 39.5 -223.5t183.5 -85.5q170 0 262 149l190 -51q-75 -131 -198 -199.5t-275 -68.5q-229 0 -353 145t-91 391q34 248 191 404.5t384 156.5q225 0 332.5 -149t73.5 -391l-12 -78h-727zM350 629h492q18 130 -34 209.5t-171 79.5q-123 0 -197.5 -83.5
t-89.5 -205.5z" />
    <glyph glyph-name="f" unicode="f" horiz-adv-x="790" 
d="M813 1057l-27 -176h-229l-121 -881h-248l121 881h-205l27 176h201l22 160q17 127 96 195.5t209 68.5h220l-23 -170h-141q-59 0 -86 -30t-35 -99l-19 -125h238z" />
    <glyph glyph-name="g" unicode="g" horiz-adv-x="1232" 
d="M469 -350q-262 0 -391.5 72.5t-114.5 195.5q19 126 213 203q28 9 2 22q-95 53 -84 136q8 56 65 99.5t156 61.5q-187 103 -161 301q14 104 86.5 180t184 114t247.5 38q98 0 163 -21t119 -61q11 -8 62 17q25 9 115.5 45t132.5 51l-29 -203l-141 -20q-30 -6 -37.5 -15
t-1.5 -28q12 -54 6 -97q-20 -143 -152 -242.5t-348 -99.5q-38 0 -84 4q-137 -5 -145 -57q0 -9 3.5 -16t14 -12t22.5 -8.5t36 -6.5t45.5 -5t58.5 -5q95 -4 217 -12q179 -12 258.5 -90.5t63.5 -204.5q-22 -154 -174 -245t-408 -91zM590 545q101 0 162 50t73 140
q14 92 -34.5 146.5t-147.5 54.5t-164.5 -55.5t-77.5 -145.5q-12 -88 38 -139t151 -51zM530 -203q135 0 201 35.5t74 108.5q9 58 -28.5 91.5t-125.5 39.5l-252 18q-66 3 -122.5 -40t-65.5 -103q-10 -77 69.5 -113.5t249.5 -36.5z" />
    <glyph glyph-name="h" unicode="h" horiz-adv-x="1187" 
d="M72 0l209 1520h241l-90 -648q194 205 391 205q150 0 218.5 -82t48.5 -231l-105 -764h-248l101 725q11 79 -25.5 123.5t-118.5 44.5q-68 0 -128 -32.5t-144 -106.5l-103 -754h-247z" />
    <glyph glyph-name="i" unicode="i" horiz-adv-x="546" 
d="M545 1520l-41 -269h-256l39 269h258zM473 1057l-143 -1057h-248l145 1057h246z" />
    <glyph glyph-name="j" unicode="j" horiz-adv-x="559" 
d="M553 1520l-37 -269h-258l39 269h256zM338 -18q-22 -164 -109.5 -243t-259.5 -79q-48 0 -80 7t-39 13l-8 7l25 166l88 8q67 6 97 35.5t38 91.5l148 1069h245z" />
    <glyph glyph-name="k" unicode="k" horiz-adv-x="1159" 
d="M1032 0h-250l-229 494l-193 -183l-41 -311h-247l209 1520h247l-127 -922l488 459h268l-430 -412z" />
    <glyph glyph-name="l" unicode="l" horiz-adv-x="641" 
d="M373 -10q-78 0 -133 16.5t-82 45.5t-41 67.5t-11.5 82t7.5 89.5l168 1229h243l-164 -1201q-21 -139 95 -151l53 -2l-25 -156q-62 -20 -110 -20z" />
    <glyph glyph-name="m" unicode="m" horiz-adv-x="1816" 
d="M70 0l145 1057h242l-25 -183q172 205 381 205q114 0 177.5 -59t74.5 -158q119 124 211.5 169.5t187.5 45.5q136 0 204.5 -84t49.5 -231l-104 -762h-248l100 723q9 78 -30 124t-115 46q-68 0 -134.5 -38.5t-103.5 -88.5q-21 -44 -24 -61l-94 -705h-246l98 723
q11 78 -28 124t-117 46q-128 0 -252 -139l-103 -754h-247z" />
    <glyph glyph-name="n" unicode="n" horiz-adv-x="1187" 
d="M70 0l145 1057h242l-25 -183q100 103 192.5 153t196.5 50q145 0 217 -84t52 -225l-105 -768h-248l99 725q11 78 -29.5 123t-122.5 45q-136 0 -264 -137l-103 -756h-247z" />
    <glyph glyph-name="o" unicode="o" horiz-adv-x="1157" 
d="M502 -20q-225 0 -339.5 150.5t-80.5 391.5q32 247 191 401t382 154q227 0 341 -154t81 -399q-33 -241 -190.5 -392.5t-384.5 -151.5zM530 147q84 0 149 57.5t100.5 141.5t49.5 186q12 73 5.5 141.5t-27 121t-65.5 84.5t-109 32q-85 0 -151 -56t-102 -138.5t-50 -184.5
q-13 -72 -5.5 -141.5t28 -123.5t66.5 -87t111 -33z" />
    <glyph glyph-name="p" unicode="p" horiz-adv-x="1198" 
d="M25 -330l190 1387h246l-21 -150q24 29 54 56t73 54t99 43.5t116 16.5q184 0 279 -137.5t57 -398.5q-36 -273 -172.5 -417t-331.5 -144q-203 0 -280 151l-62 -461h-247zM555 152q119 0 202.5 98t110.5 291q11 102 3 171.5t-39 111.5t-71.5 60.5t-92.5 18.5
q-103 0 -174 -69t-88 -185l-39 -293q37 -204 188 -204z" />
    <glyph glyph-name="q" unicode="q" horiz-adv-x="1196" 
d="M946 -330h-248l60 441q-88 -73 -163 -102t-155 -29q-195 0 -292 144t-60 417q37 261 170 398.5t315 137.5q49 0 92.5 -11t71.5 -24.5t57 -38.5t42.5 -40.5t35.5 -42.5l15 137h248zM547 152q155 0 246 204l41 293q15 115 -38.5 184.5t-156.5 69.5q-52 0 -98 -19t-87 -59.5
t-71 -113t-43 -170.5q-27 -193 30.5 -291t176.5 -98z" />
    <glyph glyph-name="r" unicode="r" horiz-adv-x="800" 
d="M70 0l145 1057h238l-35 -244q65 115 175.5 189.5t229.5 74.5l-30 -235q-167 11 -274 -64.5t-122 -179.5l-80 -598h-247z" />
    <glyph glyph-name="s" unicode="s" horiz-adv-x="1093" 
d="M475 -20q-166 0 -281.5 69.5t-152.5 179.5l170 84q33 -68 109 -112.5t180 -44.5q81 0 156.5 37.5t82.5 89.5q7 46 -31 77.5t-122 55.5l-168 45q-287 71 -258 280q19 150 150 243t325 93q151 0 249.5 -59.5t139.5 -157.5l-168 -82q-30 60 -94.5 93.5t-155.5 33.5
q-86 0 -153 -37t-74 -92q-6 -39 28 -65.5t128 -55.5l200 -59q76 -21 127 -54.5t74.5 -73t31 -78.5t1.5 -81q-21 -150 -158.5 -239.5t-335.5 -89.5z" />
    <glyph glyph-name="t" unicode="t" horiz-adv-x="858" 
d="M801 881h-240l-80 -600q-9 -67 9 -91t63 -24h156l-23 -152q-50 -22 -178 -22q-177 0 -237 68t-40 206l84 615h-188l27 176h192l80 344h207l-47 -342h239z" />
    <glyph glyph-name="u" unicode="u" horiz-adv-x="1185" 
d="M399 -20q-143 2 -225.5 88t-62.5 229l104 762h248l-101 -727q-12 -82 26.5 -129t125.5 -47q75 0 133 35t127 110l105 758h249l-149 -1059h-188l-5 172q-189 -192 -387 -192z" />
    <glyph glyph-name="v" unicode="v" horiz-adv-x="1103" 
d="M1139 1057l-564 -1057h-186l-276 1057h249l181 -738l379 738h217z" />
    <glyph glyph-name="w" unicode="w" horiz-adv-x="1601" 
d="M1626 1057l-479 -1057h-201l-119 705l-307 -705h-207l-190 1057h233l123 -727l312 727h180l121 -725l311 725h223z" />
    <glyph glyph-name="x" unicode="x" horiz-adv-x="1157" 
d="M1036 0h-262l-217 377l-321 -377h-263l473 551l-296 506h264l190 -330l283 330h262l-436 -506z" />
    <glyph glyph-name="y" unicode="y" horiz-adv-x="1112" 
d="M162 -338q-60 0 -104 8t-58 16l-14 7l22 162l105 -5q47 -2 85.5 5t60.5 17.5t40 28.5t25.5 29.5t15.5 28.5l37 76l-264 1022h247l170 -746l375 746h242l-576 -1096q-93 -170 -188.5 -234.5t-220.5 -64.5z" />
    <glyph glyph-name="z" unicode="z" horiz-adv-x="1028" 
d="M2 0l21 137l661 758h-516l22 162h822l-19 -135l-663 -758h567l-20 -164h-875z" />
    <glyph glyph-name="braceleft" unicode="{" horiz-adv-x="722" 
d="M428 -330q-124 0 -202.5 66t-61.5 172l57 430q13 76 -36.5 126t-164.5 50l17 135q115 0 178.5 53.5t75.5 147.5l57 410q14 105 103 163t208 58h132l-21 -148h-74q-77 0 -108.5 -30t-38.5 -84l-57 -418q-16 -103 -79 -153.5t-145 -61.5q-23 0 -25 -8q0 -3 5 -5
q39 -2 72.5 -15.5t62 -39t41.5 -71t6 -105.5l-74 -524h207l-22 -148h-113z" />
    <glyph glyph-name="bar" unicode="|" horiz-adv-x="548" 
d="M248 -330h-182l276 2020h184z" />
    <glyph glyph-name="braceright" unicode="}" horiz-adv-x="735" 
d="M-80 -330l21 148h75q75 0 107 30.5t39 83.5l57 418q17 103 79.5 153.5t143.5 61.5q25 2 26 10q1 2 -3 3q-39 2 -73 15.5t-62 39t-41 71t-6 105.5l71 524h-207l23 148h115q123 0 201 -65.5t63 -172.5l-60 -428q-11 -78 37.5 -128t163.5 -50l-18 -135q-113 0 -176.5 -53.5
t-75.5 -147.5l-55 -410q-16 -105 -105.5 -163t-208.5 -58h-131z" />
    <glyph glyph-name="asciitilde" unicode="~" horiz-adv-x="1204" 
d="M1104 752q-53 -69 -128.5 -107.5t-158.5 -38.5q-56 0 -108 18.5t-85.5 40t-78 40t-86.5 18.5q-125 0 -242 -139l-70 153q93 75 162 111.5t150 36.5q55 0 107 -18.5t85.5 -40t77 -40t84.5 -18.5q125 0 225 137z" />
    <glyph glyph-name="uni00A0" unicode="&#xa0;" horiz-adv-x="415" 
 />
    <glyph glyph-name="exclamdown" unicode="&#xa1;" horiz-adv-x="550" 
d="M444 774h-276l39 283h278zM301 -330h-293l201 967h156z" />
    <glyph glyph-name="cent" unicode="&#xa2;" horiz-adv-x="1132" 
d="M596 377q79 0 132.5 50t107.5 144l202 -43q-43 -103 -125 -182t-192 -115l-35 -231h-166l29 207q-141 3 -241.5 71.5t-145.5 191.5t-23 282q34 242 189.5 395t369.5 158l25 176h170l-29 -201q100 -37 159.5 -117.5t72.5 -181.5l-219 -43q-41 104 -62 134q-44 63 -121 63
q-119 0 -204.5 -105t-108.5 -274q-23 -171 35.5 -275t179.5 -104z" />
    <glyph glyph-name="sterling" unicode="&#xa3;" horiz-adv-x="1275" 
d="M-37 0l29 209h67q76 0 133.5 60t75.5 165q19 74 19 264h-207l20 146h176v184q-3 121 37 214t110 148.5t156.5 83t184.5 27.5q145 0 258.5 -71t148.5 -207l-206 -64q-45 139 -172 139q-90 0 -158.5 -61t-75.5 -158q-7 -58 6 -233h307l-28 -146l-279 -2q0 -157 -18 -231
q-28 -157 -135 -256h270q94 0 156 39t100 125l215 -51q-64 -158 -186.5 -241t-286.5 -83h-717z" />
    <glyph glyph-name="currency" unicode="&#xa4;" horiz-adv-x="1136" 
d="M547 326q-130 0 -211 69q-16 5 -35 -14l-123 -113l-102 121l147 133q-64 110 -41 234q14 109 86 219q19 11 11 22l-105 121l117 101l102 -121q133 65 246 65q121 0 209 -71q17 -2 33 14l116 104l103 -120l-142 -123q63 -102 43 -236q-17 -123 -90 -221q-5 0 -8 -5t0 -9
l101 -117l-115 -100l-96 114q-122 -67 -246 -67zM551 498q104 0 188.5 78t98.5 182q12 95 -45 164t-154 69q-107 0 -191 -77.5t-98 -182.5q-12 -95 45.5 -164t155.5 -69z" />
    <glyph glyph-name="yen" unicode="&#xa5;" horiz-adv-x="1280" 
d="M1415 1481l-571 -779h264l-21 -143h-299l-22 -168h299l-21 -141h-299l-34 -250h-283l35 250h-303l22 141h301l23 168h-303l20 143h262l-354 779h307l264 -631l439 631h274z" />
    <glyph glyph-name="brokenbar" unicode="&#xa6;" horiz-adv-x="550" 
d="M412 862h-183l113 828h184zM248 -330h-182l112 828h187z" />
    <glyph glyph-name="section" unicode="&#xa7;" horiz-adv-x="1003" 
d="M727 416q83 -53 118.5 -116.5t22.5 -149.5q-19 -137 -138 -220.5t-310 -83.5q-157 0 -269 70.5t-147 177.5l135 64q98 -152 281 -152q89 0 150.5 37t70.5 96q7 46 -24 85t-123 77l-148 61q-146 59 -204.5 136t-41.5 190q12 88 69 154.5t150 105.5q-87 53 -117.5 117
t-19.5 145q18 127 132 209t288 82q140 0 241.5 -66t137.5 -161l-135 -66q-108 133 -236 133q-87 0 -142.5 -35.5t-61.5 -91.5q-2 -41 21.5 -71.5t86.5 -59.5l152 -63q155 -65 218 -146.5t46 -199.5q-13 -88 -65 -150t-138 -108zM547 508q56 -3 106.5 33t63.5 92
q6 22 4.5 46.5t-9.5 47t-33.5 44.5t-66.5 40l-114 49q-64 -5 -119.5 -47.5t-67.5 -99.5q-10 -49 10.5 -84.5t98.5 -67.5z" />
    <glyph glyph-name="dieresis" unicode="&#xa8;" horiz-adv-x="655" 
d="M393 1481l-35 -244h-225l33 244h227zM745 1481l-34 -244h-226l35 244h225z" />
    <glyph glyph-name="copyright" unicode="&#xa9;" horiz-adv-x="1654" 
d="M758 -20q-205 0 -364 103.5t-235.5 282t-47.5 388.5q21 153 97.5 291t188 238t255.5 159t294 59q152 0 282.5 -62t217 -165.5t127 -247t18.5 -299.5q-21 -154 -98 -292.5t-188.5 -238t-254.5 -158t-292 -58.5zM758 129q256 0 448 172.5t230 452.5q18 133 -10.5 246
t-94.5 190t-165 120.5t-220 43.5q-170 0 -316 -78.5t-242.5 -222t-121.5 -326.5q-19 -135 8.5 -248t93.5 -189.5t166 -118.5t224 -42zM905 1171q128 0 206.5 -73t102.5 -178l-165 -25q-20 63 -51.5 100t-84.5 37q-93 0 -160 -79.5t-85 -219.5q-18 -135 24 -205.5t133 -70.5
q125 0 217 149l138 -41q-23 -43 -55 -83t-77.5 -78.5t-107.5 -61.5t-131 -23q-176 0 -273 122t-71 315q28 185 150.5 300t289.5 115z" />
    <glyph glyph-name="ordfeminine" unicode="&#xaa;" horiz-adv-x="817" 
d="M356 813q-105 0 -157 53.5t-41 145.5q27 189 358 213l98 8l7 43q17 110 -99 110q-90 0 -157 -92l-154 43q48 81 122 121.5t191 40.5q145 -1 205 -60t47 -165l-61 -451h-146v66q-62 -41 -109.5 -58.5t-103.5 -17.5zM412 920q53 0 110.5 42.5t63.5 88.5l14 86l-63 -4
q-101 -9 -157.5 -43t-60.5 -91q-3 -37 20.5 -58t72.5 -21z" />
    <glyph glyph-name="guillemotleft" unicode="&#xab;" horiz-adv-x="966" 
d="M291 500l125 -365h-123l-201 387l293 385h147zM659 500l125 -365h-122l-203 387l297 385h145z" />
    <glyph glyph-name="logicalnot" unicode="&#xac;" horiz-adv-x="1159" 
d="M1075 838l-18 -117l-51 -371h-201l41 301h-707l25 187h911z" />
    <glyph glyph-name="uni00AD" unicode="&#xad;" horiz-adv-x="778" 
d="M698 621l-28 -187h-529l25 184z" />
    <glyph glyph-name="registered" unicode="&#xae;" horiz-adv-x="1099" 
d="M549 549q-128 0 -226 63.5t-144.5 172.5t-28.5 239q17 129 94 239t192.5 174t241.5 64t224.5 -64t146 -174t30.5 -239q-28 -197 -183.5 -336t-346.5 -139zM563 657q158 0 267.5 99.5t134.5 267.5q22 166 -61 267.5t-240 101.5q-158 0 -267.5 -101.5t-132.5 -267.5
q-25 -168 57.5 -267.5t241.5 -99.5zM397 786l64 471h213q80 0 121 -32.5t32 -91.5q-10 -90 -112 -125l59 -222h-110l-46 209h-90l-28 -209h-103zM541 1071h100q32 0 54 14t26 41q3 25 -14.5 40.5t-55.5 15.5h-98z" />
    <glyph glyph-name="macron" unicode="&#xaf;" horiz-adv-x="737" 
d="M823 1462l-24 -166h-658l21 166h661z" />
    <glyph glyph-name="degree" unicode="&#xb0;" horiz-adv-x="948" 
d="M913 1364q-20 -140 -122 -230t-238 -90q-146 0 -228.5 98.5t-60.5 248.5q19 141 120 230t239 89q145 0 227.5 -98t62.5 -248zM760 1389q9 76 -28 123t-111 47q-83 0 -141.5 -55t-69.5 -142q-9 -77 29 -123.5t112 -46.5q81 0 139 55t70 142z" />
    <glyph glyph-name="plusminus" unicode="&#xb1;" horiz-adv-x="1161" 
d="M733 1004h365l-27 -185h-362l-52 -373h-184l51 371h-362l24 184h365l51 373h182zM63 94l25 185l909 2l-26 -187h-908z" />
    <glyph glyph-name="uni00B2" unicode="&#xb2;" horiz-adv-x="778" 
d="M74 786l18 123l324 275q130 106 176 159t53 113q8 69 -31.5 105t-103.5 36q-141 0 -229 -131l-111 60q148 205 369 205q141 0 215 -74t55 -201q-12 -75 -58.5 -137.5t-160.5 -163.5l-266 -233h419l-16 -136h-653z" />
    <glyph glyph-name="uni00B3" unicode="&#xb3;" horiz-adv-x="782" 
d="M238 1589q54 64 146 103t187 39q144 0 224.5 -68t66.5 -174q-21 -145 -198 -205q84 -25 131 -85t34 -148q-17 -124 -133.5 -200.5t-267.5 -76.5q-104 0 -188 43t-131 121l124 82q47 -64 97.5 -90.5t124.5 -26.5q87 0 142.5 39.5t64.5 104.5q10 72 -41 113.5t-132 41.5
l-124 2l16 127l104 2q84 3 143 44t66 102q6 54 -33 90.5t-106 36.5q-65 0 -118 -26t-113 -83z" />
    <glyph glyph-name="acute" unicode="&#xb4;" horiz-adv-x="612" 
d="M653 1507l39 -178l-530 -147l-29 118z" />
    <glyph glyph-name="uni00B5" unicode="&#xb5;" horiz-adv-x="1183" 
d="M25 -330l190 1387h248l-103 -746q-9 -64 30.5 -105.5t101.5 -41.5q40 0 76.5 11t74 35.5t61.5 44t66 56.5l104 746h252l-149 -1057h-242l25 166q-91 -86 -155.5 -126t-135.5 -50q-111 -11 -150 16l-47 -336h-247z" />
    <glyph glyph-name="paragraph" unicode="&#xb6;" horiz-adv-x="1167" 
d="M1151 1335h-121l-209 -1505h-153l204 1505h-106l-211 -1505h-154l109 784q-181 9 -281.5 128.5t-74.5 308.5q13 87 53 164t104 136.5t157.5 94.5t203.5 35h499z" />
    <glyph glyph-name="periodcentered" unicode="&#xb7;" horiz-adv-x="493" 
d="M422 877l-37 -263h-268l37 263h268z" />
    <glyph glyph-name="cedilla" unicode="&#xb8;" horiz-adv-x="514" 
d="M358 -281q-10 -69 -79 -109t-162 -40q-135 0 -213 72l39 63q76 -39 137 -39q53 0 86.5 22.5t38.5 59.5q6 38 -27 55.5t-119 18.5q-31 0 -22 22l94 166h119l-57 -121q96 -4 135 -53.5t30 -116.5z" />
    <glyph glyph-name="uni00B9" unicode="&#xb9;" horiz-adv-x="618" 
d="M207 778l100 754l-174 -55l14 112l254 121h91l-127 -932h-158z" />
    <glyph glyph-name="ordmasculine" unicode="&#xba;" horiz-adv-x="804" 
d="M524 1501q151 0 229 -101t56 -261q-21 -145 -117 -234.5t-239 -89.5q-150 0 -227 97.5t-56 252.5q22 150 120.5 243t233.5 93zM528 1384q-77 0 -126 -62.5t-64 -176.5q-31 -217 108 -217q79 0 130.5 63.5t66.5 179.5q28 213 -115 213z" />
    <glyph glyph-name="guillemotright" unicode="&#xbb;" horiz-adv-x="966" 
d="M293 524l-125 383h125l199 -407l-293 -365h-144zM662 524l-125 383h125l200 -407l-293 -365h-145z" />
    <glyph glyph-name="onequarter" unicode="&#xbc;" horiz-adv-x="1951" 
d="M178 565l101 754l-175 -55l15 112l254 121h90l-127 -932h-158zM1546 1497l-1181 -1505l-166 2l1181 1503h166zM1622 932h156l-80 -576h139l-18 -125h-138l-30 -231h-158l33 231h-416l18 127zM1264 356h278l53 396z" />
    <glyph glyph-name="onehalf" unicode="&#xbd;" horiz-adv-x="1890" 
d="M178 565l101 754l-175 -55l15 112l254 121h90l-127 -932h-158zM1546 1497l-1181 -1505l-166 2l1181 1503h166zM1077 0l17 123l325 274q129 105 175 159t53 114q8 69 -32 105t-104 36q-138 0 -229 -131l-111 59q151 205 369 205q141 0 215 -74t55 -200q-10 -75 -57 -136.5
t-162 -164.5l-266 -234h422l-18 -135h-652z" />
    <glyph glyph-name="threequarters" unicode="&#xbe;" horiz-adv-x="2146" 
d="M207 1374q53 64 146 103t188 39q144 0 224 -67.5t66 -174.5q-21 -145 -198 -205q84 -25 131.5 -85t34.5 -148q-17 -124 -134 -200.5t-268 -76.5q-104 0 -188 43t-131 121l125 82q47 -64 97 -90.5t124 -26.5q87 0 142.5 39t64.5 104q10 72 -40.5 114t-131.5 42l-125 2
l16 127l105 2q84 3 143 44t66 102q6 54 -33.5 90.5t-106.5 36.5q-65 0 -118 -26t-113 -83zM1739 1497l-1180 -1505l-166 2l1182 1503h164zM1817 932h155l-80 -576h138l-17 -125h-137l-33 -231h-155l32 231h-415l16 127zM1456 356h281l53 396z" />
    <glyph glyph-name="questiondown" unicode="&#xbf;" horiz-adv-x="1079" 
d="M451 774l41 283h278l-41 -283h-278zM952 -35q-85 -152 -223.5 -233.5t-312.5 -81.5q-222 0 -332.5 102.5t-89.5 263.5q9 64 38 118t68.5 92.5t86 73.5t93 69.5t86 71.5t68.5 89t37 113h201q-9 -73 -36.5 -135.5t-64 -107t-78.5 -84t-84 -74.5t-77.5 -69.5t-60.5 -78
t-31 -92.5q-10 -76 41 -123t141 -47q91 0 179 55t128 138z" />
    <glyph glyph-name="Agrave" unicode="&#xc0;" horiz-adv-x="1435" 
d="M686 1929l475 -215l-53 -106l-500 149zM-8 0l723 1481h266l315 -1481h-247l-76 371h-549l-184 -371h-248zM510 594h432l-127 643z" />
    <glyph glyph-name="Aacute" unicode="&#xc1;" horiz-adv-x="1435" 
d="M1141 1931l39 -178l-531 -147l-28 118zM-8 0l723 1481h266l315 -1481h-247l-76 371h-549l-184 -371h-248zM510 594h432l-127 643z" />
    <glyph glyph-name="Acircumflex" unicode="&#xc2;" horiz-adv-x="1435" 
d="M1030 1657l-117 147l-170 -147h-204l290 258h170l220 -258h-189zM-8 0l723 1481h266l315 -1481h-247l-76 371h-549l-184 -371h-248zM510 594h432l-127 643z" />
    <glyph glyph-name="Atilde" unicode="&#xc3;" horiz-adv-x="1435" 
d="M1235 1745q-92 -49 -191 -49q-59 0 -139.5 27.5t-122.5 27.5q-34 0 -58.5 -8.5t-56.5 -29t-46 -27.5l-33 147q48 32 89 48.5t93 16.5q60 0 148 -29.5t126 -29.5q45 0 104 30.5t69 33.5zM-8 0l723 1481h266l315 -1481h-247l-76 371h-549l-184 -371h-248zM510 594h432
l-127 643z" />
    <glyph glyph-name="Adieresis" unicode="&#xc4;" horiz-adv-x="1435" 
d="M858 1905l-35 -244h-225l33 244h227zM1210 1905l-34 -244h-226l35 244h225zM-8 0l723 1481h266l315 -1481h-247l-76 371h-549l-184 -371h-248zM510 594h432l-127 643z" />
    <glyph glyph-name="Aring" unicode="&#xc5;" horiz-adv-x="1435" 
d="M1122 1796q-13 -89 -78.5 -146t-152.5 -57q-94 0 -149.5 68t-41.5 166q10 83 77 139.5t151 56.5q93 0 149.5 -66.5t44.5 -160.5zM1012 1821q6 41 -17 65.5t-63 24.5q-46 0 -85 -33.5t-46 -83.5q-3 -38 21 -65t61 -27q46 0 84.5 36t44.5 83zM-8 0l723 1481h266l315 -1481
h-247l-76 371h-549l-184 -371h-248zM510 594h432l-127 643z" />
    <glyph glyph-name="AE" unicode="&#xc6;" horiz-adv-x="2115" 
d="M1942 211l-27 -211h-993l53 375h-471l-248 -375h-264l991 1481h1110l-31 -211h-686l-55 -420h487l-32 -209h-484l-57 -430h707zM1006 594l94 700l-471 -700h377z" />
    <glyph glyph-name="Ccedilla" unicode="&#xc7;" horiz-adv-x="1429" 
d="M864 1292q-174 0 -290.5 -136t-155.5 -413q-36 -276 43.5 -415.5t257.5 -139.5q120 0 212 77.5t136 205.5l246 -27q-25 -96 -73 -176t-118.5 -142.5t-170 -100t-220.5 -43.5l-43 -93q96 -4 135.5 -53.5t30.5 -116.5q-10 -69 -79.5 -109t-162.5 -40q-135 0 -213 72l37 63
q76 -39 139 -39q53 0 86.5 22.5t38.5 59.5q6 39 -26.5 56t-118.5 18q-31 0 -25 22l80 140q-261 25 -383.5 230t-79.5 534q47 350 243.5 551.5t492.5 201.5q238 0 378 -132.5t134 -336.5l-254 -20q-3 128 -73.5 204t-203.5 76z" />
    <glyph glyph-name="Egrave" unicode="&#xc8;" horiz-adv-x="1284" 
d="M625 1929l475 -215l-53 -106l-500 149zM111 0l202 1481h959l-31 -215h-709l-57 -416h625l-29 -209h-627l-55 -424l723 -2l-29 -215h-972z" />
    <glyph glyph-name="Eacute" unicode="&#xc9;" horiz-adv-x="1284" 
d="M1079 1931l39 -178l-530 -147l-29 118zM111 0l202 1481h959l-31 -215h-709l-57 -416h625l-29 -209h-627l-55 -424l723 -2l-29 -215h-972z" />
    <glyph glyph-name="Ecircumflex" unicode="&#xca;" horiz-adv-x="1284" 
d="M969 1657l-117 147l-170 -147h-205l291 258h170l219 -258h-188zM111 0l202 1481h959l-31 -215h-709l-57 -416h625l-29 -209h-627l-55 -424l723 -2l-29 -215h-972z" />
    <glyph glyph-name="Edieresis" unicode="&#xcb;" horiz-adv-x="1284" 
d="M799 1905l-35 -244h-225l32 244h228zM1151 1905l-35 -244h-225l35 244h225zM111 0l202 1481h959l-31 -215h-709l-57 -416h625l-29 -209h-627l-55 -424l723 -2l-29 -215h-972z" />
    <glyph glyph-name="Igrave" unicode="&#xcc;" horiz-adv-x="608" 
d="M260 1929l475 -215l-55 -106l-498 149zM311 1481h246l-201 -1481h-247z" />
    <glyph glyph-name="Iacute" unicode="&#xcd;" horiz-adv-x="608" 
d="M717 1931l39 -178l-531 -147l-28 118zM313 1481h246l-201 -1481h-247z" />
    <glyph glyph-name="Icircumflex" unicode="&#xce;" horiz-adv-x="606" 
d="M606 1657l-114 147l-170 -147h-207l291 258h169l222 -258h-191zM315 1481h246l-201 -1481h-247z" />
    <glyph glyph-name="Idieresis" unicode="&#xcf;" horiz-adv-x="612" 
d="M436 1905l-35 -244h-225l33 244h227zM788 1905l-34 -244h-226l35 244h225zM313 1481h248l-203 -1481h-247z" />
    <glyph glyph-name="Eth" unicode="&#xd0;" horiz-adv-x="1427" 
d="M700 1479q387 -9 543 -195.5t109 -538.5q-50 -360 -267 -552.5t-600 -192.5h-379l89 641h-107l25 188h106l90 652q268 0 391 -2zM1094 745q19 143 -1 245.5t-77.5 164.5t-143 90.5t-204.5 28.5h-136l-61 -445h346l-24 -188h-347l-59 -434h129q114 0 207.5 29t170.5 91
t128.5 167.5t71.5 250.5z" />
    <glyph glyph-name="Ntilde" unicode="&#xd1;" horiz-adv-x="1556" 
d="M1294 1745q-92 -49 -190 -49q-59 0 -139 27.5t-123 27.5q-34 0 -58.5 -8.5t-57.5 -29t-46 -27.5l-33 147q48 32 89 48.5t95 16.5q59 0 146.5 -29.5t126.5 -29.5q45 0 103 30.5t69 33.5zM1257 1481h248l-200 -1481h-224l-575 1085l-148 -1085h-247l202 1481h242l559 -1057
z" />
    <glyph glyph-name="Ograve" unicode="&#xd2;" horiz-adv-x="1529" 
d="M707 1929l475 -215l-54 -106l-499 149zM690 -20q-302 0 -448 200t-97 555q49 357 252 561.5t502 204.5q298 0 445 -203.5t98 -560.5q-49 -354 -251 -555.5t-501 -201.5zM721 188q181 0 297 133t153 412q39 284 -41 421.5t-260 137.5t-298 -138t-158 -421
q-36 -278 45 -411.5t262 -133.5z" />
    <glyph glyph-name="Oacute" unicode="&#xd3;" horiz-adv-x="1529" 
d="M1161 1931l37 -178l-530 -147l-27 118zM690 -20q-302 0 -448 200t-97 555q49 357 252 561.5t502 204.5q298 0 445 -203.5t98 -560.5q-49 -354 -251 -555.5t-501 -201.5zM721 188q181 0 297 133t153 412q39 284 -41 421.5t-260 137.5t-298 -138t-158 -421
q-36 -278 45 -411.5t262 -133.5z" />
    <glyph glyph-name="Ocircumflex" unicode="&#xd4;" horiz-adv-x="1529" 
d="M1049 1657l-117 147l-170 -147h-205l291 258h170l219 -258h-188zM690 -20q-302 0 -448 200t-97 555q49 357 252 561.5t502 204.5q298 0 445 -203.5t98 -560.5q-49 -354 -251 -555.5t-501 -201.5zM721 188q181 0 297 133t153 412q39 284 -41 421.5t-260 137.5t-298 -138
t-158 -421q-36 -278 45 -411.5t262 -133.5z" />
    <glyph glyph-name="Otilde" unicode="&#xd5;" horiz-adv-x="1529" 
d="M1255 1745q-96 -49 -190 -49q-59 0 -140 27.5t-124 27.5q-33 0 -57.5 -8.5t-56.5 -29t-46 -27.5l-33 147q93 65 183 65q60 0 148 -29.5t126 -29.5q43 0 102 30.5t70 33.5zM690 -20q-302 0 -448 200t-97 555q49 357 252 561.5t502 204.5q298 0 445 -203.5t98 -560.5
q-49 -354 -251 -555.5t-501 -201.5zM721 188q181 0 297 133t153 412q39 284 -41 421.5t-260 137.5t-298 -138t-158 -421q-36 -278 45 -411.5t262 -133.5z" />
    <glyph glyph-name="Odieresis" unicode="&#xd6;" horiz-adv-x="1529" 
d="M879 1905l-35 -244h-226l35 244h226zM1231 1905l-33 -244h-225l33 244h225zM690 -20q-302 0 -448 200t-97 555q49 357 252 561.5t502 204.5q298 0 445 -203.5t98 -560.5q-49 -354 -251 -555.5t-501 -201.5zM721 188q181 0 297 133t153 412q39 284 -41 421.5t-260 137.5
t-298 -138t-158 -421q-36 -278 45 -411.5t262 -133.5z" />
    <glyph glyph-name="multiply" unicode="&#xd7;" horiz-adv-x="1140" 
d="M1081 1055l-358 -320l268 -317l-139 -123l-266 317l-355 -317l-118 141l354 318l-268 317l137 123l268 -317l354 317z" />
    <glyph glyph-name="Oslash" unicode="&#xd8;" horiz-adv-x="1517" 
d="M96 -31l-110 131l196 179q-84 192 -45 469q49 353 248 553t494 200q273 0 419 -176l183 182l110 -129l-205 -188q85 -197 44 -467q-47 -349 -245 -546t-495 -197q-273 0 -418 167zM434 496l678 667q-62 135 -240 135q-174 0 -281.5 -131t-150.5 -399q-24 -156 -6 -272z
M700 184q178 0 285 131.5t148 407.5q22 152 2 254l-678 -668q67 -125 243 -125z" />
    <glyph glyph-name="Ugrave" unicode="&#xd9;" horiz-adv-x="1462" 
d="M678 1929l473 -215l-53 -106l-498 149zM1300 541q-38 -273 -191.5 -417t-444.5 -144q-293 0 -404.5 145.5t-73.5 429.5l127 926h252l-129 -953q-24 -167 45 -251t213 -84q145 0 238 83.5t119 251.5l129 953h250z" />
    <glyph glyph-name="Uacute" unicode="&#xda;" horiz-adv-x="1462" 
d="M1133 1931l38 -178l-530 -147l-29 118zM1300 541q-38 -273 -191.5 -417t-444.5 -144q-293 0 -404.5 145.5t-73.5 429.5l127 926h252l-129 -953q-24 -167 45 -251t213 -84q145 0 238 83.5t119 251.5l129 953h250z" />
    <glyph glyph-name="Ucircumflex" unicode="&#xdb;" horiz-adv-x="1462" 
d="M1022 1657l-117 147l-170 -147h-207l291 258h170l221 -258h-188zM1300 541q-38 -273 -191.5 -417t-444.5 -144q-293 0 -404.5 145.5t-73.5 429.5l127 926h252l-129 -953q-24 -167 45 -251t213 -84q145 0 238 83.5t119 251.5l129 953h250z" />
    <glyph glyph-name="Udieresis" unicode="&#xdc;" horiz-adv-x="1462" 
d="M852 1905l-35 -244h-225l35 244h225zM1204 1905l-33 -244h-227l35 244h225zM1300 541q-38 -273 -191.5 -417t-444.5 -144q-293 0 -404.5 145.5t-73.5 429.5l127 926h252l-129 -953q-24 -167 45 -251t213 -84q145 0 238 83.5t119 251.5l129 953h250z" />
    <glyph glyph-name="Yacute" unicode="&#xdd;" horiz-adv-x="1273" 
d="M1069 1931l39 -178l-530 -147l-29 118zM1391 1481l-615 -854l-86 -627h-246l86 627l-383 854h267l270 -639l438 639h269z" />
    <glyph glyph-name="Thorn" unicode="&#xde;" horiz-adv-x="1392" 
d="M1358 745q-30 -209 -184.5 -317.5t-391.5 -108.5h-348l-43 -319h-280l202 1481h281l-41 -295h305q119 0 216 -27.5t166.5 -80.5t101 -138.5t16.5 -194.5zM1073 776q14 105 -51.5 154t-198.5 49h-297l-61 -453h299q128 0 211 65t98 185z" />
    <glyph glyph-name="germandbls" unicode="&#xdf;" horiz-adv-x="1282" 
d="M788 1481q191 0 281 -86t72 -224q-14 -100 -79.5 -159.5t-203.5 -120.5q-52 -24 -73.5 -41.5t-24.5 -46.5q-3 -20 7.5 -30.5t44.5 -27.5q6 -2 9 -4q68 -27 105.5 -43.5t95.5 -54t86 -76.5t46 -102.5t7 -140.5q-23 -165 -145 -254.5t-303 -89.5q-83 0 -153.5 24t-113.5 62
l80 127q102 -48 179 -48q94 0 157 48t76 133q5 38 -4.5 66.5t-37 50t-52.5 35t-74 34.5q-9 4 -14 6q-45 17 -77.5 37t-62.5 49.5t-42 72.5t-5 97q10 68 50.5 119t117.5 104q3 2 26 16t28 17t24.5 16t25.5 19t20.5 18.5t20.5 22.5t14.5 23.5t12.5 28t6 30.5q8 58 -29 91.5
t-114 33.5q-107 0 -179 -68t-89 -186l-146 -1059h-243l116 846h-129l27 174h125q13 98 51.5 179.5t102.5 145.5t161 100t219 36z" />
    <glyph glyph-name="agrave" unicode="&#xe0;" horiz-adv-x="1140" 
d="M477 1505l473 -215l-53 -106l-498 149zM358 -20q-154 0 -238 83.5t-63 231.5q23 175 158.5 259t409.5 95l153 10l8 66q11 90 -33.5 140t-136.5 50q-158 0 -266 -157l-194 30q69 134 198 211.5t297 77.5q215 0 305.5 -88t67.5 -248l-100 -741h-207l2 164
q-135 -184 -361 -184zM461 150q92 0 177 61.5t97 138.5l23 174l-127 -6q-155 -10 -238 -53t-96 -148q-12 -77 35 -122t129 -45z" />
    <glyph glyph-name="aacute" unicode="&#xe1;" horiz-adv-x="1140" 
d="M930 1507l39 -178l-531 -147l-28 118zM358 -20q-154 0 -238 83.5t-63 231.5q23 175 158.5 259t409.5 95l153 10l8 66q11 90 -33.5 140t-136.5 50q-158 0 -266 -157l-194 30q69 134 198 211.5t297 77.5q215 0 305.5 -88t67.5 -248l-100 -741h-207l2 164
q-135 -184 -361 -184zM461 150q92 0 177 61.5t97 138.5l23 174l-127 -6q-155 -10 -238 -53t-96 -148q-12 -77 35 -122t129 -45z" />
    <glyph glyph-name="acircumflex" unicode="&#xe2;" horiz-adv-x="1140" 
d="M817 1233l-115 147l-170 -147h-206l290 258h170l222 -258h-191zM358 -20q-154 0 -238 83.5t-63 231.5q23 175 158.5 259t409.5 95l153 10l8 66q11 90 -33.5 140t-136.5 50q-158 0 -266 -157l-194 30q69 134 198 211.5t297 77.5q215 0 305.5 -88t67.5 -248l-100 -741h-207
l2 164q-135 -184 -361 -184zM461 150q92 0 177 61.5t97 138.5l23 174l-127 -6q-155 -10 -238 -53t-96 -148q-12 -77 35 -122t129 -45z" />
    <glyph glyph-name="atilde" unicode="&#xe3;" horiz-adv-x="1140" 
d="M1024 1321q-92 -49 -188 -49q-59 0 -140.5 27.5t-124.5 27.5q-34 0 -58 -8.5t-56.5 -29t-46.5 -27.5l-31 147q47 33 88 49.5t94 16.5q60 0 147.5 -30t125.5 -30q45 0 104.5 31t67.5 33zM358 -20q-154 0 -238 83.5t-63 231.5q23 175 158.5 259t409.5 95l153 10l8 66
q11 90 -33.5 140t-136.5 50q-158 0 -266 -157l-194 30q69 134 198 211.5t297 77.5q215 0 305.5 -88t67.5 -248l-100 -741h-207l2 164q-135 -184 -361 -184zM461 150q92 0 177 61.5t97 138.5l23 174l-127 -6q-155 -10 -238 -53t-96 -148q-12 -77 35 -122t129 -45z" />
    <glyph glyph-name="adieresis" unicode="&#xe4;" horiz-adv-x="1140" 
d="M649 1481l-35 -244h-225l33 244h227zM1001 1481l-34 -244h-226l35 244h225zM358 -20q-154 0 -238 83.5t-63 231.5q23 175 158.5 259t409.5 95l153 10l8 66q11 90 -33.5 140t-136.5 50q-158 0 -266 -157l-194 30q69 134 198 211.5t297 77.5q215 0 305.5 -88t67.5 -248
l-100 -741h-207l2 164q-135 -184 -361 -184zM461 150q92 0 177 61.5t97 138.5l23 174l-127 -6q-155 -10 -238 -53t-96 -148q-12 -77 35 -122t129 -45z" />
    <glyph glyph-name="aring" unicode="&#xe5;" horiz-adv-x="1140" 
d="M909 1372q-12 -87 -78 -145t-153 -58q-93 0 -148.5 68t-42.5 166q12 84 79 140t151 56q92 0 148 -66t44 -161zM801 1397q6 42 -16.5 67t-63.5 25q-46 0 -85.5 -34.5t-45.5 -84.5q-4 -37 20.5 -64.5t61.5 -27.5q46 0 83.5 36t45.5 83zM358 -20q-154 0 -238 83.5t-63 231.5
q23 175 158.5 259t409.5 95l153 10l8 66q11 90 -33.5 140t-136.5 50q-158 0 -266 -157l-194 30q69 134 198 211.5t297 77.5q215 0 305.5 -88t67.5 -248l-100 -741h-207l2 164q-135 -184 -361 -184zM461 150q92 0 177 61.5t97 138.5l23 174l-127 -6q-155 -10 -238 -53
t-96 -148q-12 -77 35 -122t129 -45z" />
    <glyph glyph-name="ae" unicode="&#xe6;" horiz-adv-x="1863" 
d="M1008 479q-14 -135 53.5 -229t179.5 -94q94 0 161.5 41t139.5 120l170 -84q-103 -133 -225 -193t-281 -60q-249 0 -379 206q-5 2 -12 -5.5t-8 -16.5q-98 -86 -203.5 -135t-247.5 -49q-161 0 -239.5 85t-59.5 228q46 312 561 346l166 12l13 76q16 93 -33.5 140.5
t-138.5 47.5q-140 0 -254 -157l-221 61q79 130 196.5 194t298.5 64q273 -3 336 -153q141 153 354 153q109 0 196 -40t144.5 -114.5t79 -188.5t0.5 -255h-747zM1333 918q-111 0 -197 -82.5t-104 -217.5h518q12 121 -50.5 210.5t-166.5 89.5zM766 512l-129 -10
q-137 -11 -230.5 -69t-105.5 -152q-9 -66 30 -104.5t122 -35.5q106 3 192 62.5t96 138.5z" />
    <glyph glyph-name="ccedilla" unicode="&#xe7;" horiz-adv-x="1118" 
d="M543 150q42 0 77.5 14.5t65 45.5t50.5 59.5t48 74.5l201 -43q-52 -126 -160.5 -213t-253.5 -104l-45 -95q96 -4 135.5 -53.5t30.5 -116.5q-10 -69 -79 -109t-162 -40q-138 0 -213 72l36 63q76 -39 140 -39q53 0 86.5 22.5t38.5 59.5q6 38 -27 55.5t-119 18.5
q-30 0 -24 22l80 140q-192 20 -292.5 167.5t-70.5 372.5q34 245 195.5 399t380.5 154q86 0 156.5 -26.5t116 -72t72.5 -102.5t35 -122l-219 -43q-41 103 -61 133q-43 63 -119 63q-120 0 -205.5 -105t-107.5 -274q-23 -171 34.5 -274.5t178.5 -103.5z" />
    <glyph glyph-name="egrave" unicode="&#xe8;" horiz-adv-x="1159" 
d="M485 1505l473 -215l-53 -106l-497 149zM326 459q-19 -138 39.5 -223.5t183.5 -85.5q170 0 262 149l190 -51q-75 -131 -198 -199.5t-275 -68.5q-229 0 -353 145t-91 391q34 248 191 404.5t384 156.5q225 0 332.5 -149t73.5 -391l-12 -78h-727zM350 629h492
q18 130 -34 209.5t-171 79.5q-123 0 -197.5 -83.5t-89.5 -205.5z" />
    <glyph glyph-name="eacute" unicode="&#xe9;" horiz-adv-x="1159" 
d="M940 1507l37 -178l-531 -147l-28 118zM326 459q-19 -138 39.5 -223.5t183.5 -85.5q170 0 262 149l190 -51q-75 -131 -198 -199.5t-275 -68.5q-229 0 -353 145t-91 391q34 248 191 404.5t384 156.5q225 0 332.5 -149t73.5 -391l-12 -78h-727zM350 629h492
q18 130 -34 209.5t-171 79.5q-123 0 -197.5 -83.5t-89.5 -205.5z" />
    <glyph glyph-name="ecircumflex" unicode="&#xea;" horiz-adv-x="1159" 
d="M827 1233l-116 147l-170 -147h-207l291 258h170l221 -258h-189zM326 459q-19 -138 39.5 -223.5t183.5 -85.5q170 0 262 149l190 -51q-75 -131 -198 -199.5t-275 -68.5q-229 0 -353 145t-91 391q34 248 191 404.5t384 156.5q225 0 332.5 -149t73.5 -391l-12 -78h-727z
M350 629h492q18 130 -34 209.5t-171 79.5q-123 0 -197.5 -83.5t-89.5 -205.5z" />
    <glyph glyph-name="edieresis" unicode="&#xeb;" horiz-adv-x="1159" 
d="M657 1481l-34 -244h-226l35 244h225zM1010 1481l-33 -244h-227l34 244h226zM326 459q-19 -138 39.5 -223.5t183.5 -85.5q170 0 262 149l190 -51q-75 -131 -198 -199.5t-275 -68.5q-229 0 -353 145t-91 391q34 248 191 404.5t384 156.5q225 0 332.5 -149t73.5 -391
l-12 -78h-727zM350 629h492q18 130 -34 209.5t-171 79.5q-123 0 -197.5 -83.5t-89.5 -205.5z" />
    <glyph glyph-name="igrave" unicode="&#xec;" horiz-adv-x="528" 
d="M162 1505l475 -215l-53 -106l-500 149zM455 1057l-148 -1057h-248l146 1057h250z" />
    <glyph glyph-name="iacute" unicode="&#xed;" horiz-adv-x="522" 
d="M618 1507l39 -178l-530 -147l-29 118zM457 1057l-146 -1057h-248l146 1057h248z" />
    <glyph glyph-name="icircumflex" unicode="&#xee;" horiz-adv-x="522" 
d="M514 1233l-115 147l-170 -147h-206l290 258h170l222 -258h-191zM465 1057l-146 -1057h-247l145 1057h248z" />
    <glyph glyph-name="idieresis" unicode="&#xef;" horiz-adv-x="534" 
d="M342 1481l-35 -244h-225l33 244h227zM694 1481l-35 -244h-225l35 244h225zM461 1057l-146 -1057h-247l145 1057h248z" />
    <glyph glyph-name="eth" unicode="&#xf0;" horiz-adv-x="1185" 
d="M1104 524q-34 -248 -191.5 -396t-388.5 -148q-229 0 -352.5 151.5t-91.5 384.5q31 228 191 375t374 147q104 0 162 -49q-60 146 -186 246l-289 -164l-51 94l251 131q-78 47 -200 105l139 96q135 -35 250 -104l203 116l43 -100l-154 -78q180 -140 252.5 -347.5
t38.5 -459.5zM532 152q123 0 210.5 101.5t109.5 268.5q22 160 -33 254t-170 94q-122 0 -210 -103t-111 -271q-20 -159 34 -251.5t170 -92.5z" />
    <glyph glyph-name="ntilde" unicode="&#xf1;" horiz-adv-x="1187" 
d="M1063 1321q-92 -49 -191 -49q-59 0 -139 27.5t-123 27.5q-34 0 -58.5 -8.5t-56.5 -29t-46 -27.5l-33 147q49 33 90 49.5t94 16.5q59 0 146 -30t126 -30q45 0 103 30.5t69 33.5zM70 0l145 1057h242l-25 -183q100 103 192.5 153t196.5 50q145 0 217 -84t52 -225l-105 -768
h-248l99 725q11 78 -29.5 123t-122.5 45q-136 0 -264 -137l-103 -756h-247z" />
    <glyph glyph-name="ograve" unicode="&#xf2;" horiz-adv-x="1157" 
d="M485 1505l473 -215l-53 -106l-497 149zM502 -20q-225 0 -339.5 150.5t-80.5 391.5q32 247 191 401t382 154q227 0 341 -154t81 -399q-33 -241 -190.5 -392.5t-384.5 -151.5zM530 147q84 0 149 57.5t100.5 141.5t49.5 186q12 73 5.5 141.5t-27 121t-65.5 84.5t-109 32
q-85 0 -151 -56t-102 -138.5t-50 -184.5q-13 -72 -5.5 -141.5t28 -123.5t66.5 -87t111 -33z" />
    <glyph glyph-name="oacute" unicode="&#xf3;" horiz-adv-x="1157" 
d="M938 1507l39 -178l-531 -147l-28 118zM502 -20q-225 0 -339.5 150.5t-80.5 391.5q32 247 191 401t382 154q227 0 341 -154t81 -399q-33 -241 -190.5 -392.5t-384.5 -151.5zM530 147q84 0 149 57.5t100.5 141.5t49.5 186q12 73 5.5 141.5t-27 121t-65.5 84.5t-109 32
q-85 0 -151 -56t-102 -138.5t-50 -184.5q-13 -72 -5.5 -141.5t28 -123.5t66.5 -87t111 -33z" />
    <glyph glyph-name="ocircumflex" unicode="&#xf4;" horiz-adv-x="1157" 
d="M827 1233l-116 147l-170 -147h-207l291 258h170l221 -258h-189zM502 -20q-225 0 -339.5 150.5t-80.5 391.5q32 247 191 401t382 154q227 0 341 -154t81 -399q-33 -241 -190.5 -392.5t-384.5 -151.5zM530 147q84 0 149 57.5t100.5 141.5t49.5 186q12 73 5.5 141.5t-27 121
t-65.5 84.5t-109 32q-85 0 -151 -56t-102 -138.5t-50 -184.5q-13 -72 -5.5 -141.5t28 -123.5t66.5 -87t111 -33z" />
    <glyph glyph-name="otilde" unicode="&#xf5;" horiz-adv-x="1157" 
d="M1032 1321q-92 -49 -188 -49q-59 0 -140 27.5t-124 27.5q-34 0 -57.5 -8t-57.5 -29.5t-45 -27.5l-33 147q47 33 88 49.5t94 16.5q60 0 148.5 -30t126.5 -30q44 0 102.5 30.5t69.5 33.5zM502 -20q-225 0 -339.5 150.5t-80.5 391.5q32 247 191 401t382 154q227 0 341 -154
t81 -399q-33 -241 -190.5 -392.5t-384.5 -151.5zM530 147q84 0 149 57.5t100.5 141.5t49.5 186q12 73 5.5 141.5t-27 121t-65.5 84.5t-109 32q-85 0 -151 -56t-102 -138.5t-50 -184.5q-13 -72 -5.5 -141.5t28 -123.5t66.5 -87t111 -33z" />
    <glyph glyph-name="odieresis" unicode="&#xf6;" horiz-adv-x="1157" 
d="M657 1481l-34 -244h-226l35 244h225zM1010 1481l-33 -244h-227l34 244h226zM502 -20q-225 0 -339.5 150.5t-80.5 391.5q32 247 191 401t382 154q227 0 341 -154t81 -399q-33 -241 -190.5 -392.5t-384.5 -151.5zM530 147q84 0 149 57.5t100.5 141.5t49.5 186
q12 73 5.5 141.5t-27 121t-65.5 84.5t-109 32q-85 0 -151 -56t-102 -138.5t-50 -184.5q-13 -72 -5.5 -141.5t28 -123.5t66.5 -87t111 -33z" />
    <glyph glyph-name="divide" unicode="&#xf7;" horiz-adv-x="1161" 
d="M815 1262l-37 -269h-274l37 269h274zM1075 838l-28 -187h-908l25 187h911zM711 494l-39 -267h-275l39 267h275z" />
    <glyph glyph-name="oslash" unicode="&#xf8;" horiz-adv-x="1202" 
d="M1202 965l-160 -138q51 -132 27 -303q-33 -241 -190.5 -392.5t-384.5 -151.5q-194 0 -304 110l-120 -104l-84 104l127 109q-66 135 -39 323q34 248 193 401.5t382 153.5q211 0 324 -135l145 125zM324 532q-12 -76 -5 -153l482 414q-51 118 -176 118q-85 0 -150.5 -56
t-101 -138.5t-49.5 -184.5zM823 532q9 56 6 111l-469 -405q55 -91 162 -91q84 0 149.5 57.5t101.5 141.5t50 186z" />
    <glyph glyph-name="ugrave" unicode="&#xf9;" horiz-adv-x="1185" 
d="M481 1505l475 -215l-53 -106l-500 149zM399 -20q-143 2 -225.5 88t-62.5 229l104 762h248l-101 -727q-12 -82 26.5 -129t125.5 -47q75 0 133 35t127 110l105 758h249l-149 -1059h-188l-5 172q-189 -192 -387 -192z" />
    <glyph glyph-name="uacute" unicode="&#xfa;" horiz-adv-x="1185" 
d="M936 1507l39 -178l-531 -147l-28 118zM399 -20q-143 2 -225.5 88t-62.5 229l104 762h248l-101 -727q-12 -82 26.5 -129t125.5 -47q75 0 133 35t127 110l105 758h249l-149 -1059h-188l-5 172q-189 -192 -387 -192z" />
    <glyph glyph-name="ucircumflex" unicode="&#xfb;" horiz-adv-x="1185" 
d="M825 1233l-116 147l-170 -147h-205l291 258h170l219 -258h-189zM399 -20q-143 2 -225.5 88t-62.5 229l104 762h248l-101 -727q-12 -82 26.5 -129t125.5 -47q75 0 133 35t127 110l105 758h249l-149 -1059h-188l-5 172q-189 -192 -387 -192z" />
    <glyph glyph-name="udieresis" unicode="&#xfc;" horiz-adv-x="1185" 
d="M655 1481l-34 -244h-226l33 244h227zM1008 1481l-35 -244h-225l34 244h226zM399 -20q-143 2 -225.5 88t-62.5 229l104 762h248l-101 -727q-12 -82 26.5 -129t125.5 -47q75 0 133 35t127 110l105 758h249l-149 -1059h-188l-5 172q-189 -192 -387 -192z" />
    <glyph glyph-name="yacute" unicode="&#xfd;" horiz-adv-x="1112" 
d="M938 1507l39 -178l-533 -147l-26 118zM162 -338q-60 0 -104 8t-58 16l-14 7l22 162l105 -5q47 -2 85.5 5t60.5 17.5t40 28.5t25.5 29.5t15.5 28.5l37 76l-264 1022h247l170 -746l375 746h242l-576 -1096q-93 -170 -188.5 -234.5t-220.5 -64.5z" />
    <glyph glyph-name="thorn" unicode="&#xfe;" horiz-adv-x="1200" 
d="M27 -330l247 1811h248l-76 -543q41 33 60 47t65 41t96 39t109 12q90 0 160.5 -34t119 -103t65.5 -172.5t-1 -241.5q-37 -267 -169.5 -406.5t-323.5 -139.5q-172 0 -293 143l-60 -453h-247zM541 143q260 0 331 414q26 187 -27.5 271.5t-166.5 84.5q-97 0 -173.5 -62
t-86.5 -132l-68 -469q35 -46 87.5 -76.5t103.5 -30.5z" />
    <glyph glyph-name="ydieresis" unicode="&#xff;" horiz-adv-x="1112" 
d="M655 1481l-34 -244h-226l35 244h225zM1008 1481l-33 -244h-225l32 244h226zM162 -338q-60 0 -104 8t-58 16l-14 7l22 162l105 -5q47 -2 85.5 5t60.5 17.5t40 28.5t25.5 29.5t15.5 28.5l37 76l-264 1022h247l170 -746l375 746h242l-576 -1096q-93 -170 -188.5 -234.5
t-220.5 -64.5z" />
    <glyph glyph-name="Amacron" unicode="&#x100;" horiz-adv-x="1435" 
d="M1249 1886l-24 -166h-658l21 166h661zM-8 0l723 1481h266l315 -1481h-247l-76 371h-549l-184 -371h-248zM510 594h432l-127 643z" />
    <glyph glyph-name="amacron" unicode="&#x101;" horiz-adv-x="1140" 
d="M1038 1462l-22 -166h-660l23 166h659zM358 -20q-154 0 -238 83.5t-63 231.5q23 175 158.5 259t409.5 95l153 10l8 66q11 90 -33.5 140t-136.5 50q-158 0 -266 -157l-194 30q69 134 198 211.5t297 77.5q215 0 305.5 -88t67.5 -248l-100 -741h-207l2 164
q-135 -184 -361 -184zM461 150q92 0 177 61.5t97 138.5l23 174l-127 -6q-155 -10 -238 -53t-96 -148q-12 -77 35 -122t129 -45z" />
    <glyph glyph-name="Abreve" unicode="&#x102;" horiz-adv-x="1435" 
d="M1249 1905q-47 -110 -145.5 -178t-222.5 -68q-130 0 -209.5 62.5t-91.5 183.5h143q32 -51 70 -82t96 -31q59 0 109 31.5t83 81.5h168zM-8 0l723 1481h266l315 -1481h-247l-76 371h-549l-184 -371h-248zM510 594h432l-127 643z" />
    <glyph glyph-name="abreve" unicode="&#x103;" horiz-adv-x="1140" 
d="M1038 1481q-47 -110 -146 -178t-222 -68q-130 0 -209.5 62.5t-91.5 183.5h143q32 -51 70 -82t96 -31t107.5 31t84.5 82h168zM358 -20q-154 0 -238 83.5t-63 231.5q23 175 158.5 259t409.5 95l153 10l8 66q11 90 -33.5 140t-136.5 50q-158 0 -266 -157l-194 30
q69 134 198 211.5t297 77.5q215 0 305.5 -88t67.5 -248l-100 -741h-207l2 164q-135 -184 -361 -184zM461 150q92 0 177 61.5t97 138.5l23 174l-127 -6q-155 -10 -238 -53t-96 -148q-12 -77 35 -122t129 -45z" />
    <glyph glyph-name="Aogonek" unicode="&#x104;" horiz-adv-x="1435" 
d="M1178 -227q14 0 27.5 1.5t27 5t23 6t23 8.5t19 8.5t19 9.5t16.5 8l-18 -133q-95 -31 -195 -31q-103 0 -155 47.5t-41 130.5q7 52 44.5 92.5t125.5 73.5h-45l-76 371h-549l-184 -371h-248l723 1481h266l313 -1475l29 -2q-109 -41 -158 -80t-55 -88q-3 -32 13 -47.5
t55 -15.5zM510 594h432l-127 643z" />
    <glyph glyph-name="aogonek" unicode="&#x105;" horiz-adv-x="1150" 
d="M651 1077q215 0 305.5 -88t67.5 -248l-98 -733h4q-1 0 -3 -1t-3 -1v-6h-15q-96 -38 -140.5 -76t-49.5 -84q-5 -31 11 -47t54 -16q17 0 34 2.5t28.5 5t29 9.5t22.5 9.5l23 11.5t19 9l-16 -133q-100 -31 -195 -31q-104 0 -156.5 47.5t-40.5 130.5q8 56 48 96.5t137 75.5
l2 154q-135 -184 -361 -184q-154 0 -238 83.5t-63 231.5q23 175 158.5 259t409.5 95l153 10l8 66q11 90 -33.5 140t-136.5 50q-158 0 -266 -157l-194 30q69 134 198 211.5t297 77.5zM461 150q92 0 177 61.5t97 138.5l23 174l-127 -6q-155 -10 -238 -53t-96 -148
q-12 -77 35 -122t129 -45z" />
    <glyph glyph-name="Cacute" unicode="&#x106;" horiz-adv-x="1429" 
d="M1159 1931l39 -178l-532 -147l-27 118zM883 1501q238 0 378 -132.5t134 -336.5l-254 -20q-3 128 -73.5 204t-203.5 76q-174 0 -290.5 -136t-155.5 -413q-36 -276 43.5 -415.5t257.5 -139.5q120 0 212 77.5t136 205.5l246 -27q-27 -101 -78 -183.5t-128 -146.5t-185.5 -99
t-239.5 -35q-197 0 -328.5 95t-184 268t-22.5 405q47 350 243.5 551.5t492.5 201.5z" />
    <glyph glyph-name="cacute" unicode="&#x107;" horiz-adv-x="1118" 
d="M938 1507l39 -178l-533 -147l-26 118zM662 1077q86 0 156.5 -26.5t116 -72t72.5 -102.5t35 -122l-219 -43q-41 103 -61 133q-43 63 -119 63q-120 0 -205.5 -105t-107.5 -274q-23 -171 34.5 -274.5t178.5 -103.5q42 0 77.5 14.5t65 45.5t50.5 59.5t48 74.5l201 -43
q-57 -140 -183.5 -230.5t-293.5 -90.5q-143 0 -247 67.5t-150.5 192t-24.5 284.5q34 245 195.5 399t380.5 154z" />
    <glyph glyph-name="Ccircumflex" unicode="&#x108;" horiz-adv-x="1429" 
d="M1047 1657l-117 147l-170 -147h-205l291 258h170l219 -258h-188zM883 1501q238 0 378 -132.5t134 -336.5l-254 -20q-3 128 -73.5 204t-203.5 76q-174 0 -290.5 -136t-155.5 -413q-36 -276 43.5 -415.5t257.5 -139.5q120 0 212 77.5t136 205.5l246 -27
q-27 -101 -78 -183.5t-128 -146.5t-185.5 -99t-239.5 -35q-197 0 -328.5 95t-184 268t-22.5 405q47 350 243.5 551.5t492.5 201.5z" />
    <glyph glyph-name="ccircumflex" unicode="&#x109;" horiz-adv-x="1118" 
d="M825 1233l-116 147l-170 -147h-205l291 258h170l219 -258h-189zM662 1077q86 0 156.5 -26.5t116 -72t72.5 -102.5t35 -122l-219 -43q-41 103 -61 133q-43 63 -119 63q-120 0 -205.5 -105t-107.5 -274q-23 -171 34.5 -274.5t178.5 -103.5q42 0 77.5 14.5t65 45.5
t50.5 59.5t48 74.5l201 -43q-57 -140 -183.5 -230.5t-293.5 -90.5q-143 0 -247 67.5t-150.5 192t-24.5 284.5q34 245 195.5 399t380.5 154z" />
    <glyph glyph-name="Cdotaccent" unicode="&#x10a;" horiz-adv-x="1429" 
d="M1069 1905l-37 -271h-256l37 271h256zM883 1501q238 0 378 -132.5t134 -336.5l-254 -20q-3 128 -73.5 204t-203.5 76q-174 0 -290.5 -136t-155.5 -413q-36 -276 43.5 -415.5t257.5 -139.5q120 0 212 77.5t136 205.5l246 -27q-27 -101 -78 -183.5t-128 -146.5t-185.5 -99
t-239.5 -35q-197 0 -328.5 95t-184 268t-22.5 405q47 350 243.5 551.5t492.5 201.5z" />
    <glyph glyph-name="cdotaccent" unicode="&#x10b;" horiz-adv-x="1118" 
d="M848 1481l-37 -271h-256l37 271h256zM662 1077q86 0 156.5 -26.5t116 -72t72.5 -102.5t35 -122l-219 -43q-41 103 -61 133q-43 63 -119 63q-120 0 -205.5 -105t-107.5 -274q-23 -171 34.5 -274.5t178.5 -103.5q42 0 77.5 14.5t65 45.5t50.5 59.5t48 74.5l201 -43
q-57 -140 -183.5 -230.5t-293.5 -90.5q-143 0 -247 67.5t-150.5 192t-24.5 284.5q34 245 195.5 399t380.5 154z" />
    <glyph glyph-name="Ccaron" unicode="&#x10c;" horiz-adv-x="1429" 
d="M1067 1907h221l-289 -260h-170l-227 260h178l129 -148zM883 1501q238 0 378 -132.5t134 -336.5l-254 -20q-3 128 -73.5 204t-203.5 76q-174 0 -290.5 -136t-155.5 -413q-36 -276 43.5 -415.5t257.5 -139.5q120 0 212 77.5t136 205.5l246 -27q-27 -101 -78 -183.5
t-128 -146.5t-185.5 -99t-239.5 -35q-197 0 -328.5 95t-184 268t-22.5 405q47 350 243.5 551.5t492.5 201.5z" />
    <glyph glyph-name="ccaron" unicode="&#x10d;" horiz-adv-x="1118" 
d="M844 1483h223l-289 -260h-170l-227 260h178l129 -148zM662 1077q86 0 156.5 -26.5t116 -72t72.5 -102.5t35 -122l-219 -43q-41 103 -61 133q-43 63 -119 63q-120 0 -205.5 -105t-107.5 -274q-23 -171 34.5 -274.5t178.5 -103.5q42 0 77.5 14.5t65 45.5t50.5 59.5t48 74.5
l201 -43q-57 -140 -183.5 -230.5t-293.5 -90.5q-143 0 -247 67.5t-150.5 192t-24.5 284.5q34 245 195.5 399t380.5 154z" />
    <glyph glyph-name="Dcaron" unicode="&#x10e;" horiz-adv-x="1429" 
d="M1022 1907h223l-289 -260h-170l-227 260h178l129 -148zM313 1481q269 0 392 -2q385 -9 541.5 -195.5t107.5 -538.5q-48 -360 -265 -552.5t-602 -192.5h-376zM537 1274l-146 -1067h129q113 0 206.5 29t170 91t128 167.5t71.5 250.5q37 280 -72.5 404.5t-351.5 124.5h-135z
" />
    <glyph glyph-name="dcaron" unicode="&#x10f;" horiz-adv-x="1267" 
d="M1151 1255h147l-30 -233l-107 -193h-67l-113 -829h-184l-4 170q-22 -31 -52 -60.5t-73.5 -60.5t-102.5 -50t-123 -19q-203 0 -298 142.5t-58 399.5q34 256 166 405.5t332 149.5q188 0 274 -155l82 598h248zM1112 963l37 67l-27 4zM791 420l38 287q-18 104 -67 150
t-127 46q-116 0 -194 -91.5t-103 -283.5q-28 -194 25 -285t165 -91q98 0 173 77t90 191z" />
    <glyph glyph-name="Dcroat" unicode="&#x110;" horiz-adv-x="1427" 
d="M700 1479q387 -9 543 -195.5t109 -538.5q-50 -360 -267 -552.5t-600 -192.5h-379l89 641h-107l25 188h106l90 652q268 0 391 -2zM1094 745q19 143 -1 245.5t-77.5 164.5t-143 90.5t-204.5 28.5h-136l-61 -445h346l-24 -188h-347l-59 -434h129q114 0 207.5 29t170.5 91
t128.5 167.5t71.5 250.5z" />
    <glyph glyph-name="dcroat" unicode="&#x111;" horiz-adv-x="1310" 
d="M1356 1348l-21 -146h-190l-164 -1202h-184l-4 170q-22 -31 -52 -60.5t-73.5 -60.5t-102.5 -50t-123 -19q-203 0 -298 142.5t-58 399.5q34 256 166 405.5t332 149.5q188 0 274 -155l39 280h-213l21 146h210l25 172h248l-23 -172h191zM791 420l38 287q-18 104 -67 150
t-127 46q-116 0 -194 -91.5t-103 -283.5q-28 -194 25 -285t165 -91q98 0 173 77t90 191z" />
    <glyph glyph-name="Emacron" unicode="&#x112;" horiz-adv-x="1284" 
d="M1190 1886l-25 -166h-657l20 166h662zM111 0l202 1481h959l-31 -215h-709l-57 -416h625l-29 -209h-627l-55 -424l723 -2l-29 -215h-972z" />
    <glyph glyph-name="emacron" unicode="&#x113;" horiz-adv-x="1159" 
d="M1049 1462l-25 -166h-659l22 166h662zM326 459q-19 -138 39.5 -223.5t183.5 -85.5q170 0 262 149l190 -51q-75 -131 -198 -199.5t-275 -68.5q-229 0 -353 145t-91 391q34 248 191 404.5t384 156.5q225 0 332.5 -149t73.5 -391l-12 -78h-727zM350 629h492
q18 130 -34 209.5t-171 79.5q-123 0 -197.5 -83.5t-89.5 -205.5z" />
    <glyph glyph-name="Ebreve" unicode="&#x114;" horiz-adv-x="1284" 
d="M1188 1905q-47 -110 -145.5 -178t-223.5 -68q-130 0 -209.5 62.5t-91.5 183.5h144q32 -51 69.5 -82t95.5 -31q59 0 109.5 31.5t83.5 81.5h168zM111 0l202 1481h959l-31 -215h-709l-57 -416h625l-29 -209h-627l-55 -424l723 -2l-29 -215h-972z" />
    <glyph glyph-name="ebreve" unicode="&#x115;" horiz-adv-x="1159" 
d="M1047 1481q-47 -110 -145.5 -178t-223.5 -68q-130 0 -209.5 62.5t-91.5 183.5h143q32 -51 70 -82t96 -31q59 0 109.5 31.5t83.5 81.5h168zM326 459q-19 -138 39.5 -223.5t183.5 -85.5q170 0 262 149l190 -51q-75 -131 -198 -199.5t-275 -68.5q-229 0 -353 145t-91 391
q34 248 191 404.5t384 156.5q225 0 332.5 -149t73.5 -391l-12 -78h-727zM350 629h492q18 130 -34 209.5t-171 79.5q-123 0 -197.5 -83.5t-89.5 -205.5z" />
    <glyph glyph-name="Edotaccent" unicode="&#x116;" horiz-adv-x="1284" 
d="M991 1905l-37 -271h-256l37 271h256zM111 0l202 1481h959l-31 -215h-709l-57 -416h625l-29 -209h-627l-55 -424l723 -2l-29 -215h-972z" />
    <glyph glyph-name="edotaccent" unicode="&#x117;" horiz-adv-x="1159" 
d="M850 1481l-37 -271h-258l39 271h256zM326 459q-19 -138 39.5 -223.5t183.5 -85.5q170 0 262 149l190 -51q-75 -131 -198 -199.5t-275 -68.5q-229 0 -353 145t-91 391q34 248 191 404.5t384 156.5q225 0 332.5 -149t73.5 -391l-12 -78h-727zM350 629h492q18 130 -34 209.5
t-171 79.5q-123 0 -197.5 -83.5t-89.5 -205.5z" />
    <glyph glyph-name="Eogonek" unicode="&#x118;" horiz-adv-x="1284" 
d="M1241 1266h-709l-57 -416h625l-29 -209h-627l-55 -424l723 -2l-29 -209l21 -2q-109 -41 -158 -80t-53 -88q-5 -32 10.5 -47.5t54.5 -15.5q17 0 34 2.5t28.5 5t29 9.5t22.5 9.5l23 11.5t19 9l-18 -133q-95 -31 -195 -31q-103 0 -154.5 47.5t-39.5 130.5q7 52 44.5 92.5
t125.5 73.5h-766l202 1481h959z" />
    <glyph glyph-name="eogonek" unicode="&#x119;" horiz-adv-x="1159" 
d="M659 1077q225 0 332.5 -149t73.5 -391l-12 -78h-727q-19 -138 39.5 -223.5t183.5 -85.5q170 0 262 149l190 -51q-88 -152 -237 -219l14 -2q-109 -40 -158 -78t-55 -88q-3 -33 12.5 -48.5t53.5 -15.5q14 0 28 1.5t28 5t23.5 6t23 8.5t19 8.5t19.5 9.5l16 8l-18 -133
q-92 -30 -195 -30q-104 0 -155.5 47t-40.5 131q10 77 84 125q-200 21 -304.5 163t-74.5 369q34 248 191 404.5t384 156.5zM842 629q18 130 -34 209.5t-171 79.5q-123 0 -197.5 -83.5t-89.5 -205.5h492z" />
    <glyph glyph-name="Ecaron" unicode="&#x11a;" horiz-adv-x="1284" 
d="M987 1907h223l-288 -260h-170l-228 260h178l129 -148zM111 0l202 1481h959l-31 -215h-709l-57 -416h625l-29 -209h-627l-55 -424l723 -2l-29 -215h-972z" />
    <glyph glyph-name="ecaron" unicode="&#x11b;" horiz-adv-x="1159" 
d="M846 1483h221l-287 -260h-170l-227 260h176l131 -148zM326 459q-19 -138 39.5 -223.5t183.5 -85.5q170 0 262 149l190 -51q-75 -131 -198 -199.5t-275 -68.5q-229 0 -353 145t-91 391q34 248 191 404.5t384 156.5q225 0 332.5 -149t73.5 -391l-12 -78h-727zM350 629h492
q18 130 -34 209.5t-171 79.5q-123 0 -197.5 -83.5t-89.5 -205.5z" />
    <glyph glyph-name="Gcircumflex" unicode="&#x11c;" horiz-adv-x="1515" 
d="M1044 1657l-116 147l-170 -147h-207l291 258h170l221 -258h-189zM676 -20q-291 0 -434 204t-97 551q49 353 254 559.5t498 206.5q117 0 214 -38.5t160 -102.5t98.5 -144.5t37.5 -168.5l-268 -39q-9 126 -80.5 202t-194.5 76q-172 0 -292.5 -137t-157.5 -404
q-17 -149 -3.5 -252.5t59 -168.5t108.5 -94t145 -29q72 0 134.5 24.5t106 66.5t73 90.5t44.5 102.5l25 109h-322l27 176l578 -2l-107 -768h-172l27 209q-179 -229 -461 -229z" />
    <glyph glyph-name="gcircumflex" unicode="&#x11d;" horiz-adv-x="1232" 
d="M848 1233l-115 147l-170 -147h-207l291 258h170l221 -258h-190zM469 -350q-262 0 -391.5 72.5t-114.5 195.5q19 126 213 203q28 9 2 22q-95 53 -84 136q8 56 65 99.5t156 61.5q-187 103 -161 301q14 104 86.5 180t184 114t247.5 38q98 0 163 -21t119 -61q11 -8 62 17
q25 9 115.5 45t132.5 51l-29 -203l-141 -20q-30 -6 -37.5 -15t-1.5 -28q12 -54 6 -97q-20 -143 -152 -242.5t-348 -99.5q-38 0 -84 4q-137 -5 -145 -57q0 -9 3.5 -16t14 -12t22.5 -8.5t36 -6.5t45.5 -5t58.5 -5q95 -4 217 -12q179 -12 258.5 -90.5t63.5 -204.5
q-22 -154 -174 -245t-408 -91zM590 545q101 0 162 50t73 140q14 92 -34.5 146.5t-147.5 54.5t-164.5 -55.5t-77.5 -145.5q-12 -88 38 -139t151 -51zM530 -203q135 0 201 35.5t74 108.5q9 58 -28.5 91.5t-125.5 39.5l-252 18q-66 3 -122.5 -40t-65.5 -103
q-10 -77 69.5 -113.5t249.5 -36.5z" />
    <glyph glyph-name="Gbreve" unicode="&#x11e;" horiz-adv-x="1515" 
d="M1264 1905q-47 -110 -145.5 -178t-223.5 -68q-130 0 -209.5 62.5t-91.5 183.5h143q32 -51 70 -82t96 -31q59 0 109.5 31.5t83.5 81.5h168zM676 -20q-291 0 -434 204t-97 551q49 353 254 559.5t498 206.5q117 0 214 -38.5t160 -102.5t98.5 -144.5t37.5 -168.5l-268 -39
q-9 126 -80.5 202t-194.5 76q-172 0 -292.5 -137t-157.5 -404q-17 -149 -3.5 -252.5t59 -168.5t108.5 -94t145 -29q72 0 134.5 24.5t106 66.5t73 90.5t44.5 102.5l25 109h-322l27 176l578 -2l-107 -768h-172l27 209q-179 -229 -461 -229z" />
    <glyph glyph-name="gbreve" unicode="&#x11f;" horiz-adv-x="1232" 
d="M1069 1481q-47 -110 -146.5 -178t-222.5 -68q-130 0 -209.5 62.5t-91.5 183.5h144q32 -51 70 -82t96 -31t107.5 31t84.5 82h168zM469 -350q-262 0 -391.5 72.5t-114.5 195.5q19 126 213 203q28 9 2 22q-95 53 -84 136q8 56 65 99.5t156 61.5q-187 103 -161 301
q14 104 86.5 180t184 114t247.5 38q98 0 163 -21t119 -61q11 -8 62 17q25 9 115.5 45t132.5 51l-29 -203l-141 -20q-30 -6 -37.5 -15t-1.5 -28q12 -54 6 -97q-20 -143 -152 -242.5t-348 -99.5q-38 0 -84 4q-137 -5 -145 -57q0 -9 3.5 -16t14 -12t22.5 -8.5t36 -6.5t45.5 -5
t58.5 -5q95 -4 217 -12q179 -12 258.5 -90.5t63.5 -204.5q-22 -154 -174 -245t-408 -91zM590 545q101 0 162 50t73 140q14 92 -34.5 146.5t-147.5 54.5t-164.5 -55.5t-77.5 -145.5q-12 -88 38 -139t151 -51zM530 -203q135 0 201 35.5t74 108.5q9 58 -28.5 91.5t-125.5 39.5
l-252 18q-66 3 -122.5 -40t-65.5 -103q-10 -77 69.5 -113.5t249.5 -36.5z" />
    <glyph glyph-name="Gdotaccent" unicode="&#x120;" horiz-adv-x="1515" 
d="M1067 1905l-37 -271h-258l39 271h256zM676 -20q-291 0 -434 204t-97 551q49 353 254 559.5t498 206.5q117 0 214 -38.5t160 -102.5t98.5 -144.5t37.5 -168.5l-268 -39q-9 126 -80.5 202t-194.5 76q-172 0 -292.5 -137t-157.5 -404q-17 -149 -3.5 -252.5t59 -168.5
t108.5 -94t145 -29q72 0 134.5 24.5t106 66.5t73 90.5t44.5 102.5l25 109h-322l27 176l578 -2l-107 -768h-172l27 209q-179 -229 -461 -229z" />
    <glyph glyph-name="gdotaccent" unicode="&#x121;" horiz-adv-x="1232" 
d="M872 1481l-36 -271h-258l36 271h258zM469 -350q-262 0 -391.5 72.5t-114.5 195.5q19 126 213 203q28 9 2 22q-95 53 -84 136q8 56 65 99.5t156 61.5q-187 103 -161 301q14 104 86.5 180t184 114t247.5 38q98 0 163 -21t119 -61q11 -8 62 17q25 9 115.5 45t132.5 51
l-29 -203l-141 -20q-30 -6 -37.5 -15t-1.5 -28q12 -54 6 -97q-20 -143 -152 -242.5t-348 -99.5q-38 0 -84 4q-137 -5 -145 -57q0 -9 3.5 -16t14 -12t22.5 -8.5t36 -6.5t45.5 -5t58.5 -5q95 -4 217 -12q179 -12 258.5 -90.5t63.5 -204.5q-22 -154 -174 -245t-408 -91z
M590 545q101 0 162 50t73 140q14 92 -34.5 146.5t-147.5 54.5t-164.5 -55.5t-77.5 -145.5q-12 -88 38 -139t151 -51zM530 -203q135 0 201 35.5t74 108.5q9 58 -28.5 91.5t-125.5 39.5l-252 18q-66 3 -122.5 -40t-65.5 -103q-10 -77 69.5 -113.5t249.5 -36.5z" />
    <glyph glyph-name="uni0122" unicode="&#x122;" horiz-adv-x="1515" 
d="M676 -20q-291 0 -434 204t-97 551q49 353 254 559.5t498 206.5q117 0 214 -38.5t160 -102.5t98.5 -144.5t37.5 -168.5l-268 -39q-9 126 -80.5 202t-194.5 76q-172 0 -292.5 -137t-157.5 -404q-17 -149 -3.5 -252.5t59 -168.5t108.5 -94t145 -29q72 0 134.5 24.5t106 66.5
t73 90.5t44.5 102.5l25 109h-322l27 176l578 -2l-107 -768h-172l27 209q-179 -229 -461 -229zM512 -481l125 166h-94l26 186h189l-27 -197l-135 -155h-84z" />
    <glyph glyph-name="uni0123" unicode="&#x123;" horiz-adv-x="1232" 
d="M653 1227l27 196l135 156h84l-125 -166h94l-28 -186h-187zM469 -350q-262 0 -391.5 72.5t-114.5 195.5q19 126 213 203q28 9 2 22q-95 53 -84 136q8 56 65 99.5t156 61.5q-187 103 -161 301q14 104 86.5 180t184 114t247.5 38q98 0 163 -21t119 -61q11 -8 62 17
q25 9 115.5 45t132.5 51l-29 -203l-141 -20q-30 -6 -37.5 -15t-1.5 -28q12 -54 6 -97q-20 -143 -152 -242.5t-348 -99.5q-38 0 -84 4q-137 -5 -145 -57q0 -9 3.5 -16t14 -12t22.5 -8.5t36 -6.5t45.5 -5t58.5 -5q95 -4 217 -12q179 -12 258.5 -90.5t63.5 -204.5
q-22 -154 -174 -245t-408 -91zM590 545q101 0 162 50t73 140q14 92 -34.5 146.5t-147.5 54.5t-164.5 -55.5t-77.5 -145.5q-12 -88 38 -139t151 -51zM530 -203q135 0 201 35.5t74 108.5q9 58 -28.5 91.5t-125.5 39.5l-252 18q-66 3 -122.5 -40t-65.5 -103
q-10 -77 69.5 -113.5t249.5 -36.5z" />
    <glyph glyph-name="Hcircumflex" unicode="&#x124;" horiz-adv-x="1460" 
d="M1024 1657l-117 147l-170 -147h-205l291 258h170l219 -258h-188zM1047 655h-601l-88 -655h-247l202 1481h246l-82 -611h602l82 611h250l-205 -1481h-248z" />
    <glyph glyph-name="hcircumflex" unicode="&#x125;" horiz-adv-x="1189" 
d="M72 0l209 1520h241l-90 -648q194 205 391 205q150 0 218.5 -82t48.5 -231l-105 -764h-248l101 725q11 79 -25.5 123.5t-118.5 44.5q-68 0 -128 -32.5t-144 -106.5l-103 -754h-247zM1026 1233l-117 147l-170 -147h-204l288 258h172l219 -258h-188z" />
    <glyph glyph-name="Hbar" unicode="&#x126;" horiz-adv-x="1511" 
d="M1589 1276l-20 -148h-246l-156 -1128h-247l90 655h-600l-91 -655h-247l153 1128h-121l17 148h125l28 205h246l-26 -205h602l26 205h250l-29 -205h246zM1040 870l35 258h-602l-35 -258h602z" />
    <glyph glyph-name="hbar" unicode="&#x127;" horiz-adv-x="1163" 
d="M799 1077q151 0 218.5 -82t47.5 -231l-104 -764h-248l100 725q11 80 -24.5 124t-116.5 44q-69 0 -130.5 -33t-144.5 -106l-102 -754h-248l166 1202h-76l21 146h73l25 172h242l-25 -172h336l-21 -146h-335l-45 -330q194 205 391 205z" />
    <glyph glyph-name="Itilde" unicode="&#x128;" horiz-adv-x="606" 
d="M813 1745q-92 -49 -190 -49q-59 0 -139.5 27.5t-123.5 27.5q-34 0 -58.5 -8.5t-56.5 -29t-46 -27.5l-33 147q48 32 89 48.5t95 16.5q59 0 146.5 -29.5t126.5 -29.5q45 0 103 30.5t69 33.5zM311 1481h248l-203 -1481h-247z" />
    <glyph glyph-name="itilde" unicode="&#x129;" horiz-adv-x="536" 
d="M719 1321q-92 -49 -189 -49q-59 0 -140 27.5t-124 27.5q-34 0 -57.5 -8t-57.5 -29.5t-45 -27.5l-32 147q47 33 88 49.5t94 16.5q60 0 148 -30t126 -30q44 0 102.5 30.5t69.5 33.5zM465 1057l-148 -1057h-247l145 1057h250z" />
    <glyph glyph-name="Imacron" unicode="&#x12a;" horiz-adv-x="600" 
d="M825 1886l-24 -166h-660l23 166h661zM309 1481h248l-203 -1481h-248z" />
    <glyph glyph-name="imacron" unicode="&#x12b;" horiz-adv-x="528" 
d="M731 1462l-24 -166h-660l23 166h661zM459 1057l-146 -1057h-247l145 1057h248z" />
    <glyph glyph-name="Ibreve" unicode="&#x12c;" horiz-adv-x="618" 
d="M836 1905q-49 -110 -147.5 -178t-221.5 -68q-129 0 -209.5 62t-93.5 184h145q66 -113 164 -113q60 0 110 31t85 82h168zM324 1481h245l-202 -1481h-248z" />
    <glyph glyph-name="ibreve" unicode="&#x12d;" horiz-adv-x="536" 
d="M743 1481q-49 -110 -147 -178t-221 -68q-129 0 -209.5 62t-93.5 184h145q66 -113 164 -113q117 0 194 113h168zM473 1057l-147 -1057h-246l145 1057h248z" />
    <glyph glyph-name="Iogonek" unicode="&#x12e;" horiz-adv-x="600" 
d="M133 -172q-5 -31 11 -46t55 -15q25 0 50.5 5.5t37.5 10t39 17t28 12.5l-18 -134q-92 -30 -195 -30t-154.5 47.5t-39.5 132.5q8 55 48 95.5t138 76.5h-37l203 1481h248l-203 -1481h-51l51 -4q-108 -40 -157 -79t-54 -89z" />
    <glyph glyph-name="iogonek" unicode="&#x12f;" horiz-adv-x="532" 
d="M268 1481h256l-35 -271h-258zM205 1057h248l-146 -1051h2h-2v-6h-14q-100 -40 -145.5 -77.5t-51.5 -84.5q-3 -31 12.5 -47t53.5 -16q14 0 28 1.5t28 5t23.5 6t23 8.5t19 8.5t19.5 9.5l16 8l-18 -133q-95 -31 -195 -31q-104 0 -155.5 47t-40.5 131q7 52 43 91.5t123 72.5
h-17z" />
    <glyph glyph-name="Idotaccent" unicode="&#x130;" horiz-adv-x="610" 
d="M629 1905l-37 -271h-256l37 271h256zM313 1481h246l-201 -1481h-247z" />
    <glyph glyph-name="dotlessi" unicode="&#x131;" horiz-adv-x="538" 
d="M469 1057l-147 -1057h-246l145 1057h248z" />
    <glyph glyph-name="Jcircumflex" unicode="&#x134;" horiz-adv-x="782" 
d="M758 1657l-117 147l-170 -147h-205l291 258h170l219 -258h-188zM616 383q-29 -209 -117 -306t-284 -97q-115 0 -238 38l43 232q6 -2 29 -10t36.5 -12.5t38 -8.5t48.5 -4q98 0 142.5 53.5t62.5 182.5l141 1030h248z" />
    <glyph glyph-name="jcircumflex" unicode="&#x135;" horiz-adv-x="530" 
d="M502 1233l-115 147l-170 -147h-207l291 258h170l221 -258h-190zM336 -25q-24 -165 -106 -240t-250 -75q-51 0 -85 8t-43 16l-8 7l23 164l96 8q65 7 93 41.5t36 97.5l146 1055h249z" />
    <glyph glyph-name="uni0136" unicode="&#x136;" horiz-adv-x="1417" 
d="M1284 0h-276l-312 719l-268 -279l-61 -440h-256l202 1481h256l-98 -719l676 719h291l-537 -578zM465 -481l123 166h-92l26 186h187l-25 -197l-137 -155h-82z" />
    <glyph glyph-name="uni0137" unicode="&#x137;" horiz-adv-x="1159" 
d="M1032 0h-250l-229 494l-193 -183l-41 -311h-247l209 1520h247l-127 -922l488 459h268l-430 -412zM352 -481l125 166h-94l29 186h186l-25 -197l-137 -155h-84z" />
    <glyph glyph-name="kgreenlandic" unicode="&#x138;" horiz-adv-x="1185" 
d="M1059 0h-273l-194 510l-234 -209l-41 -301h-247l145 1057h248l-68 -492l514 492h279l-414 -371z" />
    <glyph glyph-name="Lacute" unicode="&#x139;" horiz-adv-x="1138" 
d="M702 1931l39 -178l-532 -147l-27 118zM307 1481h250l-170 -1266h649l-30 -215h-902z" />
    <glyph glyph-name="lacute" unicode="&#x13a;" horiz-adv-x="634" 
d="M688 2015l39 -178l-530 -147l-29 116zM367 -10q-78 0 -132.5 16.5t-81.5 45.5t-41.5 67.5t-12 82t6.5 89.5l170 1229h242l-164 -1201q-21 -139 97 -151l51 -2l-25 -156q-58 -20 -110 -20z" />
    <glyph glyph-name="uni013B" unicode="&#x13b;" horiz-adv-x="1144" 
d="M313 1481h250l-172 -1266h651l-30 -215h-901zM387 -481l125 166h-94l28 186h187l-27 -197l-135 -155h-84z" />
    <glyph glyph-name="uni013C" unicode="&#x13c;" horiz-adv-x="649" 
d="M371 -10q-78 0 -133 16.5t-82 45.5t-41 67.5t-11.5 82t7.5 89.5l168 1229h243l-164 -1201q-21 -139 95 -151l53 -2l-25 -156q-62 -20 -110 -20zM20 -481l125 166h-94l27 186h188l-26 -197l-136 -155h-84z" />
    <glyph glyph-name="Lcaron" unicode="&#x13d;" horiz-adv-x="1144" 
d="M313 1481h250l-172 -1266h651l-30 -215h-901zM803 1055l110 200l-59 9l31 217h178l-31 -234l-106 -192h-123z" />
    <glyph glyph-name="lcaron" unicode="&#x13e;" horiz-adv-x="751" 
d="M561 1100l111 200l-60 9l31 217h178l-33 -234l-104 -192h-123zM373 -10q-78 0 -133 16.5t-82 45.5t-41 67.5t-11.5 82t7.5 89.5l168 1229h243l-164 -1201q-21 -139 95 -151l53 -2l-25 -156q-62 -20 -110 -20z" />
    <glyph glyph-name="Ldot" unicode="&#x13f;" horiz-adv-x="1157" 
d="M313 1481h250l-172 -1266h651l-30 -215h-901zM1083 946l-36 -264h-271l37 264h270z" />
    <glyph glyph-name="ldot" unicode="&#x140;" horiz-adv-x="712" 
d="M373 -10q-78 0 -133 16.5t-82 45.5t-41 67.5t-11.5 82t7.5 89.5l168 1229h243l-164 -1201q-21 -139 95 -151l53 -2l-25 -156q-62 -20 -110 -20zM760 711l-35 -262h-270l37 262h268z" />
    <glyph glyph-name="Lslash" unicode="&#x141;" horiz-adv-x="1112" 
d="M358 215h650l-31 -215h-901l86 627l-119 -33l29 215l118 31l89 641h249l-77 -574l385 99l-29 -207l-383 -103z" />
    <glyph glyph-name="lslash" unicode="&#x142;" horiz-adv-x="618" 
d="M453 621l-41 -302q-21 -139 96 -151l51 -2l-22 -156q-62 -20 -113 -20q-78 0 -132.5 16.5t-81.5 45.5t-41 67.5t-11.5 82t6.5 89.5l20 141l-172 -121l35 232l168 116l119 861h244l-93 -674l172 121l-30 -224z" />
    <glyph glyph-name="Nacute" unicode="&#x143;" horiz-adv-x="1556" 
d="M1200 1931l39 -178l-532 -147l-27 118zM1257 1481h248l-200 -1481h-224l-575 1085l-148 -1085h-247l202 1481h242l559 -1057z" />
    <glyph glyph-name="nacute" unicode="&#x144;" horiz-adv-x="1187" 
d="M969 1507l39 -178l-533 -147l-26 118zM70 0l145 1057h242l-25 -183q100 103 192.5 153t196.5 50q145 0 217 -84t52 -225l-105 -768h-248l99 725q11 78 -29.5 123t-122.5 45q-136 0 -264 -137l-103 -756h-247z" />
    <glyph glyph-name="uni0145" unicode="&#x145;" horiz-adv-x="1556" 
d="M1257 1481h248l-200 -1481h-224l-575 1085l-148 -1085h-247l202 1481h242l559 -1057zM518 -481l125 166h-94l29 186h186l-27 -197l-135 -155h-84z" />
    <glyph glyph-name="uni0146" unicode="&#x146;" horiz-adv-x="1187" 
d="M70 0l145 1057h242l-25 -183q100 103 192.5 153t196.5 50q145 0 217 -84t52 -225l-105 -768h-248l99 725q11 78 -29.5 123t-122.5 45q-136 0 -264 -137l-103 -756h-247zM371 -481l125 166h-95l29 186h186l-24 -197l-137 -155h-84z" />
    <glyph glyph-name="Ncaron" unicode="&#x147;" horiz-adv-x="1556" 
d="M1108 1907h221l-289 -260h-170l-227 260h178l129 -148zM1257 1481h248l-200 -1481h-224l-575 1085l-148 -1085h-247l202 1481h242l559 -1057z" />
    <glyph glyph-name="ncaron" unicode="&#x148;" horiz-adv-x="1187" 
d="M877 1483h221l-289 -260h-170l-227 260h178l129 -148zM70 0l145 1057h242l-25 -183q100 103 192.5 153t196.5 50q145 0 217 -84t52 -225l-105 -768h-248l99 725q11 78 -29.5 123t-122.5 45q-136 0 -264 -137l-103 -756h-247z" />
    <glyph glyph-name="Eng" unicode="&#x14a;" horiz-adv-x="1529" 
d="M1481 1481l-205 -1481q-25 -182 -121 -266t-276 -84q-137 0 -256 45l45 192q115 -28 186 -28q77 0 116 39.5t54 130.5l8 59l-543 959l-141 -1047h-239l206 1481h240l561 -977l131 977h234z" />
    <glyph glyph-name="eng" unicode="&#x14b;" horiz-adv-x="1206" 
d="M813 1077q147 0 222.5 -87.5t56.5 -229.5l-109 -776q-21 -158 -115.5 -241t-238.5 -83q-45 0 -76.5 7t-40.5 13l-8 7l24 166l97 12q53 7 79.5 39.5t34.5 95.5l97 711q13 89 -22 136.5t-109 47.5q-67 0 -133.5 -39t-145.5 -111l-104 -745h-252l149 1057h240l-21 -146
q107 88 195.5 127t179.5 39z" />
    <glyph glyph-name="Omacron" unicode="&#x14c;" horiz-adv-x="1529" 
d="M1270 1886l-25 -166h-659l22 166h662zM690 -20q-302 0 -448 200t-97 555q49 357 252 561.5t502 204.5q298 0 445 -203.5t98 -560.5q-49 -354 -251 -555.5t-501 -201.5zM721 188q181 0 297 133t153 412q39 284 -41 421.5t-260 137.5t-298 -138t-158 -421
q-36 -278 45 -411.5t262 -133.5z" />
    <glyph glyph-name="omacron" unicode="&#x14d;" horiz-adv-x="1157" 
d="M1049 1462l-25 -166h-659l22 166h662zM502 -20q-225 0 -339.5 150.5t-80.5 391.5q32 247 191 401t382 154q227 0 341 -154t81 -399q-33 -241 -190.5 -392.5t-384.5 -151.5zM530 147q84 0 149 57.5t100.5 141.5t49.5 186q12 73 5.5 141.5t-27 121t-65.5 84.5t-109 32
q-85 0 -151 -56t-102 -138.5t-50 -184.5q-13 -72 -5.5 -141.5t28 -123.5t66.5 -87t111 -33z" />
    <glyph glyph-name="Obreve" unicode="&#x14e;" horiz-adv-x="1529" 
d="M1270 1905q-49 -110 -147.5 -178t-221.5 -68q-131 0 -210.5 62t-92.5 184h145q66 -113 164 -113q60 0 110 31t85 82h168zM690 -20q-302 0 -448 200t-97 555q49 357 252 561.5t502 204.5q298 0 445 -203.5t98 -560.5q-49 -354 -251 -555.5t-501 -201.5zM721 188
q181 0 297 133t153 412q39 284 -41 421.5t-260 137.5t-298 -138t-158 -421q-36 -278 45 -411.5t262 -133.5z" />
    <glyph glyph-name="obreve" unicode="&#x14f;" horiz-adv-x="1157" 
d="M1047 1481q-47 -110 -145.5 -178t-223.5 -68q-130 0 -209.5 62.5t-91.5 183.5h143q32 -51 70 -82t96 -31q59 0 109.5 31.5t83.5 81.5h168zM502 -20q-225 0 -339.5 150.5t-80.5 391.5q32 247 191 401t382 154q227 0 341 -154t81 -399q-33 -241 -190.5 -392.5
t-384.5 -151.5zM530 147q84 0 149 57.5t100.5 141.5t49.5 186q12 73 5.5 141.5t-27 121t-65.5 84.5t-109 32q-85 0 -151 -56t-102 -138.5t-50 -184.5q-13 -72 -5.5 -141.5t28 -123.5t66.5 -87t111 -33z" />
    <glyph glyph-name="Ohungarumlaut" unicode="&#x150;" horiz-adv-x="1529" 
d="M891 1931l102 -147l-346 -228l-76 99zM1247 1931l103 -147l-346 -228l-74 99zM690 -20q-302 0 -448 200t-97 555q49 357 252 561.5t502 204.5q298 0 445 -203.5t98 -560.5q-49 -354 -251 -555.5t-501 -201.5zM721 188q181 0 297 133t153 412q39 284 -41 421.5t-260 137.5
t-298 -138t-158 -421q-36 -278 45 -411.5t262 -133.5z" />
    <glyph glyph-name="ohungarumlaut" unicode="&#x151;" horiz-adv-x="1157" 
d="M670 1507l100 -147l-346 -227l-74 98zM1026 1507l102 -147l-346 -227l-75 98zM502 -20q-225 0 -339.5 150.5t-80.5 391.5q32 247 191 401t382 154q227 0 341 -154t81 -399q-33 -241 -190.5 -392.5t-384.5 -151.5zM530 147q84 0 149 57.5t100.5 141.5t49.5 186
q12 73 5.5 141.5t-27 121t-65.5 84.5t-109 32q-85 0 -151 -56t-102 -138.5t-50 -184.5q-13 -72 -5.5 -141.5t28 -123.5t66.5 -87t111 -33z" />
    <glyph glyph-name="OE" unicode="&#x152;" horiz-adv-x="2256" 
d="M2083 211l-27 -211h-917l-33 129q-149 -149 -393 -149q-315 0 -465 203.5t-101 564.5q50 355 252.5 554t515.5 199q243 0 349 -155l59 135h913l-30 -211h-705l-55 -420h493l-30 -209h-492l-59 -430h725zM711 184q184 0 290 136t144 425q39 287 -25 420t-237 133
q-184 0 -294.5 -142t-150.5 -435q-38 -281 28 -409t245 -128z" />
    <glyph glyph-name="oe" unicode="&#x153;" horiz-adv-x="1949" 
d="M526 -20q-233 0 -355.5 154.5t-88.5 402.5q33 242 194 391t381 149q121 0 210 -50t134 -138q20 -15 46 18q73 80 169 125t201 45q227 0 343.5 -160t78.5 -438h-745q-15 -143 52.5 -233t180.5 -90q86 0 158 38.5t143 122.5l172 -84q-113 -139 -230 -196t-276 -57
q-118 0 -208 49t-138 135q-20 14 -39 -25q-76 -76 -175 -117.5t-208 -41.5zM1427 918q-115 0 -202.5 -84t-104.5 -216l500 7q11 114 -41 203.5t-152 89.5zM532 152q127 0 212 103t110 288q25 177 -27.5 271.5t-171.5 94.5q-127 0 -212.5 -103.5t-110.5 -291.5
q-25 -174 27.5 -268t172.5 -94z" />
    <glyph glyph-name="Racute" unicode="&#x154;" horiz-adv-x="1390" 
d="M1090 1931l36 -178l-530 -147l-27 118zM1194 0h-256l-166 600h-332l-82 -600h-247l202 1481h588q243 0 349 -113t79 -313q-41 -294 -321 -412zM754 799q135 0 220.5 64t102.5 181q15 114 -46.5 177t-180.5 63h-318l-65 -485h287z" />
    <glyph glyph-name="racute" unicode="&#x155;" horiz-adv-x="800" 
d="M805 1507l37 -178l-531 -147l-26 118zM72 0l143 1057h238l-33 -244q64 114 174 189t231 75l-32 -235q-166 11 -273.5 -65t-122.5 -179l-78 -598h-247z" />
    <glyph glyph-name="uni0156" unicode="&#x156;" horiz-adv-x="1390" 
d="M1194 0h-256l-166 600h-332l-82 -600h-247l202 1481h588q243 0 349 -113t79 -313q-41 -294 -321 -412zM754 799q135 0 220.5 64t102.5 181q15 114 -46.5 177t-180.5 63h-318l-65 -485h287zM459 -481l125 166h-95l29 186h187l-27 -197l-135 -155h-84z" />
    <glyph glyph-name="uni0157" unicode="&#x157;" horiz-adv-x="794" 
d="M66 0l143 1057h237l-32 -244q64 114 174 189t231 75l-33 -235q-166 11 -273 -64.5t-122 -179.5l-78 -598h-247zM45 -481l125 166h-94l28 186h187l-27 -197l-135 -155h-84z" />
    <glyph glyph-name="Rcaron" unicode="&#x158;" horiz-adv-x="1390" 
d="M995 1907h222l-287 -260h-170l-228 260h177l131 -148zM1194 0h-256l-166 600h-332l-82 -600h-247l202 1481h588q243 0 349 -113t79 -313q-41 -294 -321 -412zM754 799q135 0 220.5 64t102.5 181q15 114 -46.5 177t-180.5 63h-318l-65 -485h287z" />
    <glyph glyph-name="rcaron" unicode="&#x159;" horiz-adv-x="798" 
d="M692 1483h223l-288 -260h-170l-228 260h179l129 -148zM53 0l144 1057h237l-33 -244q64 114 174.5 189t231.5 75l-33 -235q-166 11 -273 -64.5t-122 -179.5l-78 -598h-248z" />
    <glyph glyph-name="Sacute" unicode="&#x15a;" horiz-adv-x="1370" 
d="M1104 1931l39 -178l-531 -147l-28 118zM618 -20q-196 0 -340 75.5t-204 212.5l196 123q44 -71 85.5 -110.5t109 -62.5t166.5 -23q141 0 231 45.5t103 146.5q9 66 -21.5 114t-126.5 83l-295 98q-154 53 -225 153.5t-53 231.5q27 191 190 312.5t402 121.5
q166 0 291.5 -61.5t187.5 -177.5l-195 -127q-34 50 -68 82t-95.5 55.5t-143.5 23.5q-129 0 -208 -53t-93 -143q-15 -135 156 -193l286 -92q166 -56 234 -154.5t47 -242.5q-28 -203 -193.5 -320.5t-423.5 -117.5z" />
    <glyph glyph-name="sacute" unicode="&#x15b;" horiz-adv-x="1093" 
d="M922 1507l39 -178l-533 -147l-27 118zM475 -20q-166 0 -281.5 69.5t-152.5 179.5l170 84q33 -68 109 -112.5t180 -44.5q81 0 156.5 37.5t82.5 89.5q7 46 -31 77.5t-122 55.5l-168 45q-287 71 -258 280q19 150 150 243t325 93q151 0 249.5 -59.5t139.5 -157.5l-168 -82
q-30 60 -94.5 93.5t-155.5 33.5q-86 0 -153 -37t-74 -92q-6 -39 28 -65.5t128 -55.5l200 -59q76 -21 127 -54.5t74.5 -73t31 -78.5t1.5 -81q-21 -150 -158.5 -239.5t-335.5 -89.5z" />
    <glyph glyph-name="Scircumflex" unicode="&#x15c;" horiz-adv-x="1370" 
d="M991 1657l-114 147l-170 -147h-207l291 258h170l221 -258h-191zM618 -20q-196 0 -340 75.5t-204 212.5l196 123q44 -71 85.5 -110.5t109 -62.5t166.5 -23q141 0 231 45.5t103 146.5q9 66 -21.5 114t-126.5 83l-295 98q-154 53 -225 153.5t-53 231.5q27 191 190 312.5
t402 121.5q166 0 291.5 -61.5t187.5 -177.5l-195 -127q-34 50 -68 82t-95.5 55.5t-143.5 23.5q-129 0 -208 -53t-93 -143q-15 -135 156 -193l286 -92q166 -56 234 -154.5t47 -242.5q-28 -203 -193.5 -320.5t-423.5 -117.5z" />
    <glyph glyph-name="scircumflex" unicode="&#x15d;" horiz-adv-x="1093" 
d="M819 1233l-117 147l-170 -147h-204l290 258h170l220 -258h-189zM475 -20q-166 0 -281.5 69.5t-152.5 179.5l170 84q33 -68 109 -112.5t180 -44.5q81 0 156.5 37.5t82.5 89.5q7 46 -31 77.5t-122 55.5l-168 45q-287 71 -258 280q19 150 150 243t325 93q151 0 249.5 -59.5
t139.5 -157.5l-168 -82q-30 60 -94.5 93.5t-155.5 33.5q-86 0 -153 -37t-74 -92q-6 -39 28 -65.5t128 -55.5l200 -59q76 -21 127 -54.5t74.5 -73t31 -78.5t1.5 -81q-21 -150 -158.5 -239.5t-335.5 -89.5z" />
    <glyph glyph-name="Scedilla" unicode="&#x15e;" horiz-adv-x="1370" 
d="M954 815q166 -56 234 -154.5t47 -242.5q-26 -192 -176.5 -308t-386.5 -128l-43 -93q96 -4 135.5 -53.5t30.5 -116.5q-10 -69 -79.5 -109t-162.5 -40q-135 0 -213 72l39 63q72 -39 137 -39q53 0 86.5 22.5t38.5 59.5q6 39 -26.5 56t-118.5 18q-31 0 -25 22l80 138
q-171 12 -296.5 86.5t-180.5 199.5l196 123q44 -71 85.5 -110.5t109 -62.5t166.5 -23q141 0 231 45.5t103 146.5q9 66 -21.5 114t-126.5 83l-295 98q-154 53 -225 153.5t-53 231.5q27 191 190 312.5t402 121.5q166 0 291.5 -61.5t187.5 -177.5l-195 -127q-34 50 -68 82
t-95.5 55.5t-143.5 23.5q-129 0 -208 -53t-93 -143q-15 -135 156 -193z" />
    <glyph glyph-name="scedilla" unicode="&#x15f;" horiz-adv-x="1093" 
d="M735 596q76 -21 127 -54.5t74.5 -73t31 -78.5t1.5 -81q-21 -146 -151 -234.5t-320 -94.5l-47 -101q96 -4 135 -53.5t30 -116.5q-10 -69 -79 -109t-162 -40q-136 0 -213 71l39 64q76 -39 137 -39q53 0 86.5 22.5t38.5 59.5q6 38 -27 55.5t-119 18.5q-31 0 -22 22l86 152
q-131 20 -220 85t-120 158l170 84q33 -68 109 -112.5t180 -44.5q81 0 156.5 37.5t82.5 89.5q7 46 -31 77.5t-122 55.5l-168 45q-287 71 -258 280q19 150 150 243t325 93q151 0 249.5 -59.5t139.5 -157.5l-168 -82q-30 60 -94.5 93.5t-155.5 33.5q-86 0 -153 -37t-74 -92
q-6 -39 28 -65.5t128 -55.5z" />
    <glyph glyph-name="Scaron" unicode="&#x160;" horiz-adv-x="1370" 
d="M1012 1907h221l-287 -260h-170l-229 260h178l129 -148zM618 -20q-196 0 -340 75.5t-204 212.5l196 123q44 -71 85.5 -110.5t109 -62.5t166.5 -23q141 0 231 45.5t103 146.5q9 66 -21.5 114t-126.5 83l-295 98q-154 53 -225 153.5t-53 231.5q27 191 190 312.5t402 121.5
q166 0 291.5 -61.5t187.5 -177.5l-195 -127q-34 50 -68 82t-95.5 55.5t-143.5 23.5q-129 0 -208 -53t-93 -143q-15 -135 156 -193l286 -92q166 -56 234 -154.5t47 -242.5q-28 -203 -193.5 -320.5t-423.5 -117.5z" />
    <glyph glyph-name="scaron" unicode="&#x161;" horiz-adv-x="1093" 
d="M829 1483h222l-287 -260h-172l-227 260h178l129 -148zM475 -20q-166 0 -281.5 69.5t-152.5 179.5l170 84q33 -68 109 -112.5t180 -44.5q81 0 156.5 37.5t82.5 89.5q7 46 -31 77.5t-122 55.5l-168 45q-287 71 -258 280q19 150 150 243t325 93q151 0 249.5 -59.5
t139.5 -157.5l-168 -82q-30 60 -94.5 93.5t-155.5 33.5q-86 0 -153 -37t-74 -92q-6 -39 28 -65.5t128 -55.5l200 -59q76 -21 127 -54.5t74.5 -73t31 -78.5t1.5 -81q-21 -150 -158.5 -239.5t-335.5 -89.5z" />
    <glyph glyph-name="uni0162" unicode="&#x162;" horiz-adv-x="1193" 
d="M166 1481h1130l-30 -228h-435l-169 -1253h-50l-53 -111q96 -4 135.5 -53.5t30.5 -116.5q-10 -69 -79.5 -109t-162.5 -40q-135 0 -213 72l37 63q76 -39 139 -39q53 0 86.5 22.5t38.5 59.5q6 39 -26.5 56t-118.5 18q-31 0 -25 22l91 156h-78l170 1253h-451z" />
    <glyph glyph-name="uni0163" unicode="&#x163;" horiz-adv-x="837" 
d="M561 881l-80 -600q-9 -67 9 -91t63 -24h156l-23 -152q-50 -22 -170 -22l-49 -103q96 -4 135.5 -53.5t30.5 -116.5q-10 -69 -79.5 -109t-162.5 -40q-138 0 -213 72l37 63q76 -39 139 -39q53 0 86.5 22.5t38.5 59.5q5 39 -27.5 56t-117.5 18q-31 0 -25 22l90 156
q-111 21 -147.5 86t-20.5 180l84 615h-188l27 176h192l80 344h207l-47 -342h239l-24 -178h-240z" />
    <glyph glyph-name="Tcaron" unicode="&#x164;" horiz-adv-x="1193" 
d="M938 1907h221l-289 -260h-170l-227 260h178l129 -148zM133 1253l33 228h1130l-30 -228h-435l-169 -1253h-248l170 1253h-451z" />
    <glyph glyph-name="tcaron" unicode="&#x165;" horiz-adv-x="827" 
d="M707 1145l110 201l-61 8l30 217h181l-33 -234l-105 -192h-122zM801 881h-240l-80 -600q-9 -67 9 -91t63 -24h156l-23 -152q-50 -22 -178 -22q-177 0 -237 68t-40 206l84 615h-188l27 176h192l80 344h207l-47 -342h239z" />
    <glyph glyph-name="Tbar" unicode="&#x166;" horiz-adv-x="1193" 
d="M1266 1253h-435l-57 -430h328l-27 -188h-327l-86 -635h-248l86 635h-211l24 188h213l58 430h-451l33 228h1130z" />
    <glyph glyph-name="tbar" unicode="&#x167;" horiz-adv-x="864" 
d="M825 881h-239l-31 -228h184l-20 -145h-182l-31 -227q-9 -67 9 -91t63 -24h155l-22 -152q-49 -22 -179 -22q-177 0 -236.5 68t-39.5 206l33 242h-168l18 145h170l31 228h-188l26 176h193l80 344h206l-47 -342h240z" />
    <glyph glyph-name="Utilde" unicode="&#x168;" horiz-adv-x="1462" 
d="M1225 1745q-92 -49 -189 -49q-59 0 -140 27.5t-124 27.5q-34 0 -57.5 -8t-57.5 -29.5t-45 -27.5l-32 147q46 32 87 48.5t95 16.5q60 0 147 -29.5t127 -29.5q44 0 102.5 30.5t67.5 33.5zM1300 541q-38 -273 -191.5 -417t-444.5 -144q-293 0 -404.5 145.5t-73.5 429.5
l127 926h252l-129 -953q-24 -167 45 -251t213 -84q145 0 238 83.5t119 251.5l129 953h250z" />
    <glyph glyph-name="utilde" unicode="&#x169;" horiz-adv-x="1185" 
d="M1030 1321q-92 -49 -190 -49q-59 0 -139.5 27.5t-122.5 27.5q-34 0 -58.5 -8.5t-57.5 -29t-46 -27.5l-33 147q49 33 89.5 49.5t92.5 16.5q60 0 148.5 -30t126.5 -30q45 0 103 30.5t69 33.5zM399 -20q-143 2 -225.5 88t-62.5 229l104 762h248l-101 -727q-12 -82 26.5 -129
t125.5 -47q75 0 133 35t127 110l105 758h249l-149 -1059h-188l-5 172q-189 -192 -387 -192z" />
    <glyph glyph-name="Umacron" unicode="&#x16a;" horiz-adv-x="1462" 
d="M1239 1886l-25 -166h-657l21 166h661zM1300 541q-38 -273 -191.5 -417t-444.5 -144q-293 0 -404.5 145.5t-73.5 429.5l127 926h252l-129 -953q-24 -167 45 -251t213 -84q145 0 238 83.5t119 251.5l129 953h250z" />
    <glyph glyph-name="umacron" unicode="&#x16b;" horiz-adv-x="1185" 
d="M1044 1462l-24 -166h-658l21 166h661zM399 -20q-143 2 -225.5 88t-62.5 229l104 762h248l-101 -727q-12 -82 26.5 -129t125.5 -47q75 0 133 35t127 110l105 758h249l-149 -1059h-188l-5 172q-189 -192 -387 -192z" />
    <glyph glyph-name="Ubreve" unicode="&#x16c;" horiz-adv-x="1462" 
d="M1241 1905q-47 -110 -145.5 -178t-223.5 -68q-130 0 -209.5 62.5t-91.5 183.5h144q32 -51 70 -82t96 -31q59 0 109 31.5t83 81.5h168zM1300 541q-38 -273 -191.5 -417t-444.5 -144q-293 0 -404.5 145.5t-73.5 429.5l127 926h252l-129 -953q-24 -167 45 -251t213 -84
q145 0 238 83.5t119 251.5l129 953h250z" />
    <glyph glyph-name="ubreve" unicode="&#x16d;" horiz-adv-x="1185" 
d="M1044 1481q-47 -110 -145.5 -178t-222.5 -68q-130 0 -209.5 62.5t-91.5 183.5h143q32 -51 70 -82t96 -31q59 0 109.5 31.5t83.5 81.5h167zM399 -20q-143 2 -225.5 88t-62.5 229l104 762h248l-101 -727q-12 -82 26.5 -129t125.5 -47q75 0 133 35t127 110l105 758h249
l-149 -1059h-188l-5 172q-189 -192 -387 -192z" />
    <glyph glyph-name="Uring" unicode="&#x16e;" horiz-adv-x="1462" 
d="M1112 1796q-13 -89 -78.5 -146t-152.5 -57q-94 0 -149.5 68t-41.5 166q10 83 77 139.5t151 56.5q93 0 149.5 -66.5t44.5 -160.5zM1001 1821q6 41 -16.5 65.5t-62.5 24.5q-46 0 -85 -33.5t-46 -83.5q-3 -38 20.5 -65t60.5 -27q46 0 84.5 36t44.5 83zM1300 541
q-38 -273 -191.5 -417t-444.5 -144q-293 0 -404.5 145.5t-73.5 429.5l127 926h252l-129 -953q-24 -167 45 -251t213 -84q145 0 238 83.5t119 251.5l129 953h250z" />
    <glyph glyph-name="uring" unicode="&#x16f;" horiz-adv-x="1185" 
d="M918 1372q-13 -89 -79 -146t-153 -57q-94 0 -149 68t-41 166q10 83 76.5 139.5t150.5 56.5q93 0 150 -66.5t45 -160.5zM807 1397q6 41 -17 65.5t-63 24.5q-46 0 -85 -33.5t-46 -83.5q-3 -38 21 -65t61 -27q46 0 84.5 36t44.5 83zM399 -20q-143 2 -225.5 88t-62.5 229
l104 762h248l-101 -727q-12 -82 26.5 -129t125.5 -47q75 0 133 35t127 110l105 758h249l-149 -1059h-188l-5 172q-189 -192 -387 -192z" />
    <glyph glyph-name="Uhungarumlaut" unicode="&#x170;" horiz-adv-x="1462" 
d="M860 1931l103 -147l-347 -228l-73 99zM1219 1931l100 -147l-344 -228l-76 99zM1300 541q-38 -273 -191.5 -417t-444.5 -144q-293 0 -404.5 145.5t-73.5 429.5l127 926h252l-129 -953q-24 -167 45 -251t213 -84q145 0 238 83.5t119 251.5l129 953h250z" />
    <glyph glyph-name="uhungarumlaut" unicode="&#x171;" horiz-adv-x="1185" 
d="M666 1507l102 -147l-346 -227l-76 98zM1024 1507l100 -147l-344 -227l-75 98zM399 -20q-143 2 -225.5 88t-62.5 229l104 762h248l-101 -727q-12 -82 26.5 -129t125.5 -47q75 0 133 35t127 110l105 758h249l-149 -1059h-188l-5 172q-189 -192 -387 -192z" />
    <glyph glyph-name="Uogonek" unicode="&#x172;" horiz-adv-x="1462" 
d="M1180 1481h250l-130 -940q-33 -237 -152 -377t-339 -174q-86 -37 -126 -72.5t-46 -79.5q-3 -32 13 -47.5t55 -15.5q14 0 27.5 1.5t27 5t23 6t23 8.5t19 8.5t19 9.5t16.5 8l-18 -133q-95 -31 -195 -31q-103 0 -155 47.5t-41 130.5q7 46 35 82t92 66q-244 21 -335.5 165
t-56.5 406l127 926h252l-129 -953q-24 -167 45 -251t213 -84q145 0 238 83.5t119 251.5z" />
    <glyph glyph-name="uogonek" unicode="&#x173;" horiz-adv-x="1187" 
d="M762 -164q-3 -31 12 -46t53 -15q14 0 28 1.5t28 5t23 6t24 9t19 8t20 9.5l16 8l-18 -135q-95 -31 -195 -31q-104 0 -156 47.5t-41 132.5q8 57 55 100t161 80l-5 156q-189 -192 -387 -192q-143 2 -225.5 88t-62.5 229l104 762h248l-101 -727q-12 -82 26.5 -129t125.5 -47
q75 0 133 35t127 110l105 758h249l-149 -1059h-14q-103 -38 -150.5 -77t-52.5 -87z" />
    <glyph glyph-name="Wcircumflex" unicode="&#x174;" horiz-adv-x="1931" 
d="M1268 1657l-117 147l-170 -147h-205l291 258h170l219 -258h-188zM2019 1481l-628 -1481h-207l-148 1051l-434 -1051h-205l-219 1481h244l147 -1069l437 1069h182l149 -1069l439 1069h243z" />
    <glyph glyph-name="wcircumflex" unicode="&#x175;" horiz-adv-x="1601" 
d="M1040 1233l-116 147l-170 -147h-205l291 258h170l219 -258h-189zM1626 1057l-479 -1057h-201l-119 705l-307 -705h-207l-190 1057h233l123 -727l312 727h180l121 -725l311 725h223z" />
    <glyph glyph-name="Ycircumflex" unicode="&#x176;" horiz-adv-x="1273" 
d="M958 1657l-116 147l-170 -147h-205l291 258h170l219 -258h-189zM1391 1481l-615 -854l-86 -627h-246l86 627l-383 854h267l270 -639l438 639h269z" />
    <glyph glyph-name="ycircumflex" unicode="&#x177;" horiz-adv-x="1112" 
d="M825 1233l-114 147l-170 -147h-207l291 258h170l221 -258h-191zM162 -338q-60 0 -104 8t-58 16l-14 7l22 162l105 -5q47 -2 85.5 5t60.5 17.5t40 28.5t25.5 29.5t15.5 28.5l37 76l-264 1022h247l170 -746l375 746h242l-576 -1096q-93 -170 -188.5 -234.5t-220.5 -64.5z
" />
    <glyph glyph-name="Ydieresis" unicode="&#x178;" horiz-adv-x="1273" 
d="M788 1905l-34 -244h-226l33 244h227zM1141 1905l-35 -244h-225l34 244h226zM1391 1481l-615 -854l-86 -627h-246l86 627l-383 854h267l270 -639l438 639h269z" />
    <glyph glyph-name="Zacute" unicode="&#x179;" horiz-adv-x="1308" 
d="M1096 1931l39 -178l-531 -147l-29 118zM29 0l18 127l914 1141h-715l28 213h1067l-16 -123l-926 -1145h762l-28 -213h-1104z" />
    <glyph glyph-name="zacute" unicode="&#x17a;" horiz-adv-x="1028" 
d="M883 1507l39 -178l-531 -147l-29 118zM2 0l21 137l661 758h-516l22 162h822l-19 -135l-663 -758h567l-20 -164h-875z" />
    <glyph glyph-name="Zdotaccent" unicode="&#x17b;" horiz-adv-x="1308" 
d="M1006 1905l-37 -271h-256l37 271h256zM29 0l18 127l914 1141h-715l28 213h1067l-16 -123l-926 -1145h762l-28 -213h-1104z" />
    <glyph glyph-name="zdotaccent" unicode="&#x17c;" horiz-adv-x="1028" 
d="M795 1481l-37 -271h-256l37 271h256zM2 0l21 137l661 758h-516l22 162h822l-19 -135l-663 -758h567l-20 -164h-875z" />
    <glyph glyph-name="Zcaron" unicode="&#x17d;" horiz-adv-x="1308" 
d="M1004 1907h223l-289 -260h-170l-227 260h178l129 -148zM29 0l18 127l914 1141h-715l28 213h1067l-16 -123l-926 -1145h762l-28 -213h-1104z" />
    <glyph glyph-name="zcaron" unicode="&#x17e;" horiz-adv-x="1028" 
d="M791 1483h223l-289 -260h-170l-227 260h178l129 -148zM2 0l21 137l661 758h-516l22 162h822l-19 -135l-663 -758h567l-20 -164h-875z" />
    <glyph glyph-name="uni018F" unicode="&#x18f;" horiz-adv-x="1525" 
d="M1147 805q7 52 8.5 100t-3 104t-22.5 101.5t-48 84t-82 60t-121 21.5q-62 0 -116 -17.5t-89.5 -39.5t-72.5 -63.5t-55 -68t-47.5 -74.5t-39.5 -63l-232 117q38 64 74 114t98 113.5t128 105.5t160.5 71.5t199.5 29.5q113 0 205.5 -29.5t155.5 -82.5t109 -125.5t66 -157.5
t26.5 -180t-9.5 -193q-21 -153 -84.5 -289t-158 -239.5t-225.5 -164t-278 -60.5q-112 0 -202.5 28t-153.5 79.5t-107 125.5t-64 165.5t-24 199t13 227.5h991zM1120 625l-686 -9q-6 -65 -5.5 -127t19 -117.5t48.5 -97t82.5 -66t121.5 -24.5q77 0 141 23.5t108.5 63t79 97.5
t55.5 120t36 137z" />
    <glyph glyph-name="florin" unicode="&#x192;" horiz-adv-x="980" 
d="M920 1057l-54 -176h-231l-297 -959q-38 -128 -126.5 -196t-217.5 -68h-215l51 170h113q63 2 99.5 37.5t61.5 120.5l277 895h-168l57 176h168l49 164q40 127 129.5 193.5t217.5 66.5h227l-53 -170h-136q-46 0 -91 -41t-62 -99l-37 -114h238z" />
    <glyph glyph-name="Ohorn" unicode="&#x1a0;" horiz-adv-x="1445" 
d="M1225 1413q137 -90 193.5 -263.5t23.5 -412.5q-49 -354 -251 -555.5t-501 -201.5q-302 0 -448 200t-97 555q49 357 252 561.5t502 204.5q71 0 135 -12q59 0 103.5 32.5t70.5 88.5h170q-48 -129 -153 -197zM1171 733q39 284 -41 421.5t-260 137.5t-298 -138t-158 -421
q-36 -278 45 -411.5t262 -133.5t297 133t153 412z" />
    <glyph glyph-name="ohorn" unicode="&#x1a1;" horiz-adv-x="1150" 
d="M952 973q78 -74 111 -190.5t14 -258.5q-33 -241 -190.5 -392.5t-384.5 -151.5q-225 0 -339.5 150.5t-80.5 391.5q32 247 191 401t382 154q81 0 152 -22q88 20 135 116h168q-48 -129 -158 -198zM829 532q12 73 5.5 141.5t-27 121t-65.5 84.5t-109 32q-85 0 -151 -56
t-102 -138.5t-50 -184.5q-13 -72 -5.5 -141.5t28 -123.5t66.5 -87t111 -33q84 0 149 57.5t100.5 141.5t49.5 186z" />
    <glyph glyph-name="Uhorn" unicode="&#x1af;" horiz-adv-x="1409" 
d="M1737 1612q-39 -108 -124 -175.5t-200 -74.5l-113 -821q-38 -273 -191.5 -417t-444.5 -144q-293 0 -404.5 145.5t-73.5 429.5l127 926h252l-129 -953q-24 -167 45 -251t213 -84q145 0 238 83.5t119 251.5l129 953h211v10q121 0 176 121h170z" />
    <glyph glyph-name="uhorn" unicode="&#x1b0;" horiz-adv-x="1187" 
d="M1354 1176q-33 -87 -95.5 -149.5t-146.5 -86.5l-133 -940h-188l-5 172q-189 -192 -387 -192q-143 2 -225.5 88t-62.5 229l104 762h248l-101 -727q-12 -82 26.5 -129t125.5 -47q75 0 133 35t127 110l105 758h170q88 17 137 117h168z" />
    <glyph glyph-name="uni01EA" unicode="&#x1ea;" horiz-adv-x="1529" 
d="M899 1501q298 0 445 -203.5t98 -560.5q-41 -297 -192 -489t-380 -248q-107 -39 -154.5 -77.5t-53.5 -88.5q-3 -31 12.5 -46t54.5 -15q17 0 34 2.5t28.5 5t29 9.5t22.5 9.5l23 11.5t19 9l-19 -135q-95 -31 -194 -31q-103 0 -155 47.5t-40 132.5q5 46 34.5 82t96.5 68
q-263 28 -385.5 224.5t-77.5 526.5q49 357 252 561.5t502 204.5zM1171 733q39 284 -41 421.5t-260 137.5t-298 -138t-158 -421q-36 -278 45 -411.5t262 -133.5t297 133t153 412z" />
    <glyph glyph-name="uni01EB" unicode="&#x1eb;" horiz-adv-x="1157" 
d="M655 1077q227 0 341 -154t81 -399q-26 -192 -133.5 -330.5t-269.5 -189.5h12q-109 -41 -158 -80t-53 -88q-5 -31 11 -47t55 -16q17 0 34 2.5t28.5 5.5t28 9.5t23 9t23 11t18.5 9.5l-18 -133q-95 -31 -195 -31q-103 0 -154.5 47.5t-39.5 130.5q7 47 36 83.5t97 68.5
q-188 26 -279.5 171.5t-60.5 364.5q32 247 191 401t382 154zM829 532q12 73 5.5 141.5t-27 121t-65.5 84.5t-109 32q-85 0 -151 -56t-102 -138.5t-50 -184.5q-13 -72 -5.5 -141.5t28 -123.5t66.5 -87t111 -33q84 0 149 57.5t100.5 141.5t49.5 186z" />
    <glyph glyph-name="Aringacute" unicode="&#x1fa;" horiz-adv-x="1435" 
d="M1004 1456l284 -1456h-287l-69 375h-514l-174 -375h-256l698 1473q-36 61 -27 139q7 68 58.5 117t122.5 61l47 133h170l-90 -147q54 -25 81 -77.5t17 -117.5q-9 -73 -61 -125zM754 1579q-4 -38 20.5 -66t61.5 -28q47 0 85 36.5t44 84.5q4 41 -18 65.5t-62 24.5
q-47 0 -86 -33.5t-45 -83.5zM504 594h397l-115 610z" />
    <glyph glyph-name="aringacute" unicode="&#x1fb;" horiz-adv-x="1140" 
d="M438 1182l-28 118l77 31q-6 35 0 72q12 84 79 140t151 56q59 0 104.5 -29t69.5 -77l39 14l39 -178l-78 -22q-28 -62 -86 -100t-127 -38q-74 0 -125 45zM721 1489q-46 0 -85 -33.5t-46 -83.5l203 80q-21 37 -72 37zM651 1077q215 0 305.5 -88t67.5 -248l-100 -741h-207
l2 164q-135 -184 -361 -184q-154 0 -238 83.5t-63 231.5q23 175 158.5 259t409.5 95l153 10l8 66q11 90 -33.5 140t-136.5 50q-158 0 -266 -157l-194 30q69 134 198 211.5t297 77.5zM735 350l23 174l-127 -6q-155 -10 -238 -53t-96 -148q-12 -77 35 -122t129 -45
q92 0 177 61.5t97 138.5z" />
    <glyph glyph-name="AEacute" unicode="&#x1fc;" horiz-adv-x="2115" 
d="M1792 1931l39 -178l-531 -147l-28 118zM1942 211l-27 -211h-993l53 375h-471l-248 -375h-264l991 1481h1110l-31 -211h-686l-55 -420h487l-32 -209h-484l-57 -430h707zM1006 594l94 700l-471 -700h377z" />
    <glyph glyph-name="aeacute" unicode="&#x1fd;" horiz-adv-x="1863" 
d="M1272 1507l39 -178l-533 -147l-26 118zM1008 479q-14 -135 53.5 -229t179.5 -94q94 0 161.5 41t139.5 120l170 -84q-103 -133 -225 -193t-281 -60q-249 0 -379 206q-5 2 -12 -5.5t-8 -16.5q-98 -86 -203.5 -135t-247.5 -49q-161 0 -239.5 85t-59.5 228q46 312 561 346
l166 12l13 76q16 93 -33.5 140.5t-138.5 47.5q-140 0 -254 -157l-221 61q79 130 196.5 194t298.5 64q273 -3 336 -153q141 153 354 153q109 0 196 -40t144.5 -114.5t79 -188.5t0.5 -255h-747zM1333 918q-111 0 -197 -82.5t-104 -217.5h518q12 121 -50.5 210.5t-166.5 89.5z
M766 512l-129 -10q-137 -11 -230.5 -69t-105.5 -152q-9 -66 30 -104.5t122 -35.5q106 3 192 62.5t96 138.5z" />
    <glyph glyph-name="Oslashacute" unicode="&#x1fe;" horiz-adv-x="1517" 
d="M1165 1931l39 -178l-532 -147l-27 118zM96 -31l-110 131l196 179q-84 192 -45 469q49 353 248 553t494 200q273 0 419 -176l183 182l110 -129l-205 -188q85 -197 44 -467q-47 -349 -245 -546t-495 -197q-273 0 -418 167zM434 496l678 667q-62 135 -240 135
q-174 0 -281.5 -131t-150.5 -399q-24 -156 -6 -272zM700 184q178 0 285 131.5t148 407.5q22 152 2 254l-678 -668q67 -125 243 -125z" />
    <glyph glyph-name="oslashacute" unicode="&#x1ff;" horiz-adv-x="1202" 
d="M973 1329l-531 -147l-28 118l520 207zM1202 965l-160 -138q51 -132 27 -303q-33 -241 -190.5 -392.5t-384.5 -151.5q-194 0 -304 110l-120 -104l-84 104l127 109q-66 135 -39 323q34 248 193 401.5t382 153.5q211 0 324 -135l145 125zM324 532q-12 -76 -5 -153l482 414
q-51 118 -176 118q-85 0 -150.5 -56t-101 -138.5t-49.5 -184.5zM823 532q9 56 6 111l-469 -405q55 -91 162 -91q84 0 149.5 57.5t101.5 141.5t50 186z" />
    <glyph glyph-name="uni0200" unicode="&#x200;" horiz-adv-x="1435" 
d="M582 1933l256 -297l-80 -77l-303 243zM938 1933l256 -297l-80 -77l-303 243zM-8 0l723 1481h266l315 -1481h-247l-76 371h-549l-184 -371h-248zM510 594h432l-127 643z" />
    <glyph glyph-name="uni0201" unicode="&#x201;" horiz-adv-x="1140" 
d="M373 1509l254 -297l-78 -77l-303 243zM729 1509l256 -297l-80 -77l-303 243zM358 -20q-154 0 -238 83.5t-63 231.5q23 175 158.5 259t409.5 95l153 10l8 66q11 90 -33.5 140t-136.5 50q-158 0 -266 -157l-194 30q69 134 198 211.5t297 77.5q215 0 305.5 -88t67.5 -248
l-100 -741h-207l2 164q-135 -184 -361 -184zM461 150q92 0 177 61.5t97 138.5l23 174l-127 -6q-155 -10 -238 -53t-96 -148q-12 -77 35 -122t129 -45z" />
    <glyph glyph-name="uni0202" unicode="&#x202;" horiz-adv-x="1435" 
d="M557 1661q47 111 141 177.5t217 66.5q129 0 213 -64t99 -180h-146q-65 111 -163 111q-60 0 -110.5 -30t-82.5 -81h-168zM-8 0l723 1481h266l315 -1481h-247l-76 371h-549l-184 -371h-248zM510 594h432l-127 643z" />
    <glyph glyph-name="uni0203" unicode="&#x203;" horiz-adv-x="1148" 
d="M360 1237q47 111 141.5 177.5t217.5 66.5q128 0 212 -64t99 -180h-145q-65 111 -164 111q-60 0 -111.5 -30t-81.5 -81h-168zM358 -20q-154 0 -238 83.5t-63 231.5q23 175 158.5 259t409.5 95l153 10l8 66q11 90 -33.5 140t-136.5 50q-158 0 -266 -157l-194 30
q69 134 198 211.5t297 77.5q215 0 305.5 -88t67.5 -248l-100 -741h-207l2 164q-135 -184 -361 -184zM461 150q92 0 177 61.5t97 138.5l23 174l-127 -6q-155 -10 -238 -53t-96 -148q-12 -77 35 -122t129 -45z" />
    <glyph glyph-name="uni0204" unicode="&#x204;" horiz-adv-x="1284" 
d="M522 1933l256 -297l-80 -77l-303 243zM879 1933l256 -297l-80 -77l-303 243zM111 0l202 1481h959l-31 -215h-709l-57 -416h625l-29 -209h-627l-55 -424l723 -2l-29 -215h-972z" />
    <glyph glyph-name="uni0205" unicode="&#x205;" horiz-adv-x="1159" 
d="M381 1509l256 -297l-80 -77l-303 243zM737 1509l256 -297l-80 -77l-303 243zM326 459q-19 -138 39.5 -223.5t183.5 -85.5q170 0 262 149l190 -51q-75 -131 -198 -199.5t-275 -68.5q-229 0 -353 145t-91 391q34 248 191 404.5t384 156.5q225 0 332.5 -149t73.5 -391
l-12 -78h-727zM350 629h492q18 130 -34 209.5t-171 79.5q-123 0 -197.5 -83.5t-89.5 -205.5z" />
    <glyph glyph-name="uni0206" unicode="&#x206;" horiz-adv-x="1284" 
d="M496 1661q47 111 141 177.5t217 66.5q128 0 212 -64t99 -180h-145q-65 111 -164 111q-60 0 -110 -30t-82 -81h-168zM111 0l202 1481h959l-31 -215h-709l-57 -416h625l-29 -209h-627l-55 -424l723 -2l-29 -215h-972z" />
    <glyph glyph-name="uni0207" unicode="&#x207;" horiz-adv-x="1159" 
d="M369 1237q47 111 141 177.5t217 66.5q128 0 212 -64t99 -180h-145q-65 111 -164 111q-60 0 -110 -30t-82 -81h-168zM326 459q-19 -138 39.5 -223.5t183.5 -85.5q170 0 262 149l190 -51q-75 -131 -198 -199.5t-275 -68.5q-229 0 -353 145t-91 391q34 248 191 404.5
t384 156.5q225 0 332.5 -149t73.5 -391l-12 -78h-727zM350 629h492q18 130 -34 209.5t-171 79.5q-123 0 -197.5 -83.5t-89.5 -205.5z" />
    <glyph glyph-name="uni0208" unicode="&#x208;" horiz-adv-x="616" 
d="M164 1933l254 -297l-78 -77l-303 243zM520 1933l254 -297l-80 -77l-303 243zM317 1481h246l-201 -1481h-247z" />
    <glyph glyph-name="uni0209" unicode="&#x209;" horiz-adv-x="528" 
d="M59 1509l256 -297l-77 -77l-306 243zM416 1509l256 -297l-80 -77l-303 243zM457 1057l-148 -1057h-248l146 1057h250z" />
    <glyph glyph-name="uni020A" unicode="&#x20a;" horiz-adv-x="620" 
d="M139 1661q47 110 142.5 177t218.5 67q128 0 212 -64t99 -180h-147q-61 111 -162 111q-61 0 -112 -30t-83 -81h-168zM322 1481h245l-202 -1481h-248z" />
    <glyph glyph-name="uni020B" unicode="&#x20b;" horiz-adv-x="536" 
d="M59 1237q47 110 142.5 177t218.5 67q128 0 212 -64t99 -180h-147q-61 111 -162 111q-61 0 -112 -30t-83 -81h-168zM469 1057l-145 -1057h-248l145 1057h248z" />
    <glyph glyph-name="uni020C" unicode="&#x20c;" horiz-adv-x="1529" 
d="M602 1933l256 -297l-78 -77l-303 243zM961 1933l253 -297l-79 -77l-304 243zM690 -20q-302 0 -448 200t-97 555q49 357 252 561.5t502 204.5q298 0 445 -203.5t98 -560.5q-49 -354 -251 -555.5t-501 -201.5zM721 188q181 0 297 133t153 412q39 284 -41 421.5t-260 137.5
t-298 -138t-158 -421q-36 -278 45 -411.5t262 -133.5z" />
    <glyph glyph-name="uni020D" unicode="&#x20d;" horiz-adv-x="1157" 
d="M381 1509l256 -297l-80 -77l-303 243zM737 1509l256 -297l-80 -77l-303 243zM502 -20q-225 0 -339.5 150.5t-80.5 391.5q32 247 191 401t382 154q227 0 341 -154t81 -399q-33 -241 -190.5 -392.5t-384.5 -151.5zM530 147q84 0 149 57.5t100.5 141.5t49.5 186
q12 73 5.5 141.5t-27 121t-65.5 84.5t-109 32q-85 0 -151 -56t-102 -138.5t-50 -184.5q-13 -72 -5.5 -141.5t28 -123.5t66.5 -87t111 -33z" />
    <glyph glyph-name="uni020E" unicode="&#x20e;" horiz-adv-x="1529" 
d="M590 1661q47 111 141.5 177.5t218.5 66.5q128 0 211.5 -63.5t100.5 -180.5h-148q-65 111 -164 111q-60 0 -110 -30t-82 -81h-168zM690 -20q-302 0 -448 200t-97 555q49 357 252 561.5t502 204.5q298 0 445 -203.5t98 -560.5q-49 -354 -251 -555.5t-501 -201.5zM721 188
q181 0 297 133t153 412q39 284 -41 421.5t-260 137.5t-298 -138t-158 -421q-36 -278 45 -411.5t262 -133.5z" />
    <glyph glyph-name="uni020F" unicode="&#x20f;" horiz-adv-x="1157" 
d="M369 1237q47 111 141 177.5t217 66.5q128 0 212 -64t99 -180h-145q-65 111 -164 111q-60 0 -110 -30t-82 -81h-168zM502 -20q-225 0 -339.5 150.5t-80.5 391.5q32 247 191 401t382 154q227 0 341 -154t81 -399q-33 -241 -190.5 -392.5t-384.5 -151.5zM530 147
q84 0 149 57.5t100.5 141.5t49.5 186q12 73 5.5 141.5t-27 121t-65.5 84.5t-109 32q-85 0 -151 -56t-102 -138.5t-50 -184.5q-13 -72 -5.5 -141.5t28 -123.5t66.5 -87t111 -33z" />
    <glyph glyph-name="uni0210" unicode="&#x210;" horiz-adv-x="1390" 
d="M530 1933l256 -297l-79 -77l-304 243zM887 1933l256 -297l-80 -77l-303 243zM1194 0h-256l-166 600h-332l-82 -600h-247l202 1481h588q243 0 349 -113t79 -313q-41 -294 -321 -412zM754 799q135 0 220.5 64t102.5 181q15 114 -46.5 177t-180.5 63h-318l-65 -485h287z" />
    <glyph glyph-name="uni0211" unicode="&#x211;" horiz-adv-x="800" 
d="M233 1509l254 -297l-77 -77l-304 243zM590 1509l256 -297l-80 -77l-303 243zM57 0l146 1057h237l-34 -244q64 114 175 189t230 75l-31 -235q-167 11 -273.5 -64.5t-121.5 -179.5l-80 -598h-248z" />
    <glyph glyph-name="uni0212" unicode="&#x212;" horiz-adv-x="1390" 
d="M518 1661q47 111 141.5 177.5t217.5 66.5q130 0 213 -63.5t98 -180.5h-146q-65 111 -163 111q-60 0 -110.5 -30t-82.5 -81h-168zM1194 0h-256l-166 600h-332l-82 -600h-247l202 1481h588q243 0 349 -113t79 -313q-41 -294 -321 -412zM754 799q135 0 220.5 64t102.5 181
q15 114 -46.5 177t-180.5 63h-318l-65 -485h287z" />
    <glyph glyph-name="uni0213" unicode="&#x213;" horiz-adv-x="843" 
d="M250 1237q47 110 142 177t218 67q129 0 213 -64t99 -180h-148q-61 111 -162 111q-61 0 -111.5 -30t-80.5 -81h-170zM88 0l145 1057h236l-33 -244q64 114 175 189t231 75l-33 -235q-165 11 -271.5 -64.5t-121.5 -179.5l-80 -598h-248z" />
    <glyph glyph-name="uni0214" unicode="&#x214;" horiz-adv-x="1462" 
d="M575 1933l256 -297l-79 -77l-303 243zM932 1933l256 -297l-80 -77l-303 243zM1300 541q-38 -273 -191.5 -417t-444.5 -144q-293 0 -404.5 145.5t-73.5 429.5l127 926h252l-129 -953q-24 -167 45 -251t213 -84q145 0 238 83.5t119 251.5l129 953h250z" />
    <glyph glyph-name="uni0215" unicode="&#x215;" horiz-adv-x="1185" 
d="M379 1509l254 -297l-78 -77l-303 243zM735 1509l254 -297l-78 -77l-303 243zM401 -20q-145 2 -227.5 88t-62.5 229l104 762h248l-101 -727q-11 -82 27 -129t125 -47q75 0 133 35t127 110l105 758h249l-149 -1059h-188l-5 172q-189 -192 -385 -192z" />
    <glyph glyph-name="uni0216" unicode="&#x216;" horiz-adv-x="1462" 
d="M561 1661q47 111 141.5 177.5t217.5 66.5q128 0 212 -64t99 -180h-146q-65 111 -163 111q-60 0 -110.5 -30t-82.5 -81h-168zM1300 541q-38 -273 -191.5 -417t-444.5 -144q-293 0 -404.5 145.5t-73.5 429.5l127 926h252l-129 -953q-24 -167 45 -251t213 -84
q145 0 238 83.5t119 251.5l129 953h250z" />
    <glyph glyph-name="uni0217" unicode="&#x217;" horiz-adv-x="1185" 
d="M352 1237q47 111 141.5 177.5t217.5 66.5q128 0 212 -64t99 -180h-145q-65 111 -164 111q-60 0 -110.5 -30t-82.5 -81h-168zM399 -20q-143 2 -225.5 88t-62.5 229l104 762h248l-101 -727q-12 -82 26.5 -129t125.5 -47q75 0 133 35t127 110l105 758h249l-149 -1059h-188
l-5 172q-189 -192 -387 -192z" />
    <glyph glyph-name="uni0218" unicode="&#x218;" horiz-adv-x="1370" 
d="M618 -20q-196 0 -340 75.5t-204 212.5l196 123q44 -71 85.5 -110.5t109 -62.5t166.5 -23q141 0 231 45.5t103 146.5q9 66 -21.5 114t-126.5 83l-295 98q-154 53 -225 153.5t-53 231.5q27 191 190 312.5t402 121.5q166 0 291.5 -61.5t187.5 -177.5l-195 -127
q-34 50 -68 82t-95.5 55.5t-143.5 23.5q-129 0 -208 -53t-93 -143q-15 -135 156 -193l286 -92q166 -56 234 -154.5t47 -242.5q-28 -203 -193.5 -320.5t-423.5 -117.5zM453 -481l125 166h-95l29 186h186l-26 -197l-135 -155h-84z" />
    <glyph glyph-name="uni0219" unicode="&#x219;" horiz-adv-x="1093" 
d="M475 -20q-166 0 -281.5 69.5t-152.5 179.5l170 84q33 -68 109 -112.5t180 -44.5q81 0 156.5 37.5t82.5 89.5q7 46 -31 77.5t-122 55.5l-168 45q-287 71 -258 280q19 150 150 243t325 93q151 0 249.5 -59.5t139.5 -157.5l-168 -82q-30 60 -94.5 93.5t-155.5 33.5
q-86 0 -153 -37t-74 -92q-6 -39 28 -65.5t128 -55.5l200 -59q76 -21 127 -54.5t74.5 -73t31 -78.5t1.5 -81q-21 -150 -158.5 -239.5t-335.5 -89.5zM272 -492l125 166h-94l29 187h186l-24 -197l-138 -156h-84z" />
    <glyph glyph-name="uni021A" unicode="&#x21a;" horiz-adv-x="1193" 
d="M133 1253l33 228h1130l-30 -228h-435l-169 -1253h-248l170 1253h-451zM383 -481l125 166h-94l28 186h187l-27 -197l-135 -155h-84z" />
    <glyph glyph-name="uni021B" unicode="&#x21b;" horiz-adv-x="858" 
d="M801 881h-240l-80 -600q-9 -67 9 -91t63 -24h156l-23 -152q-50 -22 -178 -22q-177 0 -237 68t-40 206l84 615h-188l27 176h192l80 344h207l-47 -342h239zM291 -481l125 166h-94l28 186h187l-25 -197l-137 -155h-84z" />
    <glyph glyph-name="uni0237" unicode="&#x237;" horiz-adv-x="548" 
d="M311 -25q-24 -165 -106 -240t-250 -75q-51 0 -85.5 8t-43.5 16l-8 7l24 164l97 8q65 7 93 41.5t36 97.5l143 1055h250z" />
    <glyph glyph-name="uni0259" unicode="&#x259;" horiz-adv-x="1159" 
d="M834 600q21 138 -39 223.5t-185 85.5q-170 0 -262 -149l-190 51q75 131 198 199.5t275 68.5q229 0 353 -145t91 -391q-34 -248 -191 -404.5t-384 -156.5q-225 0 -332.5 149t-73.5 391l15 78h725zM809 430h-490q-19 -129 32.5 -209t170.5 -80q123 0 197.5 83.5t89.5 205.5
z" />
    <glyph glyph-name="uni02BC" unicode="&#x2bc;" horiz-adv-x="358" 
d="M133 920l115 272l-66 12l39 277h182l-36 -269l-127 -292h-107z" />
    <glyph glyph-name="circumflex" unicode="&#x2c6;" horiz-adv-x="727" 
d="M606 1233l-117 147l-170 -147h-204l291 258h169l220 -258h-189z" />
    <glyph glyph-name="caron" unicode="&#x2c7;" horiz-adv-x="729" 
d="M610 1483h224l-289 -260h-170l-228 260h179l129 -148z" />
    <glyph glyph-name="breve" unicode="&#x2d8;" horiz-adv-x="741" 
d="M834 1481q-47 -110 -145.5 -178t-223.5 -68q-130 0 -209.5 62.5t-91.5 183.5h143q32 -51 70 -82t96 -31q59 0 109.5 31.5t83.5 81.5h168z" />
    <glyph glyph-name="dotaccent" unicode="&#x2d9;" horiz-adv-x="331" 
d="M422 1481l-37 -271h-256l37 271h256z" />
    <glyph glyph-name="ring" unicode="&#x2da;" horiz-adv-x="499" 
d="M575 1362q-13 -89 -78.5 -146t-152.5 -57q-94 0 -149 68t-41 166q10 83 76.5 139.5t150.5 56.5q93 0 149.5 -66.5t44.5 -160.5zM465 1386q6 41 -17 66t-63 25q-46 0 -85 -33.5t-46 -83.5q-3 -38 21 -65t61 -27q47 0 85 35.5t44 82.5z" />
    <glyph glyph-name="ogonek" unicode="&#x2db;" horiz-adv-x="485" 
d="M-66 -164q8 59 55.5 102.5t164.5 79.5l180 -12q-109 -41 -158 -80t-55 -88q-3 -32 12.5 -47.5t54.5 -15.5q14 0 27.5 1.5t27.5 5t23 6t23.5 9t19 8t19.5 9.5t16 8l-18 -133q-95 -31 -195 -31q-103 0 -155.5 47.5t-41.5 130.5z" />
    <glyph glyph-name="tilde" unicode="&#x2dc;" horiz-adv-x="784" 
d="M831 1321q-92 -49 -190 -49q-59 0 -139.5 27.5t-122.5 27.5q-34 0 -58.5 -8.5t-57.5 -29t-46 -27.5l-33 147q49 33 90 49.5t93 16.5q60 0 148 -30t126 -30q45 0 103 30.5t69 33.5z" />
    <glyph glyph-name="hungarumlaut" unicode="&#x2dd;" horiz-adv-x="870" 
d="M467 1507l102 -147l-346 -227l-76 98zM825 1507l101 -147l-344 -227l-76 98z" />
    <glyph glyph-name="gravecomb" unicode="&#x300;" 
d="M-403 1505l475 -215l-54 -106l-499 149z" />
    <glyph glyph-name="acutecomb" unicode="&#x301;" 
d="M41 1507l39 -178l-531 -147l-28 118z" />
    <glyph glyph-name="uni0302" unicode="&#x302;" 
d="M-121 1233l-117 147l-170 -147h-204l290 258h170l222 -258h-191z" />
    <glyph glyph-name="tildecomb" unicode="&#x303;" 
d="M47 1321q-92 -49 -190 -49q-59 0 -140 27.5t-123 27.5q-34 0 -58.5 -8.5t-56.5 -29t-46 -27.5l-33 147q49 33 89.5 49.5t92.5 16.5q60 0 148.5 -30t126.5 -30q45 0 103 30.5t69 33.5z" />
    <glyph glyph-name="uni0304" unicode="&#x304;" 
d="M86 1462l-25 -166h-657l21 166h661z" />
    <glyph glyph-name="uni0306" unicode="&#x306;" 
d="M92 1481q-47 -110 -145.5 -178t-222.5 -68q-130 0 -210 62.5t-92 183.5h144q32 -51 70 -82t96 -31q59 0 109 31.5t83 81.5h168z" />
    <glyph glyph-name="uni0307" unicode="&#x307;" 
d="M90 1481l-37 -271h-256l37 271h256z" />
    <glyph glyph-name="uni0308" unicode="&#x308;" 
d="M-262 1481l-35 -244h-225l33 244h227zM90 1481l-35 -244h-225l35 244h225z" />
    <glyph glyph-name="hookabovecomb" unicode="&#x309;" 
d="M-639 1509l39 -108q72 45 119 45q31 0 49 -12t14 -39q-4 -30 -32 -57.5t-93 -73.5l56 -90q41 34 55 45.5t44.5 40.5t43 46.5t26 43t17.5 51.5q10 73 -35.5 117.5t-126.5 44.5q-66 0 -176 -54z" />
    <glyph glyph-name="uni030A" unicode="&#x30a;" 
d="M76 1362q-13 -89 -79 -146t-153 -57q-94 0 -149 68t-41 166q10 83 76.5 139.5t150.5 56.5q93 0 150 -66.5t45 -160.5zM-35 1386q6 41 -17 66t-63 25q-46 0 -85 -33.5t-46 -83.5q-3 -38 21 -65t61 -27q47 0 85 35.5t44 82.5z" />
    <glyph glyph-name="uni030B" unicode="&#x30b;" 
d="M-403 1507l102 -147l-346 -227l-76 98zM-45 1507l100 -147l-344 -227l-76 98z" />
    <glyph glyph-name="uni030C" unicode="&#x30c;" 
d="M-119 1483h223l-288 -260h-170l-228 260h179l129 -148z" />
    <glyph glyph-name="uni030F" unicode="&#x30f;" 
d="M-569 1509l256 -297l-80 -77l-303 243zM-213 1509l256 -297l-80 -77l-303 243z" />
    <glyph glyph-name="uni0311" unicode="&#x311;" 
d="M-569 1237q47 111 141 177.5t217 66.5q128 0 212 -64t99 -180h-145q-65 111 -164 111q-60 0 -110 -30t-82 -81h-168z" />
    <glyph glyph-name="uni031B" unicode="&#x31b;" 
d="M-240 1178q-42 -115 -135 -183.5t-217 -68.5l8 131q60 0 105 32.5t71 88.5h168z" />
    <glyph glyph-name="dotbelowcomb" unicode="&#x323;" 
d="M-133 -98l-31 -232h-205l35 232h201z" />
    <glyph glyph-name="uni0326" unicode="&#x326;" 
d="M-383 -481l125 166h-94l28 186h187l-25 -197l-137 -155h-84z" />
    <glyph glyph-name="uni0327" unicode="&#x327;" 
d="M-156 -281q-10 -69 -79 -109t-162 -40q-135 0 -213 72l39 63q76 -39 137 -39q53 0 86.5 22.5t38.5 59.5q6 38 -27 55.5t-119 18.5q-31 0 -22 22l94 166h119l-58 -121q96 -4 135.5 -53.5t30.5 -116.5z" />
    <glyph glyph-name="uni0328" unicode="&#x328;" 
d="M-551 -164q8 60 55 103t164 79l180 -12q-109 -41 -158 -80t-55 -88q-3 -32 13 -47.5t55 -15.5q14 0 27.5 1.5t27.5 5t23 6t23.5 9t19 8t19.5 9.5t16 8l-19 -133q-95 -31 -194 -31q-103 0 -155.5 47.5t-41.5 130.5z" />
    <glyph glyph-name="pi" unicode="&#x3c0;" horiz-adv-x="1341" 
d="M1329 881h-207l-118 -881h-240l119 881h-359q-33 -223 -98.5 -478t-130.5 -403h-244q72 179 139.5 422t96.5 452q1 4 -1.5 5.5t-11.5 1.5h-174l25 176h1227z" />
    <glyph glyph-name="uni1E0C" unicode="&#x1e0c;" horiz-adv-x="1472" 
d="M313 1481q269 0 392 -2q385 -9 541.5 -195.5t107.5 -538.5q-48 -360 -265 -552.5t-602 -192.5h-376zM537 1274l-146 -1067h129q113 0 206.5 29t170 91t128 167.5t71.5 250.5q37 280 -72.5 404.5t-351.5 124.5h-135zM655 -98l-28 -232h-207l35 232h200z" />
    <glyph glyph-name="uni1E0D" unicode="&#x1e0d;" horiz-adv-x="1183" 
d="M442 -20q-203 0 -298 142.5t-58 399.5q34 256 166 405.5t332 149.5q188 0 274 -155l82 598h248l-207 -1520h-184l-4 170q-22 -31 -52 -60.5t-73.5 -60.5t-102.5 -50t-123 -19zM528 152q98 0 173 77t90 191l38 287q-18 104 -67 150t-127 46q-116 0 -194 -91.5t-103 -283.5
q-28 -194 25 -285t165 -91zM606 -98l-28 -232h-207l35 232h200z" />
    <glyph glyph-name="uni1E24" unicode="&#x1e24;" horiz-adv-x="1460" 
d="M1047 655h-601l-88 -655h-247l202 1481h246l-82 -611h602l82 611h250l-205 -1481h-248zM739 -98l-30 -232h-205l35 232h200z" />
    <glyph glyph-name="uni1E25" unicode="&#x1e25;" horiz-adv-x="1187" 
d="M72 0l209 1520h241l-90 -648q194 205 391 205q150 0 218.5 -82t48.5 -231l-105 -764h-248l101 725q11 79 -25.5 123.5t-118.5 44.5q-68 0 -128 -32.5t-144 -106.5l-103 -754h-247zM637 -98l-31 -232h-205l35 232h201z" />
    <glyph glyph-name="uni1E44" unicode="&#x1e44;" horiz-adv-x="1556" 
d="M1110 1905l-37 -271h-256l37 271h256zM1257 1481h248l-200 -1481h-224l-575 1085l-148 -1085h-247l202 1481h242l559 -1057z" />
    <glyph glyph-name="uni1E45" unicode="&#x1e45;" horiz-adv-x="1187" 
d="M879 1481l-37 -271h-256l37 271h256zM70 0l145 1057h242l-25 -183q100 103 192.5 153t196.5 50q145 0 217 -84t52 -225l-105 -768h-248l99 725q11 78 -29.5 123t-122.5 45q-136 0 -264 -137l-103 -756h-247z" />
    <glyph glyph-name="uni1E5A" unicode="&#x1e5a;" horiz-adv-x="1390" 
d="M1194 0h-256l-166 600h-332l-82 -600h-247l202 1481h588q243 0 349 -113t79 -313q-41 -294 -321 -412zM754 799q135 0 220.5 64t102.5 181q15 114 -46.5 177t-180.5 63h-318l-65 -485h287zM713 -98l-31 -232h-205l35 232h201z" />
    <glyph glyph-name="uni1E5B" unicode="&#x1e5b;" horiz-adv-x="796" 
d="M66 0l145 1057h238l-35 -244q65 115 175.5 189.5t229.5 74.5l-31 -235q-167 11 -273.5 -64.5t-121.5 -179.5l-80 -598h-247zM301 -98l-31 -232h-207l37 232h201z" />
    <glyph glyph-name="uni1E62" unicode="&#x1e62;" horiz-adv-x="1370" 
d="M618 -20q-196 0 -340 75.5t-204 212.5l196 123q44 -71 85.5 -110.5t109 -62.5t166.5 -23q141 0 231 45.5t103 146.5q9 66 -21.5 114t-126.5 83l-295 98q-154 53 -225 153.5t-53 231.5q27 191 190 312.5t402 121.5q166 0 291.5 -61.5t187.5 -177.5l-195 -127
q-34 50 -68 82t-95.5 55.5t-143.5 23.5q-129 0 -208 -53t-93 -143q-15 -135 156 -193l286 -92q166 -56 234 -154.5t47 -242.5q-28 -203 -193.5 -320.5t-423.5 -117.5zM707 -98l-31 -232h-205l35 232h201z" />
    <glyph glyph-name="uni1E63" unicode="&#x1e63;" horiz-adv-x="1093" 
d="M475 -20q-166 0 -281.5 69.5t-152.5 179.5l170 84q33 -68 109 -112.5t180 -44.5q81 0 156.5 37.5t82.5 89.5q7 46 -31 77.5t-122 55.5l-168 45q-287 71 -258 280q19 150 150 243t325 93q151 0 249.5 -59.5t139.5 -157.5l-168 -82q-30 60 -94.5 93.5t-155.5 33.5
q-86 0 -153 -37t-74 -92q-6 -39 28 -65.5t128 -55.5l200 -59q76 -21 127 -54.5t74.5 -73t31 -78.5t1.5 -81q-21 -150 -158.5 -239.5t-335.5 -89.5zM528 -109l-30 -231h-205l35 231h200z" />
    <glyph glyph-name="uni1E6C" unicode="&#x1e6c;" horiz-adv-x="1193" 
d="M133 1253l33 228h1130l-30 -228h-435l-169 -1253h-248l170 1253h-451zM637 -98l-31 -232h-205l35 232h201z" />
    <glyph glyph-name="uni1E6D" unicode="&#x1e6d;" horiz-adv-x="858" 
d="M801 881h-240l-80 -600q-9 -67 9 -91t63 -24h156l-23 -152q-50 -22 -178 -22q-177 0 -237 68t-40 206l84 615h-188l27 176h192l80 344h207l-47 -342h239zM545 -98l-31 -232h-205l35 232h201z" />
    <glyph glyph-name="Wgrave" unicode="&#x1e80;" horiz-adv-x="1931" 
d="M926 1929l473 -215l-53 -106l-498 149zM2019 1481l-628 -1481h-207l-148 1051l-434 -1051h-205l-219 1481h244l147 -1069l437 1069h182l149 -1069l439 1069h243z" />
    <glyph glyph-name="wgrave" unicode="&#x1e81;" horiz-adv-x="1601" 
d="M698 1505l476 -215l-54 -106l-499 149zM1626 1057l-479 -1057h-201l-119 705l-307 -705h-207l-190 1057h233l123 -727l312 727h180l121 -725l311 725h223z" />
    <glyph glyph-name="Wacute" unicode="&#x1e82;" horiz-adv-x="1931" 
d="M1378 1931l39 -178l-530 -147l-29 118zM2019 1481l-628 -1481h-207l-148 1051l-434 -1051h-205l-219 1481h244l147 -1069l437 1069h182l149 -1069l439 1069h243z" />
    <glyph glyph-name="wacute" unicode="&#x1e83;" horiz-adv-x="1601" 
d="M1153 1507l39 -178l-530 -147l-29 118zM1626 1057l-479 -1057h-201l-119 705l-307 -705h-207l-190 1057h233l123 -727l312 727h180l121 -725l311 725h223z" />
    <glyph glyph-name="Wdieresis" unicode="&#x1e84;" horiz-adv-x="1931" 
d="M1098 1905l-35 -244h-225l32 244h228zM1450 1905l-35 -244h-225l35 244h225zM2019 1481l-628 -1481h-207l-148 1051l-434 -1051h-205l-219 1481h244l147 -1069l437 1069h182l149 -1069l439 1069h243z" />
    <glyph glyph-name="wdieresis" unicode="&#x1e85;" horiz-adv-x="1601" 
d="M870 1481l-34 -244h-226l33 244h227zM1223 1481l-35 -244h-225l34 244h226zM1626 1057l-479 -1057h-201l-119 705l-307 -705h-207l-190 1057h233l123 -727l312 727h180l121 -725l311 725h223z" />
    <glyph glyph-name="uni1E92" unicode="&#x1e92;" horiz-adv-x="1308" 
d="M29 0l18 127l914 1141h-715l28 213h1067l-16 -123l-926 -1145h762l-28 -213h-1104zM684 -98l-31 -232h-204l34 232h201z" />
    <glyph glyph-name="uni1E93" unicode="&#x1e93;" horiz-adv-x="1026" 
d="M2 0l21 137l661 758h-516l22 162h822l-19 -135l-663 -758h567l-20 -164h-875zM535 -98l-31 -232h-207l37 232h201z" />
    <glyph glyph-name="uni1EA0" unicode="&#x1ea0;" horiz-adv-x="1368" 
d="M-8 0l723 1481h266l315 -1481h-247l-76 371h-549l-184 -371h-248zM510 594h432l-127 643zM754 -98l-29 -232h-207l35 232h201z" />
    <glyph glyph-name="uni1EA1" unicode="&#x1ea1;" horiz-adv-x="1091" 
d="M350 -20q-153 0 -237 83.5t-64 231.5q23 174 159 258.5t408 95.5l154 10l8 66q12 89 -32.5 139.5t-135.5 50.5q-160 0 -266 -157l-194 30q68 134 196.5 211.5t296.5 77.5q215 0 305.5 -88t67.5 -248l-101 -741h-206l4 164q-135 -184 -363 -184zM455 150q90 0 175 61.5
t97 138.5l23 174l-125 -6q-60 -4 -105 -11t-87.5 -21.5t-70.5 -36t-47.5 -55t-25.5 -77.5q-12 -78 35 -122.5t131 -44.5zM526 -98l-30 -232h-205l35 232h200z" />
    <glyph glyph-name="uni1EA2" unicode="&#x1ea2;" horiz-adv-x="1435" 
d="M723 1933l39 -108q72 45 119 45q31 0 49 -12t14 -39q-4 -30 -32 -57.5t-93 -73.5l55 -91q41 34 55 46t45 40.5t43.5 46t26 44t17.5 51.5q10 73 -35.5 117.5t-126.5 44.5q-66 0 -176 -54zM-8 0l723 1481h266l315 -1481h-247l-76 371h-549l-184 -371h-248zM510 594h432
l-127 643z" />
    <glyph glyph-name="uni1EA3" unicode="&#x1ea3;" horiz-adv-x="1150" 
d="M504 1509l41 -108q72 45 119 45q31 0 49 -12t14 -39q-6 -30 -33.5 -57.5t-91.5 -73.5l55 -90q43 36 55 46t44.5 40t44 46.5t25 43t16.5 51.5q10 73 -35 117.5t-125 44.5q-63 0 -178 -54zM358 -20q-154 0 -238 83.5t-63 231.5q23 175 158.5 259t409.5 95l153 10l8 66
q11 90 -33.5 140t-136.5 50q-158 0 -266 -157l-194 30q69 134 198 211.5t297 77.5q215 0 305.5 -88t67.5 -248l-100 -741h-207l2 164q-135 -184 -361 -184zM461 150q92 0 177 61.5t97 138.5l23 174l-127 -6q-155 -10 -238 -53t-96 -148q-12 -77 35 -122t129 -45z" />
    <glyph glyph-name="uni1EA4" unicode="&#x1ea4;" horiz-adv-x="1435" 
d="M1180 2265l39 -178l-533 -148l-27 119zM1030 1657l-117 147l-170 -147h-204l290 258h170l220 -258h-189zM-8 0l723 1481h266l315 -1481h-247l-76 371h-549l-184 -371h-248zM510 594h432l-127 643z" />
    <glyph glyph-name="uni1EA5" unicode="&#x1ea5;" horiz-adv-x="1150" 
d="M969 1841l37 -178l-531 -147l-26 118zM817 1233l-115 147l-170 -147h-206l290 258h170l222 -258h-191zM358 -20q-154 0 -238 83.5t-63 231.5q23 175 158.5 259t409.5 95l153 10l8 66q11 90 -33.5 140t-136.5 50q-158 0 -266 -157l-194 30q69 134 198 211.5t297 77.5
q215 0 305.5 -88t67.5 -248l-100 -741h-207l2 164q-135 -184 -361 -184zM461 150q92 0 177 61.5t97 138.5l23 174l-127 -6q-155 -10 -238 -53t-96 -148q-12 -77 35 -122t129 -45z" />
    <glyph glyph-name="uni1EA6" unicode="&#x1ea6;" horiz-adv-x="1435" 
d="M725 2263l473 -215l-53 -106l-498 149zM1028 1657l-115 147l-170 -147h-206l290 258h170l222 -258h-191zM-8 0l723 1481h266l315 -1481h-247l-76 371h-549l-184 -371h-248zM510 594h432l-127 643z" />
    <glyph glyph-name="uni1EA7" unicode="&#x1ea7;" horiz-adv-x="1150" 
d="M514 1839l475 -215l-53 -106l-500 149zM817 1233l-115 147l-170 -147h-206l290 258h170l222 -258h-191zM358 -20q-154 0 -238 83.5t-63 231.5q23 175 158.5 259t409.5 95l153 10l8 66q11 90 -33.5 140t-136.5 50q-158 0 -266 -157l-194 30q69 134 198 211.5t297 77.5
q215 0 305.5 -88t67.5 -248l-100 -741h-207l2 164q-135 -184 -361 -184zM461 150q92 0 177 61.5t97 138.5l23 174l-127 -6q-155 -10 -238 -53t-96 -148q-12 -77 35 -122t129 -45z" />
    <glyph glyph-name="uni1EA8" unicode="&#x1ea8;" horiz-adv-x="1435" 
d="M1079 2114l39 -107q75 45 121 45q32 0 50 -12.5t14 -40.5q-6 -28 -33 -55t-92 -76l55 -90q99 84 128 118q48 56 56 111q10 73 -35 117.5t-125 44.5q-68 0 -178 -55zM1030 1657l-117 147l-170 -147h-204l288 258h172l220 -258h-189zM-8 0l723 1481h266l315 -1481h-247
l-76 371h-549l-184 -371h-248zM510 594h432l-127 643z" />
    <glyph glyph-name="uni1EA9" unicode="&#x1ea9;" horiz-adv-x="1150" 
d="M870 1690l41 -107q72 45 119 45q32 0 50 -12.5t14 -40.5q-6 -28 -33 -55t-92 -76l55 -90q99 84 128 118q48 56 56 111q10 73 -34.5 117.5t-124.5 44.5q-69 0 -179 -55zM817 1233l-115 147l-170 -147h-206l290 258h170l222 -258h-191zM358 -20q-154 0 -238 83.5t-63 231.5
q23 175 158.5 259t409.5 95l153 10l8 66q11 90 -33.5 140t-136.5 50q-158 0 -266 -157l-194 30q69 134 198 211.5t297 77.5q215 0 305.5 -88t67.5 -248l-100 -741h-207l2 164q-135 -184 -361 -184zM461 150q92 0 177 61.5t97 138.5l23 174l-127 -6q-155 -10 -238 -53
t-96 -148q-12 -77 35 -122t129 -45z" />
    <glyph glyph-name="uni1EAA" unicode="&#x1eaa;" horiz-adv-x="1435" 
d="M1274 2079q-88 -49 -191 -49q-59 0 -140 27.5t-124 27.5q-33 0 -57.5 -8.5t-56 -29t-46.5 -28.5l-32 148q93 65 182 65q60 0 148 -29.5t126 -29.5q44 0 103 30t69 33zM1028 1657l-115 147l-170 -147h-206l290 258h170l222 -258h-191zM-8 0l723 1481h266l315 -1481h-247
l-76 371h-549l-184 -371h-248zM510 594h432l-127 643z" />
    <glyph glyph-name="uni1EAB" unicode="&#x1eab;" horiz-adv-x="1150" 
d="M1063 1655q-88 -49 -191 -49q-59 0 -140 27.5t-124 27.5q-33 0 -57.5 -9t-55.5 -29t-46 -28l-33 148q93 65 182 65q60 0 148 -29.5t126 -29.5q44 0 103 30t69 33zM817 1233l-115 147l-170 -147h-206l290 258h170l222 -258h-191zM358 -20q-154 0 -238 83.5t-63 231.5
q23 175 158.5 259t409.5 95l153 10l8 66q11 90 -33.5 140t-136.5 50q-158 0 -266 -157l-194 30q69 134 198 211.5t297 77.5q215 0 305.5 -88t67.5 -248l-100 -741h-207l2 164q-135 -184 -361 -184zM461 150q92 0 177 61.5t97 138.5l23 174l-127 -6q-155 -10 -238 -53
t-96 -148q-12 -77 35 -122t129 -45z" />
    <glyph glyph-name="uni1EAC" unicode="&#x1eac;" horiz-adv-x="1368" 
d="M1028 1657l-115 147l-170 -147h-206l290 258h170l222 -258h-191zM-8 0l723 1481h266l315 -1481h-247l-76 371h-549l-184 -371h-248zM510 594h432l-127 643zM754 -98l-29 -232h-207l35 232h201z" />
    <glyph glyph-name="uni1EAD" unicode="&#x1ead;" horiz-adv-x="1091" 
d="M817 1233l-115 147l-170 -147h-206l290 258h170l222 -258h-191zM358 -20q-154 0 -238 83.5t-63 231.5q23 175 158.5 259t409.5 95l153 10l8 66q11 90 -33.5 140t-136.5 50q-158 0 -266 -157l-194 30q69 134 198 211.5t297 77.5q215 0 305.5 -88t67.5 -248l-100 -741h-207
l2 164q-135 -184 -361 -184zM461 150q92 0 177 61.5t97 138.5l23 174l-127 -6q-155 -10 -238 -53t-96 -148q-12 -77 35 -122t129 -45zM526 -98l-30 -232h-205l35 232h200z" />
    <glyph glyph-name="uni1EAE" unicode="&#x1eae;" horiz-adv-x="1435" 
d="M1180 2296l37 -176l-531 -148l-27 117zM1249 1905q-47 -110 -146 -178t-222 -68q-129 0 -209.5 62t-93.5 184h145q66 -113 164 -113q117 0 194 113h168zM-8 0l723 1481h266l315 -1481h-247l-76 371h-549l-184 -371h-248zM510 594h432l-127 643z" />
    <glyph glyph-name="uni1EAF" unicode="&#x1eaf;" horiz-adv-x="1150" 
d="M969 1872l39 -176l-531 -148l-28 117zM1038 1481q-47 -110 -146 -178t-222 -68q-130 0 -209.5 62.5t-91.5 183.5h143q32 -51 70 -82t96 -31t107.5 31t84.5 82h168zM358 -20q-154 0 -238 83.5t-63 231.5q23 175 158.5 259t409.5 95l153 10l8 66q11 90 -33.5 140t-136.5 50
q-158 0 -266 -157l-194 30q69 134 198 211.5t297 77.5q215 0 305.5 -88t67.5 -248l-100 -741h-207l2 164q-135 -184 -361 -184zM461 150q92 0 177 61.5t97 138.5l23 174l-127 -6q-155 -10 -238 -53t-96 -148q-12 -77 35 -122t129 -45z" />
    <glyph glyph-name="uni1EB0" unicode="&#x1eb0;" horiz-adv-x="1435" 
d="M725 2294l475 -215l-53 -107l-498 150zM1249 1905q-47 -110 -145.5 -178t-222.5 -68q-130 0 -209.5 62.5t-91.5 183.5h143q32 -51 70 -82t96 -31q59 0 109 31.5t83 81.5h168zM-8 0l723 1481h266l315 -1481h-247l-76 371h-549l-184 -371h-248zM510 594h432l-127 643z" />
    <glyph glyph-name="uni1EB1" unicode="&#x1eb1;" horiz-adv-x="1150" 
d="M516 1870l473 -215l-53 -107l-498 150zM1038 1481q-47 -110 -146 -178t-222 -68q-130 0 -209.5 62.5t-91.5 183.5h143q32 -51 70 -82t96 -31t107.5 31t84.5 82h168zM358 -20q-154 0 -238 83.5t-63 231.5q23 175 158.5 259t409.5 95l153 10l8 66q11 90 -33.5 140
t-136.5 50q-158 0 -266 -157l-194 30q69 134 198 211.5t297 77.5q215 0 305.5 -88t67.5 -248l-100 -741h-207l2 164q-135 -184 -361 -184zM461 150q92 0 177 61.5t97 138.5l23 174l-127 -6q-155 -10 -238 -53t-96 -148q-12 -77 35 -122t129 -45z" />
    <glyph glyph-name="uni1EB2" unicode="&#x1eb2;" horiz-adv-x="1435" 
d="M735 2222l39 -108q70 45 121 45q31 0 49 -12t14 -40q-6 -29 -34 -57.5t-90 -73.5l55 -90q98 83 127 116q49 57 57 112q10 73 -35 117t-125 44q-70 0 -178 -53zM1249 1905q-49 -110 -147 -178t-221 -68q-131 0 -210.5 62t-92.5 184h145q66 -113 164 -113q117 0 194 113
h168zM-8 0l723 1481h266l315 -1481h-247l-76 371h-549l-184 -371h-248zM510 594h432l-127 643z" />
    <glyph glyph-name="uni1EB3" unicode="&#x1eb3;" horiz-adv-x="1150" 
d="M545 1874l39 -109q67 45 118 45q32 0 50 -11.5t14 -39.5q-6 -29 -33.5 -56.5t-91.5 -74.5l55 -90q7 6 27 23t27 22.5t24 21t23.5 22.5t20.5 21t19.5 22.5t15 22t14 24t8.5 24t6 26.5q12 72 -33.5 117t-126.5 45q-64 0 -176 -55zM1038 1481q-47 -110 -146 -178t-222 -68
q-130 0 -209.5 62.5t-91.5 183.5h143q32 -51 70 -82t96 -31t107.5 31t84.5 82h168zM358 -20q-154 0 -238 83.5t-63 231.5q23 175 158.5 259t409.5 95l153 10l8 66q11 90 -33.5 140t-136.5 50q-158 0 -266 -157l-194 30q69 134 198 211.5t297 77.5q215 0 305.5 -88t67.5 -248
l-100 -741h-207l2 164q-135 -184 -361 -184zM461 150q92 0 177 61.5t97 138.5l23 174l-127 -6q-155 -10 -238 -53t-96 -148q-12 -77 35 -122t129 -45z" />
    <glyph glyph-name="uni1EB4" unicode="&#x1eb4;" horiz-adv-x="1435" 
d="M1274 2111q-92 -51 -191 -51q-59 0 -140 29t-124 29q-33 0 -57.5 -8.5t-56 -29t-46.5 -28.5l-32 146q93 65 182 65q60 0 148 -28.5t126 -28.5q32 0 62.5 12t60.5 28t49 21zM1249 1905q-47 -110 -146 -178t-222 -68q-129 0 -209.5 62t-93.5 184h145q66 -113 164 -113
q117 0 194 113h168zM-8 0l723 1481h266l315 -1481h-247l-76 371h-549l-184 -371h-248zM510 594h432l-127 643z" />
    <glyph glyph-name="uni1EB5" unicode="&#x1eb5;" horiz-adv-x="1150" 
d="M1063 1688q-89 -52 -189 -52q-59 0 -140 29t-124 29q-34 0 -58 -8.5t-56 -29.5t-45 -28l-33 146q46 32 87 48.5t95 16.5q60 0 147 -28.5t127 -28.5q43 0 101.5 29t71.5 32zM1038 1481q-47 -110 -146 -178t-222 -68q-130 0 -209.5 62.5t-91.5 183.5h143q32 -51 70 -82
t96 -31t107.5 31t84.5 82h168zM358 -20q-154 0 -238 83.5t-63 231.5q23 175 158.5 259t409.5 95l153 10l8 66q11 90 -33.5 140t-136.5 50q-158 0 -266 -157l-194 30q69 134 198 211.5t297 77.5q215 0 305.5 -88t67.5 -248l-100 -741h-207l2 164q-135 -184 -361 -184z
M461 150q92 0 177 61.5t97 138.5l23 174l-127 -6q-155 -10 -238 -53t-96 -148q-12 -77 35 -122t129 -45z" />
    <glyph glyph-name="uni1EB6" unicode="&#x1eb6;" horiz-adv-x="1368" 
d="M1249 1905q-47 -110 -146 -178t-222 -68q-130 0 -209.5 62.5t-91.5 183.5h143q66 -113 164 -113q117 0 194 113h168zM-8 0l723 1481h266l315 -1481h-247l-76 371h-549l-184 -371h-248zM510 594h432l-127 643zM754 -98l-29 -232h-207l35 232h201z" />
    <glyph glyph-name="uni1EB7" unicode="&#x1eb7;" horiz-adv-x="1091" 
d="M1038 1481q-47 -110 -146 -178t-222 -68q-130 0 -209.5 62.5t-91.5 183.5h143q32 -51 70 -82t96 -31t107.5 31t84.5 82h168zM358 -20q-154 0 -238 83.5t-63 231.5q23 175 158.5 259t409.5 95l153 10l8 66q11 90 -33.5 140t-136.5 50q-158 0 -266 -157l-194 30
q69 134 198 211.5t297 77.5q215 0 305.5 -88t67.5 -248l-100 -741h-207l2 164q-135 -184 -361 -184zM461 150q92 0 177 61.5t97 138.5l23 174l-127 -6q-155 -10 -238 -53t-96 -148q-12 -77 35 -122t129 -45zM526 -98l-30 -232h-205l35 232h200z" />
    <glyph glyph-name="uni1EB8" unicode="&#x1eb8;" horiz-adv-x="1284" 
d="M111 0l202 1481h959l-31 -215h-709l-57 -416h625l-29 -209h-627l-55 -424l723 -2l-29 -215h-972zM705 -98l-31 -232h-205l35 232h201z" />
    <glyph glyph-name="uni1EB9" unicode="&#x1eb9;" horiz-adv-x="1159" 
d="M326 459q-19 -138 39.5 -223.5t183.5 -85.5q170 0 262 149l190 -51q-75 -131 -198 -199.5t-275 -68.5q-229 0 -353 145t-91 391q34 248 191 404.5t384 156.5q225 0 332.5 -149t73.5 -391l-12 -78h-727zM350 629h492q18 130 -34 209.5t-171 79.5q-123 0 -197.5 -83.5
t-89.5 -205.5zM600 -98l-31 -232h-204l34 232h201z" />
    <glyph glyph-name="uni1EBA" unicode="&#x1eba;" horiz-adv-x="1284" 
d="M662 1933l38 -108q72 45 119 45q31 0 49.5 -12t14.5 -39q-4 -30 -32 -57.5t-93 -73.5l55 -91q39 32 54.5 45.5t45 41.5t42.5 46t26.5 43.5t17.5 51.5q10 73 -35.5 117.5t-125.5 44.5q-66 0 -176 -54zM111 0l202 1481h959l-31 -215h-709l-57 -416h625l-29 -209h-627
l-55 -424l723 -2l-29 -215h-972z" />
    <glyph glyph-name="uni1EBB" unicode="&#x1ebb;" horiz-adv-x="1159" 
d="M514 1509l39 -108q72 45 119 45q31 0 49 -12t14 -39q-4 -30 -32 -57.5t-93 -73.5l56 -90q41 34 55 45.5t44.5 40.5t43 46.5t26 43t17.5 51.5q10 73 -35.5 117.5t-126.5 44.5q-66 0 -176 -54zM326 459q-19 -138 39.5 -223.5t183.5 -85.5q170 0 262 149l190 -51
q-75 -131 -198 -199.5t-275 -68.5q-229 0 -353 145t-91 391q34 248 191 404.5t384 156.5q225 0 332.5 -149t73.5 -391l-12 -78h-727zM350 629h492q18 130 -34 209.5t-171 79.5q-123 0 -197.5 -83.5t-89.5 -205.5z" />
    <glyph glyph-name="uni1EBC" unicode="&#x1ebc;" horiz-adv-x="1284" 
d="M1174 1745q-92 -49 -191 -49q-59 0 -139.5 27.5t-122.5 27.5q-34 0 -58.5 -8.5t-57.5 -29t-46 -27.5l-33 147q48 32 89.5 48.5t93.5 16.5q60 0 148 -29.5t126 -29.5q45 0 103 30.5t69 33.5zM111 0l202 1481h959l-31 -215h-709l-57 -416h625l-29 -209h-627l-55 -424
l723 -2l-29 -215h-972z" />
    <glyph glyph-name="uni1EBD" unicode="&#x1ebd;" horiz-adv-x="1159" 
d="M1034 1321q-96 -49 -190 -49q-59 0 -140 27.5t-124 27.5q-34 0 -57.5 -8t-57.5 -29.5t-45 -27.5l-33 147q95 66 182 66q60 0 148.5 -30t126.5 -30q44 0 102.5 30.5t69.5 33.5zM326 459q-19 -138 39.5 -223.5t183.5 -85.5q170 0 262 149l190 -51q-75 -131 -198 -199.5
t-275 -68.5q-229 0 -353 145t-91 391q34 248 191 404.5t384 156.5q225 0 332.5 -149t73.5 -391l-12 -78h-727zM350 629h492q18 130 -34 209.5t-171 79.5q-123 0 -197.5 -83.5t-89.5 -205.5z" />
    <glyph glyph-name="uni1EBE" unicode="&#x1ebe;" horiz-adv-x="1284" 
d="M1118 2265l39 -178l-532 -148l-27 119zM969 1657l-117 147l-170 -147h-205l291 258h170l219 -258h-188zM111 0l202 1481h959l-31 -215h-709l-57 -416h625l-29 -209h-627l-55 -424l723 -2l-29 -215h-972z" />
    <glyph glyph-name="uni1EBF" unicode="&#x1ebf;" horiz-adv-x="1159" 
d="M977 1841l39 -178l-533 -147l-26 118zM827 1233l-116 147l-170 -147h-207l291 258h170l221 -258h-189zM326 459q-19 -138 39.5 -223.5t183.5 -85.5q170 0 262 149l190 -51q-75 -131 -198 -199.5t-275 -68.5q-229 0 -353 145t-91 391q34 248 191 404.5t384 156.5
q225 0 332.5 -149t73.5 -391l-12 -78h-727zM350 629h492q18 130 -34 209.5t-171 79.5q-123 0 -197.5 -83.5t-89.5 -205.5z" />
    <glyph glyph-name="uni1EC0" unicode="&#x1ec0;" horiz-adv-x="1284" 
d="M666 2263l473 -215l-54 -106l-497 149zM969 1657l-115 147l-170 -147h-207l291 258h170l221 -258h-190zM111 0l202 1481h959l-31 -215h-709l-57 -416h625l-29 -209h-627l-55 -424l723 -2l-29 -215h-972z" />
    <glyph glyph-name="uni1EC1" unicode="&#x1ec1;" horiz-adv-x="1159" 
d="M522 1839l475 -215l-53 -106l-498 149zM827 1233l-116 147l-170 -147h-207l291 258h170l221 -258h-189zM326 459q-19 -138 39.5 -223.5t183.5 -85.5q170 0 262 149l190 -51q-75 -131 -198 -199.5t-275 -68.5q-229 0 -353 145t-91 391q34 248 191 404.5t384 156.5
q225 0 332.5 -149t73.5 -391l-12 -78h-727zM350 629h492q18 130 -34 209.5t-171 79.5q-123 0 -197.5 -83.5t-89.5 -205.5z" />
    <glyph glyph-name="uni1EC2" unicode="&#x1ec2;" horiz-adv-x="1284" 
d="M1018 2114l39 -107q75 45 121 45q31 0 49 -12t14 -41q-6 -28 -33 -55t-92 -76l55 -90q99 84 127 116q50 57 58 113q10 73 -35 117.5t-125 44.5q-68 0 -178 -55zM969 1657l-117 147l-170 -147h-205l289 258h172l219 -258h-188zM111 0l202 1481h959l-31 -215h-709l-57 -416
h625l-29 -209h-627l-55 -424l723 -2l-29 -215h-972z" />
    <glyph glyph-name="uni1EC3" unicode="&#x1ec3;" horiz-adv-x="1159" 
d="M881 1690l39 -107q72 45 118 45q32 0 50 -12.5t14 -40.5q-4 -29 -31.5 -56t-93.5 -75l55 -90q100 85 128 117q50 56 59 112q10 73 -35.5 117.5t-126.5 44.5q-71 0 -176 -55zM827 1233l-116 147l-170 -147h-207l291 258h170l221 -258h-189zM326 459q-19 -138 39.5 -223.5
t183.5 -85.5q170 0 262 149l190 -51q-75 -131 -198 -199.5t-275 -68.5q-229 0 -353 145t-91 391q34 248 191 404.5t384 156.5q225 0 332.5 -149t73.5 -391l-12 -78h-727zM350 629h492q18 130 -34 209.5t-171 79.5q-123 0 -197.5 -83.5t-89.5 -205.5z" />
    <glyph glyph-name="uni1EC4" unicode="&#x1ec4;" horiz-adv-x="1284" 
d="M1212 2079q-88 -49 -190 -49q-59 0 -140 27.5t-124 27.5q-33 0 -57.5 -8.5t-56 -29t-46.5 -28.5l-33 148q93 65 183 65q60 0 148 -29.5t126 -29.5q44 0 103 30t69 33zM967 1657l-115 147l-170 -147h-207l291 258h170l221 -258h-190zM111 0l202 1481h959l-31 -215h-709
l-57 -416h625l-29 -209h-627l-55 -424l723 -2l-29 -215h-972z" />
    <glyph glyph-name="uni1EC5" unicode="&#x1ec5;" horiz-adv-x="1159" 
d="M1071 1655q-84 -49 -190 -49q-59 0 -139.5 27.5t-123.5 27.5q-34 0 -58.5 -8.5t-56 -29.5t-46.5 -28l-33 148q48 32 89 48.5t93 16.5q60 0 148.5 -29.5t126.5 -29.5q45 0 103.5 30t68.5 33zM827 1233l-116 147l-170 -147h-207l291 258h170l221 -258h-189zM326 459
q-19 -138 39.5 -223.5t183.5 -85.5q170 0 262 149l190 -51q-75 -131 -198 -199.5t-275 -68.5q-229 0 -353 145t-91 391q34 248 191 404.5t384 156.5q225 0 332.5 -149t73.5 -391l-12 -78h-727zM350 629h492q18 130 -34 209.5t-171 79.5q-123 0 -197.5 -83.5t-89.5 -205.5z
" />
    <glyph glyph-name="uni1EC6" unicode="&#x1ec6;" horiz-adv-x="1284" 
d="M969 1657l-117 147l-170 -147h-205l291 258h170l219 -258h-188zM111 0l202 1481h959l-31 -215h-709l-57 -416h625l-29 -209h-627l-55 -424l723 -2l-29 -215h-972zM705 -98l-31 -232h-205l35 232h201z" />
    <glyph glyph-name="uni1EC7" unicode="&#x1ec7;" horiz-adv-x="1159" 
d="M827 1233l-116 147l-170 -147h-207l291 258h170l221 -258h-189zM326 459q-19 -138 39.5 -223.5t183.5 -85.5q170 0 262 149l190 -51q-75 -131 -198 -199.5t-275 -68.5q-229 0 -353 145t-91 391q34 248 191 404.5t384 156.5q225 0 332.5 -149t73.5 -391l-12 -78h-727z
M350 629h492q18 130 -34 209.5t-171 79.5q-123 0 -197.5 -83.5t-89.5 -205.5zM600 -98l-31 -232h-204l34 232h201z" />
    <glyph glyph-name="uni1EC8" unicode="&#x1ec8;" horiz-adv-x="610" 
d="M299 1933l39 -108q72 45 119 45q31 0 49 -12t14 -39q-4 -30 -32 -57.5t-93 -73.5l56 -91q39 32 54.5 45.5t45 41.5t42.5 46t26.5 43.5t17.5 51.5q10 73 -35.5 117.5t-126.5 44.5q-66 0 -176 -54zM313 1481h246l-201 -1481h-247z" />
    <glyph glyph-name="uni1EC9" unicode="&#x1ec9;" horiz-adv-x="552" 
d="M205 1509l39 -108q75 45 121 45q68 0 63 -51q-6 -30 -34 -57.5t-93 -73.5l57 -90q5 5 26 22.5l27 22.5t24 20.5t24 22t20 21t20 23t15.5 22t14 24t8.5 23.5t6 26q10 72 -35.5 117t-124.5 45q-68 0 -178 -54zM469 1057l-147 -1057h-246l145 1057h248z" />
    <glyph glyph-name="uni1ECA" unicode="&#x1eca;" horiz-adv-x="610" 
d="M313 1481h246l-201 -1481h-247zM332 -98l-31 -232h-205l35 232h201z" />
    <glyph glyph-name="uni1ECB" unicode="&#x1ecb;" horiz-adv-x="559" 
d="M545 1520l-41 -269h-256l39 269h258zM473 1057l-143 -1057h-248l145 1057h246zM299 -98l-31 -232h-205l35 232h201z" />
    <glyph glyph-name="uni1ECC" unicode="&#x1ecc;" horiz-adv-x="1529" 
d="M690 -20q-302 0 -448 200t-97 555q49 357 252 561.5t502 204.5q298 0 445 -203.5t98 -560.5q-49 -354 -251 -555.5t-501 -201.5zM721 188q181 0 297 133t153 412q39 284 -41 421.5t-260 137.5t-298 -138t-158 -421q-36 -278 45 -411.5t262 -133.5zM770 -98l-31 -232h-204
l34 232h201z" />
    <glyph glyph-name="uni1ECD" unicode="&#x1ecd;" horiz-adv-x="1157" 
d="M502 -20q-225 0 -339.5 150.5t-80.5 391.5q32 247 191 401t382 154q227 0 341 -154t81 -399q-33 -241 -190.5 -392.5t-384.5 -151.5zM530 147q84 0 149 57.5t100.5 141.5t49.5 186q12 73 5.5 141.5t-27 121t-65.5 84.5t-109 32q-85 0 -151 -56t-102 -138.5t-50 -184.5
q-13 -72 -5.5 -141.5t28 -123.5t66.5 -87t111 -33zM598 -98l-31 -232h-205l35 232h201z" />
    <glyph glyph-name="uni1ECE" unicode="&#x1ece;" horiz-adv-x="1476" 
d="M729 1933l39 -108q72 45 119 45q31 0 49 -12t14 -39q-4 -30 -32 -57.5t-93 -73.5l56 -91q39 32 54.5 45.5t45 41.5t42.5 46t26.5 43.5t17.5 51.5q10 73 -35.5 117.5t-126.5 44.5q-66 0 -176 -54zM690 -20q-302 0 -448 200t-97 555q49 357 252 561.5t502 204.5
q298 0 445 -203.5t98 -560.5q-49 -354 -251 -555.5t-501 -201.5zM721 188q181 0 297 133t153 412q39 284 -41 421.5t-260 137.5t-298 -138t-158 -421q-36 -278 45 -411.5t262 -133.5z" />
    <glyph glyph-name="uni1ECF" unicode="&#x1ecf;" horiz-adv-x="1163" 
d="M514 1509l39 -108q72 45 119 45q31 0 49 -12t14 -39q-6 -30 -33.5 -58t-91.5 -73l56 -90q41 34 55 45.5t44.5 40.5t42.5 46.5t25.5 43t16.5 51.5q12 72 -33.5 117t-126.5 45q-66 0 -176 -54zM502 -20q-225 0 -339.5 150.5t-80.5 391.5q32 247 191 401t382 154
q227 0 341 -154t81 -399q-33 -241 -190.5 -392.5t-384.5 -151.5zM530 147q84 0 149 57.5t100.5 141.5t49.5 186q12 73 5.5 141.5t-27 121t-65.5 84.5t-109 32q-85 0 -151 -56t-102 -138.5t-50 -184.5q-13 -72 -5.5 -141.5t28 -123.5t66.5 -87t111 -33z" />
    <glyph glyph-name="uni1ED0" unicode="&#x1ed0;" horiz-adv-x="1476" 
d="M1192 2265l39 -178l-533 -148l-26 119zM1042 1657l-116 147l-170 -147h-207l291 258h172l219 -258h-189zM690 -20q-302 0 -448 200t-97 555q49 357 252 561.5t502 204.5q298 0 445 -203.5t98 -560.5q-49 -354 -251 -555.5t-501 -201.5zM721 188q181 0 297 133t153 412
q39 284 -41 421.5t-260 137.5t-298 -138t-158 -421q-36 -278 45 -411.5t262 -133.5z" />
    <glyph glyph-name="uni1ED1" unicode="&#x1ed1;" horiz-adv-x="1163" 
d="M977 1841l39 -178l-533 -147l-26 118zM827 1233l-116 147l-170 -147h-207l291 258h170l221 -258h-189zM502 -20q-225 0 -339.5 150.5t-80.5 391.5q32 247 191 401t382 154q227 0 341 -154t81 -399q-33 -241 -190.5 -392.5t-384.5 -151.5zM530 147q84 0 149 57.5
t100.5 141.5t49.5 186q12 73 5.5 141.5t-27 121t-65.5 84.5t-109 32q-85 0 -151 -56t-102 -138.5t-50 -184.5q-13 -72 -5.5 -141.5t28 -123.5t66.5 -87t111 -33z" />
    <glyph glyph-name="uni1ED2" unicode="&#x1ed2;" horiz-adv-x="1476" 
d="M737 2263l475 -215l-53 -106l-497 149zM1042 1657l-116 147l-170 -147h-207l291 258h172l219 -258h-189zM690 -20q-302 0 -448 200t-97 555q49 357 252 561.5t502 204.5q298 0 445 -203.5t98 -560.5q-49 -354 -251 -555.5t-501 -201.5zM721 188q181 0 297 133t153 412
q39 284 -41 421.5t-260 137.5t-298 -138t-158 -421q-36 -278 45 -411.5t262 -133.5z" />
    <glyph glyph-name="uni1ED3" unicode="&#x1ed3;" horiz-adv-x="1163" 
d="M522 1839l475 -215l-53 -106l-498 149zM827 1233l-116 147l-170 -147h-207l291 258h170l221 -258h-189zM502 -20q-225 0 -339.5 150.5t-80.5 391.5q32 247 191 401t382 154q227 0 341 -154t81 -399q-33 -241 -190.5 -392.5t-384.5 -151.5zM530 147q84 0 149 57.5
t100.5 141.5t49.5 186q12 73 5.5 141.5t-27 121t-65.5 84.5t-109 32q-85 0 -151 -56t-102 -138.5t-50 -184.5q-13 -72 -5.5 -141.5t28 -123.5t66.5 -87t111 -33z" />
    <glyph glyph-name="uni1ED4" unicode="&#x1ed4;" horiz-adv-x="1476" 
d="M1092 2114l38 -107q75 45 121 45q30 0 49 -12.5t15 -40.5q-6 -28 -33 -55t-92 -76l55 -90q6 5 32.5 28t33.5 29t28 26t28.5 28.5t22 26t20 30t12 29t8.5 32.5q10 73 -35 117.5t-125 44.5q-68 0 -178 -55zM1042 1657l-116 147l-170 -147h-207l291 258h172l219 -258h-189z
M690 -20q-302 0 -448 200t-97 555q49 357 252 561.5t502 204.5q298 0 445 -203.5t98 -560.5q-49 -354 -251 -555.5t-501 -201.5zM721 188q181 0 297 133t153 412q39 284 -41 421.5t-260 137.5t-298 -138t-158 -421q-36 -278 45 -411.5t262 -133.5z" />
    <glyph glyph-name="uni1ED5" unicode="&#x1ed5;" horiz-adv-x="1163" 
d="M881 1690l39 -107q72 45 118 45q32 0 50 -12.5t14 -40.5q-6 -29 -33.5 -56.5t-91.5 -74.5l55 -90q99 84 127 116q50 57 58 113q12 72 -33.5 117t-126.5 45q-71 0 -176 -55zM827 1233l-116 147l-170 -147h-207l291 258h170l221 -258h-189zM502 -20q-225 0 -339.5 150.5
t-80.5 391.5q32 247 191 401t382 154q227 0 341 -154t81 -399q-33 -241 -190.5 -392.5t-384.5 -151.5zM530 147q84 0 149 57.5t100.5 141.5t49.5 186q12 73 5.5 141.5t-27 121t-65.5 84.5t-109 32q-85 0 -151 -56t-102 -138.5t-50 -184.5q-13 -72 -5.5 -141.5t28 -123.5
t66.5 -87t111 -33z" />
    <glyph glyph-name="uni1ED6" unicode="&#x1ed6;" horiz-adv-x="1476" 
d="M1286 2079q-84 -49 -190 -49q-59 0 -139 27.5t-123 27.5q-34 0 -59 -8.5t-57 -29.5t-46 -28l-33 148q48 32 89 48.5t95 16.5q59 0 146.5 -29.5t126.5 -29.5q45 0 103.5 30t68.5 33zM1042 1657l-116 147l-170 -147h-207l291 258h172l219 -258h-189zM690 -20
q-302 0 -448 200t-97 555q49 357 252 561.5t502 204.5q298 0 445 -203.5t98 -560.5q-49 -354 -251 -555.5t-501 -201.5zM721 188q181 0 297 133t153 412q39 284 -41 421.5t-260 137.5t-298 -138t-158 -421q-36 -278 45 -411.5t262 -133.5z" />
    <glyph glyph-name="uni1ED7" unicode="&#x1ed7;" horiz-adv-x="1163" 
d="M1071 1655q-88 -49 -190 -49q-59 0 -140.5 27.5t-124.5 27.5q-33 0 -57.5 -9t-55.5 -29t-46 -28l-33 148q93 65 182 65q60 0 148.5 -29.5t126.5 -29.5q45 0 103.5 30t68.5 33zM827 1233l-116 147l-170 -147h-207l291 258h170l221 -258h-189zM502 -20q-225 0 -339.5 150.5
t-80.5 391.5q32 247 191 401t382 154q227 0 341 -154t81 -399q-33 -241 -190.5 -392.5t-384.5 -151.5zM530 147q84 0 149 57.5t100.5 141.5t49.5 186q12 73 5.5 141.5t-27 121t-65.5 84.5t-109 32q-85 0 -151 -56t-102 -138.5t-50 -184.5q-13 -72 -5.5 -141.5t28 -123.5
t66.5 -87t111 -33z" />
    <glyph glyph-name="uni1ED8" unicode="&#x1ed8;" horiz-adv-x="1476" 
d="M1042 1657l-116 147l-170 -147h-207l291 258h172l219 -258h-189zM690 -20q-302 0 -448 200t-97 555q49 357 252 561.5t502 204.5q298 0 445 -203.5t98 -560.5q-49 -354 -251 -555.5t-501 -201.5zM721 188q181 0 297 133t153 412q39 284 -41 421.5t-260 137.5t-298 -138
t-158 -421q-36 -278 45 -411.5t262 -133.5zM764 -98l-31 -232h-205l35 232h201z" />
    <glyph glyph-name="uni1ED9" unicode="&#x1ed9;" horiz-adv-x="1163" 
d="M827 1233l-116 147l-170 -147h-207l291 258h170l221 -258h-189zM502 -20q-225 0 -339.5 150.5t-80.5 391.5q32 247 191 401t382 154q227 0 341 -154t81 -399q-33 -241 -190.5 -392.5t-384.5 -151.5zM530 147q84 0 149 57.5t100.5 141.5t49.5 186q12 73 5.5 141.5t-27 121
t-65.5 84.5t-109 32q-85 0 -151 -56t-102 -138.5t-50 -184.5q-13 -72 -5.5 -141.5t28 -123.5t66.5 -87t111 -33zM598 -98l-31 -232h-205l35 232h201z" />
    <glyph glyph-name="uni1EDA" unicode="&#x1eda;" horiz-adv-x="1445" 
d="M1210 1753l-530 -147l-29 118l520 207zM1225 1413q137 -90 193.5 -263.5t23.5 -412.5q-49 -354 -251 -555.5t-501 -201.5q-302 0 -448 200t-97 555q49 357 252 561.5t502 204.5q71 0 135 -12q59 0 103.5 32.5t70.5 88.5h170q-48 -129 -153 -197zM1171 733
q39 284 -41 421.5t-260 137.5t-298 -138t-158 -421q-36 -278 45 -411.5t262 -133.5t297 133t153 412z" />
    <glyph glyph-name="uni1EDB" unicode="&#x1edb;" horiz-adv-x="1150" 
d="M975 1329l-533 -147l-26 118l520 207zM952 973q78 -74 111 -190.5t14 -258.5q-33 -241 -190.5 -392.5t-384.5 -151.5q-225 0 -339.5 150.5t-80.5 391.5q32 247 191 401t382 154q81 0 152 -22q88 20 135 116h168q-48 -129 -158 -198zM829 532q12 73 5.5 141.5t-27 121
t-65.5 84.5t-109 32q-85 0 -151 -56t-102 -138.5t-50 -184.5q-13 -72 -5.5 -141.5t28 -123.5t66.5 -87t111 -33q84 0 149 57.5t100.5 141.5t49.5 186z" />
    <glyph glyph-name="uni1EDC" unicode="&#x1edc;" horiz-adv-x="1445" 
d="M1192 1714l-53 -106l-498 149l76 172zM1225 1413q137 -90 193.5 -263.5t23.5 -412.5q-49 -354 -251 -555.5t-501 -201.5q-302 0 -448 200t-97 555q49 357 252 561.5t502 204.5q71 0 135 -12q59 0 103.5 32.5t70.5 88.5h170q-48 -129 -153 -197zM1171 733
q39 284 -41 421.5t-260 137.5t-298 -138t-158 -421q-36 -278 45 -411.5t262 -133.5t297 133t153 412z" />
    <glyph glyph-name="uni1EDD" unicode="&#x1edd;" horiz-adv-x="1150" 
d="M956 1290l-53 -106l-497 149l75 172zM952 973q78 -74 111 -190.5t14 -258.5q-33 -241 -190.5 -392.5t-384.5 -151.5q-225 0 -339.5 150.5t-80.5 391.5q32 247 191 401t382 154q81 0 152 -22q88 20 135 116h168q-48 -129 -158 -198zM829 532q12 73 5.5 141.5t-27 121
t-65.5 84.5t-109 32q-85 0 -151 -56t-102 -138.5t-50 -184.5q-13 -72 -5.5 -141.5t28 -123.5t66.5 -87t111 -33q84 0 149 57.5t100.5 141.5t49.5 186z" />
    <glyph glyph-name="uni1EDE" unicode="&#x1ede;" horiz-adv-x="1445" 
d="M905 1870q-46 0 -121 -45l-39 108q115 54 179 54q80 0 124.5 -44.5t34.5 -117.5q-4 -32 -18.5 -60t-46 -60.5t-51.5 -50t-68 -57.5l-55 91q64 46 91.5 73.5t33.5 57.5q4 27 -14.5 39t-49.5 12zM1225 1413q137 -90 193.5 -263.5t23.5 -412.5q-49 -354 -251 -555.5
t-501 -201.5q-302 0 -448 200t-97 555q49 357 252 561.5t502 204.5q71 0 135 -12q59 0 103.5 32.5t70.5 88.5h170q-48 -129 -153 -197zM1171 733q39 284 -41 421.5t-260 137.5t-298 -138t-158 -421q-36 -278 45 -411.5t262 -133.5t297 133t153 412z" />
    <glyph glyph-name="uni1EDF" unicode="&#x1edf;" horiz-adv-x="1150" 
d="M670 1446q-46 0 -121 -45l-39 108q110 54 178 54q79 0 124.5 -45t35.5 -117q-5 -38 -32 -78t-53 -64t-80 -69q-13 -11 -19 -16l-58 90q65 46 93 73.5t34 57.5q5 51 -63 51zM952 973q78 -74 111 -190.5t14 -258.5q-33 -241 -190.5 -392.5t-384.5 -151.5
q-225 0 -339.5 150.5t-80.5 391.5q32 247 191 401t382 154q81 0 152 -22q88 20 135 116h168q-48 -129 -158 -198zM829 532q12 73 5.5 141.5t-27 121t-65.5 84.5t-109 32q-85 0 -151 -56t-102 -138.5t-50 -184.5q-13 -72 -5.5 -141.5t28 -123.5t66.5 -87t111 -33
q84 0 149 57.5t100.5 141.5t49.5 186z" />
    <glyph glyph-name="uni1EE0" unicode="&#x1ee0;" horiz-adv-x="1445" 
d="M813 1751q-34 0 -58 -8t-57.5 -29t-46.5 -28l-30 147q46 32 87 48.5t95 16.5q60 0 147 -29.5t125 -29.5q45 0 104.5 31t67.5 33l19 -158q-92 -49 -189 -49q-59 0 -140 27.5t-124 27.5zM1225 1413q137 -90 193.5 -263.5t23.5 -412.5q-49 -354 -251 -555.5t-501 -201.5
q-302 0 -448 200t-97 555q49 357 252 561.5t502 204.5q71 0 135 -12q59 0 103.5 32.5t70.5 88.5h170q-48 -129 -153 -197zM1171 733q39 284 -41 421.5t-260 137.5t-298 -138t-158 -421q-36 -278 45 -411.5t262 -133.5t297 133t153 412z" />
    <glyph glyph-name="uni1EE1" unicode="&#x1ee1;" horiz-adv-x="1150" 
d="M578 1327q-34 0 -58.5 -8.5t-57.5 -29t-46 -27.5l-33 147q49 33 89.5 49.5t92.5 16.5q60 0 148.5 -30t126.5 -30q45 0 103 30.5t69 33.5l18 -158q-92 -49 -190 -49q-59 0 -139 27.5t-123 27.5zM952 973q78 -74 111 -190.5t14 -258.5q-33 -241 -190.5 -392.5
t-384.5 -151.5q-225 0 -339.5 150.5t-80.5 391.5q32 247 191 401t382 154q81 0 152 -22q88 20 135 116h168q-48 -129 -158 -198zM829 532q12 73 5.5 141.5t-27 121t-65.5 84.5t-109 32q-85 0 -151 -56t-102 -138.5t-50 -184.5q-13 -72 -5.5 -141.5t28 -123.5t66.5 -87
t111 -33q84 0 149 57.5t100.5 141.5t49.5 186z" />
    <glyph glyph-name="uni1EE2" unicode="&#x1ee2;" horiz-adv-x="1445" 
d="M1225 1413q137 -90 193.5 -263.5t23.5 -412.5q-49 -354 -251 -555.5t-501 -201.5q-302 0 -448 200t-97 555q49 357 252 561.5t502 204.5q71 0 135 -12q59 0 103.5 32.5t70.5 88.5h170q-48 -129 -153 -197zM1171 733q39 284 -41 421.5t-260 137.5t-298 -138t-158 -421
q-36 -278 45 -411.5t262 -133.5t297 133t153 412zM530 -330l35 232h201l-31 -232h-205z" />
    <glyph glyph-name="uni1EE3" unicode="&#x1ee3;" horiz-adv-x="1150" 
d="M952 973q78 -74 111 -190.5t14 -258.5q-33 -241 -190.5 -392.5t-384.5 -151.5q-225 0 -339.5 150.5t-80.5 391.5q32 247 191 401t382 154q81 0 152 -22q88 20 135 116h168q-48 -129 -158 -198zM829 532q12 73 5.5 141.5t-27 121t-65.5 84.5t-109 32q-85 0 -151 -56
t-102 -138.5t-50 -184.5q-13 -72 -5.5 -141.5t28 -123.5t66.5 -87t111 -33q84 0 149 57.5t100.5 141.5t49.5 186zM365 -330l34 232h201l-29 -232h-206z" />
    <glyph glyph-name="uni1EE4" unicode="&#x1ee4;" horiz-adv-x="1429" 
d="M1300 541q-38 -273 -191.5 -417t-444.5 -144q-293 0 -404.5 145.5t-73.5 429.5l127 926h252l-129 -953q-24 -167 45 -251t213 -84q145 0 238 83.5t119 251.5l129 953h250zM713 -98l-31 -232h-205l35 232h201z" />
    <glyph glyph-name="uni1EE5" unicode="&#x1ee5;" horiz-adv-x="1185" 
d="M399 -20q-143 2 -225.5 88t-62.5 229l104 762h248l-101 -727q-12 -82 26.5 -129t125.5 -47q75 0 133 35t127 110l105 758h249l-149 -1059h-188l-5 172q-189 -192 -387 -192zM614 -98l-30 -232h-205l35 232h200z" />
    <glyph glyph-name="uni1EE6" unicode="&#x1ee6;" horiz-adv-x="1464" 
d="M707 1933l38 -108q72 45 119 45q31 0 49.5 -12t14.5 -39q-6 -30 -33.5 -58t-91.5 -73l55 -91q48 40 68 57.5t51.5 50t46 60.5t18.5 60q10 73 -34.5 117.5t-124.5 44.5q-66 0 -176 -54zM1300 541q-38 -273 -191.5 -417t-444.5 -144q-293 0 -404.5 145.5t-73.5 429.5
l127 926h252l-129 -953q-24 -167 45 -251t213 -84q145 0 238 83.5t119 251.5l129 953h250z" />
    <glyph glyph-name="uni1EE7" unicode="&#x1ee7;" horiz-adv-x="1185" 
d="M518 1509l39 -108q72 45 119 45q31 0 49 -12t14 -39q-4 -30 -32 -57.5t-93 -73.5l56 -90q41 34 55 45.5t44.5 40.5t43 46.5t26 43t17.5 51.5q10 73 -35.5 117.5t-126.5 44.5q-66 0 -176 -54zM399 -20q-143 2 -225.5 88t-62.5 229l104 762h248l-101 -727
q-12 -82 26.5 -129t125.5 -47q75 0 133 35t127 110l105 758h249l-149 -1059h-188l-5 172q-189 -192 -387 -192z" />
    <glyph glyph-name="uni1EE8" unicode="&#x1ee8;" horiz-adv-x="1409" 
d="M1174 1753l-533 -147l-27 118l521 207zM1737 1612q-39 -108 -124 -175.5t-200 -74.5l-113 -821q-38 -273 -191.5 -417t-444.5 -144q-293 0 -404.5 145.5t-73.5 429.5l127 926h252l-129 -953q-24 -167 45 -251t213 -84q145 0 238 83.5t119 251.5l129 953h211v10
q121 0 176 121h170z" />
    <glyph glyph-name="uni1EE9" unicode="&#x1ee9;" horiz-adv-x="1187" 
d="M967 1329l-531 -147l-26 118l520 207zM1354 1176q-33 -87 -95.5 -149.5t-146.5 -86.5l-133 -940h-188l-5 172q-189 -192 -387 -192q-143 2 -225.5 88t-62.5 229l104 762h248l-101 -727q-12 -82 26.5 -129t125.5 -47q75 0 133 35t127 110l105 758h170q88 17 137 117h168z
" />
    <glyph glyph-name="uni1EEA" unicode="&#x1eea;" horiz-adv-x="1409" 
d="M1155 1714l-53 -106l-498 149l76 172zM1737 1612q-39 -108 -124 -175.5t-200 -74.5l-113 -821q-38 -273 -191.5 -417t-444.5 -144q-293 0 -404.5 145.5t-73.5 429.5l127 926h252l-129 -953q-24 -167 45 -251t213 -84q145 0 238 83.5t119 251.5l129 953h211v10
q121 0 176 121h170z" />
    <glyph glyph-name="uni1EEB" unicode="&#x1eeb;" horiz-adv-x="1187" 
d="M948 1290l-53 -106l-498 149l76 172zM1354 1176q-33 -87 -95.5 -149.5t-146.5 -86.5l-133 -940h-188l-5 172q-189 -192 -387 -192q-143 2 -225.5 88t-62.5 229l104 762h248l-101 -727q-12 -82 26.5 -129t125.5 -47q75 0 133 35t127 110l105 758h170q88 17 137 117h168z
" />
    <glyph glyph-name="uni1EEC" unicode="&#x1eec;" horiz-adv-x="1409" 
d="M868 1870q-45 0 -120 -45l-39 108q110 54 178 54q79 0 124.5 -45t35.5 -117q-5 -38 -32 -78t-54.5 -65t-80.5 -70l-18 -15l-55 91q64 46 91.5 73.5t33.5 57.5q5 51 -64 51zM1737 1612q-39 -108 -124 -175.5t-200 -74.5l-113 -821q-38 -273 -191.5 -417t-444.5 -144
q-293 0 -404.5 145.5t-73.5 429.5l127 926h252l-129 -953q-24 -167 45 -251t213 -84q145 0 238 83.5t119 251.5l129 953h211v10q121 0 176 121h170z" />
    <glyph glyph-name="uni1EED" unicode="&#x1eed;" horiz-adv-x="1187" 
d="M670 1446q-46 0 -121 -45l-39 108q110 54 178 54q79 0 124.5 -45t35.5 -117q-5 -38 -32 -78t-53 -64t-80 -69q-13 -11 -19 -16l-58 90q65 46 93 73.5t34 57.5q5 51 -63 51zM1354 1176q-33 -87 -95.5 -149.5t-146.5 -86.5l-133 -940h-188l-5 172q-189 -192 -387 -192
q-143 2 -225.5 88t-62.5 229l104 762h248l-101 -727q-12 -82 26.5 -129t125.5 -47q75 0 133 35t127 110l105 758h170q88 17 137 117h168z" />
    <glyph glyph-name="uni1EEE" unicode="&#x1eee;" horiz-adv-x="1409" 
d="M776 1751q-34 0 -58.5 -8.5t-57.5 -29t-46 -27.5l-32 147q48 32 89 48.5t95 16.5q59 0 146 -29.5t126 -29.5q45 0 103 30.5t69 33.5l19 -158q-92 -49 -191 -49q-59 0 -139 27.5t-123 27.5zM1737 1612q-39 -108 -124 -175.5t-200 -74.5l-113 -821q-38 -273 -191.5 -417
t-444.5 -144q-293 0 -404.5 145.5t-73.5 429.5l127 926h252l-129 -953q-24 -167 45 -251t213 -84q145 0 238 83.5t119 251.5l129 953h211v10q121 0 176 121h170z" />
    <glyph glyph-name="uni1EEF" unicode="&#x1eef;" horiz-adv-x="1187" 
d="M569 1327q-34 0 -58 -8.5t-56.5 -29t-46.5 -27.5l-31 147q47 33 88 49.5t94 16.5q60 0 147 -30t125 -30q45 0 105.5 31t67.5 33l18 -158q-92 -49 -191 -49q-58 0 -138 27.5t-124 27.5zM1354 1176q-33 -87 -95.5 -149.5t-146.5 -86.5l-133 -940h-188l-5 172
q-189 -192 -387 -192q-143 2 -225.5 88t-62.5 229l104 762h248l-101 -727q-12 -82 26.5 -129t125.5 -47q75 0 133 35t127 110l105 758h170q88 17 137 117h168z" />
    <glyph glyph-name="uni1EF0" unicode="&#x1ef0;" horiz-adv-x="1409" 
d="M1737 1612q-39 -108 -124 -175.5t-200 -74.5l-113 -821q-38 -273 -191.5 -417t-444.5 -144q-293 0 -404.5 145.5t-73.5 429.5l127 926h252l-129 -953q-24 -167 45 -251t213 -84q145 0 238 83.5t119 251.5l129 953h211v10q121 0 176 121h170zM500 -330l37 232h200
l-30 -232h-207z" />
    <glyph glyph-name="uni1EF1" unicode="&#x1ef1;" horiz-adv-x="1187" 
d="M1354 1176q-33 -87 -95.5 -149.5t-146.5 -86.5l-133 -940h-188l-5 172q-189 -192 -387 -192q-143 2 -225.5 88t-62.5 229l104 762h248l-101 -727q-12 -82 26.5 -129t125.5 -47q75 0 133 35t127 110l105 758h170q88 17 137 117h168zM358 -330l35 232h201l-31 -232h-205z
" />
    <glyph glyph-name="Ygrave" unicode="&#x1ef2;" horiz-adv-x="1273" 
d="M614 1929l476 -215l-54 -106l-497 149zM1391 1481l-615 -854l-86 -627h-246l86 627l-383 854h267l270 -639l438 639h269z" />
    <glyph glyph-name="ygrave" unicode="&#x1ef3;" horiz-adv-x="1112" 
d="M483 1505l473 -215l-53 -106l-497 149zM162 -338q-60 0 -104 8t-58 16l-14 7l22 162l105 -5q47 -2 85.5 5t60.5 17.5t40 28.5t25.5 29.5t15.5 28.5l37 76l-264 1022h247l170 -746l375 746h242l-576 -1096q-93 -170 -188.5 -234.5t-220.5 -64.5z" />
    <glyph glyph-name="uni1EF4" unicode="&#x1ef4;" horiz-adv-x="1249" 
d="M1391 1481l-615 -854l-86 -627h-246l86 627l-383 854h267l270 -639l438 639h269zM573 -98l-30 -232h-205l35 232h200z" />
    <glyph glyph-name="uni1EF5" unicode="&#x1ef5;" horiz-adv-x="1048" 
d="M154 -338q-59 0 -103.5 8t-58.5 16l-15 7l23 162l106 -5q47 -2 84.5 5t60 17.5t40.5 28.5t25.5 29.5t15.5 28.5l37 76l-263 1022h246l170 -746l375 746h242l-576 -1096q-93 -170 -188.5 -234.5t-220.5 -64.5zM858 -98l-31 -232h-204l34 232h201z" />
    <glyph glyph-name="uni1EF6" unicode="&#x1ef6;" horiz-adv-x="1259" 
d="M643 1933l39 -108q75 45 121 45q31 0 49 -12t14 -39q-6 -30 -33.5 -57.5t-91.5 -73.5l56 -91q48 40 68 57.5t51.5 50t46 60.5t18.5 60q10 73 -35 117.5t-125 44.5q-63 0 -178 -54zM1391 1481l-615 -854l-86 -627h-246l86 627l-383 854h267l270 -639l438 639h269z" />
    <glyph glyph-name="uni1EF7" unicode="&#x1ef7;" horiz-adv-x="1120" 
d="M518 1509l41 -108q72 45 119 45q31 0 49 -12t14 -39q-6 -30 -33.5 -57.5t-91.5 -73.5l56 -90q41 34 55 45.5t44.5 40.5t42.5 46.5t25.5 43t16.5 51.5q10 73 -35 117.5t-125 44.5q-63 0 -178 -54zM162 -338q-60 0 -104 8t-58 16l-14 7l22 162l105 -5q47 -2 85.5 5
t60.5 17.5t40 28.5t25.5 29.5t15.5 28.5l37 76l-264 1022h247l170 -746l375 746h242l-576 -1096q-93 -170 -188.5 -234.5t-220.5 -64.5z" />
    <glyph glyph-name="uni1EF8" unicode="&#x1ef8;" horiz-adv-x="1273" 
d="M1163 1745q-92 -49 -190 -49q-58 0 -138 27.5t-124 27.5q-34 0 -58 -8t-57.5 -29t-46.5 -28l-33 147q48 32 89 48.5t95 16.5q59 0 146.5 -29.5t126.5 -29.5q45 0 103 30.5t69 33.5zM1391 1481l-615 -854l-86 -627h-246l86 627l-383 854h267l270 -639l438 639h269z" />
    <glyph glyph-name="uni1EF9" unicode="&#x1ef9;" horiz-adv-x="1112" 
d="M1032 1321q-96 -49 -190 -49q-59 0 -140 27.5t-124 27.5q-34 0 -57.5 -8t-57.5 -29.5t-45 -27.5l-33 147q95 66 182 66q60 0 148.5 -30t126.5 -30q44 0 102.5 30.5t69.5 33.5zM162 -338q-60 0 -104 8t-58 16l-14 7l22 162l105 -5q47 -2 85.5 5t60.5 17.5t40 28.5
t25.5 29.5t15.5 28.5l37 76l-264 1022h247l170 -746l375 746h242l-576 -1096q-93 -170 -188.5 -234.5t-220.5 -64.5z" />
    <glyph glyph-name="endash" unicode="&#x2013;" horiz-adv-x="1165" 
d="M1040 604l-22 -186h-912l27 186h907z" />
    <glyph glyph-name="emdash" unicode="&#x2014;" horiz-adv-x="1796" 
d="M1673 604l-24 -186h-1543l27 186h1540z" />
    <glyph glyph-name="quoteleft" unicode="&#x2018;" horiz-adv-x="514" 
d="M522 1544l-151 -266l92 -6l-35 -262h-268l30 227l232 307h100z" />
    <glyph glyph-name="quoteright" unicode="&#x2019;" horiz-adv-x="481" 
d="M160 946l151 268l-94 7l37 260h266l-31 -228l-229 -307h-100z" />
    <glyph glyph-name="quotesinglbase" unicode="&#x201a;" horiz-adv-x="499" 
d="M-16 -270l155 262l-98 10l35 260h270l-33 -217l-237 -315h-92z" />
    <glyph glyph-name="quotedblleft" unicode="&#x201c;" horiz-adv-x="911" 
d="M168 946l33 228l231 307h100l-151 -267l94 -8l-37 -260h-270zM571 946l31 228l232 307h98l-150 -267l95 -8l-37 -260h-269z" />
    <glyph glyph-name="quotedblright" unicode="&#x201d;" horiz-adv-x="937" 
d="M160 946l151 268l-94 7l37 260h266l-31 -228l-229 -307h-100zM561 946l152 268l-95 7l35 260h271l-33 -228l-232 -307h-98z" />
    <glyph glyph-name="quotedblbase" unicode="&#x201e;" horiz-adv-x="1054" 
d="M14 -270l193 262l-98 10l71 260h271l-62 -217l-285 -315h-90zM432 -270l193 262l-99 10l74 260h268l-61 -217l-283 -315h-92z" />
    <glyph glyph-name="dagger" unicode="&#x2020;" horiz-adv-x="989" 
d="M993 993l-30 -223l-359 37l-108 -1137h-244l205 1133l-373 -37l33 225l354 -35l31 525h246l-111 -520z" />
    <glyph glyph-name="daggerdbl" unicode="&#x2021;" horiz-adv-x="991" 
d="M604 784l-63 -458l366 36l-30 -223l-353 33l-28 -502h-246l106 498l-358 -33l31 223l358 -34l64 458l-369 -39l31 226l354 -35l35 547h246l-115 -543l358 33l-33 -223z" />
    <glyph glyph-name="bullet" unicode="&#x2022;" horiz-adv-x="686" 
d="M344 522q-97 0 -156.5 71.5t-46.5 172.5q14 91 85.5 154t162.5 63q98 0 157.5 -72t45.5 -172q-12 -91 -84 -154t-164 -63z" />
    <glyph glyph-name="ellipsis" unicode="&#x2026;" horiz-adv-x="1695" 
d="M383 287l-39 -287h-281l41 287h279zM983 287l-37 -287h-280l41 287h276zM1585 287l-39 -287h-278l39 287h278z" />
    <glyph glyph-name="perthousand" unicode="&#x2030;" horiz-adv-x="2676" 
d="M586 1503q156 0 242.5 -124.5t60.5 -313.5q-25 -179 -136 -292.5t-261 -113.5q-158 0 -247 123.5t-63 311.5q26 178 141 293.5t263 115.5zM1675 1497l-1181 -1505l-166 2l1181 1503h166zM487 793q87 0 145 80.5t77 218.5q18 131 -13.5 204.5t-109.5 73.5
q-85 0 -143.5 -83.5t-77.5 -223.5q-18 -128 12 -199t110 -71zM1423 821q156 0 242.5 -123.5t60.5 -310.5q-25 -180 -137 -293.5t-262 -113.5q-157 0 -244.5 122t-62.5 312q26 179 139.5 293t263.5 114zM2236 821q157 0 244.5 -123.5t61.5 -310.5q-26 -181 -137.5 -294
t-260.5 -113q-159 0 -247 122t-62 312q26 179 139 293t262 114zM1325 113q84 0 142 81t79 218q18 130 -14 205t-109 75q-85 0 -144 -84.5t-77 -222.5q-18 -126 14 -199t109 -73zM2140 113q84 0 142 81t79 218q18 130 -14 205t-109 75q-83 0 -143.5 -85t-79.5 -222
q-15 -128 16 -200t109 -72z" />
    <glyph glyph-name="guilsinglleft" unicode="&#x2039;" horiz-adv-x="598" 
d="M291 500l125 -365h-123l-201 387l293 385h147z" />
    <glyph glyph-name="guilsinglright" unicode="&#x203a;" horiz-adv-x="600" 
d="M295 524l-125 383h123l199 -407l-291 -365h-146z" />
    <glyph glyph-name="fraction" unicode="&#x2044;" horiz-adv-x="509" 
d="M948 1497l-1181 -1505l-164 2l1179 1503h166z" />
    <glyph glyph-name="uni2070" unicode="&#x2070;" horiz-adv-x="837" 
d="M555 1729q159 0 240 -130t51 -352q-30 -220 -146 -347.5t-276 -127.5q-161 0 -242 127t-51 348t147.5 351.5t276.5 130.5zM442 901q92 0 150 82.5t82 263.5q49 355 -137 355q-183 0 -236 -355q-46 -346 141 -346z" />
    <glyph glyph-name="uni2074" unicode="&#x2074;" horiz-adv-x="839" 
d="M618 1710h156l-80 -575h140l-19 -125h-137l-31 -232h-158l33 232h-416l19 127zM260 1135h281l53 395z" />
    <glyph glyph-name="uni2075" unicode="&#x2075;" horiz-adv-x="806" 
d="M307 1710h572l-27 -131h-436l-58 -260q45 20 70.5 29t64 17.5t78.5 8.5q137 0 214.5 -75.5t58.5 -215.5q-20 -148 -130 -232.5t-272 -84.5q-113 0 -200.5 44t-132.5 120l127 86q31 -42 54 -65t61.5 -40.5t88.5 -17.5q98 0 160.5 51.5t73.5 132.5q10 79 -33.5 123.5
t-126.5 44.5q-32 0 -66.5 -9.5t-56 -19.5t-61.5 -30q-15 -5 -17 -5t-12 7l-96 57z" />
    <glyph glyph-name="uni2076" unicode="&#x2076;" horiz-adv-x="821" 
d="M575 1731q104 0 170.5 -51t83.5 -117l-141 -50q-23 45 -51.5 68t-77.5 23q-105 0 -174 -84t-82 -230q92 38 137.5 50t96.5 12q140 0 212 -77t54 -198q-19 -131 -126.5 -216t-250.5 -85q-171 0 -250.5 123t-50.5 338q32 231 152 362.5t298 131.5zM487 1231
q-42 0 -93.5 -14t-84.5 -33q-13 -9 -18 -18.5t-8 -30.5q-7 -59 5.5 -111.5t51.5 -88.5t98 -36q72 0 127 49t66 123q10 70 -31 115t-113 45z" />
    <glyph glyph-name="uni2077" unicode="&#x2077;" horiz-adv-x="737" 
d="M225 1710h664l-23 -162q-139 -158 -271.5 -389.5t-162.5 -380.5h-170q17 66 52 152.5t89.5 193.5t136.5 228t177 227h-510z" />
    <glyph glyph-name="uni2078" unicode="&#x2078;" horiz-adv-x="808" 
d="M551 1731q140 0 219 -72.5t64 -185.5q-6 -44 -28 -82t-51 -61t-50.5 -36t-36.5 -18q5 -3 18 -10t22 -11.5t24 -14.5t24 -18.5t22.5 -23t19 -29t13.5 -35t6.5 -42t-2.5 -50.5q-17 -125 -125.5 -196.5t-273.5 -71.5q-159 0 -245 64t-69 178q10 73 62 130t137 93q-1 0 -9 5
t-14 9t-18 12.5t-20 17t-19.5 22t-17 27.5t-13 33.5t-6.5 40t2 46.5q15 118 117 198.5t248 80.5zM537 1610q-70 0 -122 -39.5t-61 -100.5q-5 -45 17 -75.5t69 -42.5l105 -29q35 -11 85 39.5t56 107.5q9 60 -31 100t-118 40zM442 895q85 0 139.5 37t61.5 100q6 48 -15 78
t-79 47l-127 37q-38 12 -97 -37t-67 -117q-11 -69 35.5 -107t148.5 -38z" />
    <glyph glyph-name="uni2079" unicode="&#x2079;" horiz-adv-x="821" 
d="M387 776q-104 0 -171 51.5t-87 118.5l139 49q24 -45 55 -67.5t83 -22.5q108 0 176 93.5t80 265.5q-81 -109 -236 -109q-139 0 -210.5 77t-53.5 198q19 132 126 216.5t251 84.5q170 0 249 -122.5t50 -336.5q-32 -231 -153 -363.5t-298 -132.5zM475 1276q70 0 130 40.5
t67 94.5q3 98 -35 148.5t-111 50.5q-72 0 -128 -49.5t-66 -122.5q-9 -71 31 -116.5t112 -45.5z" />
    <glyph glyph-name="colonmonetary" unicode="&#x20a1;" horiz-adv-x="1216" 
d="M694 1118q-119 0 -204.5 -105t-108.5 -274q-23 -171 35.5 -275t179.5 -104q42 0 77.5 15t65 45.5t50.5 60t47 74.5l202 -43q-38 -92 -108.5 -166.5t-163.5 -114.5l-94 -229l-146 2l76 189q-21 -3 -41 -3q-32 0 -76 7l-79 -195l-144 2l90 234q-122 61 -179.5 191
t-33.5 306q31 221 166.5 370t327.5 177l78 195l147 4l-76 -197q53 -8 107 -31l90 224l145 4l-118 -312q74 -83 90 -204l-219 -43q-41 103 -63 134q-43 62 -120 62z" />
    <glyph glyph-name="franc" unicode="&#x20a3;" horiz-adv-x="1243" 
d="M1253 1270h-712l-60 -441h557l-28 -206h-557l-31 -222h307l-18 -143h-310l-34 -258h-281l35 256h-182l22 143h180l148 1082h995z" />
    <glyph glyph-name="lira" unicode="&#x20a4;" horiz-adv-x="1275" 
d="M1153 324q-64 -158 -186.5 -241t-286.5 -83h-717l29 209h67q70 0 125.5 57t77.5 168q7 15 14 72q0 2 -2 1q-4 -1 -10 -1h-213l17 141h213l-5 158h-184l19 141h165v82q2 100 29 180.5t72.5 134t108 90t131.5 52.5t147 16q143 0 260 -75.5t147 -202.5l-206 -64
q-23 66 -62.5 102.5t-109.5 36.5q-89 0 -155 -58t-79 -155q-1 -9 -1.5 -26.5t-1 -49t-1.5 -55.5q3 -8 16 -8l295 2l-20 -143h-287l2 -158l266 2l-22 -143h-252q-45 -188 -152 -295h281q94 0 156 39t100 125z" />
    <glyph glyph-name="uni20A6" unicode="&#x20a6;" horiz-adv-x="1527" 
d="M1550 899h-157l-37 -272h157l-18 -133h-158l-67 -494h-223l-261 494h-395l-67 -494h-248l67 494h-127l19 133h127l39 270h-129l18 133h129l62 451h241l238 -451h403l62 451h248l-62 -451h158zM473 1085l-8 -55h37zM1108 627l37 272h-314l144 -272h133zM410 627h305
l-144 270h-125zM1081 424l11 70h-48z" />
    <glyph glyph-name="uni20A9" unicode="&#x20a9;" horiz-adv-x="2217" 
d="M2253 1026h-377l-74 -176h428l-20 -143h-469l-299 -707h-207l-98 705h-193l-293 -705h-202l-105 705h-264l22 143h222l-27 176h-170l18 143h131l-47 314h244l43 -314h412l127 314h184l43 -312h416l127 312h243l-131 -312h336zM1567 850l71 176h-335l24 -176h240z
M1004 848h112l-24 176h-15zM535 1024l24 -176h238l71 176h-333zM1389 412l120 295h-161zM618 412l119 293h-157z" />
    <glyph glyph-name="dong" unicode="&#x20ab;" horiz-adv-x="1048" 
d="M1126 1360l-16 -119h-119l-135 -971h-207l15 97q-30 -25 -49 -38.5t-55 -34t-77 -30.5t-88 -10q-157 0 -239.5 119t-51.5 336q27 199 144 322.5t268 123.5q146 0 236 -117l28 203h-239l14 119h242l16 121h211l-16 -121h118zM682 561l53 367q-62 82 -153 82
q-103 0 -172 -90.5t-93 -235.5q-19 -151 24 -220t134 -69q77 0 138 51.5t69 114.5zM57 0l19 127h764l-19 -127h-764z" />
    <glyph glyph-name="Euro" unicode="&#x20ac;" horiz-adv-x="1271" 
d="M745 195q71 0 143 35t122 85l129 -165q-204 -170 -434 -170q-224 0 -363 140.5t-162 385.5h-186l22 141h162q4 77 10 115l13 74h-160l18 143h179q83 246 255 384t396 138q126 0 229 -51.5t168 -140.5l-166 -123q-51 53 -101 82.5t-114 29.5q-263 0 -375 -319h353
l-19 -141h-372q-14 -62 -19 -107q-3 -25 -8 -82h375l-21 -143h-356q10 -157 82.5 -234t199.5 -77z" />
    <glyph glyph-name="uni20B9" unicode="&#x20b9;" horiz-adv-x="1243" 
d="M1307 1350h-271q67 -73 76 -179h170l-16 -131h-166q-29 -125 -111.5 -206.5t-195.5 -124.5q-11 -1 -18 -10t-7 -17l176 -682h-299l-141 668h-447l27 184h399q130 0 209 46t113 142l-696 -2l18 133h696q-6 168 -237 168h-439l21 142h1157z" />
    <glyph glyph-name="uni20BA" unicode="&#x20ba;" horiz-adv-x="1251" 
d="M983 547l229 -53q-236 -494 -751 -494h-273l62 446l-156 -55l-37 148l215 75l23 164l-178 -63l-35 147l235 82l74 537h281l-60 -432l262 92l35 -146l-319 -112l-23 -166l285 98l37 -145l-344 -121l-45 -338h73q122 3 227 87t183 249z" />
    <glyph glyph-name="uni2113" unicode="&#x2113;" horiz-adv-x="1085" 
d="M442 440l-4 -43q-17 -122 16.5 -174.5t118.5 -52.5q107 0 201 84l-260 -274q-62 0 -111.5 13t-82 34t-57 50.5t-37.5 60t-21.5 65t-12 63t-5.5 56.5q-1 11 -1 16q-2 2 -3.5 0t-3.5 -6.5t-3 -5.5l-100 -62l-47 152l176 121l65 479q34 241 156 363t299 122q162 0 230.5 -97
t45.5 -251q-12 -85 -52 -169.5t-83 -145t-127 -141.5t-133 -122.5t-153 -125.5q-7 -6 -11 -9zM518 987l-39 -299q63 49 117.5 102t108 118.5t88.5 140.5t45 149q22 145 -97 145q-83 0 -139 -82.5t-84 -273.5zM858 342l8 8l-10 -10zM856 340q-43 -52 -82 -86z" />
    <glyph glyph-name="uni2116" unicode="&#x2116;" horiz-adv-x="2336" 
d="M2056 1501q151 0 229 -101t56 -261q-21 -145 -117 -234.5t-239 -89.5q-150 0 -227 97.5t-56 252.5q22 150 120.5 243t233.5 93zM1257 1481h248l-200 -1481h-224l-575 1085l-148 -1085h-247l202 1481h242l559 -1057zM2062 1384q-78 0 -127.5 -62.5t-64.5 -176.5
q-31 -217 110 -217q79 0 129.5 63.5t65.5 179.5q28 213 -113 213z" />
    <glyph glyph-name="uni2117" unicode="&#x2117;" horiz-adv-x="1654" 
d="M758 -20q-205 0 -364 103.5t-235.5 282t-47.5 388.5q21 153 97.5 291t188 238t255.5 159t294 59q152 0 282.5 -62t217 -165.5t127 -247t18.5 -299.5q-21 -154 -98 -292.5t-188.5 -238t-254.5 -158t-292 -58.5zM758 129q256 0 448 172.5t230 452.5q18 133 -10.5 246
t-94.5 190t-165 120.5t-220 43.5q-170 0 -316 -78.5t-242.5 -222t-121.5 -326.5q-19 -135 8.5 -248t93.5 -189.5t166 -118.5t224 -42zM520 342l111 791h323q86 0 149 -26.5t96 -84.5t22 -141q-17 -121 -100 -183.5t-210 -62.5h-186l-39 -293h-166zM743 758h168
q55 0 96.5 39.5t49.5 91.5q8 65 -27 93t-92 28h-162z" />
    <glyph glyph-name="uni2120" unicode="&#x2120;" horiz-adv-x="1931" 
d="M358 -12q-122 0 -212 47t-128 133l123 76q41 -66 88.5 -94.5t137.5 -28.5q192 0 208 121q5 42 -13.5 71.5t-78.5 51.5l-184 61q-96 33 -140.5 96t-33.5 144q17 121 118.5 196.5t252.5 75.5q102 0 180.5 -39t118.5 -111l-121 -79q-34 48 -77 74t-116 26q-82 0 -131 -32.5
t-57 -88.5q-10 -85 96 -121l180 -57q198 -66 176 -248q-19 -127 -122.5 -200.5t-264.5 -73.5zM836 0l127 926h221l137 -707l334 707h219l-127 -926h-156l99 725l-334 -725h-129l-135 721l-99 -721h-157z" />
    <glyph glyph-name="trademark" unicode="&#x2122;" horiz-adv-x="1875" 
d="M55 784l21 142h706l-18 -142h-270l-109 -784h-154l107 784h-283zM778 0l127 926h221l138 -707l333 707h220l-127 -926h-156l98 725l-334 -725h-129l-135 721l-98 -721h-158z" />
    <glyph glyph-name="uni2126" unicode="&#x2126;" horiz-adv-x="1503" 
d="M870 1298q-176 0 -300 -142.5t-156 -379.5q-5 -59 -7.5 -107t6.5 -95t18.5 -84t27 -74t33 -64.5t37 -55t38.5 -46.5t37 -39q40 -26 35 -66l-21 -145h-548l30 213h306q-16 13 -30.5 25.5t-35.5 32.5t-39.5 41.5t-39.5 49t-38.5 58.5t-34 66t-27.5 75t-17.5 83t-6.5 93
t8 101q14 101 54 197.5t106 181t150 148t193.5 100t230.5 36.5q90 0 169 -21t138 -58t108 -88t79 -111.5t50 -128t21.5 -138t-6.5 -141.5q-11 -86 -44 -168.5t-70.5 -141t-89 -116.5t-84 -88t-71.5 -64q-8 -7 -12 -10q-25 -13 -6 -14h256l-31 -213h-547l31 209
q46 29 87.5 63.5t92.5 89.5t91 117.5t73 149t47 182.5q20 145 -7 254.5t-100 171t-184 61.5z" />
    <glyph glyph-name="estimated" unicode="&#x212e;" horiz-adv-x="1654" 
d="M1417 303q-136 -147 -307.5 -235t-351.5 -88q-205 0 -364 103.5t-235.5 282t-47.5 388.5q21 153 97.5 291t188 238t255.5 159t294 59q200 0 359 -101t238 -273.5t52 -372.5q-1 -10 -4.5 -12.5t-15.5 -2.5h-1088l-79 -581q142 -97 340 -97q151 0 294.5 67.5t241.5 174.5
h133zM954 1415q-197 0 -362 -102q-27 -7 -31 -35l-61 -453h708l70 512q-143 78 -324 78z" />
    <glyph glyph-name="uni2153" unicode="&#x2153;" horiz-adv-x="1894" 
d="M178 565l101 754l-175 -55l15 112l254 121h90l-127 -932h-158zM1546 1497l-1181 -1505l-166 2l1181 1503h166zM1237 797q53 64 146.5 102.5t189.5 38.5q142 0 223.5 -68t67.5 -174q-21 -144 -201 -204q84 -25 131.5 -85.5t36.5 -148.5q-18 -124 -134.5 -200t-269.5 -76
q-105 0 -188 42.5t-129 120.5l123 82q49 -64 99 -90t122 -26q88 0 143.5 39t63.5 104q11 72 -40 114t-132 42l-125 2l18 127l105 2q82 3 141 43.5t66 101.5q8 54 -31.5 90.5t-108.5 36.5q-65 0 -117.5 -25.5t-113.5 -82.5z" />
    <glyph glyph-name="uni2154" unicode="&#x2154;" horiz-adv-x="2056" 
d="M43 571l18 123l324 275q130 106 176 159t53 113q8 69 -31.5 105t-103.5 36q-141 0 -229 -131l-111 60q148 205 369 205q141 0 215 -74t55 -201q-12 -75 -58.5 -137.5t-160.5 -163.5l-266 -233h420l-17 -136h-653zM1708 1497l-1180 -1505l-166 2l1182 1503h164zM1401 797
q53 64 146.5 102.5t189.5 38.5q142 0 222 -68t66 -174q-21 -145 -198 -204q84 -25 131.5 -85.5t34.5 -148.5q-17 -124 -133.5 -200t-268.5 -76q-105 0 -188.5 42.5t-130.5 120.5l125 82q47 -64 97.5 -90t123.5 -26q88 0 143 39t64 104q10 72 -40.5 114t-131.5 42l-125 2
l16 127l105 2q84 3 143 43.5t66 101.5q6 54 -33.5 90.5t-106.5 36.5q-65 0 -118.5 -26t-112.5 -82z" />
    <glyph glyph-name="oneeighth" unicode="&#x215b;" horiz-adv-x="1923" 
d="M178 565l101 754l-175 -55l15 112l254 121h90l-127 -932h-158zM1546 1497l-1181 -1505l-166 2l1181 1503h166zM1552 936q141 0 219.5 -72.5t61.5 -185.5q-5 -44 -26.5 -82t-50.5 -61t-50.5 -36t-36.5 -18q5 -3 16 -8.5t19.5 -10t21 -12.5t21.5 -15.5t21 -19t19 -22.5
t16 -27.5t11 -33t5 -39t-2 -45.5q-19 -125 -127.5 -196.5t-274.5 -71.5q-159 0 -243.5 63.5t-69.5 177.5q10 73 62.5 130t138.5 93q-54 30 -80 64q-47 62 -37 149q18 119 118.5 199t247.5 80zM1538 815q-70 0 -121.5 -39t-60.5 -100q-6 -45 15.5 -76t68.5 -43l104 -29
q35 -11 86 40t58 108q8 60 -32.5 99.5t-117.5 39.5zM1444 100q84 0 138 37.5t63 100.5q5 48 -17 77.5t-80 46.5l-127 37q-38 12 -96 -36.5t-68 -116.5q-9 -69 38 -107.5t149 -38.5z" />
    <glyph glyph-name="threeeighths" unicode="&#x215c;" horiz-adv-x="2117" 
d="M207 1374q53 64 146 103t188 39q144 0 224 -67.5t66 -174.5q-21 -145 -198 -205q84 -25 131.5 -85t34.5 -148q-17 -124 -134 -200.5t-268 -76.5q-104 0 -188 43t-131 121l125 82q47 -64 97 -90.5t124 -26.5q87 0 142.5 39t64.5 104q10 72 -40.5 114t-131.5 42l-125 2
l16 127l105 2q84 3 143 44t66 102q6 54 -33.5 90.5t-106.5 36.5q-65 0 -118 -26t-113 -83zM1739 1497l-1180 -1505l-166 2l1182 1503h164zM1745 936q140 0 219 -72.5t64 -185.5q-6 -44 -28 -82t-51 -61t-50.5 -36t-36.5 -18q5 -3 18 -9.5t22 -11.5t24 -15t24 -18.5
t22.5 -22.5t19 -28.5t13.5 -35t6.5 -42t-2.5 -50.5q-17 -125 -125.5 -196.5t-273.5 -71.5q-159 0 -244 63.5t-70 177.5q10 73 62 130t137 93q-1 0 -9 5t-14 9t-18 12.5t-20 17t-19.5 22t-17 27.5t-13 33.5t-6.5 40t2 46.5q18 119 118.5 199t246.5 80zM1731 815
q-70 0 -122 -39t-61 -100q-5 -45 17 -76t69 -43l105 -29q35 -11 85.5 40t57.5 108q8 60 -32.5 99.5t-118.5 39.5zM1636 100q85 0 139 37.5t62 100.5q6 48 -15 77.5t-79 46.5l-127 37q-38 12 -97 -36.5t-67 -116.5q-11 -69 35.5 -107.5t148.5 -38.5z" />
    <glyph glyph-name="fiveeighths" unicode="&#x215d;" horiz-adv-x="2119" 
d="M279 1497h569l-25 -131h-438l-55 -260q43 19 68.5 29t64 18t78.5 8q137 0 215 -75.5t59 -215.5q-21 -149 -130 -233t-271 -84q-114 0 -202.5 44t-133.5 120l127 86q46 -63 90 -93t115 -30q98 0 161 51.5t74 132.5q9 78 -35 123t-125 45q-33 0 -68 -9.5t-56.5 -19.5
t-61.5 -30q-13 -5 -15 -5t-12 7l-98 57zM1741 1497l-1180 -1505l-166 2l1182 1503h164zM1747 936q140 0 219 -72.5t64 -185.5q-6 -44 -28 -82t-51 -61t-50.5 -36t-36.5 -18q5 -3 18 -9.5t22 -11.5t24 -15t24 -18.5t22.5 -22.5t19 -28.5t13.5 -35t6.5 -42t-2.5 -50.5
q-17 -125 -125.5 -196.5t-273.5 -71.5q-159 0 -244 63.5t-70 177.5q10 73 62 130t137 93q-1 0 -9 5t-14 9t-18 12.5t-20 17t-19.5 22t-17 27.5t-13 33.5t-6.5 40t2 46.5q18 119 118.5 199t246.5 80zM1733 815q-70 0 -122 -39t-61 -100q-5 -45 17 -76t69 -43l105 -29
q35 -11 85.5 40t57.5 108q8 60 -32.5 99.5t-118.5 39.5zM1638 100q85 0 139 37.5t62 100.5q6 48 -15 77.5t-79 46.5l-127 37q-38 12 -97 -36.5t-67 -116.5q-11 -69 35.5 -107.5t148.5 -38.5z" />
    <glyph glyph-name="seveneighths" unicode="&#x215e;" horiz-adv-x="2048" 
d="M1669 1497l-1180 -1505l-165 2l1181 1503h164zM195 1495h663l-22 -162q-139 -159 -272 -390t-163 -380h-170q17 66 52 152.5t89.5 193.5t136.5 228t177 227h-510zM1675 936q140 0 219 -72.5t64 -185.5q-6 -44 -28 -82t-51 -61t-50.5 -36t-36.5 -18q5 -3 18 -9.5t22 -11.5
t24 -15t24 -18.5t22.5 -22.5t19 -28.5t13.5 -35t6.5 -42t-2.5 -50.5q-17 -125 -125.5 -196.5t-273.5 -71.5q-159 0 -243.5 63.5t-69.5 177.5q10 73 61.5 130.5t136.5 92.5l-9 5q-8 5 -14 9t-18 12.5t-19.5 17t-19.5 22.5t-17 27.5t-12.5 33t-6.5 40t2 46.5q18 119 118 199
t246 80zM1661 815q-70 0 -121.5 -39t-60.5 -100q-5 -45 17 -76t69 -43l104 -29q35 -11 85.5 40t57.5 108q8 60 -32.5 99.5t-118.5 39.5zM1567 100q85 0 138.5 37.5t61.5 100.5q6 48 -15 77.5t-79 46.5l-127 37q-38 12 -97 -36.5t-67 -116.5q-11 -69 36 -107.5t149 -38.5z
" />
    <glyph glyph-name="partialdiff" unicode="&#x2202;" horiz-adv-x="1193" 
d="M313 1206l-61 172q61 48 172 85.5t231 37.5q130 0 229.5 -48t164 -145t85.5 -243t-6 -342q-46 -350 -208 -546.5t-418 -196.5q-147 0 -250.5 65t-147.5 177t-24 253q28 201 169 326t355 125q51 0 91 -8t73 -25.5t53 -32t51 -41.5q18 -11 28.5 0.5t14.5 32.5
q15 96 1.5 179.5t-49 145t-104 97t-163.5 35.5q-63 0 -121.5 -18t-89.5 -36t-76 -49zM502 164h2q118 0 215 112t137 291q8 28 9 39t-5 33q-33 46 -97 79.5t-134 33.5q-120 0 -207.5 -90.5t-106.5 -227.5q-18 -120 35.5 -195t151.5 -75z" />
    <glyph glyph-name="emptyset" unicode="&#x2205;" horiz-adv-x="1181" 
d="M1153 1100l-139 -117q60 -110 41 -252q-25 -179 -169 -306.5t-319 -127.5q-154 0 -258 96l-153 -129l-82 103l153 129q-63 114 -45 262q26 180 168 306t320 126q154 0 268 -103l135 113zM301 731q-12 -84 21 -158l522 437q-69 57 -170 57q-134 0 -243.5 -99.5
t-129.5 -236.5zM936 758q12 78 -14 147l-521 -434q70 -51 162 -51q135 0 244.5 100t128.5 238z" />
    <glyph glyph-name="uni2206" unicode="&#x2206;" horiz-adv-x="1316" 
d="M-16 0l30 197l633 1284h279l284 -1315l-22 -166h-1204zM279 209h669l-196 1005z" />
    <glyph glyph-name="product" unicode="&#x220f;" horiz-adv-x="1361" 
d="M1450 1481l-31 -211h-186l-174 -1270h-260l176 1270h-389l-174 -1270h-258l174 1270h-187l29 211h1280z" />
    <glyph glyph-name="summation" unicode="&#x2211;" horiz-adv-x="1114" 
d="M977 0h-993l26 168l500 577l-322 572l25 164h930l-29 -205h-602l309 -524l-473 -539h658z" />
    <glyph glyph-name="minus" unicode="&#x2212;" horiz-adv-x="1157" 
d="M1075 838l-28 -187h-908l25 187h911z" />
    <glyph glyph-name="radical" unicode="&#x221a;" horiz-adv-x="1335" 
d="M1493 1690l-797 -2020h-252l-194 875l-160 -58l-39 154l359 127l182 -852l684 1774h217z" />
    <glyph glyph-name="infinity" unicode="&#x221e;" horiz-adv-x="1536" 
d="M1434 553v-2q-24 -164 -130.5 -257t-244.5 -93q-45 0 -83 11t-64.5 27t-54 45.5t-45 54t-42.5 64.5q-11 7 -19 2t-20 -24q-3 -2 -45 -39.5t-77 -63.5t-98.5 -51.5t-125.5 -25.5q-139 0 -223.5 101t-61.5 261q22 151 128 243.5t255 92.5q45 0 83.5 -10.5t64.5 -24.5
t53.5 -42t43.5 -49.5t42 -59.5q19 -11 27.5 -6.5t23.5 26.5q36 33 52 46.5t54.5 42t67.5 41.5t71.5 24.5t86.5 11.5q142 0 222 -96t59 -250zM406 365h4q60 0 124 46t107 105q22 22 25 34.5t-9 45.5q-40 71 -84.5 107t-101.5 36q-78 0 -137.5 -56t-69.5 -142
q-10 -79 29.5 -127.5t112.5 -48.5zM1135 739h-2q-101 0 -236 -159q-38 -30 -23 -76q88 -139 201 -139q74 0 128 62t65 140q11 70 -25.5 121t-107.5 51z" />
    <glyph glyph-name="integral" unicode="&#x222b;" horiz-adv-x="913" 
d="M401 1255q31 226 134.5 340.5t271.5 114.5q82 0 134 -19.5t93 -56.5l-71 -174q-76 27 -146 27q-72 0 -121 -55t-63 -172q-28 -197 -49.5 -594t-42.5 -555q-32 -230 -136.5 -345.5t-271.5 -115.5q-80 0 -130 17.5t-93 53.5l74 177q77 -27 145 -27q148 0 180 231
q27 196 49.5 596t42.5 557z" />
    <glyph glyph-name="approxequal" unicode="&#x2248;" horiz-adv-x="1206" 
d="M1128 918q-54 -71 -129.5 -109.5t-158.5 -38.5q-54 0 -105.5 18.5t-85 41t-79.5 41t-89 18.5q-70 0 -127 -37.5t-114 -101.5l-68 149q92 77 160 114.5t151 37.5q54 0 106 -18.5t85.5 -41t78 -41t85.5 -18.5q125 0 225 137zM1071 500q-54 -71 -130 -109.5t-161 -38.5
q-56 0 -108 18.5t-85 40t-77 40t-86 18.5q-119 0 -244 -139l-65 151q92 76 161 113t150 37q54 0 106 -18.5t85 -40t77.5 -40t85.5 -18.5q129 0 224 135z" />
    <glyph glyph-name="notequal" unicode="&#x2260;" horiz-adv-x="1200" 
d="M1098 848h-271l-155 -277h389l-27 -184l-467 -2l-168 -293h-141l168 293h-301l25 184h380l160 279l-502 -2l25 186h582l159 279h138l-158 -279h190z" />
    <glyph glyph-name="lessequal" unicode="&#x2264;" horiz-adv-x="1153" 
d="M1018 651l-29 -211l-839 353l28 215l938 356l-31 -231l-643 -238zM981 270l-29 -184l-909 2l25 184z" />
    <glyph glyph-name="greaterequal" unicode="&#x2265;" horiz-adv-x="1155" 
d="M160 662l641 233l-576 248l29 213l840 -357l-31 -215l-934 -352zM94 270l907 2l-24 -184l-909 -2z" />
    <glyph glyph-name="lozenge" unicode="&#x25ca;" horiz-adv-x="1064" 
d="M559 0h-172l-244 752l445 729h172l248 -752zM655 1292l-317 -559l154 -547l317 562z" />
    <glyph glyph-name="i.loclTRK" horiz-adv-x="544" 
d="M543 1481l-37 -271h-258l39 271h256zM469 1057l-145 -1057h-248l145 1057h248z" />
    <glyph glyph-name="g.001" horiz-adv-x="1206" 
d="M985 129q-66 -477 -545 -477q-141 0 -251.5 49.5t-176.5 136.5l115 107q46 -58 124 -90.5t163 -34.5q132 0 217 64t102 186l17 110q-45 -78 -135.5 -124t-190.5 -46q-165 0 -263 109t-98 313q0 127 34.5 243t97.5 205.5t159.5 143t212.5 53.5q87 0 164.5 -41t114.5 -131
l24 152h244zM778 385l51 387q-19 63 -74 100t-118 37q-87 0 -154 -47.5t-103 -123t-53.5 -155t-17.5 -157.5q0 -128 56.5 -191t150.5 -63q95 0 174 68t88 145z" />
    <glyph glyph-name="l.ss01" horiz-adv-x="618" 
d="M113 0l209 1520h247l-209 -1520h-247z" />
    <glyph glyph-name="one.osf" horiz-adv-x="815" 
d="M264 0l164 1198l-281 -88l25 178l403 193h144l-203 -1481h-252z" />
    <glyph glyph-name="two.osf" horiz-adv-x="1214" 
d="M12 0l27 195l516 438q206 166 278.5 251.5t84.5 180.5q14 110 -49 167.5t-164 57.5q-225 0 -367 -211l-176 97q237 325 588 325q223 0 340 -117.5t88 -318.5q-11 -82 -51 -154.5t-106 -143.5t-190 -181l-423 -373h669l-28 -213h-1037z" />
    <glyph glyph-name="three.osf" horiz-adv-x="1284" 
d="M240 1282q84 100 232 161.5t300 61.5q226 0 354.5 -107.5t106.5 -275.5q-33 -230 -315 -327q133 -39 208 -135t56 -236q-18 -130 -112.5 -232t-233 -155t-293.5 -53q-166 0 -299.5 69t-208.5 193l196 131q79 -102 159 -145.5t194 -43.5q139 0 227 63.5t102 166.5
q17 114 -64 181t-210 69l-199 2l29 200l164 4q133 5 226.5 69.5t105.5 162.5q11 85 -52 143t-170 58q-103 0 -187 -40.5t-179 -129.5z" />
    <glyph glyph-name="four.osf" horiz-adv-x="1263" 
d="M866 1481h248l-127 -914h219l-28 -198h-217l-52 -369h-247l51 369h-660l27 200zM295 567h444l86 629z" />
    <glyph glyph-name="five.osf" horiz-adv-x="1325" 
d="M365 1481h907l-41 -209h-696l-89 -412q139 58 199 72q67 16 137 16q143 0 247 -50.5t157 -157t33 -257.5q-22 -156 -110 -270.5t-224 -173.5t-305 -59q-181 0 -321.5 69.5t-211.5 192.5l201 135q38 -50 65 -79.5t66.5 -59t87 -43t108.5 -13.5q155 0 254 82t117 211
q17 125 -52.5 196.5t-199.5 71.5q-74 0 -139.5 -24t-155.5 -72q-23 -8 -26 -8t-19 10l-155 94z" />
    <glyph glyph-name="six.osf" horiz-adv-x="1288" 
d="M827 1499q85 0 157.5 -24.5t121.5 -64.5t80.5 -86.5t44.5 -94.5l-223 -76q-35 71 -81.5 107t-123.5 36q-168 0 -277 -133t-131 -366q144 61 216.5 80.5t154.5 19.5q222 0 336.5 -122.5t87.5 -313.5q-29 -209 -201 -344t-401 -135q-271 0 -396.5 195t-78.5 536
q49 366 240 576t474 210zM686 705q-64 0 -147 -23t-136 -53q-20 -14 -28.5 -29t-12.5 -49q-10 -68 0.5 -134t39 -121t82.5 -88.5t126 -33.5q114 0 202 79t103 196q17 113 -47 184.5t-182 71.5z" />
    <glyph glyph-name="seven.osf" horiz-adv-x="1175" 
d="M199 1481h1054l-34 -256q-221 -249 -432 -618t-259 -607h-270q27 105 82.5 242t141.5 307.5t217.5 362.5t283.5 360h-813z" />
    <glyph glyph-name="eight.osf" horiz-adv-x="1275" 
d="M766 1501q224 0 349 -115.5t99 -295.5q-7 -57 -33 -108t-56.5 -83.5t-68.5 -60.5t-61.5 -40t-42.5 -20q7 -4 23 -12q37 -18 59 -31t60 -45.5t58 -66.5t32.5 -91t3.5 -124q-29 -198 -202.5 -313t-436.5 -115q-252 0 -387 101.5t-109 283.5q15 117 97.5 207t220.5 147
q-66 36 -101 71q-105 106 -84 267q27 189 188 316.5t392 127.5zM743 1307q-110 0 -192.5 -62t-95.5 -158q-18 -147 135 -188l166 -47q35 -11 86 22t92 93t49 118q12 98 -51.5 160t-188.5 62zM594 174q133 0 219 58.5t100 156.5q9 77 -25 125.5t-126 75.5l-203 57
q-27 9 -68 -7t-80.5 -47.5t-71.5 -82.5t-40 -107q-15 -109 58.5 -169t236.5 -60z" />
    <glyph glyph-name="nine.osf" horiz-adv-x="1284" 
d="M514 -18q-87 0 -161 24.5t-123.5 65t-81.5 86t-46 94.5l222 76q37 -72 86 -108t131 -36q172 0 280 149t125 421q-61 -84 -159 -127t-212 -43q-221 0 -334.5 122t-86.5 314q29 210 199 344.5t399 134.5q269 0 396 -195t81 -536q-51 -367 -242.5 -576.5t-472.5 -209.5z
M653 776q110 0 206 64t106 149q3 158 -57 238t-175 80q-114 0 -203 -79t-104 -196q-17 -113 47 -184.5t180 -71.5z" />
    <glyph glyph-name="zero.tf" horiz-adv-x="1404" 
d="M850 1503q123 0 220.5 -53t159.5 -152t85 -241t-2 -320q-49 -351 -233 -553t-439 -202q-126 0 -224 51t-159.5 148t-84.5 237t1 317q49 353 236 560.5t440 207.5zM670 186q145 0 237 131t131 418q78 565 -217 565q-294 0 -375 -565q-72 -549 224 -549z" />
    <glyph glyph-name="one.tf" horiz-adv-x="1574" 
d="M967 236h376v-236h-1050v236h409v974l-399 -135v221l531 185h133v-1245z" />
    <glyph glyph-name="two.tf" horiz-adv-x="1409" 
d="M141 0l27 195l516 438q206 168 278.5 253t84.5 179q14 110 -50 167.5t-166 57.5q-222 0 -364 -211l-176 97q122 167 266.5 246t321.5 79q223 0 340 -117.5t88 -318.5q-18 -120 -92 -219t-254 -260l-424 -373h669l-30 -213h-1035z" />
    <glyph glyph-name="three.tf" horiz-adv-x="1368" 
d="M313 1276q85 102 233 163.5t300 61.5q226 0 355.5 -107.5t107.5 -275.5q-33 -229 -318 -327q134 -39 209.5 -135t54.5 -236q-18 -131 -112.5 -233t-232.5 -154.5t-294 -52.5q-166 0 -298.5 68.5t-206.5 191.5l196 131q77 -102 156 -144.5t194 -42.5q139 0 227.5 63.5
t102.5 166.5q18 113 -62.5 179.5t-209.5 68.5l-199 4l27 198l166 6q131 3 224.5 68.5t106.5 163.5q11 84 -52 141t-171 57q-104 0 -188 -40.5t-178 -129.5z" />
    <glyph glyph-name="four.tf" horiz-adv-x="1402" 
d="M965 1481h247l-127 -914h220l-29 -198h-217l-51 -369h-248l51 369h-661l28 200zM393 567h445l86 629z" />
    <glyph glyph-name="five.tf" horiz-adv-x="1400" 
d="M432 1481h907l-41 -209h-696l-90 -412q140 57 198 71q68 17 140 17q219 0 342 -120.5t92 -344.5q-32 -235 -206 -369t-433 -134q-180 0 -319.5 69.5t-210.5 192.5l200 135q38 -50 65 -79.5t66.5 -59t87 -43t107.5 -13.5q155 0 255 82t118 211q17 126 -53 197t-201 71
q-51 0 -106 -15t-90.5 -31.5t-98.5 -49.5q-21 -8 -24 -8t-19 10l-156 94z" />
    <glyph glyph-name="six.tf" horiz-adv-x="1413" 
d="M907 1499q85 0 157.5 -24.5t121.5 -64.5t80.5 -86.5t44.5 -94.5l-224 -76q-38 72 -83 107.5t-123 35.5q-167 0 -276.5 -133.5t-129.5 -365.5q144 61 216.5 80.5t154.5 19.5q222 0 336.5 -122.5t87.5 -313.5q-29 -209 -201 -344t-401 -135q-271 0 -397.5 195t-80.5 536
q51 366 242.5 576t474.5 210zM766 705q-64 0 -147 -23t-136 -53q-20 -14 -28.5 -29t-12.5 -49q-10 -68 0.5 -134t39 -121t82.5 -88.5t126 -33.5q114 0 201 79t104 196q17 113 -48 184.5t-181 71.5z" />
    <glyph glyph-name="seven.tf" horiz-adv-x="1437" 
d="M256 1481h1118v-256q-187 -249 -347 -618t-175 -607h-289q13 104 50 239t100 300.5t167.5 354t233.5 357.5h-858v230z" />
    <glyph glyph-name="eight.tf" horiz-adv-x="1404" 
d="M852 1501q224 0 349 -115.5t99 -295.5q-7 -57 -33 -108t-56.5 -83.5t-68.5 -60.5t-61.5 -40t-42.5 -20q7 -4 23 -12q47 -24 75.5 -43t71.5 -61.5t59 -106.5t5 -147q-28 -198 -201 -313t-436 -115q-252 0 -387 101.5t-109 283.5q15 117 97.5 207t220.5 147q-66 36 -101 71
q-105 106 -84 267q27 189 188 316.5t392 127.5zM829 1307q-110 0 -192.5 -62t-95.5 -158q-18 -147 135 -188l166 -47q35 -11 86 22t92 93t49 118q12 98 -51.5 160t-188.5 62zM680 174q133 0 219 58.5t100 156.5q9 77 -25 125.5t-126 75.5l-203 57q-27 9 -68 -7t-80.5 -47.5
t-71.5 -82.5t-40 -107q-15 -109 58.5 -169t236.5 -60z" />
    <glyph glyph-name="nine.tf" horiz-adv-x="1411" 
d="M594 -18q-86 0 -160 24.5t-123.5 64.5t-82 86.5t-46.5 94.5l224 76q35 -71 85 -107.5t132 -36.5q172 0 279 148.5t126 421.5q-63 -84 -160 -127t-211 -43q-222 0 -335.5 121.5t-88.5 314.5q20 139 105.5 249t215.5 170t280 60q270 0 396 -195.5t79 -535.5
q-51 -368 -242 -577t-473 -209zM733 776q111 0 206.5 64t107.5 149q3 158 -57 238t-177 80q-114 0 -202 -79t-105 -196q-15 -114 49 -185t178 -71z" />
    <glyph glyph-name="zero.subs" horiz-adv-x="839" 
d="M397 596q159 0 240 -129.5t51 -351.5q-30 -220 -146 -347.5t-276 -127.5q-161 0 -242 127t-51 348t147.5 351t276.5 130zM285 -231q92 0 149.5 82.5t81.5 263.5q49 354 -137 354q-184 0 -236 -354q-46 -346 142 -346z" />
    <glyph glyph-name="one.subs" horiz-adv-x="618" 
d="M51 -338l101 754l-175 -56l15 113l254 121h90l-127 -932h-158z" />
    <glyph glyph-name="two.subs" horiz-adv-x="778" 
d="M-84 -338l18 123l324 274q130 106 176 159.5t53 113.5q8 69 -31.5 105t-103.5 36q-141 0 -229 -131l-111 59q148 205 369 205q141 0 215 -74t55 -200q-12 -75 -58.5 -137.5t-160.5 -163.5l-266 -234h420l-17 -135h-653z" />
    <glyph glyph-name="three.subs" horiz-adv-x="782" 
d="M78 459q53 64 146 102.5t188 38.5q144 0 224 -67.5t66 -174.5q-21 -144 -198 -204q84 -25 131.5 -85.5t34.5 -148.5q-17 -124 -133.5 -200t-268.5 -76q-105 0 -188.5 42.5t-130.5 120.5l125 82q47 -64 97 -90t124 -26q87 0 142.5 39t64.5 104q10 72 -40.5 114t-131.5 42
l-125 2l16 127l105 2q84 3 143 43.5t66 101.5q6 54 -33.5 90.5t-106.5 36.5q-65 0 -118.5 -26t-112.5 -82z" />
    <glyph glyph-name="four.subs" horiz-adv-x="839" 
d="M461 594h155l-79 -576h139l-19 -124h-137l-31 -232h-157l33 232h-416l18 126zM102 18h281l53 396z" />
    <glyph glyph-name="five.subs" horiz-adv-x="806" 
d="M150 588h571l-27 -131h-436l-57 -260q45 20 70.5 29t64 17.5t78.5 8.5q137 0 214 -75t58 -216q-20 -149 -129.5 -233t-271.5 -84q-113 0 -201 43.5t-133 119.5l127 87q46 -63 90 -93t115 -30q98 0 160 51t73 133q10 79 -33.5 123.5t-126.5 44.5q-32 0 -67 -10t-55 -19.5
t-62 -30.5q-15 -5 -16.5 -4.5t-12.5 7.5l-96 57z" />
    <glyph glyph-name="six.subs" horiz-adv-x="821" 
d="M416 594q104 0 170.5 -51t83.5 -117l-142 -49q-23 45 -51.5 67.5t-77.5 22.5q-105 0 -174 -83.5t-82 -229.5q91 38 136.5 49.5t97.5 11.5q140 0 212 -76.5t54 -197.5q-19 -131 -126.5 -216t-250.5 -85q-171 0 -250.5 122.5t-50.5 337.5q32 230 152.5 362t298.5 132z
M328 94q-42 0 -93.5 -14t-84.5 -33q-23 -17 -27 -49q-7 -59 6 -111.5t52 -88.5t98 -36q72 0 126.5 49t65.5 123q10 70 -30.5 115t-112.5 45z" />
    <glyph glyph-name="seven.subs" horiz-adv-x="737" 
d="M70 594h663l-24 -162q-139 -158 -271 -389.5t-162 -380.5h-170q17 66 51.5 152.5t89 194t136.5 228t178 226.5h-512z" />
    <glyph glyph-name="eight.subs" horiz-adv-x="808" 
d="M391 600q140 0 219 -72.5t64 -185.5q-6 -44 -28 -82t-51 -61t-50.5 -36t-36.5 -18q5 -3 18 -9.5t22 -11.5t24 -15t24 -18.5t22.5 -22.5t19 -28.5t13.5 -35t6.5 -42t-2.5 -50.5q-17 -125 -125.5 -196.5t-273.5 -71.5q-159 0 -244.5 63.5t-68.5 177.5q10 73 61.5 131
t136.5 93l-9 5q-8 5 -14 9t-18 12.5t-19.5 17t-19.5 22.5t-17 27.5t-12.5 33t-6.5 40t2 46.5q15 118 116.5 198t247.5 80zM377 479q-70 0 -121.5 -39t-60.5 -100q-5 -45 17 -76t69 -43l104 -28q35 -11 85 39.5t56 107.5q9 60 -31 99.5t-118 39.5zM283 -236q85 0 138.5 37.5
t61.5 100.5q6 48 -15 78t-79 47l-127 36q-38 12 -97 -36.5t-67 -116.5q-11 -69 36 -107.5t149 -38.5z" />
    <glyph glyph-name="nine.subs" horiz-adv-x="821" 
d="M227 -360q-104 0 -171 51.5t-87 118.5l140 49q24 -45 54.5 -67.5t82.5 -22.5q108 0 176 93t80 265q-81 -109 -236 -109q-139 0 -210.5 77t-53.5 198q19 132 126 216.5t251 84.5q170 0 249 -122.5t50 -336.5q-32 -231 -153 -363t-298 -132zM315 139q70 0 130 40.5t67 94.5
q3 99 -34.5 149t-110.5 50q-72 0 -128.5 -49.5t-66.5 -122.5q-9 -71 31 -116.5t112 -45.5z" />
    <glyph glyph-name="zero.dnom" horiz-adv-x="839" 
d="M444 934q159 0 240 -129.5t51 -351.5q-30 -220 -146 -348t-276 -128q-161 0 -242 127.5t-51 348.5t147.5 351t276.5 130zM332 106q92 0 149.5 83t81.5 264q49 354 -137 354q-184 0 -236 -354q-47 -347 142 -347z" />
    <glyph glyph-name="one.dnom" horiz-adv-x="618" 
d="M98 0l101 754l-174 -56l14 113l254 121h90l-127 -932h-158z" />
    <glyph glyph-name="two.dnom" horiz-adv-x="778" 
d="M-37 0l19 123l323 274q131 106 177 159.5t53 113.5q8 69 -32 105t-104 36q-141 0 -229 -131l-111 59q148 205 369 205q141 0 215 -74t55 -200q-12 -75 -58.5 -137.5t-160.5 -163.5l-266 -234h420l-17 -135h-653z" />
    <glyph glyph-name="three.dnom" horiz-adv-x="780" 
d="M125 797q53 64 146 102.5t188 38.5q144 0 224.5 -68t66.5 -174q-20 -143 -199 -204q84 -25 131.5 -85.5t34.5 -148.5q-17 -124 -133.5 -200t-268.5 -76q-105 0 -188.5 42.5t-130.5 120.5l125 82q47 -64 97 -90t124 -26q87 0 142.5 39t64.5 104q10 72 -40.5 114t-131.5 42
l-125 2l16 127l105 2q84 3 143 43.5t66 101.5q6 54 -33.5 90.5t-106.5 36.5q-65 0 -118.5 -26t-112.5 -82z" />
    <glyph glyph-name="four.dnom" horiz-adv-x="839" 
d="M510 932h156l-80 -576h137l-16 -125h-138l-32 -231h-156l33 231h-416l16 127zM150 356h280l53 396z" />
    <glyph glyph-name="five.dnom" horiz-adv-x="806" 
d="M197 926h571l-27 -131h-436l-57 -260q45 20 70.5 29t64 17.5t78.5 8.5q137 0 214 -75t58 -216q-20 -149 -129.5 -233t-271.5 -84q-113 0 -201 43.5t-133 119.5l127 86q46 -63 89.5 -92.5t115.5 -29.5q98 0 160 51t73 133q10 79 -33.5 123.5t-126.5 44.5q-32 0 -67 -10
t-55 -19.5t-62 -30.5q-15 -5 -17 -5t-12 7l-96 58z" />
    <glyph glyph-name="six.dnom" horiz-adv-x="821" 
d="M463 932q104 0 170.5 -51t83.5 -117l-139 -49q-25 45 -53.5 67.5t-75.5 22.5q-106 0 -175 -83.5t-81 -229.5q89 38 134 49.5t97 11.5q140 0 211.5 -76.5t56.5 -197.5q-19 -131 -127 -216.5t-252 -85.5q-171 0 -249.5 123t-49.5 338q31 230 151.5 362t297.5 132zM375 432
q-41 0 -93 -14t-85 -33q-12 -9 -17 -18.5t-8 -30.5q-13 -93 27.5 -164.5t128.5 -71.5q71 0 126 49.5t64 122.5q10 70 -29.5 115t-113.5 45z" />
    <glyph glyph-name="seven.dnom" horiz-adv-x="737" 
d="M117 932h663l-24 -162q-138 -158 -270 -389.5t-162 -380.5h-170q39 153 156 376.5t298 424.5h-512z" />
    <glyph glyph-name="eight.dnom" horiz-adv-x="808" 
d="M438 936q140 0 219 -72.5t64 -185.5q-6 -44 -28 -82t-51 -61t-50.5 -36t-36.5 -18q5 -3 18 -9.5t22 -11.5t24 -15t24 -18.5t22.5 -22.5t19 -28.5t13.5 -35t6.5 -42t-2.5 -50.5q-17 -125 -125.5 -196.5t-273.5 -71.5q-159 0 -244.5 63.5t-68.5 177.5q10 73 61.5 130.5
t136.5 92.5l-8 5q-9 5 -15 9t-18 12.5t-19.5 17t-19.5 22.5t-17 27.5t-12.5 33t-6.5 40t2 46.5q15 118 116.5 198.5t247.5 80.5zM424 815q-70 0 -121.5 -39t-60.5 -100q-5 -45 17 -76t69 -43l104 -29q35 -11 85 40t56 108q9 60 -31 99.5t-118 39.5zM330 100q85 0 138.5 37.5
t61.5 100.5q6 48 -15 77.5t-79 46.5l-127 37q-38 12 -97 -36.5t-67 -116.5q-11 -69 36 -107.5t149 -38.5z" />
    <glyph glyph-name="nine.dnom" horiz-adv-x="821" 
d="M274 -23q-104 0 -171 51.5t-87 118.5l140 50q24 -46 54.5 -68.5t82.5 -22.5q108 0 176 93.5t80 265.5q-81 -109 -236 -109q-139 0 -210.5 77t-53.5 198q19 132 126 216.5t251 84.5q170 0 249 -122.5t50 -336.5q-32 -231 -153 -363.5t-298 -132.5zM362 477q70 0 130 40.5
t67 94.5q3 99 -34.5 149t-110.5 50q-72 0 -128.5 -49.5t-66.5 -122.5q-9 -71 31 -116.5t112 -45.5z" />
    <glyph glyph-name="zero.numr" horiz-adv-x="839" 
d="M526 1516q159 0 240 -130t51 -352q-30 -220 -146 -347.5t-276 -127.5q-161 0 -242 127t-51 348t147.5 351.5t276.5 130.5zM414 688q92 0 149.5 82.5t81.5 263.5q49 355 -137 355q-183 0 -236 -355q-46 -346 142 -346z" />
    </font>
</defs>
</svg>
