<?xml version="1.0" standalone="no"?>
<!DOCTYPE svg PUBLIC "-//W3C//DTD SVG 1.1//EN" "http://www.w3.org/Graphics/SVG/1.1/DTD/svg11.dtd" >
<svg xmlns="http://www.w3.org/2000/svg" xmlns:xlink="http://www.w3.org/1999/xlink" version="1.1">
<metadata>
Created by FontForge 20201107 at Thu Jun 12 13:50:23 2025
 By 
copyright missing
</metadata>
<defs>
<font id="PublicSans-Thin" horiz-adv-x="1161" >
  <font-face 
    font-family="Public Sans Thin"
    font-weight="100"
    font-stretch="normal"
    units-per-em="2048"
    panose-1="0 0 2 0 0 0 0 0 0 0"
    ascent="1597"
    descent="-451"
    x-height="1059"
    cap-height="1481"
    bbox="-653 -471 2476 2017"
    underline-thickness="102"
    underline-position="-204"
    unicode-range="U+000D-FB02"
  />
<missing-glyph horiz-adv-x="1454" 
d="M1204 1692q35 0 35 -43v-1921q0 -31 -15 -44.5t-50 -13.5h-893q-31 0 -43.5 11.5t-12.5 37.5v1926q0 47 39 47h940zM1137 1556q0 15 -9 25t-22 10h-705l736 -1708v1673zM330 -188q0 -21 10 -31t35 -10h686l-731 1695v-1654z" />
    <glyph glyph-name="fi" unicode="fi" horiz-adv-x="1320" 
d="M1120 1522v-197h-98v197h98zM717 1059v-70h-291v-989h-80v989h-252v70h252v176q0 125 53.5 185.5t171.5 60.5h156v-70h-176q-70 0 -97.5 -39.5t-27.5 -120.5v-192h291zM1112 1059v-1059h-80v1059h80z" />
    <glyph glyph-name="fl" unicode="fl" horiz-adv-x="1413" 
d="M1212 -8q-101 0 -148.5 70t-47.5 186v1274h80v-1274q0 -95 35 -142t83 -47h66v-59q-33 -8 -68 -8zM717 1059v-70h-291v-989h-80v989h-252v70h252v176q0 125 53.5 185.5t171.5 60.5h156v-70h-176q-70 0 -97.5 -39.5t-27.5 -120.5v-192h291z" />
    <glyph glyph-name="f_f.liga" unicode="ff" horiz-adv-x="1548" 
d="M696 1059v-70h-290v-989h-80v989h-252v70h252v176q0 125 53.5 185.5t171.5 60.5h156v-70h-177q-70 0 -97 -39t-27 -121v-192h290zM1464 1059v-70h-293v-989h-79v989h-252v70h252v176q0 125 54.5 185.5t172.5 60.5h156v-70h-177q-72 0 -99.5 -39.5t-27.5 -120.5v-192h293z
" />
    <glyph glyph-name="colon_one_eight_F_colon.liga" unicode="&#x3a;&#x31;&#x38;F&#x3a;" horiz-adv-x="1564" 
d="M29 1559h1509q23 0 23 -25v-1507q0 -27 -23 -27h-1509q-25 0 -25 27v1507q0 25 25 25zM758 479q71 0 122.5 52t51.5 124q0 93 -76 144q55 52 55 119q0 63 -45.5 108t-107.5 45q-67 0 -112.5 -44.5t-45.5 -108.5t55 -119q-75 -51 -75 -144q0 -73 52 -124.5t126 -51.5z
M494 498v557q0 10 -9 10h-137q-8 0 -8 -10v-54q0 -8 8 -8h74v-495q0 -9 8 -9h55q9 0 9 9zM1249 1001v54q0 10 -8 10h-215q-8 0 -8 -10v-557q0 -9 8 -9h53q13 0 13 9v254h125q8 0 8 8v51q0 10 -8 10h-125v172h149q8 0 8 8zM758 836q-37 0 -61.5 23t-24.5 59q0 35 24.5 59
t61.5 24q34 0 58 -24t24 -59q0 -36 -24 -59t-58 -23zM758 760q43 0 72.5 -30.5t29.5 -74.5q0 -43 -29.5 -73.5t-72.5 -30.5q-44 0 -75.5 30.5t-31.5 73.5q0 44 31.5 74.5t75.5 30.5z" />
    <glyph glyph-name="colon_f_l_a_g_two_colon.liga" unicode="&#x3a;flag&#x32;&#x3a;" horiz-adv-x="2353" 
d="M84 1559h2185v-1557h-2185v1557zM2140 1321v109h-1096v-109h1096zM279 1198h127v121h-127v-121zM760 1198h125v121h-125v-121zM520 1079h125v119h-125v-119zM1044 1081h1096v113h-1096v-113zM281 958h125v121h-125v-121zM885 1079h-125v-121h125v121zM645 958h-125v-118
h125v118zM1044 842h1096v112h-1096v-112zM406 840h-125v-121h125v121zM885 840h-125v-121h125v121zM1044 602h1096v113h-1096v-113zM2140 475h-1931v-113h1931v113zM211 129h1929v107h-1929v-107z" />
    <glyph glyph-name="colon_f_l_a_g_colon.liga" unicode="&#x3a;flag&#x3a;" horiz-adv-x="2353" 
d="M84 1559h2185v-1557h-2185v1557zM2148 1438h-1945v-838h1945v119h-1106v121h1106v118h-1106v121h1106v119h-1106v121h1106v119zM442 1319v-121h-118v121h118zM922 1319v-121h-119v121h119zM682 1198v-119h-119v119h119zM442 1079v-121h-118v121h118zM922 1079v-121h-119
v121h119zM682 958v-118h-119v118h119zM442 840v-121h-118v121h118zM922 840v-121h-119v121h119zM2148 479h-1945v-119h1945v119zM203 121h1945v119h-1945v-119z" />
    <glyph glyph-name=".notdef" horiz-adv-x="1454" 
d="M1204 1692q35 0 35 -43v-1921q0 -31 -15 -44.5t-50 -13.5h-893q-31 0 -43.5 11.5t-12.5 37.5v1926q0 47 39 47h940zM1137 1556q0 15 -9 25t-22 10h-705l736 -1708v1673zM330 -188q0 -21 10 -31t35 -10h686l-731 1695v-1654z" />
    <glyph glyph-name="uni0000" horiz-adv-x="67" 
 />
    <glyph glyph-name="nonmarkingreturn" horiz-adv-x="682" 
 />
    <glyph glyph-name="CR" unicode="&#xd;" horiz-adv-x="481" 
 />
    <glyph glyph-name="space" unicode=" " horiz-adv-x="532" 
 />
    <glyph glyph-name="exclam" unicode="!" horiz-adv-x="471" 
d="M289 1481l-21 -1186h-65l-19 1186h105zM297 158v-158h-123v158h123z" />
    <glyph glyph-name="quotedbl" unicode="&#x22;" horiz-adv-x="749" 
d="M332 1481l-45 -383h-68l-41 383h154zM610 1481l-45 -383h-67l-41 383h153z" />
    <glyph glyph-name="numbersign" unicode="#" horiz-adv-x="1212" 
d="M1118 920h-231l-53 -345h219v-75h-230l-78 -502l-75 12l75 490h-327l-78 -502l-76 12l76 490h-246v75h258l54 345h-246v75h256l76 488l75 -10l-73 -478h327l76 488l76 -10l-74 -478h219v-75zM758 575l53 345h-330l-53 -345h330z" />
    <glyph glyph-name="dollar" unicode="$" horiz-adv-x="1310" 
d="M1163 362q0 -156 -126.5 -263t-325.5 -117v-215h-93v215q-187 11 -313 105.5t-158 254.5l86 18q39 -147 153 -220.5t282 -73.5q101 0 192.5 34t153 102.5t61.5 155.5q0 115 -65.5 191.5t-204.5 118.5l-268 82q-169 52 -255.5 132.5t-86.5 207.5q0 168 120.5 281.5
t321.5 125.5v215h92v-215q119 -10 209.5 -67.5t139 -141t57.5 -182.5l-82 -16q-30 163 -126 244t-249 81q-69 0 -136.5 -19.5t-126.5 -57t-95.5 -101.5t-36.5 -145q0 -94 67 -150.5t242 -114.5l254 -82q165 -54 241 -153.5t76 -229.5z" />
    <glyph glyph-name="percent" unicode="%" horiz-adv-x="1800" 
d="M461 1503q147 0 235 -110t88 -314q0 -205 -88 -315.5t-235 -110.5t-237.5 110.5t-90.5 315.5q0 203 90.5 313.5t237.5 110.5zM1479 1497l-996 -1505h-80l1000 1505h76zM459 713q116 0 186 102t70 264q0 160 -70 262.5t-186 102.5q-115 0 -185.5 -103t-70.5 -262
q0 -160 70 -263t186 -103zM1343 831q146 0 235 -110.5t89 -312.5q0 -207 -88.5 -317.5t-235.5 -110.5t-237 111t-90 317q0 202 90 312.5t237 110.5zM1341 41q111 0 183.5 105t72.5 260t-72.5 259.5t-183.5 104.5t-183.5 -105t-72.5 -259q0 -155 72.5 -260t183.5 -105z" />
    <glyph glyph-name="ampersand" unicode="&#x26;" horiz-adv-x="1302" 
d="M549 1503q145 0 251.5 -85t106.5 -224q0 -222 -372 -408l417 -487q53 53 104.5 173t55.5 282h68q-4 -169 -49 -286t-132 -224l207 -244h-98l-162 184q-206 -194 -446 -194q-190 0 -303 105t-113 278q0 137 81 244.5t249 197.5q-191 197 -191 383q0 129 91.5 217t234.5 88
zM549 1425q-114 0 -178 -65.5t-64 -159.5q0 -47 17 -98.5t44.5 -95t48.5 -72t42 -51.5l30 -35q135 75 210.5 138.5t99.5 110t24 101.5q0 61 -24 106.5t-64.5 71t-87 37.5t-98.5 12zM461 756q-293 -160 -293 -391q0 -132 97 -215.5t243 -83.5q108 0 209.5 47.5t183.5 128.5z
" />
    <glyph glyph-name="quotesingle" unicode="'" horiz-adv-x="501" 
d="M328 1481l-45 -383h-68l-41 383h154z" />
    <glyph glyph-name="parenleft" unicode="(" horiz-adv-x="569" 
d="M516 1481q-111 -213 -177.5 -449t-66.5 -465q0 -431 220 -897h-50q-134 232 -201 442.5t-67 456.5q0 242 79.5 477.5t213.5 434.5h49z" />
    <glyph glyph-name="parenright" unicode=")" horiz-adv-x="589" 
d="M45 1481h49q134 -199 213.5 -434.5t79.5 -477.5q0 -246 -67 -456.5t-201 -442.5h-49q219 464 219 897q0 229 -66.5 465t-177.5 449z" />
    <glyph glyph-name="asterisk" unicode="*" horiz-adv-x="661" 
d="M494 909l-150 238l-158 -246l-65 43l176 227l-238 70l23 66l229 -84l-14 258h84l-10 -258l231 96l21 -64l-234 -81l170 -216z" />
    <glyph glyph-name="plus" unicode="+" horiz-adv-x="1087" 
d="M944 782v-75h-360v-363h-76v361h-365v75h363v365h76v-363h362z" />
    <glyph glyph-name="comma" unicode="," horiz-adv-x="425" 
d="M84 -227l111 227h-74v164h170v-139l-141 -252h-66z" />
    <glyph glyph-name="hyphen" unicode="-" horiz-adv-x="768" 
d="M625 571v-79l-482 -3v80z" />
    <glyph glyph-name="period" unicode="." horiz-adv-x="391" 
d="M258 158v-158h-125v158h125z" />
    <glyph glyph-name="slash" unicode="/" horiz-adv-x="663" 
d="M35 -121l508 1602h86l-508 -1602h-86z" />
    <glyph glyph-name="zero" unicode="0" horiz-adv-x="1271" 
d="M637 1501q110 0 203 -47.5t163.5 -140t110 -240t39.5 -336.5q0 -188 -39.5 -334.5t-110.5 -237.5t-164 -138t-204 -47t-203.5 46.5t-162.5 137.5t-109 236.5t-39 332.5q0 189 39.5 337.5t110 241.5t163.5 141t203 48zM639 63q94 0 170.5 39.5t133.5 119.5t88.5 211
t31.5 304q0 342 -116 511t-310 169q-93 0 -170 -40t-135.5 -121t-90.5 -213t-32 -306q0 -338 117.5 -506t312.5 -168z" />
    <glyph glyph-name="one" unicode="1" horiz-adv-x="755" 
d="M397 0v1370l-307 -123v80l309 154h86v-1481h-88z" />
    <glyph glyph-name="two" unicode="2" horiz-adv-x="1126" 
d="M102 0v102l490 504q166 169 235.5 277t69.5 225q0 66 -22 120t-57 88t-81.5 57t-92 32.5t-91.5 9.5q-115 0 -218.5 -50.5t-170.5 -154.5l-64 58q158 233 461 233q182 0 301.5 -104t118.5 -291q-1 -132 -75.5 -250t-268.5 -317l-447 -455h807v-84h-895z" />
    <glyph glyph-name="three" unicode="3" horiz-adv-x="1247" 
d="M174 1303q69 92 188.5 145t247.5 53q208 0 335.5 -104.5t127.5 -261.5q0 -245 -295 -349q166 -45 253 -147t87 -242q0 -178 -140 -297.5t-394 -119.5q-144 0 -255.5 46.5t-217.5 153.5l65 60q88 -95 189.5 -136t228.5 -41q202 0 318 91t116 237q0 83 -38 151t-101.5 110
t-141 64.5t-159.5 22.5h-199v80h164q180 0 305 90.5t125 225.5q0 121 -104 201.5t-265 80.5q-123 0 -211.5 -44t-166.5 -130z" />
    <glyph glyph-name="four" unicode="4" horiz-adv-x="1259" 
d="M825 1481h88v-969h238v-84h-238v-428h-79v428h-713v100zM207 512h618v831z" />
    <glyph glyph-name="five" unicode="5" horiz-adv-x="1300" 
d="M258 1481h836l-11 -82h-739l-47 -600q67 41 109 63t117.5 43t156.5 21q94 0 176.5 -25t151.5 -76t109 -138.5t40 -201.5q0 -156 -72.5 -271.5t-196 -174.5t-280.5 -59q-286 0 -481 198l57 62q103 -95 191.5 -138t218.5 -43q220 0 346.5 117t126.5 307q0 93 -32 165
t-87 114t-122.5 63t-145.5 21q-79 0 -160 -25t-126.5 -50t-110.5 -66q-13 -9 -19 -4q-4 4 -8 6l-55 36z" />
    <glyph glyph-name="six" unicode="6" horiz-adv-x="1212" 
d="M680 1518q268 0 399 -215l-57 -64q-28 39 -47 61.5t-51 52.5t-64 46t-78.5 27.5t-101.5 11.5q-237 0 -359.5 -222.5t-109.5 -658.5q32 150 152.5 240t279.5 90q110 0 197.5 -35.5t142.5 -97.5t84 -142t29 -172q0 -205 -131 -324.5t-334 -119.5q-241 0 -377.5 194.5
t-136.5 550.5q0 364 148 570.5t415 206.5zM653 803q-112 0 -202 -37.5t-145.5 -114.5t-55.5 -182q80 -389 387 -389q162 0 265.5 100t103.5 256q0 150 -95.5 258.5t-257.5 108.5z" />
    <glyph glyph-name="seven" unicode="7" horiz-adv-x="1159" 
d="M90 1481h979v-82q-138 -202 -275 -486.5t-225 -525t-118 -387.5h-97q37 165 113 382t207.5 498.5t283.5 518.5h-868v82z" />
    <glyph glyph-name="eight" unicode="8" horiz-adv-x="1251" 
d="M625 1501q206 0 329 -110.5t123 -294.5q0 -221 -228 -356q-4 -2 -5 -3q4 -2 29 -10.5t42.5 -16t47.5 -23.5t52 -33.5t48 -45.5t42 -60t27 -77t11 -96q0 -178 -143.5 -286.5t-378.5 -108.5q-239 0 -374.5 103t-135.5 286q0 45 12 91t40 100.5t86.5 107t141.5 92.5
q-22 7 -45.5 17t-61 37t-65 60.5t-48.5 90.5t-21 125q0 177 136 294t339 117zM625 1417q-163 0 -273 -94t-110 -233q0 -221 247 -271l234 -51q29 -5 73.5 22.5t86.5 73.5t72 112t30 130q0 141 -98.5 226t-261.5 85zM623 63q195 0 312.5 86.5t117.5 231.5q0 112 -59.5 178
t-184.5 94l-303 68q-24 5 -61.5 -8.5t-79.5 -45.5t-79 -74.5t-61 -101.5t-24 -120q0 -145 112 -226.5t310 -81.5z" />
    <glyph glyph-name="nine" unicode="9" horiz-adv-x="1212" 
d="M524 -20q-267 0 -397 217l57 61q36 -49 60.5 -76.5t65.5 -60t94 -47.5t120 -15q238 0 361 223t110 658q-32 -149 -152.5 -239.5t-279.5 -90.5q-110 0 -197 35.5t-142 97.5t-84 142.5t-29 173.5q0 203 130.5 322.5t333.5 119.5q242 0 378.5 -193.5t136.5 -549.5
q0 -364 -149 -571t-417 -207zM553 694q168 0 285.5 93.5t117.5 240.5q-80 389 -387 389q-161 0 -264.5 -99.5t-103.5 -254.5q0 -72 23.5 -138t67 -117.5t111.5 -82.5t150 -31z" />
    <glyph glyph-name="colon" unicode=":" horiz-adv-x="391" 
d="M258 999v-159h-125v159h125zM258 164v-158h-125v158h125z" />
    <glyph glyph-name="semicolon" unicode=";" horiz-adv-x="454" 
d="M137 840v159h125v-159h-125zM104 -268l101 268h-58v158h125v-140l-125 -286h-43z" />
    <glyph glyph-name="less" unicode="&#x3c;" horiz-adv-x="1073" 
d="M918 449v-93l-785 310v96l787 317v-100l-664 -264z" />
    <glyph glyph-name="equal" unicode="=" horiz-adv-x="1087" 
d="M944 983v-76l-801 -2v76zM944 543v-76l-801 -2v76z" />
    <glyph glyph-name="greater" unicode="&#x3e;" horiz-adv-x="1073" 
d="M156 449l661 266l-663 264v100l784 -317v-96l-782 -310v93z" />
    <glyph glyph-name="question" unicode="?" horiz-adv-x="1048" 
d="M80 1245q65 117 187.5 186.5t264.5 69.5q193 0 307.5 -98t114.5 -264q0 -73 -23.5 -139.5t-60.5 -119.5t-82 -104.5t-90 -103.5t-82 -106t-60.5 -122.5t-23.5 -144.5h-83q0 81 23 154t59 129.5t80.5 109.5t88.5 103.5t80 101t59 113t23 129.5q0 129 -89.5 203.5
t-240.5 74.5q-116 0 -225 -63t-143 -148zM553 158v-158h-123v158h123z" />
    <glyph glyph-name="at" unicode="@" horiz-adv-x="1673" 
d="M1331 -72q-208 -153 -454 -153q-176 0 -322 58.5t-242 160t-149 237t-53 289.5q0 161 58.5 307t160.5 254.5t251 173t320 64.5q103 0 201 -23t188 -74t157.5 -124t107.5 -181t40 -237q0 -227 -109.5 -372.5t-271.5 -145.5q-76 0 -116.5 25t-53.5 89q-5 24 -22 5
q-104 -148 -285 -148q-108 0 -188 98.5t-80 253.5q0 196 107.5 329.5t267.5 133.5q80 0 142.5 -38t96.5 -105q1 -2 3.5 -2.5t5.5 1.5t4 7l22 86h84l-78 -469q-17 -98 6 -139t87 -41q118 0 198 117t80 303q0 117 -35.5 213.5t-94.5 161t-137 108.5t-161 64t-168 20
q-155 0 -286.5 -57.5t-219.5 -155.5t-137 -229t-49 -277q0 -131 44 -247.5t128 -207.5t218.5 -144.5t303.5 -53.5q65 0 118 9.5t101 31.5t77.5 40t80.5 54zM569 487q0 -125 47.5 -195.5t131.5 -70.5q106 0 191.5 90t107.5 219q24 159 -39 244.5t-160 85.5
q-125 0 -202 -107.5t-77 -265.5z" />
    <glyph glyph-name="A" unicode="A" horiz-adv-x="1433" 
d="M119 0l543 1481h112l541 -1481h-88l-170 467h-678l-174 -467h-86zM408 555h618l-307 840z" />
    <glyph glyph-name="B" unicode="B" horiz-adv-x="1345" 
d="M225 0v1481h416q250 0 387 -99t137 -284q0 -130 -69 -216t-224 -130q164 -28 247 -118.5t83 -238.5q0 -195 -144.5 -295t-410.5 -100h-422zM305 791h361q60 0 114.5 7t112 27t98.5 52t67.5 86t26.5 124q0 157 -120.5 234.5t-331.5 77.5h-328v-608zM305 84h332
q244 0 364.5 70t120.5 229q0 87 -35.5 151.5t-99.5 101t-143.5 54t-177.5 17.5h-361v-623z" />
    <glyph glyph-name="C" unicode="C" horiz-adv-x="1388" 
d="M725 1501q219 0 362.5 -118t163.5 -285l-88 -15q-31 152 -141 243t-293 91q-243 0 -367 -173.5t-124 -508.5q0 -328 125.5 -500t381.5 -172q154 0 265.5 83.5t146.5 230.5l86 -23q-11 -104 -85 -190.5t-185 -135t-232 -48.5q-288 0 -441 196.5t-153 558.5q0 364 150 565
t428 201z" />
    <glyph glyph-name="D" unicode="D" horiz-adv-x="1382" 
d="M225 1481h15t38 -0.5t53.5 -1t67.5 -0.5h72q408 -1 590 -176.5t182 -550.5q0 -390 -195 -571t-606 -181h-217v1481zM313 1397v-1313h123q183 0 315 35t224.5 113t137 204.5t44.5 306.5q0 151 -31 263.5t-87.5 187t-145.5 120t-196 64.5t-248 19h-136z" />
    <glyph glyph-name="E" unicode="E" horiz-adv-x="1253" 
d="M225 0v1481h850v-82h-770v-608h717v-84h-717v-621l799 -2v-84h-879z" />
    <glyph glyph-name="F" unicode="F" 
d="M225 1481h838v-82h-750v-606h697v-84h-697v-709h-88v1481z" />
    <glyph glyph-name="G" unicode="G" horiz-adv-x="1472" 
d="M737 -20q-279 0 -434.5 199t-155.5 556q0 365 158.5 565.5t433.5 200.5q121 0 234.5 -54t188 -146.5t85.5 -198.5l-94 -17q-24 141 -140 236.5t-274 95.5q-241 0 -374.5 -177t-133.5 -492q0 -332 132 -510.5t376 -178.5q91 0 168.5 29t129.5 75.5t89.5 106.5t54.5 121
t17 119v172h-414v72h494v-754h-80v258q-64 -126 -181 -202t-280 -76z" />
    <glyph glyph-name="H" unicode="H" horiz-adv-x="1417" 
d="M1122 729h-817v-729h-80v1481h80v-668h817v668h80v-1481h-80v729z" />
    <glyph glyph-name="I" unicode="I" horiz-adv-x="520" 
d="M225 1481h80v-1481h-80v1481z" />
    <glyph glyph-name="J" unicode="J" horiz-adv-x="753" 
d="M528 287q0 -151 -56 -229t-193 -78q-76 0 -142 22t-84 37l21 88q1 0 42.5 -22.5t76 -32t81.5 -9.5q97 0 136 56.5t39 195.5v1166h79v-1194z" />
    <glyph glyph-name="K" unicode="K" horiz-adv-x="1325" 
d="M1241 0h-106l-533 834l-293 -326v-508h-84v1481h84v-854l787 854h110l-534 -584z" />
    <glyph glyph-name="L" unicode="L" horiz-adv-x="1142" 
d="M225 1481h88v-1393h756v-88h-844v1481z" />
    <glyph glyph-name="M" unicode="M" horiz-adv-x="1736" 
d="M225 0v1481h90l555 -1391l564 1391h88v-1481h-88v1262l-504 -1262h-119l-498 1245v-1245h-88z" />
    <glyph glyph-name="N" unicode="N" horiz-adv-x="1476" 
d="M1182 1481h80v-1481h-70l-887 1317v-1317h-80v1481h66l891 -1321v1321z" />
    <glyph glyph-name="O" unicode="O" horiz-adv-x="1497" 
d="M750 -20q-286 0 -444.5 194t-158.5 559q0 371 160 569.5t445 198.5q283 0 440.5 -197t157.5 -567q0 -367 -158 -562t-442 -195zM754 63q506 0 506 674q0 339 -129.5 509.5t-378.5 170.5q-250 0 -382 -171t-132 -509q0 -336 132 -505t384 -169z" />
    <glyph glyph-name="P" unicode="P" horiz-adv-x="1288" 
d="M225 0v1481h457q157 0 276 -50t187.5 -153t68.5 -248q0 -218 -143.5 -340.5t-376.5 -122.5h-381v-567h-88zM313 655h381q196 0 313 100t117 281q0 180 -117.5 269.5t-326.5 89.5h-367v-740z" />
    <glyph glyph-name="Q" unicode="Q" horiz-adv-x="1464" 
d="M123 737q0 372 158.5 568t443.5 196t442.5 -196t157.5 -568q0 -263 -78.5 -436t-253.5 -264q92 -189 314 -199v-82q-43 0 -91 10.5t-106.5 35.5t-113 76.5t-91.5 123.5q-104 -22 -180 -22q-282 0 -442 193t-160 564zM213 733q0 -335 131.5 -502.5t380.5 -167.5
q250 0 381 168t131 506q0 333 -130.5 506.5t-381.5 173.5t-381.5 -174t-130.5 -510z" />
    <glyph glyph-name="R" unicode="R" horiz-adv-x="1359" 
d="M1194 0h-92l-299 705h-498v-705h-80v1481h523q218 0 336 -93t118 -274q0 -72 -19.5 -132.5t-50 -102t-73 -74t-84.5 -51.5t-88 -31zM678 788q219 0 328.5 74t109.5 238q0 155 -93 227t-278 72h-440v-611h373z" />
    <glyph glyph-name="S" unicode="S" horiz-adv-x="1392" 
d="M698 -20q-209 0 -363.5 97.5t-187.5 264.5l86 18q32 -144 162.5 -222.5t302.5 -78.5q193 0 316 84t123 215q0 255 -271 322l-329 82q-170 43 -256 121.5t-86 206.5q0 177 137 293t358 116q122 0 217.5 -32t155 -88t92.5 -124.5t41 -148.5l-82 -16q-15 88 -55.5 152.5
t-99.5 101t-126.5 54t-146.5 17.5q-54 0 -109.5 -11.5t-108.5 -37.5t-94 -63t-66 -91.5t-25 -119.5q0 -98 69 -159t240 -106l315 -82q165 -43 241.5 -145t76.5 -238q0 -165 -137.5 -273.5t-389.5 -108.5z" />
    <glyph glyph-name="T" unicode="T" horiz-adv-x="1124" 
d="M35 1399v82h1055v-82h-467v-1399h-80v1399h-508z" />
    <glyph glyph-name="U" unicode="U" horiz-adv-x="1431" 
d="M1206 459q0 -241 -121.5 -360t-369.5 -119q-252 0 -371 124t-119 385v992h88v-1026q0 -398 402 -398q411 0 411 398v1026h80v-1022z" />
    <glyph glyph-name="V" unicode="V" horiz-adv-x="1247" 
d="M1214 1481l-536 -1481h-119l-524 1481h88l495 -1397l510 1397h86z" />
    <glyph glyph-name="W" unicode="W" horiz-adv-x="1937" 
d="M1874 1481l-426 -1481h-113l-370 1327l-379 -1327h-107l-416 1481h91l378 -1381l394 1381h80l387 -1381l393 1381h88z" />
    <glyph glyph-name="X" unicode="X" horiz-adv-x="1257" 
d="M1194 0h-102l-463 680l-463 -680h-103l512 760l-489 721h107l434 -645l438 645h102l-487 -721z" />
    <glyph glyph-name="Y" unicode="Y" horiz-adv-x="1112" 
d="M1087 1481l-487 -844v-637h-80v639l-495 842h90l446 -762l438 762h88z" />
    <glyph glyph-name="Z" unicode="Z" horiz-adv-x="1212" 
d="M119 0v63l870 1338h-852v80h957v-62l-875 -1339h875v-80h-975z" />
    <glyph glyph-name="bracketleft" unicode="[" horiz-adv-x="561" 
d="M223 1481h295v-74h-207l-2 -1663h207v-74h-291z" />
    <glyph glyph-name="backslash" unicode="\" horiz-adv-x="663" 
d="M539 -121l-506 1602h86l508 -1602h-88z" />
    <glyph glyph-name="bracketright" unicode="]" horiz-adv-x="600" 
d="M340 1481l-2 -1811h-291v74h207l-2 1663h-207v74h295z" />
    <glyph glyph-name="asciicircum" unicode="^" horiz-adv-x="958" 
d="M741 274l-264 674l-266 -669h-92l291 727q27 70 66 72t69 -72l295 -732h-99z" />
    <glyph glyph-name="underscore" unicode="_" horiz-adv-x="1007" 
d="M864 -121v-80l-721 -2v80z" />
    <glyph glyph-name="grave" unicode="`" horiz-adv-x="550" 
d="M49 1497l481 -188l-20 -64l-490 160z" />
    <glyph glyph-name="a" unicode="a" horiz-adv-x="1153" 
d="M475 -20q-157 0 -248.5 77.5t-91.5 212.5q0 179 115 260.5t379 90.5l243 8v102q0 125 -85 197.5t-222 72.5q-119 0 -201.5 -59.5t-99.5 -165.5h-86q8 122 112.5 212.5t278.5 90.5q171 0 277 -93.5t106 -252.5v-733h-73l-5 205q-118 -225 -399 -225zM487 55
q87 0 176.5 41.5t149 109t59.5 136.5v207l-204 -4q-249 -4 -349 -66t-100 -203q0 -103 72.5 -162t195.5 -59z" />
    <glyph glyph-name="b" unicode="b" horiz-adv-x="1189" 
d="M614 -20q-76 0 -141 21.5t-106.5 55t-64 58t-34.5 45.5l-8 -160h-72v1522h80v-602q11 13 24.5 26t48.5 39t73.5 45t98.5 34t124 15q111 0 196 -43t136 -119t76.5 -173t25.5 -212q0 -257 -121 -404.5t-336 -147.5zM606 55q80 0 147.5 29t120 86t82 149.5t29.5 212.5
q0 218 -94 343.5t-268 125.5q-105 0 -198 -48t-157 -124v-475q0 -119 105.5 -209t232.5 -90z" />
    <glyph glyph-name="c" unicode="c" horiz-adv-x="1122" 
d="M590 1079q93 0 173.5 -30t143.5 -100.5t84 -172.5l-86 -4q-33 119 -115 174t-190 55q-177 0 -281 -129.5t-104 -343.5q0 -216 102.5 -344.5t280.5 -128.5q114 0 198 57.5t109 170.5h86q-18 -81 -58.5 -141.5t-96 -95t-117 -50.5t-129.5 -16q-213 0 -336 149t-123 395
q0 248 123.5 401.5t335.5 153.5z" />
    <glyph glyph-name="d" unicode="d" horiz-adv-x="1159" 
d="M561 -20q-198 0 -314 135.5t-116 394.5t119.5 414t335.5 155q91 0 164.5 -32t156.5 -99v574h80v-1522h-76v199q-105 -219 -350 -219zM571 55q69 0 133.5 27.5t107.5 69.5t69 92t26 96v510q-154 151 -319 151q-175 0 -274 -128t-99 -355q0 -228 98 -345.5t258 -117.5z" />
    <glyph glyph-name="e" unicode="e" horiz-adv-x="1146" 
d="M217 508q0 -92 22.5 -171.5t67.5 -142.5t119.5 -99t171.5 -36q123 0 204.5 58.5t115.5 165.5h86q-42 -154 -149.5 -228.5t-256.5 -74.5q-211 0 -339 142.5t-128 397.5q0 263 119.5 411t335.5 148q203 0 316.5 -134t113.5 -378v-59h-799zM219 588h713q0 186 -88 298.5
t-260 112.5q-93 0 -165.5 -36t-115 -95.5t-64 -131t-20.5 -148.5z" />
    <glyph glyph-name="f" unicode="f" horiz-adv-x="821" 
d="M717 1059v-70h-291v-989h-80v989h-252v70h252v176q0 125 53.5 185.5t171.5 60.5h156v-70h-176q-70 0 -97.5 -39.5t-27.5 -120.5v-192h291z" />
    <glyph glyph-name="g" unicode="g" horiz-adv-x="1236" 
d="M582 -350q-229 0 -354.5 78.5t-125.5 218.5q0 55 27.5 104.5t56.5 74.5t68.5 52t42.5 29q-4 2 -17 10t-18 12t-15.5 12t-15.5 14.5t-11 16t-8.5 21t-2.5 24.5q0 43 41 79t117 59q-100 54 -141.5 118t-41.5 164q0 159 111 248.5t309 89.5q97 0 167.5 -24t133.5 -76
q173 77 230 98v-119l-189 -41q18 -32 32.5 -85t14.5 -91q0 -142 -101 -230.5t-302 -88.5h-23q-99 -2 -163.5 -18t-87.5 -36t-23 -45q0 -34 45.5 -49t173.5 -24l240 -15q307 -17 307 -270q0 -149 -125 -230t-352 -81zM592 494q321 0 321 247q0 125 -82 191.5t-239 66.5
t-242.5 -67.5t-85.5 -190.5q0 -121 84.5 -184t243.5 -63zM600 -274q375 0 375 235q0 87 -52 134.5t-173 54.5l-353 22q-34 2 -82.5 -24t-88.5 -79t-40 -114q0 -110 108.5 -169.5t305.5 -59.5z" />
    <glyph glyph-name="h" unicode="h" 
d="M188 0v1522h74v-621q43 78 138.5 128t220.5 50q159 0 263.5 -82.5t104.5 -212.5v-784h-80v754q0 116 -77.5 181.5t-213.5 65.5q-151 0 -250.5 -68t-99.5 -196v-737h-80z" />
    <glyph glyph-name="i" unicode="i" horiz-adv-x="499" 
d="M299 1522v-197h-98v197h98zM291 1059v-1059h-80v1059h80z" />
    <glyph glyph-name="j" unicode="j" horiz-adv-x="495" 
d="M307 1522v-197h-100v197h100zM297 -102q0 -129 -47 -183.5t-178 -54.5q-53 0 -85 4.5t-38 9.5l-6 4v54l127 2q80 2 113.5 40.5t33.5 133.5v1151h80v-1161z" />
    <glyph glyph-name="k" unicode="k" horiz-adv-x="1122" 
d="M1026 0h-102l-377 606l-279 -282v-324h-80v1522h80v-1084l606 621h113l-379 -385z" />
    <glyph glyph-name="l" unicode="l" horiz-adv-x="591" 
d="M391 -8q-101 0 -148.5 70t-47.5 186v1274h79v-1274q0 -95 35.5 -142t83.5 -47h66v-59q-33 -8 -68 -8z" />
    <glyph glyph-name="m" unicode="m" horiz-adv-x="1802" 
d="M188 0v1059h74v-158q42 77 124.5 127.5t197.5 50.5q126 0 217.5 -45.5t126.5 -130.5q100 176 336 176q55 0 101.5 -8t97.5 -33t86 -66.5t58 -114.5t23 -171v-686h-80v686q0 93 -21.5 157t-62.5 97.5t-89 47t-113 13.5q-45 0 -87 -7t-85 -26t-74 -47.5t-50.5 -76
t-19.5 -107.5v-737h-80v770q0 112 -80 171.5t-206 59.5q-53 0 -105.5 -15t-100.5 -45t-78 -83t-30 -121v-737h-80z" />
    <glyph glyph-name="n" unicode="n" 
d="M188 0v1059h74v-158q43 78 137.5 128t218.5 50q167 0 269 -99.5t102 -293.5v-686h-80v686q0 152 -77 233.5t-214 81.5q-151 0 -250.5 -68t-99.5 -196v-737h-80z" />
    <glyph glyph-name="o" unicode="o" horiz-adv-x="1148" 
d="M575 -20q-217 0 -336.5 147.5t-119.5 394.5q0 250 122 403.5t337 153.5q212 0 332 -152.5t120 -400.5t-120 -397t-335 -149zM580 55q180 0 273 126t93 345t-94.5 347t-273.5 128q-180 0 -277.5 -128.5t-97.5 -346.5q0 -216 97.5 -343.5t279.5 -127.5z" />
    <glyph glyph-name="p" unicode="p" horiz-adv-x="1187" 
d="M188 -330v1389h76v-158q2 2 13 16t18.5 22.5t23.5 25t31 27.5t36 25.5t44.5 24.5t51 19t61 13.5t69.5 4.5q97 0 179.5 -33.5t145 -98t97.5 -167t35 -231.5q0 -256 -130 -412.5t-349 -156.5q-184 0 -322 159v-469h-80zM588 55q175 0 286 131.5t111 354.5q0 115 -31.5 205
t-85 144.5t-121.5 82.5t-145 28q-71 0 -135.5 -26t-107 -66.5t-67 -88.5t-24.5 -93v-520q159 -152 320 -152z" />
    <glyph glyph-name="q" unicode="q" horiz-adv-x="1183" 
d="M1012 -330h-80v432q-80 -65 -155.5 -93.5t-166.5 -28.5q-220 0 -349.5 156t-129.5 413q0 129 35 231.5t97 167t144 98t179 33.5q40 0 77.5 -6.5t66 -15.5t56 -24t45.5 -28t37.5 -31t29 -28.5t22.5 -26t16 -18.5v158h76v-1389zM612 55q158 0 320 152v520q0 45 -25 93
t-68 88.5t-107.5 66.5t-135.5 26q-77 0 -144.5 -28t-121 -82.5t-84.5 -144.5t-31 -205q0 -223 111 -354.5t286 -131.5z" />
    <glyph glyph-name="r" unicode="r" horiz-adv-x="761" 
d="M188 0v1059h74v-191q60 90 178.5 150.5t225.5 60.5v-82q-88 1 -181.5 -43.5t-155 -115t-61.5 -138.5v-700h-80z" />
    <glyph glyph-name="s" unicode="s" horiz-adv-x="1046" 
d="M532 -20q-163 0 -280.5 83.5t-134.5 219.5h86q27 -113 113 -170.5t216 -57.5q133 0 215 57.5t82 159.5q0 72 -44 117t-134 70l-245 69q-123 34 -186.5 93.5t-63.5 160.5q0 74 33.5 132.5t88 93.5t119.5 53t133 18q156 0 252 -85.5t103 -194.5h-88q-12 95 -85.5 148.5
t-181.5 53.5q-48 0 -95.5 -11t-93 -34.5t-73.5 -68.5t-28 -105q0 -69 47 -110.5t141 -67.5l252 -69q231 -63 231 -259q0 -94 -54 -162.5t-138.5 -101t-186.5 -32.5z" />
    <glyph glyph-name="t" unicode="t" horiz-adv-x="776" 
d="M635 989h-244v-741q0 -104 29 -141t94 -37h135v-60q-34 -10 -129 -10q-118 0 -163.5 54t-45.5 184v751h-172v70h172v297h80v-297h244v-70z" />
    <glyph glyph-name="u" unicode="u" 
d="M588 -18q-56 1 -109.5 12t-107 38.5t-93.5 69t-65 107t-25 147.5v707h80v-707q0 -67 20.5 -120t52.5 -85.5t75 -54t83.5 -29.5t82.5 -8q63 0 120.5 19.5t103.5 57t74 99t29 138.5v690h80v-1061h-74v215q-25 -119 -114 -178t-213 -57z" />
    <glyph glyph-name="v" unicode="v" horiz-adv-x="1015" 
d="M938 1059l-365 -1059h-129l-366 1059h86l330 -969h26l338 969h80z" />
    <glyph glyph-name="w" unicode="w" horiz-adv-x="1630" 
d="M1528 1059l-293 -1059h-135l-285 922l-262 -922h-139l-312 1059h86l283 -971h25l282 971h74l299 -967h25l268 967h84z" />
    <glyph glyph-name="x" unicode="x" horiz-adv-x="1116" 
d="M1020 0h-100l-363 485l-360 -485h-101l410 549l-379 510h100l330 -447l332 447h100l-379 -510z" />
    <glyph glyph-name="y" unicode="y" horiz-adv-x="1054" 
d="M238 -338q-45 0 -77 4t-41 8l-9 4v56h112q91 0 140 34t75 97l54 141l-414 1053h86l371 -944l364 944h78l-463 -1213q-73 -184 -276 -184z" />
    <glyph glyph-name="z" unicode="z" horiz-adv-x="964" 
d="M104 0v78l668 911h-625v70h709v-84l-663 -905h677v-70h-766z" />
    <glyph glyph-name="braceleft" unicode="{" horiz-adv-x="561" 
d="M246 1303q0 80 54.5 129t160.5 49h57v-74h-57q-69 0 -98 -24t-29 -80v-465q0 -116 -53 -181t-136 -73q-8 -1 -11.5 -4t-0.5 -6.5t12 -4.5q83 -7 136 -67.5t53 -177.5v-469q0 -59 28 -85t101 -26h55v-74h-55q-112 0 -164.5 51t-52.5 134v469q0 80 -62 146.5t-170 66.5v77
q112 1 172 64.5t60 159.5v465z" />
    <glyph glyph-name="bar" unicode="|" horiz-adv-x="518" 
d="M303 -330h-76l-2 2022h78v-2022z" />
    <glyph glyph-name="braceright" unicode="}" horiz-adv-x="591" 
d="M317 1303v-465q0 -96 60 -159.5t172 -64.5v-77q-108 0 -170 -66.5t-62 -146.5v-469q0 -83 -52.5 -134t-164.5 -51h-55v74h55q73 0 101 26t28 85v469q0 117 53 177.5t136 67.5q9 1 12 4.5t-0.5 6.5t-11.5 4q-83 8 -136 73t-53 181v465q0 56 -29 80t-98 24h-57v74h57
q106 0 160.5 -49t54.5 -129z" />
    <glyph glyph-name="asciitilde" unicode="~" horiz-adv-x="1089" 
d="M958 756q-27 -34 -82.5 -60t-138.5 -26q-67 0 -130 22t-122.5 44t-117.5 22q-123 0 -211 -88l-25 65q33 29 58.5 47t71.5 33.5t99 15.5q72 0 190.5 -45t188.5 -45q49 0 89.5 14t60.5 29.5t43 40.5z" />
    <glyph glyph-name="uni00A0" unicode="&#xa0;" horiz-adv-x="468" 
 />
    <glyph glyph-name="exclamdown" unicode="&#xa1;" horiz-adv-x="471" 
d="M297 901h-123v158h123v-158zM289 -330h-105l19 1092h65z" />
    <glyph glyph-name="cent" unicode="&#xa2;" horiz-adv-x="1089" 
d="M608 283q114 0 198 57t109 170h86q-17 -79 -56 -138.5t-93 -94t-113.5 -51.5t-126.5 -19v-207h-82v211q-182 25 -285.5 171t-103.5 370q0 226 104 375.5t285 175.5v178h82v-174q91 -2 169 -33t138.5 -100.5t81.5 -169.5l-86 -5q-33 119 -115 174.5t-190 55.5
q-177 0 -281 -129.5t-104 -343.5q0 -216 102.5 -344.5t280.5 -128.5z" />
    <glyph glyph-name="sterling" unicode="&#xa3;" horiz-adv-x="1200" 
d="M29 0v78h84q84 0 139 89t55 261q0 124 -26 287h-205v76h194l-41 153q-33 128 -14 230.5t74.5 175.5t138 112t178.5 39q121 0 224.5 -59t134.5 -133l-76 -39q-77 145 -279 145q-136 0 -226.5 -75.5t-90.5 -206.5q0 -74 17 -168.5t44 -171.5h361v-76h-350q28 -140 28 -254
q0 -250 -119 -383h437q115 0 187.5 39t107.5 131l73 -31q-91 -219 -368 -219h-682z" />
    <glyph glyph-name="currency" unicode="&#xa4;" horiz-adv-x="1032" 
d="M514 408q-111 0 -197 61q-14 11 -24 -2l-98 -102l-58 63l109 107q-68 92 -68 210q0 111 62 195q9 14 -2 25l-99 100l60 57l108 -112q84 69 207 69q112 0 191 -61q15 -9 26 2l107 106l57 -59l-117 -117q70 -93 70 -205t-60 -190q-10 -16 3 -29l106 -100l-57 -59l-117 114
q-96 -73 -209 -73zM518 496q104 0 176 74t72 175q0 100 -72 175t-176 75q-105 0 -177.5 -75t-72.5 -175q0 -101 72 -175t178 -74z" />
    <glyph glyph-name="yen" unicode="&#xa5;" 
d="M1128 1481l-483 -807h307v-76h-319v-205h319v-76h-319v-317h-92v315h-320v76h320v205h-320v76h289l-475 809h104l447 -762l450 762h92z" />
    <glyph glyph-name="brokenbar" unicode="&#xa6;" horiz-adv-x="518" 
d="M303 885h-76l-2 807h78v-807zM303 -330h-76l-2 807h78v-807z" />
    <glyph glyph-name="section" unicode="&#xa7;" horiz-adv-x="960" 
d="M504 -135q-127 0 -241.5 64t-170.5 171l66 41q52 -90 145.5 -143t206.5 -53q119 0 193.5 48t74.5 134q0 66 -52 121t-183 108l-195 76q-227 87 -227 273q0 91 61 159.5t160 104.5q-129 64 -175 129t-46 145q0 111 98.5 184.5t255.5 73.5q114 0 209 -54.5t154 -137.5
l-68 -43q-117 155 -285 155q-130 0 -204 -47.5t-74 -126.5q0 -59 44 -110.5t159 -98.5l180 -73q276 -115 276 -318q0 -96 -54 -156t-144 -102q98 -56 148 -118.5t50 -143.5q0 -113 -101.5 -187.5t-260.5 -74.5zM547 442q89 -6 159 52.5t70 140.5q0 83 -39 136.5t-153 100.5
l-131 52q-97 -8 -171.5 -72.5t-74.5 -140.5q0 -68 41 -113t158 -94z" />
    <glyph glyph-name="dieresis" unicode="&#xa8;" horiz-adv-x="368" 
d="M123 1481v-195h-98v195h98zM346 1481v-195h-100v195h100z" />
    <glyph glyph-name="copyright" unicode="&#xa9;" horiz-adv-x="1665" 
d="M834 -20q-208 0 -383 101t-277 276.5t-102 383.5q0 154 60 294.5t162 242.5t243.5 162.5t296.5 60.5q154 0 294.5 -60.5t242 -162.5t162 -242.5t60.5 -294.5q0 -156 -60 -297.5t-162 -242.5t-242.5 -161t-294.5 -60zM834 68q132 0 253 48t213.5 134t147.5 213.5t55 277.5
q0 147 -55 274.5t-147.5 214t-214 136t-252.5 49.5q-135 0 -257.5 -49.5t-214.5 -136t-146 -214t-54 -274.5q0 -199 93 -354.5t245 -237t334 -81.5zM838 1178q182 0 319 -191l-74 -43q-99 156 -239 156q-129 0 -212 -97.5t-83 -252.5q0 -157 82.5 -256t210.5 -99
q81 0 149 45.5t109 122.5l63 -39q-60 -98 -143 -152.5t-182 -54.5q-169 0 -273 118t-104 310q0 190 105.5 311.5t271.5 121.5z" />
    <glyph glyph-name="ordfeminine" unicode="&#xaa;" horiz-adv-x="890" 
d="M358 809q-105 0 -164 48t-59 134q0 187 318 217l145 15v51q0 153 -184 153q-67 0 -113 -23.5t-86 -84.5l-63 27q35 71 106 110t164 39q118 0 183 -61t65 -168v-226q0 -65 8 -133l12 -86h-78l-16 103q-56 -60 -112 -87.5t-126 -27.5zM375 872q92 0 162 64q61 55 61 104
v119l-121 -10q-264 -20 -264 -156q0 -55 44.5 -88t117.5 -33z" />
    <glyph glyph-name="guillemotleft" unicode="&#xab;" horiz-adv-x="847" 
d="M174 514l242 -358h-56l-292 358l294 375h58zM508 514l242 -358h-56l-293 358l295 375h58z" />
    <glyph glyph-name="logicalnot" unicode="&#xac;" horiz-adv-x="1087" 
d="M143 780l801 2v-354h-74l-2 279l-725 -2v75z" />
    <glyph glyph-name="uni00AD" unicode="&#xad;" horiz-adv-x="737" 
d="M629 571v-79l-482 -3v80z" />
    <glyph glyph-name="registered" unicode="&#xae;" horiz-adv-x="1095" 
d="M549 549q-199 0 -338 138.5t-139 336.5t139 337.5t338 139.5q97 0 184.5 -37.5t151.5 -101.5t101.5 -152.5t37.5 -185.5t-37.5 -185t-101.5 -151.5t-151.5 -101t-184.5 -37.5zM549 618q179 0 291 111t112 295q0 183 -112.5 295.5t-290.5 112.5q-181 0 -293.5 -112
t-112.5 -296q0 -185 112.5 -295.5t293.5 -110.5zM375 784v473h205q147 0 147 -114q0 -92 -102 -127l90 -232h-64l-86 228h-131v-228h-59zM434 1069h131q101 0 101 66q0 67 -107 67h-125v-133z" />
    <glyph glyph-name="macron" unicode="&#xaf;" horiz-adv-x="550" 
d="M526 1442v-76h-501v76h501z" />
    <glyph glyph-name="degree" unicode="&#xb0;" horiz-adv-x="933" 
d="M766 1413q0 -130 -85 -214.5t-214 -84.5q-131 0 -215 84t-84 215q0 132 84 216.5t215 84.5q129 0 214 -85t85 -216zM680 1411q0 101 -58.5 163t-158.5 62q-98 0 -157.5 -62.5t-57.5 -162.5q2 -101 60 -163t157 -62t157 62t58 163z" />
    <glyph glyph-name="plusminus" unicode="&#xb1;" horiz-adv-x="1087" 
d="M582 922h362v-76h-362v-363h-74v361h-365v76h363v364h76v-362zM143 166v76l801 2v-76z" />
    <glyph glyph-name="uni00B2" unicode="&#xb2;" horiz-adv-x="765" 
d="M43 786v64l309 317q105 109 149 176t44 140q0 52 -21 91t-54.5 60.5t-69.5 32t-72 10.5q-73 0 -138.5 -32t-107.5 -97l-39 35q100 148 289 148q115 0 190 -65t74 -183q0 -83 -46.5 -158.5t-168.5 -200.5l-283 -284h508v-54h-563z" />
    <glyph glyph-name="uni00B3" unicode="&#xb3;" horiz-adv-x="796" 
d="M109 1606q44 58 119.5 91.5t154.5 33.5q131 0 212 -66.5t81 -165.5q0 -154 -187 -217q104 -29 158.5 -93t54.5 -153q0 -112 -87.5 -187t-247.5 -75q-90 0 -160 29t-137 96l41 39q102 -113 262 -113q128 0 201 57.5t73 149.5q0 102 -83 160.5t-193 58.5h-125v52h102
q114 0 192 55.5t78 140.5q0 77 -65 127.5t-166 50.5q-79 0 -135 -27t-105 -81z" />
    <glyph glyph-name="acute" unicode="&#xb4;" horiz-adv-x="550" 
d="M502 1497l28 -92l-489 -160l-21 64z" />
    <glyph glyph-name="paragraph" unicode="&#xb6;" horiz-adv-x="1077" 
d="M905 1417h-121v-1587h-67v1587h-88v-1587h-70v776q-105 0 -190 35.5t-139 95.5t-82.5 134.5t-28.5 154.5q0 86 29 165.5t84.5 145t146 105t203.5 39.5h323v-64z" />
    <glyph glyph-name="periodcentered" unicode="&#xb7;" horiz-adv-x="352" 
d="M258 825v-157h-164v157h164z" />
    <glyph glyph-name="cedilla" unicode="&#xb8;" horiz-adv-x="399" 
d="M375 -258q0 -72 -56.5 -111t-142.5 -39t-153 48l22 57q48 -45 123 -45q119 0 119 86q0 47 -37.5 70t-116.5 26q-12 0 -8 8l74 168h67l-51 -127q86 -7 123 -46.5t37 -94.5z" />
    <glyph glyph-name="uni00B9" unicode="&#xb9;" horiz-adv-x="598" 
d="M205 778v862l-193 -77v51l195 96h53v-932h-55z" />
    <glyph glyph-name="ordmasculine" unicode="&#xba;" horiz-adv-x="849" 
d="M424 1499q141 0 224 -94.5t83 -251.5q0 -153 -80.5 -246.5t-226.5 -93.5t-225.5 93.5t-79.5 246.5q0 156 82.5 251t222.5 95zM424 1430q-108 0 -165.5 -74t-57.5 -197q0 -130 57.5 -205t165.5 -75t166.5 75t58.5 205q0 123 -58.5 197t-166.5 74z" />
    <glyph glyph-name="guillemotright" unicode="&#xbb;" horiz-adv-x="845" 
d="M340 514l-246 375h56l294 -375l-292 -358h-54zM674 514l-246 375h55l295 -375l-293 -358h-53z" />
    <glyph glyph-name="onequarter" unicode="&#xbc;" horiz-adv-x="1939" 
d="M205 565v862l-193 -77v51l195 96h53v-932h-55zM1389 1497l-996 -1505h-80l1000 1505h76zM1614 932h57v-610h148v-54h-148v-268h-51v268h-449v64zM1227 322h387v524z" />
    <glyph glyph-name="onehalf" unicode="&#xbd;" horiz-adv-x="1873" 
d="M205 565v862l-193 -77v51l195 96h53v-932h-55zM1389 1497l-996 -1505h-80l1000 1505h76zM1151 0v63l309 318q106 109 149.5 175.5t43.5 139.5q0 52 -21 91.5t-54.5 61t-69.5 32t-72 10.5q-73 0 -138.5 -32t-107.5 -97l-39 35q99 147 289 147q115 0 190 -65t74 -183
q0 -83 -46.5 -158t-168.5 -200l-283 -285h508v-53h-563z" />
    <glyph glyph-name="threequarters" unicode="&#xbe;" horiz-adv-x="2138" 
d="M109 1391q44 58 119.5 91.5t154.5 33.5q131 0 212 -66.5t81 -165.5q0 -154 -187 -217q104 -29 158.5 -93t54.5 -153q0 -112 -87.5 -187t-247.5 -75q-90 0 -160 29t-137 96l41 39q102 -113 262 -113q128 0 201 57.5t73 149.5q0 102 -83 160.5t-193 58.5h-125v51h102
q114 0 192 56t78 141q0 77 -65 127.5t-166 50.5q-79 0 -135 -27t-105 -81zM1587 1497l-995 -1505h-80l999 1505h76zM1812 932h58v-610h147v-54h-147v-268h-51v268h-449v64zM1425 322h387v524z" />
    <glyph glyph-name="questiondown" unicode="&#xbf;" horiz-adv-x="1017" 
d="M465 901v158h125v-158h-125zM938 -94q-65 -117 -187 -186.5t-266 -69.5q-193 0 -307.5 99t-114.5 265q0 69 23.5 127.5t60.5 101.5t82 83.5t90 83t82 90t60.5 114t23.5 146.5h84q0 -86 -23 -157.5t-59 -121t-80.5 -93.5t-88.5 -83.5t-80 -80t-59 -94t-23 -116.5
q0 -129 89 -204.5t240 -75.5q117 0 226 63.5t143 149.5z" />
    <glyph glyph-name="Agrave" unicode="&#xc0;" horiz-adv-x="1433" 
d="M455 1919l481 -188l-21 -64l-489 160zM119 0l543 1481h112l541 -1481h-88l-170 467h-678l-174 -467h-86zM408 555h618l-307 840z" />
    <glyph glyph-name="Aacute" unicode="&#xc1;" horiz-adv-x="1433" 
d="M942 1919l29 -92l-490 -160l-20 64zM119 0l543 1481h112l541 -1481h-88l-170 467h-678l-174 -467h-86zM408 555h618l-307 840z" />
    <glyph glyph-name="Acircumflex" unicode="&#xc2;" horiz-adv-x="1433" 
d="M868 1708l-151 123l-160 -123h-115l244 195h66l239 -195h-123zM119 0l543 1481h112l541 -1481h-88l-170 467h-678l-174 -467h-86zM408 555h618l-307 840z" />
    <glyph glyph-name="Atilde" unicode="&#xc3;" horiz-adv-x="1433" 
d="M967 1804q-61 -39 -133 -39q-55 0 -122.5 25t-105.5 25q-27 0 -45.5 -5.5t-42 -20.5t-24.5 -15q-9 -5 -13.5 -3.5t-7.5 11.5l-14 33q-4 9 4 14q71 53 135 53q44 0 119 -25.5t119 -25.5q20 0 38 5t29 10t33 18q17 10 25 -6l16 -37q6 -9 -10 -17zM119 0l543 1481h112
l541 -1481h-88l-170 467h-678l-174 -467h-86zM408 555h618l-307 840z" />
    <glyph glyph-name="Adieresis" unicode="&#xc4;" horiz-adv-x="1433" 
d="M653 1903v-195h-98v195h98zM877 1903v-195h-101v195h101zM119 0l543 1481h112l541 -1481h-88l-170 467h-678l-174 -467h-86zM408 555h618l-307 840z" />
    <glyph glyph-name="Aring" unicode="&#xc5;" horiz-adv-x="1433" 
d="M918 1821q0 -85 -58 -142t-143 -57q-84 0 -141.5 58.5t-57.5 144.5q0 79 58.5 135.5t140.5 56.5q85 0 143 -56.5t58 -139.5zM831 1821q0 52 -33 84t-83 32q-47 0 -82 -32.5t-35 -83.5q0 -47 35.5 -83t81.5 -36q49 0 82.5 35.5t33.5 83.5zM119 0l543 1481h112l541 -1481
h-88l-170 467h-678l-174 -467h-86zM408 555h618l-307 840z" />
    <glyph glyph-name="AE" unicode="&#xc6;" horiz-adv-x="1990" 
d="M1841 80v-80h-829v475h-535l-272 -475h-86l846 1481h847v-80h-710v-613h569v-79h-569v-629h739zM1012 555v848l-496 -848h496z" />
    <glyph glyph-name="Ccedilla" unicode="&#xc7;" horiz-adv-x="1388" 
d="M745 63q154 0 265.5 83.5t146.5 230.5l86 -23q-11 -100 -80.5 -184.5t-174.5 -134.5t-222 -55l-39 -97q86 -7 123 -46.5t37 -94.5q0 -72 -56.5 -111t-142.5 -39t-153 48l22 57q48 -45 123 -45q119 0 119 86q0 47 -37.5 70t-116.5 26q-12 0 -8 8l61 140
q-267 13 -409 208.5t-142 544.5q0 364 150 565t428 201q219 0 362.5 -118t163.5 -285l-88 -15q-31 152 -141 243t-293 91q-243 0 -367 -173.5t-124 -508.5q0 -328 125.5 -500t381.5 -172z" />
    <glyph glyph-name="Egrave" unicode="&#xc8;" horiz-adv-x="1253" 
d="M418 1919l481 -188l-20 -64l-490 160zM225 0v1481h850v-82h-770v-608h717v-84h-717v-621l799 -2v-84h-879z" />
    <glyph glyph-name="Eacute" unicode="&#xc9;" horiz-adv-x="1253" 
d="M905 1919l29 -92l-490 -160l-20 64zM225 0v1481h850v-82h-770v-608h717v-84h-717v-621l799 -2v-84h-879z" />
    <glyph glyph-name="Ecircumflex" unicode="&#xca;" horiz-adv-x="1253" 
d="M831 1708l-151 123l-160 -123h-114l243 195h66l239 -195h-123zM225 0v1481h850v-82h-770v-608h717v-84h-717v-621l799 -2v-84h-879z" />
    <glyph glyph-name="Edieresis" unicode="&#xcb;" horiz-adv-x="1253" 
d="M616 1903v-195h-98v195h98zM840 1903v-195h-101v195h101zM225 0v1481h850v-82h-770v-608h717v-84h-717v-621l799 -2v-84h-879z" />
    <glyph glyph-name="Igrave" unicode="&#xcc;" horiz-adv-x="520" 
d="M12 1919l482 -188l-21 -64l-489 160zM225 1481h80v-1481h-80v1481z" />
    <glyph glyph-name="Iacute" unicode="&#xcd;" horiz-adv-x="520" 
d="M500 1919l28 -92l-489 -160l-21 64zM225 1481h80v-1481h-80v1481z" />
    <glyph glyph-name="Icircumflex" unicode="&#xce;" horiz-adv-x="520" 
d="M426 1708l-152 123l-159 -123h-115l244 195h65l240 -195h-123zM225 1481h80v-1481h-80v1481z" />
    <glyph glyph-name="Idieresis" unicode="&#xcf;" horiz-adv-x="520" 
d="M211 1903v-195h-98v195h98zM434 1903v-195h-100v195h100zM225 1481h80v-1481h-80v1481z" />
    <glyph glyph-name="Eth" unicode="&#xd0;" horiz-adv-x="1386" 
d="M475 1479q408 -1 590 -176.5t182 -550.5q0 -390 -195 -571t-606 -181h-217v705h-135q-20 0 -20 20v45q0 18 14 18h141v693h15t38 -0.5t53.5 -1t67.5 -0.5h72zM440 84q183 0 315 35t224.5 113t137 204.5t44.5 306.5q0 151 -31 263.5t-87.5 187t-145.5 120t-196 64.5
t-248 19h-136v-609h357q12 0 12 -16v-45q0 -22 -24 -22h-345v-621h123z" />
    <glyph glyph-name="Ntilde" unicode="&#xd1;" horiz-adv-x="1476" 
d="M1022 1804q-61 -39 -133 -39q-55 0 -122 25t-105 25q-21 0 -39.5 -5t-28.5 -10t-24.5 -14t-20.5 -12q-9 -5 -13.5 -3.5t-7.5 11.5l-14 33q-4 9 4 14q71 53 135 53q44 0 119 -25.5t119 -25.5q20 0 38 5t29 10t33 18q17 10 25 -6l16 -37q6 -9 -10 -17zM1182 1481h80v-1481
h-70l-887 1317v-1317h-80v1481h66l891 -1321v1321z" />
    <glyph glyph-name="Ograve" unicode="&#xd2;" horiz-adv-x="1497" 
d="M492 1919l481 -188l-21 -64l-489 160zM750 -20q-286 0 -444.5 194t-158.5 559q0 371 160 569.5t445 198.5q283 0 440.5 -197t157.5 -567q0 -367 -158 -562t-442 -195zM754 63q506 0 506 674q0 339 -129.5 509.5t-378.5 170.5q-250 0 -382 -171t-132 -509q0 -336 132 -505
t384 -169z" />
    <glyph glyph-name="Oacute" unicode="&#xd3;" horiz-adv-x="1497" 
d="M979 1919l29 -92l-490 -160l-20 64zM750 -20q-286 0 -444.5 194t-158.5 559q0 371 160 569.5t445 198.5q283 0 440.5 -197t157.5 -567q0 -367 -158 -562t-442 -195zM754 63q506 0 506 674q0 339 -129.5 509.5t-378.5 170.5q-250 0 -382 -171t-132 -509q0 -336 132 -505
t384 -169z" />
    <glyph glyph-name="Ocircumflex" unicode="&#xd4;" horiz-adv-x="1497" 
d="M905 1708l-151 123l-160 -123h-115l244 195h65l240 -195h-123zM750 -20q-286 0 -444.5 194t-158.5 559q0 371 160 569.5t445 198.5q283 0 440.5 -197t157.5 -567q0 -367 -158 -562t-442 -195zM754 63q506 0 506 674q0 339 -129.5 509.5t-378.5 170.5q-250 0 -382 -171
t-132 -509q0 -336 132 -505t384 -169z" />
    <glyph glyph-name="Otilde" unicode="&#xd5;" horiz-adv-x="1497" 
d="M1004 1804q-61 -39 -134 -39q-55 0 -122 25t-105 25q-21 0 -39.5 -5t-28.5 -10t-24.5 -14t-20.5 -12q-9 -5 -13 -3.5t-7 11.5l-14 33q-4 9 4 14q71 53 135 53q44 0 118.5 -25.5t118.5 -25.5q20 0 38.5 4.5t29.5 10.5l33 18q11 6 15 4.5t9 -10.5l17 -37q6 -9 -10 -17z
M750 -20q-286 0 -444.5 194t-158.5 559q0 371 160 569.5t445 198.5q283 0 440.5 -197t157.5 -567q0 -367 -158 -562t-442 -195zM754 63q506 0 506 674q0 339 -129.5 509.5t-378.5 170.5q-250 0 -382 -171t-132 -509q0 -336 132 -505t384 -169z" />
    <glyph glyph-name="Odieresis" unicode="&#xd6;" horiz-adv-x="1497" 
d="M690 1903v-195h-98v195h98zM913 1903v-195h-100v195h100zM750 -20q-286 0 -444.5 194t-158.5 559q0 371 160 569.5t445 198.5q283 0 440.5 -197t157.5 -567q0 -367 -158 -562t-442 -195zM754 63q506 0 506 674q0 339 -129.5 509.5t-378.5 170.5q-250 0 -382 -171
t-132 -509q0 -336 132 -505t384 -169z" />
    <glyph glyph-name="multiply" unicode="&#xd7;" horiz-adv-x="1040" 
d="M901 418l-55 -56l-328 326l-323 -326l-56 56l324 325l-326 326l56 53l325 -323l326 327l55 -53l-326 -330z" />
    <glyph glyph-name="Oslash" unicode="&#xd8;" horiz-adv-x="1421" 
d="M1370 1452q11 -11 2 -22l-170 -197q111 -193 111 -496q0 -366 -158.5 -561.5t-443.5 -195.5q-282 0 -432 182l-148 -168q-14 -22 -37 -4l-35 33q-11 11 -12.5 15.5t4.5 12.5l168 195q-108 181 -108 487q0 371 159 569.5t443 198.5q274 0 432 -184l149 172q14 17 25 6z
M211 737q0 -255 74 -415l798 925q-125 168 -370 168q-502 0 -502 -678zM1210 737q0 260 -73 422l-799 -926q127 -167 377 -167q249 0 372 165.5t123 505.5z" />
    <glyph glyph-name="Ugrave" unicode="&#xd9;" horiz-adv-x="1431" 
d="M459 1919l481 -188l-20 -64l-490 160zM1206 459q0 -241 -121.5 -360t-369.5 -119q-252 0 -371 124t-119 385v992h88v-1026q0 -398 402 -398q411 0 411 398v1026h80v-1022z" />
    <glyph glyph-name="Uacute" unicode="&#xda;" horiz-adv-x="1431" 
d="M946 1919l29 -92l-490 -160l-20 64zM1206 459q0 -241 -121.5 -360t-369.5 -119q-252 0 -371 124t-119 385v992h88v-1026q0 -398 402 -398q411 0 411 398v1026h80v-1022z" />
    <glyph glyph-name="Ucircumflex" unicode="&#xdb;" horiz-adv-x="1431" 
d="M872 1708l-151 123l-160 -123h-115l244 195h66l239 -195h-123zM1206 459q0 -241 -121.5 -360t-369.5 -119q-252 0 -371 124t-119 385v992h88v-1026q0 -398 402 -398q411 0 411 398v1026h80v-1022z" />
    <glyph glyph-name="Udieresis" unicode="&#xdc;" horiz-adv-x="1431" 
d="M657 1903v-195h-98v195h98zM881 1903v-195h-101v195h101zM1206 459q0 -241 -121.5 -360t-369.5 -119q-252 0 -371 124t-119 385v992h88v-1026q0 -398 402 -398q411 0 411 398v1026h80v-1022z" />
    <glyph glyph-name="Yacute" unicode="&#xdd;" horiz-adv-x="1112" 
d="M774 1919l29 -92l-490 -160l-20 64zM1087 1481l-487 -844v-637h-80v639l-495 842h90l446 -762l438 762h88z" />
    <glyph glyph-name="Thorn" unicode="&#xde;" horiz-adv-x="1292" 
d="M1219 778q0 -110 -38.5 -191.5t-109.5 -130t-164 -71.5t-209 -23h-381v-362h-92v1481h92v-324h369q120 0 216 -22.5t167.5 -67.5t110.5 -118.5t39 -170.5zM1122 778q0 159 -112.5 229t-325.5 70h-367v-635h381q424 0 424 336z" />
    <glyph glyph-name="germandbls" unicode="&#xdf;" horiz-adv-x="1189" 
d="M623 1481q84 0 146 -23.5t94.5 -63.5t47.5 -84t15 -93q0 -24 -4 -45.5t-8.5 -38.5t-16 -34t-19 -28.5t-25 -25.5t-26 -21.5t-31 -20t-30.5 -17t-33.5 -17.5t-32.5 -17q-106 -58 -130 -80q-33 -30 -33 -77q0 -48 30.5 -69.5t126.5 -51.5q126 -41 177 -68q184 -97 184 -291
q0 -106 -52.5 -183.5t-136 -114.5t-186.5 -37q-71 0 -152 19.5t-133 53.5l45 68q59 -34 108.5 -50t117.5 -16q142 0 223.5 67.5t81.5 186.5q0 53 -18 96t-43.5 70t-70.5 51.5t-79 37t-90 30.5q-99 30 -134 51q-83 50 -83 148q0 72 46 120t158 105l32 16t34 18t29.5 18
t30 21.5t23 24t20.5 30t11 35t5 42.5q0 85 -62 133.5t-174 48.5q-141 0 -226 -85t-85 -251v-1069h-80v989h-152v70h150q0 195 113 308.5t297 113.5z" />
    <glyph glyph-name="agrave" unicode="&#xe0;" horiz-adv-x="1153" 
d="M309 1497l482 -188l-21 -64l-489 160zM475 -20q-157 0 -248.5 77.5t-91.5 212.5q0 179 115 260.5t379 90.5l243 8v102q0 125 -85 197.5t-222 72.5q-119 0 -201.5 -59.5t-99.5 -165.5h-86q8 122 112.5 212.5t278.5 90.5q171 0 277 -93.5t106 -252.5v-733h-73l-5 205
q-118 -225 -399 -225zM487 55q87 0 176.5 41.5t149 109t59.5 136.5v207l-204 -4q-249 -4 -349 -66t-100 -203q0 -103 72.5 -162t195.5 -59z" />
    <glyph glyph-name="aacute" unicode="&#xe1;" horiz-adv-x="1153" 
d="M797 1497l28 -92l-489 -160l-21 64zM475 -20q-157 0 -248.5 77.5t-91.5 212.5q0 179 115 260.5t379 90.5l243 8v102q0 125 -85 197.5t-222 72.5q-119 0 -201.5 -59.5t-99.5 -165.5h-86q8 122 112.5 212.5t278.5 90.5q171 0 277 -93.5t106 -252.5v-733h-73l-5 205
q-118 -225 -399 -225zM487 55q87 0 176.5 41.5t149 109t59.5 136.5v207l-204 -4q-249 -4 -349 -66t-100 -203q0 -103 72.5 -162t195.5 -59z" />
    <glyph glyph-name="acircumflex" unicode="&#xe2;" horiz-adv-x="1153" 
d="M723 1286l-152 123l-159 -123h-115l244 195h65l240 -195h-123zM475 -20q-157 0 -248.5 77.5t-91.5 212.5q0 179 115 260.5t379 90.5l243 8v102q0 125 -85 197.5t-222 72.5q-119 0 -201.5 -59.5t-99.5 -165.5h-86q8 122 112.5 212.5t278.5 90.5q171 0 277 -93.5
t106 -252.5v-733h-73l-5 205q-118 -225 -399 -225zM487 55q87 0 176.5 41.5t149 109t59.5 136.5v207l-204 -4q-249 -4 -349 -66t-100 -203q0 -103 72.5 -162t195.5 -59z" />
    <glyph glyph-name="atilde" unicode="&#xe3;" horiz-adv-x="1153" 
d="M821 1382q-61 -39 -133 -39q-55 0 -122 25t-105 25q-21 0 -39.5 -5t-28.5 -10t-24.5 -14t-20.5 -12q-9 -5 -13 -3.5t-7 11.5l-15 33q-4 9 4 14q71 53 136 53q44 0 118.5 -25.5t118.5 -25.5q20 0 38.5 4.5t29.5 10.5l33 18q11 6 15 4.5t9 -10.5l16 -37q6 -9 -10 -17z
M475 -20q-157 0 -248.5 77.5t-91.5 212.5q0 179 115 260.5t379 90.5l243 8v102q0 125 -85 197.5t-222 72.5q-119 0 -201.5 -59.5t-99.5 -165.5h-86q8 122 112.5 212.5t278.5 90.5q171 0 277 -93.5t106 -252.5v-733h-73l-5 205q-118 -225 -399 -225zM487 55q87 0 176.5 41.5
t149 109t59.5 136.5v207l-204 -4q-249 -4 -349 -66t-100 -203q0 -103 72.5 -162t195.5 -59z" />
    <glyph glyph-name="adieresis" unicode="&#xe4;" horiz-adv-x="1153" 
d="M508 1481v-195h-98v195h98zM731 1481v-195h-100v195h100zM475 -20q-157 0 -248.5 77.5t-91.5 212.5q0 179 115 260.5t379 90.5l243 8v102q0 125 -85 197.5t-222 72.5q-119 0 -201.5 -59.5t-99.5 -165.5h-86q8 122 112.5 212.5t278.5 90.5q171 0 277 -93.5t106 -252.5
v-733h-73l-5 205q-118 -225 -399 -225zM487 55q87 0 176.5 41.5t149 109t59.5 136.5v207l-204 -4q-249 -4 -349 -66t-100 -203q0 -103 72.5 -162t195.5 -59z" />
    <glyph glyph-name="aring" unicode="&#xe5;" horiz-adv-x="1153" 
d="M772 1399q0 -85 -58 -142t-143 -57q-83 0 -140.5 58.5t-57.5 144.5q0 79 58 135.5t140 56.5q85 0 143 -56.5t58 -139.5zM686 1399q0 52 -33.5 84.5t-83.5 32.5q-47 0 -81.5 -33t-34.5 -84q0 -47 35 -83t81 -36q49 0 83 35.5t34 83.5zM475 -20q-157 0 -248.5 77.5
t-91.5 212.5q0 179 115 260.5t379 90.5l243 8v102q0 125 -85 197.5t-222 72.5q-119 0 -201.5 -59.5t-99.5 -165.5h-86q8 122 112.5 212.5t278.5 90.5q171 0 277 -93.5t106 -252.5v-733h-73l-5 205q-118 -225 -399 -225zM487 55q87 0 176.5 41.5t149 109t59.5 136.5v207
l-204 -4q-249 -4 -349 -66t-100 -203q0 -103 72.5 -162t195.5 -59z" />
    <glyph glyph-name="ae" unicode="&#xe6;" horiz-adv-x="1931" 
d="M940 506q0 -79 31.5 -160t84 -145.5t127.5 -105t156 -40.5q62 0 115 13.5t89 32t69 48.5t51.5 53.5t40.5 55.5l63 -45q-54 -103 -170.5 -168t-261.5 -65q-70 0 -131 17t-101 40t-78 59.5t-56 60.5t-41 58q-5 7 -10 0q-29 -37 -50 -61t-64 -60.5t-86.5 -58.5t-109.5 -38.5
t-141 -16.5q-155 0 -243.5 77.5t-88.5 214.5q0 302 477 342l260 21v90q0 129 -79 202.5t-228 73.5q-193 0 -340 -198l-61 43q66 110 176.5 171.5t241.5 61.5q289 0 350 -239q120 239 409 239q209 0 334 -151t125 -420zM1335 1001q-167 0 -278.5 -116t-112.5 -303l770 -2
q0 177 -107.5 299t-271.5 122zM872 559l-219 -16q-222 -17 -327 -83.5t-105 -183.5q0 -103 71 -164t195 -55q160 8 272.5 94t112.5 203v205z" />
    <glyph glyph-name="ccedilla" unicode="&#xe7;" horiz-adv-x="1128" 
d="M598 55q114 0 198 57.5t109 170.5h86q-22 -102 -81.5 -170.5t-132.5 -98.5t-161 -34l-38 -97q86 -7 122.5 -46.5t36.5 -94.5q0 -72 -56 -111t-142 -39q-87 0 -154 48l23 57q48 -45 122 -45q119 0 119 86q0 47 -37 70t-116 26q-7 0 -9 2.5t0 5.5l62 140
q-195 15 -306.5 162t-111.5 380q0 248 123.5 401.5t335.5 153.5q93 0 173.5 -30t143.5 -100.5t84 -172.5l-86 -4q-33 119 -115 174t-190 55q-177 0 -281 -129.5t-104 -343.5q0 -216 102.5 -344.5t280.5 -128.5z" />
    <glyph glyph-name="egrave" unicode="&#xe8;" horiz-adv-x="1157" 
d="M324 1497l481 -188l-21 -64l-489 160zM217 508q0 -92 22.5 -171.5t67.5 -142.5t119.5 -99t171.5 -36q123 0 204.5 58.5t115.5 165.5h86q-42 -154 -149.5 -228.5t-256.5 -74.5q-211 0 -339 142.5t-128 397.5q0 263 119.5 411t335.5 148q203 0 316.5 -134t113.5 -378v-59
h-799zM219 588h713q0 186 -88 298.5t-260 112.5q-93 0 -165.5 -36t-115 -95.5t-64 -131t-20.5 -148.5z" />
    <glyph glyph-name="eacute" unicode="&#xe9;" horiz-adv-x="1157" 
d="M811 1497l29 -92l-490 -160l-20 64zM217 508q0 -92 22.5 -171.5t67.5 -142.5t119.5 -99t171.5 -36q123 0 204.5 58.5t115.5 165.5h86q-42 -154 -149.5 -228.5t-256.5 -74.5q-211 0 -339 142.5t-128 397.5q0 263 119.5 411t335.5 148q203 0 316.5 -134t113.5 -378v-59
h-799zM219 588h713q0 186 -88 298.5t-260 112.5q-93 0 -165.5 -36t-115 -95.5t-64 -131t-20.5 -148.5z" />
    <glyph glyph-name="ecircumflex" unicode="&#xea;" horiz-adv-x="1157" 
d="M737 1286l-151 123l-160 -123h-115l244 195h66l239 -195h-123zM217 508q0 -92 22.5 -171.5t67.5 -142.5t119.5 -99t171.5 -36q123 0 204.5 58.5t115.5 165.5h86q-42 -154 -149.5 -228.5t-256.5 -74.5q-211 0 -339 142.5t-128 397.5q0 263 119.5 411t335.5 148
q203 0 316.5 -134t113.5 -378v-59h-799zM219 588h713q0 186 -88 298.5t-260 112.5q-93 0 -165.5 -36t-115 -95.5t-64 -131t-20.5 -148.5z" />
    <glyph glyph-name="edieresis" unicode="&#xeb;" horiz-adv-x="1157" 
d="M522 1481v-195h-98v195h98zM745 1481v-195h-100v195h100zM217 508q0 -92 22.5 -171.5t67.5 -142.5t119.5 -99t171.5 -36q123 0 204.5 58.5t115.5 165.5h86q-42 -154 -149.5 -228.5t-256.5 -74.5q-211 0 -339 142.5t-128 397.5q0 263 119.5 411t335.5 148
q203 0 316.5 -134t113.5 -378v-59h-799zM219 588h713q0 186 -88 298.5t-260 112.5q-93 0 -165.5 -36t-115 -95.5t-64 -131t-20.5 -148.5z" />
    <glyph glyph-name="igrave" unicode="&#xec;" horiz-adv-x="481" 
d="M-23 1497l482 -188l-21 -64l-489 160zM281 1059v-1059h-80v1059h80z" />
    <glyph glyph-name="iacute" unicode="&#xed;" horiz-adv-x="481" 
d="M465 1497l29 -92l-490 -160l-20 64zM281 1059v-1059h-80v1059h80z" />
    <glyph glyph-name="icircumflex" unicode="&#xee;" horiz-adv-x="481" 
d="M391 1286l-151 123l-160 -123h-115l244 195h65l240 -195h-123zM281 1059v-1059h-80v1059h80z" />
    <glyph glyph-name="idieresis" unicode="&#xef;" horiz-adv-x="481" 
d="M176 1481v-195h-98v195h98zM399 1481v-195h-100v195h100zM281 1059v-1059h-80v1059h80z" />
    <glyph glyph-name="eth" unicode="&#xf0;" horiz-adv-x="1208" 
d="M1090 510q0 -236 -132 -383t-358 -147q-215 0 -348 146t-133 378q0 233 131.5 383.5t335.5 150.5q210 0 344 -137q-98 230 -338 393l-350 -198l-39 63l321 178q-96 56 -248 117l74 49q119 -47 250 -121l221 123l33 -65l-186 -105q224 -152 323 -357.5t99 -467.5zM608 55
q171 0 284.5 130.5t113.5 322.5q0 190 -115.5 322.5t-284.5 132.5q-113 0 -206 -61t-145 -165t-52 -229q0 -191 116 -322t289 -131z" />
    <glyph glyph-name="ntilde" unicode="&#xf1;" 
d="M860 1382q-61 -39 -133 -39q-55 0 -122 25t-105 25q-21 0 -39.5 -5t-28.5 -10t-24.5 -14t-20.5 -12q-9 -5 -13 -3.5t-7 11.5l-15 33q-4 9 4 14q71 53 136 53q44 0 118.5 -25.5t118.5 -25.5q20 0 38 5t29 10t33 18q17 10 25 -6l16 -37q6 -9 -10 -17zM188 0v1059h74v-158
q43 78 137.5 128t218.5 50q167 0 269 -99.5t102 -293.5v-686h-80v686q0 152 -77 233.5t-214 81.5q-151 0 -250.5 -68t-99.5 -196v-737h-80z" />
    <glyph glyph-name="ograve" unicode="&#xf2;" horiz-adv-x="1148" 
d="M317 1497l482 -188l-21 -64l-489 160zM575 -20q-217 0 -336.5 147.5t-119.5 394.5q0 250 122 403.5t337 153.5q212 0 332 -152.5t120 -400.5t-120 -397t-335 -149zM580 55q180 0 273 126t93 345t-94.5 347t-273.5 128q-180 0 -277.5 -128.5t-97.5 -346.5
q0 -216 97.5 -343.5t279.5 -127.5z" />
    <glyph glyph-name="oacute" unicode="&#xf3;" horiz-adv-x="1148" 
d="M805 1497l29 -92l-490 -160l-20 64zM575 -20q-217 0 -336.5 147.5t-119.5 394.5q0 250 122 403.5t337 153.5q212 0 332 -152.5t120 -400.5t-120 -397t-335 -149zM580 55q180 0 273 126t93 345t-94.5 347t-273.5 128q-180 0 -277.5 -128.5t-97.5 -346.5
q0 -216 97.5 -343.5t279.5 -127.5z" />
    <glyph glyph-name="ocircumflex" unicode="&#xf4;" horiz-adv-x="1148" 
d="M731 1286l-151 123l-160 -123h-115l244 195h65l240 -195h-123zM575 -20q-217 0 -336.5 147.5t-119.5 394.5q0 250 122 403.5t337 153.5q212 0 332 -152.5t120 -400.5t-120 -397t-335 -149zM580 55q180 0 273 126t93 345t-94.5 347t-273.5 128q-180 0 -277.5 -128.5
t-97.5 -346.5q0 -216 97.5 -343.5t279.5 -127.5z" />
    <glyph glyph-name="otilde" unicode="&#xf5;" horiz-adv-x="1148" 
d="M829 1382q-61 -39 -133 -39q-55 0 -122 25t-105 25q-21 0 -39.5 -5t-28.5 -10t-24.5 -14t-20.5 -12q-9 -5 -13 -3.5t-7 11.5l-14 33q-4 9 4 14q71 53 135 53q44 0 118.5 -25.5t118.5 -25.5q20 0 38.5 4.5t29.5 10.5l33 18q11 6 15 4.5t9 -10.5l17 -37q6 -9 -11 -17z
M575 -20q-217 0 -336.5 147.5t-119.5 394.5q0 250 122 403.5t337 153.5q212 0 332 -152.5t120 -400.5t-120 -397t-335 -149zM580 55q180 0 273 126t93 345t-94.5 347t-273.5 128q-180 0 -277.5 -128.5t-97.5 -346.5q0 -216 97.5 -343.5t279.5 -127.5z" />
    <glyph glyph-name="odieresis" unicode="&#xf6;" horiz-adv-x="1148" 
d="M516 1481v-195h-98v195h98zM739 1481v-195h-100v195h100zM575 -20q-217 0 -336.5 147.5t-119.5 394.5q0 250 122 403.5t337 153.5q212 0 332 -152.5t120 -400.5t-120 -397t-335 -149zM580 55q180 0 273 126t93 345t-94.5 347t-273.5 128q-180 0 -277.5 -128.5
t-97.5 -346.5q0 -216 97.5 -343.5t279.5 -127.5z" />
    <glyph glyph-name="divide" unicode="&#xf7;" horiz-adv-x="1087" 
d="M627 1141v-158h-164v158h164zM944 782v-75l-801 -2v75zM627 506v-158h-164v158h164z" />
    <glyph glyph-name="oslash" unicode="&#xf8;" horiz-adv-x="1157" 
d="M1120 1006l-159 -158q69 -135 69 -322q0 -248 -120 -397t-335 -149q-218 0 -342 153l-143 -141l-55 57l155 152q-71 133 -71 321q0 250 122 403.5t337 153.5q217 0 340 -161l147 145zM203 526q0 -155 49 -262l608 598q-96 139 -282 139q-180 0 -277.5 -128.5
t-97.5 -346.5zM946 526q0 150 -47 262l-606 -595q99 -138 287 -138q180 0 273 126t93 345z" />
    <glyph glyph-name="ugrave" unicode="&#xf9;" 
d="M301 1497l481 -188l-20 -64l-490 160zM588 -18q-56 1 -109.5 12t-107 38.5t-93.5 69t-65 107t-25 147.5v707h80v-707q0 -67 20.5 -120t52.5 -85.5t75 -54t83.5 -29.5t82.5 -8q63 0 120.5 19.5t103.5 57t74 99t29 138.5v690h80v-1061h-74v215q-25 -119 -114 -178t-213 -57
z" />
    <glyph glyph-name="uacute" unicode="&#xfa;" 
d="M788 1497l29 -92l-489 -160l-21 64zM588 -18q-56 1 -109.5 12t-107 38.5t-93.5 69t-65 107t-25 147.5v707h80v-707q0 -67 20.5 -120t52.5 -85.5t75 -54t83.5 -29.5t82.5 -8q63 0 120.5 19.5t103.5 57t74 99t29 138.5v690h80v-1061h-74v215q-25 -119 -114 -178t-213 -57z
" />
    <glyph glyph-name="ucircumflex" unicode="&#xfb;" 
d="M715 1286l-152 123l-160 -123h-114l243 195h66l240 -195h-123zM588 -18q-56 1 -109.5 12t-107 38.5t-93.5 69t-65 107t-25 147.5v707h80v-707q0 -67 20.5 -120t52.5 -85.5t75 -54t83.5 -29.5t82.5 -8q63 0 120.5 19.5t103.5 57t74 99t29 138.5v690h80v-1061h-74v215
q-25 -119 -114 -178t-213 -57z" />
    <glyph glyph-name="udieresis" unicode="&#xfc;" 
d="M500 1481v-195h-99v195h99zM723 1481v-195h-100v195h100zM588 -18q-56 1 -109.5 12t-107 38.5t-93.5 69t-65 107t-25 147.5v707h80v-707q0 -67 20.5 -120t52.5 -85.5t75 -54t83.5 -29.5t82.5 -8q63 0 120.5 19.5t103.5 57t74 99t29 138.5v690h80v-1061h-74v215
q-25 -119 -114 -178t-213 -57z" />
    <glyph glyph-name="yacute" unicode="&#xfd;" horiz-adv-x="1054" 
d="M758 1497l28 -92l-489 -160l-21 64zM238 -338q-45 0 -77 4t-41 8l-9 4v56h112q91 0 140 34t75 97l54 141l-414 1053h86l371 -944l364 944h78l-463 -1213q-73 -184 -276 -184z" />
    <glyph glyph-name="thorn" unicode="&#xfe;" horiz-adv-x="1187" 
d="M264 1481v-580q2 2 13 16t18.5 22.5t23.5 25t31 27.5t36 25.5t44.5 24.5t51 19t61 13.5t69.5 4.5q97 0 179.5 -33.5t145 -98t97.5 -167t35 -231.5q0 -256 -130 -412.5t-349 -156.5q-169 0 -295 100q-15 13 -21 10t-6 -24v-396h-80v1811h76zM268 207q159 -152 320 -152
q175 0 286 131.5t111 354.5q0 115 -31.5 205t-85 144.5t-121.5 82.5t-145 28q-71 0 -135.5 -26t-107 -66.5t-67 -88.5t-24.5 -93v-520z" />
    <glyph glyph-name="ydieresis" unicode="&#xff;" horiz-adv-x="1054" 
d="M469 1481v-195h-98v195h98zM692 1481v-195h-100v195h100zM238 -338q-45 0 -77 4t-41 8l-9 4v56h112q91 0 140 34t75 97l54 141l-414 1053h86l371 -944l364 944h78l-463 -1213q-73 -184 -276 -184z" />
    <glyph glyph-name="Amacron" unicode="&#x100;" horiz-adv-x="1433" 
d="M967 1864v-76h-502v76h502zM119 0l543 1481h112l541 -1481h-88l-170 467h-678l-174 -467h-86zM408 555h618l-307 840z" />
    <glyph glyph-name="amacron" unicode="&#x101;" horiz-adv-x="1153" 
d="M821 1442v-76h-502v76h502zM475 -20q-157 0 -248.5 77.5t-91.5 212.5q0 179 115 260.5t379 90.5l243 8v102q0 125 -85 197.5t-222 72.5q-119 0 -201.5 -59.5t-99.5 -165.5h-86q8 122 112.5 212.5t278.5 90.5q171 0 277 -93.5t106 -252.5v-733h-73l-5 205
q-118 -225 -399 -225zM487 55q87 0 176.5 41.5t149 109t59.5 136.5v207l-204 -4q-249 -4 -349 -66t-100 -203q0 -103 72.5 -162t195.5 -59z" />
    <glyph glyph-name="Abreve" unicode="&#x102;" horiz-adv-x="1433" 
d="M981 1903q-19 -66 -88 -124.5t-178 -58.5t-174.5 55.5t-81.5 127.5h96q29 -46 51 -65q44 -36 109 -36q101 0 166 101h100zM119 0l543 1481h112l541 -1481h-88l-170 467h-678l-174 -467h-86zM408 555h618l-307 840z" />
    <glyph glyph-name="abreve" unicode="&#x103;" horiz-adv-x="1153" 
d="M836 1481q-19 -66 -88.5 -124.5t-178.5 -58.5t-174.5 55.5t-81.5 127.5h97q1 -1 6 -9.5t7.5 -12t9 -13t11 -14t13 -12.5t16 -13t18.5 -10.5t22.5 -9t26 -5.5t29.5 -2q101 0 166 101h101zM475 -20q-157 0 -248.5 77.5t-91.5 212.5q0 179 115 260.5t379 90.5l243 8v102
q0 125 -85 197.5t-222 72.5q-119 0 -201.5 -59.5t-99.5 -165.5h-86q8 122 112.5 212.5t278.5 90.5q171 0 277 -93.5t106 -252.5v-733h-73l-5 205q-118 -225 -399 -225zM487 55q87 0 176.5 41.5t149 109t59.5 136.5v207l-204 -4q-249 -4 -349 -66t-100 -203q0 -103 72.5 -162
t195.5 -59z" />
    <glyph glyph-name="Aogonek" unicode="&#x104;" horiz-adv-x="1433" 
d="M1350 -246q14 8 14 -6v-39q0 -11 -10 -16q-64 -31 -156 -31q-91 0 -136.5 42.5t-45.5 113.5q0 68 46 115.5t159 82.5l-164 451h-678l-174 -467h-86l543 1481h112l541 -1481h-15q-105 -49 -150.5 -89.5t-45.5 -96.5q0 -84 115 -84q83 0 131 24zM408 555h618l-307 840z" />
    <glyph glyph-name="aogonek" unicode="&#x105;" horiz-adv-x="1153" 
d="M995 -240q15 9 15 -6v-39q0 -11 -11 -16q-64 -31 -155 -31t-136.5 42.5t-45.5 113.5q0 69 49 117.5t168 83.5l-5 180q-118 -225 -399 -225q-157 0 -248.5 77.5t-91.5 212.5q0 179 115 260.5t379 90.5l243 8v102q0 125 -85 197.5t-222 72.5q-119 0 -201.5 -59.5
t-99.5 -165.5h-86q8 122 112.5 212.5t278.5 90.5q171 0 277 -93.5t106 -252.5v-733h-20q-95 -45 -138.5 -86t-43.5 -94q0 -42 27 -63t87 -21q83 0 131 24zM872 342v207l-204 -4q-249 -4 -349 -66t-100 -203q0 -103 72.5 -162t195.5 -59q87 0 176.5 41.5t149 109t59.5 136.5z
" />
    <glyph glyph-name="Cacute" unicode="&#x106;" horiz-adv-x="1388" 
d="M967 1919l28 -92l-489 -160l-21 64zM725 1501q219 0 362.5 -118t163.5 -285l-88 -15q-31 152 -141 243t-293 91q-243 0 -367 -173.5t-124 -508.5q0 -328 125.5 -500t381.5 -172q154 0 265.5 83.5t146.5 230.5l86 -23q-11 -104 -85 -190.5t-185 -135t-232 -48.5
q-288 0 -441 196.5t-153 558.5q0 364 150 565t428 201z" />
    <glyph glyph-name="cacute" unicode="&#x107;" horiz-adv-x="1128" 
d="M813 1497l29 -92l-490 -160l-20 64zM590 1079q93 0 173.5 -30t143.5 -100.5t84 -172.5l-86 -4q-33 119 -115 174t-190 55q-177 0 -281 -129.5t-104 -343.5q0 -216 102.5 -344.5t280.5 -128.5q114 0 198 57.5t109 170.5h86q-18 -81 -58.5 -141.5t-96 -95t-117 -50.5
t-129.5 -16q-213 0 -336 149t-123 395q0 248 123.5 401.5t335.5 153.5z" />
    <glyph glyph-name="Ccircumflex" unicode="&#x108;" horiz-adv-x="1388" 
d="M893 1708l-152 123l-159 -123h-115l244 195h65l240 -195h-123zM725 1501q219 0 362.5 -118t163.5 -285l-88 -15q-31 152 -141 243t-293 91q-243 0 -367 -173.5t-124 -508.5q0 -328 125.5 -500t381.5 -172q154 0 265.5 83.5t146.5 230.5l86 -23q-11 -104 -85 -190.5
t-185 -135t-232 -48.5q-288 0 -441 196.5t-153 558.5q0 364 150 565t428 201z" />
    <glyph glyph-name="ccircumflex" unicode="&#x109;" horiz-adv-x="1128" 
d="M739 1286l-151 123l-160 -123h-115l244 195h66l239 -195h-123zM590 1079q93 0 173.5 -30t143.5 -100.5t84 -172.5l-86 -4q-33 119 -115 174t-190 55q-177 0 -281 -129.5t-104 -343.5q0 -216 102.5 -344.5t280.5 -128.5q114 0 198 57.5t109 170.5h86q-18 -81 -58.5 -141.5
t-96 -95t-117 -50.5t-129.5 -16q-213 0 -336 149t-123 395q0 248 123.5 401.5t335.5 153.5z" />
    <glyph glyph-name="Cdotaccent" unicode="&#x10a;" horiz-adv-x="1388" 
d="M791 1903v-195h-99v195h99zM725 1501q219 0 362.5 -118t163.5 -285l-88 -15q-31 152 -141 243t-293 91q-243 0 -367 -173.5t-124 -508.5q0 -328 125.5 -500t381.5 -172q154 0 265.5 83.5t146.5 230.5l86 -23q-11 -104 -85 -190.5t-185 -135t-232 -48.5q-288 0 -441 196.5
t-153 558.5q0 364 150 565t428 201z" />
    <glyph glyph-name="cdotaccent" unicode="&#x10b;" horiz-adv-x="1128" 
d="M637 1481v-195h-98v195h98zM590 1079q93 0 173.5 -30t143.5 -100.5t84 -172.5l-86 -4q-33 119 -115 174t-190 55q-177 0 -281 -129.5t-104 -343.5q0 -216 102.5 -344.5t280.5 -128.5q114 0 198 57.5t109 170.5h86q-18 -81 -58.5 -141.5t-96 -95t-117 -50.5t-129.5 -16
q-213 0 -336 149t-123 395q0 248 123.5 401.5t335.5 153.5z" />
    <glyph glyph-name="Ccaron" unicode="&#x10c;" horiz-adv-x="1388" 
d="M893 1903h123l-240 -195h-65l-246 195h117l159 -123zM725 1501q219 0 362.5 -118t163.5 -285l-88 -15q-31 152 -141 243t-293 91q-243 0 -367 -173.5t-124 -508.5q0 -328 125.5 -500t381.5 -172q154 0 265.5 83.5t146.5 230.5l86 -23q-11 -104 -85 -190.5t-185 -135
t-232 -48.5q-288 0 -441 196.5t-153 558.5q0 364 150 565t428 201z" />
    <glyph glyph-name="ccaron" unicode="&#x10d;" horiz-adv-x="1128" 
d="M739 1481h123l-239 -195h-66l-246 195h117l160 -123zM590 1079q93 0 173.5 -30t143.5 -100.5t84 -172.5l-86 -4q-33 119 -115 174t-190 55q-177 0 -281 -129.5t-104 -343.5q0 -216 102.5 -344.5t280.5 -128.5q114 0 198 57.5t109 170.5h86q-18 -81 -58.5 -141.5t-96 -95
t-117 -50.5t-129.5 -16q-213 0 -336 149t-123 395q0 248 123.5 401.5t335.5 153.5z" />
    <glyph glyph-name="Dcaron" unicode="&#x10e;" horiz-adv-x="1382" 
d="M817 1903h123l-240 -195h-65l-246 195h117l160 -123zM225 1481h15t38 -0.5t53.5 -1t67.5 -0.5h72q408 -1 590 -176.5t182 -550.5q0 -390 -195 -571t-606 -181h-217v1481zM313 1397v-1313h123q183 0 315 35t224.5 113t137 204.5t44.5 306.5q0 151 -31 263.5t-87.5 187
t-145.5 120t-196 64.5t-248 19h-136z" />
    <glyph glyph-name="dcaron" unicode="&#x10f;" horiz-adv-x="1159" 
d="M561 -20q-198 0 -314 135.5t-116 394.5t119.5 414t335.5 155q91 0 164.5 -32t156.5 -99v574h80v-1522h-76v199q-105 -219 -350 -219zM1124 1133q-6 0 -9 4.5t-1 9.5l60 139q6 17 -7 19l-10 2q-6 1 -9.5 2.5t-5 4t-1.5 7.5v147q0 13 12 13h86q10 0 10 -11v-163q0 -2 -1 -5
t-1 -4l-65 -151q-6 -14 -27 -14h-31zM571 55q69 0 133.5 27.5t107.5 69.5t69 92t26 96v510q-154 151 -319 151q-175 0 -274 -128t-99 -355q0 -228 98 -345.5t258 -117.5z" />
    <glyph glyph-name="Dcroat" unicode="&#x110;" horiz-adv-x="1386" 
d="M475 1479q408 -1 590 -176.5t182 -550.5q0 -390 -195 -571t-606 -181h-217v705h-135q-20 0 -20 20v45q0 18 14 18h141v693h15t38 -0.5t53.5 -1t67.5 -0.5h72zM440 84q183 0 315 35t224.5 113t137 204.5t44.5 306.5q0 151 -31 263.5t-87.5 187t-145.5 120t-196 64.5
t-248 19h-136v-609h357q12 0 12 -16v-45q0 -22 -24 -22h-345v-621h123z" />
    <glyph glyph-name="dcroat" unicode="&#x111;" horiz-adv-x="1206" 
d="M1151 1321v-70h-164v-1251h-76v199q-105 -219 -350 -219q-198 0 -314 135.5t-116 394.5t119.5 414t335.5 155q91 0 164.5 -32t156.5 -99v303h-332v70h332v201h80v-201h164zM907 340v510q-154 151 -319 151q-175 0 -274 -128t-99 -355q0 -228 98 -345.5t258 -117.5
q69 0 133.5 27.5t107.5 69.5t69 92t26 96z" />
    <glyph glyph-name="Emacron" unicode="&#x112;" horiz-adv-x="1253" 
d="M930 1864v-76h-502v76h502zM225 0v1481h850v-82h-770v-608h717v-84h-717v-621l799 -2v-84h-879z" />
    <glyph glyph-name="emacron" unicode="&#x113;" horiz-adv-x="1157" 
d="M836 1442v-76h-502v76h502zM217 508q0 -92 22.5 -171.5t67.5 -142.5t119.5 -99t171.5 -36q123 0 204.5 58.5t115.5 165.5h86q-42 -154 -149.5 -228.5t-256.5 -74.5q-211 0 -339 142.5t-128 397.5q0 263 119.5 411t335.5 148q203 0 316.5 -134t113.5 -378v-59h-799z
M219 588h713q0 186 -88 298.5t-260 112.5q-93 0 -165.5 -36t-115 -95.5t-64 -131t-20.5 -148.5z" />
    <glyph glyph-name="Ebreve" unicode="&#x114;" horiz-adv-x="1253" 
d="M944 1903q-19 -66 -88 -124.5t-178 -58.5t-174.5 55.5t-81.5 127.5h96q29 -46 51 -65q44 -36 109 -36q101 0 166 101h100zM225 0v1481h850v-82h-770v-608h717v-84h-717v-621l799 -2v-84h-879z" />
    <glyph glyph-name="ebreve" unicode="&#x115;" horiz-adv-x="1157" 
d="M850 1481q-19 -66 -88 -124.5t-178 -58.5t-174.5 55.5t-81.5 127.5h96q29 -46 51 -65q44 -36 109 -36q101 0 166 101h100zM217 508q0 -92 22.5 -171.5t67.5 -142.5t119.5 -99t171.5 -36q123 0 204.5 58.5t115.5 165.5h86q-42 -154 -149.5 -228.5t-256.5 -74.5
q-211 0 -339 142.5t-128 397.5q0 263 119.5 411t335.5 148q203 0 316.5 -134t113.5 -378v-59h-799zM219 588h713q0 186 -88 298.5t-260 112.5q-93 0 -165.5 -36t-115 -95.5t-64 -131t-20.5 -148.5z" />
    <glyph glyph-name="Edotaccent" unicode="&#x116;" horiz-adv-x="1253" 
d="M729 1903v-195h-98v195h98zM225 0v1481h850v-82h-770v-608h717v-84h-717v-621l799 -2v-84h-879z" />
    <glyph glyph-name="edotaccent" unicode="&#x117;" horiz-adv-x="1157" 
d="M635 1481v-195h-98v195h98zM217 508q0 -92 22.5 -171.5t67.5 -142.5t119.5 -99t171.5 -36q123 0 204.5 58.5t115.5 165.5h86q-42 -154 -149.5 -228.5t-256.5 -74.5q-211 0 -339 142.5t-128 397.5q0 263 119.5 411t335.5 148q203 0 316.5 -134t113.5 -378v-59h-799z
M219 588h713q0 186 -88 298.5t-260 112.5q-93 0 -165.5 -36t-115 -95.5t-64 -131t-20.5 -148.5z" />
    <glyph glyph-name="Eogonek" unicode="&#x118;" horiz-adv-x="1253" 
d="M1141 -248q14 8 14 -6v-39q0 -11 -10 -16q-64 -31 -156 -31q-91 0 -136.5 42.5t-45.5 113.5q0 61 38 105.5t128 78.5h-748v1481h850v-82h-770v-608h717v-84h-717v-621l799 -2v-84h-8q-106 -49 -153.5 -90.5t-47.5 -97.5q0 -84 115 -84q83 0 131 24z" />
    <glyph glyph-name="eogonek" unicode="&#x119;" horiz-adv-x="1157" 
d="M1016 567v-59h-799q0 -92 22.5 -171.5t67.5 -142.5t119.5 -99t171.5 -36q123 0 204.5 58.5t115.5 165.5h86q-56 -207 -232 -273q-98 -47 -142 -87.5t-44 -94.5q0 -42 27 -63t87 -21q81 0 131 25q15 9 15 -7v-38q0 -12 -10 -17q-64 -31 -156 -31q-91 0 -136.5 42.5
t-45.5 113.5q0 93 88 148q-207 5 -331 146.5t-124 393.5q0 263 119.5 411t335.5 148q203 0 316.5 -134t113.5 -378zM219 588h713q0 186 -88 298.5t-260 112.5q-93 0 -165.5 -36t-115 -95.5t-64 -131t-20.5 -148.5z" />
    <glyph glyph-name="Ecaron" unicode="&#x11a;" horiz-adv-x="1253" 
d="M831 1903h123l-239 -195h-66l-246 195h117l160 -123zM225 0v1481h850v-82h-770v-608h717v-84h-717v-621l799 -2v-84h-879z" />
    <glyph glyph-name="ecaron" unicode="&#x11b;" horiz-adv-x="1157" 
d="M737 1481h123l-239 -195h-66l-246 195h117l160 -123zM217 508q0 -92 22.5 -171.5t67.5 -142.5t119.5 -99t171.5 -36q123 0 204.5 58.5t115.5 165.5h86q-42 -154 -149.5 -228.5t-256.5 -74.5q-211 0 -339 142.5t-128 397.5q0 263 119.5 411t335.5 148q203 0 316.5 -134
t113.5 -378v-59h-799zM219 588h713q0 186 -88 298.5t-260 112.5q-93 0 -165.5 -36t-115 -95.5t-64 -131t-20.5 -148.5z" />
    <glyph glyph-name="Gcircumflex" unicode="&#x11c;" horiz-adv-x="1472" 
d="M891 1708l-152 123l-159 -123h-115l244 195h65l240 -195h-123zM737 -20q-279 0 -434.5 199t-155.5 556q0 365 158.5 565.5t433.5 200.5q121 0 234.5 -54t188 -146.5t85.5 -198.5l-94 -17q-24 141 -140 236.5t-274 95.5q-241 0 -374.5 -177t-133.5 -492q0 -332 132 -510.5
t376 -178.5q91 0 168.5 29t129.5 75.5t89.5 106.5t54.5 121t17 119v172h-414v72h494v-754h-80v258q-64 -126 -181 -202t-280 -76z" />
    <glyph glyph-name="gcircumflex" unicode="&#x11d;" horiz-adv-x="1236" 
d="M750 1286l-152 123l-160 -123h-114l243 195h66l239 -195h-122zM582 -350q-229 0 -354.5 78.5t-125.5 218.5q0 55 27.5 104.5t56.5 74.5t68.5 52t42.5 29q-4 2 -17 10t-18 12t-15.5 12t-15.5 14.5t-11 16t-8.5 21t-2.5 24.5q0 43 41 79t117 59q-100 54 -141.5 118
t-41.5 164q0 159 111 248.5t309 89.5q97 0 167.5 -24t133.5 -76q173 77 230 98v-119l-189 -41q18 -32 32.5 -85t14.5 -91q0 -142 -101 -230.5t-302 -88.5h-23q-99 -2 -163.5 -18t-87.5 -36t-23 -45q0 -34 45.5 -49t173.5 -24l240 -15q307 -17 307 -270q0 -149 -125 -230
t-352 -81zM592 494q321 0 321 247q0 125 -82 191.5t-239 66.5t-242.5 -67.5t-85.5 -190.5q0 -121 84.5 -184t243.5 -63zM600 -274q375 0 375 235q0 87 -52 134.5t-173 54.5l-353 22q-34 2 -82.5 -24t-88.5 -79t-40 -114q0 -110 108.5 -169.5t305.5 -59.5z" />
    <glyph glyph-name="Gbreve" unicode="&#x11e;" horiz-adv-x="1472" 
d="M1004 1903q-19 -66 -88.5 -124.5t-178.5 -58.5t-174.5 55.5t-81.5 127.5h97q1 -1 6 -9.5t7.5 -12t9 -13t11 -14t13 -12.5t16 -13t18.5 -10.5t22.5 -9t26 -5.5t29.5 -2q101 0 166 101h101zM737 -20q-279 0 -434.5 199t-155.5 556q0 365 158.5 565.5t433.5 200.5
q121 0 234.5 -54t188 -146.5t85.5 -198.5l-94 -17q-24 141 -140 236.5t-274 95.5q-241 0 -374.5 -177t-133.5 -492q0 -332 132 -510.5t376 -178.5q91 0 168.5 29t129.5 75.5t89.5 106.5t54.5 121t17 119v172h-414v72h494v-754h-80v258q-64 -126 -181 -202t-280 -76z" />
    <glyph glyph-name="gbreve" unicode="&#x11f;" horiz-adv-x="1236" 
d="M862 1481q-19 -66 -88 -124.5t-178 -58.5t-174.5 55.5t-81.5 127.5h96q29 -46 51 -65q44 -36 109 -36q101 0 166 101h100zM582 -350q-229 0 -354.5 78.5t-125.5 218.5q0 55 27.5 104.5t56.5 74.5t68.5 52t42.5 29q-4 2 -17 10t-18 12t-15.5 12t-15.5 14.5t-11 16t-8.5 21
t-2.5 24.5q0 43 41 79t117 59q-100 54 -141.5 118t-41.5 164q0 159 111 248.5t309 89.5q97 0 167.5 -24t133.5 -76q173 77 230 98v-119l-189 -41q18 -32 32.5 -85t14.5 -91q0 -142 -101 -230.5t-302 -88.5h-23q-99 -2 -163.5 -18t-87.5 -36t-23 -45q0 -34 45.5 -49
t173.5 -24l240 -15q307 -17 307 -270q0 -149 -125 -230t-352 -81zM592 494q321 0 321 247q0 125 -82 191.5t-239 66.5t-242.5 -67.5t-85.5 -190.5q0 -121 84.5 -184t243.5 -63zM600 -274q375 0 375 235q0 87 -52 134.5t-173 54.5l-353 22q-34 2 -82.5 -24t-88.5 -79
t-40 -114q0 -110 108.5 -169.5t305.5 -59.5z" />
    <glyph glyph-name="Gdotaccent" unicode="&#x120;" horiz-adv-x="1472" 
d="M788 1903v-195h-98v195h98zM737 -20q-279 0 -434.5 199t-155.5 556q0 365 158.5 565.5t433.5 200.5q121 0 234.5 -54t188 -146.5t85.5 -198.5l-94 -17q-24 141 -140 236.5t-274 95.5q-241 0 -374.5 -177t-133.5 -492q0 -332 132 -510.5t376 -178.5q91 0 168.5 29
t129.5 75.5t89.5 106.5t54.5 121t17 119v172h-414v72h494v-754h-80v258q-64 -126 -181 -202t-280 -76z" />
    <glyph glyph-name="gdotaccent" unicode="&#x121;" horiz-adv-x="1236" 
d="M647 1481v-195h-98v195h98zM582 -350q-229 0 -354.5 78.5t-125.5 218.5q0 55 27.5 104.5t56.5 74.5t68.5 52t42.5 29q-4 2 -17 10t-18 12t-15.5 12t-15.5 14.5t-11 16t-8.5 21t-2.5 24.5q0 43 41 79t117 59q-100 54 -141.5 118t-41.5 164q0 159 111 248.5t309 89.5
q97 0 167.5 -24t133.5 -76q173 77 230 98v-119l-189 -41q18 -32 32.5 -85t14.5 -91q0 -142 -101 -230.5t-302 -88.5h-23q-99 -2 -163.5 -18t-87.5 -36t-23 -45q0 -34 45.5 -49t173.5 -24l240 -15q307 -17 307 -270q0 -149 -125 -230t-352 -81zM592 494q321 0 321 247
q0 125 -82 191.5t-239 66.5t-242.5 -67.5t-85.5 -190.5q0 -121 84.5 -184t243.5 -63zM600 -274q375 0 375 235q0 87 -52 134.5t-173 54.5l-353 22q-34 2 -82.5 -24t-88.5 -79t-40 -114q0 -110 108.5 -169.5t305.5 -59.5z" />
    <glyph glyph-name="uni0122" unicode="&#x122;" horiz-adv-x="1472" 
d="M737 -20q-279 0 -434.5 199t-155.5 556q0 365 158.5 565.5t433.5 200.5q121 0 234.5 -54t188 -146.5t85.5 -198.5l-94 -17q-24 141 -140 236.5t-274 95.5q-241 0 -374.5 -177t-133.5 -492q0 -332 132 -510.5t376 -178.5q91 0 168.5 29t129.5 75.5t89.5 106.5t54.5 121
t17 119v172h-414v72h494v-754h-80v258q-64 -126 -181 -202t-280 -76zM696 -471q-6 0 -8.5 5t0.5 11l49 107q9 18 -8 18h-16q-15 0 -15 19v131q0 16 13 16h90q12 0 12 -14v-152q0 -2 -1 -6.5t-1 -5.5l-61 -117q-7 -12 -29 -12h-25z" />
    <glyph glyph-name="uni0123" unicode="&#x123;" horiz-adv-x="1236" 
d="M502 1262v174l69 133h64l-66 -142h47v-165h-114zM582 -350q-229 0 -354.5 78.5t-125.5 218.5q0 55 27.5 104.5t56.5 74.5t68.5 52t42.5 29q-4 2 -17 10t-18 12t-15.5 12t-15.5 14.5t-11 16t-8.5 21t-2.5 24.5q0 43 41 79t117 59q-100 54 -141.5 118t-41.5 164
q0 159 111 248.5t309 89.5q97 0 167.5 -24t133.5 -76q173 77 230 98v-119l-189 -41q18 -32 32.5 -85t14.5 -91q0 -142 -101 -230.5t-302 -88.5h-23q-99 -2 -163.5 -18t-87.5 -36t-23 -45q0 -34 45.5 -49t173.5 -24l240 -15q307 -17 307 -270q0 -149 -125 -230t-352 -81z
M592 494q321 0 321 247q0 125 -82 191.5t-239 66.5t-242.5 -67.5t-85.5 -190.5q0 -121 84.5 -184t243.5 -63zM600 -274q375 0 375 235q0 87 -52 134.5t-173 54.5l-353 22q-34 2 -82.5 -24t-88.5 -79t-40 -114q0 -110 108.5 -169.5t305.5 -59.5z" />
    <glyph glyph-name="Hcircumflex" unicode="&#x124;" horiz-adv-x="1417" 
d="M866 1708l-151 123l-160 -123h-115l244 195h66l239 -195h-123zM1122 729h-817v-729h-80v1481h80v-668h817v668h80v-1481h-80v729z" />
    <glyph glyph-name="hcircumflex" unicode="&#x125;" 
d="M188 0v1522h74v-621q43 78 138.5 128t220.5 50q159 0 263.5 -82.5t104.5 -212.5v-784h-80v754q0 116 -77.5 181.5t-213.5 65.5q-151 0 -250.5 -68t-99.5 -196v-737h-80zM807 1286l-152 123l-159 -123h-115l244 195h65l240 -195h-123z" />
    <glyph glyph-name="Hbar" unicode="&#x126;" horiz-adv-x="1419" 
d="M1393 1235q12 0 12 -16v-43q0 -21 -25 -21h-176v-1155h-80v729h-817v-729h-80v1155h-192q-21 0 -21 19v43q0 18 15 18h198v246h80v-246h817v246h80v-246h189zM1124 813v342h-817v-342h817z" />
    <glyph glyph-name="hbar" unicode="&#x127;" horiz-adv-x="1165" 
d="M625 1079q159 0 263.5 -82.5t104.5 -212.5v-784h-80v754q0 117 -77 182t-213 65q-151 0 -251 -68t-100 -196v-737h-79v1251h-150v70h150v201h73v-201h355v-70h-355v-350q43 78 138.5 128t220.5 50z" />
    <glyph glyph-name="Itilde" unicode="&#x128;" horiz-adv-x="520" 
d="M524 1804q-61 -39 -133 -39q-55 0 -122 25t-105 25q-21 0 -39.5 -5t-28.5 -10t-24.5 -14t-20.5 -12q-9 -5 -13 -3.5t-7 11.5l-15 33q-4 9 4 14q71 53 136 53q44 0 118.5 -25.5t118.5 -25.5q20 0 38.5 4.5t29.5 10.5l33 18q11 6 15 4.5t9 -10.5l17 -37q6 -9 -11 -17z
M225 1481h80v-1481h-80v1481z" />
    <glyph glyph-name="itilde" unicode="&#x129;" horiz-adv-x="481" 
d="M489 1382q-61 -39 -133 -39q-55 0 -122 25t-105 25q-21 0 -39.5 -5t-28.5 -10t-24.5 -14t-20.5 -12q-9 -5 -13 -3.5t-7 11.5l-14 33q-4 9 4 14q71 53 135 53q44 0 118.5 -25.5t118.5 -25.5q20 0 38.5 4.5t29.5 10.5l33 18q11 6 15 4.5t9 -10.5l17 -37q6 -9 -11 -17z
M281 1059v-1059h-80v1059h80z" />
    <glyph glyph-name="Imacron" unicode="&#x12a;" horiz-adv-x="520" 
d="M524 1864v-76h-501v76h501zM225 1481h80v-1481h-80v1481z" />
    <glyph glyph-name="imacron" unicode="&#x12b;" horiz-adv-x="481" 
d="M489 1442v-76h-501v76h501zM281 1059v-1059h-80v1059h80z" />
    <glyph glyph-name="Ibreve" unicode="&#x12c;" horiz-adv-x="520" 
d="M539 1903q-19 -66 -88.5 -124.5t-178.5 -58.5t-174.5 55.5t-81.5 127.5h97q1 -1 6 -9.5t7.5 -12t9 -13t11 -14t13 -12.5t16 -13t18.5 -10.5t22.5 -9t26 -5.5t29.5 -2q101 0 166 101h101zM225 1481h80v-1481h-80v1481z" />
    <glyph glyph-name="ibreve" unicode="&#x12d;" horiz-adv-x="481" 
d="M504 1481q-19 -66 -88 -124.5t-178 -58.5t-174.5 55.5t-81.5 127.5h96q29 -46 51 -65q44 -36 109 -36q100 0 165 101h101zM281 1059v-1059h-80v1059h80z" />
    <glyph glyph-name="Iogonek" unicode="&#x12e;" horiz-adv-x="520" 
d="M346 -248q14 8 14 -6v-39q0 -11 -10 -16q-64 -31 -155 -31t-137 42.5t-46 113.5q0 68 48 116.5t165 83.5v1465h80v-1481h-4q-106 -49 -153.5 -90.5t-47.5 -97.5q0 -84 115 -84q83 0 131 24z" />
    <glyph glyph-name="iogonek" unicode="&#x12f;" horiz-adv-x="481" 
d="M289 1481v-195h-99v195h99zM319 -242q15 9 15 -6v-39q0 -11 -10 -16q-64 -31 -156 -31q-91 0 -136.5 42.5t-45.5 113.5q0 68 48.5 117t166.5 84v1036h80v-1059h-19q-100 -47 -144 -87.5t-44 -94.5q0 -42 27 -63t87 -21q83 0 131 24z" />
    <glyph glyph-name="Idotaccent" unicode="&#x130;" horiz-adv-x="520" 
d="M324 1903v-195h-99v195h99zM225 1481h80v-1481h-80v1481z" />
    <glyph glyph-name="dotlessi" unicode="&#x131;" horiz-adv-x="481" 
d="M281 1059v-1059h-80v1059h80z" />
    <glyph glyph-name="IJ" unicode="&#x132;" horiz-adv-x="1273" 
d="M225 1481h80v-1481h-80v1481zM1049 287q0 -151 -56 -229t-194 -78q-76 0 -142 22t-84 37l21 88q9 -4 35 -18t44.5 -22.5t52 -16t69.5 -7.5q97 0 135.5 56t38.5 196v1166h80v-1194z" />
    <glyph glyph-name="ij" unicode="&#x133;" horiz-adv-x="995" 
d="M299 1522v-197h-98v197h98zM807 1522v-197h-100v197h100zM291 1059v-1059h-80v1059h80zM797 -102q0 -129 -47.5 -183.5t-178.5 -54.5q-53 0 -85 4.5t-38 9.5l-6 4v54l127 2q80 2 114 41t34 133v1151h80v-1161z" />
    <glyph glyph-name="Jcircumflex" unicode="&#x134;" horiz-adv-x="753" 
d="M645 1708l-151 123l-160 -123h-115l244 195h65l240 -195h-123zM528 287q0 -151 -56 -229t-193 -78q-76 0 -142 22t-84 37l21 88q1 0 42.5 -22.5t76 -32t81.5 -9.5q97 0 136 56.5t39 195.5v1166h79v-1194z" />
    <glyph glyph-name="jcircumflex" unicode="&#x135;" horiz-adv-x="450" 
d="M377 1286l-152 123l-159 -123h-115l244 195h65l240 -195h-123zM266 -102q0 -129 -47.5 -183.5t-177.5 -54.5q-89 0 -110 3t-21 15v54l129 2q79 2 113 41t34 133v1151h80v-1161z" />
    <glyph glyph-name="uni0136" unicode="&#x136;" horiz-adv-x="1325" 
d="M1241 0h-106l-533 834l-293 -326v-508h-84v1481h84v-854l787 854h110l-534 -584zM627 -471q-6 0 -9 5t0 11l50 107q9 18 -9 18h-16q-14 0 -14 19v131q0 16 12 16h90q12 0 12 -14v-152q0 -2 -1 -6.5t-1 -5.5l-61 -117q-7 -12 -29 -12h-24z" />
    <glyph glyph-name="uni0137" unicode="&#x137;" horiz-adv-x="1122" 
d="M1026 0h-102l-377 606l-279 -282v-324h-80v1522h80v-1084l606 621h113l-379 -385zM498 -471q-6 0 -9 5t0 11l50 107q9 18 -9 18h-16q-14 0 -14 19v131q0 16 12 16h90q12 0 12 -14v-152q0 -2 -1 -6.5t-1 -5.5l-61 -117q-7 -12 -29 -12h-24z" />
    <glyph glyph-name="kgreenlandic" unicode="&#x138;" horiz-adv-x="1122" 
d="M1026 0h-102l-377 606l-279 -282v-324h-80v1059h80v-621l606 621h113l-379 -385z" />
    <glyph glyph-name="Lacute" unicode="&#x139;" horiz-adv-x="1142" 
d="M502 1919l28 -92l-489 -160l-21 64zM225 1481h88v-1393h756v-88h-844v1481z" />
    <glyph glyph-name="lacute" unicode="&#x13a;" horiz-adv-x="598" 
d="M459 1999l28 -92l-489 -160l-21 63zM391 -8q-101 0 -148.5 70t-47.5 186v1274h79v-1274q0 -95 35.5 -142t83.5 -47h66v-59q-33 -8 -68 -8z" />
    <glyph glyph-name="uni013B" unicode="&#x13b;" horiz-adv-x="1142" 
d="M225 1481h88v-1393h756v-88h-844v1481zM582 -471q-6 0 -9 5t0 11l50 107q9 18 -9 18h-16q-14 0 -14 19v131q0 16 12 16h90q12 0 12 -14v-152q0 -2 -1 -6.5t-1 -5.5l-61 -117q-7 -12 -29 -12h-24z" />
    <glyph glyph-name="uni013C" unicode="&#x13c;" horiz-adv-x="598" 
d="M391 -8q-101 0 -148.5 70t-47.5 186v1274h79v-1274q0 -95 35.5 -142t83.5 -47h66v-59q-33 -8 -68 -8zM180 -471q-6 0 -8.5 5t0.5 11l49 107q9 18 -8 18h-16q-15 0 -15 19v131q0 16 13 16h90q12 0 12 -14v-152q0 -2 -1 -6.5t-1 -5.5l-62 -117q-7 -12 -28 -12h-25z" />
    <glyph glyph-name="Lcaron" unicode="&#x13d;" horiz-adv-x="1142" 
d="M225 1481h88v-1393h756v-88h-844v1481zM725 1133q-6 0 -9 4.5t-1 9.5l59 139q6 17 -6 19l-10 2q-17 3 -17 14v147q0 13 13 13h86q10 0 10 -11v-163q0 -2 -1 -5t-1 -4l-66 -151q-6 -14 -26 -14h-31z" />
    <glyph glyph-name="lcaron" unicode="&#x13e;" horiz-adv-x="591" 
d="M391 -8q-101 0 -148.5 70t-47.5 186v1274h79v-1274q0 -95 35.5 -142t83.5 -47h66v-59q-33 -8 -68 -8zM403 1133q-6 0 -9 4.5t-1 9.5l60 139q5 17 -7 19l-10 2q-6 1 -9.5 2.5t-5 4t-1.5 7.5v147q0 13 12 13h86q10 0 10 -11v-163q0 -2 -1 -5t-1 -4l-65 -151q-6 -14 -27 -14
h-31z" />
    <glyph glyph-name="Ldot" unicode="&#x13f;" horiz-adv-x="1148" 
d="M225 1481h88v-1393h756v-88h-844v1481zM1028 872v-157h-164v157h164z" />
    <glyph glyph-name="ldot" unicode="&#x140;" horiz-adv-x="591" 
d="M391 -8q-101 0 -148.5 70t-47.5 186v1274h79v-1274q0 -95 35.5 -142t83.5 -47h66v-59q-33 -8 -68 -8zM621 672v-158h-164v158h164z" />
    <glyph glyph-name="Lslash" unicode="&#x141;" horiz-adv-x="1146" 
d="M317 88h756v-88h-844v690l-145 -37q-14 -3 -14 11v47q0 15 10 18l149 39v713h88v-690l326 81q14 3 14 -10v-47q0 -13 -12 -16l-328 -84v-627z" />
    <glyph glyph-name="lslash" unicode="&#x142;" horiz-adv-x="458" 
d="M483 795l-184 -174v-373q0 -95 35.5 -142t83.5 -47h65v-59q-33 -8 -67 -8q-101 0 -149 70t-48 186v297l-209 -197v92l209 195v887h80v-811l184 172v-88z" />
    <glyph glyph-name="Nacute" unicode="&#x143;" horiz-adv-x="1476" 
d="M997 1919l29 -92l-489 -160l-21 64zM1182 1481h80v-1481h-70l-887 1317v-1317h-80v1481h66l891 -1321v1321z" />
    <glyph glyph-name="nacute" unicode="&#x144;" 
d="M836 1497l28 -92l-489 -160l-21 64zM188 0v1059h74v-158q43 78 137.5 128t218.5 50q167 0 269 -99.5t102 -293.5v-686h-80v686q0 152 -77 233.5t-214 81.5q-151 0 -250.5 -68t-99.5 -196v-737h-80z" />
    <glyph glyph-name="uni0145" unicode="&#x145;" horiz-adv-x="1476" 
d="M1182 1481h80v-1481h-70l-887 1317v-1317h-80v1481h66l891 -1321v1321zM641 -471q-6 0 -8.5 5t0.5 11l49 107q9 18 -8 18h-17q-14 0 -14 19v131q0 16 12 16h90q13 0 13 -14v-152q0 -2 -1 -6.5t-1 -5.5l-62 -117q-7 -12 -28 -12h-25z" />
    <glyph glyph-name="uni0146" unicode="&#x146;" 
d="M188 0v1059h74v-158q43 78 137.5 128t218.5 50q167 0 269 -99.5t102 -293.5v-686h-80v686q0 152 -77 233.5t-214 81.5q-151 0 -250.5 -68t-99.5 -196v-737h-80zM539 -471q-6 0 -9 5t0 11l50 107q9 18 -9 18h-16q-14 0 -14 19v131q0 16 12 16h90q12 0 12 -14v-152
q0 -2 -1 -6.5t-1 -5.5l-61 -117q-7 -12 -29 -12h-24z" />
    <glyph glyph-name="Ncaron" unicode="&#x147;" horiz-adv-x="1476" 
d="M924 1903h123l-240 -195h-66l-245 195h116l160 -123zM1182 1481h80v-1481h-70l-887 1317v-1317h-80v1481h66l891 -1321v1321z" />
    <glyph glyph-name="ncaron" unicode="&#x148;" 
d="M762 1481h123l-240 -195h-65l-246 195h117l159 -123zM188 0v1059h74v-158q43 78 137.5 128t218.5 50q167 0 269 -99.5t102 -293.5v-686h-80v686q0 152 -77 233.5t-214 81.5q-151 0 -250.5 -68t-99.5 -196v-737h-80z" />
    <glyph glyph-name="napostrophe" unicode="&#x149;" horiz-adv-x="1196" 
d="M74 952q-6 0 -9.5 5t-1.5 10l62 239q5 21 -4 21h-10q-17 0 -17 14v227q0 13 12 13h87q8 0 8 -11v-243v-8l-70 -252q-3 -15 -25 -15h-32zM223 0v1059h74v-158q43 78 137.5 128t218.5 50q167 0 269 -99.5t102 -293.5v-686h-80v686q0 152 -77 233.5t-214 81.5
q-151 0 -250.5 -68t-99.5 -196v-737h-80z" />
    <glyph glyph-name="Eng" unicode="&#x14a;" horiz-adv-x="1492" 
d="M1260 1481q11 0 14.5 -3.5t3.5 -15.5v-1554q0 -124 -59.5 -191t-194.5 -67q-55 0 -101.5 10.5t-60.5 20.5q-8 5 -8 18l6 49q3 14 17 8q71 -26 139 -26q85 0 127.5 43t42.5 145v107l-854 1253q-19 27 -19 0v-1260q0 -18 -20 -18h-49q-19 0 -19 20v1442q0 12 4 15.5t15 3.5
h41q18 0 28 -13l850 -1261q11 -12 20 -8t9 14v1251q0 17 16 17h52z" />
    <glyph glyph-name="eng" unicode="&#x14b;" horiz-adv-x="1177" 
d="M762 -340q-77 0 -96 3t-19 15v50l113 2q80 2 114.5 42.5t34.5 135.5v833q0 263 -254 263q-175 0 -387 -189v-815h-80v1059h74v-160q132 105 218 142.5t186 37.5q151 0 237 -81t86 -214v-866q0 -258 -227 -258z" />
    <glyph glyph-name="Omacron" unicode="&#x14c;" horiz-adv-x="1497" 
d="M1004 1864v-76h-502v76h502zM750 -20q-286 0 -444.5 194t-158.5 559q0 371 160 569.5t445 198.5q283 0 440.5 -197t157.5 -567q0 -367 -158 -562t-442 -195zM754 63q506 0 506 674q0 339 -129.5 509.5t-378.5 170.5q-250 0 -382 -171t-132 -509q0 -336 132 -505t384 -169
z" />
    <glyph glyph-name="omacron" unicode="&#x14d;" horiz-adv-x="1148" 
d="M829 1442v-76h-501v76h501zM575 -20q-217 0 -336.5 147.5t-119.5 394.5q0 250 122 403.5t337 153.5q212 0 332 -152.5t120 -400.5t-120 -397t-335 -149zM580 55q180 0 273 126t93 345t-94.5 347t-273.5 128q-180 0 -277.5 -128.5t-97.5 -346.5q0 -216 97.5 -343.5
t279.5 -127.5z" />
    <glyph glyph-name="Obreve" unicode="&#x14e;" horiz-adv-x="1497" 
d="M1018 1903q-19 -66 -88 -124.5t-178 -58.5t-174.5 55.5t-81.5 127.5h96q29 -46 51 -65q44 -36 109 -36q101 0 166 101h100zM750 -20q-286 0 -444.5 194t-158.5 559q0 371 160 569.5t445 198.5q283 0 440.5 -197t157.5 -567q0 -367 -158 -562t-442 -195zM754 63
q506 0 506 674q0 339 -129.5 509.5t-378.5 170.5q-250 0 -382 -171t-132 -509q0 -336 132 -505t384 -169z" />
    <glyph glyph-name="obreve" unicode="&#x14f;" horiz-adv-x="1148" 
d="M844 1481q-19 -66 -88 -124.5t-178 -58.5t-174.5 55.5t-81.5 127.5h96q29 -46 51 -65q44 -36 109 -36q100 0 165 101h101zM575 -20q-217 0 -336.5 147.5t-119.5 394.5q0 250 122 403.5t337 153.5q212 0 332 -152.5t120 -400.5t-120 -397t-335 -149zM580 55q180 0 273 126
t93 345t-94.5 347t-273.5 128q-180 0 -277.5 -128.5t-97.5 -346.5q0 -216 97.5 -343.5t279.5 -127.5z" />
    <glyph glyph-name="Ohungarumlaut" unicode="&#x150;" horiz-adv-x="1497" 
d="M813 1913l43 -53q10 -13 -4 -27l-248 -234q-15 -12 -24 3l-19 26q-11 10 0 21l234 264q9 9 18 0zM1094 1913l45 -53q6 -7 5 -12.5t-11 -14.5l-248 -234q-16 -13 -25 3l-16 26q-10 10 0 21l233 264q5 4 10 3.5t7 -3.5zM750 -20q-286 0 -444.5 194t-158.5 559
q0 371 160 569.5t445 198.5q283 0 440.5 -197t157.5 -567q0 -367 -158 -562t-442 -195zM754 63q506 0 506 674q0 339 -129.5 509.5t-378.5 170.5q-250 0 -382 -171t-132 -509q0 -336 132 -505t384 -169z" />
    <glyph glyph-name="ohungarumlaut" unicode="&#x151;" horiz-adv-x="1148" 
d="M639 1491l43 -53q10 -13 -4 -27l-248 -233q-15 -12 -24 2l-19 26q-11 10 0 21l234 264q9 9 18 0zM920 1491l45 -53q6 -7 4.5 -12.5t-11.5 -14.5l-247 -233q-16 -13 -25 2l-16 26q-10 10 0 21l233 264q5 4 10 3.5t7 -3.5zM575 -20q-217 0 -336.5 147.5t-119.5 394.5
q0 250 122 403.5t337 153.5q212 0 332 -152.5t120 -400.5t-120 -397t-335 -149zM580 55q180 0 273 126t93 345t-94.5 347t-273.5 128q-180 0 -277.5 -128.5t-97.5 -346.5q0 -216 97.5 -343.5t279.5 -127.5z" />
    <glyph glyph-name="OE" unicode="&#x152;" horiz-adv-x="2279" 
d="M2130 80v-80h-873v281q-73 -149 -202 -225t-305 -76q-286 0 -444.5 194t-158.5 559q0 371 160 569.5t445 198.5q357 0 505 -303v283h842v-80h-749v-613h587v-79h-587v-629h780zM754 63q248 0 371.5 167t123.5 507q0 680 -497 680q-249 0 -378.5 -170.5t-129.5 -509.5
q0 -337 129.5 -505.5t380.5 -168.5z" />
    <glyph glyph-name="oe" unicode="&#x153;" horiz-adv-x="2074" 
d="M604 -20q-221 0 -353 148.5t-132 393.5q0 250 134 403.5t353 153.5q146 0 257 -73t169 -203q15 -27 27 0q56 129 167.5 202.5t254.5 73.5q219 0 341 -151.5t122 -419.5h-857q0 -185 118 -318t282 -133q244 0 358 201l68 -45q-140 -233 -426 -233q-143 0 -254 68.5
t-172 191.5q-15 38 -37 -7q-60 -121 -169 -187t-251 -66zM608 57q181 0 289.5 128t108.5 341q0 212 -110.5 342.5t-289.5 130.5q-181 0 -292 -130.5t-111 -342.5q0 -211 111 -340t294 -129zM1485 999q-172 0 -283 -118t-110 -299l770 -2q0 179 -106 299t-271 120z" />
    <glyph glyph-name="Racute" unicode="&#x154;" horiz-adv-x="1359" 
d="M879 1919l28 -92l-489 -160l-21 64zM1194 0h-92l-299 705h-498v-705h-80v1481h523q218 0 336 -93t118 -274q0 -72 -19.5 -132.5t-50 -102t-73 -74t-84.5 -51.5t-88 -31zM678 788q219 0 328.5 74t109.5 238q0 155 -93 227t-278 72h-440v-611h373z" />
    <glyph glyph-name="racute" unicode="&#x155;" horiz-adv-x="761" 
d="M637 1497l29 -92l-490 -160l-20 64zM188 0v1059h74v-191q60 90 178.5 150.5t225.5 60.5v-82q-88 1 -181.5 -43.5t-155 -115t-61.5 -138.5v-700h-80z" />
    <glyph glyph-name="uni0156" unicode="&#x156;" horiz-adv-x="1359" 
d="M1194 0h-92l-299 705h-498v-705h-80v1481h523q218 0 336 -93t118 -274q0 -72 -19.5 -132.5t-50 -102t-73 -74t-84.5 -51.5t-88 -31zM678 788q219 0 328.5 74t109.5 238q0 155 -93 227t-278 72h-440v-611h373zM614 -471q-6 0 -8.5 5t0.5 11l49 107q9 18 -8 18h-16
q-15 0 -15 19v131q0 16 13 16h90q12 0 12 -14v-152q0 -2 -1 -6.5t-1 -5.5l-61 -117q-7 -12 -29 -12h-25z" />
    <glyph glyph-name="uni0157" unicode="&#x157;" horiz-adv-x="761" 
d="M188 0v1059h74v-191q60 90 178.5 150.5t225.5 60.5v-82q-88 1 -181.5 -43.5t-155 -115t-61.5 -138.5v-700h-80zM174 -471q-6 0 -8.5 5t0.5 11l49 107q9 18 -8 18h-17q-14 0 -14 19v131q0 16 12 16h91q12 0 12 -14v-152q0 -2 -1 -6.5t-1 -5.5l-62 -117q-7 -12 -28 -12h-25
z" />
    <glyph glyph-name="Rcaron" unicode="&#x158;" horiz-adv-x="1359" 
d="M805 1903h123l-240 -195h-65l-246 195h117l159 -123zM1194 0h-92l-299 705h-498v-705h-80v1481h523q218 0 336 -93t118 -274q0 -72 -19.5 -132.5t-50 -102t-73 -74t-84.5 -51.5t-88 -31zM678 788q219 0 328.5 74t109.5 238q0 155 -93 227t-278 72h-440v-611h373z" />
    <glyph glyph-name="rcaron" unicode="&#x159;" horiz-adv-x="761" 
d="M563 1481h123l-240 -195h-65l-246 195h117l160 -123zM188 0v1059h74v-191q60 90 178.5 150.5t225.5 60.5v-82q-88 1 -181.5 -43.5t-155 -115t-61.5 -138.5v-700h-80z" />
    <glyph glyph-name="Sacute" unicode="&#x15a;" horiz-adv-x="1392" 
d="M911 1919l29 -92l-489 -160l-21 64zM698 -20q-209 0 -363.5 97.5t-187.5 264.5l86 18q32 -144 162.5 -222.5t302.5 -78.5q193 0 316 84t123 215q0 255 -271 322l-329 82q-170 43 -256 121.5t-86 206.5q0 177 137 293t358 116q122 0 217.5 -32t155 -88t92.5 -124.5
t41 -148.5l-82 -16q-15 88 -55.5 152.5t-99.5 101t-126.5 54t-146.5 17.5q-54 0 -109.5 -11.5t-108.5 -37.5t-94 -63t-66 -91.5t-25 -119.5q0 -98 69 -159t240 -106l315 -82q165 -43 241.5 -145t76.5 -238q0 -165 -137.5 -273.5t-389.5 -108.5z" />
    <glyph glyph-name="sacute" unicode="&#x15b;" horiz-adv-x="1046" 
d="M713 1497l28 -92l-489 -160l-21 64zM532 -20q-163 0 -280.5 83.5t-134.5 219.5h86q27 -113 113 -170.5t216 -57.5q133 0 215 57.5t82 159.5q0 72 -44 117t-134 70l-245 69q-123 34 -186.5 93.5t-63.5 160.5q0 74 33.5 132.5t88 93.5t119.5 53t133 18q156 0 252 -85.5
t103 -194.5h-88q-12 95 -85.5 148.5t-181.5 53.5q-48 0 -95.5 -11t-93 -34.5t-73.5 -68.5t-28 -105q0 -69 47 -110.5t141 -67.5l252 -69q231 -63 231 -259q0 -94 -54 -162.5t-138.5 -101t-186.5 -32.5z" />
    <glyph glyph-name="Scircumflex" unicode="&#x15c;" horiz-adv-x="1392" 
d="M838 1708l-152 123l-160 -123h-114l243 195h66l240 -195h-123zM698 -20q-209 0 -363.5 97.5t-187.5 264.5l86 18q32 -144 162.5 -222.5t302.5 -78.5q193 0 316 84t123 215q0 255 -271 322l-329 82q-170 43 -256 121.5t-86 206.5q0 177 137 293t358 116q122 0 217.5 -32
t155 -88t92.5 -124.5t41 -148.5l-82 -16q-15 88 -55.5 152.5t-99.5 101t-126.5 54t-146.5 17.5q-54 0 -109.5 -11.5t-108.5 -37.5t-94 -63t-66 -91.5t-25 -119.5q0 -98 69 -159t240 -106l315 -82q165 -43 241.5 -145t76.5 -238q0 -165 -137.5 -273.5t-389.5 -108.5z" />
    <glyph glyph-name="scircumflex" unicode="&#x15d;" horiz-adv-x="1046" 
d="M639 1286l-152 123l-159 -123h-115l244 195h65l240 -195h-123zM532 -20q-163 0 -280.5 83.5t-134.5 219.5h86q27 -113 113 -170.5t216 -57.5q133 0 215 57.5t82 159.5q0 72 -44 117t-134 70l-245 69q-123 34 -186.5 93.5t-63.5 160.5q0 74 33.5 132.5t88 93.5t119.5 53
t133 18q156 0 252 -85.5t103 -194.5h-88q-12 95 -85.5 148.5t-181.5 53.5q-48 0 -95.5 -11t-93 -34.5t-73.5 -68.5t-28 -105q0 -69 47 -110.5t141 -67.5l252 -69q231 -63 231 -259q0 -94 -54 -162.5t-138.5 -101t-186.5 -32.5z" />
    <glyph glyph-name="Scedilla" unicode="&#x15e;" horiz-adv-x="1392" 
d="M698 -20l-39 -97q86 -7 123 -46.5t37 -94.5q0 -72 -56 -111t-142 -39q-87 0 -154 48l22 57q48 -45 123 -45q119 0 119 86q0 47 -37 70t-116 26q-7 0 -9 2.5t0 5.5l62 140q-187 15 -320.5 110.5t-163.5 249.5l86 18q32 -144 162.5 -222.5t302.5 -78.5q193 0 316 84
t123 215q0 255 -271 322l-329 82q-170 43 -256 121.5t-86 206.5q0 177 137 293t358 116q122 0 217.5 -32t155 -88t92.5 -124.5t41 -148.5l-82 -16q-15 88 -55.5 152.5t-99.5 101t-126.5 54t-146.5 17.5q-54 0 -109.5 -11.5t-108.5 -37.5t-94 -63t-66 -91.5t-25 -119.5
q0 -98 69 -159t240 -106l315 -82q165 -43 241.5 -145t76.5 -238q0 -165 -137.5 -273.5t-389.5 -108.5z" />
    <glyph glyph-name="scedilla" unicode="&#x15f;" horiz-adv-x="1046" 
d="M532 -20h-4l-39 -97q86 -7 123 -46.5t37 -94.5q0 -72 -56 -111t-142 -39q-87 0 -154 48l22 57q48 -45 123 -45q119 0 119 86q0 47 -37 70t-116 26q-7 0 -9 2.5t0 5.5l62 142q-139 19 -234 99t-110 200h86q27 -113 113 -170.5t216 -57.5q133 0 215 57.5t82 159.5
q0 72 -44 117t-134 70l-245 69q-123 34 -186.5 93.5t-63.5 160.5q0 74 33.5 132.5t88 93.5t119.5 53t133 18q156 0 252 -85.5t103 -194.5h-88q-12 95 -85.5 148.5t-181.5 53.5q-48 0 -95.5 -11t-93 -34.5t-73.5 -68.5t-28 -105q0 -69 47 -110.5t141 -67.5l252 -69
q231 -63 231 -259q0 -94 -54 -162.5t-138.5 -101t-186.5 -32.5z" />
    <glyph glyph-name="Scaron" unicode="&#x160;" horiz-adv-x="1392" 
d="M838 1903h123l-240 -195h-66l-245 195h116l160 -123zM698 -20q-209 0 -363.5 97.5t-187.5 264.5l86 18q32 -144 162.5 -222.5t302.5 -78.5q193 0 316 84t123 215q0 255 -271 322l-329 82q-170 43 -256 121.5t-86 206.5q0 177 137 293t358 116q122 0 217.5 -32t155 -88
t92.5 -124.5t41 -148.5l-82 -16q-15 88 -55.5 152.5t-99.5 101t-126.5 54t-146.5 17.5q-54 0 -109.5 -11.5t-108.5 -37.5t-94 -63t-66 -91.5t-25 -119.5q0 -98 69 -159t240 -106l315 -82q165 -43 241.5 -145t76.5 -238q0 -165 -137.5 -273.5t-389.5 -108.5z" />
    <glyph glyph-name="scaron" unicode="&#x161;" horiz-adv-x="1046" 
d="M639 1481h123l-240 -195h-65l-246 195h117l159 -123zM532 -20q-163 0 -280.5 83.5t-134.5 219.5h86q27 -113 113 -170.5t216 -57.5q133 0 215 57.5t82 159.5q0 72 -44 117t-134 70l-245 69q-123 34 -186.5 93.5t-63.5 160.5q0 74 33.5 132.5t88 93.5t119.5 53t133 18
q156 0 252 -85.5t103 -194.5h-88q-12 95 -85.5 148.5t-181.5 53.5q-48 0 -95.5 -11t-93 -34.5t-73.5 -68.5t-28 -105q0 -69 47 -110.5t141 -67.5l252 -69q231 -63 231 -259q0 -94 -54 -162.5t-138.5 -101t-186.5 -32.5z" />
    <glyph glyph-name="uni0162" unicode="&#x162;" horiz-adv-x="1124" 
d="M623 0h-5l-47 -117q86 -7 123 -46.5t37 -94.5q0 -72 -56.5 -111t-142.5 -39t-153 48l22 57q48 -45 123 -45q119 0 119 86q0 47 -37.5 70t-116.5 26q-12 0 -8 8l70 158h-8v1399h-508v82h1055v-82h-467v-1399z" />
    <glyph glyph-name="uni0163" unicode="&#x163;" horiz-adv-x="776" 
d="M535 -117q86 -7 122.5 -46.5t36.5 -94.5q0 -72 -56 -111t-142 -39q-87 0 -154 48l23 57q48 -45 122 -45q119 0 119 86q0 47 -37 70t-116 26q-7 0 -9 2.5t0 5.5l70 158q-115 1 -159 55t-44 183v751h-172v70h172v297h80v-297h244v-70h-244v-741q0 -104 29 -141t94 -37h135
v-60q-32 -8 -67 -8z" />
    <glyph glyph-name="Tcaron" unicode="&#x164;" horiz-adv-x="1124" 
d="M737 1903h123l-239 -195h-66l-246 195h117l160 -123zM35 1399v82h1055v-82h-467v-1399h-80v1399h-508z" />
    <glyph glyph-name="tcaron" unicode="&#x165;" horiz-adv-x="776" 
d="M643 1159q-6 0 -9 5t-1 10l59 139q5 16 -6 18l-10 2q-17 3 -17 15v147q0 12 13 12h86q10 0 10 -10v-164q0 -2 -1 -4.5t-1 -3.5l-66 -151q-6 -15 -26 -15h-31zM635 989h-244v-741q0 -104 29 -141t94 -37h135v-60q-34 -10 -129 -10q-118 0 -163.5 54t-45.5 184v751h-172v70
h172v297h80v-297h244v-70z" />
    <glyph glyph-name="Tbar" unicode="&#x166;" horiz-adv-x="1124" 
d="M1090 1399h-467v-596h383v-84h-383v-719h-80v719h-269v84h269v596h-508v82h1055v-82z" />
    <glyph glyph-name="tbar" unicode="&#x167;" horiz-adv-x="690" 
d="M518 70h135v-60q-34 -10 -129 -10q-118 0 -163.5 54t-45.5 184v321h-217v70h217v360h-172v70h172v297h80v-297h244v-70h-244v-360h160v-70h-160v-311q0 -104 29 -141t94 -37z" />
    <glyph glyph-name="Utilde" unicode="&#x168;" horiz-adv-x="1431" 
d="M971 1804q-61 -39 -133 -39q-55 0 -122.5 25t-105.5 25q-27 0 -45.5 -5.5t-42 -20.5t-24.5 -15q-9 -5 -13.5 -3.5t-7.5 11.5l-14 33q-4 9 4 14q71 53 135 53q44 0 119 -25.5t119 -25.5q20 0 38 5t29 10t33 18q17 10 25 -6l16 -37q6 -9 -10 -17zM1206 459
q0 -241 -121.5 -360t-369.5 -119q-252 0 -371 124t-119 385v992h88v-1026q0 -398 402 -398q411 0 411 398v1026h80v-1022z" />
    <glyph glyph-name="utilde" unicode="&#x169;" 
d="M813 1382q-61 -39 -133 -39q-55 0 -122 25t-105 25q-21 0 -39.5 -5t-28.5 -10t-24.5 -14t-20.5 -12q-9 -5 -13.5 -3.5t-7.5 11.5l-14 33q-4 9 4 14q71 53 135 53q44 0 119 -25.5t119 -25.5q20 0 38 5t29 10t33 18q17 10 25 -6l16 -37q6 -9 -10 -17zM588 -18
q-56 1 -109.5 12t-107 38.5t-93.5 69t-65 107t-25 147.5v707h80v-707q0 -67 20.5 -120t52.5 -85.5t75 -54t83.5 -29.5t82.5 -8q63 0 120.5 19.5t103.5 57t74 99t29 138.5v690h80v-1061h-74v215q-25 -119 -114 -178t-213 -57z" />
    <glyph glyph-name="Umacron" unicode="&#x16a;" horiz-adv-x="1431" 
d="M971 1864v-76h-502v76h502zM1206 459q0 -241 -121.5 -360t-369.5 -119q-252 0 -371 124t-119 385v992h88v-1026q0 -398 402 -398q411 0 411 398v1026h80v-1022z" />
    <glyph glyph-name="umacron" unicode="&#x16b;" 
d="M813 1442v-76h-502v76h502zM588 -18q-56 1 -109.5 12t-107 38.5t-93.5 69t-65 107t-25 147.5v707h80v-707q0 -67 20.5 -120t52.5 -85.5t75 -54t83.5 -29.5t82.5 -8q63 0 120.5 19.5t103.5 57t74 99t29 138.5v690h80v-1061h-74v215q-25 -119 -114 -178t-213 -57z" />
    <glyph glyph-name="Ubreve" unicode="&#x16c;" horiz-adv-x="1431" 
d="M985 1903q-19 -66 -88 -124.5t-178 -58.5t-174.5 55.5t-81.5 127.5h96q29 -46 51 -65q44 -36 109 -36q101 0 166 101h100zM1206 459q0 -241 -121.5 -360t-369.5 -119q-252 0 -371 124t-119 385v992h88v-1026q0 -398 402 -398q411 0 411 398v1026h80v-1022z" />
    <glyph glyph-name="ubreve" unicode="&#x16d;" 
d="M827 1481q-19 -66 -88 -124.5t-178 -58.5t-174.5 55.5t-81.5 127.5h96q29 -46 51 -65q44 -36 109 -36q101 0 166 101h100zM588 -18q-56 1 -109.5 12t-107 38.5t-93.5 69t-65 107t-25 147.5v707h80v-707q0 -67 20.5 -120t52.5 -85.5t75 -54t83.5 -29.5t82.5 -8
q63 0 120.5 19.5t103.5 57t74 99t29 138.5v690h80v-1061h-74v215q-25 -119 -114 -178t-213 -57z" />
    <glyph glyph-name="Uring" unicode="&#x16e;" horiz-adv-x="1431" 
d="M922 1821q0 -85 -58 -142t-143 -57q-84 0 -141.5 58.5t-57.5 144.5q0 79 58.5 135.5t140.5 56.5q85 0 143 -56.5t58 -139.5zM836 1821q0 52 -33.5 84t-83.5 32q-47 0 -82 -32.5t-35 -83.5q0 -47 35.5 -83t81.5 -36q49 0 83 35.5t34 83.5zM1206 459q0 -241 -121.5 -360
t-369.5 -119q-252 0 -371 124t-119 385v992h88v-1026q0 -398 402 -398q411 0 411 398v1026h80v-1022z" />
    <glyph glyph-name="uring" unicode="&#x16f;" 
d="M764 1399q0 -85 -58 -142t-143 -57q-83 0 -140.5 58.5t-57.5 144.5q0 79 58 135.5t140 56.5q85 0 143 -56.5t58 -139.5zM678 1399q0 52 -33.5 84.5t-83.5 32.5q-47 0 -82 -33t-35 -84q0 -47 35.5 -83t81.5 -36q49 0 83 35.5t34 83.5zM588 -18q-56 1 -109.5 12t-107 38.5
t-93.5 69t-65 107t-25 147.5v707h80v-707q0 -67 20.5 -120t52.5 -85.5t75 -54t83.5 -29.5t82.5 -8q63 0 120.5 19.5t103.5 57t74 99t29 138.5v690h80v-1061h-74v215q-25 -119 -114 -178t-213 -57z" />
    <glyph glyph-name="Uhungarumlaut" unicode="&#x170;" horiz-adv-x="1431" 
d="M780 1913l43 -53q10 -13 -4 -27l-248 -234q-15 -12 -24 3l-19 26q-10 10 0 21l234 264q9 9 18 0zM1061 1913l45 -53q6 -7 5 -12.5t-11 -14.5l-248 -234q-16 -13 -25 3l-16 26q-11 10 0 21l233 264q5 4 10 3.5t7 -3.5zM1206 459q0 -241 -121.5 -360t-369.5 -119
q-252 0 -371 124t-119 385v992h88v-1026q0 -398 402 -398q411 0 411 398v1026h80v-1022z" />
    <glyph glyph-name="uhungarumlaut" unicode="&#x171;" 
d="M623 1491l43 -53q10 -13 -4 -27l-248 -233q-16 -13 -25 2l-18 26q-11 10 0 21l233 264q10 9 19 0zM903 1491l45 -53q6 -7 5 -12.5t-11 -14.5l-248 -233q-15 -12 -24 2l-17 26q-11 10 0 21l234 264q5 4 9.5 3.5t6.5 -3.5zM588 -18q-56 1 -109.5 12t-107 38.5t-93.5 69
t-65 107t-25 147.5v707h80v-707q0 -67 20.5 -120t52.5 -85.5t75 -54t83.5 -29.5t82.5 -8q63 0 120.5 19.5t103.5 57t74 99t29 138.5v690h80v-1061h-74v215q-25 -119 -114 -178t-213 -57z" />
    <glyph glyph-name="Uogonek" unicode="&#x172;" horiz-adv-x="1431" 
d="M1126 1481h80v-1022q0 -408 -354 -469q-97 -45 -140.5 -86t-43.5 -94q0 -42 27 -63t87 -21q83 0 131 24q15 9 15 -6v-39q0 -11 -10 -16q-64 -31 -156 -31q-91 0 -136.5 42.5t-45.5 113.5q0 109 122 166q-246 3 -361.5 127t-115.5 382v992h88v-1026q0 -398 402 -398
q411 0 411 398v1026z" />
    <glyph glyph-name="uogonek" unicode="&#x173;" 
d="M1026 -246q14 8 14 -6v-39q0 -11 -10 -16q-64 -31 -156 -31q-91 0 -136.5 42.5t-45.5 113.5q0 69 50 118t171 84h2v197q-25 -119 -114 -178t-213 -57q-56 1 -109.5 12t-107 38.5t-93.5 69t-65 107t-25 147.5v707h80v-707q0 -67 20.5 -120t52.5 -85.5t75 -54t83.5 -29.5
t82.5 -8q63 0 120.5 19.5t103.5 57t74 99t29 138.5v690h80v-1061h-8q-106 -49 -153.5 -90.5t-47.5 -97.5q0 -84 115 -84q83 0 131 24z" />
    <glyph glyph-name="Wcircumflex" unicode="&#x174;" horiz-adv-x="1937" 
d="M1130 1708l-151 123l-160 -123h-114l243 195h66l239 -195h-123zM1874 1481l-426 -1481h-113l-370 1327l-379 -1327h-107l-416 1481h91l378 -1381l394 1381h80l387 -1381l393 1381h88z" />
    <glyph glyph-name="wcircumflex" unicode="&#x175;" horiz-adv-x="1630" 
d="M975 1286l-152 123l-159 -123h-115l244 195h65l240 -195h-123zM1528 1059l-293 -1059h-135l-285 922l-262 -922h-139l-312 1059h86l283 -971h25l282 971h74l299 -967h25l268 967h84z" />
    <glyph glyph-name="Ycircumflex" unicode="&#x176;" horiz-adv-x="1112" 
d="M700 1708l-151 123l-160 -123h-115l244 195h66l239 -195h-123zM1087 1481l-487 -844v-637h-80v639l-495 842h90l446 -762l438 762h88z" />
    <glyph glyph-name="ycircumflex" unicode="&#x177;" horiz-adv-x="1054" 
d="M684 1286l-152 123l-159 -123h-115l244 195h65l240 -195h-123zM238 -338q-45 0 -77 4t-41 8l-9 4v56h112q91 0 140 34t75 97l54 141l-414 1053h86l371 -944l364 944h78l-463 -1213q-73 -184 -276 -184z" />
    <glyph glyph-name="Ydieresis" unicode="&#x178;" horiz-adv-x="1112" 
d="M485 1903v-195h-98v195h98zM709 1903v-195h-101v195h101zM1087 1481l-487 -844v-637h-80v639l-495 842h90l446 -762l438 762h88z" />
    <glyph glyph-name="Zacute" unicode="&#x179;" horiz-adv-x="1212" 
d="M842 1919l28 -92l-489 -160l-21 64zM119 0v63l870 1338h-852v80h957v-62l-875 -1339h875v-80h-975z" />
    <glyph glyph-name="zacute" unicode="&#x17a;" horiz-adv-x="964" 
d="M745 1497l29 -92l-489 -160l-21 64zM104 0v78l668 911h-625v70h709v-84l-663 -905h677v-70h-766z" />
    <glyph glyph-name="Zdotaccent" unicode="&#x17b;" horiz-adv-x="1212" 
d="M666 1903v-195h-99v195h99zM119 0v63l870 1338h-852v80h957v-62l-875 -1339h875v-80h-975z" />
    <glyph glyph-name="zdotaccent" unicode="&#x17c;" horiz-adv-x="964" 
d="M569 1481v-195h-98v195h98zM104 0v78l668 911h-625v70h709v-84l-663 -905h677v-70h-766z" />
    <glyph glyph-name="Zcaron" unicode="&#x17d;" horiz-adv-x="1212" 
d="M768 1903h123l-240 -195h-65l-246 195h117l159 -123zM119 0v63l870 1338h-852v80h957v-62l-875 -1339h875v-80h-975z" />
    <glyph glyph-name="zcaron" unicode="&#x17e;" horiz-adv-x="964" 
d="M672 1481h123l-240 -195h-66l-245 195h116l160 -123zM104 0v78l668 911h-625v70h709v-84l-663 -905h677v-70h-766z" />
    <glyph glyph-name="uni018F" unicode="&#x18f;" horiz-adv-x="1495" 
d="M1245 770q0 57 -4.5 110.5t-18 120t-35.5 123t-60.5 111.5t-88.5 93.5t-124 62.5t-164 24q-99 0 -178.5 -27.5t-126 -66.5t-82.5 -92t-50.5 -94t-27.5 -84.5t-17 -51.5q-2 -3 -14 0l-76 25q-8 2 -2 18q2 4 15 40.5t24 64t36.5 73.5t52.5 80.5t72.5 74.5t96.5 65.5t123 43
t154 17.5q104 0 190.5 -25.5t147 -69t107.5 -105t75.5 -128.5t46.5 -145.5t24.5 -149.5t6.5 -147q0 -117 -18 -221t-61.5 -203t-110 -170t-171 -114t-237.5 -43q-136 0 -242 42t-173 112t-110.5 169t-60.5 205t-17 229q0 23 17 23h1069q12 0 12 10zM1245 676h-977
q-16 0 -16 -12q0 -90 13.5 -170.5t49 -160.5t90 -138t143 -93.5t202.5 -35.5q113 0 200.5 36t141.5 93.5t88.5 139t48.5 164t16 177.5z" />
    <glyph glyph-name="florin" unicode="&#x192;" horiz-adv-x="817" 
d="M653 1059l-12 -70h-293l-186 -1071q-46 -258 -273 -258h-112l10 68l115 2q80 2 120.5 42.5t57.5 135.5l188 1081h-170l13 70h170l30 176q43 246 271 246h153l-10 -70h-164q-64 0 -109 -45.5t-59 -122.5l-33 -184h293z" />
    <glyph glyph-name="uni01C4" unicode="&#x1c4;" horiz-adv-x="2594" 
d="M2150 1903h123l-239 -195h-66l-246 195h117l160 -123zM225 1481h15t38 -0.5t53.5 -1t67.5 -0.5h72q408 -1 590 -176.5t182 -550.5q0 -390 -195 -571t-606 -181h-217v1481zM1501 0v63l871 1338h-852v80h956v-62l-874 -1339h874v-80h-975zM313 1397v-1313h123q183 0 315 35
t224.5 113t137 204.5t44.5 306.5q0 151 -31 263.5t-87.5 187t-145.5 120t-196 64.5t-248 19h-136z" />
    <glyph glyph-name="uni01C5" unicode="&#x1c5;" horiz-adv-x="2347" 
d="M225 1481h15t38 -0.5t53.5 -1t67.5 -0.5h72q408 -1 590 -176.5t182 -550.5q0 -390 -195 -571t-606 -181h-217v1481zM2054 1481h123l-240 -195h-65l-246 195h117l160 -123zM313 1397v-1313h123q183 0 315 35t224.5 113t137 204.5t44.5 306.5q0 151 -31 263.5t-87.5 187
t-145.5 120t-196 64.5t-248 19h-136zM1487 0v78l667 911h-624v70h708v-84l-663 -905h678v-70h-766z" />
    <glyph glyph-name="uni01C6" unicode="&#x1c6;" horiz-adv-x="2123" 
d="M561 -20q-198 0 -314 135.5t-116 394.5t119.5 414t335.5 155q91 0 164.5 -32t156.5 -99v574h80v-1522h-76v199q-105 -219 -350 -219zM1831 1481h123l-240 -195h-65l-246 195h117l159 -123zM1264 0v78l667 911h-624v70h708v-84l-663 -905h678v-70h-766zM571 55
q69 0 133.5 27.5t107.5 69.5t69 92t26 96v510q-154 151 -319 151q-175 0 -274 -128t-99 -355q0 -228 98 -345.5t258 -117.5z" />
    <glyph glyph-name="uni01C7" unicode="&#x1c7;" horiz-adv-x="1957" 
d="M225 1481h88v-1393h756v-88h-844v1481zM1733 287q0 -151 -56 -229t-194 -78q-76 0 -142 22t-84 37l21 88q9 -4 35 -18t44.5 -22.5t52 -16t69.5 -7.5q97 0 135.5 56t38.5 196v1166h80v-1194z" />
    <glyph glyph-name="uni01C8" unicode="&#x1c8;" horiz-adv-x="1638" 
d="M1450 1522v-197h-100v197h100zM225 1481h88v-1393h756v-88h-844v1481zM1440 -102q0 -129 -47.5 -183.5t-178.5 -54.5q-53 0 -85 4.5t-38 9.5l-6 4v54l127 2q80 2 114 41t34 133v1151h80v-1161z" />
    <glyph glyph-name="uni01C9" unicode="&#x1c9;" horiz-adv-x="1083" 
d="M391 -8q-101 0 -148.5 70t-47.5 186v1274h79v-1274q0 -95 35.5 -142t83.5 -47h66v-59q-33 -8 -68 -8zM895 1522v-197h-100v197h100zM885 -102q0 -129 -47.5 -183.5t-178.5 -54.5q-53 0 -85 4.5t-38 9.5l-6 4v54l127 2q80 2 114 41t34 133v1151h80v-1161z" />
    <glyph glyph-name="uni01CA" unicode="&#x1ca;" horiz-adv-x="2230" 
d="M1182 1481h80v-1481h-70l-887 1317v-1317h-80v1481h66l891 -1321v1321zM2005 287q0 -151 -56 -229t-194 -78q-76 0 -141.5 22t-83.5 37l20 88q9 -4 35 -18t44.5 -22.5t52 -16t69.5 -7.5q97 0 135.5 56t38.5 196v1166h80v-1194z" />
    <glyph glyph-name="uni01CB" unicode="&#x1cb;" horiz-adv-x="1972" 
d="M1784 1522v-197h-101v197h101zM1182 1481h80v-1481h-70l-887 1317v-1317h-80v1481h66l891 -1321v1321zM1774 -102q0 -129 -47.5 -183.5t-178.5 -54.5q-53 0 -85 4.5t-38 9.5l-6 4v54l127 2q80 2 114 41t34 133v1151h80v-1161z" />
    <glyph glyph-name="uni01CC" unicode="&#x1cc;" horiz-adv-x="1656" 
d="M1468 1522v-197h-100v197h100zM188 0v1059h74v-158q43 78 137.5 128t218.5 50q167 0 269 -99.5t102 -293.5v-686h-80v686q0 152 -77 233.5t-214 81.5q-151 0 -250.5 -68t-99.5 -196v-737h-80zM1458 -102q0 -129 -47 -183.5t-178 -54.5q-53 0 -85 4.5t-38 9.5l-6 4v54
l127 2q80 2 113.5 40.5t33.5 133.5v1151h80v-1161z" />
    <glyph glyph-name="uni01EA" unicode="&#x1ea;" horiz-adv-x="1497" 
d="M895 -6q-101 -47 -147 -88.5t-46 -95.5q0 -84 115 -84q83 0 131 24q15 9 15 -6v-39q0 -11 -11 -16q-64 -31 -155 -31t-137 42.5t-46 113.5q0 109 123 166q-280 5 -435 199t-155 554q0 371 160 569.5t445 198.5q283 0 440.5 -197t157.5 -567q0 -316 -118.5 -505.5
t-336.5 -237.5zM238 737q0 -336 132 -505t384 -169q506 0 506 674q0 339 -129.5 509.5t-378.5 170.5q-250 0 -382 -171t-132 -509z" />
    <glyph glyph-name="uni01EB" unicode="&#x1eb;" horiz-adv-x="1148" 
d="M702 -4q-100 -47 -145 -88t-45 -96q0 -84 115 -84q83 0 131 24q14 8 14 -6v-39q0 -11 -10 -16q-64 -31 -156 -31q-91 0 -136.5 42.5t-45.5 113.5q0 106 119 164q-202 12 -313 159t-111 383q0 250 122 403.5t337 153.5q212 0 332 -152.5t120 -400.5q0 -206 -85.5 -347
t-242.5 -183zM203 526q0 -216 97.5 -343.5t279.5 -127.5q180 0 273 126t93 345t-94.5 347t-273.5 128q-180 0 -277.5 -128.5t-97.5 -346.5z" />
    <glyph glyph-name="uni01F1" unicode="&#x1f1;" horiz-adv-x="2594" 
d="M225 1481h15t38 -0.5t53.5 -1t67.5 -0.5h72q408 -1 590 -176.5t182 -550.5q0 -390 -195 -571t-606 -181h-217v1481zM1501 0v63l871 1338h-852v80h956v-62l-874 -1339h874v-80h-975zM313 1397v-1313h123q183 0 315 35t224.5 113t137 204.5t44.5 306.5q0 151 -31 263.5
t-87.5 187t-145.5 120t-196 64.5t-248 19h-136z" />
    <glyph glyph-name="uni01F2" unicode="&#x1f2;" horiz-adv-x="2347" 
d="M225 1481h15t38 -0.5t53.5 -1t67.5 -0.5h72q408 -1 590 -176.5t182 -550.5q0 -390 -195 -571t-606 -181h-217v1481zM313 1397v-1313h123q183 0 315 35t224.5 113t137 204.5t44.5 306.5q0 151 -31 263.5t-87.5 187t-145.5 120t-196 64.5t-248 19h-136zM1487 0v78l667 911
h-624v70h708v-84l-663 -905h678v-70h-766z" />
    <glyph glyph-name="uni01F3" unicode="&#x1f3;" horiz-adv-x="2123" 
d="M561 -20q-198 0 -314 135.5t-116 394.5t119.5 414t335.5 155q91 0 164.5 -32t156.5 -99v574h80v-1522h-76v199q-105 -219 -350 -219zM1264 0v78l667 911h-624v70h708v-84l-663 -905h678v-70h-766zM571 55q69 0 133.5 27.5t107.5 69.5t69 92t26 96v510q-154 151 -319 151
q-175 0 -274 -128t-99 -355q0 -228 98 -345.5t258 -117.5z" />
    <glyph glyph-name="uni01F4" unicode="&#x1f4;" horiz-adv-x="1472" 
d="M965 1919l28 -92l-489 -160l-21 64zM737 -20q-279 0 -434.5 199t-155.5 556q0 365 158.5 565.5t433.5 200.5q121 0 234.5 -54t188 -146.5t85.5 -198.5l-94 -17q-24 141 -140 236.5t-274 95.5q-241 0 -374.5 -177t-133.5 -492q0 -332 132 -510.5t376 -178.5q91 0 168.5 29
t129.5 75.5t89.5 106.5t54.5 121t17 119v172h-414v72h494v-754h-80v258q-64 -126 -181 -202t-280 -76z" />
    <glyph glyph-name="uni01F5" unicode="&#x1f5;" horiz-adv-x="1236" 
d="M823 1497l29 -92l-490 -160l-20 64zM582 -350q-229 0 -354.5 78.5t-125.5 218.5q0 55 27.5 104.5t56.5 74.5t68.5 52t42.5 29q-4 2 -17 10t-18 12t-15.5 12t-15.5 14.5t-11 16t-8.5 21t-2.5 24.5q0 43 41 79t117 59q-100 54 -141.5 118t-41.5 164q0 159 111 248.5
t309 89.5q97 0 167.5 -24t133.5 -76q173 77 230 98v-119l-189 -41q18 -32 32.5 -85t14.5 -91q0 -142 -101 -230.5t-302 -88.5h-23q-99 -2 -163.5 -18t-87.5 -36t-23 -45q0 -34 45.5 -49t173.5 -24l240 -15q307 -17 307 -270q0 -149 -125 -230t-352 -81zM592 494
q321 0 321 247q0 125 -82 191.5t-239 66.5t-242.5 -67.5t-85.5 -190.5q0 -121 84.5 -184t243.5 -63zM600 -274q375 0 375 235q0 87 -52 134.5t-173 54.5l-353 22q-34 2 -82.5 -24t-88.5 -79t-40 -114q0 -110 108.5 -169.5t305.5 -59.5z" />
    <glyph glyph-name="Aringacute" unicode="&#x1fa;" horiz-adv-x="1280" 
d="M723 1419l477 -1419h-94l-162 475h-622l-162 -475h-82l485 1415q-56 22 -89.5 73.5t-33.5 117.5q0 75 52 129.5t129 62.5l30 127h109l-58 -137q61 -19 99.5 -70t38.5 -116q0 -62 -32 -110.5t-85 -72.5zM520 1599q0 -46 35.5 -82t81.5 -36q49 0 83 35.5t34 82.5
q0 52 -33.5 85.5t-83.5 33.5q-47 0 -82 -34t-35 -85zM348 555h572l-285 844z" />
    <glyph glyph-name="aringacute" unicode="&#x1fb;" horiz-adv-x="1153" 
d="M336 1245l-21 64l68 26q-10 33 -10 68q0 79 58 135.5t140 56.5q61 0 110 -31t73 -83l43 16l28 -92l-53 -19q-5 -80 -62 -133t-139 -53q-94 0 -153 72zM453 1399q0 -17 6 -35l217 86q-13 31 -42 48.5t-65 17.5q-47 0 -81.5 -33t-34.5 -84zM569 1280q38 0 67.5 22t41.5 56
l-172 -58q30 -20 63 -20zM569 1079q171 0 277 -93.5t106 -252.5v-733h-73l-5 205q-118 -225 -399 -225q-157 0 -248.5 77.5t-91.5 212.5q0 179 115 260.5t379 90.5l243 8v102q0 125 -85 197.5t-222 72.5q-119 0 -201.5 -59.5t-99.5 -165.5h-86q8 122 112.5 212.5t278.5 90.5
zM872 342v207l-204 -4q-249 -4 -349 -66t-100 -203q0 -103 72.5 -162t195.5 -59q87 0 176.5 41.5t149 109t59.5 136.5z" />
    <glyph glyph-name="AEacute" unicode="&#x1fc;" horiz-adv-x="1990" 
d="M1608 1919l28 -92l-489 -160l-21 64zM1841 80v-80h-829v475h-535l-272 -475h-86l846 1481h847v-80h-710v-613h569v-79h-569v-629h739zM1012 555v848l-496 -848h496z" />
    <glyph glyph-name="aeacute" unicode="&#x1fd;" horiz-adv-x="1941" 
d="M1169 1497l29 -92l-489 -160l-21 64zM940 506q0 -79 31.5 -160t84 -145.5t127.5 -105t156 -40.5q62 0 115 13.5t89 32t69 48.5t51.5 53.5t40.5 55.5l63 -45q-54 -103 -170.5 -168t-261.5 -65q-70 0 -131 17t-101 40t-78 59.5t-56 60.5t-41 58q-5 7 -10 0q-29 -37 -50 -61
t-64 -60.5t-86.5 -58.5t-109.5 -38.5t-141 -16.5q-155 0 -243.5 77.5t-88.5 214.5q0 302 477 342l260 21v90q0 129 -79 202.5t-228 73.5q-193 0 -340 -198l-61 43q66 110 176.5 171.5t241.5 61.5q289 0 350 -239q120 239 409 239q209 0 334 -151t125 -420zM1335 1001
q-167 0 -278.5 -116t-112.5 -303l770 -2q0 177 -107.5 299t-271.5 122zM872 559l-219 -16q-222 -17 -327 -83.5t-105 -183.5q0 -103 71 -164t195 -55q160 8 272.5 94t112.5 203v205z" />
    <glyph glyph-name="Oslashacute" unicode="&#x1fe;" horiz-adv-x="1421" 
d="M938 1919l29 -92l-490 -160l-20 64zM1370 1452q11 -11 2 -22l-170 -197q111 -193 111 -496q0 -366 -158.5 -561.5t-443.5 -195.5q-282 0 -432 182l-148 -168q-14 -22 -37 -4l-35 33q-11 11 -12.5 15.5t4.5 12.5l168 195q-108 181 -108 487q0 371 159 569.5t443 198.5
q274 0 432 -184l149 172q14 17 25 6zM211 737q0 -255 74 -415l798 925q-125 168 -370 168q-502 0 -502 -678zM1210 737q0 260 -73 422l-799 -926q127 -167 377 -167q249 0 372 165.5t123 505.5z" />
    <glyph glyph-name="oslashacute" unicode="&#x1ff;" horiz-adv-x="1157" 
d="M834 1405l-490 -160l-20 64l481 188zM1120 1006l-159 -158q69 -135 69 -322q0 -248 -120 -397t-335 -149q-218 0 -342 153l-143 -141l-55 57l155 152q-71 133 -71 321q0 250 122 403.5t337 153.5q217 0 340 -161l147 145zM203 526q0 -155 49 -262l608 598
q-96 139 -282 139q-180 0 -277.5 -128.5t-97.5 -346.5zM946 526q0 150 -47 262l-606 -595q99 -138 287 -138q180 0 273 126t93 345z" />
    <glyph glyph-name="uni0200" unicode="&#x200;" horiz-adv-x="1433" 
d="M385 1923l252 -283l-35 -53l-278 260zM666 1923l252 -283l-37 -53l-277 260zM119 0l543 1481h112l541 -1481h-88l-170 467h-678l-174 -467h-86zM408 555h618l-307 840z" />
    <glyph glyph-name="uni0201" unicode="&#x201;" horiz-adv-x="1153" 
d="M240 1501l252 -282l-35 -54l-279 260zM520 1501l252 -282l-37 -54l-276 260zM475 -20q-157 0 -248.5 77.5t-91.5 212.5q0 179 115 260.5t379 90.5l243 8v102q0 125 -85 197.5t-222 72.5q-119 0 -201.5 -59.5t-99.5 -165.5h-86q8 122 112.5 212.5t278.5 90.5
q171 0 277 -93.5t106 -252.5v-733h-73l-5 205q-118 -225 -399 -225zM487 55q87 0 176.5 41.5t149 109t59.5 136.5v207l-204 -4q-249 -4 -349 -66t-100 -203q0 -103 72.5 -162t195.5 -59z" />
    <glyph glyph-name="uni0202" unicode="&#x202;" horiz-adv-x="1433" 
d="M983 1808h-100q-65 101 -166 101q-35 0 -62.5 -9t-47 -28t-27 -28.5t-19.5 -29.5q-3 -4 -4 -6h-96q16 72 81.5 127.5t174.5 55.5t178 -58.5t88 -124.5zM119 0l543 1481h112l541 -1481h-88l-170 467h-678l-174 -467h-86zM408 555h618l-307 840z" />
    <glyph glyph-name="uni0203" unicode="&#x203;" horiz-adv-x="1153" 
d="M838 1386h-101q-65 101 -166 101q-15 0 -29.5 -2t-26 -5.5t-22.5 -9t-18.5 -10.5t-16 -13t-13 -12.5t-11 -14t-9 -13t-7.5 -12t-6 -9.5h-97q16 72 81.5 127.5t174.5 55.5t178.5 -58.5t88.5 -124.5zM475 -20q-157 0 -248.5 77.5t-91.5 212.5q0 179 115 260.5t379 90.5
l243 8v102q0 125 -85 197.5t-222 72.5q-119 0 -201.5 -59.5t-99.5 -165.5h-86q8 122 112.5 212.5t278.5 90.5q171 0 277 -93.5t106 -252.5v-733h-73l-5 205q-118 -225 -399 -225zM487 55q87 0 176.5 41.5t149 109t59.5 136.5v207l-204 -4q-249 -4 -349 -66t-100 -203
q0 -103 72.5 -162t195.5 -59z" />
    <glyph glyph-name="uni0204" unicode="&#x204;" horiz-adv-x="1253" 
d="M348 1923l252 -283l-35 -53l-278 260zM629 1923l252 -283l-37 -53l-277 260zM225 0v1481h850v-82h-770v-608h717v-84h-717v-621l799 -2v-84h-879z" />
    <glyph glyph-name="uni0205" unicode="&#x205;" horiz-adv-x="1157" 
d="M254 1501l252 -282l-35 -54l-278 260zM535 1501l251 -282l-36 -54l-277 260zM217 508q0 -92 22.5 -171.5t67.5 -142.5t119.5 -99t171.5 -36q123 0 204.5 58.5t115.5 165.5h86q-42 -154 -149.5 -228.5t-256.5 -74.5q-211 0 -339 142.5t-128 397.5q0 263 119.5 411
t335.5 148q203 0 316.5 -134t113.5 -378v-59h-799zM219 588h713q0 186 -88 298.5t-260 112.5q-93 0 -165.5 -36t-115 -95.5t-64 -131t-20.5 -148.5z" />
    <glyph glyph-name="uni0206" unicode="&#x206;" horiz-adv-x="1253" 
d="M946 1808h-100q-65 101 -166 101q-35 0 -62.5 -9t-47 -28t-27 -28.5t-19.5 -29.5q-3 -4 -4 -6h-96q16 72 81.5 127.5t174.5 55.5t178 -58.5t88 -124.5zM225 0v1481h850v-82h-770v-608h717v-84h-717v-621l799 -2v-84h-879z" />
    <glyph glyph-name="uni0207" unicode="&#x207;" horiz-adv-x="1157" 
d="M852 1386h-100q-65 101 -166 101q-35 0 -62.5 -9t-47 -28t-27 -28.5t-19.5 -29.5q-3 -4 -4 -6h-96q16 72 81.5 127.5t174.5 55.5t178 -58.5t88 -124.5zM217 508q0 -92 22.5 -171.5t67.5 -142.5t119.5 -99t171.5 -36q123 0 204.5 58.5t115.5 165.5h86
q-42 -154 -149.5 -228.5t-256.5 -74.5q-211 0 -339 142.5t-128 397.5q0 263 119.5 411t335.5 148q203 0 316.5 -134t113.5 -378v-59h-799zM219 588h713q0 186 -88 298.5t-260 112.5q-93 0 -165.5 -36t-115 -95.5t-64 -131t-20.5 -148.5z" />
    <glyph glyph-name="uni0208" unicode="&#x208;" horiz-adv-x="520" 
d="M-57 1923l252 -283l-35 -53l-279 260zM223 1923l252 -283l-37 -53l-276 260zM225 1481h80v-1481h-80v1481z" />
    <glyph glyph-name="uni0209" unicode="&#x209;" horiz-adv-x="481" 
d="M-92 1501l252 -282l-35 -54l-279 260zM188 1501l252 -282l-37 -54l-276 260zM281 1059v-1059h-80v1059h80z" />
    <glyph glyph-name="uni020A" unicode="&#x20a;" horiz-adv-x="520" 
d="M541 1808h-101q-65 101 -166 101q-15 0 -29.5 -2t-26 -5.5t-22.5 -9t-18.5 -10.5t-16 -13t-13 -12.5t-11 -14t-9 -13t-7.5 -12t-6 -9.5h-97q16 72 81.5 127.5t174.5 55.5t178.5 -58.5t88.5 -124.5zM225 1481h80v-1481h-80v1481z" />
    <glyph glyph-name="uni020B" unicode="&#x20b;" horiz-adv-x="481" 
d="M506 1386h-100q-65 101 -166 101q-35 0 -62.5 -9t-47 -28t-27 -28.5t-19.5 -29.5q-3 -4 -4 -6h-96q16 72 81.5 127.5t174.5 55.5t178 -58.5t88 -124.5zM281 1059v-1059h-80v1059h80z" />
    <glyph glyph-name="uni020C" unicode="&#x20c;" horiz-adv-x="1497" 
d="M422 1923l252 -283l-35 -53l-279 260zM702 1923l252 -283l-36 -53l-277 260zM750 -20q-286 0 -444.5 194t-158.5 559q0 371 160 569.5t445 198.5q283 0 440.5 -197t157.5 -567q0 -367 -158 -562t-442 -195zM754 63q506 0 506 674q0 339 -129.5 509.5t-378.5 170.5
q-250 0 -382 -171t-132 -509q0 -336 132 -505t384 -169z" />
    <glyph glyph-name="uni020D" unicode="&#x20d;" horiz-adv-x="1148" 
d="M248 1501l252 -282l-35 -54l-279 260zM528 1501l252 -282l-37 -54l-276 260zM575 -20q-217 0 -336.5 147.5t-119.5 394.5q0 250 122 403.5t337 153.5q212 0 332 -152.5t120 -400.5t-120 -397t-335 -149zM580 55q180 0 273 126t93 345t-94.5 347t-273.5 128
q-180 0 -277.5 -128.5t-97.5 -346.5q0 -216 97.5 -343.5t279.5 -127.5z" />
    <glyph glyph-name="uni020E" unicode="&#x20e;" horiz-adv-x="1497" 
d="M1020 1808h-100q-65 101 -166 101q-35 0 -62.5 -9t-47 -28t-27 -28.5t-19.5 -29.5q-3 -4 -4 -6h-96q16 72 81.5 127.5t174.5 55.5t178 -58.5t88 -124.5zM750 -20q-286 0 -444.5 194t-158.5 559q0 371 160 569.5t445 198.5q283 0 440.5 -197t157.5 -567q0 -367 -158 -562
t-442 -195zM754 63q506 0 506 674q0 339 -129.5 509.5t-378.5 170.5q-250 0 -382 -171t-132 -509q0 -336 132 -505t384 -169z" />
    <glyph glyph-name="uni020F" unicode="&#x20f;" horiz-adv-x="1148" 
d="M846 1386h-101q-65 101 -165 101q-35 0 -62.5 -9t-47 -28t-27 -28.5t-19.5 -29.5q-3 -4 -4 -6h-96q16 72 81.5 127.5t174.5 55.5t178 -58.5t88 -124.5zM575 -20q-217 0 -336.5 147.5t-119.5 394.5q0 250 122 403.5t337 153.5q212 0 332 -152.5t120 -400.5t-120 -397
t-335 -149zM580 55q180 0 273 126t93 345t-94.5 347t-273.5 128q-180 0 -277.5 -128.5t-97.5 -346.5q0 -216 97.5 -343.5t279.5 -127.5z" />
    <glyph glyph-name="uni0210" unicode="&#x210;" horiz-adv-x="1359" 
d="M322 1923l251 -283l-34 -53l-279 260zM602 1923l252 -283l-37 -53l-276 260zM1194 0h-92l-299 705h-498v-705h-80v1481h523q218 0 336 -93t118 -274q0 -72 -19.5 -132.5t-50 -102t-73 -74t-84.5 -51.5t-88 -31zM678 788q219 0 328.5 74t109.5 238q0 155 -93 227t-278 72
h-440v-611h373z" />
    <glyph glyph-name="uni0211" unicode="&#x211;" horiz-adv-x="761" 
d="M80 1501l252 -282l-35 -54l-279 260zM360 1501l252 -282l-37 -54l-276 260zM188 0v1059h74v-191q60 90 178.5 150.5t225.5 60.5v-82q-88 1 -181.5 -43.5t-155 -115t-61.5 -138.5v-700h-80z" />
    <glyph glyph-name="uni0212" unicode="&#x212;" horiz-adv-x="1359" 
d="M920 1808h-101q-65 101 -166 101q-15 0 -29.5 -2t-26 -5.5t-22.5 -9t-18.5 -10.5t-16 -13t-13 -12.5t-11 -14t-9 -13t-7.5 -12t-6 -9.5h-97q16 72 81.5 127.5t174.5 55.5t178.5 -58.5t88.5 -124.5zM1194 0h-92l-299 705h-498v-705h-80v1481h523q218 0 336 -93t118 -274
q0 -72 -19.5 -132.5t-50 -102t-73 -74t-84.5 -51.5t-88 -31zM678 788q219 0 328.5 74t109.5 238q0 155 -93 227t-278 72h-440v-611h373z" />
    <glyph glyph-name="uni0213" unicode="&#x213;" horiz-adv-x="761" 
d="M678 1386h-100q-65 101 -166 101q-35 0 -62.5 -9t-47 -28t-27 -28.5t-19.5 -29.5q-3 -4 -4 -6h-96q16 72 81.5 127.5t174.5 55.5t178 -58.5t88 -124.5zM188 0v1059h74v-191q60 90 178.5 150.5t225.5 60.5v-82q-88 1 -181.5 -43.5t-155 -115t-61.5 -138.5v-700h-80z" />
    <glyph glyph-name="uni0214" unicode="&#x214;" horiz-adv-x="1431" 
d="M389 1923l252 -283l-35 -53l-278 260zM670 1923l252 -283l-37 -53l-277 260zM1206 459q0 -241 -121.5 -360t-369.5 -119q-252 0 -371 124t-119 385v992h88v-1026q0 -398 402 -398q411 0 411 398v1026h80v-1022z" />
    <glyph glyph-name="uni0215" unicode="&#x215;" 
d="M231 1501l252 -282l-34 -54l-279 260zM512 1501l252 -282l-37 -54l-276 260zM588 -18q-56 1 -109.5 12t-107 38.5t-93.5 69t-65 107t-25 147.5v707h80v-707q0 -67 20.5 -120t52.5 -85.5t75 -54t83.5 -29.5t82.5 -8q63 0 120.5 19.5t103.5 57t74 99t29 138.5v690h80v-1061
h-74v215q-25 -119 -114 -178t-213 -57z" />
    <glyph glyph-name="uni0216" unicode="&#x216;" horiz-adv-x="1431" 
d="M987 1808h-100q-65 101 -166 101q-35 0 -62.5 -9t-47 -28t-27 -28.5t-19.5 -29.5q-3 -4 -4 -6h-96q16 72 81.5 127.5t174.5 55.5t178 -58.5t88 -124.5zM1206 459q0 -241 -121.5 -360t-369.5 -119q-252 0 -371 124t-119 385v992h88v-1026q0 -398 402 -398q411 0 411 398
v1026h80v-1022z" />
    <glyph glyph-name="uni0217" unicode="&#x217;" 
d="M829 1386h-100q-65 101 -166 101q-35 0 -62.5 -9t-47 -28t-27 -28.5t-19.5 -29.5q-3 -4 -4 -6h-96q16 72 81.5 127.5t174.5 55.5t178 -58.5t88 -124.5zM588 -18q-56 1 -109.5 12t-107 38.5t-93.5 69t-65 107t-25 147.5v707h80v-707q0 -67 20.5 -120t52.5 -85.5t75 -54
t83.5 -29.5t82.5 -8q63 0 120.5 19.5t103.5 57t74 99t29 138.5v690h80v-1061h-74v215q-25 -119 -114 -178t-213 -57z" />
    <glyph glyph-name="uni0218" unicode="&#x218;" horiz-adv-x="1392" 
d="M698 -20q-209 0 -363.5 97.5t-187.5 264.5l86 18q32 -144 162.5 -222.5t302.5 -78.5q193 0 316 84t123 215q0 255 -271 322l-329 82q-170 43 -256 121.5t-86 206.5q0 177 137 293t358 116q122 0 217.5 -32t155 -88t92.5 -124.5t41 -148.5l-82 -16q-15 88 -55.5 152.5
t-99.5 101t-126.5 54t-146.5 17.5q-54 0 -109.5 -11.5t-108.5 -37.5t-94 -63t-66 -91.5t-25 -119.5q0 -98 69 -159t240 -106l315 -82q165 -43 241.5 -145t76.5 -238q0 -165 -137.5 -273.5t-389.5 -108.5zM621 -471q-6 0 -9 5t0 11l50 107q9 18 -9 18h-16q-14 0 -14 19v131
q0 16 12 16h90q12 0 12 -14v-152q0 -2 -1 -6.5t-1 -5.5l-61 -117q-7 -12 -29 -12h-24z" />
    <glyph glyph-name="uni0219" unicode="&#x219;" horiz-adv-x="1046" 
d="M532 -20q-163 0 -280.5 83.5t-134.5 219.5h86q27 -113 113 -170.5t216 -57.5q133 0 215 57.5t82 159.5q0 72 -44 117t-134 70l-245 69q-123 34 -186.5 93.5t-63.5 160.5q0 74 33.5 132.5t88 93.5t119.5 53t133 18q156 0 252 -85.5t103 -194.5h-88q-12 95 -85.5 148.5
t-181.5 53.5q-48 0 -95.5 -11t-93 -34.5t-73.5 -68.5t-28 -105q0 -69 47 -110.5t141 -67.5l252 -69q231 -63 231 -259q0 -94 -54 -162.5t-138.5 -101t-186.5 -32.5zM451 -471q-6 0 -9 5t0 11l50 107q9 18 -9 18h-16q-14 0 -14 19v131q0 16 12 16h90q12 0 12 -14v-152
q0 -2 -1 -6.5t-1 -5.5l-61 -117q-7 -12 -29 -12h-24z" />
    <glyph glyph-name="uni021A" unicode="&#x21a;" horiz-adv-x="1124" 
d="M35 1399v82h1055v-82h-467v-1399h-80v1399h-508zM532 -471q-6 0 -8.5 5t0.5 11l49 107q9 18 -8 18h-16q-14 0 -14 19v131q0 16 12 16h90q12 0 12 -14v-152q0 -2 -1 -6.5t-1 -5.5l-61 -117q-7 -12 -29 -12h-25z" />
    <glyph glyph-name="uni021B" unicode="&#x21b;" horiz-adv-x="776" 
d="M635 989h-244v-741q0 -104 29 -141t94 -37h135v-60q-34 -10 -129 -10q-118 0 -163.5 54t-45.5 184v751h-172v70h172v297h80v-297h244v-70zM496 -471q-6 0 -9 5t0 11l50 107q9 18 -9 18h-16q-14 0 -14 19v131q0 16 12 16h90q12 0 12 -14v-152q0 -2 -1 -6.5t-1 -5.5
l-61 -117q-7 -12 -29 -12h-24z" />
    <glyph glyph-name="uni0237" unicode="&#x237;" horiz-adv-x="450" 
d="M266 -102q0 -129 -47.5 -183.5t-177.5 -54.5q-89 0 -110 3t-21 15v54l129 2q79 2 113 41t34 133v1151h80v-1161z" />
    <glyph glyph-name="uni0259" unicode="&#x259;" horiz-adv-x="1146" 
d="M930 551q0 92 -22.5 171.5t-67.5 142t-119.5 98.5t-171.5 36q-123 0 -204.5 -58t-115.5 -165h-86q42 154 149.5 228.5t256.5 74.5q211 0 339 -142.5t128 -397.5q0 -263 -119.5 -411t-335.5 -148q-203 0 -316.5 134t-113.5 378v59h799zM928 471h-713q0 -121 36.5 -212
t116.5 -145.5t195 -54.5q93 0 165.5 36t115 96t64 131.5t20.5 148.5z" />
    <glyph glyph-name="uni02BC" unicode="&#x2bc;" horiz-adv-x="266" 
d="M74 952q-6 0 -9.5 5t-1.5 10l62 239q5 21 -4 21h-10q-17 0 -17 14v227q0 13 12 13h87q8 0 8 -11v-243v-8l-70 -252q-3 -15 -25 -15h-32z" />
    <glyph glyph-name="circumflex" unicode="&#x2c6;" horiz-adv-x="567" 
d="M434 1286l-151 123l-160 -123h-115l244 195h65l240 -195h-123z" />
    <glyph glyph-name="caron" unicode="&#x2c7;" horiz-adv-x="567" 
d="M434 1481h123l-240 -195h-65l-246 195h117l160 -123z" />
    <glyph glyph-name="breve" unicode="&#x2d8;" horiz-adv-x="565" 
d="M545 1481q-19 -66 -88 -124.5t-178 -58.5t-174.5 55.5t-81.5 127.5h96q29 -46 51 -65q44 -36 109 -36q100 0 165 101h101z" />
    <glyph glyph-name="dotaccent" unicode="&#x2d9;" horiz-adv-x="147" 
d="M123 1481v-195h-98v195h98z" />
    <glyph glyph-name="ring" unicode="&#x2da;" horiz-adv-x="446" 
d="M424 1399q0 -85 -58 -142t-143 -57q-83 0 -140.5 58.5t-57.5 144.5q0 79 58 135.5t140 56.5q85 0 143 -56.5t58 -139.5zM338 1399q0 52 -33.5 84.5t-83.5 32.5q-47 0 -82 -33t-35 -84q0 -47 35.5 -83t81.5 -36q49 0 83 35.5t34 83.5z" />
    <glyph glyph-name="ogonek" unicode="&#x2db;" horiz-adv-x="397" 
d="M25 -180q0 69 50 118.5t171 84.5l67 -19q-106 -49 -153 -90.5t-47 -97.5q0 -42 27 -63t87 -21q83 0 131 24q15 9 15 -6v-39q0 -11 -11 -16q-64 -31 -155 -31t-136.5 42.5t-45.5 113.5z" />
    <glyph glyph-name="tilde" unicode="&#x2dc;" horiz-adv-x="571" 
d="M535 1382q-61 -39 -134 -39q-55 0 -122 25t-105 25q-21 0 -39.5 -5t-28.5 -10t-24.5 -14t-20.5 -12q-9 -5 -13 -3.5t-7 11.5l-14 33q-4 9 4 14q71 53 135 53q44 0 118.5 -25.5t118.5 -25.5q20 0 38.5 4.5t29.5 10.5l33 18q11 6 15 4.5t9 -10.5l17 -37q6 -9 -10 -17z" />
    <glyph glyph-name="hungarumlaut" unicode="&#x2dd;" horiz-adv-x="712" 
d="M319 1491l43 -53q10 -13 -4 -27l-247 -233q-16 -13 -25 2l-18 26q-10 10 0 21l233 264q9 9 18 0zM600 1491l45 -53q6 -7 5 -12.5t-11 -14.5l-248 -233q-15 -12 -24 2l-17 26q-10 10 0 21l234 264q5 4 9.5 3.5t6.5 -3.5z" />
    <glyph glyph-name="gravecomb" unicode="&#x300;" horiz-adv-x="0" 
d="M-502 1497l482 -188l-21 -64l-489 160z" />
    <glyph glyph-name="acutecomb" unicode="&#x301;" horiz-adv-x="0" 
d="M-49 1497l29 -92l-490 -160l-20 64z" />
    <glyph glyph-name="uni0302" unicode="&#x302;" horiz-adv-x="0" 
d="M-133 1286l-152 123l-159 -123h-115l244 195h65l240 -195h-123z" />
    <glyph glyph-name="tildecomb" unicode="&#x303;" horiz-adv-x="0" 
d="M-37 1382q-61 -39 -133 -39q-55 0 -122 25t-105 25q-21 0 -39.5 -5t-28.5 -10t-24.5 -14t-20.5 -12q-9 -5 -13 -3.5t-7 11.5l-15 33q-4 9 4 14q71 53 135 53q44 0 119 -25.5t119 -25.5q20 0 38 5t29 10t33 18q17 10 25 -6l16 -37q6 -9 -10 -17z" />
    <glyph glyph-name="uni0304" unicode="&#x304;" horiz-adv-x="0" 
d="M-25 1442v-76h-501v76h501z" />
    <glyph glyph-name="uni0306" unicode="&#x306;" horiz-adv-x="0" 
d="M-20 1481q-19 -66 -88.5 -124.5t-178.5 -58.5t-174.5 55.5t-81.5 127.5h97q1 -1 6 -9.5t7.5 -12t9 -13t11 -14t13 -12.5t16 -13t18.5 -10.5t22.5 -9t26 -5.5t29.5 -2q101 0 166 101h101z" />
    <glyph glyph-name="uni0307" unicode="&#x307;" horiz-adv-x="0" 
d="M-25 1481v-195h-98v195h98z" />
    <glyph glyph-name="uni0308" unicode="&#x308;" horiz-adv-x="0" 
d="M-246 1481v-195h-98v195h98zM-23 1481v-195h-100v195h100z" />
    <glyph glyph-name="uni030A" unicode="&#x30a;" horiz-adv-x="0" 
d="M-23 1399q0 -85 -57.5 -142t-142.5 -57q-84 0 -141.5 58.5t-57.5 144.5q0 79 58.5 135.5t140.5 56.5q85 0 142.5 -56.5t57.5 -139.5zM-109 1399q0 52 -33 84.5t-83 32.5q-47 0 -82 -33t-35 -84q0 -47 35.5 -83t81.5 -36q49 0 82.5 35.5t33.5 83.5z" />
    <glyph glyph-name="uni030B" unicode="&#x30b;" horiz-adv-x="0" 
d="M-393 1491l43 -53q10 -13 -4 -27l-248 -233q-16 -13 -25 2l-18 26q-11 10 0 21l233 264q10 9 19 0zM-113 1491l45 -53q6 -7 5 -12.5t-11 -14.5l-248 -233q-15 -12 -24 2l-16 26q-10 10 0 21l233 264q5 4 9.5 3.5t6.5 -3.5z" />
    <glyph glyph-name="uni030C" unicode="&#x30c;" horiz-adv-x="0" 
d="M-133 1481h123l-240 -195h-65l-246 195h117l159 -123z" />
    <glyph glyph-name="uni030F" unicode="&#x30f;" horiz-adv-x="0" 
d="M-592 1501l252 -282l-35 -54l-278 260zM-311 1501l252 -282l-37 -54l-277 260z" />
    <glyph glyph-name="uni0311" unicode="&#x311;" horiz-adv-x="0" 
d="M16 1386h-100q-65 101 -166 101q-35 0 -62.5 -9t-47 -28t-27 -28.5t-19.5 -29.5q-3 -4 -4 -6h-96q16 72 81.5 127.5t174.5 55.5t178 -58.5t88 -124.5z" />
    <glyph glyph-name="dotbelowcomb" unicode="&#x323;" horiz-adv-x="0" 
d="M-25 -143v-162q0 -15 -4.5 -20t-17.5 -5h-59q-12 0 -16.5 4.5t-4.5 16.5v166q0 12 3.5 16t12.5 4h70q9 0 12.5 -4t3.5 -16z" />
    <glyph glyph-name="uni0326" unicode="&#x326;" horiz-adv-x="0" 
d="M-141 -471q-6 0 -9 5t0 11l50 107q9 18 -9 18h-16q-14 0 -14 19v131q0 16 12 16h90q12 0 12 -14v-152q0 -2 -1 -6.5t-1 -5.5l-61 -117q-7 -12 -29 -12h-24z" />
    <glyph glyph-name="uni0327" unicode="&#x327;" horiz-adv-x="0" 
d="M-25 -258q0 -72 -56 -111t-142 -39q-87 0 -154 48l23 57q48 -45 123 -45q118 0 118 86q0 47 -37 70t-116 26q-12 0 -8 8l73 168h68l-51 -127q86 -7 122.5 -46.5t36.5 -94.5z" />
    <glyph glyph-name="uni0328" unicode="&#x328;" horiz-adv-x="0" 
d="M-373 -180q0 69 50 118.5t171 84.5l68 -19q-106 -49 -153.5 -90.5t-47.5 -97.5q0 -84 115 -84q83 0 131 24q14 8 14 -6v-39q0 -11 -10 -16q-64 -31 -155 -31t-137 42.5t-46 113.5z" />
    <glyph glyph-name="uni0394" unicode="&#x394;" horiz-adv-x="1280" 
d="M84 0v98l510 1385l96 -2l506 -1377v-104h-1112zM170 84h942l-471 1292z" />
    <glyph glyph-name="uni03A9" unicode="&#x3a9;" horiz-adv-x="1540" 
d="M768 1415q-105 0 -192.5 -35t-148 -93.5t-102.5 -137.5t-61.5 -165.5t-19.5 -178.5q0 -81 17 -157t41.5 -134.5t64 -116.5t73.5 -96.5t81.5 -80.5t76 -64t68.5 -50q20 -13 20 -47v-59h-467v84h350q-2 1 -31.5 22.5t-55 41t-67.5 59t-76 79.5t-71.5 99.5t-63 121.5
t-42.5 142.5t-17 165.5q0 108 25.5 208.5t78 187.5t125.5 151.5t174.5 101.5t219.5 37q146 0 266.5 -57t197.5 -152.5t119 -218t42 -256.5q0 -93 -19.5 -180.5t-53.5 -155.5t-71.5 -124.5t-82 -101.5t-76 -73t-62.5 -51t-33 -25q-11 -10 -7.5 -16t16.5 -6h315v-84h-469v90
q44 31 72.5 52.5t80 65.5t86 83t77 98.5t68 119t43 137t17.5 159.5q0 92 -19.5 178.5t-62 165.5t-103 137.5t-148.5 93.5t-193 35z" />
    <glyph glyph-name="uni03BC" unicode="&#x3bc;" horiz-adv-x="1153" 
d="M516 55q174 0 385 211v793h80v-1059h-74v164q-128 -102 -211.5 -143t-175.5 -41q-158 0 -252 94v-404h-80v1389h80v-785q0 -88 73 -153.5t175 -65.5z" />
    <glyph glyph-name="pi" unicode="&#x3c0;" horiz-adv-x="1320" 
d="M1257 989h-268v-989h-80l-2 989h-547q0 -296 -34 -566.5t-86 -422.5h-68q49 188 82 442.5t33 526.5q0 20 -17 20h-207v70h1194v-70z" />
    <glyph glyph-name="uni1E0C" unicode="&#x1e0c;" horiz-adv-x="1380" 
d="M225 1481h15t38 -0.5t53.5 -1t67.5 -0.5h72q408 -1 590 -176.5t182 -550.5q0 -390 -195 -571t-606 -181h-217v1481zM313 1397v-1313h123q183 0 315 35t224.5 113t137 204.5t44.5 306.5q0 151 -31 263.5t-87.5 187t-145.5 120t-196 64.5t-248 19h-136zM743 -143v-162
q0 -15 -4.5 -20t-17.5 -5h-59q-12 0 -16.5 4.5t-4.5 16.5v166q0 12 3.5 16t12.5 4h70q9 0 12.5 -4t3.5 -16z" />
    <glyph glyph-name="uni1E0D" unicode="&#x1e0d;" horiz-adv-x="1159" 
d="M561 -20q-198 0 -314 135.5t-116 394.5t119.5 414t335.5 155q91 0 164.5 -32t156.5 -99v574h80v-1522h-76v199q-105 -219 -350 -219zM571 55q69 0 133.5 27.5t107.5 69.5t69 92t26 96v510q-154 151 -319 151q-175 0 -274 -128t-99 -355q0 -228 98 -345.5t258 -117.5z
M641 -143v-162q0 -15 -4.5 -20t-18.5 -5h-59q-12 0 -16 4.5t-4 16.5v166q0 12 3.5 16t12.5 4h70q9 0 12.5 -4t3.5 -16z" />
    <glyph glyph-name="uni1E24" unicode="&#x1e24;" horiz-adv-x="1417" 
d="M1122 729h-817v-729h-80v1481h80v-668h817v668h80v-1481h-80v729zM766 -143v-162q0 -15 -4.5 -20t-18.5 -5h-59q-12 0 -16 4.5t-4 16.5v166q0 12 3.5 16t12.5 4h70q9 0 12.5 -4t3.5 -16z" />
    <glyph glyph-name="uni1E25" unicode="&#x1e25;" 
d="M188 0v1522h74v-621q43 78 138.5 128t220.5 50q159 0 263.5 -82.5t104.5 -212.5v-784h-80v754q0 116 -77.5 181.5t-213.5 65.5q-151 0 -250.5 -68t-99.5 -196v-737h-80zM662 -143v-162q0 -15 -4.5 -20t-18.5 -5h-59q-12 0 -16.5 4.5t-4.5 16.5v166q0 12 3.5 16t12.5 4h70
q17 0 17 -20z" />
    <glyph glyph-name="uni1E44" unicode="&#x1e44;" horiz-adv-x="1476" 
d="M821 1903v-195h-98v195h98zM1182 1481h80v-1481h-70l-887 1317v-1317h-80v1481h66l891 -1321v1321z" />
    <glyph glyph-name="uni1E45" unicode="&#x1e45;" 
d="M659 1481v-195h-98v195h98zM188 0v1059h74v-158q43 78 137.5 128t218.5 50q167 0 269 -99.5t102 -293.5v-686h-80v686q0 152 -77 233.5t-214 81.5q-151 0 -250.5 -68t-99.5 -196v-737h-80z" />
    <glyph glyph-name="uni1E5A" unicode="&#x1e5a;" horiz-adv-x="1359" 
d="M1194 0h-92l-299 705h-498v-705h-80v1481h523q218 0 336 -93t118 -274q0 -72 -19.5 -132.5t-50 -102t-73 -74t-84.5 -51.5t-88 -31zM678 788q219 0 328.5 74t109.5 238q0 155 -93 227t-278 72h-440v-611h373zM719 -143v-162q0 -15 -4.5 -20t-18.5 -5h-59q-12 0 -16.5 4.5
t-4.5 16.5v166q0 20 17 20h69q17 0 17 -20z" />
    <glyph glyph-name="uni1E5B" unicode="&#x1e5b;" horiz-adv-x="761" 
d="M188 0v1059h74v-191q60 90 178.5 150.5t225.5 60.5v-82q-88 1 -181.5 -43.5t-155 -115t-61.5 -138.5v-700h-80zM279 -143v-162q0 -15 -4.5 -20t-18.5 -5h-59q-12 0 -16.5 4.5t-4.5 16.5v166q0 20 17 20h69q17 0 17 -20z" />
    <glyph glyph-name="uni1E62" unicode="&#x1e62;" horiz-adv-x="1392" 
d="M698 -20q-209 0 -363.5 97.5t-187.5 264.5l86 18q32 -144 162.5 -222.5t302.5 -78.5q193 0 316 84t123 215q0 255 -271 322l-329 82q-170 43 -256 121.5t-86 206.5q0 177 137 293t358 116q122 0 217.5 -32t155 -88t92.5 -124.5t41 -148.5l-82 -16q-15 88 -55.5 152.5
t-99.5 101t-126.5 54t-146.5 17.5q-54 0 -109.5 -11.5t-108.5 -37.5t-94 -63t-66 -91.5t-25 -119.5q0 -98 69 -159t240 -106l315 -82q165 -43 241.5 -145t76.5 -238q0 -165 -137.5 -273.5t-389.5 -108.5zM725 -143v-162q0 -15 -4.5 -20t-18.5 -5h-59q-12 0 -16 4.5t-4 16.5
v166q0 12 3.5 16t12.5 4h70q9 0 12.5 -4t3.5 -16z" />
    <glyph glyph-name="uni1E63" unicode="&#x1e63;" horiz-adv-x="1046" 
d="M532 -20q-163 0 -280.5 83.5t-134.5 219.5h86q27 -113 113 -170.5t216 -57.5q133 0 215 57.5t82 159.5q0 72 -44 117t-134 70l-245 69q-123 34 -186.5 93.5t-63.5 160.5q0 74 33.5 132.5t88 93.5t119.5 53t133 18q156 0 252 -85.5t103 -194.5h-88q-12 95 -85.5 148.5
t-181.5 53.5q-48 0 -95.5 -11t-93 -34.5t-73.5 -68.5t-28 -105q0 -69 47 -110.5t141 -67.5l252 -69q231 -63 231 -259q0 -94 -54 -162.5t-138.5 -101t-186.5 -32.5zM555 -143v-162q0 -15 -4.5 -20t-18.5 -5h-59q-12 0 -16 4.5t-4 16.5v166q0 12 3.5 16t12.5 4h70
q9 0 12.5 -4t3.5 -16z" />
    <glyph glyph-name="uni1E6C" unicode="&#x1e6c;" horiz-adv-x="1124" 
d="M35 1399v82h1055v-82h-467v-1399h-80v1399h-508zM637 -143v-162q0 -15 -4.5 -20t-18.5 -5h-59q-12 0 -16 4.5t-4 16.5v166q0 12 3.5 16t12.5 4h70q9 0 12.5 -4t3.5 -16z" />
    <glyph glyph-name="uni1E6D" unicode="&#x1e6d;" horiz-adv-x="776" 
d="M635 989h-244v-741q0 -104 29 -141t94 -37h135v-60q-34 -10 -129 -10q-118 0 -163.5 54t-45.5 184v751h-172v70h172v297h80v-297h244v-70zM600 -143v-162q0 -15 -4.5 -20t-17.5 -5h-60q-12 0 -16 4.5t-4 16.5v166q0 12 3.5 16t12.5 4h70q9 0 12.5 -4t3.5 -16z" />
    <glyph glyph-name="Wgrave" unicode="&#x1e80;" horiz-adv-x="1937" 
d="M717 1919l481 -188l-20 -64l-490 160zM1874 1481l-426 -1481h-113l-370 1327l-379 -1327h-107l-416 1481h91l378 -1381l394 1381h80l387 -1381l393 1381h88z" />
    <glyph glyph-name="wgrave" unicode="&#x1e81;" horiz-adv-x="1630" 
d="M561 1497l481 -188l-20 -64l-490 160zM1528 1059l-293 -1059h-135l-285 922l-262 -922h-139l-312 1059h86l283 -971h25l282 971h74l299 -967h25l268 967h84z" />
    <glyph glyph-name="Wacute" unicode="&#x1e82;" horiz-adv-x="1937" 
d="M1204 1919l29 -92l-490 -160l-20 64zM1874 1481l-426 -1481h-113l-370 1327l-379 -1327h-107l-416 1481h91l378 -1381l394 1381h80l387 -1381l393 1381h88z" />
    <glyph glyph-name="wacute" unicode="&#x1e83;" horiz-adv-x="1630" 
d="M1049 1497l28 -92l-489 -160l-21 64zM1528 1059l-293 -1059h-135l-285 922l-262 -922h-139l-312 1059h86l283 -971h25l282 971h74l299 -967h25l268 967h84z" />
    <glyph glyph-name="Wdieresis" unicode="&#x1e84;" horiz-adv-x="1937" 
d="M915 1903v-195h-98v195h98zM1139 1903v-195h-101v195h101zM1874 1481l-426 -1481h-113l-370 1327l-379 -1327h-107l-416 1481h91l378 -1381l394 1381h80l387 -1381l393 1381h88z" />
    <glyph glyph-name="wdieresis" unicode="&#x1e85;" horiz-adv-x="1630" 
d="M760 1481v-195h-98v195h98zM983 1481v-195h-100v195h100zM1528 1059l-293 -1059h-135l-285 922l-262 -922h-139l-312 1059h86l283 -971h25l282 971h74l299 -967h25l268 967h84z" />
    <glyph glyph-name="uni1E92" unicode="&#x1e92;" horiz-adv-x="1212" 
d="M119 0v63l870 1338h-852v80h957v-62l-875 -1339h875v-80h-975zM682 -143v-162q0 -15 -4.5 -20t-18.5 -5h-59q-12 0 -16 4.5t-4 16.5v166q0 12 3.5 16t12.5 4h70q9 0 12.5 -4t3.5 -16z" />
    <glyph glyph-name="uni1E93" unicode="&#x1e93;" horiz-adv-x="890" 
d="M113 0v78l667 911h-624v70h708v-84l-663 -905h678v-70h-766zM524 -143v-162q0 -15 -4.5 -20t-17.5 -5h-60q-12 0 -16 4.5t-4 16.5v166q0 12 3.5 16t12.5 4h70q9 0 12.5 -4t3.5 -16z" />
    <glyph glyph-name="uni1EB8" unicode="&#x1eb8;" horiz-adv-x="1253" 
d="M225 0v1481h850v-82h-770v-608h717v-84h-717v-621l799 -2v-84h-879zM768 -143v-162q0 -15 -4.5 -20t-18.5 -5h-59q-12 0 -16 4.5t-4 16.5v166q0 12 3.5 16t12.5 4h70q9 0 12.5 -4t3.5 -16z" />
    <glyph glyph-name="uni1EB9" unicode="&#x1eb9;" horiz-adv-x="1157" 
d="M217 508q0 -92 22.5 -171.5t67.5 -142.5t119.5 -99t171.5 -36q123 0 204.5 58.5t115.5 165.5h86q-42 -154 -149.5 -228.5t-256.5 -74.5q-211 0 -339 142.5t-128 397.5q0 263 119.5 411t335.5 148q203 0 316.5 -134t113.5 -378v-59h-799zM219 588h713q0 186 -88 298.5
t-260 112.5q-93 0 -165.5 -36t-115 -95.5t-64 -131t-20.5 -148.5zM618 -143v-162q0 -15 -4.5 -20t-17.5 -5h-59q-12 0 -16.5 4.5t-4.5 16.5v166q0 12 3.5 16t12.5 4h70q9 0 12.5 -4t3.5 -16z" />
    <glyph glyph-name="uni1EBC" unicode="&#x1ebc;" horiz-adv-x="1253" 
d="M930 1804q-61 -39 -133 -39q-55 0 -122.5 25t-105.5 25q-27 0 -45.5 -5.5t-42 -20.5t-24.5 -15q-9 -5 -13.5 -3.5t-7.5 11.5l-14 33q-4 9 4 14q71 53 135 53q44 0 119 -25.5t119 -25.5q20 0 38 5t29 10t33 18q17 10 25 -6l16 -37q6 -9 -10 -17zM225 0v1481h850v-82h-770
v-608h717v-84h-717v-621l799 -2v-84h-879z" />
    <glyph glyph-name="uni1EBD" unicode="&#x1ebd;" horiz-adv-x="1157" 
d="M836 1382q-61 -39 -134 -39q-55 0 -122 25t-105 25q-21 0 -39.5 -5t-28.5 -10t-24.5 -14t-20.5 -12q-9 -5 -13 -3.5t-7 11.5l-14 33q-4 9 4 14q71 53 135 53q44 0 119 -25.5t119 -25.5q20 0 38 5t29 10t33 18q11 6 15 4.5t9 -10.5l17 -37q6 -9 -10 -17zM217 508
q0 -92 22.5 -171.5t67.5 -142.5t119.5 -99t171.5 -36q123 0 204.5 58.5t115.5 165.5h86q-42 -154 -149.5 -228.5t-256.5 -74.5q-211 0 -339 142.5t-128 397.5q0 263 119.5 411t335.5 148q203 0 316.5 -134t113.5 -378v-59h-799zM219 588h713q0 186 -88 298.5t-260 112.5
q-93 0 -165.5 -36t-115 -95.5t-64 -131t-20.5 -148.5z" />
    <glyph glyph-name="uni1ECA" unicode="&#x1eca;" horiz-adv-x="520" 
d="M225 1481h80v-1481h-80v1481zM319 -143v-162q0 -15 -4.5 -20t-17.5 -5h-59q-12 0 -16.5 4.5t-4.5 16.5v166q0 12 3.5 16t12.5 4h70q9 0 12.5 -4t3.5 -16z" />
    <glyph glyph-name="uni1ECB" unicode="&#x1ecb;" horiz-adv-x="546" 
d="M299 1522v-197h-98v197h98zM291 1059v-1059h-80v1059h80zM346 -143v-162q0 -15 -4.5 -20t-17.5 -5h-60q-12 0 -16 4.5t-4 16.5v166q0 12 3.5 16t12.5 4h70q9 0 12.5 -4t3.5 -16z" />
    <glyph glyph-name="uni1ECC" unicode="&#x1ecc;" horiz-adv-x="1497" 
d="M750 -20q-286 0 -444.5 194t-158.5 559q0 371 160 569.5t445 198.5q283 0 440.5 -197t157.5 -567q0 -367 -158 -562t-442 -195zM754 63q506 0 506 674q0 339 -129.5 509.5t-378.5 170.5q-250 0 -382 -171t-132 -509q0 -336 132 -505t384 -169zM805 -143v-162
q0 -15 -4.5 -20t-18.5 -5h-59q-12 0 -16.5 4.5t-4.5 16.5v166q0 20 17 20h69q17 0 17 -20z" />
    <glyph glyph-name="uni1ECD" unicode="&#x1ecd;" horiz-adv-x="1148" 
d="M575 -20q-217 0 -336.5 147.5t-119.5 394.5q0 250 122 403.5t337 153.5q212 0 332 -152.5t120 -400.5t-120 -397t-335 -149zM580 55q180 0 273 126t93 345t-94.5 347t-273.5 128q-180 0 -277.5 -128.5t-97.5 -346.5q0 -216 97.5 -343.5t279.5 -127.5zM625 -143v-162
q0 -15 -4.5 -20t-18.5 -5h-59q-12 0 -16.5 4.5t-4.5 16.5v166q0 20 17 20h69q17 0 17 -20z" />
    <glyph glyph-name="uni1EE4" unicode="&#x1ee4;" horiz-adv-x="1378" 
d="M1214 459q0 -241 -121.5 -360t-369.5 -119q-252 0 -371 124t-119 385v992h89v-1026q0 -398 401 -398q205 0 308.5 100.5t103.5 297.5v1026h79v-1022zM739 -143v-162q0 -15 -4.5 -20t-17.5 -5h-60q-12 0 -16 4.5t-4 16.5v166q0 12 3.5 16t12.5 4h70q9 0 12.5 -4t3.5 -16z
" />
    <glyph glyph-name="uni1EE5" unicode="&#x1ee5;" 
d="M588 -18q-56 1 -109.5 12t-107 38.5t-93.5 69t-65 107t-25 147.5v707h80v-707q0 -67 20.5 -120t52.5 -85.5t75 -54t83.5 -29.5t82.5 -8q63 0 120.5 19.5t103.5 57t74 99t29 138.5v690h80v-1061h-74v215q-25 -119 -114 -178t-213 -57zM637 -143v-162q0 -15 -4.5 -20
t-18.5 -5h-59q-12 0 -16 4.5t-4 16.5v166q0 12 3.5 16t12.5 4h70q9 0 12.5 -4t3.5 -16z" />
    <glyph glyph-name="Ygrave" unicode="&#x1ef2;" horiz-adv-x="1112" 
d="M287 1919l481 -188l-20 -64l-490 160zM1087 1481l-487 -844v-637h-80v639l-495 842h90l446 -762l438 762h88z" />
    <glyph glyph-name="ygrave" unicode="&#x1ef3;" horiz-adv-x="1054" 
d="M270 1497l482 -188l-21 -64l-489 160zM238 -338q-45 0 -77 4t-41 8l-9 4v56h112q91 0 140 34t75 97l54 141l-414 1053h86l371 -944l364 944h78l-463 -1213q-73 -184 -276 -184z" />
    <glyph glyph-name="uni1EF8" unicode="&#x1ef8;" horiz-adv-x="1112" 
d="M799 1804q-61 -39 -133 -39q-55 0 -122.5 25t-105.5 25q-27 0 -45.5 -5.5t-42 -20.5t-24.5 -15q-9 -5 -13.5 -3.5t-7.5 11.5l-14 33q-4 9 4 14q71 53 135 53q44 0 119 -25.5t119 -25.5q20 0 38 5t29 10t33 18q17 10 25 -6l16 -37q6 -9 -10 -17zM1087 1481l-487 -844v-637
h-80v639l-495 842h90l446 -762l438 762h88z" />
    <glyph glyph-name="uni1EF9" unicode="&#x1ef9;" horiz-adv-x="1054" 
d="M782 1382q-61 -39 -133 -39q-55 0 -122 25t-105 25q-21 0 -39.5 -5t-28.5 -10t-24.5 -14t-20.5 -12q-9 -5 -13 -3.5t-7 11.5l-15 33q-4 8 5 14q71 53 135 53q44 0 118.5 -25.5t118.5 -25.5q20 0 38.5 4.5t29.5 10.5l33 18q11 6 15 4.5t9 -10.5l17 -37q6 -9 -11 -17z
M238 -338q-45 0 -77 4t-41 8l-9 4v56h112q91 0 140 34t75 97l54 141l-414 1053h86l371 -944l364 944h78l-463 -1213q-73 -184 -276 -184z" />
    <glyph glyph-name="endash" unicode="&#x2013;" horiz-adv-x="1087" 
d="M944 559v-80l-801 -2v80z" />
    <glyph glyph-name="emdash" unicode="&#x2014;" horiz-adv-x="1728" 
d="M1585 559v-80l-1442 -2v80z" />
    <glyph glyph-name="quoteleft" unicode="&#x2018;" horiz-adv-x="454" 
d="M342 1548l-109 -229h72v-162h-170v139l141 252h66z" />
    <glyph glyph-name="quoteright" unicode="&#x2019;" horiz-adv-x="385" 
d="M104 1090l109 229h-72v162h170v-140l-141 -251h-66z" />
    <glyph glyph-name="quotesinglbase" unicode="&#x201a;" horiz-adv-x="428" 
d="M96 -227l109 227h-72v164h170v-139l-141 -252h-66z" />
    <glyph glyph-name="quotedblleft" unicode="&#x201c;" horiz-adv-x="737" 
d="M133 1090v141l143 250h66l-111 -228h72v-163h-170zM426 1090v141l141 250h66l-111 -228h74v-163h-170z" />
    <glyph glyph-name="quotedblright" unicode="&#x201d;" horiz-adv-x="737" 
d="M104 1090l109 229h-72v162h170v-140l-141 -251h-66zM395 1090l111 229h-72v162h168v-140l-141 -251h-66z" />
    <glyph glyph-name="quotedblbase" unicode="&#x201e;" horiz-adv-x="741" 
d="M100 -227l109 227h-72v164h170v-139l-141 -252h-66zM399 -227l109 227h-72v164h170v-139l-141 -252h-66z" />
    <glyph glyph-name="dagger" unicode="&#x2020;" horiz-adv-x="815" 
d="M811 930v-94l-369 12l21 -1178h-107l19 1178l-371 -12v94l365 -10l-13 561h107l-14 -561z" />
    <glyph glyph-name="daggerdbl" unicode="&#x2021;" horiz-adv-x="815" 
d="M442 848v-545l369 14v-96l-362 10l14 -561h-107l13 561l-365 -10v96l371 -14v545l-371 -12v94l365 -10l-13 561h107l-14 -561l362 10v-94z" />
    <glyph glyph-name="bullet" unicode="&#x2022;" horiz-adv-x="595" 
d="M297 608q-60 0 -101.5 43t-41.5 103t41.5 101.5t101.5 41.5t101.5 -41.5t41.5 -101.5t-41.5 -103t-101.5 -43z" />
    <glyph glyph-name="ellipsis" unicode="&#x2026;" horiz-adv-x="1329" 
d="M262 158v-158h-125v158h125zM733 158v-158h-125v158h125zM1204 158v-158h-125v158h125z" />
    <glyph glyph-name="perthousand" unicode="&#x2030;" horiz-adv-x="2594" 
d="M461 1503q147 0 235 -110t88 -314q0 -205 -88 -315.5t-235 -110.5t-237.5 110.5t-90.5 315.5q0 203 90.5 313.5t237.5 110.5zM1479 1497l-996 -1505h-80l1000 1505h76zM459 713q116 0 186 102t70 264q0 160 -70 262.5t-186 102.5q-115 0 -185.5 -103t-70.5 -262
q0 -160 70 -263t186 -103zM1343 831q146 0 235 -110.5t89 -312.5q0 -207 -88.5 -317.5t-235.5 -110.5t-237 111t-90 317q0 202 90 312.5t237 110.5zM2136 831q146 0 235 -110.5t89 -312.5q0 -207 -88.5 -317.5t-235.5 -110.5q-148 0 -238 111t-90 317q0 202 90.5 312.5
t237.5 110.5zM1341 41q111 0 183.5 105t72.5 260t-72.5 259.5t-183.5 104.5t-183.5 -105t-72.5 -259q0 -155 72.5 -260t183.5 -105zM2134 41q111 0 183.5 105t72.5 260t-72.5 259.5t-183.5 104.5t-183.5 -105t-72.5 -259q0 -155 72.5 -260t183.5 -105z" />
    <glyph glyph-name="guilsinglleft" unicode="&#x2039;" horiz-adv-x="514" 
d="M174 514l242 -358h-56l-292 358l294 375h58z" />
    <glyph glyph-name="guilsinglright" unicode="&#x203a;" horiz-adv-x="516" 
d="M342 514l-246 375h56l294 -375l-292 -358h-54z" />
    <glyph glyph-name="fraction" unicode="&#x2044;" horiz-adv-x="509" 
d="M791 1497l-996 -1505h-80l1000 1505h76z" />
    <glyph glyph-name="uni2070" unicode="&#x2070;" horiz-adv-x="831" 
d="M371 1729q142 0 232.5 -123.5t90.5 -358.5q0 -232 -90.5 -353.5t-234.5 -121.5t-234 120.5t-90 352.5q0 235 91 359.5t235 124.5zM371 823q123 0 194.5 105t71.5 319q0 216 -72.5 322t-193.5 106q-122 0 -196.5 -106.5t-74.5 -321.5q0 -212 74.5 -318t196.5 -106z" />
    <glyph glyph-name="uni2074" unicode="&#x2074;" horiz-adv-x="831" 
d="M506 1710h57v-610h148v-53h-148v-269h-51v269h-449v63zM119 1100h387v524z" />
    <glyph glyph-name="uni2075" unicode="&#x2075;" horiz-adv-x="800" 
d="M154 1710h526l-6 -51h-465l-31 -379q43 26 69.5 40t73.5 27t99 13q59 0 110.5 -15.5t95 -47t68.5 -87t25 -127.5q0 -147 -97 -232t-247 -85q-178 0 -303 125l37 39q64 -60 119 -87.5t137 -27.5q139 0 219 73.5t80 192.5q0 115 -70.5 172.5t-173.5 57.5q-114 0 -250 -90
q-9 -5 -12 -2l-4 4l-35 22z" />
    <glyph glyph-name="uni2076" unicode="&#x2076;" horiz-adv-x="806" 
d="M395 1743q169 0 250 -135l-35 -39q-21 30 -37.5 48.5t-42 38t-59 29t-76.5 9.5q-150 0 -227 -140.5t-68 -414.5q20 94 96 150.5t177 56.5q135 0 209.5 -80.5t74.5 -200.5q0 -128 -82.5 -203.5t-209.5 -75.5q-152 0 -238 122.5t-86 346.5q0 229 93 358.5t261 129.5z
M379 1294q-109 0 -181.5 -56t-72.5 -155q49 -243 244 -243q101 0 166 62.5t65 160.5q0 94 -60 162.5t-161 68.5z" />
    <glyph glyph-name="uni2077" unicode="&#x2077;" horiz-adv-x="729" 
d="M72 1710h614v-51q-127 -187 -242 -458.5t-147 -422.5h-59q39 169 139.5 416t238.5 465h-544v51z" />
    <glyph glyph-name="uni2078" unicode="&#x2078;" horiz-adv-x="800" 
d="M375 1731q129 0 206.5 -69.5t77.5 -184.5q0 -26 -5.5 -51.5t-14 -44.5t-21.5 -37.5t-24.5 -30.5t-26.5 -24.5t-23.5 -18.5t-19.5 -13t-12 -8q71 -23 106 -50q82 -62 82 -177q0 -112 -89.5 -180t-237.5 -68q-152 0 -237 64.5t-85 179.5q0 29 7.5 58t25 63.5t54.5 67
t89 57.5q-19 6 -39 16.5t-48 33.5t-46 64.5t-18 94.5q0 110 85.5 184t213.5 74zM375 1677q-103 0 -172.5 -58.5t-69.5 -145.5q0 -139 156 -170l147 -33q41 -8 103.5 62.5t62.5 150.5q0 89 -62 141.5t-165 52.5zM373 825q123 0 196.5 55t73.5 146q0 70 -37.5 111.5
t-116.5 60.5l-190 41q-26 6 -70.5 -20t-82 -81.5t-37.5 -117.5q0 -91 70 -143t194 -52z" />
    <glyph glyph-name="uni2079" unicode="&#x2079;" horiz-adv-x="806" 
d="M305 776q-169 0 -250 135l37 39q22 -31 37.5 -48.5t41 -37.5t58.5 -29.5t76 -9.5q150 0 227 140t70 415q-22 -94 -97.5 -151.5t-174.5 -57.5q-135 0 -210 80.5t-75 202.5q0 128 82.5 203.5t210.5 75.5q152 0 238 -121.5t86 -345.5q0 -230 -94 -360t-263 -130zM324 1225
q106 0 180 59t74 152q-52 243 -244 243q-101 0 -166.5 -62.5t-65.5 -160.5q0 -95 60 -163t162 -68z" />
    <glyph glyph-name="colonmonetary" unicode="&#x20a1;" horiz-adv-x="1173" 
d="M610 266q114 0 198.5 57.5t109.5 170.5h86q-32 -143 -127 -216t-224 -85l-53 -193h-84l51 193q-49 3 -104 16l-55 -209h-86l65 242q-117 63 -180.5 191.5t-63.5 301.5q0 219 97.5 366.5t269.5 180.5l53 199h86l-51 -191h4q45 0 100 -10l56 201h84l-62 -224
q85 -34 144 -101.5t80 -168.5l-86 -4q-23 81 -71 133.5t-106.5 74t-128.5 21.5q-177 0 -281 -129.5t-104 -343.5q0 -216 102.5 -344.5t280.5 -128.5z" />
    <glyph glyph-name="franc" unicode="&#x20a3;" horiz-adv-x="1220" 
d="M1096 1401h-789v-639h729v-80h-729v-305l363 2v-76l-363 -2v-301h-92v301h-199v76h199v1104h881v-80z" />
    <glyph glyph-name="lira" unicode="&#x20a4;" horiz-adv-x="1200" 
d="M1079 219q-91 -219 -368 -219h-682v78h84q83 -2 138.5 87.5t55.5 262.5q0 12 -4 86q-3 10 -16 10h-224v76h228l-39 225h-189v76h175l-9 43q-23 125 -12 219t41.5 158.5t85 104.5t119 57.5t143.5 17.5q121 0 224.5 -59t134.5 -133l-76 -39q-77 145 -279 145
q-136 0 -226.5 -75.5t-90.5 -206.5q0 -45 29 -215q3 -17 20 -17l369 2v-76l-375 -2l39 -225l336 2v-76h-324q11 -118 -17 -242.5t-96 -203.5h437q115 0 187.5 39t107.5 131z" />
    <glyph glyph-name="uni20A6" unicode="&#x20a6;" horiz-adv-x="1423" 
d="M1407 889h-135v-244h135v-76h-135v-569h-70l-383 569l-504 -2v-567h-79v567h-220v76h220v244h-220v76h220v518h65l348 -518l543 2v516h80v-516h135v-76zM315 1317v-354h238zM1192 645v244l-492 -2l164 -242h328zM315 643l453 2l-164 242h-289v-244zM1192 160v409h-277z
" />
    <glyph glyph-name="uni20A9" unicode="&#x20a9;" horiz-adv-x="1988" 
d="M1964 889h-250l-69 -244h319v-76h-342l-164 -569h-112l-160 569l-428 -2l-162 -567h-107l-159 567h-289v76h268l-69 244h-199v76h178l-145 518h90l141 -518h483l148 518h80l145 -516h488l147 516h88l-149 -516h229v-76zM975 1327l-105 -364l207 2zM1559 645l69 244h-446
l69 -244h308zM780 643l385 2l-67 244l-248 -2zM328 887l65 -244h305l68 244h-438zM1403 100l133 469h-264zM543 100l133 467h-262z" />
    <glyph glyph-name="dong" unicode="&#x20ab;" horiz-adv-x="991" 
d="M829 1337h127v-69h-127v-1000h-71v131q-1 -1 -10 -12.5t-13.5 -16.5t-16.5 -18t-21 -20t-25 -19t-30 -19.5t-34 -16t-40 -13.5t-45 -8.5t-52 -3.5q-163 0 -270 112.5t-107 319.5q0 210 108.5 338.5t286.5 128.5q60 0 110.5 -17t73 -33t58.5 -46q15 -11 19 -8.5t4 18.5
v203h-312v69h312v142h75v-142zM748 545v409q-115 115 -252 115q-138 0 -224 -101.5t-86 -277.5t86 -268t215 -92q109 0 185 69.5t76 145.5zM133 0v70h707v-70h-707z" />
    <glyph glyph-name="Euro" unicode="&#x20ac;" horiz-adv-x="1140" 
d="M1010 141l49 -69q-142 -92 -309 -92q-250 0 -403 146.5t-191 420.5h-187v76h178q-4 74 -4 112q0 59 7 131h-181v76h189q43 268 192.5 413.5t386.5 145.5q166 0 312 -100l-58 -78q-120 92 -250 92q-202 0 -325 -120t-160 -353l467 2v-76l-475 -2q-6 -61 -6 -131
q0 -38 4 -112l477 2v-76l-469 -2q34 -236 160 -358.5t344 -122.5q140 0 252 75z" />
    <glyph glyph-name="uni20B9" unicode="&#x20b9;" horiz-adv-x="1083" 
d="M1051 1483v-76h-303q125 -81 137 -244h166v-76h-166q-19 -252 -301 -337q-13 -3 -9 -15l269 -735h-101l-268 729h-471v80h356q208 0 312 64.5t114 213.5l-778 -2v76l778 2q-21 238 -356 238h-426v80z" />
    <glyph glyph-name="uni20BA" unicode="&#x20ba;" horiz-adv-x="991" 
d="M883 457l86 -23q-66 -212 -207 -323t-328 -111h-219v463l-147 -53l-29 86l176 63v238l-147 -54l-29 86l176 64v588h92v-553l305 110l33 -86l-338 -123v-235l305 111l33 -87l-338 -122v-416h125q160 0 268.5 88.5t182.5 288.5z" />
    <glyph glyph-name="uni2113" unicode="&#x2113;" horiz-adv-x="911" 
d="M295 412q0 -136 21.5 -213.5t63 -108.5t112.5 -31q52 0 98 17l-92 -96q-75 0 -129.5 27t-82 66.5t-44 91t-20 92t-5 79.5t-2.5 45q-2 11 -12 4l-101 -72l-43 68l156 111v571q0 110 24.5 195.5t66.5 137.5t96 78.5t116 26.5q116 0 182 -83t66 -218q0 -62 -16.5 -126
t-40 -118t-65 -116t-76 -106.5t-90.5 -104t-90.5 -94t-92.5 -89.5v-34zM295 997v-446q51 44 97.5 90.5t103 116t97 139.5t68 156.5t27.5 169.5q0 95 -44 144.5t-128 49.5q-111 0 -166 -96t-55 -324zM590 76l158 168l-11 -17q-25 -40 -41 -62.5t-44.5 -48.5t-61.5 -40z" />
    <glyph glyph-name="uni2116" unicode="&#x2116;" horiz-adv-x="2326" 
d="M1901 1499q141 0 224 -94.5t83 -251.5q0 -153 -80.5 -246.5t-226.5 -93.5t-226 93.5t-80 246.5q0 156 83 251t223 95zM1182 1481h80v-1481h-70l-887 1317v-1317h-80v1481h66l891 -1321v1321zM1901 1430q-108 0 -166 -74t-58 -197q0 -130 58 -205t166 -75t166.5 75
t58.5 205q0 123 -58.5 197t-166.5 74z" />
    <glyph glyph-name="uni2117" unicode="&#x2117;" horiz-adv-x="1665" 
d="M834 -20q-208 0 -383 101t-277 276.5t-102 383.5q0 154 60 294.5t162 242.5t243.5 162.5t296.5 60.5q154 0 294.5 -60.5t242 -162.5t162 -242.5t60.5 -294.5q0 -156 -60 -297.5t-162 -242.5t-242.5 -161t-294.5 -60zM834 68q132 0 253 48t213.5 134t147.5 213.5t55 277.5
q0 147 -55 274.5t-147.5 214t-214 136t-252.5 49.5q-135 0 -257.5 -49.5t-214.5 -136t-146 -214t-54 -274.5q0 -199 93 -354.5t245 -237t334 -81.5zM1147 930q0 -123 -77 -187.5t-204 -64.5h-204v-342h-80v799h278q132 0 209.5 -51t77.5 -154zM1065 909q0 85 -55 119.5
t-152 34.5h-196v-313h204q87 0 143 40t56 119z" />
    <glyph glyph-name="uni2120" unicode="&#x2120;" horiz-adv-x="1961" 
d="M436 -12q-130 0 -226.5 60.5t-117.5 164.5l53 12q21 -90 102.5 -139t188.5 -49q121 0 198 52t77 134q0 159 -170 203l-205 51q-106 26 -160.5 75t-54.5 130q0 110 86 183t225 73q147 0 226.5 -70.5t89.5 -175.5l-52 -10q-18 106 -91 154.5t-177 48.5q-43 0 -86 -12.5
t-81 -36t-61.5 -64t-23.5 -90.5q0 -61 43.5 -99t151.5 -65l196 -51q103 -28 151 -92t48 -148q0 -103 -86 -171t-244 -68zM1012 0v926h55l348 -869l352 869h54v-926h-54v788l-315 -788h-74l-311 778v-778h-55z" />
    <glyph glyph-name="trademark" unicode="&#x2122;" horiz-adv-x="1794" 
d="M23 874v52h659v-52h-293v-874h-49v874h-317zM844 0v926h55l348 -869l352 869h54v-926h-54v788l-315 -788h-74l-311 778v-778h-55z" />
    <glyph glyph-name="uni2153" unicode="&#x2153;" horiz-adv-x="1904" 
d="M205 565v862l-193 -77v51l195 96h53v-932h-55zM1389 1497l-996 -1505h-80l1000 1505h76zM1217 813q44 58 119.5 91.5t154.5 33.5q131 0 212 -66t81 -165q0 -155 -187 -218q104 -29 158.5 -92.5t54.5 -152.5q0 -112 -87.5 -187t-247.5 -75q-91 0 -160.5 28.5t-136.5 95.5
l41 39q101 -112 262 -112q128 0 201 57.5t73 149.5q0 102 -83 160.5t-193 58.5h-125v51h102q114 0 192 56t78 141q0 77 -65 127.5t-166 50.5q-79 0 -135 -27.5t-105 -81.5z" />
    <glyph glyph-name="uni2154" unicode="&#x2154;" horiz-adv-x="2072" 
d="M43 571v64l309 317q105 109 149 176t44 140q0 52 -21 91t-54.5 60.5t-69.5 32t-72 10.5q-73 0 -138.5 -32t-107.5 -97l-39 35q100 148 289 148q115 0 190 -65t74 -183q0 -83 -46.5 -158.5t-168.5 -200.5l-283 -284h508v-54h-563zM1556 1497l-995 -1505h-80l1000 1505h75z
M1384 813q43 57 119 91t156 34q131 0 212 -66t81 -165q0 -155 -187 -218q104 -29 158.5 -92.5t54.5 -152.5q0 -112 -88 -187t-248 -75q-90 0 -159.5 28.5t-136.5 95.5l40 39q101 -112 263 -112q128 0 201 57.5t73 149.5q0 102 -83 160.5t-193 58.5h-125v51h102q114 0 192 56
t78 141q0 77 -65 127.5t-166 50.5q-79 0 -135 -27.5t-105 -81.5z" />
    <glyph glyph-name="oneeighth" unicode="&#x215b;" horiz-adv-x="1908" 
d="M205 565v862l-193 -77v51l195 96h53v-932h-55zM1389 1497l-996 -1505h-80l1000 1505h76zM1483 936q129 0 206.5 -69.5t77.5 -184.5q0 -26 -5.5 -51t-14.5 -44.5t-21.5 -37.5t-24 -30.5t-26.5 -24.5t-23.5 -18t-19.5 -13t-12 -8q74 -24 111 -54q77 -63 77 -174
q0 -112 -89.5 -179.5t-237.5 -67.5q-152 0 -237 64t-85 179q0 29 7.5 58t25 63.5t54.5 67t89 57.5q-19 6 -39 16.5t-48 33.5t-46 64.5t-18 94.5q0 110 85.5 184t213.5 74zM1483 883q-103 0 -172.5 -58.5t-69.5 -146.5q0 -139 156 -170l147 -33q41 -8 103.5 62.5t62.5 150.5
q0 89 -62 142t-165 53zM1481 31q123 0 196.5 54.5t73.5 145.5q0 70 -37.5 111.5t-116.5 60.5l-190 41q-26 6 -70.5 -20t-82 -81.5t-37.5 -117.5q0 -91 70 -142.5t194 -51.5z" />
    <glyph glyph-name="threeeighths" unicode="&#x215c;" horiz-adv-x="2107" 
d="M109 1391q44 58 119.5 91.5t154.5 33.5q131 0 212 -66.5t81 -165.5q0 -154 -187 -217q104 -29 158.5 -93t54.5 -153q0 -112 -87.5 -187t-247.5 -75q-90 0 -160 29t-137 96l41 39q102 -113 262 -113q128 0 201 57.5t73 149.5q0 102 -83 160.5t-193 58.5h-125v51h102
q114 0 192 56t78 141q0 77 -65 127.5t-166 50.5q-79 0 -135 -27t-105 -81zM1587 1497l-995 -1505h-80l999 1505h76zM1681 936q129 0 207 -69.5t78 -184.5q0 -26 -5.5 -51t-14.5 -44.5t-21.5 -37.5t-24 -30.5t-26.5 -24.5t-23.5 -18t-19.5 -13t-12 -8q74 -24 111 -54
q77 -63 77 -174q0 -112 -90 -179.5t-238 -67.5q-152 0 -236.5 64t-84.5 179q0 29 7.5 58t25 63.5t54.5 67t89 57.5q-14 4 -29 10.5t-38.5 23.5t-41 38.5t-30.5 57.5t-13 79q0 110 85.5 184t213.5 74zM1681 883q-103 0 -172 -58.5t-69 -146.5q0 -140 155 -170l148 -33
q41 -8 103.5 62.5t62.5 150.5q0 89 -62.5 142t-165.5 53zM1679 31q123 0 197 54.5t74 145.5q0 70 -37.5 111.5t-116.5 60.5l-190 41q-26 6 -70.5 -20t-82.5 -81.5t-38 -117.5q0 -91 70 -142.5t194 -51.5z" />
    <glyph glyph-name="fiveeighths" unicode="&#x215d;" horiz-adv-x="2111" 
d="M154 1497h526l-6 -51h-465l-31 -379q43 26 69.5 40t73.5 27t99 13q59 0 110.5 -15.5t95 -47t68.5 -87t25 -127.5q0 -147 -97 -232t-247 -85q-178 0 -303 125l37 39q64 -60 119 -87.5t137 -27.5q139 0 219 73.5t80 192.5q0 115 -70.5 172.5t-173.5 57.5q-114 0 -250 -90
q-9 -5 -12 -2l-4 4l-35 22zM1591 1497l-995 -1505h-80l1000 1505h75zM1686 936q129 0 206.5 -69.5t77.5 -184.5q0 -26 -5.5 -51t-14.5 -44.5t-21.5 -37.5t-24 -30.5t-26.5 -24.5t-23.5 -18t-19.5 -13t-12 -8q74 -24 111 -54q77 -63 77 -174q0 -112 -90 -179.5t-238 -67.5
q-152 0 -236.5 64t-84.5 179q0 29 7.5 58t25 63.5t54.5 67t89 57.5q-14 4 -29 10.5t-38.5 23.5t-41 38.5t-30.5 57.5t-13 79q0 110 86 184t214 74zM1686 883q-103 0 -172.5 -58.5t-69.5 -146.5q0 -140 155 -170l148 -33q41 -8 103.5 62.5t62.5 150.5q0 89 -62 142t-165 53z
M1683 31q123 0 197 54.5t74 145.5q0 70 -37.5 111.5t-116.5 60.5l-190 41q-26 6 -70.5 -20t-82.5 -81.5t-38 -117.5q0 -91 70 -142.5t194 -51.5z" />
    <glyph glyph-name="seveneighths" unicode="&#x215e;" horiz-adv-x="2039" 
d="M1520 1497l-996 -1505h-80l1000 1505h76zM72 1495h614v-51q-127 -187 -242 -458.5t-147 -422.5h-59q39 169 139.5 416t238.5 465h-544v51zM1614 936q129 0 206.5 -69.5t77.5 -184.5q0 -26 -5.5 -51t-14.5 -44.5t-21.5 -37.5t-24 -30.5t-26.5 -24.5t-23.5 -18t-19.5 -13
t-12 -8q74 -24 111 -54q77 -63 77 -174q0 -112 -89.5 -179.5t-237.5 -67.5q-152 0 -237 64t-85 179q0 29 7.5 58t25 63.5t54.5 67t89 57.5q-19 6 -39 16.5t-48 33.5t-46 64.5t-18 94.5q0 110 85.5 184t213.5 74zM1614 883q-103 0 -172.5 -58.5t-69.5 -146.5q0 -139 156 -170
l147 -33q41 -8 103.5 62.5t62.5 150.5q0 89 -62 142t-165 53zM1612 31q123 0 196.5 54.5t73.5 145.5q0 70 -37.5 111.5t-115.5 60.5l-191 41q-26 6 -70.5 -20t-82 -81.5t-37.5 -117.5q0 -91 70 -142.5t194 -51.5z" />
    <glyph glyph-name="partialdiff" unicode="&#x2202;" horiz-adv-x="1179" 
d="M227 1309l-34 59q54 61 157.5 97t210.5 36q242 0 374 -190t132 -559q0 -370 -130.5 -571t-365.5 -201q-198 0 -327 132.5t-129 331.5q0 198 131.5 312t363.5 114q104 0 170.5 -23t159.5 -79q25 -12 25 2q0 324 -113.5 483.5t-327.5 159.5q-64 0 -121.5 -16.5t-91 -34.5
t-84.5 -53zM553 66h2q159 0 274.5 139t137.5 364q5 54 -13 72q-53 60 -160 101.5t-212 41.5q-162 0 -266.5 -97.5t-104.5 -248.5q0 -153 100.5 -262.5t241.5 -109.5z" />
    <glyph glyph-name="emptyset" unicode="&#x2205;" horiz-adv-x="1159" 
d="M1020 1083l-119 -108q76 -107 76 -230q0 -164 -117 -280.5t-280 -116.5q-144 0 -256 94l-131 -120l-56 55l133 121q-86 110 -86 247q0 163 116 279.5t280 116.5q157 0 272 -109l117 107zM256 745q0 -111 68 -198l475 436q-92 86 -219 86q-134 0 -229 -95.5t-95 -228.5z
M905 745q0 101 -55 181l-473 -434q88 -72 203 -72q135 0 230 95t95 230z" />
    <glyph glyph-name="product" unicode="&#x220f;" horiz-adv-x="1259" 
d="M1229 1481v-82h-223v-1399h-91v1399h-569v-1399h-92v1399h-221v82h1196z" />
    <glyph glyph-name="summation" unicode="&#x2211;" horiz-adv-x="999" 
d="M954 0h-901v68l453 673l-422 668v72h834v-80h-719l411 -658l-442 -663h786v-80z" />
    <glyph glyph-name="minus" unicode="&#x2212;" horiz-adv-x="1087" 
d="M944 782v-75l-801 -2v75z" />
    <glyph glyph-name="uni2219" unicode="&#x2219;" horiz-adv-x="595" 
d="M297 657q-39 0 -66.5 28.5t-27.5 68.5t27 67t67 27t67 -27t27 -67t-27.5 -68.5t-66.5 -28.5z" />
    <glyph glyph-name="radical" unicode="&#x221a;" horiz-adv-x="1208" 
d="M1208 1690l-528 -2020h-98l-367 989l-147 -59l-27 74l240 92l344 -981l501 1905h82z" />
    <glyph glyph-name="infinity" unicode="&#x221e;" horiz-adv-x="1382" 
d="M1278 559v-2q0 -143 -85 -226t-210 -83q-47 0 -85.5 11.5t-74 39t-57 50t-59.5 65.5q-10 11 -15 12t-16 -12q-2 -2 -20.5 -23t-32 -35t-41 -36.5t-53.5 -36.5t-63.5 -24.5t-76.5 -10.5q-119 0 -202 84t-83 217q0 135 85.5 218t220.5 83q47 0 84.5 -10t72 -35t55.5 -45.5
t58 -61.5q15 -14 23 -14t20 14q30 34 50 53t56 46t78.5 40t91.5 13q122 0 200.5 -79t78.5 -212zM391 338h6q69 0 133.5 48.5t110.5 111.5q21 30 20.5 44t-24.5 48q-58 87 -116.5 131.5t-131.5 44.5q-88 0 -143.5 -58.5t-55.5 -152.5q0 -95 58 -156t143 -61zM999 766h-2
q-38 0 -73 -13.5t-68.5 -43t-54 -51t-53.5 -60.5q-37 -45 0 -86q123 -174 258 -174q85 0 134.5 65t49.5 150q0 88 -53 150.5t-138 62.5z" />
    <glyph glyph-name="integral" unicode="&#x222b;" horiz-adv-x="858" 
d="M328 1374q0 158 80.5 247t197.5 89q85 0 129.5 -11t104.5 -48l-31 -88q-58 32 -97.5 43.5t-90.5 11.5q-86 0 -144.5 -59.5t-58.5 -172.5q0 -231 52 -701t52 -699q0 -158 -79.5 -247t-190.5 -89q-85 0 -128.5 11t-105.5 48l31 88q58 -31 98 -43t91 -12q82 0 139 59t57 172
q0 234 -53 700.5t-53 700.5z" />
    <glyph glyph-name="approxequal" unicode="&#x2248;" horiz-adv-x="1089" 
d="M958 920q-28 -33 -83 -58.5t-138 -25.5q-75 0 -186 43t-184 43q-125 0 -211 -86l-25 65q33 29 58.5 47t71.5 33.5t99 15.5q72 0 190.5 -45t188.5 -45q49 0 89.5 14t60.5 29.5t43 40.5zM958 539q-28 -34 -83 -60t-138 -26q-67 0 -130 22t-122.5 44t-117.5 22
q-127 0 -211 -88l-25 67q50 44 101.5 69t127.5 25q72 0 190.5 -45t188.5 -45q49 0 89.5 15t59.5 29.5t44 39.5z" />
    <glyph glyph-name="notequal" unicode="&#x2260;" horiz-adv-x="1173" 
d="M948 907h-299l-162 -366l461 2v-76l-495 -2l-131 -293h-74l133 293h-234v76h267l166 366l-433 -2v76l465 2l123 270h70l-121 -270h264v-76z" />
    <glyph glyph-name="lessequal" unicode="&#x2264;" horiz-adv-x="1069" 
d="M922 614v-94l-783 311v97l785 315v-98l-662 -264zM924 242v-76l-801 2v76z" />
    <glyph glyph-name="greaterequal" unicode="&#x2265;" horiz-adv-x="1069" 
d="M145 614l662 267l-664 264v98l785 -315v-97l-783 -311v94zM143 242l801 2v-76l-801 -2v76z" />
    <glyph glyph-name="lozenge" unicode="&#x25ca;" horiz-adv-x="880" 
d="M485 0h-100l-303 739l315 742h99l305 -738zM442 1399l-260 -649l260 -666l258 655z" />
    <glyph glyph-name="i.loclTRK" horiz-adv-x="481" 
d="M289 1481v-195h-99v195h99zM281 1059v-1059h-80v1059h80z" />
    <glyph glyph-name="p.001" horiz-adv-x="1189" 
d="M205 -330v1389h76v-158q3 3 16 18.5t22.5 26t29 28.5t37.5 31t45.5 28t56 24t66 15.5t77.5 6.5q97 0 179 -33.5t144 -98t96.5 -166.5t34.5 -232q0 -257 -129.5 -413t-349.5 -156q-91 0 -166 28.5t-155 93.5v-432h-80zM604 55q176 0 286.5 131t110.5 355q0 115 -31 205
t-84 144.5t-120.5 82.5t-144.5 28q-71 0 -135.5 -26t-107.5 -66.5t-68 -88.5t-25 -93v-520q162 -152 319 -152z" />
    <glyph glyph-name="q.001" horiz-adv-x="1183" 
d="M1012 -330h-80v432q-80 -65 -155.5 -93.5t-166.5 -28.5q-220 0 -349.5 156t-129.5 413q0 129 35 231.5t97 167t144 98t179 33.5q40 0 77.5 -6.5t66 -15.5t56 -24t45.5 -28t37.5 -31t29 -28.5t22.5 -26t16 -18.5v158h76v-1389zM612 55q158 0 320 152v520q0 45 -25 93
t-68 88.5t-107.5 66.5t-135.5 26q-77 0 -144.5 -28t-121 -82.5t-84.5 -144.5t-31 -205q0 -223 111 -354.5t286 -131.5z" />
    <glyph glyph-name="l.ss01" horiz-adv-x="526" 
d="M223 0v1522h80v-1522h-80z" />
    <glyph glyph-name="zero.osf" horiz-adv-x="1271" 
d="M637 1501q110 0 203 -47.5t163.5 -140t110 -240t39.5 -336.5q0 -188 -39.5 -334.5t-110.5 -237.5t-164 -138t-204 -47t-203.5 46.5t-162.5 137.5t-109 236.5t-39 332.5q0 189 39.5 337.5t110 241.5t163.5 141t203 48zM639 63q94 0 170.5 39.5t133.5 119.5t88.5 211
t31.5 304q0 342 -116 511t-310 169q-93 0 -170 -40t-135.5 -121t-90.5 -213t-32 -306q0 -338 117.5 -506t312.5 -168z" />
    <glyph glyph-name="one.osf" horiz-adv-x="755" 
d="M397 0v1370l-307 -123v80l309 154h86v-1481h-88z" />
    <glyph glyph-name="two.osf" horiz-adv-x="1126" 
d="M102 0v102l490 504q166 169 235.5 277t69.5 225q0 66 -22 120t-57 88t-81.5 57t-92 32.5t-91.5 9.5q-115 0 -218.5 -50.5t-170.5 -154.5l-64 58q158 233 461 233q182 0 301.5 -104t118.5 -291q-1 -132 -75.5 -250t-268.5 -317l-447 -455h807v-84h-895z" />
    <glyph glyph-name="three.osf" horiz-adv-x="1247" 
d="M174 1313q69 92 188.5 145t247.5 53q208 0 335.5 -104.5t127.5 -261.5q0 -244 -295 -348q166 -45 253 -147t87 -242q0 -86 -34.5 -160.5t-99.5 -132.5t-168 -91.5t-232 -33.5q-144 0 -255.5 46.5t-217.5 153.5l65 60q87 -95 189 -135.5t229 -40.5q202 0 318 90.5
t116 236.5q0 110 -66 191.5t-164 119.5t-210 38h-199v79h164q180 0 305 90.5t125 225.5q0 121 -104 201.5t-265 80.5q-123 0 -211.5 -44t-166.5 -130z" />
    <glyph glyph-name="four.osf" horiz-adv-x="1259" 
d="M825 1481h88v-969h238v-84h-238v-428h-79v428h-713v100zM207 512h618v831z" />
    <glyph glyph-name="five.osf" horiz-adv-x="1300" 
d="M258 1481h836l-11 -82h-739l-47 -600q67 41 109 63t117.5 43t156.5 21q94 0 176.5 -25t151.5 -76t109 -138.5t40 -201.5q0 -156 -72.5 -271.5t-196 -174.5t-280.5 -59q-286 0 -481 198l57 62q103 -95 191.5 -138t218.5 -43q220 0 346.5 117t126.5 307q0 93 -32 165
t-87 114t-122.5 63t-145.5 21q-79 0 -160 -25t-126.5 -50t-110.5 -66q-13 -9 -19 -4q-4 4 -8 6l-55 36z" />
    <glyph glyph-name="six.osf" horiz-adv-x="1212" 
d="M680 1518q268 0 399 -215l-57 -64q-28 39 -47 61.5t-51 52.5t-64 46t-78.5 27.5t-101.5 11.5q-237 0 -359.5 -222.5t-109.5 -658.5q32 150 152.5 240t279.5 90q110 0 197.5 -35.5t142.5 -97.5t84 -142t29 -172q0 -205 -131 -324.5t-334 -119.5q-241 0 -377.5 194.5
t-136.5 550.5q0 364 148 570.5t415 206.5zM653 803q-112 0 -202 -37.5t-145.5 -114.5t-55.5 -182q80 -389 387 -389q162 0 265.5 100t103.5 256q0 150 -95.5 258.5t-257.5 108.5z" />
    <glyph glyph-name="seven.osf" horiz-adv-x="1159" 
d="M90 1481h979v-82q-138 -202 -275 -486.5t-225 -525t-118 -387.5h-97q37 165 113 382t207.5 498.5t283.5 518.5h-868v82z" />
    <glyph glyph-name="eight.osf" horiz-adv-x="1251" 
d="M625 1501q206 0 329 -110.5t123 -294.5q0 -221 -228 -356q-4 -2 -5 -3q4 -2 29 -10.5t42.5 -16t47.5 -23.5t52 -33.5t48 -45.5t42 -60t27 -77t11 -96q0 -178 -143.5 -286.5t-378.5 -108.5q-239 0 -374.5 103t-135.5 286q0 45 12 91t40 100.5t86.5 107t141.5 92.5
q-22 7 -45.5 17t-61 37t-65 60.5t-48.5 90.5t-21 125q0 177 136 294t339 117zM625 1417q-163 0 -273 -94t-110 -233q0 -221 247 -271l234 -51q29 -5 73.5 22.5t86.5 73.5t72 112t30 130q0 141 -98.5 226t-261.5 85zM623 63q195 0 312.5 86.5t117.5 231.5q0 112 -59.5 178
t-184.5 94l-303 68q-24 5 -61.5 -8.5t-79.5 -45.5t-79 -74.5t-61 -101.5t-24 -120q0 -145 112 -226.5t310 -81.5z" />
    <glyph glyph-name="nine.osf" horiz-adv-x="1212" 
d="M524 -20q-267 0 -397 217l57 61q36 -49 60.5 -76.5t65.5 -60t94 -47.5t120 -15q238 0 361 223t110 658q-32 -149 -152.5 -239.5t-279.5 -90.5q-110 0 -197 35.5t-142 97.5t-84 142.5t-29 173.5q0 203 130.5 322.5t333.5 119.5q242 0 378.5 -193.5t136.5 -549.5
q0 -364 -149 -571t-417 -207zM553 694q168 0 285.5 93.5t117.5 240.5q-80 389 -387 389q-161 0 -264.5 -99.5t-103.5 -254.5q0 -72 23.5 -138t67 -117.5t111.5 -82.5t150 -31z" />
    <glyph glyph-name="zero.tf" horiz-adv-x="1425" 
d="M729 1501q110 0 203 -47.5t163.5 -140t110 -240t39.5 -336.5q0 -188 -39.5 -334.5t-110.5 -237.5t-164 -138t-204 -47t-203.5 46.5t-162.5 137.5t-109 236.5t-39 332.5q0 189 39.5 337.5t110 241.5t163.5 141t203 48zM731 63q94 0 170.5 39.5t133.5 119.5t88.5 211
t31.5 304q0 342 -116 511t-310 169q-93 0 -170 -40t-135.5 -121t-90.5 -213t-32 -306q0 -338 117.5 -506t312.5 -168z" />
    <glyph glyph-name="one.tf" horiz-adv-x="1425" 
d="M793 86h491v-86h-1063v86h484v1303l-459 -201v94l461 201h86v-1397z" />
    <glyph glyph-name="two.tf" horiz-adv-x="1425" 
d="M299 0v102l489 504q167 170 236.5 277.5t69.5 224.5q0 66 -22 120t-57 88t-81.5 57t-92 32.5t-91.5 9.5q-116 0 -219.5 -50.5t-170.5 -154.5l-63 58q158 233 461 233q182 0 301.5 -104t118.5 -291q-1 -132 -75.5 -250t-268.5 -317l-447 -455h807v-84h-895z" />
    <glyph glyph-name="three.tf" horiz-adv-x="1425" 
d="M293 1303q69 92 188.5 145t247.5 53q208 0 335.5 -104.5t127.5 -261.5q0 -245 -295 -349q166 -45 253 -147t87 -242q0 -178 -140.5 -297.5t-394.5 -119.5q-144 0 -255.5 46.5t-217.5 153.5l66 60q88 -95 189.5 -136t228.5 -41q202 0 318 91t116 237q0 83 -38 151
t-101.5 110t-141 64.5t-159.5 22.5h-199v80h164q180 0 305 90.5t125 225.5q0 121 -104 201.5t-265 80.5q-123 0 -212 -44t-167 -130z" />
    <glyph glyph-name="four.tf" horiz-adv-x="1425" 
d="M950 1481h88v-969h238v-84h-238v-428h-80v428h-712v100zM332 512h618v831z" />
    <glyph glyph-name="five.tf" horiz-adv-x="1425" 
d="M358 1481h836l-10 -82h-740l-47 -600q67 41 109 63t117.5 43t156.5 21q94 0 176.5 -25t151.5 -76t109 -138.5t40 -201.5q0 -156 -72.5 -271.5t-196 -174.5t-279.5 -59q-135 0 -259.5 49t-222.5 149l58 62q103 -95 191 -138t218 -43q220 0 346.5 117t126.5 307
q0 93 -32 165t-87 114t-122.5 63t-145.5 21q-79 0 -160 -25t-126.5 -50t-110.5 -66q-13 -9 -19 -4q-4 4 -8 6l-55 36z" />
    <glyph glyph-name="six.tf" horiz-adv-x="1425" 
d="M797 1518q268 0 399 -215l-57 -64q-28 39 -47 61.5t-51 52.5t-64 46t-78.5 27.5t-101.5 11.5q-237 0 -359.5 -222.5t-109.5 -658.5q32 150 152.5 240t279.5 90q110 0 197 -35.5t142 -97.5t84 -142t29 -172q0 -205 -130.5 -324.5t-333.5 -119.5q-241 0 -378 194.5
t-137 550.5q0 364 148.5 570.5t415.5 206.5zM770 803q-112 0 -202 -37.5t-145.5 -114.5t-55.5 -182q80 -389 387 -389q161 0 264.5 99.5t103.5 256.5q0 150 -95 258.5t-257 108.5z" />
    <glyph glyph-name="seven.tf" horiz-adv-x="1425" 
d="M141 1481h1098v-82q-137 -202 -273.5 -486.5t-224.5 -525t-118 -387.5h-99q63 270 224 662t382 737h-989v82z" />
    <glyph glyph-name="eight.tf" horiz-adv-x="1425" 
d="M737 1501q206 0 329.5 -110.5t123.5 -294.5q0 -221 -229 -356q-4 -2 -5 -3q4 -2 29 -10.5t42.5 -16t47.5 -23.5t52 -33.5t48 -45.5t42 -60t27 -77t11 -96q0 -178 -143.5 -286.5t-378.5 -108.5q-239 0 -374.5 103t-135.5 286q0 45 12 91t40.5 100.5t87 107t141.5 92.5
q-22 7 -45.5 17t-61 37t-65.5 60.5t-49 90.5t-21 125q0 177 136 294t339 117zM737 1417q-163 0 -273 -94t-110 -233q0 -221 248 -271l234 -51q29 -5 73.5 22.5t86.5 73.5t72 112t30 130q0 141 -99 226t-262 85zM735 63q195 0 312.5 86.5t117.5 231.5q0 112 -59 178t-184 94
l-304 68q-24 5 -61.5 -8.5t-79.5 -45.5t-79 -74.5t-61 -101.5t-24 -120q0 -145 112 -226.5t310 -81.5z" />
    <glyph glyph-name="nine.tf" horiz-adv-x="1425" 
d="M659 -20q-267 0 -397 217l57 61q36 -49 60.5 -76.5t65.5 -60t94 -47.5t120 -15q238 0 361 223t110 658q-32 -149 -152.5 -239.5t-279.5 -90.5q-110 0 -197 35.5t-142 97.5t-84 142.5t-29 173.5q0 203 131 322.5t334 119.5q242 0 378 -193.5t136 -549.5q0 -364 -149 -571
t-417 -207zM688 694q169 0 286.5 93.5t117.5 240.5q-80 389 -387 389q-161 0 -265 -99.5t-104 -254.5q0 -72 23.5 -138t67 -117.5t111.5 -82.5t150 -31z" />
    <glyph glyph-name="zero.subs" horiz-adv-x="831" 
d="M371 596q142 0 232.5 -123.5t90.5 -357.5q0 -232 -90.5 -353.5t-234.5 -121.5t-234 120.5t-90 352.5q0 235 91 359t235 124zM371 -309q123 0 194.5 105t71.5 319q0 216 -72.5 322t-193.5 106q-122 0 -196.5 -106.5t-74.5 -321.5q0 -212 74.5 -318t196.5 -106z" />
    <glyph glyph-name="one.subs" horiz-adv-x="598" 
d="M205 -338v862l-193 -78v52l195 96h53v-932h-55z" />
    <glyph glyph-name="two.subs" horiz-adv-x="765" 
d="M43 -338v64l309 317q106 109 149.5 175.5t43.5 139.5q0 52 -21 91.5t-54.5 61t-69.5 32t-72 10.5q-73 0 -138.5 -32t-107.5 -97l-39 35q99 147 289 147q115 0 190 -65t74 -183q0 -83 -46.5 -158t-168.5 -200l-283 -285h508v-53h-563z" />
    <glyph glyph-name="three.subs" horiz-adv-x="796" 
d="M109 475q44 58 119.5 91.5t154.5 33.5q131 0 212 -66t81 -165q0 -154 -187 -217q104 -29 158.5 -93t54.5 -153q0 -112 -87.5 -187t-247.5 -75q-90 0 -160 29t-137 96l41 38q101 -112 262 -112q128 0 201 57.5t73 149.5q0 102 -83 160.5t-193 58.5h-125v51h102
q114 0 192 56t78 141q0 77 -65 127.5t-166 50.5q-79 0 -135 -27.5t-105 -81.5z" />
    <glyph glyph-name="four.subs" horiz-adv-x="831" 
d="M506 594h57v-610h148v-54h-148v-268h-51v268h-449v64zM119 -16h387v524z" />
    <glyph glyph-name="five.subs" horiz-adv-x="800" 
d="M154 588h526l-6 -51h-465l-31 -379q43 26 69.5 40t73.5 27t99 13q59 0 110.5 -15.5t95 -47t68.5 -87t25 -127.5q0 -147 -97 -232t-247 -85q-178 0 -303 125l37 38q63 -60 118.5 -87t137.5 -27q139 0 219 73.5t80 192.5q0 115 -70.5 172t-173.5 57q-114 0 -250 -90
q-9 -5 -12 -2l-4 4l-35 23z" />
    <glyph glyph-name="six.subs" horiz-adv-x="806" 
d="M395 606q169 0 250 -135l-35 -39q-21 30 -37.5 48.5t-42 38t-59 29t-76.5 9.5q-150 0 -227 -140.5t-68 -414.5q20 94 96 150.5t177 56.5q135 0 209.5 -80.5t74.5 -200.5q0 -128 -82 -203t-210 -75q-152 0 -238 122.5t-86 346.5q0 228 93 357.5t261 129.5zM379 158
q-109 0 -181.5 -56t-72.5 -155q50 -244 244 -244q101 0 166 62.5t65 160.5q0 95 -60 163.5t-161 68.5z" />
    <glyph glyph-name="seven.subs" horiz-adv-x="729" 
d="M72 594h614v-51q-127 -187 -242 -458.5t-147 -422.5h-59q39 169 139.5 416t238.5 465h-544v51z" />
    <glyph glyph-name="eight.subs" horiz-adv-x="800" 
d="M375 600q129 0 206.5 -69.5t77.5 -184.5q0 -26 -5.5 -51t-14.5 -44.5t-21.5 -37.5t-24 -30.5t-26.5 -24.5t-23.5 -18t-19.5 -13t-12 -8q74 -24 111 -54q77 -63 77 -174q0 -112 -89.5 -179.5t-237.5 -67.5q-152 0 -237 64t-85 179q0 29 7.5 58t25 63.5t54.5 67t89 57.5
q-19 6 -39 16.5t-48 33.5t-46 64.5t-18 94.5q0 110 85.5 184t213.5 74zM375 547q-103 0 -172.5 -58.5t-69.5 -146.5q0 -139 156 -170l147 -33q41 -8 103.5 62.5t62.5 150.5q0 89 -62 142t-165 53zM373 -305q123 0 196.5 55t73.5 146q0 70 -37.5 111.5t-116.5 60.5l-190 41
q-19 5 -50.5 -10.5t-63 -44t-54 -73t-22.5 -92.5q0 -91 70 -142.5t194 -51.5z" />
    <glyph glyph-name="nine.subs" horiz-adv-x="806" 
d="M305 -360q-169 0 -250 135l37 39q22 -31 37.5 -48.5t41 -37.5t58.5 -29.5t76 -9.5q150 0 227 140t70 415q-22 -94 -97.5 -151.5t-174.5 -57.5q-135 0 -210 80.5t-75 201.5q0 128 82.5 203.5t210.5 75.5q152 0 238 -121.5t86 -345.5q0 -230 -94 -359.5t-263 -129.5z
M324 88q106 0 180 59t74 152q-53 244 -244 244q-101 0 -166.5 -63t-65.5 -161q0 -95 60 -163t162 -68z" />
    <glyph glyph-name="zero.dnom" horiz-adv-x="831" 
d="M371 934q142 0 232.5 -123.5t90.5 -357.5q0 -232 -90.5 -354t-234.5 -122t-234 121t-90 353q0 235 91 359t235 124zM371 29q123 0 194.5 105t71.5 319q0 216 -72.5 322t-193.5 106q-122 0 -196.5 -106.5t-74.5 -321.5q0 -212 74.5 -318t196.5 -106z" />
    <glyph glyph-name="one.dnom" horiz-adv-x="598" 
d="M205 0v862l-193 -78v52l195 96h53v-932h-55z" />
    <glyph glyph-name="two.dnom" horiz-adv-x="765" 
d="M43 0v63l309 318q106 109 149.5 175.5t43.5 139.5q0 52 -21 91.5t-54.5 61t-69.5 32t-72 10.5q-73 0 -138.5 -32t-107.5 -97l-39 35q99 147 289 147q115 0 190 -65t74 -183q0 -83 -46.5 -158t-168.5 -200l-283 -285h508v-53h-563z" />
    <glyph glyph-name="three.dnom" horiz-adv-x="796" 
d="M109 813q44 58 119.5 91.5t154.5 33.5q131 0 212 -66t81 -165q0 -155 -187 -218q104 -29 158.5 -92.5t54.5 -152.5q0 -112 -87.5 -187t-247.5 -75q-91 0 -160.5 28.5t-136.5 95.5l41 39q101 -112 262 -112q128 0 201 57.5t73 149.5q0 102 -83 160.5t-193 58.5h-125v51
h102q114 0 192 56t78 141q0 77 -65 127.5t-166 50.5q-79 0 -135 -27.5t-105 -81.5z" />
    <glyph glyph-name="four.dnom" horiz-adv-x="831" 
d="M506 932h57v-610h148v-54h-148v-268h-51v268h-449v64zM119 322h387v524z" />
    <glyph glyph-name="five.dnom" horiz-adv-x="800" 
d="M154 926h526l-6 -52h-465l-31 -378q42 26 69 40t74 26.5t99 12.5q59 0 110.5 -15.5t95 -47t68.5 -86.5t25 -127q0 -147 -97 -232t-247 -85q-179 0 -303 124l37 39q63 -60 118.5 -87t137.5 -27q139 0 219 73.5t80 192.5q0 115 -70.5 172t-173.5 57q-114 0 -250 -90
q-9 -5 -12 -2q-2 3 -4 4l-35 23z" />
    <glyph glyph-name="six.dnom" horiz-adv-x="806" 
d="M395 944q169 0 250 -135l-35 -39q-21 30 -37.5 48.5t-42 38t-59 29t-76.5 9.5q-150 0 -227 -140.5t-68 -414.5q20 94 96 150.5t177 56.5q135 0 209.5 -80.5t74.5 -200.5q0 -128 -82 -203t-210 -75q-152 0 -238 122.5t-86 346.5q0 228 93 357.5t261 129.5zM379 496
q-109 0 -181.5 -56t-72.5 -155q50 -244 244 -244q101 0 166 62.5t65 160.5q0 95 -60 163.5t-161 68.5z" />
    <glyph glyph-name="seven.dnom" horiz-adv-x="729" 
d="M72 932h614v-51q-127 -187 -242 -458.5t-147 -422.5h-59q39 169 139.5 416t238.5 465h-544v51z" />
    <glyph glyph-name="eight.dnom" horiz-adv-x="800" 
d="M375 936q129 0 206.5 -69.5t77.5 -184.5q0 -26 -5.5 -51t-14.5 -44.5t-21.5 -37.5t-24 -30.5t-26.5 -24.5t-23.5 -18t-19.5 -13t-12 -8q74 -24 111 -54q77 -63 77 -174q0 -112 -89.5 -179.5t-237.5 -67.5q-152 0 -237 64t-85 179q0 29 7.5 58t25 63.5t54.5 67t89 57.5
q-19 6 -39 16.5t-48 33.5t-46 64.5t-18 94.5q0 110 85.5 184t213.5 74zM375 883q-103 0 -172.5 -58.5t-69.5 -146.5q0 -139 156 -170l147 -33q41 -8 103.5 62.5t62.5 150.5q0 89 -62 142t-165 53zM373 31q123 0 196.5 54.5t73.5 145.5q0 70 -37.5 111.5t-116.5 60.5l-190 41
q-26 6 -70.5 -20t-82 -81.5t-37.5 -117.5q0 -91 70 -142.5t194 -51.5z" />
    <glyph glyph-name="nine.dnom" horiz-adv-x="806" 
d="M305 -23q-169 0 -250 136l37 39q22 -31 37.5 -48.5t41 -37.5t58.5 -29.5t76 -9.5q150 0 227 140t70 415q-22 -94 -97.5 -151.5t-174.5 -57.5q-135 0 -210 80.5t-75 201.5q0 128 82.5 203.5t210.5 75.5q152 0 238 -121.5t86 -345.5q0 -230 -94 -360t-263 -130zM324 426
q106 0 180 59t74 152q-53 244 -244 244q-101 0 -166.5 -63t-65.5 -161q0 -95 60 -163t162 -68z" />
    <glyph glyph-name="zero.numr" horiz-adv-x="831" 
d="M371 1516q142 0 232.5 -123.5t90.5 -358.5q0 -232 -90.5 -353.5t-234.5 -121.5t-234 120.5t-90 352.5q0 235 91 359.5t235 124.5zM371 610q123 0 194.5 105t71.5 319q0 216 -72.5 322t-193.5 106q-122 0 -196.5 -106.5t-74.5 -321.5q0 -212 74.5 -318t196.5 -106z" />
    <glyph glyph-name="one.numr" horiz-adv-x="598" 
d="M205 565v862l-193 -77v51l195 96h53v-932h-55z" />
    <glyph glyph-name="two.numr" horiz-adv-x="765" 
d="M43 571v64l309 317q105 109 149 176t44 140q0 52 -21 91t-54.5 60.5t-69.5 32t-72 10.5q-73 0 -138.5 -32t-107.5 -97l-39 35q100 148 289 148q115 0 190 -65t74 -183q0 -83 -46.5 -158.5t-168.5 -200.5l-283 -284h508v-54h-563z" />
    <glyph glyph-name="three.numr" horiz-adv-x="796" 
d="M109 1391q44 58 119.5 91.5t154.5 33.5q131 0 212 -66.5t81 -165.5q0 -154 -187 -217q104 -29 158.5 -93t54.5 -153q0 -112 -87.5 -187t-247.5 -75q-90 0 -160 29t-137 96l41 39q102 -113 262 -113q128 0 201 57.5t73 149.5q0 102 -83 160.5t-193 58.5h-125v51h102
q114 0 192 56t78 141q0 77 -65 127.5t-166 50.5q-79 0 -135 -27t-105 -81z" />
    <glyph glyph-name="four.numr" horiz-adv-x="831" 
d="M506 1497h57v-610h148v-53h-148v-269h-51v269h-449v63zM119 887h387v524z" />
    <glyph glyph-name="five.numr" horiz-adv-x="800" 
d="M154 1497h526l-6 -51h-465l-31 -379q43 26 69.5 40t73.5 27t99 13q59 0 110.5 -15.5t95 -47t68.5 -87t25 -127.5q0 -147 -97 -232t-247 -85q-178 0 -303 125l37 39q64 -60 119 -87.5t137 -27.5q139 0 219 73.5t80 192.5q0 115 -70.5 172.5t-173.5 57.5q-114 0 -250 -90
q-9 -5 -12 -2l-4 4l-35 22z" />
    <glyph glyph-name="six.numr" horiz-adv-x="806" 
d="M395 1528q169 0 250 -135l-35 -39q-21 30 -37.5 48.5t-42 38t-59 29t-76.5 9.5q-150 0 -227 -140.5t-68 -414.5q20 94 96 150t177 56q135 0 209.5 -80t74.5 -200q0 -128 -82.5 -203.5t-209.5 -75.5q-152 0 -238 122.5t-86 346.5q0 229 93 358.5t261 129.5zM379 1079
q-109 0 -181.5 -56t-72.5 -155q49 -243 244 -243q101 0 166 62.5t65 160.5q0 94 -60 162.5t-161 68.5z" />
    <glyph glyph-name="seven.numr" horiz-adv-x="729" 
d="M72 1495h614v-51q-127 -187 -242 -458.5t-147 -422.5h-59q39 169 139.5 416t238.5 465h-544v51z" />
    <glyph glyph-name="eight.numr" horiz-adv-x="800" 
d="M375 1516q129 0 206.5 -69.5t77.5 -184.5q0 -26 -5.5 -51.5t-14 -44.5t-21.5 -37.5t-24.5 -30.5t-26.5 -24.5t-23.5 -18.5t-19.5 -13t-12 -8q71 -23 106 -50q82 -62 82 -177q0 -112 -89.5 -180t-237.5 -68q-152 0 -237 64.5t-85 179.5q0 29 7.5 58t25 63.5t54.5 67
t89 57.5q-19 6 -38.5 16.5t-48 33t-46.5 64t-18 94.5q0 110 86 184.5t213 74.5zM375 1462q-103 0 -172.5 -58.5t-69.5 -146.5q0 -139 156 -170l147 -32q41 -8 103.5 62.5t62.5 150.5q0 89 -62 141.5t-165 52.5zM373 610q123 0 196.5 55t73.5 146q0 70 -37.5 111.5
t-116.5 60.5l-190 41q-26 6 -70.5 -20t-82 -81.5t-37.5 -117.5q0 -91 70 -143t194 -52z" />
    <glyph glyph-name="nine.numr" horiz-adv-x="806" 
d="M305 561q-169 0 -250 135l37 39q22 -31 37.5 -48.5t41 -37.5t58.5 -29.5t76 -9.5q150 0 227 140t70 415q-22 -94 -97.5 -151.5t-174.5 -57.5q-135 0 -210 80.5t-75 202.5q0 128 82.5 203.5t210.5 75.5q152 0 238 -121.5t86 -345.5q0 -230 -94 -360t-263 -130zM324 1010
q106 0 180 59t74 152q-52 243 -244 243q-101 0 -166.5 -62.5t-65.5 -160.5q0 -95 60 -163t162 -68z" />
    <glyph glyph-name="period.tf" horiz-adv-x="585" 
d="M379 158v-158h-125v158h125z" />
    <glyph glyph-name="comma.tf" horiz-adv-x="585" 
d="M217 -227l111 227h-74v164h170v-139l-141 -252h-66z" />
    <glyph glyph-name="bullet.uc" horiz-adv-x="595" 
d="M297 608q-60 0 -101.5 43t-41.5 103t41.5 101.5t101.5 41.5t101.5 -41.5t41.5 -101.5t-41.5 -103t-101.5 -43z" />
    <glyph glyph-name="caroncomb.alt" horiz-adv-x="0" 
d="M-150 1133q-6 0 -9 4.5t-1 9.5l60 139q6 17 -6 19l-11 2q-6 1 -9.5 2.5t-5 4t-1.5 7.5v147q0 13 12 13h86q10 0 10 -11v-163q0 -2 -1 -5t-1 -4l-65 -151q-6 -14 -27 -14h-31z" />
    </font>
</defs>
</svg>
