<?xml version="1.0" standalone="no"?>
<!DOCTYPE svg PUBLIC "-//W3C//DTD SVG 1.1//EN" "http://www.w3.org/Graphics/SVG/1.1/DTD/svg11.dtd" >
<svg xmlns="http://www.w3.org/2000/svg" xmlns:xlink="http://www.w3.org/1999/xlink" version="1.1">
<metadata>
Created by FontForge 20201107 at Thu Jun 12 13:50:22 2025
 By 
copyright missing
</metadata>
<defs>
<font id="PublicSans-ThinItalic" horiz-adv-x="0" >
  <font-face 
    font-family="Public Sans Thin"
    font-weight="100"
    font-style="italic"
    font-stretch="normal"
    units-per-em="2048"
    panose-1="0 0 2 0 0 0 0 0 0 0"
    ascent="1597"
    descent="-451"
    x-height="1057"
    cap-height="1481"
    bbox="-717 -471 2334.44 2230"
    underline-thickness="102"
    underline-position="-204"
    slope="-8"
    unicode-range="U+000D-FB02"
  />
<missing-glyph horiz-adv-x="1419" 
d="M385 1690h963l-271 -2020h-962zM1008 -117l225 1708h-696zM453 1462l-228 -1691h697z" />
    <glyph glyph-name="fi" unicode="fi" horiz-adv-x="1267" 
d="M1210 1520l-28 -195h-95l27 195h96zM756 1057l-11 -70h-276l-129 -987h-78l131 987h-239l10 70h239l25 176q15 125 74.5 186.5t171.5 61.5h147l-10 -70h-164q-69 0 -100 -39.5t-41 -120.5l-27 -194h277zM1137 1057l-142 -1057h-75l143 1057h74z" />
    <glyph glyph-name="fl" unicode="fl" horiz-adv-x="1355" 
d="M1087 2q-96 0 -132.5 70t-20.5 186l168 1262h76l-168 -1262q-14 -96 14 -142t74 -46h63l-10 -60q-33 -8 -64 -8zM756 1057l-11 -70h-276l-129 -987h-78l131 987h-239l10 70h239l25 176q15 125 74.5 186.5t171.5 61.5h147l-10 -70h-164q-69 0 -100 -39.5t-41 -120.5
l-27 -194h277z" />
    <glyph glyph-name="colon_one_eight_F_colon.liga" unicode="&#x3a;&#x31;&#x38;F&#x3a;" horiz-adv-x="1691" 
d="M164 1556h1431q25 0 25 -24v-1505q0 -12 -7 -19.5t-18 -7.5h-1431q-23 0 -23 27v1505q0 24 23 24zM856 479q68 0 117 52t49 124q0 93 -72 144q51 48 51 116q0 64 -43 109t-102 45q-64 0 -105.5 -44.5t-41.5 -109.5t51 -116q-72 -51 -72 -144q0 -72 49 -124t119 -52z
M606 498v555q0 10 -8 10h-131q-8 0 -8 -10v-52q0 -10 8 -10h70v-493q0 -9 8 -9h53q8 0 8 9zM1323 1001v52q0 10 -8 10h-203q-8 0 -8 -10v-555q0 -9 8 -9h49q13 0 13 9v252h118q8 0 8 8v53q0 8 -8 8h-118v172h141q8 0 8 10zM856 834q-35 0 -58.5 23t-23.5 58q0 37 23.5 61.5
t58.5 24.5q33 0 55.5 -25t22.5 -61q0 -35 -22.5 -58t-55.5 -23zM856 760q41 0 69.5 -30.5t28.5 -74.5t-28.5 -74t-69.5 -30q-42 0 -71 30t-29 74t29.5 74.5t70.5 30.5z" />
    <glyph glyph-name="colon_f_l_a_g_two_colon.liga" unicode="&#x3a;flag&#x32;&#x3a;" horiz-adv-x="2449" 
d="M223 1556h2073v-1554h-2073v1554zM2175 1321v109h-1040v-109h1040zM408 1198h120v119h-120v-119zM864 1198h119v119h-119v-119zM639 1077h117v121h-117v-121zM1135 1081h1040v113h-1040v-113zM412 958h116v119h-116v-119zM983 1077h-119v-119h119v119zM756 958h-117v-120
h117v120zM1135 842h1040v112h-1040v-112zM528 838h-116v-119h116v119zM983 838h-119v-119h119v119zM1135 602h1040v113h-1040v-113zM2175 475h-1833v-113h1833v113zM344 129h1831v107h-1831v-107z" />
    <glyph glyph-name="colon_f_l_a_g_colon.liga" unicode="&#x3a;flag&#x3a;" horiz-adv-x="2449" 
d="M223 1556h2073v-1554h-2073v1554zM2183 1436h-1845v-838h1845v121h-1050v119h1050v120h-1050v119h1050v121h-1050v119h1050v119zM565 1317v-119h-114v119h114zM1018 1317v-119h-113v119h113zM791 1198v-121h-113v121h113zM565 1077v-119h-114v119h114zM1018 1077v-119
h-113v119h113zM791 958v-120h-113v120h113zM565 838v-119h-114v119h114zM1018 838v-119h-113v119h113zM2183 479h-1845v-121h1845v121zM338 119h1845v121h-1845v-121z" />
    <glyph glyph-name=".notdef" horiz-adv-x="1419" 
d="M385 1690h963l-271 -2020h-962zM1008 -117l225 1708h-696zM453 1462l-228 -1691h697z" />
    <glyph glyph-name="uni0000" horiz-adv-x="20" 
 />
    <glyph glyph-name="nonmarkingreturn" horiz-adv-x="682" 
 />
    <glyph glyph-name="CR" unicode="&#xd;" horiz-adv-x="436" 
 />
    <glyph glyph-name="space" unicode=" " horiz-adv-x="495" 
 />
    <glyph glyph-name="exclam" unicode="!" horiz-adv-x="458" 
d="M406 1481l-181 -1186h-59l137 1186h103zM236 158l-21 -158h-119l23 158h117z" />
    <glyph glyph-name="quotedbl" unicode="&#x22;" horiz-adv-x="733" 
d="M444 1481l-94 -383h-63l12 383h145zM723 1481l-94 -383h-64l13 383h145z" />
    <glyph glyph-name="numbersign" unicode="#" horiz-adv-x="1148" 
d="M1114 918h-219l-96 -343h205l-7 -75h-219l-141 -502l-72 12l137 490h-307l-141 -502l-74 12l137 490h-231l10 75h244l94 343h-229l10 75h242l137 490l72 -15l-134 -475h310l137 490l72 -15l-133 -475h206zM725 575l94 343h-307l-96 -343h309z" />
    <glyph glyph-name="dollar" unicode="$" horiz-adv-x="1095" 
d="M987 326q-24 -159 -142.5 -252.5t-305.5 -93.5l-21 -166h-72l23 166q-178 0 -276.5 65t-159.5 205l65 39q44 -79 88 -124.5t116.5 -72t178.5 -26.5l80 632q-115 54 -182.5 95t-112.5 90.5t-57.5 105t-1.5 131.5q22 161 155 271t308 110l16 139h76l-23 -141
q120 -12 206 -65t155 -148l-68 -45q-94 152 -303 170l-86 -641l66 -33q157 -72 226 -171.5t52 -239.5zM573 795l82 616q-86 -6 -153 -34t-107.5 -71t-64 -91.5t-33.5 -104.5q-12 -86 33.5 -150.5t171.5 -132.5zM551 66q137 0 233 78t111 198q17 111 -43.5 184.5
t-218.5 145.5z" />
    <glyph glyph-name="percent" unicode="%" horiz-adv-x="1720" 
d="M571 1503q141 0 211 -111.5t43 -316.5q-27 -204 -124.5 -313t-235.5 -109q-142 0 -213.5 111.5t-44.5 318.5q27 201 126 310.5t238 109.5zM1505 1497l-1147 -1505h-79l1148 1505h78zM463 713q112 0 193.5 103t103.5 265q22 158 -31 259.5t-162 101.5t-191 -104.5
t-104 -264.5q-21 -157 31.5 -258.5t159.5 -101.5zM1317 829q142 0 212.5 -111t43.5 -315q-28 -205 -125.5 -314t-235.5 -109q-142 0 -212.5 112t-43.5 320q27 200 125 308.5t236 108.5zM1212 39q106 0 189.5 106t107.5 265q19 154 -35 257t-159 103q-106 0 -190.5 -107
t-104.5 -262q-19 -154 35 -258t157 -104z" />
    <glyph glyph-name="ampersand" unicode="&#x26;" horiz-adv-x="1249" 
d="M727 1503q136 0 215 -78.5t59 -212.5q-30 -261 -442 -432l320 -475q23 20 50.5 56.5t59 91.5t58.5 134t40 165h76q-26 -168 -84.5 -283t-156.5 -225l161 -244h-102l-129 184q-222 -194 -451 -194q-181 0 -274 105t-70 278q19 137 109.5 244.5t261.5 197.5
q-78 103 -105 169.5t-16 148.5q20 158 140.5 264t279.5 106zM717 1425q-130 0 -219 -86.5t-103 -208.5q-2 -16 -3 -30.5t1.5 -29.5t3.5 -24t8.5 -24.5t9 -21t13.5 -23.5t14.5 -21.5t18 -25t18.5 -25.5l37 -57q205 92 298.5 180.5t105.5 188.5q13 101 -46 154.5t-157 53.5z
M475 745q-144 -68 -233.5 -165t-106.5 -215q-17 -132 63.5 -215.5t217.5 -83.5q103 0 207.5 48t191.5 128z" />
    <glyph glyph-name="quotesingle" unicode="'" horiz-adv-x="485" 
d="M449 1481l-95 -383h-63l12 383h146z" />
    <glyph glyph-name="parenleft" unicode="(" horiz-adv-x="540" 
d="M315 -330q-101 230 -137.5 442t-1.5 461q31 236 136 470.5t257 437.5h56q-298 -478 -359 -918q-59 -413 86 -893h-37z" />
    <glyph glyph-name="parenright" unicode=")" horiz-adv-x="561" 
d="M-72 -330q135 216 231 452.5t128 465.5q57 423 -88 893h39q100 -226 136.5 -439t2.5 -462q-31 -238 -136.5 -473.5t-258.5 -436.5h-54z" />
    <glyph glyph-name="asterisk" unicode="*" horiz-adv-x="626" 
d="M530 909l-112 236l-185 -244l-55 47l197 226l-219 69l30 62l209 -84l21 260h80l-45 -260l231 98l12 -64l-235 -84l135 -217z" />
    <glyph glyph-name="plus" unicode="+" horiz-adv-x="1038" 
d="M934 782l-10 -75h-342l-47 -363h-76l49 361h-344l12 75h340l49 363h74l-47 -361h342z" />
    <glyph glyph-name="comma" unicode="," horiz-adv-x="405" 
d="M-27 -227l136 227h-70l20 164h162l-18 -139l-166 -252h-64z" />
    <glyph glyph-name="hyphen" unicode="-" horiz-adv-x="737" 
d="M604 571l-12 -79l-457 -3l10 80z" />
    <glyph glyph-name="period" unicode="." horiz-adv-x="378" 
d="M195 158l-19 -158h-121l23 158h117z" />
    <glyph glyph-name="slash" unicode="/" horiz-adv-x="620" 
d="M-59 -119l698 1600h84l-694 -1600h-88z" />
    <glyph glyph-name="zero" unicode="0" horiz-adv-x="1214" 
d="M739 1501q104 0 186 -47t137 -141.5t72.5 -238.5t-6.5 -337q-26 -188 -83 -334.5t-136.5 -237.5t-174 -138t-199.5 -47q-104 0 -186 45.5t-137.5 139t-73 235t6.5 333.5q26 189 84 337.5t137.5 241.5t174 141t198.5 48zM551 63q184 0 315 167t176 507q45 342 -42 511
t-271 169q-88 0 -166.5 -40.5t-144.5 -121.5t-114 -213t-71 -305q-45 -338 44 -506t274 -168z" />
    <glyph glyph-name="one" unicode="1" horiz-adv-x="737" 
d="M313 0l183 1368l-308 -121l11 80l313 154h82l-197 -1481h-84z" />
    <glyph glyph-name="two" unicode="2" horiz-adv-x="1083" 
d="M35 0l14 102l529 504q181 168 262.5 276t97.5 226q8 67 -6 120.5t-42.5 87.5t-69.5 57t-83 32.5t-86 9.5q-111 0 -215.5 -50.5t-179.5 -156.5l-55 60q183 233 469 233q83 0 152 -26t117 -74.5t69 -124.5t8 -170q-18 -132 -104 -250t-298 -317l-485 -455h766l-10 -84h-850
z" />
    <glyph glyph-name="three" unicode="3" horiz-adv-x="1187" 
d="M266 1300q78 93 200 147t243 54q197 0 304.5 -105t86.5 -263q-34 -242 -326 -347q153 -45 222 -147t48 -242q-12 -86 -54.5 -160.5t-112 -132t-172 -91t-224.5 -33.5q-138 0 -237 46t-187 154l72 60q70 -95 160.5 -136t210.5 -41q193 0 315 90.5t141 237.5q13 83 -14 151
t-81.5 109.5t-125 63.5t-149.5 22h-187l11 80h153q170 0 302 91t149 225q15 122 -71 203t-238 81q-118 0 -210 -44.5t-176 -129.5z" />
    <glyph glyph-name="four" unicode="4" horiz-adv-x="1198" 
d="M913 1481h84l-131 -971h226l-13 -82h-223l-57 -428h-76l57 428h-676l13 100zM197 510h587l109 833z" />
    <glyph glyph-name="five" unicode="5" horiz-adv-x="1236" 
d="M373 1481h792l-18 -84h-705l-123 -598q65 40 109 63t118 43.5t152 20.5q89 0 164.5 -25t134 -76t85 -138.5t10.5 -201.5q-21 -156 -105.5 -271.5t-209.5 -174.5t-273 -59q-270 0 -430 198l63 62q85 -95 163 -138t200 -43q209 0 345 116.5t161 307.5q10 75 -1.5 136
t-40.5 102.5t-72 70t-94.5 41.5t-109.5 13q-57 0 -113 -12t-110.5 -37t-87.5 -43t-84 -49q-7 -4 -10.5 -5.5t-5.5 -1.5t-3 1t-3 3.5t-5 4.5l-47 34z" />
    <glyph glyph-name="six" unicode="6" horiz-adv-x="1179" 
d="M788 1501q110 0 183 -42t127 -120l-74 -51q-85 129 -242 129q-218 0 -368 -180t-185 -500q159 78 249 105.5t188 27.5q212 0 312.5 -120.5t76.5 -311.5q-29 -203 -177 -330.5t-339 -127.5q-235 0 -342 194.5t-58 550.5q48 363 219 569.5t430 206.5zM662 786
q-88 0 -202.5 -30.5t-191.5 -75.5q-29 -19 -40 -38t-17 -60q-9 -50 -4 -108t17 -116t41 -111t67 -94t96.5 -65.5t128.5 -24.5q154 0 272 108.5t138 264.5q23 146 -60 248t-245 102z" />
    <glyph glyph-name="seven" unicode="7" horiz-adv-x="1103" 
d="M221 1481h930l-12 -84q-232 -298 -463 -728.5t-309 -668.5h-93q92 266 297.5 659t462.5 738h-825z" />
    <glyph glyph-name="eight" unicode="8" horiz-adv-x="1191" 
d="M723 1501q195 0 297.5 -110.5t77.5 -294.5q-28 -220 -267 -359q5 -2 19 -8q42 -17 70.5 -33.5t73.5 -56t64 -107.5t7 -157q-25 -178 -175.5 -286.5t-373.5 -108.5q-227 0 -342 103t-90 286q6 45 23 91t51.5 100.5t97.5 106.5t147 91q-12 4 -23.5 9.5t-30.5 16.5t-34.5 24
t-34.5 33t-30.5 43.5t-23.5 55t-12 68t3 82.5q25 177 169 294t337 117zM713 1417q-155 0 -271.5 -93.5t-138.5 -233.5q-27 -220 199 -273l217 -49q27 -6 73 21.5t92 73.5t83 112.5t45 130.5q19 140 -62.5 225.5t-236.5 85.5zM530 63q185 0 308 86.5t143 231.5
q13 112 -35 178t-162 94l-280 68q-27 6 -78 -19t-104.5 -69.5t-98 -115.5t-53.5 -146q-22 -145 73.5 -226.5t286.5 -81.5z" />
    <glyph glyph-name="nine" unicode="9" horiz-adv-x="1167" 
d="M440 -20q-117 0 -192.5 41t-132.5 120l73 52q83 -130 265 -130q474 0 555 834q-62 -142 -177.5 -214.5t-267.5 -72.5q-210 0 -310.5 121t-74.5 311q27 203 174 331t338 128q231 0 335.5 -194.5t55.5 -550.5q-50 -365 -218 -570.5t-423 -205.5zM565 694q159 0 282 92.5
t144 241.5q-27 389 -315 389q-153 0 -272.5 -107t-141.5 -263q-19 -148 62.5 -250.5t240.5 -102.5z" />
    <glyph glyph-name="colon" unicode=":" horiz-adv-x="385" 
d="M311 997l-20 -157h-119l23 157h116zM199 164l-17 -158h-119l19 158h117z" />
    <glyph glyph-name="semicolon" unicode=";" horiz-adv-x="440" 
d="M172 840l21 157h118l-20 -157h-119zM-12 -268l135 268h-53l22 158h117l-21 -146l-151 -280h-49z" />
    <glyph glyph-name="less" unicode="&#x3c;" horiz-adv-x="1024" 
d="M860 446l-10 -92l-703 310l15 98l784 315l-12 -100l-666 -262z" />
    <glyph glyph-name="equal" unicode="=" horiz-adv-x="1042" 
d="M965 981l-11 -76l-759 -2l8 76zM905 543l-10 -76l-760 -2l10 76z" />
    <glyph glyph-name="greater" unicode="&#x3e;" horiz-adv-x="1028" 
d="M143 449l664 266l-594 264l12 96l703 -313l-13 -98l-786 -312z" />
    <glyph glyph-name="question" unicode="?" horiz-adv-x="1001" 
d="M176 1247q75 117 200 185.5t261 68.5q186 0 282 -99.5t76 -268.5q-10 -72 -41 -138t-73.5 -118.5t-92.5 -103.5t-99.5 -102.5t-92 -105.5t-73 -122.5t-40.5 -143.5h-82q11 81 42.5 154.5t74 129.5t91.5 109.5t97.5 104t90 101.5t71.5 113.5t39 129.5q17 127 -56.5 201.5
t-213.5 74.5q-113 0 -226.5 -63.5t-154.5 -149.5zM483 158l-22 -158h-119l23 158h118z" />
    <glyph glyph-name="at" unicode="@" horiz-adv-x="1589" 
d="M1186 -76q-211 -149 -449 -149q-135 0 -247 38t-190 107t-127.5 162.5t-66 206t-0.5 235.5q21 160 96 305.5t186.5 253.5t261 172t311.5 64q98 0 188 -23.5t169 -74.5t133 -124.5t78 -182.5t7 -240q-29 -224 -151 -368t-275 -144q-81 0 -114 30.5t-38 102.5
q-74 -87 -144 -124.5t-163 -37.5q-104 0 -166.5 99t-42.5 257q26 194 145 326.5t271 132.5q153 0 215 -157l41 104h80l-137 -469q-29 -101 -15 -139.5t74 -38.5q113 0 206.5 118t119.5 304q15 116 -5.5 212t-67.5 160t-115 108t-143.5 63.5t-156.5 19.5q-147 0 -280 -58
t-230.5 -156.5t-162 -230t-84.5 -278.5q-17 -130 9 -245t93 -205.5t187 -143.5t280 -53q63 0 114.5 9.5t99.5 31.5t79 41t82 55zM537 483q-17 -124 17.5 -193t111.5 -69q103 0 197.5 91t133.5 223q32 112 14.5 184t-58.5 106.5t-97 34.5q-121 0 -209.5 -108.5t-109.5 -268.5
z" />
    <glyph glyph-name="A" unicode="A" horiz-adv-x="1366" 
d="M41 0l715 1481h106l316 -1481h-84l-97 467h-645l-229 -467h-82zM391 555h588l-180 838z" />
    <glyph glyph-name="B" unicode="B" horiz-adv-x="1296" 
d="M158 0l196 1481h396q237 0 354 -99t94 -284q-19 -131 -96 -216.5t-230 -131.5q152 -26 219 -116.5t48 -238.5q-27 -195 -177 -295t-403 -100h-401zM340 791h340q58 0 110.5 7t110 27t101.5 52t76 86t42 124q21 156 -84 233t-305 77h-311zM246 84h313q231 0 355 70
t147 229q11 87 -14.5 151.5t-82 101t-130 54t-166.5 17.5h-340z" />
    <glyph glyph-name="C" unicode="C" horiz-adv-x="1320" 
d="M823 1501q104 0 190.5 -33t142 -89t85 -128.5t27.5 -152.5l-86 -15q-5 151 -97.5 242.5t-267.5 91.5q-229 0 -371 -174t-188 -508q-86 -672 393 -672q147 0 263.5 83.5t168.5 230.5l80 -25q-38 -156 -195 -264t-333 -108q-272 0 -390.5 196t-72.5 559q50 364 219 565
t432 201z" />
    <glyph glyph-name="D" unicode="D" horiz-adv-x="1329" 
d="M354 1481h14.5t36.5 -0.5t51 -1t63.5 -0.5h68.5q388 -3 537.5 -178t99.5 -551q-52 -388 -261.5 -569t-598.5 -181h-207zM428 1395l-174 -1311h115q351 0 538.5 152.5t233.5 504.5q11 96 12 175t-14.5 143t-39.5 114t-64 87t-87 63t-109.5 42t-131 23t-150.5 7h-129z" />
    <glyph glyph-name="E" unicode="E" horiz-adv-x="1212" 
d="M158 0l196 1481h807l-10 -84h-731l-80 -606h678l-10 -84h-680l-82 -621l758 -2l-11 -84h-835z" />
    <glyph glyph-name="F" unicode="F" horiz-adv-x="1112" 
d="M354 1481h797l-12 -84h-711l-80 -604h662l-11 -84h-661l-96 -709h-84z" />
    <glyph glyph-name="G" unicode="G" horiz-adv-x="1413" 
d="M633 -20q-264 0 -385.5 198.5t-75.5 556.5q51 364 227.5 565t436.5 201q115 0 215.5 -54.5t159 -147t55.5 -197.5l-90 -17q-5 142 -102.5 237t-246.5 95q-229 0 -379.5 -177.5t-193.5 -494.5q-44 -330 57 -508t332 -178q87 0 164.5 29t133.5 75.5t99.5 106t68 120
t32.5 118.5l22 174h-391l10 70h467l-100 -752h-76l33 258q-77 -126 -198 -202t-275 -76z" />
    <glyph glyph-name="H" unicode="H" horiz-adv-x="1380" 
d="M1106 729h-774l-99 -729h-75l196 1481h76l-88 -668h776l88 668h78l-199 -1481h-75z" />
    <glyph glyph-name="I" unicode="I" horiz-adv-x="528" 
d="M354 1481h76l-197 -1481h-75z" />
    <glyph glyph-name="J" unicode="J" horiz-adv-x="722" 
d="M467 287q-20 -151 -85 -229t-196 -78q-72 0 -129.5 21t-76.5 38l34 88q6 -3 29.5 -17.5t39 -22.5t46.5 -16t64 -8q94 0 138.5 56t63.5 196l156 1166h76z" />
    <glyph glyph-name="K" unicode="K" horiz-adv-x="1277" 
d="M1124 0h-100l-391 827l-328 -327l-67 -500h-80l196 1481h80l-112 -854l860 854h110l-592 -588z" />
    <glyph glyph-name="L" unicode="L" horiz-adv-x="1101" 
d="M354 1481h84l-184 -1393h717l-13 -88h-800z" />
    <glyph glyph-name="M" unicode="M" horiz-adv-x="1683" 
d="M158 0l196 1481h86l340 -1391l723 1391h84l-198 -1481h-84l170 1262l-648 -1262h-114l-305 1245l-166 -1245h-84z" />
    <glyph glyph-name="N" unicode="N" horiz-adv-x="1437" 
d="M1264 1481h75l-196 -1481h-66l-667 1315l-177 -1315h-75l196 1481h64l669 -1321z" />
    <glyph glyph-name="O" unicode="O" horiz-adv-x="1431" 
d="M643 -20q-271 0 -394.5 193.5t-76.5 559.5q51 370 228.5 569t447.5 199q269 0 393.5 -198t75.5 -566q-50 -367 -227 -562t-447 -195zM657 63q238 0 384 168.5t190 505.5q45 339 -56 509.5t-337 170.5q-237 0 -385 -171t-193 -509q-44 -336 58 -505t339 -169z" />
    <glyph glyph-name="P" unicode="P" horiz-adv-x="1232" 
d="M158 0l196 1481h434q90 0 164 -14t133.5 -45.5t97.5 -79t53 -117t3 -156.5q-14 -108 -61.5 -189.5t-121 -131.5t-165.5 -74.5t-201 -24.5h-362l-86 -649h-84zM340 737h362q408 0 451 338q13 91 -7.5 154t-72.5 98.5t-123.5 50.5t-171.5 15h-350z" />
    <glyph glyph-name="Q" unicode="Q" horiz-adv-x="1396" 
d="M147 737q50 371 226 567.5t446 196.5t395 -196.5t76 -567.5q-36 -263 -134.5 -436t-276.5 -264q64 -189 272 -199l-10 -82q-41 0 -85 10.5t-96 35.5t-97.5 76.5t-71.5 123.5q-96 -22 -175 -22q-267 0 -393 192.5t-76 564.5zM231 733q-42 -336 60 -503t338 -167
t383.5 168.5t191.5 505.5q44 333 -56.5 506.5t-338.5 173.5q-237 0 -384.5 -174t-193.5 -510z" />
    <glyph glyph-name="R" unicode="R" horiz-adv-x="1304" 
d="M1077 0h-86l-192 705h-471l-95 -705h-75l196 1481h498q207 0 306 -93t75 -274q-9 -71 -35.5 -132t-61 -102.5t-79.5 -74t-87 -51.5t-87 -31zM692 788q208 0 322 74.5t137 237.5q20 154 -59 225.5t-254 71.5h-418l-80 -609h352z" />
    <glyph glyph-name="S" unicode="S" horiz-adv-x="1251" 
d="M551 -20q-162 0 -271 65t-176 203l78 51q36 -63 68.5 -102.5t77 -70.5t101 -44.5t134.5 -13.5q383 0 420 290q13 97 -32 168.5t-183 130.5l-270 115q-246 103 -217 338q24 183 158.5 287t332.5 104q131 0 227.5 -53t171.5 -156l-73 -59q-114 180 -344 180
q-159 0 -266.5 -78.5t-127.5 -222.5q-19 -186 203 -276l250 -99q154 -63 212.5 -154t39.5 -221q-23 -181 -160 -281.5t-354 -100.5z" />
    <glyph glyph-name="T" unicode="T" horiz-adv-x="1064" 
d="M154 1397l12 84h1001l-10 -84h-442l-187 -1397h-75l186 1397h-485z" />
    <glyph glyph-name="U" unicode="U" horiz-adv-x="1382" 
d="M1151 459q-32 -241 -163.5 -360t-366.5 -119q-239 0 -335.5 124t-62.5 385l131 992h84l-135 -1026q-28 -196 54 -297t274 -101q390 0 446 398l135 1026h76z" />
    <glyph glyph-name="V" unicode="V" horiz-adv-x="1179" 
d="M1284 1481l-709 -1481h-110l-301 1481h86l285 -1397l667 1397h82z" />
    <glyph glyph-name="W" unicode="W" horiz-adv-x="1835" 
d="M1909 1481l-600 -1481h-107l-176 1327l-534 -1327h-103l-196 1481h83l179 -1381l555 1381h75l185 -1381l555 1381h84z" />
    <glyph glyph-name="X" unicode="X" horiz-adv-x="1193" 
d="M1061 0h-98l-349 680l-530 -680h-98l585 758l-366 723h100l326 -647l504 647h96l-557 -721z" />
    <glyph glyph-name="Y" unicode="Y" horiz-adv-x="1050" 
d="M1163 1481l-575 -844l-86 -637h-76l86 639l-358 842h77l328 -766l522 766h82z" />
    <glyph glyph-name="Z" unicode="Z" horiz-adv-x="1155" 
d="M41 0l8 63l1004 1338h-807l10 80h907l-6 -62l-1012 -1339h832l-10 -80h-926z" />
    <glyph glyph-name="bracketleft" unicode="[" horiz-adv-x="548" 
d="M115 -330l237 1811h279l-8 -74h-195l-227 -1663h196l-8 -74h-274z" />
    <glyph glyph-name="backslash" unicode="\" horiz-adv-x="634" 
d="M432 -119l-270 1600h80l270 -1600h-80z" />
    <glyph glyph-name="bracketright" unicode="]" horiz-adv-x="585" 
d="M-61 -330l8 74h196l226 1663h-197l10 74h273l-238 -1811h-278z" />
    <glyph glyph-name="asciicircum" unicode="^" horiz-adv-x="917" 
d="M676 272l-162 672l-340 -668h-94l377 732q34 70 72 70t53 -74l184 -732h-90z" />
    <glyph glyph-name="underscore" unicode="_" horiz-adv-x="964" 
d="M731 -121l-8 -80l-684 -2l8 80z" />
    <glyph glyph-name="grave" unicode="`" horiz-adv-x="522" 
d="M180 1499l434 -196l-34 -56l-441 162z" />
    <glyph glyph-name="a" unicode="a" horiz-adv-x="1103" 
d="M377 -20q-150 0 -226 77.5t-57 212.5q23 173 137.5 246.5t376.5 97.5l234 21l12 90q17 126 -50.5 201t-195.5 75q-199 0 -354 -196l-59 41q81 106 189 168.5t239 62.5q162 0 245.5 -92t61.5 -252l-96 -733h-70l16 164q-184 -184 -403 -184zM399 55q83 0 174 41t156 108.5
t74 137.5l28 219l-196 -16q-126 -10 -206.5 -27t-136 -49t-82 -78t-36.5 -117q-15 -102 46.5 -160.5t178.5 -58.5z" />
    <glyph glyph-name="b" unicode="b" horiz-adv-x="1142" 
d="M522 -20q-59 0 -109.5 15t-82.5 36t-57.5 48.5t-37 45.5t-18.5 35l-27 -160h-69l203 1520h75l-80 -600q72 66 138 100q111 57 235 57q85 0 150 -28t105 -78t64 -118.5t25.5 -149.5t-8.5 -171q-34 -256 -168.5 -404t-337.5 -148zM526 55q157 0 273 121t147 356
q30 217 -42 343t-238 126q-99 0 -194 -48.5t-165 -125.5l-63 -475q-11 -78 26.5 -147t107 -109.5t148.5 -40.5z" />
    <glyph glyph-name="c" unicode="c" horiz-adv-x="1079" 
d="M637 1077q119 0 195.5 -57t134.5 -170l-72 -43q-68 111 -121.5 152.5t-138.5 41.5q-169 0 -284.5 -129.5t-143.5 -343.5q-29 -215 51.5 -344t249.5 -129q99 0 174.5 50.5t157.5 164.5l59 -45q-87 -124 -187.5 -184.5t-224.5 -60.5q-202 0 -298 149t-62 395
q33 248 171 400.5t339 152.5z" />
    <glyph glyph-name="d" unicode="d" horiz-adv-x="1112" 
d="M461 -20q-188 0 -280 135.5t-56 392.5q33 259 167.5 414t340.5 155q87 0 152 -31t133 -98l77 572h78l-203 -1520h-71l18 158q-161 -178 -356 -178zM483 55q85 0 166.5 46.5t131.5 111.5t59 127l67 510q-129 151 -284 151q-166 0 -277.5 -129t-140.5 -356
q-31 -228 47 -344.5t231 -116.5z" />
    <glyph glyph-name="e" unicode="e" horiz-adv-x="1101" 
d="M205 506q-8 -72 -4.5 -138t26.5 -122.5t59.5 -98t95 -65t132.5 -23.5q111 0 184.5 46.5t132.5 140.5l70 -29q-67 -118 -170 -177.5t-227 -59.5q-203 0 -308.5 143t-70.5 397q35 263 168.5 410t337.5 147q193 0 283.5 -133.5t56.5 -376.5l-10 -61h-756zM217 586h676
q26 185 -44 298t-233 113q-88 0 -161 -35.5t-121 -95t-77.5 -131t-39.5 -149.5z" />
    <glyph glyph-name="f" unicode="f" horiz-adv-x="778" 
d="M756 1057l-11 -70h-276l-129 -987h-78l131 987h-239l10 70h239l25 176q15 125 74.5 186.5t171.5 61.5h147l-10 -70h-164q-69 0 -100 -39.5t-41 -120.5l-27 -194h277z" />
    <glyph glyph-name="g" unicode="g" horiz-adv-x="1169" 
d="M430 -350q-219 0 -326.5 78.5t-87.5 218.5q18 143 205 248q26 13 4 22q-66 35 -57 100q13 90 166 138q-88 54 -118.5 118t-16.5 164q20 158 137 247t305 89q173 0 260 -90q11 -8 15.5 -8t17.5 6q74 35 213 90l-17 -117l-139 -28q-34 -7 -40 -13.5t1 -25.5q0 -2 3.5 -13.5
t5.5 -19t4.5 -22.5t3.5 -28t0.5 -31t-2.5 -36q-20 -142 -128 -230.5t-298 -88.5h-21q-138 -3 -202.5 -31.5t-69.5 -67.5q-4 -35 35.5 -49.5t160.5 -23.5l226 -15q288 -17 256 -270q-20 -149 -150 -230t-346 -81zM553 494q303 0 338 245q19 125 -50.5 191.5t-219.5 66.5
t-241 -67.5t-106 -190.5q-15 -120 56.5 -182.5t222.5 -62.5zM457 -272q360 0 389 233q11 87 -32.5 134.5t-158.5 54.5l-327 22q-33 2 -83 -24t-95.5 -79t-53.5 -114q-15 -110 79.5 -168.5t281.5 -58.5z" />
    <glyph glyph-name="h" unicode="h" horiz-adv-x="1122" 
d="M121 0l203 1520h69l-82 -621q138 98 222 138t184 40q150 0 218.5 -79.5t49.5 -213.5l-104 -784h-76l100 752q37 249 -200 249q-95 0 -177.5 -41t-222.5 -143l-106 -817h-78z" />
    <glyph glyph-name="i" unicode="i" horiz-adv-x="489" 
d="M432 1520l-29 -195h-94l27 195h96zM358 1057l-141 -1057h-76l144 1057h73z" />
    <glyph glyph-name="j" unicode="j" horiz-adv-x="460" 
d="M414 1520l-25 -195h-96l26 195h95zM188 -102q-16 -128 -68 -183t-177 -55q-23 0 -42.5 1t-31.5 2.5t-21.5 3.5t-14.5 4t-8 3.5t-4 2.5l-1 1l8 54l121 2q77 2 114.5 41t49.5 133l153 1149h76z" />
    <glyph glyph-name="k" unicode="k" horiz-adv-x="1083" 
d="M918 0h-95l-278 612l-307 -288l-39 -324h-78l203 1520h75l-145 -1076l649 613h115l-408 -385z" />
    <glyph glyph-name="l" unicode="l" horiz-adv-x="577" 
d="M309 2q-96 0 -132.5 70t-20.5 186l168 1262h75l-168 -1262q-14 -96 14 -142t74 -46h64l-10 -60q-33 -8 -64 -8z" />
    <glyph glyph-name="m" unicode="m" horiz-adv-x="1726" 
d="M117 0l141 1057h70l-21 -158q133 99 213.5 138.5t175.5 39.5q105 0 169.5 -49t76.5 -135q159 113 235.5 148.5t163.5 35.5q138 0 201.5 -79.5t48.5 -213.5l-106 -784h-76l102 752q29 249 -184 249q-48 0 -96.5 -14t-98.5 -43t-76.5 -47t-72.5 -53q-21 -17 -29.5 -28.5
t-11.5 -31.5l-102 -784h-76l98 752q37 249 -180 249q-89 0 -167.5 -40.5t-213.5 -143.5l-106 -817h-78z" />
    <glyph glyph-name="n" unicode="n" horiz-adv-x="1118" 
d="M117 0l141 1057h70l-21 -158q138 98 222 138t184 40q150 0 218.5 -79.5t49.5 -213.5l-104 -784h-76l100 752q18 120 -31.5 184.5t-169.5 64.5q-94 0 -176.5 -40.5t-222.5 -143.5l-106 -817h-78z" />
    <glyph glyph-name="o" unicode="o" horiz-adv-x="1091" 
d="M471 -20q-204 0 -297 148t-59 394q31 249 167.5 402t340.5 153q201 0 294 -151.5t60 -399.5q-31 -247 -166.5 -396.5t-339.5 -149.5zM487 55q169 0 275.5 126.5t134.5 344.5q30 219 -43.5 347t-243.5 128q-171 0 -279 -128.5t-136 -346.5q-30 -216 44.5 -343.5
t247.5 -127.5z" />
    <glyph glyph-name="p" unicode="p" horiz-adv-x="1136" 
d="M74 -330l184 1387h72l-21 -158q52 57 82 82q119 96 273 96q191 0 293 -137t67 -391q-34 -257 -177.5 -413t-352.5 -156q-86 0 -153.5 28.5t-135.5 93.5l-55 -432h-76zM504 55q166 0 288 131t152 355q30 225 -58.5 342.5t-242.5 117.5q-133 0 -237 -88.5t-117 -185.5
l-70 -520q135 -152 285 -152z" />
    <glyph glyph-name="q" unicode="q" horiz-adv-x="1136" 
d="M848 -330h-76l57 432q-83 -64 -159 -93t-162 -29q-209 0 -311.5 156t-67.5 413q34 254 173.5 391t330.5 137q34 0 65 -4.5t56 -14t46 -18.5t39.5 -24.5t30.5 -25t25.5 -27.5t19 -24.5t15.5 -22.5l10 -17l18 158h74zM520 55q83 0 160.5 39t161.5 113l71 520
q7 61 -24 123.5t-100 106.5t-158 44q-73 0 -140.5 -28t-126 -82.5t-99.5 -144.5t-56 -205q-32 -223 55.5 -354.5t255.5 -131.5z" />
    <glyph glyph-name="r" unicode="r" horiz-adv-x="729" 
d="M117 0l141 1057h70l-25 -189q67 88 188.5 148.5t221.5 60.5l-11 -82q-83 2 -177.5 -42t-162 -114.5t-77.5 -138.5l-90 -700h-78z" />
    <glyph glyph-name="s" unicode="s" horiz-adv-x="1036" 
d="M444 -20q-138 0 -241 65t-137 170l69 43q39 -97 120.5 -150t199.5 -53q112 0 215.5 64t115.5 145q10 71 -30 120t-154 87l-186 64q-131 44 -180.5 104t-38.5 139q17 134 130 216.5t271 82.5q119 0 208.5 -50t133.5 -142l-68 -45q-36 76 -110 118.5t-178 42.5
q-116 0 -203.5 -61.5t-99.5 -146.5q-9 -59 20.5 -101t134.5 -80l246 -88q205 -72 186 -252q-19 -127 -140.5 -209.5t-283.5 -82.5z" />
    <glyph glyph-name="t" unicode="t" horiz-adv-x="802" 
d="M725 987h-250l-98 -739q-13 -105 10 -141.5t84 -36.5h143l-10 -60q-31 -10 -137 -10q-112 0 -149 54t-19 184l100 749h-200l10 70h199l51 360h73l-47 -360h250z" />
    <glyph glyph-name="u" unicode="u" horiz-adv-x="1118" 
d="M422 -18q-149 3 -217.5 82.5t-50.5 211.5l104 785h76l-101 -750q-18 -121 31 -186.5t168 -65.5q95 0 176.5 40.5t225.5 144.5l108 817h76l-141 -1059h-70l20 160q-100 -70 -151 -102t-118 -55.5t-136 -22.5z" />
    <glyph glyph-name="v" unicode="v" horiz-adv-x="1050" 
d="M1047 1057l-545 -1057h-84l-266 1057h81l242 -959l494 959h78z" />
    <glyph glyph-name="w" unicode="w" horiz-adv-x="1552" 
d="M1528 1057l-430 -1057h-107l-157 922l-383 -922h-111l-168 1057h84l152 -969l407 969h76l166 -965l397 965h74z" />
    <glyph glyph-name="x" unicode="x" horiz-adv-x="1058" 
d="M893 0h-94l-279 485l-407 -485h-95l461 549l-293 508h97l254 -445l374 445h95l-428 -508z" />
    <glyph glyph-name="y" unicode="y" horiz-adv-x="1009" 
d="M119 -338q-44 0 -74.5 4t-38.5 8l-8 4l8 56h109q86 0 136 34t83 97l72 141l-254 1051h81l226 -942l473 942h74l-600 -1211q-97 -184 -287 -184z" />
    <glyph glyph-name="z" unicode="z" horiz-adv-x="919" 
d="M27 0l10 78l756 909h-594l10 70h672l-11 -84l-751 -903h645l-8 -70h-729z" />
    <glyph glyph-name="braceleft" unicode="{" horiz-adv-x="534" 
d="M328 -330q-107 0 -152.5 52.5t-34.5 134.5l64 469q10 81 -39.5 146t-151.5 65l9 77q105 1 170.5 65t78.5 159l64 465q9 82 66 130t159 48h55l-10 -74h-49q-66 0 -99.5 -26.5t-41.5 -82.5l-60 -464q-16 -116 -73.5 -180t-135.5 -72q-17 0 -17 -8q0 -4 9 -5
q78 -7 121 -68.5t27 -178.5l-78 -578h176l-10 -74h-47z" />
    <glyph glyph-name="bar" unicode="|" horiz-adv-x="530" 
d="M188 -330h-73l270 2020h74z" />
    <glyph glyph-name="braceright" unicode="}" horiz-adv-x="563" 
d="M-59 -330l8 74h51q65 0 98 26.5t41 82.5l62 464q16 116 73.5 180t135.5 72q15 2 15 9q1 4 -7 4q-78 7 -121 68.5t-27 178.5l78 578h-176l10 74h47q106 0 151.5 -52t35.5 -135l-66 -469q-5 -50 11.5 -96.5t63.5 -80.5t116 -34l-9 -77q-105 -1 -170 -65t-79 -159l-62 -465
q-11 -82 -68 -130t-159 -48h-53z" />
    <glyph glyph-name="asciitilde" unicode="~" horiz-adv-x="1040" 
d="M944 748q-29 -31 -84 -55.5t-133 -24.5q-65 0 -122.5 22t-110.5 44t-107 22q-127 0 -211 -92l-20 75q54 42 105 66t120 24q71 0 177 -45t171 -45q49 0 90 15.5t59.5 30.5t45.5 42z" />
    <glyph glyph-name="uni00A0" unicode="&#xa0;" horiz-adv-x="436" 
 />
    <glyph glyph-name="exclamdown" unicode="&#xa1;" horiz-adv-x="460" 
d="M342 899h-117l19 158h118zM168 -330h-98l163 1092h60z" />
    <glyph glyph-name="cent" unicode="&#xa2;" horiz-adv-x="1038" 
d="M541 283q98 0 173.5 50.5t157.5 164.5l60 -45q-138 -197 -316 -236l-28 -217h-76l29 207h-21q-202 0 -298 149.5t-62 395.5q33 248 171 400.5t339 152.5h16l25 176h75l-24 -187q79 -19 135 -73.5t102 -143.5l-71 -43q-69 112 -122 153.5t-138 41.5q-169 0 -284.5 -129.5
t-143.5 -343.5q-29 -215 51.5 -344t249.5 -129z" />
    <glyph glyph-name="sterling" unicode="&#xa3;" horiz-adv-x="1140" 
d="M-49 0l10 78h78q79 -2 145 89t88 263q13 94 13 285h-193l10 76h181l-17 155q-11 117 7 211.5t57.5 157.5t98.5 105.5t125.5 61.5t141.5 19q120 0 204 -51.5t110 -144.5l-70 -33q-54 143 -244 143q-131 0 -226.5 -78t-113.5 -211q-6 -40 -6 -88t2 -77t8.5 -89.5t8.5 -78.5
h340l-11 -76l-329 -2q0 -132 -11 -256q-13 -135 -48 -222t-97 -157h393q110 0 184.5 39.5t118.5 130.5l72 -33q-118 -217 -379 -217h-651z" />
    <glyph glyph-name="currency" unicode="&#xa4;" horiz-adv-x="991" 
d="M481 408q-109 0 -178 63q-12 9 -24 -6l-105 -100l-49 65l119 111q-59 92 -41 207q19 113 84 196q13 13 6 23l-84 98l59 55l88 -108q98 67 209 67q101 0 170 -63q14 -7 31 6l108 104l54 -65l-127 -115q56 -93 41 -207q-15 -104 -80 -188q-16 -17 -6 -27l88 -104l-60 -55
l-92 114q-100 -71 -211 -71zM492 496q100 0 179 75.5t93 176.5q14 99 -44 172t-155 73q-103 0 -183.5 -75.5t-92.5 -178.5q-12 -99 46 -171t157 -72z" />
    <glyph glyph-name="yen" unicode="&#xa5;" horiz-adv-x="1097" 
d="M1202 1481l-565 -809h289l-8 -76h-304l-28 -203h301l-8 -76h-304l-43 -317h-88l43 315h-303l11 76h303l28 203h-303l8 76h281l-348 811h98l316 -762l534 762h90z" />
    <glyph glyph-name="brokenbar" unicode="&#xa6;" horiz-adv-x="530" 
d="M350 885h-74l109 805h74zM188 -330h-73l108 807h74z" />
    <glyph glyph-name="section" unicode="&#xa7;" horiz-adv-x="911" 
d="M610 387q85 -56 125 -119t29 -145q-14 -111 -119.5 -184.5t-255.5 -73.5q-121 0 -221 64.5t-139 172.5l63 37q36 -88 118 -141t189 -53q114 0 193.5 49.5t91.5 136.5q8 65 -34.5 118.5t-160.5 104.5l-174 76q-208 95 -180 279q10 88 77.5 156t166.5 106
q-113 61 -148.5 127.5t-23.5 148.5q14 109 115.5 181.5t248.5 72.5q110 0 194.5 -56.5t125.5 -141.5l-57 -37q-42 71 -106.5 113t-147.5 42q-124 0 -202 -48.5t-89 -129.5q-7 -58 26.5 -108t135.5 -97l161 -73q249 -116 224 -322q-14 -95 -74 -154.5t-152 -101.5zM502 442
q83 -8 159.5 53t88.5 144q10 81 -20 134t-132 99l-115 52q-95 -9 -175.5 -74t-90.5 -143q-8 -66 23.5 -110t134.5 -93z" />
    <glyph glyph-name="dieresis" unicode="&#xa8;" horiz-adv-x="346" 
d="M248 1481l-25 -197h-96l27 197h94zM457 1481l-23 -197h-96l27 197h92z" />
    <glyph glyph-name="copyright" unicode="&#xa9;" horiz-adv-x="1581" 
d="M721 -20q-148 0 -274 60t-209.5 162t-122 243.5t-17.5 297.5q20 154 95.5 294.5t185 242t251 161.5t288.5 60q146 0 272 -61t209.5 -163.5t123 -243.5t19.5 -296q-28 -207 -148.5 -381.5t-299 -275t-373.5 -100.5zM725 68q171 0 327 82t266.5 238t137.5 355
q19 146 -16 273.5t-111 213.5t-184 135.5t-232 49.5q-129 0 -252.5 -50t-222.5 -137.5t-168 -215.5t-88 -275q-20 -149 14 -276t109 -212t184 -133t236 -48zM879 1178q173 0 276 -197l-68 -37q-73 156 -206 156q-125 0 -217.5 -99.5t-112.5 -257.5q-20 -155 43.5 -251.5
t185.5 -96.5q77 0 147 45.5t117 122.5l64 -43q-71 -96 -158 -149.5t-180 -53.5q-160 0 -244.5 119.5t-58.5 311.5q25 189 140.5 309.5t271.5 120.5z" />
    <glyph glyph-name="ordfeminine" unicode="&#xaa;" horiz-adv-x="833" 
d="M387 809q-100 0 -150.5 49t-39.5 135q23 186 327 213l140 15l8 55q10 76 -28.5 113.5t-123.5 37.5q-65 0 -110.5 -24t-90.5 -86l-61 33q42 68 113.5 106.5t158.5 38.5q113 0 168 -62t41 -169l-61 -445h-53l-2 99q-59 -57 -114.5 -83t-121.5 -26zM403 872q73 0 152.5 57
t85.5 113l14 115l-110 -10q-256 -20 -275 -160q-8 -53 28 -84t105 -31z" />
    <glyph glyph-name="guillemotleft" unicode="&#xab;" horiz-adv-x="802" 
d="M160 508l178 -352h-43l-234 360l328 373h60zM477 508l178 -352h-45l-233 360l330 373h57z" />
    <glyph glyph-name="logicalnot" unicode="&#xac;" horiz-adv-x="1040" 
d="M934 782l-2 -14h2l-47 -340h-70l35 279l-688 -2l12 75z" />
    <glyph glyph-name="uni00AD" unicode="&#xad;" horiz-adv-x="706" 
d="M600 571l-12 -79l-457 -3l10 80z" />
    <glyph glyph-name="registered" unicode="&#xae;" horiz-adv-x="1038" 
d="M526 549q-125 0 -220.5 63.5t-140.5 172.5t-28 239q13 97 60 185t116 152t157.5 102t180.5 38q123 0 219 -64t142 -174t28 -239q-13 -97 -60.5 -185t-116.5 -151.5t-157.5 -101t-179.5 -37.5zM535 618q170 0 291 110.5t147 295.5q25 183 -68 295.5t-262 112.5
q-171 0 -292 -112t-146 -296q-25 -185 66.5 -295.5t263.5 -110.5zM393 784l62 473h194q67 0 99.5 -30t25.5 -86q-11 -90 -115 -125l56 -232h-62l-49 228h-125l-30 -228h-56zM487 1067h123q97 0 105 66q3 32 -15.5 50.5t-76.5 18.5h-121z" />
    <glyph glyph-name="macron" unicode="&#xaf;" horiz-adv-x="520" 
d="M627 1440l-11 -76h-477l8 76h480z" />
    <glyph glyph-name="degree" unicode="&#xb0;" horiz-adv-x="897" 
d="M856 1409q-17 -130 -107.5 -212.5t-211.5 -82.5q-126 0 -195.5 85t-52.5 218q17 130 106.5 212.5t212.5 82.5q125 0 195 -85t53 -218zM774 1415q14 98 -32.5 158.5t-139.5 60.5q-95 0 -161.5 -63.5t-78.5 -163.5q-11 -100 36 -160.5t139 -60.5q94 0 159.5 64t77.5 165z
" />
    <glyph glyph-name="plusminus" unicode="&#xb1;" horiz-adv-x="1044" 
d="M608 922h346l-12 -76h-344l-47 -363h-72l47 361h-342l11 76h342l47 362h71zM94 166l10 76l758 2l-8 -76z" />
    <glyph glyph-name="uni00B2" unicode="&#xb2;" horiz-adv-x="737" 
d="M80 786l8 64l332 317q115 107 166 174.5t61 141.5q6 52 -8 91t-42.5 60.5t-61.5 32t-68 10.5q-70 0 -135.5 -32t-112.5 -99l-35 37q114 148 295 148q108 0 171 -65.5t46 -182.5q-12 -84 -66 -159.5t-186 -199.5l-305 -284h482l-7 -54h-534z" />
    <glyph glyph-name="uni00B3" unicode="&#xb3;" horiz-adv-x="757" 
d="M246 1604q49 59 125 93t153 34q123 0 190.5 -66.5t55.5 -165.5q-21 -153 -205 -217q96 -29 139 -93t31 -153q-16 -112 -109.5 -187t-244.5 -75q-87 0 -149 29t-117 96l45 39q79 -113 231 -113q122 0 199.5 57t89.5 150q14 102 -57 159.5t-177 57.5h-116l6 51h96
q107 0 190 57t93 142q11 76 -44 127t-151 51q-75 0 -132 -27t-109 -81z" />
    <glyph glyph-name="acute" unicode="&#xb4;" horiz-adv-x="516" 
d="M608 1505l17 -94l-484 -164l-16 60z" />
    <glyph glyph-name="uni00B5" unicode="&#xb5;" horiz-adv-x="1112" 
d="M72 -330l186 1387h76l-105 -785q-12 -88 47.5 -152.5t153.5 -64.5q168 0 397 213l107 789h78l-142 -1057h-71l20 158q-132 -99 -217 -138.5t-172 -39.5q-147 0 -225 96l-58 -406h-75z" />
    <glyph glyph-name="paragraph" unicode="&#xb6;" horiz-adv-x="1026" 
d="M983 1417h-113l-215 -1587h-63l211 1587h-80l-215 -1587h-66l105 776q-99 0 -175.5 36t-120 96t-61 135t-6.5 157q11 85 49 164t99 144t152 104t198 39h309z" />
    <glyph glyph-name="periodcentered" unicode="&#xb7;" horiz-adv-x="337" 
d="M287 823l-21 -157h-157l22 157h156z" />
    <glyph glyph-name="cedilla" unicode="&#xb8;" horiz-adv-x="374" 
d="M244 -262q-10 -69 -68.5 -107.5t-138.5 -38.5q-81 0 -143 56l28 45q38 -41 109 -41q118 0 131 90q6 46 -25.5 67.5t-105.5 24.5q-13 0 -13 10l91 166h65l-63 -127q149 -13 133 -145z" />
    <glyph glyph-name="uni00B9" unicode="&#xb9;" horiz-adv-x="581" 
d="M225 778l115 860l-193 -75l7 51l196 96h51l-122 -932h-54z" />
    <glyph glyph-name="ordmasculine" unicode="&#xba;" horiz-adv-x="815" 
d="M535 1499q136 0 203 -96t48 -256q-22 -151 -110 -242.5t-225 -91.5q-138 0 -203.5 94.5t-44.5 247.5q22 155 111.5 249.5t220.5 94.5zM532 1430q-103 0 -169.5 -76t-81.5 -201q-18 -128 26.5 -201t145.5 -73q104 0 170.5 75.5t85.5 206.5q15 122 -31 195.5t-146 73.5z
" />
    <glyph glyph-name="guillemotright" unicode="&#xbb;" horiz-adv-x="804" 
d="M324 518l-183 371h49l232 -381l-324 -352h-55zM639 518l-182 371h49l233 -381l-323 -352h-58z" />
    <glyph glyph-name="onequarter" unicode="&#xbc;" horiz-adv-x="1837" 
d="M197 565l114 860l-192 -75l6 51l197 96h51l-123 -932h-53zM1423 1497l-1147 -1505h-79l1149 1505h77zM1575 932h51l-82 -610h142l-9 -54h-139l-37 -268h-47l37 268h-426l8 64zM1122 322h371l68 524z" />
    <glyph glyph-name="onehalf" unicode="&#xbd;" horiz-adv-x="1781" 
d="M197 565l114 860l-192 -75l6 51l197 96h51l-123 -932h-53zM1423 1497l-1147 -1505h-79l1149 1505h77zM1014 0l8 63l332 318q115 107 166 174.5t61 140.5q6 52 -8 91.5t-42.5 61t-61.5 32t-68 10.5q-70 0 -135.5 -32t-112.5 -99l-35 37q113 147 295 147q108 0 171 -65.5
t46 -182.5q-12 -84 -66 -158.5t-186 -199.5l-305 -285h481l-6 -53h-534z" />
    <glyph glyph-name="threequarters" unicode="&#xbe;" horiz-adv-x="2027" 
d="M215 1389q48 59 125 93t154 34q123 0 190 -66.5t55 -165.5q-21 -154 -204 -217q96 -29 139 -93t31 -153q-16 -112 -110 -187t-245 -75q-87 0 -149 29t-117 96l45 39q79 -113 231 -113q122 0 199.5 57t89.5 150q14 102 -56.5 159.5t-176.5 57.5h-117l6 51h96q107 0 190 57
t93 142q11 76 -44 127t-151 51q-75 0 -132 -27t-109 -81zM1614 1497l-1147 -1505h-80l1149 1505h78zM1765 932h52l-82 -610h141l-8 -54h-139l-37 -268h-47l36 268h-426l9 64zM1313 322h370l68 524z" />
    <glyph glyph-name="questiondown" unicode="&#xbf;" horiz-adv-x="968" 
d="M487 899l23 158h119l-25 -158h-117zM805 -96q-73 -117 -199 -185.5t-264 -68.5q-183 0 -279.5 100.5t-74.5 267.5q9 68 39 125.5t71 100t89 83t96.5 82.5t90 89.5t72.5 114t41 145.5h80q-11 -85 -42 -156.5t-72.5 -121t-89.5 -93.5t-95.5 -83.5t-87.5 -80.5t-69 -95
t-37 -118q-15 -127 58.5 -201.5t213.5 -74.5q113 0 226 63.5t153 149.5z" />
    <glyph glyph-name="Agrave" unicode="&#xc0;" horiz-adv-x="1366" 
d="M621 1923l434 -197l-35 -55l-440 162zM41 0l715 1481h106l316 -1481h-84l-97 467h-645l-229 -467h-82zM391 555h588l-180 838z" />
    <glyph glyph-name="Aacute" unicode="&#xc1;" horiz-adv-x="1366" 
d="M1081 1929l17 -94l-484 -164l-16 60zM41 0l715 1481h106l316 -1481h-84l-97 467h-645l-229 -467h-82zM391 555h588l-180 838z" />
    <glyph glyph-name="Acircumflex" unicode="&#xc2;" horiz-adv-x="1366" 
d="M981 1708l-127 123l-168 -123h-119l258 197h62l205 -197h-111zM41 0l715 1481h106l316 -1481h-84l-97 467h-645l-229 -467h-82zM391 555h588l-180 838z" />
    <glyph glyph-name="Atilde" unicode="&#xc3;" horiz-adv-x="1366" 
d="M1106 1808q-64 -41 -145 -41q-52 0 -112 24t-95 24q-30 0 -54 -9.5t-43.5 -21.5t-29.5 -15l-21 62q71 51 139 51q43 0 111 -24.5t109 -24.5q25 0 43.5 6t41 19t35.5 18zM41 0l715 1481h106l316 -1481h-84l-97 467h-645l-229 -467h-82zM391 555h588l-180 838z" />
    <glyph glyph-name="Adieresis" unicode="&#xc4;" horiz-adv-x="1366" 
d="M805 1905l-25 -197h-96l27 197h94zM1014 1905l-23 -197h-96l27 197h92zM41 0l715 1481h106l316 -1481h-84l-97 467h-645l-229 -467h-82zM391 555h588l-180 838z" />
    <glyph glyph-name="Aring" unicode="&#xc5;" horiz-adv-x="1366" 
d="M1044 1819q-12 -84 -72.5 -139.5t-140.5 -55.5q-82 0 -128.5 59t-34.5 148q9 77 71 131.5t138 54.5q82 0 129.5 -56.5t37.5 -141.5zM963 1825q7 50 -19 81t-74 31q-46 0 -84.5 -34t-44.5 -86q-6 -44 22.5 -78.5t70.5 -34.5q48 0 85.5 36t43.5 85zM41 0l715 1481h106
l316 -1481h-84l-97 467h-645l-229 -467h-82zM391 555h588l-180 838z" />
    <glyph glyph-name="AE" unicode="&#xc6;" horiz-adv-x="1900" 
d="M1692 80l-11 -80h-790l67 475h-503l-324 -475h-90l1006 1481h804l-12 -80h-674l-80 -613h541l-12 -79h-541l-80 -629h699zM969 555l110 840l-577 -840h467z" />
    <glyph glyph-name="Ccedilla" unicode="&#xc7;" horiz-adv-x="1320" 
d="M823 1501q104 0 190.5 -33t142 -89t85 -128.5t27.5 -152.5l-86 -15q-5 151 -97.5 242.5t-267.5 91.5q-229 0 -371 -174t-188 -508q-86 -672 393 -672q147 0 263.5 83.5t168.5 230.5l80 -25q-24 -99 -101.5 -183.5t-184.5 -134t-218 -54.5l-49 -97q149 -13 133 -145
q-10 -69 -68 -107.5t-138 -38.5q-82 0 -144 56l29 45q38 -41 108 -41q119 0 132 90q6 46 -26 67.5t-106 24.5q-12 0 -12 10l74 138q-249 15 -356.5 209.5t-63.5 543.5q50 364 219 565t432 201z" />
    <glyph glyph-name="Egrave" unicode="&#xc8;" horiz-adv-x="1212" 
d="M596 1923l434 -197l-35 -55l-440 162zM158 0l196 1481h807l-10 -84h-731l-80 -606h678l-10 -84h-680l-82 -621l758 -2l-11 -84h-835z" />
    <glyph glyph-name="Eacute" unicode="&#xc9;" horiz-adv-x="1212" 
d="M1057 1929l16 -94l-483 -164l-17 60zM158 0l196 1481h807l-10 -84h-731l-80 -606h678l-10 -84h-680l-82 -621l758 -2l-11 -84h-835z" />
    <glyph glyph-name="Ecircumflex" unicode="&#xca;" horiz-adv-x="1212" 
d="M956 1708l-127 123l-167 -123h-119l258 197h61l205 -197h-111zM158 0l196 1481h807l-10 -84h-731l-80 -606h678l-10 -84h-680l-82 -621l758 -2l-11 -84h-835z" />
    <glyph glyph-name="Edieresis" unicode="&#xcb;" horiz-adv-x="1212" 
d="M780 1905l-24 -197h-97l27 197h94zM989 1905l-22 -197h-97l27 197h92zM158 0l196 1481h807l-10 -84h-731l-80 -606h678l-10 -84h-680l-82 -621l758 -2l-11 -84h-835z" />
    <glyph glyph-name="Igrave" unicode="&#xcc;" horiz-adv-x="528" 
d="M213 1923l434 -197l-35 -55l-440 162zM354 1481h76l-197 -1481h-75z" />
    <glyph glyph-name="Iacute" unicode="&#xcd;" horiz-adv-x="528" 
d="M674 1929l16 -94l-483 -164l-17 60zM354 1481h76l-197 -1481h-75z" />
    <glyph glyph-name="Icircumflex" unicode="&#xce;" horiz-adv-x="528" 
d="M573 1708l-127 123l-167 -123h-119l258 197h61l205 -197h-111zM354 1481h76l-197 -1481h-75z" />
    <glyph glyph-name="Idieresis" unicode="&#xcf;" horiz-adv-x="528" 
d="M397 1905l-24 -197h-97l27 197h94zM606 1905l-22 -197h-97l27 197h92zM354 1481h76l-197 -1481h-75z" />
    <glyph glyph-name="Eth" unicode="&#xd0;" horiz-adv-x="1290" 
d="M549 1479q388 -3 537.5 -178t99.5 -551q-52 -388 -261.5 -569t-598.5 -181h-207l94 705h-115l8 83h117l92 693h14.5t36.5 -0.5t51 -1t63.5 -0.5h68.5zM1102 741q11 96 12 175t-14.5 143t-39.5 114t-64 87t-87 63t-109.5 42t-131 23t-150.5 7h-129l-80 -607h379l-8 -83
h-383l-82 -621h115q351 0 538.5 152.5t233.5 504.5z" />
    <glyph glyph-name="Ntilde" unicode="&#xd1;" horiz-adv-x="1437" 
d="M1171 1808q-64 -41 -145 -41q-52 0 -112 24t-95 24q-30 0 -54 -9.5t-43.5 -21.5t-29.5 -15l-20 62q71 51 139 51q43 0 111 -24.5t108 -24.5q25 0 43.5 6t42 19t35.5 18zM1264 1481h75l-196 -1481h-66l-667 1315l-177 -1315h-75l196 1481h64l669 -1321z" />
    <glyph glyph-name="Ograve" unicode="&#xd2;" horiz-adv-x="1431" 
d="M639 1923l434 -197l-35 -55l-440 162zM643 -20q-271 0 -394.5 193.5t-76.5 559.5q51 370 228.5 569t447.5 199q269 0 393.5 -198t75.5 -566q-50 -367 -227 -562t-447 -195zM657 63q238 0 384 168.5t190 505.5q45 339 -56 509.5t-337 170.5q-237 0 -385 -171t-193 -509
q-44 -336 58 -505t339 -169z" />
    <glyph glyph-name="Oacute" unicode="&#xd3;" horiz-adv-x="1431" 
d="M1100 1929l16 -94l-483 -164l-17 60zM643 -20q-271 0 -394.5 193.5t-76.5 559.5q51 370 228.5 569t447.5 199q269 0 393.5 -198t75.5 -566q-50 -367 -227 -562t-447 -195zM657 63q238 0 384 168.5t190 505.5q45 339 -56 509.5t-337 170.5q-237 0 -385 -171t-193 -509
q-44 -336 58 -505t339 -169z" />
    <glyph glyph-name="Ocircumflex" unicode="&#xd4;" horiz-adv-x="1431" 
d="M999 1708l-127 123l-167 -123h-119l258 197h61l205 -197h-111zM643 -20q-271 0 -394.5 193.5t-76.5 559.5q51 370 228.5 569t447.5 199q269 0 393.5 -198t75.5 -566q-50 -367 -227 -562t-447 -195zM657 63q238 0 384 168.5t190 505.5q45 339 -56 509.5t-337 170.5
q-237 0 -385 -171t-193 -509q-44 -336 58 -505t339 -169z" />
    <glyph glyph-name="Otilde" unicode="&#xd5;" horiz-adv-x="1431" 
d="M1124 1808q-64 -41 -145 -41q-52 0 -112 24t-95 24q-30 0 -54 -9.5t-43.5 -21.5t-29.5 -15l-20 62q71 51 139 51q44 0 111 -24.5t108 -24.5q25 0 43.5 6t42 19t35.5 18zM643 -20q-271 0 -394.5 193.5t-76.5 559.5q51 370 228.5 569t447.5 199q269 0 393.5 -198t75.5 -566
q-50 -367 -227 -562t-447 -195zM657 63q238 0 384 168.5t190 505.5q45 339 -56 509.5t-337 170.5q-237 0 -385 -171t-193 -509q-44 -336 58 -505t339 -169z" />
    <glyph glyph-name="Odieresis" unicode="&#xd6;" horiz-adv-x="1431" 
d="M823 1905l-24 -197h-97l27 197h94zM1032 1905l-22 -197h-97l27 197h92zM643 -20q-271 0 -394.5 193.5t-76.5 559.5q51 370 228.5 569t447.5 199q269 0 393.5 -198t75.5 -566q-50 -367 -227 -562t-447 -195zM657 63q238 0 384 168.5t190 505.5q45 339 -56 509.5
t-337 170.5q-237 0 -385 -171t-193 -509q-44 -336 58 -505t339 -169z" />
    <glyph glyph-name="multiply" unicode="&#xd7;" horiz-adv-x="997" 
d="M932 1067l-354 -328l268 -325l-58 -52l-266 326l-352 -326l-47 60l352 326l-266 323l55 53l266 -325l353 325z" />
    <glyph glyph-name="Oslash" unicode="&#xd8;" horiz-adv-x="1347" 
d="M37 -29l-64 70l201 207q-83 190 -41 489q49 369 224.5 566.5t443.5 197.5q265 0 387 -188l180 192l66 -69l-203 -207q84 -188 41 -496q-47 -364 -223 -558.5t-445 -194.5q-264 0 -389 184zM242 319l886 930q-94 166 -331 166q-476 0 -570 -682q-34 -248 15 -414zM612 66
q476 0 566 673q34 257 -15 420l-884 -928q96 -165 333 -165z" />
    <glyph glyph-name="Ugrave" unicode="&#xd9;" horiz-adv-x="1382" 
d="M639 1923l434 -197l-35 -55l-440 162zM1151 459q-32 -241 -163.5 -360t-366.5 -119q-239 0 -335.5 124t-62.5 385l131 992h84l-135 -1026q-28 -196 54 -297t274 -101q390 0 446 398l135 1026h76z" />
    <glyph glyph-name="Uacute" unicode="&#xda;" horiz-adv-x="1382" 
d="M1100 1929l16 -94l-483 -164l-17 60zM1151 459q-32 -241 -163.5 -360t-366.5 -119q-239 0 -335.5 124t-62.5 385l131 992h84l-135 -1026q-28 -196 54 -297t274 -101q390 0 446 398l135 1026h76z" />
    <glyph glyph-name="Ucircumflex" unicode="&#xdb;" horiz-adv-x="1382" 
d="M999 1708l-127 123l-167 -123h-119l258 197h61l205 -197h-111zM1151 459q-32 -241 -163.5 -360t-366.5 -119q-239 0 -335.5 124t-62.5 385l131 992h84l-135 -1026q-28 -196 54 -297t274 -101q390 0 446 398l135 1026h76z" />
    <glyph glyph-name="Udieresis" unicode="&#xdc;" horiz-adv-x="1382" 
d="M823 1905l-24 -197h-97l27 197h94zM1032 1905l-22 -197h-97l27 197h92zM1151 459q-32 -241 -163.5 -360t-366.5 -119q-239 0 -335.5 124t-62.5 385l131 992h84l-135 -1026q-28 -196 54 -297t274 -101q390 0 446 398l135 1026h76z" />
    <glyph glyph-name="Yacute" unicode="&#xdd;" horiz-adv-x="1050" 
d="M924 1929l16 -94l-483 -164l-17 60zM1163 1481l-575 -844l-86 -637h-76l86 639l-358 842h77l328 -766l522 766h82z" />
    <glyph glyph-name="Thorn" unicode="&#xde;" horiz-adv-x="1239" 
d="M1204 774q-15 -109 -62.5 -190t-121 -128.5t-164 -70.5t-199.5 -23h-364l-47 -362h-88l196 1481h88l-43 -326h349q234 0 357.5 -94.5t98.5 -286.5zM1114 782q21 158 -75 225.5t-300 67.5h-350l-84 -633h359q404 0 450 340z" />
    <glyph glyph-name="germandbls" unicode="&#xdf;" horiz-adv-x="1136" 
d="M717 1481q81 0 137 -24t82.5 -65t35 -86.5t1.5 -95.5q-3 -24 -9 -45t-13 -38t-19.5 -33.5t-21.5 -27.5t-26 -24.5t-27.5 -21t-31.5 -19.5t-31.5 -17.5t-34 -17t-32.5 -16.5q-112 -59 -138 -81q-35 -30 -42 -78q-6 -47 19 -67t112 -54q122 -39 178 -77q143 -97 119 -282
q-15 -105 -74.5 -181.5t-143 -113t-179.5 -36.5q-69 0 -144 21t-119 56l45 60q94 -62 207 -62q137 0 224 68.5t104 189.5q10 65 -5.5 112.5t-59 80t-80 49t-101.5 39.5q-89 30 -121 52q-72 52 -59 151q10 70 59 118.5t160 104.5q6 3 19 9q42 20 64.5 32.5t53.5 36.5t48 55
t22 72q12 85 -39.5 132.5t-155.5 47.5q-136 0 -230 -87t-116 -253l-141 -1065h-76l131 987h-145l12 70h141q24 196 146 310t295 114z" />
    <glyph glyph-name="agrave" unicode="&#xe0;" horiz-adv-x="1103" 
d="M424 1499l434 -196l-35 -56l-440 162zM377 -20q-150 0 -226 77.5t-57 212.5q23 173 137.5 246.5t376.5 97.5l234 21l12 90q17 126 -50.5 201t-195.5 75q-199 0 -354 -196l-59 41q81 106 189 168.5t239 62.5q162 0 245.5 -92t61.5 -252l-96 -733h-70l16 164
q-184 -184 -403 -184zM399 55q83 0 174 41t156 108.5t74 137.5l28 219l-196 -16q-126 -10 -206.5 -27t-136 -49t-82 -78t-36.5 -117q-15 -102 46.5 -160.5t178.5 -58.5z" />
    <glyph glyph-name="aacute" unicode="&#xe1;" horiz-adv-x="1103" 
d="M885 1505l16 -94l-483 -164l-17 60zM377 -20q-150 0 -226 77.5t-57 212.5q23 173 137.5 246.5t376.5 97.5l234 21l12 90q17 126 -50.5 201t-195.5 75q-199 0 -354 -196l-59 41q81 106 189 168.5t239 62.5q162 0 245.5 -92t61.5 -252l-96 -733h-70l16 164
q-184 -184 -403 -184zM399 55q83 0 174 41t156 108.5t74 137.5l28 219l-196 -16q-126 -10 -206.5 -27t-136 -49t-82 -78t-36.5 -117q-15 -102 46.5 -160.5t178.5 -58.5z" />
    <glyph glyph-name="acircumflex" unicode="&#xe2;" horiz-adv-x="1103" 
d="M784 1284l-127 123l-168 -123h-118l258 197h61l205 -197h-111zM377 -20q-150 0 -226 77.5t-57 212.5q23 173 137.5 246.5t376.5 97.5l234 21l12 90q17 126 -50.5 201t-195.5 75q-199 0 -354 -196l-59 41q81 106 189 168.5t239 62.5q162 0 245.5 -92t61.5 -252l-96 -733
h-70l16 164q-184 -184 -403 -184zM399 55q83 0 174 41t156 108.5t74 137.5l28 219l-196 -16q-126 -10 -206.5 -27t-136 -49t-82 -78t-36.5 -117q-15 -102 46.5 -160.5t178.5 -58.5z" />
    <glyph glyph-name="atilde" unicode="&#xe3;" horiz-adv-x="1103" 
d="M909 1384q-64 -41 -145 -41q-52 0 -112 24t-95 24q-30 0 -54 -9.5t-43.5 -21t-29.5 -14.5l-20 61q71 51 139 51q43 0 110.5 -24.5t108.5 -24.5q25 0 43.5 6t42 19t35.5 18zM377 -20q-150 0 -226 77.5t-57 212.5q23 173 137.5 246.5t376.5 97.5l234 21l12 90
q17 126 -50.5 201t-195.5 75q-199 0 -354 -196l-59 41q81 106 189 168.5t239 62.5q162 0 245.5 -92t61.5 -252l-96 -733h-70l16 164q-184 -184 -403 -184zM399 55q83 0 174 41t156 108.5t74 137.5l28 219l-196 -16q-126 -10 -206.5 -27t-136 -49t-82 -78t-36.5 -117
q-15 -102 46.5 -160.5t178.5 -58.5z" />
    <glyph glyph-name="adieresis" unicode="&#xe4;" horiz-adv-x="1103" 
d="M608 1481l-24 -197h-97l27 197h94zM817 1481l-22 -197h-97l27 197h92zM377 -20q-150 0 -226 77.5t-57 212.5q23 173 137.5 246.5t376.5 97.5l234 21l12 90q17 126 -50.5 201t-195.5 75q-199 0 -354 -196l-59 41q81 106 189 168.5t239 62.5q162 0 245.5 -92t61.5 -252
l-96 -733h-70l16 164q-184 -184 -403 -184zM399 55q83 0 174 41t156 108.5t74 137.5l28 219l-196 -16q-126 -10 -206.5 -27t-136 -49t-82 -78t-36.5 -117q-15 -102 46.5 -160.5t178.5 -58.5z" />
    <glyph glyph-name="aring" unicode="&#xe5;" horiz-adv-x="1103" 
d="M848 1395q-12 -84 -72.5 -139.5t-140.5 -55.5q-82 0 -129 59t-35 148q9 77 71 131.5t138 54.5q82 0 130 -56.5t38 -141.5zM766 1401q7 50 -18.5 81t-73.5 31q-46 0 -84.5 -34t-44.5 -86q-6 -44 22.5 -78.5t69.5 -34.5q48 0 85.5 36t43.5 85zM377 -20q-150 0 -226 77.5
t-57 212.5q23 173 137.5 246.5t376.5 97.5l234 21l12 90q17 126 -50.5 201t-195.5 75q-199 0 -354 -196l-59 41q81 106 189 168.5t239 62.5q162 0 245.5 -92t61.5 -252l-96 -733h-70l16 164q-184 -184 -403 -184zM399 55q83 0 174 41t156 108.5t74 137.5l28 219l-196 -16
q-126 -10 -206.5 -27t-136 -49t-82 -78t-36.5 -117q-15 -102 46.5 -160.5t178.5 -58.5z" />
    <glyph glyph-name="ae" unicode="&#xe6;" horiz-adv-x="1847" 
d="M891 504q-13 -106 24 -209t115 -171.5t176 -68.5q59 0 111 13.5t88 32t71.5 49t55 53t45.5 55.5l59 -51q-63 -99 -182 -163t-254 -64q-67 0 -123 17.5t-91 40.5t-66.5 60t-46 61.5t-31.5 59.5q-7 7 -11 -8q-35 -38 -56.5 -60t-68 -59t-89.5 -58t-107.5 -37.5
t-134.5 -16.5q-149 0 -223.5 78.5t-55.5 215.5q41 298 496 340l254 23l10 90q18 128 -47.5 201t-204.5 73q-183 0 -346 -198l-59 47q74 106 188 166.5t236 60.5q279 0 303 -237q69 118 176.5 177.5t243.5 59.5q197 0 295 -150t65 -421zM1335 1001q-160 0 -282 -117
t-148 -304h727q23 176 -61.5 298.5t-235.5 122.5zM834 559l-209 -16q-213 -19 -322.5 -86t-124.5 -185q-14 -102 43.5 -161.5t175.5 -53.5q156 8 275.5 94t134.5 203z" />
    <glyph glyph-name="ccedilla" unicode="&#xe7;" horiz-adv-x="1079" 
d="M508 55q99 0 174.5 50.5t157.5 164.5l59 -45q-163 -231 -381 -245l-49 -97q149 -13 133 -145q-10 -69 -68.5 -107.5t-138.5 -38.5q-81 0 -143 56l29 45q38 -41 108 -41q118 0 131 90q6 46 -25.5 67.5t-105.5 24.5q-12 0 -12 10l74 138q-184 13 -270.5 160.5t-53.5 381.5
q33 248 171 400.5t339 152.5q119 0 195.5 -57t134.5 -170l-72 -43q-68 111 -121.5 152.5t-138.5 41.5q-169 0 -284.5 -129.5t-143.5 -343.5q-29 -215 51.5 -344t249.5 -129z" />
    <glyph glyph-name="egrave" unicode="&#xe8;" horiz-adv-x="1101" 
d="M442 1499l435 -196l-35 -56l-441 162zM205 506q-8 -72 -4.5 -138t26.5 -122.5t59.5 -98t95 -65t132.5 -23.5q111 0 184.5 46.5t132.5 140.5l70 -29q-67 -118 -170 -177.5t-227 -59.5q-203 0 -308.5 143t-70.5 397q35 263 168.5 410t337.5 147q193 0 283.5 -133.5
t56.5 -376.5l-10 -61h-756zM217 586h676q26 185 -44 298t-233 113q-88 0 -161 -35.5t-121 -95t-77.5 -131t-39.5 -149.5z" />
    <glyph glyph-name="eacute" unicode="&#xe9;" horiz-adv-x="1101" 
d="M903 1505l17 -94l-484 -164l-16 60zM205 506q-8 -72 -4.5 -138t26.5 -122.5t59.5 -98t95 -65t132.5 -23.5q111 0 184.5 46.5t132.5 140.5l70 -29q-67 -118 -170 -177.5t-227 -59.5q-203 0 -308.5 143t-70.5 397q35 263 168.5 410t337.5 147q193 0 283.5 -133.5
t56.5 -376.5l-10 -61h-756zM217 586h676q26 185 -44 298t-233 113q-88 0 -161 -35.5t-121 -95t-77.5 -131t-39.5 -149.5z" />
    <glyph glyph-name="ecircumflex" unicode="&#xea;" horiz-adv-x="1101" 
d="M803 1284l-127 123l-168 -123h-119l258 197h62l204 -197h-110zM205 506q-8 -72 -4.5 -138t26.5 -122.5t59.5 -98t95 -65t132.5 -23.5q111 0 184.5 46.5t132.5 140.5l70 -29q-67 -118 -170 -177.5t-227 -59.5q-203 0 -308.5 143t-70.5 397q35 263 168.5 410t337.5 147
q193 0 283.5 -133.5t56.5 -376.5l-10 -61h-756zM217 586h676q26 185 -44 298t-233 113q-88 0 -161 -35.5t-121 -95t-77.5 -131t-39.5 -149.5z" />
    <glyph glyph-name="edieresis" unicode="&#xeb;" horiz-adv-x="1101" 
d="M627 1481l-25 -197h-96l26 197h95zM836 1481l-23 -197h-96l26 197h93zM205 506q-8 -72 -4.5 -138t26.5 -122.5t59.5 -98t95 -65t132.5 -23.5q111 0 184.5 46.5t132.5 140.5l70 -29q-67 -118 -170 -177.5t-227 -59.5q-203 0 -308.5 143t-70.5 397q35 263 168.5 410
t337.5 147q193 0 283.5 -133.5t56.5 -376.5l-10 -61h-756zM217 586h676q26 185 -44 298t-233 113q-88 0 -161 -35.5t-121 -95t-77.5 -131t-39.5 -149.5z" />
    <glyph glyph-name="igrave" unicode="&#xec;" horiz-adv-x="452" 
d="M109 1499l434 -196l-35 -56l-440 162zM338 1057l-143 -1057h-78l143 1057h78z" />
    <glyph glyph-name="iacute" unicode="&#xed;" horiz-adv-x="446" 
d="M571 1505l17 -94l-484 -164l-16 60zM340 1057l-143 -1057h-78l143 1057h78z" />
    <glyph glyph-name="icircumflex" unicode="&#xee;" horiz-adv-x="448" 
d="M481 1284l-127 123l-168 -123h-118l258 197h61l205 -197h-111zM350 1057l-143 -1057h-78l143 1057h78z" />
    <glyph glyph-name="idieresis" unicode="&#xef;" horiz-adv-x="458" 
d="M301 1481l-25 -197h-96l27 197h94zM510 1481l-23 -197h-96l27 197h92zM346 1057l-143 -1057h-78l143 1057h78z" />
    <glyph glyph-name="eth" unicode="&#xf0;" horiz-adv-x="1148" 
d="M1030 504q-30 -233 -173 -378.5t-357 -145.5q-205 0 -312.5 146.5t-76.5 379.5q31 232 175 382t337 150q191 0 313 -139q-67 239 -270 395l-357 -198l-33 63l332 180q-92 57 -219 119l68 43q128 -54 225 -123l223 127l31 -69l-195 -103q193 -152 259.5 -358.5
t29.5 -470.5zM510 55q164 0 290.5 131.5t151.5 323.5q25 190 -65 321.5t-250 131.5q-163 0 -292.5 -134.5t-154.5 -324.5q-16 -124 19.5 -226.5t114.5 -162.5t186 -60z" />
    <glyph glyph-name="ntilde" unicode="&#xf1;" horiz-adv-x="1118" 
d="M956 1384q-64 -41 -145 -41q-52 0 -112 24t-95 24q-30 0 -54 -9.5t-43.5 -21t-29.5 -14.5l-20 61q71 51 139 51q44 0 111 -24.5t108 -24.5q25 0 43.5 6t42 19t35.5 18zM117 0l141 1057h70l-21 -158q138 98 222 138t184 40q150 0 218.5 -79.5t49.5 -213.5l-104 -784h-76
l100 752q18 120 -31.5 184.5t-169.5 64.5q-94 0 -176.5 -40.5t-222.5 -143.5l-106 -817h-78z" />
    <glyph glyph-name="ograve" unicode="&#xf2;" horiz-adv-x="1091" 
d="M444 1499l435 -196l-35 -56l-441 162zM471 -20q-204 0 -297 148t-59 394q31 249 167.5 402t340.5 153q201 0 294 -151.5t60 -399.5q-31 -247 -166.5 -396.5t-339.5 -149.5zM487 55q169 0 275.5 126.5t134.5 344.5q30 219 -43.5 347t-243.5 128q-171 0 -279 -128.5
t-136 -346.5q-30 -216 44.5 -343.5t247.5 -127.5z" />
    <glyph glyph-name="oacute" unicode="&#xf3;" horiz-adv-x="1091" 
d="M905 1505l17 -94l-484 -164l-16 60zM471 -20q-204 0 -297 148t-59 394q31 249 167.5 402t340.5 153q201 0 294 -151.5t60 -399.5q-31 -247 -166.5 -396.5t-339.5 -149.5zM487 55q169 0 275.5 126.5t134.5 344.5q30 219 -43.5 347t-243.5 128q-171 0 -279 -128.5
t-136 -346.5q-30 -216 44.5 -343.5t247.5 -127.5z" />
    <glyph glyph-name="ocircumflex" unicode="&#xf4;" horiz-adv-x="1091" 
d="M805 1284l-127 123l-168 -123h-119l258 197h62l204 -197h-110zM471 -20q-204 0 -297 148t-59 394q31 249 167.5 402t340.5 153q201 0 294 -151.5t60 -399.5q-31 -247 -166.5 -396.5t-339.5 -149.5zM487 55q169 0 275.5 126.5t134.5 344.5q30 219 -43.5 347t-243.5 128
q-171 0 -279 -128.5t-136 -346.5q-30 -216 44.5 -343.5t247.5 -127.5z" />
    <glyph glyph-name="otilde" unicode="&#xf5;" horiz-adv-x="1091" 
d="M930 1384q-64 -41 -146 -41q-52 0 -111.5 24t-94.5 24q-30 0 -54 -9.5t-43.5 -21t-29.5 -14.5l-21 61q71 51 139 51q43 0 111 -24.5t108 -24.5q25 0 43.5 6t42 19t35.5 18zM471 -20q-204 0 -297 148t-59 394q31 249 167.5 402t340.5 153q201 0 294 -151.5t60 -399.5
q-31 -247 -166.5 -396.5t-339.5 -149.5zM487 55q169 0 275.5 126.5t134.5 344.5q30 219 -43.5 347t-243.5 128q-171 0 -279 -128.5t-136 -346.5q-30 -216 44.5 -343.5t247.5 -127.5z" />
    <glyph glyph-name="odieresis" unicode="&#xf6;" horiz-adv-x="1091" 
d="M629 1481l-25 -197h-96l27 197h94zM838 1481l-23 -197h-96l26 197h93zM471 -20q-204 0 -297 148t-59 394q31 249 167.5 402t340.5 153q201 0 294 -151.5t60 -399.5q-31 -247 -166.5 -396.5t-339.5 -149.5zM487 55q169 0 275.5 126.5t134.5 344.5q30 219 -43.5 347
t-243.5 128q-171 0 -279 -128.5t-136 -346.5q-30 -216 44.5 -343.5t247.5 -127.5z" />
    <glyph glyph-name="divide" unicode="&#xf7;" horiz-adv-x="1038" 
d="M682 1139l-23 -158h-157l24 158h156zM934 782l-10 -75l-760 -2l12 75zM596 504l-21 -156h-155l20 156h156z" />
    <glyph glyph-name="oslash" unicode="&#xf8;" horiz-adv-x="1085" 
d="M1118 1001l-200 -182q36 -118 14 -293q-31 -247 -166.5 -396.5t-339.5 -149.5q-192 0 -287 131l-131 -119l-45 61l139 127q-60 132 -32 342q31 249 167.5 402t340.5 153q220 0 311 -180l180 164zM150 526q-24 -172 18 -286l657 600q-68 161 -260 161q-171 0 -279 -128.5
t-136 -346.5zM852 526q19 134 -2 232l-647 -588q79 -115 239 -115q169 0 275.5 126.5t134.5 344.5z" />
    <glyph glyph-name="ugrave" unicode="&#xf9;" horiz-adv-x="1118" 
d="M426 1499l434 -196l-35 -56l-440 162zM422 -18q-149 3 -217.5 82.5t-50.5 211.5l104 785h76l-101 -750q-18 -121 31 -186.5t168 -65.5q95 0 176.5 40.5t225.5 144.5l108 817h76l-141 -1059h-70l20 160q-100 -70 -151 -102t-118 -55.5t-136 -22.5z" />
    <glyph glyph-name="uacute" unicode="&#xfa;" horiz-adv-x="1118" 
d="M887 1505l16 -94l-483 -164l-17 60zM422 -18q-149 3 -217.5 82.5t-50.5 211.5l104 785h76l-101 -750q-18 -121 31 -186.5t168 -65.5q95 0 176.5 40.5t225.5 144.5l108 817h76l-141 -1059h-70l20 160q-100 -70 -151 -102t-118 -55.5t-136 -22.5z" />
    <glyph glyph-name="ucircumflex" unicode="&#xfb;" horiz-adv-x="1118" 
d="M786 1284l-127 123l-167 -123h-119l258 197h61l205 -197h-111zM422 -18q-149 3 -217.5 82.5t-50.5 211.5l104 785h76l-101 -750q-18 -121 31 -186.5t168 -65.5q95 0 176.5 40.5t225.5 144.5l108 817h76l-141 -1059h-70l20 160q-100 -70 -151 -102t-118 -55.5t-136 -22.5z
" />
    <glyph glyph-name="udieresis" unicode="&#xfc;" horiz-adv-x="1118" 
d="M610 1481l-24 -197h-97l27 197h94zM819 1481l-22 -197h-97l27 197h92zM422 -18q-149 3 -217.5 82.5t-50.5 211.5l104 785h76l-101 -750q-18 -121 31 -186.5t168 -65.5q95 0 176.5 40.5t225.5 144.5l108 817h76l-141 -1059h-70l20 160q-100 -70 -151 -102t-118 -55.5
t-136 -22.5z" />
    <glyph glyph-name="yacute" unicode="&#xfd;" horiz-adv-x="1009" 
d="M864 1505l17 -94l-484 -164l-16 60zM119 -338q-44 0 -74.5 4t-38.5 8l-8 4l8 56h109q86 0 136 34t83 97l72 141l-254 1051h81l226 -942l473 942h74l-600 -1211q-97 -184 -287 -184z" />
    <glyph glyph-name="thorn" unicode="&#xfe;" horiz-adv-x="1140" 
d="M78 -330l239 1811h74l-78 -574q2 2 17 17.5t24.5 25t30.5 27.5t39.5 29.5t46.5 26t56 23.5t64.5 15t74.5 6q192 0 294.5 -138t67.5 -394q-34 -256 -176 -410.5t-350 -154.5q-179 0 -293 129l-55 -439h-76zM504 55q168 0 291.5 132.5t152.5 357.5q30 223 -57.5 339.5
t-239.5 116.5q-134 0 -239.5 -89.5t-118.5 -186.5l-72 -520q134 -150 283 -150z" />
    <glyph glyph-name="ydieresis" unicode="&#xff;" horiz-adv-x="1009" 
d="M588 1481l-25 -197h-96l27 197h94zM797 1481l-23 -197h-96l27 197h92zM119 -338q-44 0 -74.5 4t-38.5 8l-8 4l8 56h109q86 0 136 34t83 97l72 141l-254 1051h81l226 -942l473 942h74l-600 -1211q-97 -184 -287 -184z" />
    <glyph glyph-name="Amacron" unicode="&#x100;" horiz-adv-x="1366" 
d="M1098 1864l-11 -76h-477l8 76h480zM41 0l715 1481h106l316 -1481h-84l-97 467h-645l-229 -467h-82zM391 555h588l-180 838z" />
    <glyph glyph-name="amacron" unicode="&#x101;" horiz-adv-x="1103" 
d="M901 1440l-10 -76h-477l8 76h479zM377 -20q-150 0 -226 77.5t-57 212.5q23 173 137.5 246.5t376.5 97.5l234 21l12 90q17 126 -50.5 201t-195.5 75q-199 0 -354 -196l-59 41q81 106 189 168.5t239 62.5q162 0 245.5 -92t61.5 -252l-96 -733h-70l16 164
q-184 -184 -403 -184zM399 55q83 0 174 41t156 108.5t74 137.5l28 219l-196 -16q-126 -10 -206.5 -27t-136 -49t-82 -78t-36.5 -117q-15 -102 46.5 -160.5t178.5 -58.5z" />
    <glyph glyph-name="Abreve" unicode="&#x102;" horiz-adv-x="1366" 
d="M1108 1903q-13 -29 -35.5 -58t-56.5 -59t-83 -49t-104 -19q-103 0 -161 57t-58 128h92q1 -2 14 -26t23.5 -37t37 -26.5t61.5 -13.5q23 0 44 5.5t35 12.5t30.5 20.5t24 21t22.5 23.5t18 20h96zM41 0l715 1481h106l316 -1481h-84l-97 467h-645l-229 -467h-82zM391 555h588
l-180 838z" />
    <glyph glyph-name="abreve" unicode="&#x103;" horiz-adv-x="1103" 
d="M911 1479q-13 -29 -35.5 -58t-56 -59t-82.5 -49t-104 -19q-103 0 -161 57t-58 128h92q1 -2 14 -26t23 -37t36.5 -26.5t61.5 -13.5q23 0 44 5.5t35 12.5t30.5 20.5t24 21t22.5 23.5t18 20h96zM377 -20q-150 0 -226 77.5t-57 212.5q23 173 137.5 246.5t376.5 97.5l234 21
l12 90q17 126 -50.5 201t-195.5 75q-199 0 -354 -196l-59 41q81 106 189 168.5t239 62.5q162 0 245.5 -92t61.5 -252l-96 -733h-70l16 164q-184 -184 -403 -184zM399 55q83 0 174 41t156 108.5t74 137.5l28 219l-196 -16q-126 -10 -206.5 -27t-136 -49t-82 -78t-36.5 -117
q-15 -102 46.5 -160.5t178.5 -58.5z" />
    <glyph glyph-name="Aogonek" unicode="&#x104;" horiz-adv-x="1366" 
d="M1049 -270q85 0 147 37l-10 -74q-72 -31 -158 -31q-89 0 -128 44t-30 116q9 66 59 112.5t161 81.5l-93 451h-645l-229 -467h-82l715 1481h106l316 -1481h-13q-106 -48 -155 -90.5t-56 -99.5q-6 -40 16.5 -60t78.5 -20zM391 555h588l-180 838z" />
    <glyph glyph-name="aogonek" unicode="&#x105;" horiz-adv-x="1105" 
d="M817 0q-99 -47 -145.5 -87.5t-53.5 -96.5q-6 -40 16.5 -60t78.5 -20q85 0 147 37l-10 -74q-72 -31 -158 -31q-89 0 -127.5 43.5t-29.5 116.5q9 68 62 115.5t169 81.5l14 139q-184 -184 -403 -184q-150 0 -226 77.5t-57 212.5q23 173 137.5 246.5t376.5 97.5l234 21l12 90
q17 126 -50.5 201t-195.5 75q-199 0 -354 -196l-59 41q81 106 189 168.5t239 62.5q162 0 245.5 -92t61.5 -252l-96 -733h-17zM399 55q83 0 174 41t156 108.5t74 137.5l28 219l-196 -16q-126 -10 -206.5 -27t-136 -49t-82 -78t-36.5 -117q-15 -102 46.5 -160.5t178.5 -58.5z
" />
    <glyph glyph-name="Cacute" unicode="&#x106;" horiz-adv-x="1320" 
d="M1108 1929l16 -94l-483 -164l-16 60zM823 1501q104 0 190.5 -33t142 -89t85 -128.5t27.5 -152.5l-86 -15q-5 151 -97.5 242.5t-267.5 91.5q-229 0 -371 -174t-188 -508q-86 -672 393 -672q147 0 263.5 83.5t168.5 230.5l80 -25q-38 -156 -195 -264t-333 -108
q-272 0 -390.5 196t-72.5 559q50 364 219 565t432 201z" />
    <glyph glyph-name="cacute" unicode="&#x107;" horiz-adv-x="1079" 
d="M907 1505l17 -94l-484 -164l-16 60zM637 1077q119 0 195.5 -57t134.5 -170l-72 -43q-68 111 -121.5 152.5t-138.5 41.5q-169 0 -284.5 -129.5t-143.5 -343.5q-29 -215 51.5 -344t249.5 -129q99 0 174.5 50.5t157.5 164.5l59 -45q-87 -124 -187.5 -184.5t-224.5 -60.5
q-202 0 -298 149t-62 395q33 248 171 400.5t339 152.5z" />
    <glyph glyph-name="Ccircumflex" unicode="&#x108;" horiz-adv-x="1320" 
d="M1008 1708l-127 123l-168 -123h-119l258 197h61l205 -197h-110zM823 1501q104 0 190.5 -33t142 -89t85 -128.5t27.5 -152.5l-86 -15q-5 151 -97.5 242.5t-267.5 91.5q-229 0 -371 -174t-188 -508q-86 -672 393 -672q147 0 263.5 83.5t168.5 230.5l80 -25
q-38 -156 -195 -264t-333 -108q-272 0 -390.5 196t-72.5 559q50 364 219 565t432 201z" />
    <glyph glyph-name="ccircumflex" unicode="&#x109;" horiz-adv-x="1079" 
d="M807 1284l-127 123l-168 -123h-119l258 197h62l205 -197h-111zM637 1077q119 0 195.5 -57t134.5 -170l-72 -43q-68 111 -121.5 152.5t-138.5 41.5q-169 0 -284.5 -129.5t-143.5 -343.5q-29 -215 51.5 -344t249.5 -129q99 0 174.5 50.5t157.5 164.5l59 -45
q-87 -124 -187.5 -184.5t-224.5 -60.5q-202 0 -298 149t-62 395q33 248 171 400.5t339 152.5z" />
    <glyph glyph-name="Cdotaccent" unicode="&#x10a;" horiz-adv-x="1320" 
d="M940 1905l-25 -197h-96l27 197h94zM823 1501q104 0 190.5 -33t142 -89t85 -128.5t27.5 -152.5l-86 -15q-5 151 -97.5 242.5t-267.5 91.5q-229 0 -371 -174t-188 -508q-86 -672 393 -672q147 0 263.5 83.5t168.5 230.5l80 -25q-38 -156 -195 -264t-333 -108
q-272 0 -390.5 196t-72.5 559q50 364 219 565t432 201z" />
    <glyph glyph-name="cdotaccent" unicode="&#x10b;" horiz-adv-x="1079" 
d="M739 1481l-24 -197h-97l27 197h94zM637 1077q119 0 195.5 -57t134.5 -170l-72 -43q-68 111 -121.5 152.5t-138.5 41.5q-169 0 -284.5 -129.5t-143.5 -343.5q-29 -215 51.5 -344t249.5 -129q99 0 174.5 50.5t157.5 164.5l59 -45q-87 -124 -187.5 -184.5t-224.5 -60.5
q-202 0 -298 149t-62 395q33 248 171 400.5t339 152.5z" />
    <glyph glyph-name="Ccaron" unicode="&#x10c;" horiz-adv-x="1320" 
d="M1030 1905h123l-252 -197h-61l-207 197h102l135 -123zM823 1501q104 0 190.5 -33t142 -89t85 -128.5t27.5 -152.5l-86 -15q-5 151 -97.5 242.5t-267.5 91.5q-229 0 -371 -174t-188 -508q-86 -672 393 -672q147 0 263.5 83.5t168.5 230.5l80 -25q-38 -156 -195 -264
t-333 -108q-272 0 -390.5 196t-72.5 559q50 364 219 565t432 201z" />
    <glyph glyph-name="ccaron" unicode="&#x10d;" horiz-adv-x="1079" 
d="M829 1481h123l-252 -197h-61l-207 197h103l135 -123zM637 1077q119 0 195.5 -57t134.5 -170l-72 -43q-68 111 -121.5 152.5t-138.5 41.5q-169 0 -284.5 -129.5t-143.5 -343.5q-29 -215 51.5 -344t249.5 -129q99 0 174.5 50.5t157.5 164.5l59 -45q-87 -124 -187.5 -184.5
t-224.5 -60.5q-202 0 -298 149t-62 395q33 248 171 400.5t339 152.5z" />
    <glyph glyph-name="Dcaron" unicode="&#x10e;" horiz-adv-x="1329" 
d="M969 1905h123l-252 -197h-62l-207 197h103l135 -123zM354 1481h14.5t36.5 -0.5t51 -1t63.5 -0.5h68.5q388 -3 537.5 -178t99.5 -551q-52 -388 -261.5 -569t-598.5 -181h-207zM428 1395l-174 -1311h115q351 0 538.5 152.5t233.5 504.5q11 96 12 175t-14.5 143t-39.5 114
t-64 87t-87 63t-109.5 42t-131 23t-150.5 7h-129z" />
    <glyph glyph-name="dcaron" unicode="&#x10f;" horiz-adv-x="1210" 
d="M461 -20q-188 0 -280 135.5t-56 392.5q33 259 167.5 414t340.5 155q87 0 152 -31t133 -98l77 572h78l-203 -1520h-71l18 158q-161 -178 -356 -178zM1137 1130l92 170l-33 9l23 172h102l-23 -181l-92 -170h-69zM483 55q85 0 166.5 46.5t131.5 111.5t59 127l67 510
q-129 151 -284 151q-166 0 -277.5 -129t-140.5 -356q-31 -228 47 -344.5t231 -116.5z" />
    <glyph glyph-name="Dcroat" unicode="&#x110;" horiz-adv-x="1290" 
d="M549 1479q388 -3 537.5 -178t99.5 -551q-52 -388 -261.5 -569t-598.5 -181h-207l94 705h-115l8 83h117l92 693h14.5t36.5 -0.5t51 -1t63.5 -0.5h68.5zM1102 741q11 96 12 175t-14.5 143t-39.5 114t-64 87t-87 63t-109.5 42t-131 23t-150.5 7h-129l-80 -607h379l-8 -83
h-383l-82 -621h115q351 0 538.5 152.5t233.5 504.5z" />
    <glyph glyph-name="dcroat" unicode="&#x111;" horiz-adv-x="1228" 
d="M1288 1321l-10 -70h-240l-168 -1251h-71l18 158q-161 -178 -356 -178q-188 0 -280 135.5t-56 392.5q33 259 167.5 414t340.5 155q87 0 152 -31t133 -98l40 303h-229l10 70h230l26 199h78l-26 -199h241zM840 340l67 510q-129 151 -284 151q-166 0 -277.5 -129t-140.5 -356
q-31 -228 47 -344.5t231 -116.5q85 0 166.5 46.5t131.5 111.5t59 127z" />
    <glyph glyph-name="Emacron" unicode="&#x112;" horiz-adv-x="1212" 
d="M1073 1864l-10 -76h-477l8 76h479zM158 0l196 1481h807l-10 -84h-731l-80 -606h678l-10 -84h-680l-82 -621l758 -2l-11 -84h-835z" />
    <glyph glyph-name="emacron" unicode="&#x113;" horiz-adv-x="1101" 
d="M920 1440l-11 -76h-477l8 76h480zM205 506q-8 -72 -4.5 -138t26.5 -122.5t59.5 -98t95 -65t132.5 -23.5q111 0 184.5 46.5t132.5 140.5l70 -29q-67 -118 -170 -177.5t-227 -59.5q-203 0 -308.5 143t-70.5 397q35 263 168.5 410t337.5 147q193 0 283.5 -133.5t56.5 -376.5
l-10 -61h-756zM217 586h676q26 185 -44 298t-233 113q-88 0 -161 -35.5t-121 -95t-77.5 -131t-39.5 -149.5z" />
    <glyph glyph-name="Ebreve" unicode="&#x114;" horiz-adv-x="1212" 
d="M1083 1903q-13 -29 -35.5 -58t-56 -59t-82.5 -49t-104 -19q-103 0 -161 57t-58 128h92q1 -2 14 -26t23 -37t36.5 -26.5t61.5 -13.5q23 0 44 5.5t35 12.5t30.5 20.5t24 21t22.5 23.5t18 20h96zM158 0l196 1481h807l-10 -84h-731l-80 -606h678l-10 -84h-680l-82 -621
l758 -2l-11 -84h-835z" />
    <glyph glyph-name="ebreve" unicode="&#x115;" horiz-adv-x="1101" 
d="M930 1479q-13 -29 -35.5 -58t-56.5 -59t-83 -49t-104 -19q-103 0 -161 57t-58 128h92q1 -2 14 -26t23 -37t36.5 -26.5t61.5 -13.5q23 0 44 5.5t35 12t31 20.5t24.5 21t22.5 24t18 20h96zM205 506q-8 -72 -4.5 -138t26.5 -122.5t59.5 -98t95 -65t132.5 -23.5
q111 0 184.5 46.5t132.5 140.5l70 -29q-67 -118 -170 -177.5t-227 -59.5q-203 0 -308.5 143t-70.5 397q35 263 168.5 410t337.5 147q193 0 283.5 -133.5t56.5 -376.5l-10 -61h-756zM217 586h676q26 185 -44 298t-233 113q-88 0 -161 -35.5t-121 -95t-77.5 -131t-39.5 -149.5
z" />
    <glyph glyph-name="Edotaccent" unicode="&#x116;" horiz-adv-x="1212" 
d="M889 1905l-25 -197h-96l27 197h94zM158 0l196 1481h807l-10 -84h-731l-80 -606h678l-10 -84h-680l-82 -621l758 -2l-11 -84h-835z" />
    <glyph glyph-name="edotaccent" unicode="&#x117;" horiz-adv-x="1101" 
d="M735 1481l-24 -197h-97l27 197h94zM205 506q-8 -72 -4.5 -138t26.5 -122.5t59.5 -98t95 -65t132.5 -23.5q111 0 184.5 46.5t132.5 140.5l70 -29q-67 -118 -170 -177.5t-227 -59.5q-203 0 -308.5 143t-70.5 397q35 263 168.5 410t337.5 147q193 0 283.5 -133.5
t56.5 -376.5l-10 -61h-756zM217 586h676q26 185 -44 298t-233 113q-88 0 -161 -35.5t-121 -95t-77.5 -131t-39.5 -149.5z" />
    <glyph glyph-name="Eogonek" unicode="&#x118;" horiz-adv-x="1212" 
d="M1151 1397h-731l-80 -606h678l-10 -84h-680l-82 -621l758 -2l-11 -84h-18l6 -2q-105 -48 -154.5 -90.5t-56.5 -100.5q-6 -40 16 -59.5t78 -19.5q88 0 148 36l-11 -73q-72 -31 -157 -31q-89 0 -128 44t-30 116q8 59 49.5 102.5t130.5 77.5h-708l196 1481h807z" />
    <glyph glyph-name="eogonek" unicode="&#x119;" horiz-adv-x="1101" 
d="M631 1077q193 0 283.5 -133.5t56.5 -376.5l-10 -61h-756q-8 -72 -4.5 -138t26.5 -122.5t59.5 -98t95 -65t132.5 -23.5q111 0 184.5 46.5t132.5 140.5l70 -29q-83 -148 -229 -207q-101 -47 -148.5 -88.5t-54.5 -97.5q-6 -41 16 -60.5t78 -19.5q86 0 148 37l-11 -74
q-72 -31 -157 -31q-89 0 -128 44t-30 116q13 91 102 144q-195 6 -295.5 149t-66.5 391q35 263 168.5 410t337.5 147zM893 586q26 185 -44 298t-233 113q-88 0 -161 -35.5t-121 -95t-77.5 -131t-39.5 -149.5h676z" />
    <glyph glyph-name="Ecaron" unicode="&#x11a;" horiz-adv-x="1212" 
d="M979 1905h123l-252 -197h-62l-206 197h102l135 -123zM158 0l196 1481h807l-10 -84h-731l-80 -606h678l-10 -84h-680l-82 -621l758 -2l-11 -84h-835z" />
    <glyph glyph-name="ecaron" unicode="&#x11b;" horiz-adv-x="1101" 
d="M825 1481h123l-252 -197h-61l-207 197h102l136 -123zM205 506q-8 -72 -4.5 -138t26.5 -122.5t59.5 -98t95 -65t132.5 -23.5q111 0 184.5 46.5t132.5 140.5l70 -29q-67 -118 -170 -177.5t-227 -59.5q-203 0 -308.5 143t-70.5 397q35 263 168.5 410t337.5 147
q193 0 283.5 -133.5t56.5 -376.5l-10 -61h-756zM217 586h676q26 185 -44 298t-233 113q-88 0 -161 -35.5t-121 -95t-77.5 -131t-39.5 -149.5z" />
    <glyph glyph-name="Gcircumflex" unicode="&#x11c;" horiz-adv-x="1413" 
d="M1006 1708l-127 123l-168 -123h-119l258 197h61l205 -197h-110zM633 -20q-264 0 -385.5 198.5t-75.5 556.5q51 364 227.5 565t436.5 201q115 0 215.5 -54.5t159 -147t55.5 -197.5l-90 -17q-5 142 -102.5 237t-246.5 95q-229 0 -379.5 -177.5t-193.5 -494.5
q-44 -330 57 -508t332 -178q87 0 164.5 29t133.5 75.5t99.5 106t68 120t32.5 118.5l22 174h-391l10 70h467l-100 -752h-76l33 258q-77 -126 -198 -202t-275 -76z" />
    <glyph glyph-name="gcircumflex" unicode="&#x11d;" horiz-adv-x="1169" 
d="M799 1284l-127 123l-168 -123h-119l258 197h62l204 -197h-110zM430 -350q-219 0 -326.5 78.5t-87.5 218.5q18 143 205 248q26 13 4 22q-66 35 -57 100q13 90 166 138q-88 54 -118.5 118t-16.5 164q20 158 137 247t305 89q173 0 260 -90q11 -8 15.5 -8t17.5 6
q74 35 213 90l-17 -117l-139 -28q-34 -7 -40 -13.5t1 -25.5q0 -2 3.5 -13.5t5.5 -19t4.5 -22.5t3.5 -28t0.5 -31t-2.5 -36q-20 -142 -128 -230.5t-298 -88.5h-21q-138 -3 -202.5 -31.5t-69.5 -67.5q-4 -35 35.5 -49.5t160.5 -23.5l226 -15q288 -17 256 -270
q-20 -149 -150 -230t-346 -81zM553 494q303 0 338 245q19 125 -50.5 191.5t-219.5 66.5t-241 -67.5t-106 -190.5q-15 -120 56.5 -182.5t222.5 -62.5zM457 -272q360 0 389 233q11 87 -32.5 134.5t-158.5 54.5l-327 22q-33 2 -83 -24t-95.5 -79t-53.5 -114
q-15 -110 79.5 -168.5t281.5 -58.5z" />
    <glyph glyph-name="Gbreve" unicode="&#x11e;" horiz-adv-x="1413" 
d="M1133 1903q-13 -29 -35.5 -58t-56.5 -59t-83 -49t-104 -19q-103 0 -161 57t-58 128h92q1 -2 14 -26t23 -37t36.5 -26.5t61.5 -13.5q23 0 44 5.5t35 12.5t30.5 20.5t24 21t22.5 23.5t18 20h97zM633 -20q-264 0 -385.5 198.5t-75.5 556.5q51 364 227.5 565t436.5 201
q115 0 215.5 -54.5t159 -147t55.5 -197.5l-90 -17q-5 142 -102.5 237t-246.5 95q-229 0 -379.5 -177.5t-193.5 -494.5q-44 -330 57 -508t332 -178q87 0 164.5 29t133.5 75.5t99.5 106t68 120t32.5 118.5l22 174h-391l10 70h467l-100 -752h-76l33 258q-77 -126 -198 -202
t-275 -76z" />
    <glyph glyph-name="gbreve" unicode="&#x11f;" horiz-adv-x="1169" 
d="M926 1479q-13 -29 -35.5 -58t-56.5 -59t-83 -49t-104 -19q-103 0 -161 57t-58 128h92q1 -2 14 -26t23 -37t36.5 -26.5t61.5 -13.5q23 0 44 5.5t35 12.5t30.5 20.5t24 21t22.5 23.5t18 20h97zM430 -350q-219 0 -326.5 78.5t-87.5 218.5q18 143 205 248q26 13 4 22
q-66 35 -57 100q13 90 166 138q-88 54 -118.5 118t-16.5 164q20 158 137 247t305 89q173 0 260 -90q11 -8 15.5 -8t17.5 6q74 35 213 90l-17 -117l-139 -28q-34 -7 -40 -13.5t1 -25.5q0 -2 3.5 -13.5t5.5 -19t4.5 -22.5t3.5 -28t0.5 -31t-2.5 -36q-20 -142 -128 -230.5
t-298 -88.5h-21q-138 -3 -202.5 -31.5t-69.5 -67.5q-4 -35 35.5 -49.5t160.5 -23.5l226 -15q288 -17 256 -270q-20 -149 -150 -230t-346 -81zM553 494q303 0 338 245q19 125 -50.5 191.5t-219.5 66.5t-241 -67.5t-106 -190.5q-15 -120 56.5 -182.5t222.5 -62.5zM457 -272
q360 0 389 233q11 87 -32.5 134.5t-158.5 54.5l-327 22q-33 2 -83 -24t-95.5 -79t-53.5 -114q-15 -110 79.5 -168.5t281.5 -58.5z" />
    <glyph glyph-name="Gdotaccent" unicode="&#x120;" horiz-adv-x="1413" 
d="M938 1905l-25 -197h-96l27 197h94zM633 -20q-264 0 -385.5 198.5t-75.5 556.5q51 364 227.5 565t436.5 201q115 0 215.5 -54.5t159 -147t55.5 -197.5l-90 -17q-5 142 -102.5 237t-246.5 95q-229 0 -379.5 -177.5t-193.5 -494.5q-44 -330 57 -508t332 -178q87 0 164.5 29
t133.5 75.5t99.5 106t68 120t32.5 118.5l22 174h-391l10 70h467l-100 -752h-76l33 258q-77 -126 -198 -202t-275 -76z" />
    <glyph glyph-name="gdotaccent" unicode="&#x121;" horiz-adv-x="1169" 
d="M731 1481l-24 -197h-97l27 197h94zM430 -350q-219 0 -326.5 78.5t-87.5 218.5q18 143 205 248q26 13 4 22q-66 35 -57 100q13 90 166 138q-88 54 -118.5 118t-16.5 164q20 158 137 247t305 89q173 0 260 -90q11 -8 15.5 -8t17.5 6q74 35 213 90l-17 -117l-139 -28
q-34 -7 -40 -13.5t1 -25.5q0 -2 3.5 -13.5t5.5 -19t4.5 -22.5t3.5 -28t0.5 -31t-2.5 -36q-20 -142 -128 -230.5t-298 -88.5h-21q-138 -3 -202.5 -31.5t-69.5 -67.5q-4 -35 35.5 -49.5t160.5 -23.5l226 -15q288 -17 256 -270q-20 -149 -150 -230t-346 -81zM553 494
q303 0 338 245q19 125 -50.5 191.5t-219.5 66.5t-241 -67.5t-106 -190.5q-15 -120 56.5 -182.5t222.5 -62.5zM457 -272q360 0 389 233q11 87 -32.5 134.5t-158.5 54.5l-327 22q-33 2 -83 -24t-95.5 -79t-53.5 -114q-15 -110 79.5 -168.5t281.5 -58.5z" />
    <glyph glyph-name="uni0122" unicode="&#x122;" horiz-adv-x="1413" 
d="M633 -20q-264 0 -385.5 198.5t-75.5 556.5q51 364 227.5 565t436.5 201q115 0 215.5 -54.5t159 -147t55.5 -197.5l-90 -17q-5 142 -102.5 237t-246.5 95q-229 0 -379.5 -177.5t-193.5 -494.5q-44 -330 57 -508t332 -178q87 0 164.5 29t133.5 75.5t99.5 106t68 120
t32.5 118.5l22 174h-391l10 70h467l-100 -752h-76l33 258q-77 -126 -198 -202t-275 -76zM518 -471l80 141h-47l22 166h109l-20 -172l-89 -135h-55z" />
    <glyph glyph-name="uni0123" unicode="&#x123;" horiz-adv-x="1169" 
d="M662 1262l24 172l86 135h55l-82 -142h48l-21 -165h-110zM430 -350q-219 0 -326.5 78.5t-87.5 218.5q18 143 205 248q26 13 4 22q-66 35 -57 100q13 90 166 138q-88 54 -118.5 118t-16.5 164q20 158 137 247t305 89q173 0 260 -90q11 -8 15.5 -8t17.5 6q74 35 213 90
l-17 -117l-139 -28q-34 -7 -40 -13.5t1 -25.5q0 -2 3.5 -13.5t5.5 -19t4.5 -22.5t3.5 -28t0.5 -31t-2.5 -36q-20 -142 -128 -230.5t-298 -88.5h-21q-138 -3 -202.5 -31.5t-69.5 -67.5q-4 -35 35.5 -49.5t160.5 -23.5l226 -15q288 -17 256 -270q-20 -149 -150 -230t-346 -81z
M553 494q303 0 338 245q19 125 -50.5 191.5t-219.5 66.5t-241 -67.5t-106 -190.5q-15 -120 56.5 -182.5t222.5 -62.5zM457 -272q360 0 389 233q11 87 -32.5 134.5t-158.5 54.5l-327 22q-33 2 -83 -24t-95.5 -79t-53.5 -114q-15 -110 79.5 -168.5t281.5 -58.5z" />
    <glyph glyph-name="Hcircumflex" unicode="&#x124;" horiz-adv-x="1380" 
d="M991 1708l-127 123l-168 -123h-118l258 197h61l205 -197h-111zM1106 729h-774l-99 -729h-75l196 1481h76l-88 -668h776l88 668h78l-199 -1481h-75z" />
    <glyph glyph-name="hcircumflex" unicode="&#x125;" horiz-adv-x="1122" 
d="M121 0l203 1520h69l-82 -621q138 98 222 138t184 40q150 0 218.5 -79.5t49.5 -213.5l-104 -784h-76l100 752q37 249 -200 249q-95 0 -177.5 -41t-222.5 -143l-106 -817h-78zM877 1284l-127 123l-168 -123h-119l258 197h61l205 -197h-110z" />
    <glyph glyph-name="Hbar" unicode="&#x126;" horiz-adv-x="1343" 
d="M1430 1233l-9 -80h-262l-155 -1153h-76l96 729h-774l-98 -729h-76l153 1153h-127l7 80h131l32 248h76l-33 -248h777l32 248h78l-33 -248h261zM1036 813l45 340h-776l-45 -340h776z" />
    <glyph glyph-name="hbar" unicode="&#x127;" horiz-adv-x="1034" 
d="M629 1077q150 0 218.5 -79.5t49.5 -213.5l-104 -784h-76l100 752q18 120 -31.5 184.5t-169.5 64.5q-94 0 -176.5 -40.5t-222.5 -143.5l-106 -817h-78l168 1251h-60l9 70h59l27 199h69l-26 -199h419l-10 -70h-418l-47 -352q138 98 222 138t184 40z" />
    <glyph glyph-name="Itilde" unicode="&#x128;" horiz-adv-x="501" 
d="M692 1808q-64 -41 -145 -41q-52 0 -112 24t-95 24q-30 0 -54 -9.5t-43.5 -21.5t-29.5 -15l-20 62q71 51 139 51q44 0 111 -24.5t108 -24.5q25 0 43.5 6t42 19t35.5 18zM348 1481h76l-197 -1481h-75z" />
    <glyph glyph-name="itilde" unicode="&#x129;" horiz-adv-x="452" 
d="M598 1384q-64 -41 -145 -41q-52 0 -112 24t-95 24q-30 0 -54 -9.5t-43.5 -21t-29.5 -14.5l-21 61q71 51 140 51q44 0 111.5 -24.5t107.5 -24.5q25 0 43.5 6t42 19t35.5 18zM342 1057l-143 -1057h-78l143 1057h78z" />
    <glyph glyph-name="Imacron" unicode="&#x12a;" horiz-adv-x="501" 
d="M686 1864l-10 -76h-477l8 76h479zM350 1481h76l-197 -1481h-75z" />
    <glyph glyph-name="imacron" unicode="&#x12b;" horiz-adv-x="450" 
d="M590 1440l-10 -76h-478l9 76h479zM342 1057l-143 -1057h-78l143 1057h78z" />
    <glyph glyph-name="Ibreve" unicode="&#x12c;" horiz-adv-x="528" 
d="M700 1903q-13 -29 -35.5 -58t-56 -59t-82.5 -49t-104 -19q-103 0 -161 57t-58 128h92q1 -2 14 -26t23 -37t36.5 -26.5t61.5 -13.5q23 0 44 5.5t35 12.5t30.5 20.5t24 21t22.5 23.5t18 20h96zM354 1481h76l-197 -1481h-75z" />
    <glyph glyph-name="ibreve" unicode="&#x12d;" horiz-adv-x="448" 
d="M608 1479q-13 -29 -35.5 -58t-56 -59t-82.5 -49t-104 -19q-103 0 -161 57t-58 128h92q1 -2 14 -26t23 -37t36.5 -26.5t61.5 -13.5q23 0 44 5.5t35 12.5t30.5 20.5t24 21t22.5 23.5t18 20h96zM350 1057l-143 -1057h-78l143 1057h78z" />
    <glyph glyph-name="Iogonek" unicode="&#x12e;" horiz-adv-x="507" 
d="M-8 -193q-6 -40 16 -59.5t78 -19.5q87 0 147 36l-10 -73q-72 -31 -157 -31q-89 0 -128 44t-30 116q10 67 61 114t166 82l195 1465h76l-197 -1481h-12l6 -2q-105 -48 -154.5 -90.5t-56.5 -100.5z" />
    <glyph glyph-name="iogonek" unicode="&#x12f;" horiz-adv-x="458" 
d="M297 1481h94l-24 -197h-97zM170 0q-101 -47 -148.5 -88.5t-54.5 -97.5q-6 -41 16 -60.5t78 -19.5q86 0 148 37l-10 -74q-72 -31 -158 -31q-89 0 -128 44t-30 116q10 67 61 114.5t165 82.5l141 1034h78l-144 -1057h-14z" />
    <glyph glyph-name="Idotaccent" unicode="&#x130;" horiz-adv-x="528" 
d="M506 1905l-25 -197h-96l27 197h94zM354 1481h76l-197 -1481h-75z" />
    <glyph glyph-name="dotlessi" unicode="&#x131;" horiz-adv-x="475" 
d="M348 1057l-143 -1057h-78l143 1057h78z" />
    <glyph glyph-name="Jcircumflex" unicode="&#x134;" horiz-adv-x="690" 
d="M764 1708l-127 123l-168 -123h-119l258 197h62l204 -197h-110zM467 287q-20 -151 -85 -229t-196 -78q-72 0 -129.5 21t-76.5 38l34 88q6 -3 29.5 -17.5t39 -22.5t46.5 -16t64 -8q94 0 138.5 56t63.5 196l156 1166h76z" />
    <glyph glyph-name="jcircumflex" unicode="&#x135;" horiz-adv-x="391" 
d="M440 1284l-127 123l-168 -123h-118l258 197h61l205 -197h-111zM152 -104q-18 -129 -68 -182.5t-174 -53.5q-48 0 -79.5 4t-38.5 8l-7 4l8 56l119 2q76 2 114.5 42t51.5 134l153 1147h78z" />
    <glyph glyph-name="uni0136" unicode="&#x136;" horiz-adv-x="1277" 
d="M1124 0h-100l-391 827l-328 -327l-67 -500h-80l196 1481h80l-112 -854l860 854h110l-592 -588zM461 -471l80 141h-47l22 166h109l-21 -172l-88 -135h-55z" />
    <glyph glyph-name="uni0137" unicode="&#x137;" horiz-adv-x="1083" 
d="M918 0h-95l-278 612l-307 -288l-39 -324h-78l203 1520h75l-145 -1076l649 613h115l-408 -385zM340 -471l80 141h-47l22 166h109l-21 -172l-88 -135h-55z" />
    <glyph glyph-name="kgreenlandic" unicode="&#x138;" horiz-adv-x="1075" 
d="M909 0h-90l-276 606l-310 -287l-40 -319h-78l143 1057h78l-84 -617l653 617h113l-412 -389z" />
    <glyph glyph-name="Lacute" unicode="&#x139;" horiz-adv-x="1093" 
d="M668 1929l16 -94l-483 -164l-17 60zM346 1481h84l-184 -1393h717l-13 -88h-800z" />
    <glyph glyph-name="lacute" unicode="&#x13a;" horiz-adv-x="569" 
d="M637 2009l16 -94l-483 -164l-16 59zM311 2q-96 0 -132.5 70t-20.5 186l168 1262h75l-168 -1262q-14 -96 14.5 -142t74.5 -46h63l-10 -60q-33 -8 -64 -8z" />
    <glyph glyph-name="uni013B" unicode="&#x13b;" horiz-adv-x="1101" 
d="M354 1481h84l-184 -1393h717l-13 -88h-800zM420 -471l80 141h-47l22 166h109l-21 -172l-88 -135h-55z" />
    <glyph glyph-name="uni013C" unicode="&#x13c;" horiz-adv-x="585" 
d="M305 2q-96 0 -132.5 70t-20.5 186l167 1262h76l-168 -1262q-14 -96 14 -142t74 -46h64l-10 -60q-33 -8 -64 -8zM25 -471l79 141h-47l23 166h108l-20 -172l-88 -135h-55z" />
    <glyph glyph-name="Lcaron" unicode="&#x13d;" horiz-adv-x="1101" 
d="M354 1481h84l-184 -1393h717l-13 -88h-800zM762 1130l92 170l-33 9l23 172h102l-22 -181l-93 -170h-69z" />
    <glyph glyph-name="lcaron" unicode="&#x13e;" horiz-adv-x="528" 
d="M309 2q-96 0 -132.5 70t-20.5 186l168 1262h75l-168 -1262q-14 -96 14 -142t74 -46h64l-10 -60q-33 -8 -64 -8zM455 1130l92 170l-33 9l23 172h102l-23 -181l-92 -170h-69z" />
    <glyph glyph-name="Ldot" unicode="&#x13f;" horiz-adv-x="1107" 
d="M354 1481h84l-184 -1393h717l-13 -88h-800zM977 870l-21 -157h-157l22 157h156z" />
    <glyph glyph-name="ldot" unicode="&#x140;" horiz-adv-x="493" 
d="M309 2q-96 0 -132.5 70t-20.5 186l168 1262h75l-168 -1262q-14 -96 14 -142t74 -46h64l-10 -60q-33 -8 -64 -8zM537 670l-21 -158h-158l23 158h156z" />
    <glyph glyph-name="Lslash" unicode="&#x141;" horiz-adv-x="1019" 
d="M172 88h717l-12 -88h-801l88 670l-80 -21l10 78l80 21l98 733h84l-94 -711l408 107l-11 -76l-407 -107z" />
    <glyph glyph-name="lslash" unicode="&#x142;" horiz-adv-x="421" 
d="M240 573l-41 -315q-14 -96 14 -142t74 -46h63l-10 -60q-33 -8 -64 -8q-96 0 -132.5 70t-20.5 186l33 240l-176 -154l14 98l174 152l123 926h76l-113 -850l246 215l-13 -97z" />
    <glyph glyph-name="Nacute" unicode="&#x143;" horiz-adv-x="1437" 
d="M1147 1929l16 -94l-483 -164l-16 60zM1264 1481h75l-196 -1481h-66l-667 1315l-177 -1315h-75l196 1481h64l669 -1321z" />
    <glyph glyph-name="nacute" unicode="&#x144;" horiz-adv-x="1118" 
d="M932 1505l16 -94l-483 -164l-16 60zM117 0l141 1057h70l-21 -158q138 98 222 138t184 40q150 0 218.5 -79.5t49.5 -213.5l-104 -784h-76l100 752q18 120 -31.5 184.5t-169.5 64.5q-94 0 -176.5 -40.5t-222.5 -143.5l-106 -817h-78z" />
    <glyph glyph-name="uni0145" unicode="&#x145;" horiz-adv-x="1437" 
d="M1264 1481h75l-196 -1481h-66l-667 1315l-177 -1315h-75l196 1481h64l669 -1321zM477 -471l80 141h-47l22 166h109l-20 -172l-89 -135h-55z" />
    <glyph glyph-name="uni0146" unicode="&#x146;" horiz-adv-x="1118" 
d="M117 0l141 1057h70l-21 -158q138 98 222 138t184 40q150 0 218.5 -79.5t49.5 -213.5l-104 -784h-76l100 752q18 120 -31.5 184.5t-169.5 64.5q-94 0 -176.5 -40.5t-222.5 -143.5l-106 -817h-78zM373 -471l80 141h-47l22 166h109l-21 -172l-88 -135h-55z" />
    <glyph glyph-name="Ncaron" unicode="&#x147;" horiz-adv-x="1437" 
d="M1069 1905h123l-252 -197h-61l-207 197h102l135 -123zM1264 1481h75l-196 -1481h-66l-667 1315l-177 -1315h-75l196 1481h64l669 -1321z" />
    <glyph glyph-name="ncaron" unicode="&#x148;" horiz-adv-x="1118" 
d="M854 1481h123l-252 -197h-61l-207 197h102l135 -123zM117 0l141 1057h70l-21 -158q138 98 222 138t184 40q150 0 218.5 -79.5t49.5 -213.5l-104 -784h-76l100 752q18 120 -31.5 184.5t-169.5 64.5q-94 0 -176.5 -40.5t-222.5 -143.5l-106 -817h-78z" />
    <glyph glyph-name="Eng" unicode="&#x14a;" horiz-adv-x="1454" 
d="M1356 1481l-211 -1575q-33 -256 -273 -256q-57 0 -101.5 14t-57.5 27l16 67q82 -28 139 -28q82 0 130 44t61 146l14 105l-657 1282l-174 -1307h-86l198 1481h72l670 -1321l178 1321h82z" />
    <glyph glyph-name="eng" unicode="&#x14b;" horiz-adv-x="1134" 
d="M709 1077q147 0 219 -81t53 -214l-117 -866q-15 -127 -73 -191.5t-168 -64.5q-45 0 -74.5 3.5t-36.5 6.5l-6 4l10 54l107 2q76 2 114.5 43.5t48.5 136.5l113 831q39 263 -201 263q-167 0 -395 -191l-108 -813h-78l141 1057h70l-21 -154q136 102 222.5 138t179.5 36z" />
    <glyph glyph-name="Omacron" unicode="&#x14c;" horiz-adv-x="1431" 
d="M1116 1864l-10 -76h-477l8 76h479zM643 -20q-271 0 -394.5 193.5t-76.5 559.5q51 370 228.5 569t447.5 199q269 0 393.5 -198t75.5 -566q-50 -367 -227 -562t-447 -195zM657 63q238 0 384 168.5t190 505.5q45 339 -56 509.5t-337 170.5q-237 0 -385 -171t-193 -509
q-44 -336 58 -505t339 -169z" />
    <glyph glyph-name="omacron" unicode="&#x14d;" horiz-adv-x="1091" 
d="M922 1440l-11 -76h-477l8 76h480zM471 -20q-204 0 -297 148t-59 394q31 249 167.5 402t340.5 153q201 0 294 -151.5t60 -399.5q-31 -247 -166.5 -396.5t-339.5 -149.5zM487 55q169 0 275.5 126.5t134.5 344.5q30 219 -43.5 347t-243.5 128q-171 0 -279 -128.5
t-136 -346.5q-30 -216 44.5 -343.5t247.5 -127.5z" />
    <glyph glyph-name="Obreve" unicode="&#x14e;" horiz-adv-x="1431" 
d="M1126 1903q-13 -29 -35.5 -58t-56 -59t-82.5 -49t-104 -19q-103 0 -161 57t-58 128h92q1 -2 14 -26t23 -37t36.5 -26.5t61.5 -13.5q23 0 44 5.5t35 12.5t30.5 20.5t24 21t22.5 23.5t18 20h96zM643 -20q-271 0 -394.5 193.5t-76.5 559.5q51 370 228.5 569t447.5 199
q269 0 393.5 -198t75.5 -566q-50 -367 -227 -562t-447 -195zM657 63q238 0 384 168.5t190 505.5q45 339 -56 509.5t-337 170.5q-237 0 -385 -171t-193 -509q-44 -336 58 -505t339 -169z" />
    <glyph glyph-name="obreve" unicode="&#x14f;" horiz-adv-x="1091" 
d="M932 1479q-13 -29 -35.5 -58t-56.5 -59t-83 -49t-104 -19q-103 0 -161 57t-58 128h92q1 -2 14 -26t23.5 -37t37 -26.5t61.5 -13.5q23 0 44 5.5t35 12.5t30.5 20.5t24 21t22.5 23.5t18 20h96zM471 -20q-204 0 -297 148t-59 394q31 249 167.5 402t340.5 153
q201 0 294 -151.5t60 -399.5q-31 -247 -166.5 -396.5t-339.5 -149.5zM487 55q169 0 275.5 126.5t134.5 344.5q30 219 -43.5 347t-243.5 128q-171 0 -279 -128.5t-136 -346.5q-30 -216 44.5 -343.5t247.5 -127.5z" />
    <glyph glyph-name="Ohungarumlaut" unicode="&#x150;" horiz-adv-x="1431" 
d="M932 1927l53 -80l-295 -260l-33 55zM1200 1927l51 -80l-293 -260l-34 55zM643 -20q-271 0 -394.5 193.5t-76.5 559.5q51 370 228.5 569t447.5 199q269 0 393.5 -198t75.5 -566q-50 -367 -227 -562t-447 -195zM657 63q238 0 384 168.5t190 505.5q45 339 -56 509.5
t-337 170.5q-237 0 -385 -171t-193 -509q-44 -336 58 -505t339 -169z" />
    <glyph glyph-name="ohungarumlaut" unicode="&#x151;" horiz-adv-x="1091" 
d="M737 1503l54 -80l-295 -260l-33 56zM1006 1503l51 -80l-293 -260l-35 56zM471 -20q-204 0 -297 148t-59 394q31 249 167.5 402t340.5 153q201 0 294 -151.5t60 -399.5q-31 -247 -166.5 -396.5t-339.5 -149.5zM487 55q169 0 275.5 126.5t134.5 344.5q30 219 -43.5 347
t-243.5 128q-171 0 -279 -128.5t-136 -346.5q-30 -216 44.5 -343.5t247.5 -127.5z" />
    <glyph glyph-name="OE" unicode="&#x152;" horiz-adv-x="2174" 
d="M1964 80l-8 -80h-830l41 276q-185 -296 -522 -296q-273 0 -397.5 195t-75.5 562q51 369 226.5 566.5t443.5 197.5q167 0 280 -77.5t166 -227.5l37 285h799l-13 -80h-710l-82 -613h559l-12 -79h-557l-82 -629h737zM653 63q476 0 564 676q90 678 -377 678
q-238 0 -385.5 -172t-192.5 -512q-85 -670 391 -670z" />
    <glyph glyph-name="oe" unicode="&#x153;" horiz-adv-x="1984" 
d="M504 -20q-211 0 -317 149t-72 397q32 247 178 399t352 152q141 0 238 -74t131 -204q12 -24 28 8q69 125 185 197.5t250 72.5q206 0 303 -151.5t63 -419.5h-813q-14 -120 23.5 -223.5t115.5 -164.5t177 -61q231 0 366 201l66 -51q-163 -227 -437 -227q-136 0 -233.5 70.5
t-134.5 193.5q-15 34 -37 -15q-74 -119 -186 -184t-246 -65zM510 57q173 0 294.5 129.5t149.5 343.5q29 210 -57 339.5t-254 129.5q-173 0 -296.5 -131.5t-151.5 -345.5q-29 -209 57 -337t258 -128zM1477 999q-164 0 -285.5 -119t-144.5 -300h729q22 179 -62.5 299
t-236.5 120z" />
    <glyph glyph-name="Racute" unicode="&#x154;" horiz-adv-x="1304" 
d="M1034 1929l17 -94l-484 -164l-16 60zM1077 0h-86l-192 705h-471l-95 -705h-75l196 1481h498q207 0 306 -93t75 -274q-9 -71 -35.5 -132t-61 -102.5t-79.5 -74t-87 -51.5t-87 -31zM692 788q208 0 322 74.5t137 237.5q20 154 -59 225.5t-254 71.5h-418l-80 -609h352z" />
    <glyph glyph-name="racute" unicode="&#x155;" horiz-adv-x="731" 
d="M743 1505l17 -94l-484 -164l-16 60zM119 0l141 1057h70l-25 -189q67 88 188.5 148.5t221.5 60.5l-10 -82q-83 2 -177.5 -42t-162.5 -114.5t-78 -138.5l-90 -700h-78z" />
    <glyph glyph-name="uni0156" unicode="&#x156;" horiz-adv-x="1304" 
d="M1077 0h-86l-192 705h-471l-95 -705h-75l196 1481h498q207 0 306 -93t75 -274q-9 -71 -35.5 -132t-61 -102.5t-79.5 -74t-87 -51.5t-87 -31zM692 788q208 0 322 74.5t137 237.5q20 154 -59 225.5t-254 71.5h-418l-80 -609h352zM451 -471l79 141h-47l23 166h108l-20 -172
l-88 -135h-55z" />
    <glyph glyph-name="uni0157" unicode="&#x157;" horiz-adv-x="718" 
d="M106 0l142 1057h69l-24 -189q67 89 188 149t221 60l-10 -82q-83 2 -177.5 -42t-162.5 -114.5t-78 -138.5l-90 -700h-78zM18 -471l80 141h-47l23 166h108l-20 -172l-88 -135h-56z" />
    <glyph glyph-name="Rcaron" unicode="&#x158;" horiz-adv-x="1304" 
d="M956 1905h123l-252 -197h-61l-207 197h103l135 -123zM1077 0h-86l-192 705h-471l-95 -705h-75l196 1481h498q207 0 306 -93t75 -274q-9 -71 -35.5 -132t-61 -102.5t-79.5 -74t-87 -51.5t-87 -31zM692 788q208 0 322 74.5t137 237.5q20 154 -59 225.5t-254 71.5h-418
l-80 -609h352z" />
    <glyph glyph-name="rcaron" unicode="&#x159;" horiz-adv-x="722" 
d="M662 1481h122l-252 -197h-61l-207 197h103l135 -123zM115 0l141 1057h70l-25 -189q67 88 188.5 148.5t221.5 60.5l-11 -82q-83 2 -177.5 -42t-162 -114.5t-77.5 -138.5l-90 -700h-78z" />
    <glyph glyph-name="Sacute" unicode="&#x15a;" horiz-adv-x="1251" 
d="M1024 1929l16 -94l-483 -164l-16 60zM551 -20q-162 0 -271 65t-176 203l78 51q36 -63 68.5 -102.5t77 -70.5t101 -44.5t134.5 -13.5q383 0 420 290q13 97 -32 168.5t-183 130.5l-270 115q-246 103 -217 338q24 183 158.5 287t332.5 104q131 0 227.5 -53t171.5 -156
l-73 -59q-114 180 -344 180q-159 0 -266.5 -78.5t-127.5 -222.5q-19 -186 203 -276l250 -99q154 -63 212.5 -154t39.5 -221q-23 -181 -160 -281.5t-354 -100.5z" />
    <glyph glyph-name="sacute" unicode="&#x15b;" horiz-adv-x="1036" 
d="M915 1505l17 -94l-483 -164l-17 60zM444 -20q-138 0 -241 65t-137 170l69 43q39 -97 120.5 -150t199.5 -53q112 0 215.5 64t115.5 145q10 71 -30 120t-154 87l-186 64q-131 44 -180.5 104t-38.5 139q17 134 130 216.5t271 82.5q119 0 208.5 -50t133.5 -142l-68 -45
q-36 76 -110 118.5t-178 42.5q-116 0 -203.5 -61.5t-99.5 -146.5q-9 -59 20.5 -101t134.5 -80l246 -88q205 -72 186 -252q-19 -127 -140.5 -209.5t-283.5 -82.5z" />
    <glyph glyph-name="Scircumflex" unicode="&#x15c;" horiz-adv-x="1251" 
d="M924 1708l-127 123l-168 -123h-119l258 197h61l205 -197h-110zM551 -20q-162 0 -271 65t-176 203l78 51q36 -63 68.5 -102.5t77 -70.5t101 -44.5t134.5 -13.5q383 0 420 290q13 97 -32 168.5t-183 130.5l-270 115q-246 103 -217 338q24 183 158.5 287t332.5 104
q131 0 227.5 -53t171.5 -156l-73 -59q-114 180 -344 180q-159 0 -266.5 -78.5t-127.5 -222.5q-19 -186 203 -276l250 -99q154 -63 212.5 -154t39.5 -221q-23 -181 -160 -281.5t-354 -100.5z" />
    <glyph glyph-name="scircumflex" unicode="&#x15d;" horiz-adv-x="1036" 
d="M815 1284l-127 123l-168 -123h-119l258 197h62l205 -197h-111zM444 -20q-138 0 -241 65t-137 170l69 43q39 -97 120.5 -150t199.5 -53q112 0 215.5 64t115.5 145q10 71 -30 120t-154 87l-186 64q-131 44 -180.5 104t-38.5 139q17 134 130 216.5t271 82.5q119 0 208.5 -50
t133.5 -142l-68 -45q-36 76 -110 118.5t-178 42.5q-116 0 -203.5 -61.5t-99.5 -146.5q-9 -59 20.5 -101t134.5 -80l246 -88q205 -72 186 -252q-19 -127 -140.5 -209.5t-283.5 -82.5z" />
    <glyph glyph-name="Scedilla" unicode="&#x15e;" horiz-adv-x="1251" 
d="M754 1413q-159 0 -266.5 -78.5t-127.5 -222.5q-19 -186 203 -276l250 -99q154 -63 212.5 -154t39.5 -221q-23 -179 -156.5 -279t-345.5 -103l-49 -97q149 -13 133 -145q-10 -69 -68.5 -107.5t-138.5 -38.5q-81 0 -143 56l29 45q38 -41 108 -41q118 0 131 90
q6 46 -25.5 67.5t-105.5 24.5q-12 0 -12 10l74 138q-138 11 -234.5 75.5t-157.5 190.5l78 51q36 -63 68.5 -102.5t77 -70.5t101 -44.5t134.5 -13.5q383 0 420 290q13 97 -32 168.5t-183 130.5l-270 115q-246 103 -217 338q24 183 158.5 287t332.5 104q131 0 227.5 -53
t171.5 -156l-73 -59q-114 180 -344 180z" />
    <glyph glyph-name="scedilla" unicode="&#x15f;" horiz-adv-x="1036" 
d="M584 1001q-116 0 -203.5 -61.5t-99.5 -146.5q-9 -59 20.5 -101t134.5 -80l246 -88q205 -72 186 -252q-19 -127 -140.5 -209.5t-283.5 -82.5q-33 0 -49 2l-49 -99q149 -13 133 -145q-10 -69 -68.5 -107.5t-138.5 -38.5q-81 0 -143 56l29 45q38 -41 108 -41q118 0 131 90
q6 46 -25.5 67.5t-105.5 24.5q-12 0 -12 10l80 148q-100 22 -171 81t-97 142l69 43q39 -97 120.5 -150t199.5 -53q112 0 215.5 64t115.5 145q10 71 -30 120t-154 87l-186 64q-131 44 -180.5 104t-38.5 139q17 134 130 216.5t271 82.5q119 0 208.5 -50t133.5 -142l-68 -45
q-36 76 -110 118.5t-178 42.5z" />
    <glyph glyph-name="Scaron" unicode="&#x160;" horiz-adv-x="1251" 
d="M946 1905h123l-252 -197h-61l-207 197h102l135 -123zM551 -20q-162 0 -271 65t-176 203l78 51q36 -63 68.5 -102.5t77 -70.5t101 -44.5t134.5 -13.5q383 0 420 290q13 97 -32 168.5t-183 130.5l-270 115q-246 103 -217 338q24 183 158.5 287t332.5 104q131 0 227.5 -53
t171.5 -156l-73 -59q-114 180 -344 180q-159 0 -266.5 -78.5t-127.5 -222.5q-19 -186 203 -276l250 -99q154 -63 212.5 -154t39.5 -221q-23 -181 -160 -281.5t-354 -100.5z" />
    <glyph glyph-name="scaron" unicode="&#x161;" horiz-adv-x="1036" 
d="M838 1481h123l-252 -197h-62l-207 197h103l135 -123zM444 -20q-138 0 -241 65t-137 170l69 43q39 -97 120.5 -150t199.5 -53q112 0 215.5 64t115.5 145q10 71 -30 120t-154 87l-186 64q-131 44 -180.5 104t-38.5 139q17 134 130 216.5t271 82.5q119 0 208.5 -50
t133.5 -142l-68 -45q-36 76 -110 118.5t-178 42.5q-116 0 -203.5 -61.5t-99.5 -146.5q-9 -59 20.5 -101t134.5 -80l246 -88q205 -72 186 -252q-19 -127 -140.5 -209.5t-283.5 -82.5z" />
    <glyph glyph-name="uni0162" unicode="&#x162;" horiz-adv-x="1064" 
d="M166 1481h1001l-10 -84h-442l-187 -1397h-4l-59 -117q149 -13 133 -145q-10 -69 -68.5 -107.5t-138.5 -38.5q-81 0 -143 56l28 45q38 -41 109 -41q118 0 131 90q6 46 -25.5 67.5t-105.5 24.5q-12 0 -12 10l84 156h-4l186 1397h-485z" />
    <glyph glyph-name="uni0163" unicode="&#x163;" horiz-adv-x="757" 
d="M475 987l-98 -739q-13 -105 10 -141.5t84 -36.5h143l-10 -60q-33 -10 -117 -10l-59 -117q149 -13 133 -145q-10 -69 -68.5 -107.5t-138.5 -38.5q-81 0 -143 56l29 45q38 -41 108 -41q118 0 131 90q6 46 -25.5 67.5t-105.5 24.5q-12 0 -12 10l86 158q-85 10 -111.5 64.5
t-11.5 171.5l100 749h-200l10 70h199l51 360h73l-47 -360h250l-10 -70h-250z" />
    <glyph glyph-name="Tcaron" unicode="&#x164;" horiz-adv-x="1064" 
d="M885 1905h123l-252 -197h-62l-207 197h103l135 -123zM154 1397l12 84h1001l-10 -84h-442l-187 -1397h-75l186 1397h-485z" />
    <glyph glyph-name="tcaron" unicode="&#x165;" horiz-adv-x="735" 
d="M682 1157l92 170l-33 8l23 172h102l-22 -180l-92 -170h-70zM725 987h-250l-98 -739q-13 -105 10 -141.5t84 -36.5h143l-10 -60q-31 -10 -137 -10q-112 0 -149 54t-19 184l100 749h-200l10 70h199l51 360h73l-47 -360h250z" />
    <glyph glyph-name="Tbar" unicode="&#x166;" horiz-adv-x="1064" 
d="M1157 1397h-442l-80 -594h375l-11 -84h-374l-97 -719h-75l96 719h-242l10 84h242l80 594h-485l12 84h1001z" />
    <glyph glyph-name="tbar" unicode="&#x167;" horiz-adv-x="694" 
d="M698 987h-249l-48 -358h144l-10 -70h-144l-41 -311q-13 -105 10 -141.5t84 -36.5h144l-10 -60q-31 -10 -138 -10q-112 0 -149 54t-19 184l43 321h-215l9 70h217l47 358h-201l10 70h199l51 360h74l-47 -360h250z" />
    <glyph glyph-name="Utilde" unicode="&#x168;" horiz-adv-x="1382" 
d="M1124 1808q-64 -41 -145 -41q-52 0 -112 24t-95 24q-30 0 -54 -9.5t-43.5 -21.5t-29.5 -15l-20 62q71 51 139 51q44 0 111 -24.5t108 -24.5q25 0 43.5 6t42 19t35.5 18zM1151 459q-32 -241 -163.5 -360t-366.5 -119q-239 0 -335.5 124t-62.5 385l131 992h84l-135 -1026
q-28 -196 54 -297t274 -101q390 0 446 398l135 1026h76z" />
    <glyph glyph-name="utilde" unicode="&#x169;" horiz-adv-x="1118" 
d="M911 1384q-64 -41 -145 -41q-52 0 -112 24t-95 24q-30 0 -54 -9.5t-43.5 -21t-29.5 -14.5l-20 61q71 51 139 51q43 0 110.5 -24.5t108.5 -24.5q25 0 43.5 6t42 19t35.5 18zM422 -18q-149 3 -217.5 82.5t-50.5 211.5l104 785h76l-101 -750q-18 -121 31 -186.5t168 -65.5
q95 0 176.5 40.5t225.5 144.5l108 817h76l-141 -1059h-70l20 160q-100 -70 -151 -102t-118 -55.5t-136 -22.5z" />
    <glyph glyph-name="Umacron" unicode="&#x16a;" horiz-adv-x="1382" 
d="M1116 1864l-10 -76h-477l8 76h479zM1151 459q-32 -241 -163.5 -360t-366.5 -119q-239 0 -335.5 124t-62.5 385l131 992h84l-135 -1026q-28 -196 54 -297t274 -101q390 0 446 398l135 1026h76z" />
    <glyph glyph-name="umacron" unicode="&#x16b;" horiz-adv-x="1118" 
d="M903 1440l-10 -76h-477l8 76h479zM422 -18q-149 3 -217.5 82.5t-50.5 211.5l104 785h76l-101 -750q-18 -121 31 -186.5t168 -65.5q95 0 176.5 40.5t225.5 144.5l108 817h76l-141 -1059h-70l20 160q-100 -70 -151 -102t-118 -55.5t-136 -22.5z" />
    <glyph glyph-name="Ubreve" unicode="&#x16c;" horiz-adv-x="1382" 
d="M1126 1903q-13 -29 -35.5 -58t-56 -59t-82.5 -49t-104 -19q-103 0 -161 57t-58 128h92q1 -2 14 -26t23 -37t36.5 -26.5t61.5 -13.5q23 0 44 5.5t35 12.5t30.5 20.5t24 21t22.5 23.5t18 20h96zM1151 459q-32 -241 -163.5 -360t-366.5 -119q-239 0 -335.5 124t-62.5 385
l131 992h84l-135 -1026q-28 -196 54 -297t274 -101q390 0 446 398l135 1026h76z" />
    <glyph glyph-name="ubreve" unicode="&#x16d;" horiz-adv-x="1118" 
d="M913 1479q-13 -29 -35.5 -58t-56 -59t-82.5 -49t-104 -19q-103 0 -161 57t-58 128h92q1 -2 14 -26t23 -37t36.5 -26.5t61.5 -13.5q23 0 44 5.5t35 12.5t30.5 20.5t24 21t22.5 23.5t18 20h96zM422 -18q-149 3 -217.5 82.5t-50.5 211.5l104 785h76l-101 -750
q-18 -121 31 -186.5t168 -65.5q95 0 176.5 40.5t225.5 144.5l108 817h76l-141 -1059h-70l20 160q-100 -70 -151 -102t-118 -55.5t-136 -22.5z" />
    <glyph glyph-name="Uring" unicode="&#x16e;" horiz-adv-x="1382" 
d="M1063 1819q-12 -84 -72.5 -139.5t-140.5 -55.5q-82 0 -129 59t-35 148q9 77 71 131.5t138 54.5q82 0 130 -56.5t38 -141.5zM981 1825q7 50 -18.5 81t-73.5 31q-46 0 -84.5 -34t-44.5 -86q-6 -44 22.5 -78.5t69.5 -34.5q48 0 85.5 36t43.5 85zM1151 459
q-32 -241 -163.5 -360t-366.5 -119q-239 0 -335.5 124t-62.5 385l131 992h84l-135 -1026q-28 -196 54 -297t274 -101q390 0 446 398l135 1026h76z" />
    <glyph glyph-name="uring" unicode="&#x16f;" horiz-adv-x="1118" 
d="M850 1395q-12 -84 -72.5 -139.5t-140.5 -55.5q-82 0 -129 59t-35 148q9 77 71 131.5t138 54.5q82 0 130 -56.5t38 -141.5zM768 1401q7 50 -18.5 81t-73.5 31q-46 0 -84.5 -34t-44.5 -86q-6 -44 22.5 -78.5t69.5 -34.5q48 0 85.5 36t43.5 85zM422 -18q-149 3 -217.5 82.5
t-50.5 211.5l104 785h76l-101 -750q-18 -121 31 -186.5t168 -65.5q95 0 176.5 40.5t225.5 144.5l108 817h76l-141 -1059h-70l20 160q-100 -70 -151 -102t-118 -55.5t-136 -22.5z" />
    <glyph glyph-name="Uhungarumlaut" unicode="&#x170;" horiz-adv-x="1382" 
d="M932 1927l53 -80l-295 -260l-33 55zM1200 1927l51 -80l-293 -260l-34 55zM1151 459q-32 -241 -163.5 -360t-366.5 -119q-239 0 -335.5 124t-62.5 385l131 992h84l-135 -1026q-28 -196 54 -297t274 -101q390 0 446 398l135 1026h76z" />
    <glyph glyph-name="uhungarumlaut" unicode="&#x171;" horiz-adv-x="1118" 
d="M719 1503l53 -80l-295 -260l-33 56zM987 1503l51 -80l-293 -260l-34 56zM422 -18q-149 3 -217.5 82.5t-50.5 211.5l104 785h76l-101 -750q-18 -121 31 -186.5t168 -65.5q95 0 176.5 40.5t225.5 144.5l108 817h76l-141 -1059h-70l20 160q-100 -70 -151 -102t-118 -55.5
t-136 -22.5z" />
    <glyph glyph-name="Uogonek" unicode="&#x172;" horiz-adv-x="1382" 
d="M1212 1481h76l-137 -1022q-28 -205 -126 -321.5t-271 -147.5q-98 -45 -145 -87t-54 -98q-6 -40 16 -59.5t78 -19.5q88 0 148 36l-11 -73q-72 -31 -157 -31q-89 0 -128 44t-30 116q8 52 39.5 91.5t97.5 70.5q-233 3 -326 126.5t-59 382.5l131 992h84l-135 -1026
q-28 -196 54 -297t274 -101q390 0 446 398z" />
    <glyph glyph-name="uogonek" unicode="&#x173;" horiz-adv-x="1120" 
d="M655 -190q-6 -40 16.5 -60t78.5 -20q85 0 147 37l-10 -74q-72 -31 -158 -31q-89 0 -128 44t-30 116q9 68 62.5 115.5t173.5 82.5h2l18 142q-100 -70 -151 -102t-118 -55.5t-136 -22.5q-149 3 -217.5 82.5t-50.5 211.5l104 785h76l-101 -750q-18 -121 31 -186.5t168 -65.5
q95 0 176.5 40.5t225.5 144.5l108 817h76l-141 -1059h-17l6 -2q-106 -48 -155 -90.5t-56 -99.5z" />
    <glyph glyph-name="Wcircumflex" unicode="&#x174;" horiz-adv-x="1835" 
d="M1233 1708l-127 123l-168 -123h-119l258 197h62l204 -197h-110zM1909 1481l-600 -1481h-107l-176 1327l-534 -1327h-103l-196 1481h83l179 -1381l555 1381h75l185 -1381l555 1381h84z" />
    <glyph glyph-name="wcircumflex" unicode="&#x175;" horiz-adv-x="1552" 
d="M1030 1284l-127 123l-168 -123h-119l258 197h62l205 -197h-111zM1528 1057l-430 -1057h-107l-157 922l-383 -922h-111l-168 1057h84l152 -969l407 969h76l166 -965l397 965h74z" />
    <glyph glyph-name="Ycircumflex" unicode="&#x176;" horiz-adv-x="1050" 
d="M823 1708l-127 123l-168 -123h-118l258 197h61l205 -197h-111zM1163 1481l-575 -844l-86 -637h-76l86 639l-358 842h77l328 -766l522 766h82z" />
    <glyph glyph-name="ycircumflex" unicode="&#x177;" horiz-adv-x="1009" 
d="M764 1284l-127 123l-168 -123h-119l258 197h62l204 -197h-110zM119 -338q-44 0 -74.5 4t-38.5 8l-8 4l8 56h109q86 0 136 34t83 97l72 141l-254 1051h81l226 -942l473 942h74l-600 -1211q-97 -184 -287 -184z" />
    <glyph glyph-name="Ydieresis" unicode="&#x178;" horiz-adv-x="1050" 
d="M647 1905l-24 -197h-97l27 197h94zM856 1905l-22 -197h-97l27 197h92zM1163 1481l-575 -844l-86 -637h-76l86 639l-358 842h77l328 -766l522 766h82z" />
    <glyph glyph-name="Zacute" unicode="&#x179;" horiz-adv-x="1155" 
d="M985 1929l16 -94l-483 -164l-16 60zM41 0l8 63l1004 1338h-807l10 80h907l-6 -62l-1012 -1339h832l-10 -80h-926z" />
    <glyph glyph-name="zacute" unicode="&#x17a;" horiz-adv-x="919" 
d="M834 1505l16 -94l-483 -164l-17 60zM27 0l10 78l756 909h-594l10 70h672l-11 -84l-751 -903h645l-8 -70h-729z" />
    <glyph glyph-name="Zdotaccent" unicode="&#x17b;" horiz-adv-x="1155" 
d="M817 1905l-24 -197h-97l27 197h94zM41 0l8 63l1004 1338h-807l10 80h907l-6 -62l-1012 -1339h832l-10 -80h-926z" />
    <glyph glyph-name="zdotaccent" unicode="&#x17c;" horiz-adv-x="919" 
d="M666 1481l-25 -197h-96l26 197h95zM27 0l10 78l756 909h-594l10 70h672l-11 -84l-751 -903h645l-8 -70h-729z" />
    <glyph glyph-name="Zcaron" unicode="&#x17d;" horiz-adv-x="1155" 
d="M907 1905h123l-252 -197h-61l-207 197h102l136 -123zM41 0l8 63l1004 1338h-807l10 80h907l-6 -62l-1012 -1339h832l-10 -80h-926z" />
    <glyph glyph-name="zcaron" unicode="&#x17e;" horiz-adv-x="919" 
d="M756 1481h123l-252 -197h-62l-207 197h103l135 -123zM27 0l10 78l756 909h-594l10 70h672l-11 -84l-751 -903h645l-8 -70h-729z" />
    <glyph glyph-name="uni018F" unicode="&#x18f;" horiz-adv-x="1427" 
d="M1217 758q8 58 11.5 112.5t0 122t-16.5 125t-41.5 114t-71 96t-109.5 63.5t-152 24q-72 0 -135 -16t-108.5 -41t-85 -60t-65 -70t-47.5 -74t-34 -68.5t-23 -57.5t-16 -37l-95 39q5 8 21 41.5t31.5 64.5t45 76t61 82.5t79.5 77t100.5 67t124 45t150.5 17.5q99 0 178 -26
t131.5 -69.5t89.5 -105.5t55.5 -129.5t25.5 -146.5t4 -150t-13 -147q-16 -117 -47 -220.5t-85.5 -202t-127 -169t-177 -113t-229.5 -42.5q-108 0 -192.5 29.5t-138.5 83.5t-89.5 125t-50 160.5t-14 182t13.5 197.5h1041zM1206 676l-942 -2q-10 -75 -9.5 -144.5t11.5 -139.5
t39.5 -127t72.5 -102t114 -70t159 -25q108 0 196.5 36t148 94t104 139.5t68.5 164t38 176.5z" />
    <glyph glyph-name="florin" unicode="&#x192;" horiz-adv-x="747" 
d="M668 1057l-21 -70h-276l-322 -1071q-73 -256 -289 -256h-110l18 68l109 2q75 2 119.5 43.5t72.5 136.5l324 1077h-162l25 70h157l56 178q71 246 286 246h148l-21 -70h-153q-61 0 -111 -46.5t-72 -123.5l-55 -184h277z" />
    <glyph glyph-name="Ohorn" unicode="&#x1a0;" horiz-adv-x="1368" 
d="M1098 1442q140 -79 197 -258.5t22 -446.5q-50 -367 -227 -562t-447 -195q-271 0 -394.5 193.5t-76.5 559.5q51 370 228.5 569t447.5 199q77 0 137 -14v6q33 0 57.5 11t40.5 31.5t24 37t17 41.5h95q-10 -49 -40.5 -96.5t-80.5 -75.5zM1231 737q45 339 -56 509.5
t-337 170.5q-237 0 -385 -171t-193 -509q-44 -336 58 -505t339 -169q238 0 384 168.5t190 505.5z" />
    <glyph glyph-name="ohorn" unicode="&#x1a1;" horiz-adv-x="1114" 
d="M860 995q78 -70 107.5 -191.5t9.5 -277.5q-31 -247 -166.5 -396.5t-339.5 -149.5t-297 148t-59 394q31 249 167.5 402t340.5 153q77 0 147 -26l2 8q33 0 57.5 11t40.5 31.5t24 37t17 41.5h95q-12 -55 -49 -107.5t-97 -77.5zM897 526q30 219 -43.5 347t-243.5 128
q-171 0 -279 -128.5t-136 -346.5q-30 -216 44.5 -343.5t247.5 -127.5q169 0 275.5 126.5t134.5 344.5z" />
    <glyph glyph-name="Uhorn" unicode="&#x1af;" horiz-adv-x="1310" 
d="M1507 1614q-7 -34 -23.5 -66t-43 -63t-68.5 -51t-94 -23l-127 -952q-32 -241 -163.5 -360t-366.5 -119q-239 0 -335.5 124t-62.5 385l131 992h84l-135 -1026q-28 -196 54 -297t274 -101q390 0 446 398l135 1026h60l2 12q33 0 57.5 11t40.5 31.5t24 37t17 41.5h94z" />
    <glyph glyph-name="uhorn" unicode="&#x1b0;" horiz-adv-x="1105" 
d="M1214 1176q-14 -71 -66.5 -130.5t-141.5 -70.5l-129 -973h-70l20 160q-100 -70 -151 -102t-118 -55.5t-136 -22.5q-149 3 -217.5 82.5t-50.5 211.5l104 785h76l-101 -750q-18 -121 31 -186.5t168 -65.5q95 0 176.5 40.5t225.5 144.5l108 817h76v-2q29 7 51 29t31 40.5
t20 47.5h94z" />
    <glyph glyph-name="uni01EA" unicode="&#x1ea;" horiz-adv-x="1431" 
d="M848 1501q269 0 393.5 -198t75.5 -566q-44 -326 -190.5 -518t-372.5 -231q-96 -44 -142 -86t-53 -97q-6 -40 16 -59.5t78 -19.5q88 0 148 36l-10 -73q-72 -31 -158 -31q-89 0 -128 44t-30 116q8 52 39.5 91.5t97.5 70.5q-255 11 -370 204.5t-70 548.5q51 370 228.5 569
t447.5 199zM1231 737q45 339 -56 509.5t-337 170.5q-237 0 -385 -171t-193 -509q-44 -336 58 -505t339 -169q238 0 384 168.5t190 505.5z" />
    <glyph glyph-name="uni01EB" unicode="&#x1eb;" horiz-adv-x="1091" 
d="M623 1077q201 0 294 -151.5t60 -399.5q-25 -201 -122 -341t-247 -185l6 -2q-105 -48 -154.5 -90.5t-56.5 -100.5q-6 -40 16.5 -59.5t78.5 -19.5q87 0 147 36l-10 -73q-72 -31 -158 -31q-89 0 -128 44t-30 116q15 102 134 160q-194 7 -282.5 155t-55.5 387
q31 249 167.5 402t340.5 153zM897 526q30 219 -43.5 347t-243.5 128q-171 0 -279 -128.5t-136 -346.5q-30 -216 44.5 -343.5t247.5 -127.5q169 0 275.5 126.5t134.5 344.5z" />
    <glyph glyph-name="Aringacute" unicode="&#x1fa;" horiz-adv-x="1220" 
d="M803 1417l268 -1417h-88l-94 475h-588l-219 -475h-82l653 1417q-50 23 -74.5 74t-17.5 117q9 74 67 128t132 60l45 127h108l-77 -137q55 -22 83 -74t19 -117q-7 -61 -43.5 -108.5t-91.5 -69.5zM635 1593q-5 -44 23 -78t69 -34q49 0 87 36.5t44 84.5q6 51 -19 82.5
t-71 31.5q-48 0 -87.5 -34.5t-45.5 -88.5zM336 555h541l-158 836z" />
    <glyph glyph-name="aringacute" unicode="&#x1fb;" horiz-adv-x="1103" 
d="M418 1247l-17 60l72 28q-7 40 -2 72q9 77 71 131.5t138 54.5q56 0 98.5 -29t61.5 -77l45 18l16 -94l-53 -18q-12 -83 -72.5 -138t-140.5 -55q-91 0 -139 74zM545 1393q-3 -15 0 -27l217 88q-19 59 -88 59q-46 0 -84.5 -34t-44.5 -86zM637 1280q38 0 70 23t47 59l-174 -59
q26 -23 57 -23zM623 1077q162 0 245.5 -92t61.5 -252l-96 -733h-70l16 164q-184 -184 -403 -184q-150 0 -226 77.5t-57 212.5q23 173 137.5 246.5t376.5 97.5l234 21l12 90q17 126 -50.5 201t-195.5 75q-199 0 -354 -196l-59 41q81 106 189 168.5t239 62.5zM803 342l28 219
l-196 -16q-126 -10 -206.5 -27t-136 -49t-82 -78t-36.5 -117q-15 -102 46.5 -160.5t178.5 -58.5q83 0 174 41t156 108.5t74 137.5z" />
    <glyph glyph-name="AEacute" unicode="&#x1fc;" horiz-adv-x="1900" 
d="M1714 1929l17 -94l-484 -164l-16 60zM1692 80l-11 -80h-790l67 475h-503l-324 -475h-90l1006 1481h804l-12 -80h-674l-80 -613h541l-12 -79h-541l-80 -629h699zM969 555l110 840l-577 -840h467z" />
    <glyph glyph-name="aeacute" unicode="&#x1fd;" horiz-adv-x="1847" 
d="M1239 1505l16 -94l-483 -164l-16 60zM891 504q-13 -106 24 -209t115 -171.5t176 -68.5q59 0 111 13.5t88 32t71.5 49t55 53t45.5 55.5l59 -51q-63 -99 -182 -163t-254 -64q-67 0 -123 17.5t-91 40.5t-66.5 60t-46 61.5t-31.5 59.5q-7 7 -11 -8q-35 -38 -56.5 -60t-68 -59
t-89.5 -58t-107.5 -37.5t-134.5 -16.5q-149 0 -223.5 78.5t-55.5 215.5q41 298 496 340l254 23l10 90q18 128 -47.5 201t-204.5 73q-183 0 -346 -198l-59 47q74 106 188 166.5t236 60.5q279 0 303 -237q69 118 176.5 177.5t243.5 59.5q197 0 295 -150t65 -421zM1335 1001
q-160 0 -282 -117t-148 -304h727q23 176 -61.5 298.5t-235.5 122.5zM834 559l-209 -16q-213 -19 -322.5 -86t-124.5 -185q-14 -102 43.5 -161.5t175.5 -53.5q156 8 275.5 94t134.5 203z" />
    <glyph glyph-name="Oslashacute" unicode="&#x1fe;" horiz-adv-x="1347" 
d="M1075 1929l17 -94l-484 -164l-16 60zM37 -29l-64 70l201 207q-83 190 -41 489q49 369 224.5 566.5t443.5 197.5q265 0 387 -188l180 192l66 -69l-203 -207q84 -188 41 -496q-47 -364 -223 -558.5t-445 -194.5q-264 0 -389 184zM242 319l886 930q-94 166 -331 166
q-476 0 -570 -682q-34 -248 15 -414zM612 66q476 0 566 673q34 257 -15 420l-884 -928q96 -165 333 -165z" />
    <glyph glyph-name="oslashacute" unicode="&#x1ff;" horiz-adv-x="1085" 
d="M901 1411l-483 -164l-17 60l484 198zM1118 1001l-200 -182q36 -118 14 -293q-31 -247 -166.5 -396.5t-339.5 -149.5q-192 0 -287 131l-131 -119l-45 61l139 127q-60 132 -32 342q31 249 167.5 402t340.5 153q220 0 311 -180l180 164zM150 526q-24 -172 18 -286l657 600
q-68 161 -260 161q-171 0 -279 -128.5t-136 -346.5zM852 526q19 134 -2 232l-647 -588q79 -115 239 -115q169 0 275.5 126.5t134.5 344.5z" />
    <glyph glyph-name="uni0200" unicode="&#x200;" horiz-adv-x="1366" 
d="M553 1931l203 -297l-35 -45l-229 271zM819 1931l201 -297l-35 -45l-231 271zM41 0l715 1481h106l316 -1481h-84l-97 467h-645l-229 -467h-82zM391 555h588l-180 838z" />
    <glyph glyph-name="uni0201" unicode="&#x201;" horiz-adv-x="1103" 
d="M356 1507l203 -297l-35 -45l-229 271zM623 1507l200 -297l-35 -45l-231 271zM377 -20q-150 0 -226 77.5t-57 212.5q23 173 137.5 246.5t376.5 97.5l234 21l12 90q17 126 -50.5 201t-195.5 75q-199 0 -354 -196l-59 41q81 106 189 168.5t239 62.5q162 0 245.5 -92
t61.5 -252l-96 -733h-70l16 164q-184 -184 -403 -184zM399 55q83 0 174 41t156 108.5t74 137.5l28 219l-196 -16q-126 -10 -206.5 -27t-136 -49t-82 -78t-36.5 -117q-15 -102 46.5 -160.5t178.5 -58.5z" />
    <glyph glyph-name="uni0202" unicode="&#x202;" horiz-adv-x="1366" 
d="M553 1720q26 68 95 126.5t173 58.5q103 0 161 -56t67 -129h-95q-2 3 -11 21.5t-16.5 29t-21.5 24.5t-36 21t-50 7q-101 0 -170 -103h-96zM41 0l715 1481h106l316 -1481h-84l-97 467h-645l-229 -467h-82zM391 555h588l-180 838z" />
    <glyph glyph-name="uni0203" unicode="&#x203;" horiz-adv-x="1103" 
d="M356 1296q26 68 95.5 126.5t173.5 58.5q103 0 160.5 -56t66.5 -129h-94q-2 3 -11 21.5t-16.5 29t-21.5 24.5t-36 21t-50 7q-101 0 -170 -103h-97zM377 -20q-150 0 -226 77.5t-57 212.5q23 173 137.5 246.5t376.5 97.5l234 21l12 90q17 126 -50.5 201t-195.5 75
q-199 0 -354 -196l-59 41q81 106 189 168.5t239 62.5q162 0 245.5 -92t61.5 -252l-96 -733h-70l16 164q-184 -184 -403 -184zM399 55q83 0 174 41t156 108.5t74 137.5l28 219l-196 -16q-126 -10 -206.5 -27t-136 -49t-82 -78t-36.5 -117q-15 -102 46.5 -160.5t178.5 -58.5z
" />
    <glyph glyph-name="uni0204" unicode="&#x204;" horiz-adv-x="1212" 
d="M528 1931l203 -297l-35 -45l-229 271zM795 1931l200 -297l-34 -45l-232 271zM158 0l196 1481h807l-10 -84h-731l-80 -606h678l-10 -84h-680l-82 -621l758 -2l-11 -84h-835z" />
    <glyph glyph-name="uni0205" unicode="&#x205;" horiz-adv-x="1101" 
d="M375 1507l203 -297l-35 -45l-230 271zM641 1507l201 -297l-35 -45l-232 271zM205 506q-8 -72 -4.5 -138t26.5 -122.5t59.5 -98t95 -65t132.5 -23.5q111 0 184.5 46.5t132.5 140.5l70 -29q-67 -118 -170 -177.5t-227 -59.5q-203 0 -308.5 143t-70.5 397q35 263 168.5 410
t337.5 147q193 0 283.5 -133.5t56.5 -376.5l-10 -61h-756zM217 586h676q26 185 -44 298t-233 113q-88 0 -161 -35.5t-121 -95t-77.5 -131t-39.5 -149.5z" />
    <glyph glyph-name="uni0206" unicode="&#x206;" horiz-adv-x="1212" 
d="M528 1720q26 68 95.5 126.5t173.5 58.5q103 0 160.5 -56t66.5 -129h-94q-2 3 -11 21.5t-16.5 29t-21.5 24.5t-36 21t-50 7q-101 0 -170 -103h-97zM158 0l196 1481h807l-10 -84h-731l-80 -606h678l-10 -84h-680l-82 -621l758 -2l-11 -84h-835z" />
    <glyph glyph-name="uni0207" unicode="&#x207;" horiz-adv-x="1101" 
d="M375 1296q26 68 95 126.5t173 58.5q103 0 160.5 -56t66.5 -129h-94q-2 3 -11 21.5t-16.5 29t-21.5 24.5t-36 21t-50 7q-101 0 -170 -103h-96zM205 506q-8 -72 -4.5 -138t26.5 -122.5t59.5 -98t95 -65t132.5 -23.5q111 0 184.5 46.5t132.5 140.5l70 -29
q-67 -118 -170 -177.5t-227 -59.5q-203 0 -308.5 143t-70.5 397q35 263 168.5 410t337.5 147q193 0 283.5 -133.5t56.5 -376.5l-10 -61h-756zM217 586h676q26 185 -44 298t-233 113q-88 0 -161 -35.5t-121 -95t-77.5 -131t-39.5 -149.5z" />
    <glyph glyph-name="uni0208" unicode="&#x208;" horiz-adv-x="528" 
d="M145 1931l203 -297l-35 -45l-229 271zM412 1931l200 -297l-34 -45l-232 271zM354 1481h76l-197 -1481h-75z" />
    <glyph glyph-name="uni0209" unicode="&#x209;" horiz-adv-x="438" 
d="M31 1507l202 -297l-34 -45l-230 271zM297 1507l201 -297l-35 -45l-232 271zM328 1057l-144 -1057h-78l144 1057h78z" />
    <glyph glyph-name="uni020A" unicode="&#x20a;" horiz-adv-x="528" 
d="M145 1720q26 68 95.5 126.5t173.5 58.5q103 0 160.5 -56t66.5 -129h-94q-2 3 -11 21.5t-16.5 29t-21.5 24.5t-36 21t-50 7q-101 0 -170 -103h-97zM354 1481h76l-197 -1481h-75z" />
    <glyph glyph-name="uni020B" unicode="&#x20b;" horiz-adv-x="446" 
d="M80 1296q26 68 95 126.5t173 58.5q103 0 160.5 -56t66.5 -129h-94q-2 3 -11 21.5t-16.5 29t-21.5 24.5t-36 21t-50 7q-101 0 -170 -103h-96zM377 1057l-144 -1057h-77l143 1057h78z" />
    <glyph glyph-name="uni020C" unicode="&#x20c;" horiz-adv-x="1431" 
d="M571 1931l203 -297l-35 -45l-229 271zM838 1931l200 -297l-34 -45l-232 271zM643 -20q-271 0 -394.5 193.5t-76.5 559.5q51 370 228.5 569t447.5 199q269 0 393.5 -198t75.5 -566q-50 -367 -227 -562t-447 -195zM657 63q238 0 384 168.5t190 505.5q45 339 -56 509.5
t-337 170.5q-237 0 -385 -171t-193 -509q-44 -336 58 -505t339 -169z" />
    <glyph glyph-name="uni020D" unicode="&#x20d;" horiz-adv-x="1091" 
d="M377 1507l203 -297l-35 -45l-230 271zM643 1507l201 -297l-35 -45l-231 271zM471 -20q-204 0 -297 148t-59 394q31 249 167.5 402t340.5 153q201 0 294 -151.5t60 -399.5q-31 -247 -166.5 -396.5t-339.5 -149.5zM487 55q169 0 275.5 126.5t134.5 344.5q30 219 -43.5 347
t-243.5 128q-171 0 -279 -128.5t-136 -346.5q-30 -216 44.5 -343.5t247.5 -127.5z" />
    <glyph glyph-name="uni020E" unicode="&#x20e;" horiz-adv-x="1431" 
d="M571 1720q26 68 95.5 126.5t173.5 58.5q103 0 160.5 -56t66.5 -129h-94q-2 3 -11 21.5t-16.5 29t-21.5 24.5t-36 21t-50 7q-101 0 -170 -103h-97zM643 -20q-271 0 -394.5 193.5t-76.5 559.5q51 370 228.5 569t447.5 199q269 0 393.5 -198t75.5 -566q-50 -367 -227 -562
t-447 -195zM657 63q238 0 384 168.5t190 505.5q45 339 -56 509.5t-337 170.5q-237 0 -385 -171t-193 -509q-44 -336 58 -505t339 -169z" />
    <glyph glyph-name="uni020F" unicode="&#x20f;" horiz-adv-x="1091" 
d="M377 1296q26 68 95 126.5t173 58.5q103 0 160.5 -56t66.5 -129h-94q-2 3 -11 21.5t-16.5 29t-21.5 24.5t-36 21t-50 7q-101 0 -170 -103h-96zM471 -20q-204 0 -297 148t-59 394q31 249 167.5 402t340.5 153q201 0 294 -151.5t60 -399.5q-31 -247 -166.5 -396.5
t-339.5 -149.5zM487 55q169 0 275.5 126.5t134.5 344.5q30 219 -43.5 347t-243.5 128q-171 0 -279 -128.5t-136 -346.5q-30 -216 44.5 -343.5t247.5 -127.5z" />
    <glyph glyph-name="uni0210" unicode="&#x210;" horiz-adv-x="1304" 
d="M506 1931l203 -297l-35 -45l-230 271zM772 1931l201 -297l-35 -45l-231 271zM1077 0h-86l-192 705h-471l-95 -705h-75l196 1481h498q207 0 306 -93t75 -274q-9 -71 -35.5 -132t-61 -102.5t-79.5 -74t-87 -51.5t-87 -31zM692 788q208 0 322 74.5t137 237.5
q20 154 -59 225.5t-254 71.5h-418l-80 -609h352z" />
    <glyph glyph-name="uni0211" unicode="&#x211;" horiz-adv-x="718" 
d="M203 1507l203 -297l-35 -45l-230 271zM469 1507l201 -297l-35 -45l-232 271zM106 0l142 1057h69l-24 -189q67 89 188 149t221 60l-10 -82q-83 2 -177.5 -42t-162.5 -114.5t-78 -138.5l-90 -700h-78z" />
    <glyph glyph-name="uni0212" unicode="&#x212;" horiz-adv-x="1304" 
d="M506 1720q26 68 95 126.5t173 58.5q103 0 160.5 -56t66.5 -129h-94q-2 3 -11 21.5t-16.5 29t-21.5 24.5t-36 21t-50 7q-101 0 -170 -103h-96zM1077 0h-86l-192 705h-471l-95 -705h-75l196 1481h498q207 0 306 -93t75 -274q-9 -71 -35.5 -132t-61 -102.5t-79.5 -74
t-87 -51.5t-87 -31zM692 788q208 0 322 74.5t137 237.5q20 154 -59 225.5t-254 71.5h-418l-80 -609h352z" />
    <glyph glyph-name="uni0213" unicode="&#x213;" horiz-adv-x="763" 
d="M252 1296q26 68 95 126.5t173 58.5q103 0 161 -56t67 -129h-95q-2 3 -11 21.5t-16.5 29t-21.5 24.5t-36 21t-50 7q-101 0 -170 -103h-96zM156 0l141 1057h70l-25 -189q67 88 188.5 148.5t221.5 60.5l-11 -82q-83 2 -177.5 -42t-162 -114.5t-77.5 -138.5l-91 -700h-77z
" />
    <glyph glyph-name="uni0214" unicode="&#x214;" horiz-adv-x="1382" 
d="M571 1931l203 -297l-35 -45l-229 271zM838 1931l200 -297l-34 -45l-232 271zM1151 459q-32 -241 -163.5 -360t-366.5 -119q-239 0 -335.5 124t-62.5 385l131 992h84l-135 -1026q-28 -196 54 -297t274 -101q390 0 446 398l135 1026h76z" />
    <glyph glyph-name="uni0215" unicode="&#x215;" horiz-adv-x="1114" 
d="M354 1507l203 -297l-35 -45l-229 271zM621 1507l200 -297l-35 -45l-231 271zM418 -18q-149 3 -217.5 82.5t-50.5 211.5l104 785h76l-101 -750q-18 -121 31 -186.5t168 -65.5q95 0 176 40.5t225 144.5l109 817h76l-142 -1059h-69l20 160q-100 -70 -151 -102t-118 -55.5
t-136 -22.5z" />
    <glyph glyph-name="uni0216" unicode="&#x216;" horiz-adv-x="1382" 
d="M571 1720q26 68 95.5 126.5t173.5 58.5q103 0 160.5 -56t66.5 -129h-94q-2 3 -11 21.5t-16.5 29t-21.5 24.5t-36 21t-50 7q-101 0 -170 -103h-97zM1151 459q-32 -241 -163.5 -360t-366.5 -119q-239 0 -335.5 124t-62.5 385l131 992h84l-135 -1026q-28 -196 54 -297
t274 -101q390 0 446 398l135 1026h76z" />
    <glyph glyph-name="uni0217" unicode="&#x217;" horiz-adv-x="1118" 
d="M358 1296q26 68 95.5 126.5t173.5 58.5q103 0 160.5 -56t66.5 -129h-94q-2 3 -11 21.5t-16.5 29t-21.5 24.5t-36 21t-50 7q-101 0 -170 -103h-97zM422 -18q-149 3 -217.5 82.5t-50.5 211.5l104 785h76l-101 -750q-18 -121 31 -186.5t168 -65.5q95 0 176.5 40.5
t225.5 144.5l108 817h76l-141 -1059h-70l20 160q-100 -70 -151 -102t-118 -55.5t-136 -22.5z" />
    <glyph glyph-name="uni0218" unicode="&#x218;" horiz-adv-x="1251" 
d="M551 -20q-162 0 -271 65t-176 203l78 51q36 -63 68.5 -102.5t77 -70.5t101 -44.5t134.5 -13.5q383 0 420 290q13 97 -32 168.5t-183 130.5l-270 115q-246 103 -217 338q24 183 158.5 287t332.5 104q131 0 227.5 -53t171.5 -156l-73 -59q-114 180 -344 180
q-159 0 -266.5 -78.5t-127.5 -222.5q-19 -186 203 -276l250 -99q154 -63 212.5 -154t39.5 -221q-23 -181 -160 -281.5t-354 -100.5zM416 -471l80 141h-47l22 166h109l-21 -172l-88 -135h-55z" />
    <glyph glyph-name="uni0219" unicode="&#x219;" horiz-adv-x="1036" 
d="M444 -20q-138 0 -241 65t-137 170l69 43q39 -97 120.5 -150t199.5 -53q112 0 215.5 64t115.5 145q10 71 -30 120t-154 87l-186 64q-131 44 -180.5 104t-38.5 139q17 134 130 216.5t271 82.5q119 0 208.5 -50t133.5 -142l-68 -45q-36 76 -110 118.5t-178 42.5
q-116 0 -203.5 -61.5t-99.5 -146.5q-9 -59 20.5 -101t134.5 -80l246 -88q205 -72 186 -252q-19 -127 -140.5 -209.5t-283.5 -82.5zM248 -471l80 141h-47l22 166h109l-21 -172l-88 -135h-55z" />
    <glyph glyph-name="uni021A" unicode="&#x21a;" horiz-adv-x="1064" 
d="M154 1397l12 84h1001l-10 -84h-442l-187 -1397h-75l186 1397h-485zM367 -471l79 141h-47l23 166h108l-20 -172l-88 -135h-55z" />
    <glyph glyph-name="uni021B" unicode="&#x21b;" horiz-adv-x="802" 
d="M725 987h-250l-98 -739q-13 -105 10 -141.5t84 -36.5h143l-10 -60q-31 -10 -137 -10q-112 0 -149 54t-19 184l100 749h-200l10 70h199l51 360h73l-47 -360h250zM330 -471l80 141h-48l23 166h109l-21 -172l-88 -135h-55z" />
    <glyph glyph-name="uni0237" unicode="&#x237;" horiz-adv-x="419" 
d="M152 -104q-18 -129 -68 -182.5t-174 -53.5q-48 0 -79.5 4t-38.5 8l-7 4l8 56l119 2q76 2 114.5 42t51.5 134l153 1147h78z" />
    <glyph glyph-name="uni0259" unicode="&#x259;" horiz-adv-x="1101" 
d="M897 553q8 72 4.5 137.5t-26.5 122t-59.5 98t-95 65t-132.5 23.5q-112 0 -185.5 -46.5t-132.5 -139.5l-69 29q67 118 170 177.5t227 59.5q203 0 308.5 -143t70.5 -397q-35 -263 -168.5 -410t-337.5 -147q-193 0 -283.5 133.5t-56.5 376.5l10 61h756zM885 473h-676
q-17 -121 6 -212t92 -145.5t178 -54.5q71 0 132.5 23.5t106.5 63.5t79.5 93.5t54 111.5t27.5 120z" />
    <glyph glyph-name="uni02BC" unicode="&#x2bc;" horiz-adv-x="249" 
d="M119 952l102 273h-37l35 256h103l-35 -258l-105 -271h-63z" />
    <glyph glyph-name="circumflex" unicode="&#x2c6;" horiz-adv-x="534" 
d="M524 1284l-127 123l-168 -123h-118l258 197h61l205 -197h-111z" />
    <glyph glyph-name="caron" unicode="&#x2c7;" horiz-adv-x="528" 
d="M532 1481h123l-252 -197h-61l-207 197h103l135 -123z" />
    <glyph glyph-name="breve" unicode="&#x2d8;" horiz-adv-x="532" 
d="M649 1479q-13 -29 -35.5 -58t-56 -59t-82.5 -49t-104 -19q-103 0 -161 57t-58 128h92q1 -2 14 -26t23 -37t36.5 -26.5t61.5 -13.5q23 0 44 5.5t35 12.5t30.5 20.5t24 21t22.5 23.5t18 20h96z" />
    <glyph glyph-name="dotaccent" unicode="&#x2d9;" horiz-adv-x="137" 
d="M248 1481l-25 -197h-96l27 197h94z" />
    <glyph glyph-name="ring" unicode="&#x2da;" horiz-adv-x="417" 
d="M520 1395q-12 -84 -72.5 -139.5t-140.5 -55.5q-82 0 -129 59t-35 148q9 77 71 131.5t138 54.5q82 0 130 -56.5t38 -141.5zM438 1401q7 50 -18.5 81t-73.5 31q-46 0 -84.5 -34t-44.5 -86q-6 -44 22.5 -78.5t69.5 -34.5q48 0 85.5 36t43.5 85z" />
    <glyph glyph-name="ogonek" unicode="&#x2db;" horiz-adv-x="374" 
d="M-78 -176q9 68 63 116t173 83l59 -21q-106 -48 -155 -90.5t-56 -99.5q-6 -41 16 -60.5t78 -19.5q86 0 148 37l-10 -74q-72 -31 -158 -31q-89 0 -128 44t-30 116z" />
    <glyph glyph-name="tilde" unicode="&#x2dc;" horiz-adv-x="542" 
d="M643 1384q-64 -41 -145 -41q-52 0 -112 24t-95 24q-30 0 -54 -9.5t-43.5 -21t-29.5 -14.5l-21 61q71 51 140 51q43 0 111 -24.5t108 -24.5q25 0 43.5 6t42 19t35.5 18z" />
    <glyph glyph-name="hungarumlaut" unicode="&#x2dd;" horiz-adv-x="681" 
d="M430 1503l53 -80l-295 -260l-32 56zM698 1503l52 -80l-293 -260l-35 56z" />
    <glyph glyph-name="gravecomb" unicode="&#x300;" 
d="M-342 1499l434 -196l-35 -56l-440 162z" />
    <glyph glyph-name="acutecomb" unicode="&#x301;" 
d="M92 1505l17 -94l-484 -164l-16 60z" />
    <glyph glyph-name="uni0302" unicode="&#x302;" 
d="M-10 1284l-127 123l-168 -123h-119l258 197h62l204 -197h-110z" />
    <glyph glyph-name="tildecomb" unicode="&#x303;" 
d="M100 1384q-64 -41 -145 -41q-52 0 -112 24t-95 24q-30 0 -54 -9.5t-43.5 -21t-29.5 -14.5l-20 61q71 51 139 51q44 0 111 -24.5t108 -24.5q25 0 43.5 6t42 19t35.5 18z" />
    <glyph glyph-name="uni0304" unicode="&#x304;" 
d="M106 1440l-10 -76h-477l8 76h479z" />
    <glyph glyph-name="uni0306" unicode="&#x306;" 
d="M117 1479q-13 -29 -35.5 -58t-56.5 -59t-83 -49t-104 -19q-103 0 -161 57t-58 128h92q1 -2 14 -26t23 -37t36.5 -26.5t61.5 -13.5q23 0 44 5.5t35 12.5t30.5 20.5t24 21t22.5 23.5t18 20h97z" />
    <glyph glyph-name="uni0307" unicode="&#x307;" 
d="M111 1481l-25 -197h-96l26 197h95z" />
    <glyph glyph-name="uni0308" unicode="&#x308;" 
d="M-98 1481l-25 -197h-96l26 197h95zM111 1481l-23 -197h-96l26 197h93z" />
    <glyph glyph-name="hookabovecomb" unicode="&#x309;" 
d="M-604 1456l18 -67q64 47 105 47q38 0 54.5 -14t10.5 -50q-2 -10 -7.5 -20.5t-17.5 -25t-20.5 -24t-29.5 -30.5l-31 -31l37 -51q8 8 37.5 38.5t38 41t26 32.5t24.5 39t9 35q9 60 -23 95.5t-94 35.5q-32 0 -71 -14t-66 -37z" />
    <glyph glyph-name="uni030A" unicode="&#x30a;" 
d="M102 1395q-12 -84 -72.5 -139.5t-140.5 -55.5q-82 0 -128.5 59t-34.5 148q9 77 70.5 131.5t137.5 54.5q82 0 130 -56.5t38 -141.5zM20 1401q7 50 -18.5 81t-73.5 31q-46 0 -84.5 -34t-44.5 -86q-6 -44 22.5 -78.5t69.5 -34.5q48 0 85.5 36t43.5 85z" />
    <glyph glyph-name="uni030B" unicode="&#x30b;" 
d="M-252 1503l53 -80l-295 -260l-32 56zM16 1503l52 -80l-293 -260l-35 56z" />
    <glyph glyph-name="uni030C" unicode="&#x30c;" 
d="M4 1481h123l-252 -197h-61l-207 197h102l135 -123z" />
    <glyph glyph-name="uni030F" unicode="&#x30f;" 
d="M-426 1507l203 -297l-35 -45l-229 271zM-160 1507l201 -297l-35 -45l-231 271z" />
    <glyph glyph-name="uni0311" unicode="&#x311;" 
d="M-375 1296q26 68 95.5 126.5t173.5 58.5q103 0 160.5 -56t66.5 -129h-94q-2 3 -11 22t-16.5 28.5t-22 24t-36.5 21.5t-50 7q-101 0 -170 -103h-96z" />
    <glyph glyph-name="uni031B" unicode="&#x31b;" 
d="M-346 1180q-17 -78 -78 -140.5t-166 -62.5l10 82q33 0 57.5 11t40.5 31.5t24.5 37.5t17.5 41h94z" />
    <glyph glyph-name="dotbelowcomb" unicode="&#x323;" 
d="M-117 -123l-24 -207h-103l31 207h96z" />
    <glyph glyph-name="uni0326" unicode="&#x326;" 
d="M-285 -471l80 141h-47l23 166h108l-20 -172l-88 -135h-56z" />
    <glyph glyph-name="uni0327" unicode="&#x327;" 
d="M-131 -262q-10 -69 -68.5 -107.5t-138.5 -38.5q-81 0 -143 56l28 45q38 -41 109 -41q118 0 131 90q6 46 -25.5 67.5t-105.5 24.5q-12 0 -12 10l90 166h65l-63 -127q149 -13 133 -145z" />
    <glyph glyph-name="uni0328" unicode="&#x328;" 
d="M-453 -176q9 68 63 116t173 83l59 -21q-106 -48 -155 -90.5t-56 -99.5q-6 -40 16.5 -60t78.5 -20q85 0 147 37l-10 -74q-72 -31 -158 -31q-89 0 -128 44t-30 116z" />
    <glyph glyph-name="pi" unicode="&#x3c0;" horiz-adv-x="1255" 
d="M1260 987h-256l-134 -987h-75l129 987h-516q-44 -297 -111 -567.5t-133 -419.5h-70q71 181 137 437.5t105 533.5q3 16 -14 16h-197l8 70h1135z" />
    <glyph glyph-name="uni1E0C" unicode="&#x1e0c;" horiz-adv-x="1327" 
d="M354 1481h14.5t36.5 -0.5t51 -1t63.5 -0.5h68.5q388 -3 537.5 -178t99.5 -551q-52 -388 -261.5 -569t-598.5 -181h-207zM428 1395l-174 -1311h115q351 0 538.5 152.5t233.5 504.5q11 96 12 175t-14.5 143t-39.5 114t-64 87t-87 63t-109.5 42t-131 23t-150.5 7h-129z
M557 -123l-25 -207h-102l31 207h96z" />
    <glyph glyph-name="uni1E0D" unicode="&#x1e0d;" horiz-adv-x="1112" 
d="M461 -20q-188 0 -280 135.5t-56 392.5q33 259 167.5 414t340.5 155q87 0 152 -31t133 -98l77 572h78l-203 -1520h-71l18 158q-161 -178 -356 -178zM483 55q85 0 166.5 46.5t131.5 111.5t59 127l67 510q-129 151 -284 151q-166 0 -277.5 -129t-140.5 -356
q-31 -228 47 -344.5t231 -116.5zM526 -123l-24 -207h-103l31 207h96z" />
    <glyph glyph-name="uni1E24" unicode="&#x1e24;" horiz-adv-x="1380" 
d="M1106 729h-774l-99 -729h-75l196 1481h76l-88 -668h776l88 668h78l-199 -1481h-75zM653 -123l-24 -207h-103l31 207h96z" />
    <glyph glyph-name="uni1E25" unicode="&#x1e25;" horiz-adv-x="1122" 
d="M121 0l203 1520h69l-82 -621q138 98 222 138t184 40q150 0 218.5 -79.5t49.5 -213.5l-104 -784h-76l100 752q37 249 -200 249q-95 0 -177.5 -41t-222.5 -143l-106 -817h-78zM553 -123l-25 -207h-102l31 207h96z" />
    <glyph glyph-name="uni1E44" unicode="&#x1e44;" horiz-adv-x="1437" 
d="M979 1905l-25 -197h-96l27 197h94zM1264 1481h75l-196 -1481h-66l-667 1315l-177 -1315h-75l196 1481h64l669 -1321z" />
    <glyph glyph-name="uni1E45" unicode="&#x1e45;" horiz-adv-x="1118" 
d="M764 1481l-25 -197h-96l27 197h94zM117 0l141 1057h70l-21 -158q138 98 222 138t184 40q150 0 218.5 -79.5t49.5 -213.5l-104 -784h-76l100 752q18 120 -31.5 184.5t-169.5 64.5q-94 0 -176.5 -40.5t-222.5 -143.5l-106 -817h-78z" />
    <glyph glyph-name="uni1E5A" unicode="&#x1e5a;" horiz-adv-x="1304" 
d="M1077 0h-86l-192 705h-471l-95 -705h-75l196 1481h498q207 0 306 -93t75 -274q-9 -71 -35.5 -132t-61 -102.5t-79.5 -74t-87 -51.5t-87 -31zM692 788q208 0 322 74.5t137 237.5q20 154 -59 225.5t-254 71.5h-418l-80 -609h352zM608 -123l-24 -207h-103l31 207h96z" />
    <glyph glyph-name="uni1E5B" unicode="&#x1e5b;" horiz-adv-x="720" 
d="M109 0l141 1057h69l-24 -189q67 88 188.5 148.5t221.5 60.5l-11 -82q-83 2 -177.5 -42t-162.5 -114.5t-78 -138.5l-90 -700h-77zM178 -123l-24 -207h-103l31 207h96z" />
    <glyph glyph-name="uni1E62" unicode="&#x1e62;" horiz-adv-x="1251" 
d="M551 -20q-162 0 -271 65t-176 203l78 51q36 -63 68.5 -102.5t77 -70.5t101 -44.5t134.5 -13.5q383 0 420 290q13 97 -32 168.5t-183 130.5l-270 115q-246 103 -217 338q24 183 158.5 287t332.5 104q131 0 227.5 -53t171.5 -156l-73 -59q-114 180 -344 180
q-159 0 -266.5 -78.5t-127.5 -222.5q-19 -186 203 -276l250 -99q154 -63 212.5 -154t39.5 -221q-23 -181 -160 -281.5t-354 -100.5zM573 -123l-24 -207h-103l31 207h96z" />
    <glyph glyph-name="uni1E63" unicode="&#x1e63;" horiz-adv-x="1036" 
d="M444 -20q-138 0 -241 65t-137 170l69 43q39 -97 120.5 -150t199.5 -53q112 0 215.5 64t115.5 145q10 71 -30 120t-154 87l-186 64q-131 44 -180.5 104t-38.5 139q17 134 130 216.5t271 82.5q119 0 208.5 -50t133.5 -142l-68 -45q-36 76 -110 118.5t-178 42.5
q-116 0 -203.5 -61.5t-99.5 -146.5q-9 -59 20.5 -101t134.5 -80l246 -88q205 -72 186 -252q-19 -127 -140.5 -209.5t-283.5 -82.5zM406 -123l-25 -207h-102l30 207h97z" />
    <glyph glyph-name="uni1E6C" unicode="&#x1e6c;" horiz-adv-x="1064" 
d="M154 1397l12 84h1001l-10 -84h-442l-187 -1397h-75l186 1397h-485zM524 -123l-24 -207h-103l31 207h96z" />
    <glyph glyph-name="uni1E6D" unicode="&#x1e6d;" horiz-adv-x="802" 
d="M725 987h-250l-98 -739q-13 -105 10 -141.5t84 -36.5h143l-10 -60q-31 -10 -137 -10q-112 0 -149 54t-19 184l100 749h-200l10 70h199l51 360h73l-47 -360h250zM487 -123l-24 -207h-103l31 207h96z" />
    <glyph glyph-name="Wgrave" unicode="&#x1e80;" horiz-adv-x="1835" 
d="M872 1923l435 -197l-35 -55l-441 162zM1909 1481l-600 -1481h-107l-176 1327l-534 -1327h-103l-196 1481h83l179 -1381l555 1381h75l185 -1381l555 1381h84z" />
    <glyph glyph-name="wgrave" unicode="&#x1e81;" horiz-adv-x="1552" 
d="M670 1499l434 -196l-35 -56l-440 162zM1528 1057l-430 -1057h-107l-157 922l-383 -922h-111l-168 1057h84l152 -969l407 969h76l166 -965l397 965h74z" />
    <glyph glyph-name="Wacute" unicode="&#x1e82;" horiz-adv-x="1835" 
d="M1333 1929l17 -94l-484 -164l-16 60zM1909 1481l-600 -1481h-107l-176 1327l-534 -1327h-103l-196 1481h83l179 -1381l555 1381h75l185 -1381l555 1381h84z" />
    <glyph glyph-name="wacute" unicode="&#x1e83;" horiz-adv-x="1552" 
d="M1130 1505l17 -94l-483 -164l-17 60zM1528 1057l-430 -1057h-107l-157 922l-383 -922h-111l-168 1057h84l152 -969l407 969h76l166 -965l397 965h74z" />
    <glyph glyph-name="Wdieresis" unicode="&#x1e84;" horiz-adv-x="1835" 
d="M1057 1905l-25 -197h-96l27 197h94zM1266 1905l-23 -197h-96l27 197h92zM1909 1481l-600 -1481h-107l-176 1327l-534 -1327h-103l-196 1481h83l179 -1381l555 1381h75l185 -1381l555 1381h84z" />
    <glyph glyph-name="wdieresis" unicode="&#x1e85;" horiz-adv-x="1552" 
d="M854 1481l-25 -197h-96l27 197h94zM1063 1481l-23 -197h-96l27 197h92zM1528 1057l-430 -1057h-107l-157 922l-383 -922h-111l-168 1057h84l152 -969l407 969h76l166 -965l397 965h74z" />
    <glyph glyph-name="uni1E92" unicode="&#x1e92;" horiz-adv-x="1155" 
d="M41 0l8 63l1004 1338h-807l10 80h907l-6 -62l-1012 -1339h832l-10 -80h-926zM559 -123l-24 -207h-103l31 207h96z" />
    <glyph glyph-name="uni1E93" unicode="&#x1e93;" horiz-adv-x="845" 
d="M27 0l10 78l756 909h-594l10 70h672l-11 -84l-751 -903h645l-8 -70h-729zM428 -123l-25 -207h-102l31 207h96z" />
    <glyph glyph-name="uni1EA0" unicode="&#x1ea0;" horiz-adv-x="1249" 
d="M41 0l715 1481h106l316 -1481h-84l-97 467h-645l-229 -467h-82zM391 555h588l-180 838zM643 -123l-25 -207h-102l31 207h96z" />
    <glyph glyph-name="uni1EA1" unicode="&#x1ea1;" horiz-adv-x="1034" 
d="M360 -20q-149 0 -225 77.5t-57 212.5q23 173 137.5 246.5t376.5 97.5l233 21l13 90q17 126 -50.5 201t-195.5 75q-199 0 -354 -196l-60 41q81 106 189 168.5t239 62.5q162 0 245.5 -92t61.5 -252l-96 -733h-69l16 164q-184 -184 -404 -184zM383 55q83 0 173.5 41
t155.5 108.5t74 137.5l29 219l-197 -16q-126 -10 -206.5 -27t-136 -49t-81.5 -78t-36 -117q-15 -102 46.5 -160.5t178.5 -58.5zM444 -123l-24 -207h-103l31 207h96z" />
    <glyph glyph-name="uni1EA2" unicode="&#x1ea2;" horiz-adv-x="1366" 
d="M705 1880l18 -68q66 48 104 48t55 -14t11 -50q-2 -10 -7.5 -21t-17.5 -25t-21.5 -24t-29.5 -30l-31 -31l37 -51q8 8 37.5 38.5t38 41t26 32.5t24.5 39t9 35q9 60 -22.5 95.5t-93.5 35.5q-32 0 -71 -14t-66 -37zM41 0l715 1481h106l316 -1481h-84l-97 467h-645l-229 -467
h-82zM391 555h588l-180 838z" />
    <glyph glyph-name="uni1EA3" unicode="&#x1ea3;" horiz-adv-x="1103" 
d="M508 1456l18 -67q64 47 105 47q38 0 54.5 -14t10.5 -50q-2 -10 -7.5 -20.5t-17.5 -25t-20.5 -24t-29.5 -30.5l-31 -31l37 -51q8 8 37.5 38.5t38 41t26 32.5t24.5 39t9 35q9 60 -23 95.5t-94 35.5q-32 0 -71 -14t-66 -37zM377 -20q-150 0 -226 77.5t-57 212.5
q23 173 137.5 246.5t376.5 97.5l234 21l12 90q17 126 -50.5 201t-195.5 75q-199 0 -354 -196l-59 41q81 106 189 168.5t239 62.5q162 0 245.5 -92t61.5 -252l-96 -733h-70l16 164q-184 -184 -403 -184zM399 55q83 0 174 41t156 108.5t74 137.5l28 219l-196 -16
q-126 -10 -206.5 -27t-136 -49t-82 -78t-36.5 -117q-15 -102 46.5 -160.5t178.5 -58.5z" />
    <glyph glyph-name="uni1EA4" unicode="&#x1ea4;" horiz-adv-x="1366" 
d="M1122 2198l17 -95l-484 -164l-16 60zM981 1708l-127 123l-168 -123h-119l258 197h62l205 -197h-111zM41 0l715 1481h106l316 -1481h-84l-97 467h-645l-229 -467h-82zM391 555h588l-180 838z" />
    <glyph glyph-name="uni1EA5" unicode="&#x1ea5;" horiz-adv-x="1103" 
d="M926 1774l16 -95l-483 -163l-17 59zM784 1284l-127 123l-168 -123h-118l258 197h61l205 -197h-111zM377 -20q-150 0 -226 77.5t-57 212.5q23 173 137.5 246.5t376.5 97.5l234 21l12 90q17 126 -50.5 201t-195.5 75q-199 0 -354 -196l-59 41q81 106 189 168.5t239 62.5
q162 0 245.5 -92t61.5 -252l-96 -733h-70l16 164q-184 -184 -403 -184zM399 55q83 0 174 41t156 108.5t74 137.5l28 219l-196 -16q-126 -10 -206.5 -27t-136 -49t-82 -78t-36.5 -117q-15 -102 46.5 -160.5t178.5 -58.5z" />
    <glyph glyph-name="uni1EA6" unicode="&#x1ea6;" horiz-adv-x="1366" 
d="M662 2191l434 -196l-35 -56l-440 162zM981 1708l-127 123l-168 -123h-119l258 197h62l205 -197h-111zM41 0l715 1481h106l316 -1481h-84l-97 467h-645l-229 -467h-82zM391 555h588l-180 838z" />
    <glyph glyph-name="uni1EA7" unicode="&#x1ea7;" horiz-adv-x="1103" 
d="M465 1767l434 -196l-35 -55l-440 161zM784 1284l-127 123l-168 -123h-118l258 197h61l205 -197h-111zM377 -20q-150 0 -226 77.5t-57 212.5q23 173 137.5 246.5t376.5 97.5l234 21l12 90q17 126 -50.5 201t-195.5 75q-199 0 -354 -196l-59 41q81 106 189 168.5t239 62.5
q162 0 245.5 -92t61.5 -252l-96 -733h-70l16 164q-184 -184 -403 -184zM399 55q83 0 174 41t156 108.5t74 137.5l28 219l-196 -16q-126 -10 -206.5 -27t-136 -49t-82 -78t-36.5 -117q-15 -102 46.5 -160.5t178.5 -58.5z" />
    <glyph glyph-name="uni1EA8" unicode="&#x1ea8;" horiz-adv-x="1366" 
d="M995 2085l19 -68q64 47 104 47q38 0 55 -13.5t11 -49.5q-2 -10 -7.5 -21t-17.5 -25t-21.5 -24t-29.5 -30l-31 -31l37 -51q8 8 37.5 38.5t38 41t26 32.5t24.5 39t9 35q9 60 -22.5 95.5t-93.5 35.5q-32 0 -71.5 -14t-66.5 -37zM981 1708l-127 123l-168 -123h-119l258 197
h62l205 -197h-111zM41 0l715 1481h106l316 -1481h-84l-97 467h-645l-229 -467h-82zM391 555h588l-180 838z" />
    <glyph glyph-name="uni1EA9" unicode="&#x1ea9;" horiz-adv-x="1103" 
d="M805 1661l18 -68q64 47 105 47q38 0 54.5 -13.5t10.5 -49.5q-2 -10 -7.5 -20.5t-17.5 -25t-20.5 -24t-29.5 -30.5l-31 -31l37 -51q8 8 37.5 38.5t38 41t26 32.5t24.5 39t9 35q9 60 -23 95.5t-94 35.5q-32 0 -71 -14t-66 -37zM784 1284l-127 123l-168 -123h-118l258 197
h61l205 -197h-111zM377 -20q-150 0 -226 77.5t-57 212.5q23 173 137.5 246.5t376.5 97.5l234 21l12 90q17 126 -50.5 201t-195.5 75q-199 0 -354 -196l-59 41q81 106 189 168.5t239 62.5q162 0 245.5 -92t61.5 -252l-96 -733h-70l16 164q-184 -184 -403 -184zM399 55
q83 0 174 41t156 108.5t74 137.5l28 219l-196 -16q-126 -10 -206.5 -27t-136 -49t-82 -78t-36.5 -117q-15 -102 46.5 -160.5t178.5 -58.5z" />
    <glyph glyph-name="uni1EAA" unicode="&#x1eaa;" horiz-adv-x="1366" 
d="M1147 2077q-64 -41 -146 -41q-52 0 -111.5 23.5t-94.5 23.5q-30 0 -54 -9.5t-43.5 -21t-29.5 -14.5l-21 61q71 51 139 51q44 0 112 -24.5t108 -24.5q25 0 43.5 6t41 19t35.5 18zM981 1708l-127 123l-168 -123h-119l258 197h62l205 -197h-111zM41 0l715 1481h106
l316 -1481h-84l-97 467h-645l-229 -467h-82zM391 555h588l-180 838z" />
    <glyph glyph-name="uni1EAB" unicode="&#x1eab;" horiz-adv-x="1103" 
d="M950 1653q-64 -41 -145 -41q-52 0 -112 23.5t-95 23.5q-30 0 -54 -9.5t-43.5 -21t-29.5 -14.5l-20 61q71 51 139 51q44 0 111 -24.5t108 -24.5q25 0 43.5 6t42 19t35.5 18zM784 1284l-127 123l-168 -123h-118l258 197h61l205 -197h-111zM377 -20q-150 0 -226 77.5
t-57 212.5q23 173 137.5 246.5t376.5 97.5l234 21l12 90q17 126 -50.5 201t-195.5 75q-199 0 -354 -196l-59 41q81 106 189 168.5t239 62.5q162 0 245.5 -92t61.5 -252l-96 -733h-70l16 164q-184 -184 -403 -184zM399 55q83 0 174 41t156 108.5t74 137.5l28 219l-196 -16
q-126 -10 -206.5 -27t-136 -49t-82 -78t-36.5 -117q-15 -102 46.5 -160.5t178.5 -58.5z" />
    <glyph glyph-name="uni1EAC" unicode="&#x1eac;" horiz-adv-x="1249" 
d="M981 1708l-127 123l-168 -123h-119l258 197h62l205 -197h-111zM41 0l715 1481h106l316 -1481h-84l-97 467h-645l-229 -467h-82zM391 555h588l-180 838zM643 -123l-25 -207h-102l31 207h96z" />
    <glyph glyph-name="uni1EAD" unicode="&#x1ead;" horiz-adv-x="1034" 
d="M784 1284l-127 123l-168 -123h-118l258 197h61l205 -197h-111zM377 -20q-150 0 -226 77.5t-57 212.5q23 173 137.5 246.5t376.5 97.5l234 21l12 90q17 126 -50.5 201t-195.5 75q-199 0 -354 -196l-59 41q81 106 189 168.5t239 62.5q162 0 245.5 -92t61.5 -252l-96 -733
h-70l16 164q-184 -184 -403 -184zM399 55q83 0 174 41t156 108.5t74 137.5l28 219l-196 -16q-126 -10 -206.5 -27t-136 -49t-82 -78t-36.5 -117q-15 -102 46.5 -160.5t178.5 -58.5zM444 -123l-24 -207h-103l31 207h96z" />
    <glyph glyph-name="uni1EAE" unicode="&#x1eae;" horiz-adv-x="1366" 
d="M1114 2228l16 -94l-483 -164l-16 60zM1108 1903q-13 -29 -35.5 -58t-56.5 -59t-83 -49t-104 -19q-103 0 -161 57t-58 128h92q1 -2 14 -26t23.5 -37t37 -26.5t61.5 -13.5q23 0 44 5.5t35 12.5t30.5 20.5t24 21t22.5 23.5t18 20h96zM41 0l715 1481h106l316 -1481h-84
l-97 467h-645l-229 -467h-82zM391 555h588l-180 838z" />
    <glyph glyph-name="uni1EAF" unicode="&#x1eaf;" horiz-adv-x="1103" 
d="M920 1804l16 -94l-483 -164l-17 60zM911 1479q-13 -29 -35.5 -58t-56 -59t-82.5 -49t-104 -19q-103 0 -161 57t-58 128h92q1 -2 14 -26t23 -37t36.5 -26.5t61.5 -13.5q23 0 44 5.5t35 12.5t30.5 20.5t24 21t22.5 23.5t18 20h96zM377 -20q-150 0 -226 77.5t-57 212.5
q23 173 137.5 246.5t376.5 97.5l234 21l12 90q17 126 -50.5 201t-195.5 75q-199 0 -354 -196l-59 41q81 106 189 168.5t239 62.5q162 0 245.5 -92t61.5 -252l-96 -733h-70l16 164q-184 -184 -403 -184zM399 55q83 0 174 41t156 108.5t74 137.5l28 219l-196 -16
q-126 -10 -206.5 -27t-136 -49t-82 -78t-36.5 -117q-15 -102 46.5 -160.5t178.5 -58.5z" />
    <glyph glyph-name="uni1EB0" unicode="&#x1eb0;" horiz-adv-x="1366" 
d="M653 2222l434 -197l-34 -55l-441 162zM1108 1903q-13 -29 -35.5 -58t-56.5 -59t-83 -49t-104 -19q-103 0 -161 57t-58 128h92q1 -2 14 -26t23.5 -37t37 -26.5t61.5 -13.5q23 0 44 5.5t35 12.5t30.5 20.5t24 21t22.5 23.5t18 20h96zM41 0l715 1481h106l316 -1481h-84
l-97 467h-645l-229 -467h-82zM391 555h588l-180 838z" />
    <glyph glyph-name="uni1EB1" unicode="&#x1eb1;" horiz-adv-x="1103" 
d="M459 1798l434 -196l-35 -56l-440 162zM911 1479q-13 -29 -35.5 -58t-56 -59t-82.5 -49t-104 -19q-103 0 -161 57t-58 128h92q1 -2 14 -26t23 -37t36.5 -26.5t61.5 -13.5q23 0 44 5.5t35 12.5t30.5 20.5t24 21t22.5 23.5t18 20h96zM377 -20q-150 0 -226 77.5t-57 212.5
q23 173 137.5 246.5t376.5 97.5l234 21l12 90q17 126 -50.5 201t-195.5 75q-199 0 -354 -196l-59 41q81 106 189 168.5t239 62.5q162 0 245.5 -92t61.5 -252l-96 -733h-70l16 164q-184 -184 -403 -184zM399 55q83 0 174 41t156 108.5t74 137.5l28 219l-196 -16
q-126 -10 -206.5 -27t-136 -49t-82 -78t-36.5 -117q-15 -102 46.5 -160.5t178.5 -58.5z" />
    <glyph glyph-name="uni1EB2" unicode="&#x1eb2;" horiz-adv-x="1366" 
d="M731 2179l19 -68q66 48 104 48t55 -14t11 -50q-2 -10 -7.5 -21t-17.5 -25t-21.5 -24t-29.5 -30l-31 -31l37 -51q8 8 37.5 38.5t38 41t26 32.5t24.5 39t9 35q9 60 -23 95.5t-94 35.5q-32 0 -71 -14t-66 -37zM1108 1903q-13 -29 -35.5 -58t-56.5 -59t-83 -49t-104 -19
q-103 0 -161 57t-58 128h92q1 -2 14 -26t23.5 -37t37 -26.5t61.5 -13.5q23 0 44 5.5t35 12.5t30.5 20.5t24 21t22.5 23.5t18 20h96zM41 0l715 1481h106l316 -1481h-84l-97 467h-645l-229 -467h-82zM391 555h588l-180 838z" />
    <glyph glyph-name="uni1EB3" unicode="&#x1eb3;" horiz-adv-x="1103" 
d="M539 1712l18 -67q64 47 105 47q38 0 54.5 -14t10.5 -50q-2 -10 -7.5 -20.5t-17.5 -25t-20.5 -24t-29.5 -30.5l-31 -31l36 -51q9 10 37 38.5t38.5 40.5t27 33t24 38.5t9.5 35.5q9 60 -23 95.5t-94 35.5q-32 0 -71 -14t-66 -37zM911 1479q-13 -29 -35.5 -58t-56 -59
t-82.5 -49t-104 -19q-103 0 -161 57t-58 128h92q1 -2 14 -26t23 -37t36.5 -26.5t61.5 -13.5q23 0 44 5.5t35 12.5t30.5 20.5t24 21t22.5 23.5t18 20h96zM377 -20q-150 0 -226 77.5t-57 212.5q23 173 137.5 246.5t376.5 97.5l234 21l12 90q17 126 -50.5 201t-195.5 75
q-199 0 -354 -196l-59 41q81 106 189 168.5t239 62.5q162 0 245.5 -92t61.5 -252l-96 -733h-70l16 164q-184 -184 -403 -184zM399 55q83 0 174 41t156 108.5t74 137.5l28 219l-196 -16q-126 -10 -206.5 -27t-136 -49t-82 -78t-36.5 -117q-15 -102 46.5 -160.5t178.5 -58.5z
" />
    <glyph glyph-name="uni1EB4" unicode="&#x1eb4;" horiz-adv-x="1366" 
d="M1139 2107q-64 -41 -146 -41q-52 0 -112 24t-95 24q-30 0 -54 -9.5t-43.5 -21.5t-29.5 -15l-20 62q71 51 139 51q44 0 111 -24.5t108 -24.5q25 0 43.5 6t42 19t35.5 18zM1108 1903q-13 -29 -35.5 -58t-56.5 -59t-83 -49t-104 -19q-103 0 -161 57t-58 128h92q1 -2 14 -26
t23.5 -37t37 -26.5t61.5 -13.5q23 0 44 5.5t35 12.5t30.5 20.5t24 21t22.5 23.5t18 20h96zM41 0l715 1481h106l316 -1481h-84l-97 467h-645l-229 -467h-82zM391 555h588l-180 838z" />
    <glyph glyph-name="uni1EB5" unicode="&#x1eb5;" horiz-adv-x="1103" 
d="M944 1683q-64 -41 -145 -41q-52 0 -112 24t-95 24q-30 0 -54 -9.5t-43.5 -21t-29.5 -14.5l-21 61q71 51 140 51q44 0 111 -24.5t108 -24.5q25 0 43.5 6t42 19t35.5 18zM911 1479q-13 -29 -35.5 -58t-56 -59t-82.5 -49t-104 -19q-103 0 -161 57t-58 128h92q1 -2 14 -26
t23 -37t36.5 -26.5t61.5 -13.5q23 0 44 5.5t35 12.5t30.5 20.5t24 21t22.5 23.5t18 20h96zM377 -20q-150 0 -226 77.5t-57 212.5q23 173 137.5 246.5t376.5 97.5l234 21l12 90q17 126 -50.5 201t-195.5 75q-199 0 -354 -196l-59 41q81 106 189 168.5t239 62.5
q162 0 245.5 -92t61.5 -252l-96 -733h-70l16 164q-184 -184 -403 -184zM399 55q83 0 174 41t156 108.5t74 137.5l28 219l-196 -16q-126 -10 -206.5 -27t-136 -49t-82 -78t-36.5 -117q-15 -102 46.5 -160.5t178.5 -58.5z" />
    <glyph glyph-name="uni1EB6" unicode="&#x1eb6;" horiz-adv-x="1249" 
d="M1108 1903q-13 -29 -35.5 -58t-56.5 -59t-83 -49t-104 -19q-103 0 -161 57t-58 128h92q1 -2 14 -26t23.5 -37t37 -26.5t61.5 -13.5q23 0 44 5.5t35 12.5t30.5 20.5t24 21t22.5 23.5t18 20h96zM41 0l715 1481h106l316 -1481h-84l-97 467h-645l-229 -467h-82zM391 555h588
l-180 838zM643 -123l-25 -207h-102l31 207h96z" />
    <glyph glyph-name="uni1EB7" unicode="&#x1eb7;" horiz-adv-x="1034" 
d="M911 1479q-13 -29 -35.5 -58t-56 -59t-82.5 -49t-104 -19q-103 0 -161 57t-58 128h92q1 -2 14 -26t23 -37t36.5 -26.5t61.5 -13.5q23 0 44 5.5t35 12.5t30.5 20.5t24 21t22.5 23.5t18 20h96zM377 -20q-150 0 -226 77.5t-57 212.5q23 173 137.5 246.5t376.5 97.5l234 21
l12 90q17 126 -50.5 201t-195.5 75q-199 0 -354 -196l-59 41q81 106 189 168.5t239 62.5q162 0 245.5 -92t61.5 -252l-96 -733h-70l16 164q-184 -184 -403 -184zM399 55q83 0 174 41t156 108.5t74 137.5l28 219l-196 -16q-126 -10 -206.5 -27t-136 -49t-82 -78t-36.5 -117
q-15 -102 46.5 -160.5t178.5 -58.5zM444 -123l-24 -207h-103l31 207h96z" />
    <glyph glyph-name="uni1EB8" unicode="&#x1eb8;" horiz-adv-x="1212" 
d="M158 0l196 1481h807l-10 -84h-731l-80 -606h678l-10 -84h-680l-82 -621l758 -2l-11 -84h-835zM655 -123l-24 -207h-103l31 207h96z" />
    <glyph glyph-name="uni1EB9" unicode="&#x1eb9;" horiz-adv-x="1101" 
d="M205 506q-8 -72 -4.5 -138t26.5 -122.5t59.5 -98t95 -65t132.5 -23.5q111 0 184.5 46.5t132.5 140.5l70 -29q-67 -118 -170 -177.5t-227 -59.5q-203 0 -308.5 143t-70.5 397q35 263 168.5 410t337.5 147q193 0 283.5 -133.5t56.5 -376.5l-10 -61h-756zM217 586h676
q26 185 -44 298t-233 113q-88 0 -161 -35.5t-121 -95t-77.5 -131t-39.5 -149.5zM504 -123l-25 -207h-102l31 207h96z" />
    <glyph glyph-name="uni1EBA" unicode="&#x1eba;" horiz-adv-x="1212" 
d="M680 1880l18 -68q66 48 105 48q38 0 54.5 -14t10.5 -50q-2 -10 -7.5 -20.5t-17.5 -25t-20.5 -24t-29.5 -30.5l-31 -31l37 -51q8 8 37.5 38.5t38 41t26 32.5t24.5 39t9 35q9 60 -23 95.5t-94 35.5q-32 0 -71 -14t-66 -37zM158 0l196 1481h807l-10 -84h-731l-80 -606h678
l-10 -84h-680l-82 -621l758 -2l-11 -84h-835z" />
    <glyph glyph-name="uni1EBB" unicode="&#x1ebb;" horiz-adv-x="1122" 
d="M526 1456l19 -67q64 47 104 47q38 0 55 -14t11 -50q-2 -10 -7.5 -21t-17.5 -25t-21.5 -24t-29.5 -30l-31 -31l37 -51q8 8 37.5 38.5t38 41t26 32.5t24.5 39t9 35q9 60 -22.5 95.5t-93.5 35.5q-32 0 -71.5 -14t-66.5 -37zM205 506q-8 -72 -4.5 -138t26.5 -122.5t59.5 -98
t95 -65t132.5 -23.5q111 0 184.5 46.5t132.5 140.5l70 -29q-67 -118 -170 -177.5t-227 -59.5q-203 0 -308.5 143t-70.5 397q35 263 168.5 410t337.5 147q193 0 283.5 -133.5t56.5 -376.5l-10 -61h-756zM217 586h676q26 185 -44 298t-233 113q-88 0 -161 -35.5t-121 -95
t-77.5 -131t-39.5 -149.5z" />
    <glyph glyph-name="uni1EBC" unicode="&#x1ebc;" horiz-adv-x="1212" 
d="M1081 1808q-64 -41 -145 -41q-52 0 -112 24t-95 24q-30 0 -54 -9.5t-43.5 -21.5t-29.5 -15l-20 62q71 51 139 51q44 0 111.5 -24.5t107.5 -24.5q25 0 43.5 6t42 19t35.5 18zM158 0l196 1481h807l-10 -84h-731l-80 -606h678l-10 -84h-680l-82 -621l758 -2l-11 -84h-835z
" />
    <glyph glyph-name="uni1EBD" unicode="&#x1ebd;" horiz-adv-x="1101" 
d="M928 1384q-64 -41 -146 -41q-52 0 -112 24t-95 24q-30 0 -54 -9.5t-43 -21t-29 -14.5l-21 61q71 51 139 51q43 0 111 -24.5t108 -24.5q25 0 43.5 6t42 19t35.5 18zM205 506q-8 -72 -4.5 -138t26.5 -122.5t59.5 -98t95 -65t132.5 -23.5q111 0 184.5 46.5t132.5 140.5
l70 -29q-67 -118 -170 -177.5t-227 -59.5q-203 0 -308.5 143t-70.5 397q35 263 168.5 410t337.5 147q193 0 283.5 -133.5t56.5 -376.5l-10 -61h-756zM217 586h676q26 185 -44 298t-233 113q-88 0 -161 -35.5t-121 -95t-77.5 -131t-39.5 -149.5z" />
    <glyph glyph-name="uni1EBE" unicode="&#x1ebe;" horiz-adv-x="1212" 
d="M1098 2198l16 -95l-483 -164l-17 60zM956 1708l-127 123l-167 -123h-119l258 197h61l205 -197h-111zM158 0l196 1481h807l-10 -84h-731l-80 -606h678l-10 -84h-680l-82 -621l758 -2l-11 -84h-835z" />
    <glyph glyph-name="uni1EBF" unicode="&#x1ebf;" horiz-adv-x="1122" 
d="M944 1774l17 -95l-484 -163l-16 59zM803 1284l-127 123l-168 -123h-119l258 197h62l204 -197h-110zM205 506q-8 -72 -4.5 -138t26.5 -122.5t59.5 -98t95 -65t132.5 -23.5q111 0 184.5 46.5t132.5 140.5l70 -29q-67 -118 -170 -177.5t-227 -59.5q-203 0 -308.5 143
t-70.5 397q35 263 168.5 410t337.5 147q193 0 283.5 -133.5t56.5 -376.5l-10 -61h-756zM217 586h676q26 185 -44 298t-233 113q-88 0 -161 -35.5t-121 -95t-77.5 -131t-39.5 -149.5z" />
    <glyph glyph-name="uni1EC0" unicode="&#x1ec0;" horiz-adv-x="1212" 
d="M637 2191l434 -196l-35 -56l-440 162zM956 1708l-127 123l-167 -123h-119l258 197h61l205 -197h-111zM158 0l196 1481h807l-10 -84h-731l-80 -606h678l-10 -84h-680l-82 -621l758 -2l-11 -84h-835z" />
    <glyph glyph-name="uni1EC1" unicode="&#x1ec1;" horiz-adv-x="1122" 
d="M483 1767l435 -196l-35 -55l-441 161zM803 1284l-127 123l-168 -123h-119l258 197h62l204 -197h-110zM205 506q-8 -72 -4.5 -138t26.5 -122.5t59.5 -98t95 -65t132.5 -23.5q111 0 184.5 46.5t132.5 140.5l70 -29q-67 -118 -170 -177.5t-227 -59.5q-203 0 -308.5 143
t-70.5 397q35 263 168.5 410t337.5 147q193 0 283.5 -133.5t56.5 -376.5l-10 -61h-756zM217 586h676q26 185 -44 298t-233 113q-88 0 -161 -35.5t-121 -95t-77.5 -131t-39.5 -149.5z" />
    <glyph glyph-name="uni1EC2" unicode="&#x1ec2;" horiz-adv-x="1212" 
d="M971 2085l18 -68q64 47 105 47q38 0 54.5 -13.5t10.5 -49.5q-2 -10 -7.5 -20.5t-17.5 -25t-20.5 -24t-29.5 -30.5l-31 -31l37 -51q8 8 37.5 38.5t38 41t26 32.5t24.5 39t9 35q9 60 -23 95.5t-94 35.5q-32 0 -71 -14t-66 -37zM956 1708l-127 123l-167 -123h-119l258 197
h61l205 -197h-111zM158 0l196 1481h807l-10 -84h-731l-80 -606h678l-10 -84h-680l-82 -621l758 -2l-11 -84h-835z" />
    <glyph glyph-name="uni1EC3" unicode="&#x1ec3;" horiz-adv-x="1122" 
d="M823 1661l19 -68q64 47 104 47q38 0 55 -13.5t11 -49.5q-2 -10 -7.5 -21t-17.5 -25t-21.5 -24t-29.5 -30l-31 -31l37 -51q8 8 37.5 38.5t38 41t26 32.5t24.5 39t9 35q9 60 -22.5 95.5t-93.5 35.5q-32 0 -71.5 -14t-66.5 -37zM803 1284l-127 123l-168 -123h-119l258 197
h62l204 -197h-110zM205 506q-8 -72 -4.5 -138t26.5 -122.5t59.5 -98t95 -65t132.5 -23.5q111 0 184.5 46.5t132.5 140.5l70 -29q-67 -118 -170 -177.5t-227 -59.5q-203 0 -308.5 143t-70.5 397q35 263 168.5 410t337.5 147q193 0 283.5 -133.5t56.5 -376.5l-10 -61h-756z
M217 586h676q26 185 -44 298t-233 113q-88 0 -161 -35.5t-121 -95t-77.5 -131t-39.5 -149.5z" />
    <glyph glyph-name="uni1EC4" unicode="&#x1ec4;" horiz-adv-x="1212" 
d="M1122 2077q-64 -41 -145 -41q-52 0 -112 23.5t-95 23.5q-30 0 -54 -9.5t-43.5 -21t-29.5 -14.5l-20 61q71 51 139 51q44 0 111 -24.5t108 -24.5q25 0 43.5 6t42 19t35.5 18zM956 1708l-127 123l-167 -123h-119l258 197h61l205 -197h-111zM158 0l196 1481h807l-10 -84
h-731l-80 -606h678l-10 -84h-680l-82 -621l758 -2l-11 -84h-835z" />
    <glyph glyph-name="uni1EC5" unicode="&#x1ec5;" horiz-adv-x="1122" 
d="M969 1653q-64 -41 -146 -41q-52 0 -112 23.5t-95 23.5q-30 0 -54 -9.5t-43.5 -21t-29.5 -14.5l-20 61q71 51 139 51q44 0 111 -24.5t108 -24.5q25 0 43.5 6t42 19t35.5 18zM803 1284l-127 123l-168 -123h-119l258 197h62l204 -197h-110zM205 506q-8 -72 -4.5 -138
t26.5 -122.5t59.5 -98t95 -65t132.5 -23.5q111 0 184.5 46.5t132.5 140.5l70 -29q-67 -118 -170 -177.5t-227 -59.5q-203 0 -308.5 143t-70.5 397q35 263 168.5 410t337.5 147q193 0 283.5 -133.5t56.5 -376.5l-10 -61h-756zM217 586h676q26 185 -44 298t-233 113
q-88 0 -161 -35.5t-121 -95t-77.5 -131t-39.5 -149.5z" />
    <glyph glyph-name="uni1EC6" unicode="&#x1ec6;" horiz-adv-x="1212" 
d="M956 1708l-127 123l-167 -123h-119l258 197h61l205 -197h-111zM158 0l196 1481h807l-10 -84h-731l-80 -606h678l-10 -84h-680l-82 -621l758 -2l-11 -84h-835zM655 -123l-24 -207h-103l31 207h96z" />
    <glyph glyph-name="uni1EC7" unicode="&#x1ec7;" horiz-adv-x="1122" 
d="M803 1284l-127 123l-168 -123h-119l258 197h62l204 -197h-110zM205 506q-8 -72 -4.5 -138t26.5 -122.5t59.5 -98t95 -65t132.5 -23.5q111 0 184.5 46.5t132.5 140.5l70 -29q-67 -118 -170 -177.5t-227 -59.5q-203 0 -308.5 143t-70.5 397q35 263 168.5 410t337.5 147
q193 0 283.5 -133.5t56.5 -376.5l-10 -61h-756zM217 586h676q26 185 -44 298t-233 113q-88 0 -161 -35.5t-121 -95t-77.5 -131t-39.5 -149.5zM504 -123l-25 -207h-102l31 207h96z" />
    <glyph glyph-name="uni1EC8" unicode="&#x1ec8;" horiz-adv-x="528" 
d="M297 1880l18 -68q66 48 105 48q38 0 54.5 -14t10.5 -50q-2 -10 -7.5 -20.5t-17.5 -25t-20.5 -24t-29.5 -30.5l-31 -31l37 -51q8 8 37.5 38.5t38 41t26 32.5t24.5 39t9 35q9 60 -23 95.5t-94 35.5q-32 0 -71 -14t-66 -37zM354 1481h76l-197 -1481h-75z" />
    <glyph glyph-name="uni1EC9" unicode="&#x1ec9;" horiz-adv-x="475" 
d="M203 1456l18 -67q64 47 105 47q38 0 54.5 -14t10.5 -50q-2 -10 -7.5 -20.5t-17.5 -25t-20.5 -24t-29.5 -30.5l-31 -31l37 -51q8 8 37.5 38.5t38 41t26 32.5t24.5 39t9 35q9 60 -23 95.5t-94 35.5q-32 0 -71 -14t-66 -37zM348 1057l-143 -1057h-78l143 1057h78z" />
    <glyph glyph-name="uni1ECA" unicode="&#x1eca;" horiz-adv-x="528" 
d="M354 1481h76l-197 -1481h-75zM227 -123l-24 -207h-103l31 207h96z" />
    <glyph glyph-name="uni1ECB" unicode="&#x1ecb;" horiz-adv-x="514" 
d="M432 1520l-29 -195h-94l27 195h96zM358 1057l-141 -1057h-76l144 1057h73zM221 -123l-24 -207h-103l31 207h96z" />
    <glyph glyph-name="uni1ECC" unicode="&#x1ecc;" horiz-adv-x="1431" 
d="M643 -20q-271 0 -394.5 193.5t-76.5 559.5q51 370 228.5 569t447.5 199q269 0 393.5 -198t75.5 -566q-50 -367 -227 -562t-447 -195zM657 63q238 0 384 168.5t190 505.5q45 339 -56 509.5t-337 170.5q-237 0 -385 -171t-193 -509q-44 -336 58 -505t339 -169zM662 -123
l-25 -207h-102l30 207h97z" />
    <glyph glyph-name="uni1ECD" unicode="&#x1ecd;" horiz-adv-x="1091" 
d="M471 -20q-204 0 -297 148t-59 394q31 249 167.5 402t340.5 153q201 0 294 -151.5t60 -399.5q-31 -247 -166.5 -396.5t-339.5 -149.5zM487 55q169 0 275.5 126.5t134.5 344.5q30 219 -43.5 347t-243.5 128q-171 0 -279 -128.5t-136 -346.5q-30 -216 44.5 -343.5
t247.5 -127.5zM516 -123l-24 -207h-103l31 207h96z" />
    <glyph glyph-name="uni1ECE" unicode="&#x1ece;" horiz-adv-x="1390" 
d="M723 1880l18 -68q66 48 105 48q38 0 54.5 -14t10.5 -50q-2 -10 -7.5 -20.5t-17.5 -25t-20.5 -24t-29.5 -30.5l-31 -31l37 -51q8 8 37.5 38.5t38 41t26 32.5t24.5 39t9 35q9 60 -23 95.5t-94 35.5q-32 0 -71 -14t-66 -37zM643 -20q-271 0 -394.5 193.5t-76.5 559.5
q51 370 228.5 569t447.5 199q269 0 393.5 -198t75.5 -566q-50 -367 -227 -562t-447 -195zM657 63q238 0 384 168.5t190 505.5q45 339 -56 509.5t-337 170.5q-237 0 -385 -171t-193 -509q-44 -336 58 -505t339 -169z" />
    <glyph glyph-name="uni1ECF" unicode="&#x1ecf;" horiz-adv-x="1116" 
d="M528 1456l19 -67q64 47 104 47q38 0 55 -14t11 -50q-2 -10 -7.5 -21t-17.5 -25t-21.5 -24t-29.5 -30l-31 -31l37 -51q8 8 37.5 38.5t38 41t26 32.5t24.5 39t9 35q9 60 -22.5 95.5t-93.5 35.5q-32 0 -71.5 -14t-66.5 -37zM471 -20q-204 0 -297 148t-59 394
q31 249 167.5 402t340.5 153q201 0 294 -151.5t60 -399.5q-31 -247 -166.5 -396.5t-339.5 -149.5zM487 55q169 0 275.5 126.5t134.5 344.5q30 219 -43.5 347t-243.5 128q-171 0 -279 -128.5t-136 -346.5q-30 -216 44.5 -343.5t247.5 -127.5z" />
    <glyph glyph-name="uni1ED0" unicode="&#x1ed0;" horiz-adv-x="1390" 
d="M1141 2198l16 -95l-483 -164l-17 60zM999 1708l-127 123l-167 -123h-119l258 197h61l205 -197h-111zM643 -20q-271 0 -394.5 193.5t-76.5 559.5q51 370 228.5 569t447.5 199q269 0 393.5 -198t75.5 -566q-50 -367 -227 -562t-447 -195zM657 63q238 0 384 168.5t190 505.5
q45 339 -56 509.5t-337 170.5q-237 0 -385 -171t-193 -509q-44 -336 58 -505t339 -169z" />
    <glyph glyph-name="uni1ED1" unicode="&#x1ed1;" horiz-adv-x="1116" 
d="M946 1774l17 -95l-484 -163l-16 59zM805 1284l-127 123l-168 -123h-119l258 197h62l204 -197h-110zM471 -20q-204 0 -297 148t-59 394q31 249 167.5 402t340.5 153q201 0 294 -151.5t60 -399.5q-31 -247 -166.5 -396.5t-339.5 -149.5zM487 55q169 0 275.5 126.5
t134.5 344.5q30 219 -43.5 347t-243.5 128q-171 0 -279 -128.5t-136 -346.5q-30 -216 44.5 -343.5t247.5 -127.5z" />
    <glyph glyph-name="uni1ED2" unicode="&#x1ed2;" horiz-adv-x="1390" 
d="M680 2191l434 -196l-35 -56l-440 162zM999 1708l-127 123l-167 -123h-119l258 197h61l205 -197h-111zM643 -20q-271 0 -394.5 193.5t-76.5 559.5q51 370 228.5 569t447.5 199q269 0 393.5 -198t75.5 -566q-50 -367 -227 -562t-447 -195zM657 63q238 0 384 168.5
t190 505.5q45 339 -56 509.5t-337 170.5q-237 0 -385 -171t-193 -509q-44 -336 58 -505t339 -169z" />
    <glyph glyph-name="uni1ED3" unicode="&#x1ed3;" horiz-adv-x="1116" 
d="M485 1767l435 -196l-35 -55l-441 161zM805 1284l-127 123l-168 -123h-119l258 197h62l204 -197h-110zM471 -20q-204 0 -297 148t-59 394q31 249 167.5 402t340.5 153q201 0 294 -151.5t60 -399.5q-31 -247 -166.5 -396.5t-339.5 -149.5zM487 55q169 0 275.5 126.5
t134.5 344.5q30 219 -43.5 347t-243.5 128q-171 0 -279 -128.5t-136 -346.5q-30 -216 44.5 -343.5t247.5 -127.5z" />
    <glyph glyph-name="uni1ED4" unicode="&#x1ed4;" horiz-adv-x="1390" 
d="M1014 2085l18 -68q64 47 105 47q38 0 54.5 -13.5t10.5 -49.5q-2 -10 -7.5 -20.5t-17.5 -25t-20.5 -24t-29.5 -30.5l-31 -31l37 -51q8 8 37.5 38.5t38 41t26 32.5t24.5 39t9 35q9 60 -23 95.5t-94 35.5q-32 0 -71 -14t-66 -37zM999 1708l-127 123l-167 -123h-119l258 197
h61l205 -197h-111zM643 -20q-271 0 -394.5 193.5t-76.5 559.5q51 370 228.5 569t447.5 199q269 0 393.5 -198t75.5 -566q-50 -367 -227 -562t-447 -195zM657 63q238 0 384 168.5t190 505.5q45 339 -56 509.5t-337 170.5q-237 0 -385 -171t-193 -509q-44 -336 58 -505
t339 -169z" />
    <glyph glyph-name="uni1ED5" unicode="&#x1ed5;" horiz-adv-x="1116" 
d="M825 1661l19 -68q64 47 104 47q38 0 55 -13.5t11 -49.5q-2 -10 -7.5 -21t-17.5 -25t-21.5 -24t-29.5 -30l-31 -31l37 -51q8 8 37.5 38.5t38 41t26 32.5t24.5 39t9 35q9 60 -22.5 95.5t-93.5 35.5q-32 0 -71.5 -14t-66.5 -37zM805 1284l-127 123l-168 -123h-119l258 197
h62l204 -197h-110zM471 -20q-204 0 -297 148t-59 394q31 249 167.5 402t340.5 153q201 0 294 -151.5t60 -399.5q-31 -247 -166.5 -396.5t-339.5 -149.5zM487 55q169 0 275.5 126.5t134.5 344.5q30 219 -43.5 347t-243.5 128q-171 0 -279 -128.5t-136 -346.5
q-30 -216 44.5 -343.5t247.5 -127.5z" />
    <glyph glyph-name="uni1ED6" unicode="&#x1ed6;" horiz-adv-x="1390" 
d="M1165 2077q-64 -41 -145 -41q-52 0 -112 23.5t-95 23.5q-30 0 -54 -9.5t-43.5 -21t-29.5 -14.5l-20 61q71 51 139 51q43 0 111 -24.5t108 -24.5q25 0 43.5 6t42 19t35.5 18zM999 1708l-127 123l-167 -123h-119l258 197h61l205 -197h-111zM643 -20q-271 0 -394.5 193.5
t-76.5 559.5q51 370 228.5 569t447.5 199q269 0 393.5 -198t75.5 -566q-50 -367 -227 -562t-447 -195zM657 63q238 0 384 168.5t190 505.5q45 339 -56 509.5t-337 170.5q-237 0 -385 -171t-193 -509q-44 -336 58 -505t339 -169z" />
    <glyph glyph-name="uni1ED7" unicode="&#x1ed7;" horiz-adv-x="1116" 
d="M971 1653q-64 -41 -146 -41q-52 0 -112 23.5t-95 23.5q-30 0 -54 -9.5t-43 -21t-29 -14.5l-21 61q71 51 139 51q44 0 111.5 -24.5t107.5 -24.5q25 0 43.5 6t42 19t35.5 18zM805 1284l-127 123l-168 -123h-119l258 197h62l204 -197h-110zM471 -20q-204 0 -297 148t-59 394
q31 249 167.5 402t340.5 153q201 0 294 -151.5t60 -399.5q-31 -247 -166.5 -396.5t-339.5 -149.5zM487 55q169 0 275.5 126.5t134.5 344.5q30 219 -43.5 347t-243.5 128q-171 0 -279 -128.5t-136 -346.5q-30 -216 44.5 -343.5t247.5 -127.5z" />
    <glyph glyph-name="uni1ED8" unicode="&#x1ed8;" horiz-adv-x="1390" 
d="M999 1708l-127 123l-167 -123h-119l258 197h61l205 -197h-111zM643 -20q-271 0 -394.5 193.5t-76.5 559.5q51 370 228.5 569t447.5 199q269 0 393.5 -198t75.5 -566q-50 -367 -227 -562t-447 -195zM657 63q238 0 384 168.5t190 505.5q45 339 -56 509.5t-337 170.5
q-237 0 -385 -171t-193 -509q-44 -336 58 -505t339 -169zM662 -123l-25 -207h-102l30 207h97z" />
    <glyph glyph-name="uni1ED9" unicode="&#x1ed9;" horiz-adv-x="1116" 
d="M805 1284l-127 123l-168 -123h-119l258 197h62l204 -197h-110zM471 -20q-204 0 -297 148t-59 394q31 249 167.5 402t340.5 153q201 0 294 -151.5t60 -399.5q-31 -247 -166.5 -396.5t-339.5 -149.5zM487 55q169 0 275.5 126.5t134.5 344.5q30 219 -43.5 347t-243.5 128
q-171 0 -279 -128.5t-136 -346.5q-30 -216 44.5 -343.5t247.5 -127.5zM516 -123l-24 -207h-103l31 207h96z" />
    <glyph glyph-name="uni1EDA" unicode="&#x1eda;" horiz-adv-x="1368" 
d="M1161 1835l-483 -164l-16 60l483 198zM1098 1442q140 -79 197 -258.5t22 -446.5q-50 -367 -227 -562t-447 -195q-271 0 -394.5 193.5t-76.5 559.5q51 370 228.5 569t447.5 199q77 0 137 -14v6q33 0 57.5 11t40.5 31.5t24 37t17 41.5h95q-10 -49 -40.5 -96.5t-80.5 -75.5z
M1231 737q45 339 -56 509.5t-337 170.5q-237 0 -385 -171t-193 -509q-44 -336 58 -505t339 -169q238 0 384 168.5t190 505.5z" />
    <glyph glyph-name="uni1EDB" unicode="&#x1edb;" horiz-adv-x="1114" 
d="M920 1411l-484 -164l-16 60l483 198zM860 995q78 -70 107.5 -191.5t9.5 -277.5q-31 -247 -166.5 -396.5t-339.5 -149.5t-297 148t-59 394q31 249 167.5 402t340.5 153q77 0 147 -26l2 8q33 0 57.5 11t40.5 31.5t24 37t17 41.5h95q-12 -55 -49 -107.5t-97 -77.5zM897 526
q30 219 -43.5 347t-243.5 128q-171 0 -279 -128.5t-136 -346.5q-30 -216 44.5 -343.5t247.5 -127.5q169 0 275.5 126.5t134.5 344.5z" />
    <glyph glyph-name="uni1EDC" unicode="&#x1edc;" horiz-adv-x="1368" 
d="M1118 1726l-35 -55l-440 162l41 90zM1098 1442q140 -79 197 -258.5t22 -446.5q-50 -367 -227 -562t-447 -195q-271 0 -394.5 193.5t-76.5 559.5q51 370 228.5 569t447.5 199q77 0 137 -14v6q33 0 57.5 11t40.5 31.5t24 37t17 41.5h95q-10 -49 -40.5 -96.5t-80.5 -75.5z
M1231 737q45 339 -56 509.5t-337 170.5q-237 0 -385 -171t-193 -509q-44 -336 58 -505t339 -169q238 0 384 168.5t190 505.5z" />
    <glyph glyph-name="uni1EDD" unicode="&#x1edd;" horiz-adv-x="1114" 
d="M877 1303l-35 -56l-441 162l41 90zM860 995q78 -70 107.5 -191.5t9.5 -277.5q-31 -247 -166.5 -396.5t-339.5 -149.5t-297 148t-59 394q31 249 167.5 402t340.5 153q77 0 147 -26l2 8q33 0 57.5 11t40.5 31.5t24 37t17 41.5h95q-12 -55 -49 -107.5t-97 -77.5zM897 526
q30 219 -43.5 347t-243.5 128q-171 0 -279 -128.5t-136 -346.5q-30 -216 44.5 -343.5t247.5 -127.5q169 0 275.5 126.5t134.5 344.5z" />
    <glyph glyph-name="uni1EDE" unicode="&#x1ede;" horiz-adv-x="1368" 
d="M891 1860q-39 0 -105 -48l-18 68q27 23 66 37t71 14q62 0 94 -35.5t23 -95.5q-2 -18 -9 -35t-24.5 -39t-26 -32.5t-38 -41t-37.5 -38.5l-37 51l31 31t29.5 30.5t20.5 24t17.5 25t7.5 20.5q6 36 -10.5 50t-54.5 14zM1098 1442q140 -79 197 -258.5t22 -446.5
q-50 -367 -227 -562t-447 -195q-271 0 -394.5 193.5t-76.5 559.5q51 370 228.5 569t447.5 199q77 0 137 -14v6q33 0 57.5 11t40.5 31.5t24 37t17 41.5h95q-10 -49 -40.5 -96.5t-80.5 -75.5zM1231 737q45 339 -56 509.5t-337 170.5q-237 0 -385 -171t-193 -509
q-44 -336 58 -505t339 -169q238 0 384 168.5t190 505.5z" />
    <glyph glyph-name="uni1EDF" unicode="&#x1edf;" horiz-adv-x="1114" 
d="M649 1436q-40 0 -104 -47l-19 67q27 23 66.5 37t71.5 14q62 0 93.5 -35.5t22.5 -95.5q-2 -18 -9 -35t-24.5 -39t-26 -32.5t-38 -41t-37.5 -38.5l-37 51l31 31t29.5 30t21.5 24t17.5 25t7.5 21q6 36 -11 50t-55 14zM860 995q78 -70 107.5 -191.5t9.5 -277.5
q-31 -247 -166.5 -396.5t-339.5 -149.5t-297 148t-59 394q31 249 167.5 402t340.5 153q77 0 147 -26l2 8q33 0 57.5 11t40.5 31.5t24 37t17 41.5h95q-12 -55 -49 -107.5t-97 -77.5zM897 526q30 219 -43.5 347t-243.5 128q-171 0 -279 -128.5t-136 -346.5
q-30 -216 44.5 -343.5t247.5 -127.5q169 0 275.5 126.5t134.5 344.5z" />
    <glyph glyph-name="uni1EE0" unicode="&#x1ee0;" horiz-adv-x="1368" 
d="M817 1815q-30 0 -54 -9.5t-43.5 -21.5t-29.5 -15l-20 62q71 51 139 51q43 0 110.5 -24.5t108.5 -24.5q25 0 43.5 6t42 19t35.5 18l20 -68q-64 -41 -145 -41q-52 0 -112 24t-95 24zM1098 1442q140 -79 197 -258.5t22 -446.5q-50 -367 -227 -562t-447 -195
q-271 0 -394.5 193.5t-76.5 559.5q51 370 228.5 569t447.5 199q77 0 137 -14v6q33 0 57.5 11t40.5 31.5t24 37t17 41.5h95q-10 -49 -40.5 -96.5t-80.5 -75.5zM1231 737q45 339 -56 509.5t-337 170.5q-237 0 -385 -171t-193 -509q-44 -336 58 -505t339 -169q238 0 384 168.5
t190 505.5z" />
    <glyph glyph-name="uni1EE1" unicode="&#x1ee1;" horiz-adv-x="1114" 
d="M575 1391q-30 0 -54 -9.5t-43 -21t-29 -14.5l-21 61q71 51 139 51q43 0 111 -24.5t108 -24.5q25 0 43.5 6t42 19t35.5 18l21 -68q-64 -41 -146 -41q-52 0 -112 24t-95 24zM860 995q78 -70 107.5 -191.5t9.5 -277.5q-31 -247 -166.5 -396.5t-339.5 -149.5t-297 148
t-59 394q31 249 167.5 402t340.5 153q77 0 147 -26l2 8q33 0 57.5 11t40.5 31.5t24 37t17 41.5h95q-12 -55 -49 -107.5t-97 -77.5zM897 526q30 219 -43.5 347t-243.5 128q-171 0 -279 -128.5t-136 -346.5q-30 -216 44.5 -343.5t247.5 -127.5q169 0 275.5 126.5t134.5 344.5z
" />
    <glyph glyph-name="uni1EE2" unicode="&#x1ee2;" horiz-adv-x="1368" 
d="M1098 1442q140 -79 197 -258.5t22 -446.5q-50 -367 -227 -562t-447 -195q-271 0 -394.5 193.5t-76.5 559.5q51 370 228.5 569t447.5 199q77 0 137 -14v6q33 0 57.5 11t40.5 31.5t24 37t17 41.5h95q-10 -49 -40.5 -96.5t-80.5 -75.5zM1231 737q45 339 -56 509.5
t-337 170.5q-237 0 -385 -171t-193 -509q-44 -336 58 -505t339 -169q238 0 384 168.5t190 505.5zM537 -330l30 207h97l-25 -207h-102z" />
    <glyph glyph-name="uni1EE3" unicode="&#x1ee3;" horiz-adv-x="1114" 
d="M860 995q78 -70 107.5 -191.5t9.5 -277.5q-31 -247 -166.5 -396.5t-339.5 -149.5t-297 148t-59 394q31 249 167.5 402t340.5 153q77 0 147 -26l2 8q33 0 57.5 11t40.5 31.5t24 37t17 41.5h95q-12 -55 -49 -107.5t-97 -77.5zM897 526q30 219 -43.5 347t-243.5 128
q-171 0 -279 -128.5t-136 -346.5q-30 -216 44.5 -343.5t247.5 -127.5q169 0 275.5 126.5t134.5 344.5zM393 -330l31 207h96l-24 -207h-103z" />
    <glyph glyph-name="uni1EE4" unicode="&#x1ee4;" horiz-adv-x="1329" 
d="M1151 459q-32 -241 -163.5 -360t-366.5 -119q-239 0 -335.5 124t-62.5 385l131 992h84l-135 -1026q-28 -196 54 -297t274 -101q390 0 446 398l135 1026h76zM633 -123l-25 -207h-102l31 207h96z" />
    <glyph glyph-name="uni1EE5" unicode="&#x1ee5;" horiz-adv-x="1118" 
d="M422 -18q-149 3 -217.5 82.5t-50.5 211.5l104 785h76l-101 -750q-18 -121 31 -186.5t168 -65.5q95 0 176.5 40.5t225.5 144.5l108 817h76l-141 -1059h-70l20 160q-100 -70 -151 -102t-118 -55.5t-136 -22.5zM526 -123l-24 -207h-103l31 207h96z" />
    <glyph glyph-name="uni1EE6" unicode="&#x1ee6;" horiz-adv-x="1382" 
d="M723 1880l18 -68q66 48 105 48q38 0 54.5 -14t10.5 -50q-2 -10 -7.5 -20.5t-17.5 -25t-20.5 -24t-29.5 -30.5l-31 -31l37 -51q8 8 37.5 38.5t38 41t26 32.5t24.5 39t9 35q9 60 -23 95.5t-94 35.5q-32 0 -71 -14t-66 -37zM1151 459q-32 -241 -163.5 -360t-366.5 -119
q-239 0 -335.5 124t-62.5 385l131 992h84l-135 -1026q-28 -196 54 -297t274 -101q390 0 446 398l135 1026h76z" />
    <glyph glyph-name="uni1EE7" unicode="&#x1ee7;" horiz-adv-x="1118" 
d="M510 1456l18 -67q64 47 105 47q38 0 54.5 -14t10.5 -50q-2 -10 -7.5 -20.5t-17.5 -25t-20.5 -24t-29.5 -30.5l-31 -31l37 -51q8 8 37.5 38.5t38 41t26 32.5t24.5 39t9 35q9 60 -23 95.5t-94 35.5q-32 0 -71 -14t-66 -37zM422 -18q-149 3 -217.5 82.5t-50.5 211.5l104 785
h76l-101 -750q-18 -121 31 -186.5t168 -65.5q95 0 176.5 40.5t225.5 144.5l108 817h76l-141 -1059h-70l20 160q-100 -70 -151 -102t-118 -55.5t-136 -22.5z" />
    <glyph glyph-name="uni1EE8" unicode="&#x1ee8;" horiz-adv-x="1310" 
d="M1100 1835l-484 -164l-16 60l483 198zM1507 1614q-7 -34 -23.5 -66t-43 -63t-68.5 -51t-94 -23l-127 -952q-32 -241 -163.5 -360t-366.5 -119q-239 0 -335.5 124t-62.5 385l131 992h84l-135 -1026q-28 -196 54 -297t274 -101q390 0 446 398l135 1026h60l2 12
q33 0 57.5 11t40.5 31.5t24 37t17 41.5h94z" />
    <glyph glyph-name="uni1EE9" unicode="&#x1ee9;" horiz-adv-x="1105" 
d="M920 1411l-484 -164l-16 60l483 198zM1214 1176q-14 -71 -66.5 -130.5t-141.5 -70.5l-129 -973h-70l20 160q-100 -70 -151 -102t-118 -55.5t-136 -22.5q-149 3 -217.5 82.5t-50.5 211.5l104 785h76l-101 -750q-18 -121 31 -186.5t168 -65.5q95 0 176.5 40.5t225.5 144.5
l108 817h76v-2q29 7 51 29t31 40.5t20 47.5h94z" />
    <glyph glyph-name="uni1EEA" unicode="&#x1eea;" horiz-adv-x="1310" 
d="M1057 1726l-35 -55l-440 162l41 90zM1507 1614q-7 -34 -23.5 -66t-43 -63t-68.5 -51t-94 -23l-127 -952q-32 -241 -163.5 -360t-366.5 -119q-239 0 -335.5 124t-62.5 385l131 992h84l-135 -1026q-28 -196 54 -297t274 -101q390 0 446 398l135 1026h60l2 12q33 0 57.5 11
t40.5 31.5t24 37t17 41.5h94z" />
    <glyph glyph-name="uni1EEB" unicode="&#x1eeb;" horiz-adv-x="1105" 
d="M877 1303l-35 -56l-441 162l41 90zM1214 1176q-14 -71 -66.5 -130.5t-141.5 -70.5l-129 -973h-70l20 160q-100 -70 -151 -102t-118 -55.5t-136 -22.5q-149 3 -217.5 82.5t-50.5 211.5l104 785h76l-101 -750q-18 -121 31 -186.5t168 -65.5q95 0 176.5 40.5t225.5 144.5
l108 817h76v-2q29 7 51 29t31 40.5t20 47.5h94z" />
    <glyph glyph-name="uni1EEC" unicode="&#x1eec;" horiz-adv-x="1310" 
d="M829 1860q-38 0 -104 -48l-18 68q27 23 66 37t71 14q62 0 94 -35.5t23 -95.5q-2 -18 -9.5 -35.5t-24 -38.5t-27 -33t-38.5 -40.5t-37 -38.5l-37 51l31 31t29.5 30t21.5 24t17.5 25t7.5 21q6 36 -11 50t-55 14zM1507 1614q-7 -34 -23.5 -66t-43 -63t-68.5 -51t-94 -23
l-127 -952q-32 -241 -163.5 -360t-366.5 -119q-239 0 -335.5 124t-62.5 385l131 992h84l-135 -1026q-28 -196 54 -297t274 -101q390 0 446 398l135 1026h60l2 12q33 0 57.5 11t40.5 31.5t24 37t17 41.5h94z" />
    <glyph glyph-name="uni1EED" unicode="&#x1eed;" horiz-adv-x="1105" 
d="M649 1436q-40 0 -104 -47l-19 67q27 23 66.5 37t71.5 14q62 0 93.5 -35.5t22.5 -95.5q-2 -18 -9 -35t-24.5 -39t-26 -32.5t-38 -41t-37.5 -38.5l-37 51l31 31t29.5 30t21.5 24t17.5 25t7.5 21q6 36 -11 50t-55 14zM1214 1176q-14 -71 -66.5 -130.5t-141.5 -70.5
l-129 -973h-70l20 160q-100 -70 -151 -102t-118 -55.5t-136 -22.5q-149 3 -217.5 82.5t-50.5 211.5l104 785h76l-101 -750q-18 -121 31 -186.5t168 -65.5q95 0 176.5 40.5t225.5 144.5l108 817h76v-2q29 7 51 29t31 40.5t20 47.5h94z" />
    <glyph glyph-name="uni1EEE" unicode="&#x1eee;" horiz-adv-x="1310" 
d="M756 1815q-30 0 -54 -9.5t-43.5 -21.5t-29.5 -15l-21 62q71 51 140 51q44 0 111 -24.5t108 -24.5q25 0 43.5 6t41 19t35.5 18l21 -68q-64 -41 -145 -41q-52 0 -112 24t-95 24zM1507 1614q-7 -34 -23.5 -66t-43 -63t-68.5 -51t-94 -23l-127 -952q-32 -241 -163.5 -360
t-366.5 -119q-239 0 -335.5 124t-62.5 385l131 992h84l-135 -1026q-28 -196 54 -297t274 -101q390 0 446 398l135 1026h60l2 12q33 0 57.5 11t40.5 31.5t24 37t17 41.5h94z" />
    <glyph glyph-name="uni1EEF" unicode="&#x1eef;" horiz-adv-x="1105" 
d="M575 1391q-30 0 -54 -9.5t-43 -21t-29 -14.5l-21 61q71 51 139 51q43 0 111 -24.5t108 -24.5q25 0 43.5 6t42 19t35.5 18l21 -68q-64 -41 -146 -41q-52 0 -112 24t-95 24zM1214 1176q-14 -71 -66.5 -130.5t-141.5 -70.5l-129 -973h-70l20 160q-100 -70 -151 -102
t-118 -55.5t-136 -22.5q-149 3 -217.5 82.5t-50.5 211.5l104 785h76l-101 -750q-18 -121 31 -186.5t168 -65.5q95 0 176.5 40.5t225.5 144.5l108 817h76v-2q29 7 51 29t31 40.5t20 47.5h94z" />
    <glyph glyph-name="uni1EF0" unicode="&#x1ef0;" horiz-adv-x="1310" 
d="M1507 1614q-7 -34 -23.5 -66t-43 -63t-68.5 -51t-94 -23l-127 -952q-32 -241 -163.5 -360t-366.5 -119q-239 0 -335.5 124t-62.5 385l131 992h84l-135 -1026q-28 -196 54 -297t274 -101q390 0 446 398l135 1026h60l2 12q33 0 57.5 11t40.5 31.5t24 37t17 41.5h94z
M502 -330l30 207h97l-25 -207h-102z" />
    <glyph glyph-name="uni1EF1" unicode="&#x1ef1;" horiz-adv-x="1105" 
d="M1214 1176q-14 -71 -66.5 -130.5t-141.5 -70.5l-129 -973h-70l20 160q-100 -70 -151 -102t-118 -55.5t-136 -22.5q-149 3 -217.5 82.5t-50.5 211.5l104 785h76l-101 -750q-18 -121 31 -186.5t168 -65.5q95 0 176.5 40.5t225.5 144.5l108 817h76v-2q29 7 51 29t31 40.5
t20 47.5h94zM393 -330l31 207h96l-24 -207h-103z" />
    <glyph glyph-name="Ygrave" unicode="&#x1ef2;" horiz-adv-x="1050" 
d="M463 1923l434 -197l-35 -55l-440 162zM1163 1481l-575 -844l-86 -637h-76l86 639l-358 842h77l328 -766l522 766h82z" />
    <glyph glyph-name="ygrave" unicode="&#x1ef3;" horiz-adv-x="1009" 
d="M403 1499l435 -196l-35 -56l-441 162zM119 -338q-44 0 -74.5 4t-38.5 8l-8 4l8 56h109q86 0 136 34t83 97l72 141l-254 1051h81l226 -942l473 942h74l-600 -1211q-97 -184 -287 -184z" />
    <glyph glyph-name="uni1EF4" unicode="&#x1ef4;" horiz-adv-x="1048" 
d="M1163 1481l-575 -844l-86 -637h-76l86 639l-358 842h77l328 -766l522 766h82zM311 -123l-24 -207h-103l31 207h96z" />
    <glyph glyph-name="uni1EF5" unicode="&#x1ef5;" horiz-adv-x="966" 
d="M102 -338q-44 0 -74 4t-38 8l-8 4l8 56h108q86 0 136 34t83 97l72 141l-254 1051h82l225 -942l473 942h74l-600 -1211q-97 -184 -287 -184zM643 -123l-25 -207h-102l31 207h96z" />
    <glyph glyph-name="uni1EF6" unicode="&#x1ef6;" horiz-adv-x="1050" 
d="M547 1880l18 -68q66 48 105 48q38 0 54.5 -14t10.5 -50q-2 -10 -7.5 -20.5t-17.5 -25t-20.5 -24t-29.5 -30.5l-31 -31l37 -51q8 8 37.5 38.5t38 41t26 32.5t24.5 39t9 35q9 60 -23 95.5t-94 35.5q-32 0 -71 -14t-66 -37zM1163 1481l-575 -844l-86 -637h-76l86 639
l-358 842h77l328 -766l522 766h82z" />
    <glyph glyph-name="uni1EF7" unicode="&#x1ef7;" horiz-adv-x="1026" 
d="M487 1456l19 -67q64 47 104 47q38 0 55 -14t11 -50q-2 -10 -7.5 -21t-17.5 -25t-21.5 -24t-29.5 -30l-31 -31l37 -51q8 8 37.5 38.5t38 41t26 32.5t24.5 39t9 35q9 60 -22.5 95.5t-93.5 35.5q-32 0 -71.5 -14t-66.5 -37zM119 -338q-44 0 -74.5 4t-38.5 8l-8 4l8 56h109
q86 0 136 34t83 97l72 141l-254 1051h81l226 -942l473 942h74l-600 -1211q-97 -184 -287 -184z" />
    <glyph glyph-name="uni1EF8" unicode="&#x1ef8;" horiz-adv-x="1050" 
d="M948 1808q-64 -41 -145 -41q-52 0 -112 24t-95 24q-30 0 -54 -9.5t-43.5 -21.5t-29.5 -15l-20 62q71 51 139 51q44 0 111 -24.5t108 -24.5q25 0 43.5 6t42 19t35.5 18zM1163 1481l-575 -844l-86 -637h-76l86 639l-358 842h77l328 -766l522 766h82z" />
    <glyph glyph-name="uni1EF9" unicode="&#x1ef9;" horiz-adv-x="1009" 
d="M889 1384q-64 -41 -146 -41q-52 0 -111.5 24t-94.5 24q-30 0 -54 -9.5t-43.5 -21t-29.5 -14.5l-21 61q71 51 139 51q44 0 112 -24.5t108 -24.5q25 0 43.5 6t41 19t35.5 18zM119 -338q-44 0 -74.5 4t-38.5 8l-8 4l8 56h109q86 0 136 34t83 97l72 141l-254 1051h81
l226 -942l473 942h74l-600 -1211q-97 -184 -287 -184z" />
    <glyph glyph-name="endash" unicode="&#x2013;" horiz-adv-x="1038" 
d="M903 559l-12 -80l-760 -2l12 80z" />
    <glyph glyph-name="emdash" unicode="&#x2014;" horiz-adv-x="1646" 
d="M1511 559l-10 -80l-1370 -2l12 80z" />
    <glyph glyph-name="quoteleft" unicode="&#x2018;" horiz-adv-x="436" 
d="M479 1548l-133 -227h68l-23 -164h-160l17 139l170 252h61z" />
    <glyph glyph-name="quoteright" unicode="&#x2019;" horiz-adv-x="364" 
d="M178 1090l133 227h-67l22 164h160l-16 -140l-170 -251h-62z" />
    <glyph glyph-name="quotesinglbase" unicode="&#x201a;" horiz-adv-x="409" 
d="M-14 -227l139 227h-72l21 164h164l-21 -137l-170 -254h-61z" />
    <glyph glyph-name="quotedblleft" unicode="&#x201c;" horiz-adv-x="702" 
d="M209 1090l18 139l170 252h64l-135 -228h67l-22 -163h-162zM487 1090l17 139l170 252h61l-133 -228h68l-23 -163h-160z" />
    <glyph glyph-name="quotedblright" unicode="&#x201d;" horiz-adv-x="702" 
d="M178 1090l133 227h-67l22 164h160l-16 -140l-170 -251h-62zM455 1090l133 227h-68l23 164h162l-19 -140l-170 -251h-61z" />
    <glyph glyph-name="quotedblbase" unicode="&#x201e;" horiz-adv-x="770" 
d="M-18 -227l172 227h-72l43 164h164l-39 -137l-207 -254h-61zM281 -227l172 227h-72l43 164h164l-39 -137l-207 -254h-61z" />
    <glyph glyph-name="dagger" unicode="&#x2020;" horiz-adv-x="768" 
d="M823 930l-14 -96l-346 14l-137 -1178h-103l178 1178l-358 -14l16 96l347 -10l59 561h102l-86 -561z" />
    <glyph glyph-name="daggerdbl" unicode="&#x2021;" horiz-adv-x="772" 
d="M463 848l-72 -545l350 14l-14 -96l-340 10l-61 -561h-103l88 561l-348 -10l12 96l353 -14l73 545l-358 -14l16 96l347 -10l59 561h102l-86 -561l342 10l-14 -96z" />
    <glyph glyph-name="bullet" unicode="&#x2022;" horiz-adv-x="573" 
d="M301 608q-58 0 -93 43t-26 105q7 58 51.5 98.5t100.5 40.5q58 0 92.5 -42.5t26.5 -104.5q-8 -59 -51.5 -99.5t-100.5 -40.5z" />
    <glyph glyph-name="ellipsis" unicode="&#x2026;" horiz-adv-x="1316" 
d="M190 158l-18 -158h-121l23 158h116zM662 158l-19 -158h-121l23 158h117zM1133 158l-19 -158h-121l23 158h117z" />
    <glyph glyph-name="perthousand" unicode="&#x2030;" horiz-adv-x="2476" 
d="M571 1503q141 0 211 -111.5t43 -316.5q-27 -204 -124.5 -313t-235.5 -109q-142 0 -213.5 111.5t-44.5 318.5q27 201 126 310.5t238 109.5zM1522 1497l-1147 -1505h-80l1149 1505h78zM463 713q112 0 193.5 103t103.5 265q22 158 -31 259.5t-162 101.5t-191 -104.5
t-104 -264.5q-21 -157 31.5 -258.5t159.5 -101.5zM1317 829q142 0 212.5 -111t43.5 -315q-28 -205 -125.5 -314t-235.5 -109q-142 0 -212.5 112t-43.5 320q27 200 125 308.5t236 108.5zM2071 829q141 0 212 -111t44 -315q-28 -205 -126 -314t-235 -109q-142 0 -213.5 112
t-44.5 320q27 200 126 308.5t237 108.5zM1212 39q106 0 189.5 106t107.5 265q19 154 -35 257t-159 103q-106 0 -190.5 -107t-104.5 -262q-19 -154 35 -258t157 -104zM1966 39q106 0 189.5 106.5t105.5 264.5q20 154 -34 257t-159 103q-106 0 -190 -106.5t-104 -262.5
q-21 -154 32.5 -258t159.5 -104z" />
    <glyph glyph-name="guilsinglleft" unicode="&#x2039;" horiz-adv-x="487" 
d="M160 508l178 -352h-43l-234 360l328 373h60z" />
    <glyph glyph-name="guilsinglright" unicode="&#x203a;" horiz-adv-x="491" 
d="M326 518l-183 371h50l231 -381l-324 -352h-55z" />
    <glyph glyph-name="fraction" unicode="&#x2044;" horiz-adv-x="442" 
d="M862 1497l-1147 -1505h-80l1149 1505h78z" />
    <glyph glyph-name="uni2070" unicode="&#x2070;" horiz-adv-x="790" 
d="M510 1729q136 0 206 -123.5t40 -358.5q-32 -232 -135 -353.5t-240 -121.5q-136 0 -205.5 120.5t-38.5 352.5q32 235 135 359.5t238 124.5zM391 823q116 0 198.5 105t110.5 319q29 215 -25.5 321.5t-170.5 106.5q-115 0 -199 -106.5t-112 -321.5q-29 -212 26.5 -318
t171.5 -106z" />
    <glyph glyph-name="uni2074" unicode="&#x2074;" horiz-adv-x="790" 
d="M639 1710h51l-82 -610h142l-9 -53h-139l-37 -269h-47l37 269h-426l8 63zM186 1100h371l68 524z" />
    <glyph glyph-name="uni2075" unicode="&#x2075;" horiz-adv-x="757" 
d="M301 1710h500l-13 -53h-442l-78 -377q62 39 115.5 59.5t122.5 20.5q57 0 104 -15.5t84 -47t53.5 -86.5t6.5 -128q-20 -147 -123.5 -232t-245.5 -85q-168 0 -270 125l39 39q56 -61 103.5 -88t123.5 -27q132 0 218 73.5t101 192.5q16 114 -42.5 172t-157.5 58
q-46 0 -96.5 -16t-79.5 -32t-72 -42q-10 -4 -12 -2l-4 4l-31 22z" />
    <glyph glyph-name="uni2076" unicode="&#x2076;" horiz-adv-x="784" 
d="M541 1733q125 0 194 -103l-45 -31q-57 80 -153 80q-136 0 -231 -113t-118 -315q99 49 156 66.5t119 17.5q133 0 196.5 -75.5t49.5 -194.5q-18 -128 -111.5 -208.5t-214.5 -80.5q-148 0 -214 122t-36 347q29 227 137 357.5t271 130.5zM461 1284q-55 0 -127 -19t-121 -48
q-19 -12 -25.5 -24t-9.5 -38q-6 -51 2.5 -105.5t31.5 -105.5t70.5 -84t112.5 -33q98 0 172 68.5t86 167.5q14 93 -38 157t-154 64z" />
    <glyph glyph-name="uni2077" unicode="&#x2077;" horiz-adv-x="690" 
d="M227 1710h584l-6 -53q-146 -186 -291.5 -457.5t-194.5 -421.5h-59q59 168 188.5 415.5t290.5 463.5h-520z" />
    <glyph glyph-name="uni2078" unicode="&#x2078;" horiz-adv-x="759" 
d="M514 1731q123 0 187 -69t49 -185q-17 -140 -164 -226q-3 -1 -4 -2q54 -21 77 -37q86 -63 70 -190q-15 -112 -109.5 -180t-234.5 -68q-145 0 -216 64t-56 180q3 29 14 58t32.5 63.5t61 67t92.5 57.5q-17 5 -35 16t-41.5 34t-35 64.5t-4.5 94.5q15 110 105.5 184t211.5 74z
M508 1677q-98 0 -171 -58t-87 -146q-18 -138 125 -173l137 -30q38 -8 106 62.5t78 150.5q11 88 -40.5 141t-147.5 53zM393 825q116 0 193.5 55t89.5 146q9 70 -21.5 111.5t-101.5 60.5l-176 41q-24 5 -70 -21.5t-90 -81.5t-51 -116q-14 -91 46.5 -143t180.5 -52z" />
    <glyph glyph-name="uni2079" unicode="&#x2079;" horiz-adv-x="778" 
d="M330 776q-73 0 -120.5 26t-84.5 75l47 32q55 -82 166 -82q298 0 348 527q-38 -90 -110 -136.5t-168 -46.5q-132 0 -195 76.5t-47 196.5q17 128 108.5 208.5t212.5 80.5q146 0 211.5 -122.5t34.5 -346.5q-31 -229 -137 -358.5t-266 -129.5zM410 1225q100 0 177 58.5
t89 152.5q-15 243 -197 243q-97 0 -172.5 -67.5t-87.5 -165.5q-12 -93 39 -157t152 -64z" />
    <glyph glyph-name="colonmonetary" unicode="&#x20a1;" horiz-adv-x="1122" 
d="M668 1212q-169 0 -284.5 -129.5t-143.5 -343.5q-29 -215 51.5 -344t249.5 -129q98 0 173.5 50.5t157.5 164.5l60 -45q-123 -173 -268 -223l-86 -213h-84l77 193q-24 -3 -51 -3t-51 3l-74 -193h-84l82 209q-139 44 -200 184t-33 342q33 246 169 398t335 155l73 193h82
l-76 -199q47 -8 91 -31l88 230h82l-101 -267l-24 7q61 -48 120 -160l-71 -43q-68 111 -121.5 152.5t-138.5 41.5z" />
    <glyph glyph-name="franc" unicode="&#x20a3;" horiz-adv-x="1153" 
d="M1153 1401h-745l-86 -639h690l-11 -80h-692l-41 -305l344 2l-8 -76l-346 -2l-39 -301h-88l41 301h-190l10 76h190l150 1104h833z" />
    <glyph glyph-name="lira" unicode="&#x20a4;" horiz-adv-x="1140" 
d="M981 217q-118 -217 -379 -217h-651l10 78h78q79 -2 145 89t88 263q2 10 3 22.5t3 31t3 32.5q0 6 -2.5 7t-10.5 1h-213l8 76h218l-9 223h-176l8 76h168l-6 47q-2 122 19 218t59 158.5t94 103t119.5 58t138.5 17.5q115 0 207.5 -60.5t106.5 -135.5l-70 -33
q-54 143 -244 143q-131 0 -228.5 -78t-115.5 -211q-6 -35 -2 -215q0 -12 17 -12l352 2l-10 -76l-357 -2l8 -223l320 2l-10 -76h-305q-8 -121 -50.5 -244.5t-115.5 -201.5h407q110 0 184.5 39.5t118.5 130.5z" />
    <glyph glyph-name="uni20A6" unicode="&#x20a6;" horiz-adv-x="1351" 
d="M1386 889h-204l-33 -244h205l-8 -76h-207l-76 -569h-66l-288 569l-480 -2l-75 -567h-76l76 567h-129l8 76h131l33 244h-134l13 76h129l69 518h64l262 -518l514 2l70 516h76l-68 -516h205zM330 1315l-47 -352h225zM1073 645l31 244l-465 -2l123 -242h311zM240 643h430
l-123 244h-275zM1008 160l55 409h-262z" />
    <glyph glyph-name="uni20A9" unicode="&#x20a9;" horiz-adv-x="1941" 
d="M1966 889h-319l-99 -244h387l-8 -76h-409l-232 -569h-106l-76 569l-406 -2l-229 -567h-102l-76 567h-191l11 76h170l-33 244h-107l13 76h86l-70 518h84l68 -518h456l209 518h76l70 -516h462l207 516h84l-209 -516h301zM1004 1327l-148 -364h197zM1466 645l99 244h-422
l33 -244h290zM729 643l365 2l-33 244l-234 -2zM330 887l32 -244h289l99 244h-420zM1247 100l189 469h-252zM432 100l189 467h-248z" />
    <glyph glyph-name="dong" unicode="&#x20ab;" horiz-adv-x="935" 
d="M1018 1337l-10 -69h-119l-133 -1000h-68l14 123q-2 -2 -14 -14.5t-20 -20.5t-25 -22.5t-32 -24t-38 -21.5t-45.5 -19t-51.5 -12t-60 -5q-157 0 -244 114t-59 322q28 207 147.5 334t286.5 127q81 0 127 -24.5t110 -96.5l31 240h-293l10 69h293l19 142h74l-19 -142h119z
M713 547l57 409q-88 111 -221 111q-132 0 -229 -101.5t-121 -279.5q-22 -175 46 -265.5t189 -90.5q104 0 187.5 70.5t91.5 146.5zM59 0l9 70h669l-10 -70h-668z" />
    <glyph glyph-name="Euro" unicode="&#x20ac;" horiz-adv-x="1083" 
d="M821 1415q-193 0 -325.5 -120t-198.5 -353l440 2l-10 -76l-448 -2q-17 -74 -25 -135q-6 -36 -10 -108l452 2l-12 -76l-444 -2q0 -236 102 -358.5t305 -122.5q134 0 252 77l41 -75q-144 -88 -303 -88q-237 0 -362 147t-125 420h-181l11 76h172q4 76 10 114q7 51 22 129
h-170l9 76h180q74 268 234 413.5t384 145.5q162 0 287 -106l-59 -68q-105 88 -228 88z" />
    <glyph glyph-name="uni20B9" unicode="&#x20b9;" horiz-adv-x="1028" 
d="M1128 1483l-10 -76h-293q111 -80 105 -244h155l-8 -76h-157q-16 -77 -51 -137t-83.5 -99.5t-94.5 -63.5t-101 -42q-11 0 -17 -12l162 -733h-94l-156 729h-450l12 80h336q196 0 304.5 64.5t139.5 213.5l-741 -2l12 76l740 2q5 119 -71.5 178.5t-236.5 59.5h-407l12 80z
" />
    <glyph glyph-name="uni20BA" unicode="&#x20ba;" horiz-adv-x="942" 
d="M827 459l82 -29q-92 -211 -241 -320.5t-326 -109.5h-209l64 461l-144 -51l-22 86l178 63l33 236l-146 -54l-20 86l178 66l80 588h84l-74 -553l303 110l21 -88l-336 -123l-31 -233l303 108l23 -86l-338 -122l-56 -414h113q153 0 269.5 89t211.5 290z" />
    <glyph glyph-name="uni2113" unicode="&#x2113;" horiz-adv-x="860" 
d="M262 436v-26q-22 -135 -11.5 -213t44.5 -108t102 -30q55 0 101 19l-99 -98q-71 0 -120 27.5t-69.5 67t-30 91t-7 93t6.5 80.5t3 46q-1 6 -5 1l-3 -3l-106 -70l-33 72l162 111l75 567q29 216 123.5 327t216.5 111q112 0 166 -85.5t35 -219.5q-9 -62 -33.5 -127t-53 -117.5
t-79 -117.5t-86 -106.5t-101.5 -106t-98 -94t-100 -91.5zM338 993l-55 -434q52 42 103 88t113 115t109.5 138.5t85.5 155.5t49 169q13 95 -21.5 143.5t-113.5 48.5q-105 0 -172 -98.5t-98 -325.5zM653 231q-27 -40 -44.5 -62.5t-47.5 -49t-63 -41.5l164 166z" />
    <glyph glyph-name="uni2116" unicode="&#x2116;" horiz-adv-x="2220" 
d="M1939 1499q137 0 204 -96t48 -256q-22 -151 -110.5 -242.5t-225.5 -91.5q-138 0 -203 94.5t-44 247.5q22 155 111 249.5t220 94.5zM1264 1481h75l-196 -1481h-66l-667 1315l-177 -1315h-75l196 1481h64l669 -1321zM1937 1430q-103 0 -169.5 -76t-81.5 -201
q-18 -128 26.5 -201t145.5 -73q104 0 170.5 75.5t85.5 206.5q15 122 -31 195.5t-146 73.5z" />
    <glyph glyph-name="uni2117" unicode="&#x2117;" horiz-adv-x="1581" 
d="M721 -20q-148 0 -274 60t-209.5 162t-122 243.5t-17.5 297.5q20 154 95.5 294.5t185 242t251 161.5t288.5 60q146 0 272 -61t209.5 -163.5t123 -243.5t19.5 -296q-28 -207 -148.5 -381.5t-299 -275t-373.5 -100.5zM725 68q171 0 327 82t266.5 238t137.5 355
q19 146 -16 273.5t-111 213.5t-184 135.5t-232 49.5q-129 0 -252.5 -50t-222.5 -137.5t-168 -215.5t-88 -275q-20 -149 14 -276t109 -212t184 -133t236 -48zM526 336l109 797h262q125 0 191.5 -51.5t54.5 -155.5q-18 -123 -98.5 -186.5t-200.5 -63.5h-197l-45 -340h-76z
M655 748h195q82 0 142 42t71 121q10 85 -36 117.5t-138 32.5h-189z" />
    <glyph glyph-name="uni2120" unicode="&#x2120;" horiz-adv-x="1794" 
d="M315 -12q-199 0 -278 168l49 30q44 -77 94.5 -110t143.5 -33q240 0 262 180q8 62 -20 107t-115 82l-168 71q-154 65 -136 211q15 114 99 179t209 65q153 0 250 -131l-48 -37q-70 113 -215 113q-98 0 -165.5 -49.5t-79.5 -139.5q-10 -117 127 -172l155 -61
q97 -39 133.5 -96t24.5 -138q-13 -114 -99 -176.5t-223 -62.5zM813 0l123 926h53l213 -869l453 869h51l-123 -926h-53l106 788l-403 -788h-72l-192 778l-103 -778h-53z" />
    <glyph glyph-name="trademark" unicode="&#x2122;" horiz-adv-x="1716" 
d="M68 872l8 54h624l-6 -54h-276l-117 -872h-47l117 872h-303zM735 0l123 926h53l213 -869l453 869h51l-123 -926h-53l107 788l-404 -788h-72l-192 778l-103 -778h-53z" />
    <glyph glyph-name="uni2126" unicode="&#x2126;" horiz-adv-x="1472" 
d="M856 1415q-100 0 -188.5 -35t-154 -94.5t-116.5 -138.5t-81.5 -166.5t-43.5 -179.5q-15 -111 2 -213.5t47 -170.5t84 -137.5t87 -101t83 -74.5q25 -15 21 -47l-8 -57h-445l13 84h340q-3 3 -15 13q-361 284 -299 720q19 136 74 258t139.5 217.5t205.5 152t259 56.5
q94 0 174.5 -26t138.5 -73t102 -111.5t65.5 -141t29.5 -162t-6 -174.5q-14 -108 -53 -208.5t-85.5 -170.5t-104 -134t-99.5 -99t-82 -65.5t-43 -33.5q-30 -18 2 -18h299l-10 -84h-447l17 96q44 29 75.5 51.5t84.5 65.5t92 82.5t86 98.5t79 118.5t59 137t38 159.5
q12 74 6.5 148t-21 141t-50.5 125t-82.5 100.5t-116.5 67t-152 24.5z" />
    <glyph glyph-name="estimated" unicode="&#x212e;" horiz-adv-x="1579" 
d="M1360 303q-130 -148 -296.5 -235.5t-342.5 -87.5q-148 0 -274 60t-209.5 162t-122 243.5t-17.5 297.5q20 154 95.5 294.5t185 242t251 161.5t288.5 60q144 0 269.5 -59t210.5 -158t125 -235.5t21 -284.5q-1 -15 -6.5 -20t-17.5 -5h-1055l-78 -587q129 -111 336 -111
q145 0 292 75.5t249 186.5h96zM918 1432q-189 0 -353 -97q-23 -13 -26 -37l-64 -487h688l72 532q-139 89 -317 89z" />
    <glyph glyph-name="uni2153" unicode="&#x2153;" horiz-adv-x="1800" 
d="M197 565l114 860l-192 -75l6 51l197 96h51l-123 -932h-53zM1423 1497l-1147 -1505h-79l1149 1505h77zM1178 811q49 59 125 93t153 34q123 0 190.5 -66t55.5 -165q-21 -155 -205 -218q96 -29 139 -92.5t31 -152.5q-16 -112 -109.5 -187t-244.5 -75q-87 0 -149 28.5
t-117 95.5l45 39q79 -112 231 -112q122 0 199.5 57t89.5 150q14 102 -57 159.5t-177 57.5h-116l6 51h96q107 0 190 57t93 142q11 76 -44 127t-151 51q-136 0 -242 -109z" />
    <glyph glyph-name="uni2154" unicode="&#x2154;" horiz-adv-x="1959" 
d="M49 571l8 64l332 317q115 107 166 174.5t61 141.5q6 52 -8 91t-42.5 60.5t-61.5 32t-68 10.5q-70 0 -135.5 -32t-112.5 -99l-34 37q114 148 295 148q108 0 171 -65.5t46 -182.5q-12 -84 -66 -159.5t-186 -199.5l-305 -284h481l-6 -54h-535zM1583 1497l-1147 -1505h-80
l1149 1505h78zM1337 811q48 59 125 93t154 34q123 0 190.5 -66t55.5 -165q-21 -155 -205 -218q96 -29 139 -92.5t31 -152.5q-16 -112 -109.5 -187t-244.5 -75q-87 0 -149.5 28.5t-117.5 95.5l45 39q79 -112 232 -112q122 0 199.5 57t89.5 150q14 102 -57 159.5t-177 57.5
h-117l6 51h97q107 0 189.5 57t92.5 142q11 76 -43.5 127t-150.5 51q-136 0 -242 -109z" />
    <glyph glyph-name="oneeighth" unicode="&#x215b;" horiz-adv-x="1804" 
d="M197 565l114 860l-192 -75l6 51l197 96h51l-123 -932h-53zM1423 1497l-1147 -1505h-79l1149 1505h77zM1446 936q123 0 186.5 -69t48.5 -185q-17 -139 -164 -225q-3 -1 -4 -2q55 -21 79 -39q85 -64 69 -189q-15 -112 -109.5 -179.5t-234.5 -67.5q-145 0 -216.5 64
t-56.5 179q5 40 21.5 79t63 86.5t116.5 80.5q-13 4 -26.5 11t-33.5 23.5t-34 38t-21.5 57.5t-1.5 79q15 110 106 184t212 74zM1440 883q-98 0 -171 -58.5t-87 -146.5q-18 -137 125 -172l137 -31q38 -8 106 62.5t78 150.5q11 88 -40.5 141.5t-147.5 53.5zM1325 31
q116 0 193.5 54.5t89.5 145.5q9 70 -21.5 111.5t-101.5 60.5l-176 41q-24 5 -70 -21.5t-90 -81.5t-51 -116q-14 -91 46.5 -142.5t180.5 -51.5z" />
    <glyph glyph-name="threeeighths" unicode="&#x215c;" horiz-adv-x="1994" 
d="M215 1389q48 59 125 93t154 34q123 0 190 -66.5t55 -165.5q-21 -154 -204 -217q96 -29 139 -93t31 -153q-16 -112 -110 -187t-245 -75q-87 0 -149 29t-117 96l45 39q79 -113 231 -113q122 0 199.5 57t89.5 150q14 102 -56.5 159.5t-176.5 57.5h-117l6 51h96q107 0 190 57
t93 142q11 76 -44 127t-151 51q-75 0 -132 -27t-109 -81zM1614 1497l-1147 -1505h-80l1149 1505h78zM1636 936q123 0 187 -69t49 -185q-17 -139 -164 -225q-3 -1 -4 -2q55 -21 79 -40q84 -63 68 -188q-15 -112 -109.5 -179.5t-234.5 -67.5q-145 0 -216 63.5t-56 179.5
q5 40 21.5 79t63 86.5t116.5 80.5q-13 4 -26.5 11t-33.5 23.5t-34 38t-21.5 57.5t-1.5 79q15 110 105.5 184t211.5 74zM1630 883q-98 0 -171 -58.5t-87 -146.5q-18 -137 125 -172l137 -31q38 -8 106.5 62.5t78.5 150.5q11 88 -41 141.5t-148 53.5zM1516 31q116 0 193 54.5
t89 145.5q9 70 -21.5 111.5t-101.5 60.5l-176 41q-24 5 -70 -21.5t-90 -81.5t-51 -116q-13 -91 47.5 -142.5t180.5 -51.5z" />
    <glyph glyph-name="fiveeighths" unicode="&#x215d;" horiz-adv-x="1996" 
d="M272 1497h500l-12 -53h-443l-77 -377q41 25 69.5 40t74 27.5t93.5 12.5q57 0 104 -15.5t84 -47t53.5 -86.5t6.5 -128q-20 -147 -123.5 -232t-245.5 -85q-168 0 -270 125l39 39q56 -61 103.5 -88t123.5 -27q132 0 218.5 73.5t101.5 192.5q16 114 -43 172t-158 58
q-46 0 -96.5 -16t-79.5 -32t-72 -42q-10 -4 -12 -2l-4 4l-31 22zM1616 1497l-1147 -1505h-80l1149 1505h78zM1638 936q123 0 187 -69t49 -185q-17 -139 -164 -225q-3 -1 -4 -2q55 -21 79 -40q84 -63 68 -188q-15 -112 -109.5 -179.5t-234.5 -67.5q-145 0 -216 63.5
t-56 179.5q5 40 21.5 79t63 86.5t116.5 80.5q-13 4 -26.5 11t-33.5 23.5t-34 38t-21.5 57.5t-1.5 79q15 110 105.5 184t211.5 74zM1632 883q-98 0 -171 -58.5t-87 -146.5q-18 -137 125 -172l137 -31q38 -8 106.5 62.5t78.5 150.5q11 88 -41 141.5t-148 53.5zM1518 31
q116 0 193 54.5t89 145.5q9 70 -21.5 111.5t-101.5 60.5l-176 41q-24 5 -70 -21.5t-90 -81.5t-51 -116q-13 -91 47.5 -142.5t180.5 -51.5z" />
    <glyph glyph-name="seveneighths" unicode="&#x215e;" horiz-adv-x="1925" 
d="M1544 1497l-1147 -1505h-80l1149 1505h78zM197 1495h583l-6 -53q-146 -186 -291 -457.5t-194 -421.5h-60q59 167 189 414.5t291 464.5h-521zM1567 936q123 0 186.5 -69t48.5 -185q-17 -139 -164 -225q-3 -1 -4 -2q55 -21 79 -39q85 -64 69 -189q-15 -112 -109.5 -179.5
t-234.5 -67.5q-145 0 -216.5 64t-56.5 179q5 40 21.5 79t63 86.5t116.5 80.5q-13 4 -26.5 11t-33.5 23.5t-34 38t-21.5 57.5t-1.5 79q15 110 106 184t212 74zM1561 883q-98 0 -171 -58.5t-87 -146.5q-18 -137 124 -172l138 -31q38 -8 106 62.5t78 150.5q11 88 -40.5 141.5
t-147.5 53.5zM1446 31q116 0 193.5 54.5t89.5 145.5q9 70 -21.5 111.5t-101.5 60.5l-176 41q-24 5 -70 -21.5t-90 -81.5t-51 -116q-14 -91 46.5 -142.5t180.5 -51.5z" />
    <glyph glyph-name="partialdiff" unicode="&#x2202;" horiz-adv-x="1118" 
d="M326 1307l-31 63q58 61 160 96t202 35q231 0 333 -192t50 -564q-47 -366 -196.5 -565.5t-370.5 -199.5q-189 0 -295 134t-80 335q26 196 166 308.5t359 112.5q52 0 92 -6.5t77.5 -23t61 -30.5t68.5 -44q14 -8 20 -4.5t6 12.5q42 321 -43 480t-284 159q-47 0 -87 -7.5
t-81.5 -27t-60.5 -30.5t-66 -41zM461 66h2q151 0 281 140.5t180 366.5q11 55 0 72q-41 59 -137.5 99t-196.5 40q-155 0 -267.5 -99t-134.5 -253q-20 -150 60 -258t213 -108z" />
    <glyph glyph-name="emptyset" unicode="&#x2205;" horiz-adv-x="1097" 
d="M1040 1079l-125 -106q59 -105 41 -234q-22 -161 -147.5 -276t-278.5 -115q-140 0 -231 94l-141 -120l-45 59l141 121q-69 109 -51 246q23 163 147 277t279 114q149 0 245 -107l125 107zM270 739q-15 -108 37 -192l512 438q-76 82 -192 82q-128 0 -232.5 -96t-124.5 -232z
M887 748q15 99 -27 178l-508 -437q72 -69 180 -69q129 0 233.5 96.5t121.5 231.5z" />
    <glyph glyph-name="uni2206" unicode="&#x2206;" horiz-adv-x="1226" 
d="M14 0l23 121l659 1362l88 -2l299 -1377l-12 -104h-1057zM106 84h898l-277 1286z" />
    <glyph glyph-name="product" unicode="&#x220f;" horiz-adv-x="1193" 
d="M1300 1481l-12 -84h-209l-188 -1397h-88l188 1397h-540l-187 -1397h-88l186 1397h-210l12 84h1136z" />
    <glyph glyph-name="summation" unicode="&#x2211;" horiz-adv-x="946" 
d="M831 0h-856l13 74l518 669l-313 672l10 66h790l-10 -80h-688l311 -664l-510 -657h746z" />
    <glyph glyph-name="minus" unicode="&#x2212;" horiz-adv-x="1038" 
d="M934 782l-10 -75l-760 -2l12 75z" />
    <glyph glyph-name="radical" unicode="&#x221a;" horiz-adv-x="1138" 
d="M1305 1688l-773 -2018h-90l-219 987l-143 -57l-23 72l238 94l201 -977l731 1899h78z" />
    <glyph glyph-name="infinity" unicode="&#x221e;" horiz-adv-x="1316" 
d="M1221 557v-2q-20 -142 -111 -224.5t-209 -82.5q-36 0 -67.5 10t-53 22.5t-46 39t-37.5 44.5t-38 54q-7 8 -11.5 6.5t-16.5 -14.5l-28 -28t-47.5 -43.5t-57 -41.5t-76 -36t-84.5 -13q-114 0 -183 85.5t-51 219.5q17 133 108.5 215t217.5 82q38 0 69 -8.5t53 -20.5
t44.5 -35t36 -41.5t35.5 -50.5q14 -13 21.5 -11.5t21.5 19.5q39 37 56 52t57 43.5t80.5 40.5t86.5 12q117 0 182 -80t48 -213zM346 338h6q67 0 134.5 49t119.5 115q24 28 25.5 42t-15.5 48q-42 86 -91 130t-115 44q-86 0 -150 -60.5t-74 -154.5q-12 -94 34.5 -153.5
t125.5 -59.5zM985 766h-2q-36 0 -71 -14.5t-71.5 -44.5t-59.5 -52.5t-60 -62.5q-40 -40 -14 -86q93 -168 223 -168q81 0 138.5 66.5t68.5 152.5q12 85 -29.5 147t-122.5 62z" />
    <glyph glyph-name="integral" unicode="&#x222b;" horiz-adv-x="798" 
d="M418 1376q21 157 108.5 244.5t196.5 87.5q80 0 121.5 -12t97.5 -49l-39 -80q-53 28 -89 38.5t-81 10.5q-84 0 -149.5 -60.5t-79.5 -175.5q-29 -224 -42.5 -693.5t-45.5 -704.5q-19 -156 -105.5 -244t-191.5 -88q-79 0 -120 12.5t-99 50.5l41 80q53 -29 88.5 -40t81.5 -11
q80 0 143.5 60.5t77.5 174.5q32 235 44 701t42 698z" />
    <glyph glyph-name="approxequal" unicode="&#x2248;" horiz-adv-x="1046" 
d="M969 913q-79 -79 -217 -79q-60 0 -116 22t-111 44t-111 22q-124 0 -215 -91l-19 72q52 43 104.5 67.5t123.5 24.5q69 0 175.5 -45t172.5 -45q37 0 67 7.5t54.5 23t37.5 26.5t33 31zM920 532q-84 -79 -220 -79q-65 0 -122.5 22t-110.5 44t-107 22q-125 0 -213 -92l-18 75
q53 42 105 66t120 24q70 0 177.5 -45t173.5 -45q47 0 87.5 15.5t60.5 31.5t44 41z" />
    <glyph glyph-name="notequal" unicode="&#x2260;" horiz-adv-x="1128" 
d="M950 905h-211l-200 -362h362l-10 -76l-395 -2l-164 -293h-76l166 293h-291l10 76h322l205 364l-478 -2l9 76l512 2l153 272h70l-152 -272h179z" />
    <glyph glyph-name="lessequal" unicode="&#x2264;" horiz-adv-x="1021" 
d="M885 612l-11 -92l-702 311l12 97l789 315l-15 -102l-663 -260zM840 242l-13 -76l-759 2l10 76z" />
    <glyph glyph-name="greaterequal" unicode="&#x2265;" horiz-adv-x="1030" 
d="M158 614l663 267l-594 264l13 98l702 -315l-12 -99l-785 -311zM109 242l757 2l-8 -76l-760 -2z" />
    <glyph glyph-name="lozenge" unicode="&#x25ca;" horiz-adv-x="837" 
d="M393 0h-92l-192 743l395 738h92l195 -744zM539 1395l-336 -654l157 -653l336 653z" />
    <glyph glyph-name="i.loclTRK" horiz-adv-x="471" 
d="M414 1481l-25 -197h-96l26 197h95zM350 1057l-143 -1057h-78l143 1057h78z" />
    <glyph glyph-name="g.001" horiz-adv-x="1122" 
d="M874 0q-11 -84 -46 -148.5t-80.5 -102t-106 -60.5t-115 -31t-116.5 -8q-74 0 -139 20.5t-107.5 53t-69 62t-41.5 56.5l64 41q44 -67 117 -111.5t174 -45.5q164 -2 270.5 67.5t126.5 206.5l22 152l-13 -14q-13 -13 -19 -18.5t-23 -20.5t-28.5 -23.5t-32 -23t-38 -23
t-42 -19t-47.5 -16.5t-51 -10t-56 -4q-170 0 -273.5 108.5t-103.5 312.5q0 94 21.5 189t66.5 182.5t107.5 155.5t151.5 108.5t192 40.5q177 0 285 -155l22 135h72zM850 342l63 489q-44 77 -117.5 123.5t-158.5 46.5q-106 0 -194.5 -51.5t-145.5 -135.5t-88 -188t-31 -212
q0 -89 24.5 -159t68 -113t99 -65t119.5 -22q66 0 131.5 28t113 70.5t79.5 93t37 95.5z" />
    <glyph glyph-name="l.ss01" horiz-adv-x="526" 
d="M156 0l202 1520h76l-201 -1520h-77z" />
    <glyph glyph-name="one.osf" horiz-adv-x="737" 
d="M313 0l183 1368l-308 -121l11 80l313 154h82l-197 -1481h-84z" />
    <glyph glyph-name="two.osf" horiz-adv-x="1083" 
d="M35 0l14 102l529 504q181 168 262.5 276t97.5 226q8 67 -6 120.5t-42.5 87.5t-69.5 57t-83 32.5t-86 9.5q-111 0 -215.5 -50.5t-179.5 -156.5l-55 60q183 233 469 233q83 0 152 -26t117 -74.5t69 -124.5t8 -170q-18 -132 -104 -250t-298 -317l-485 -455h766l-10 -84h-850
z" />
    <glyph glyph-name="three.osf" horiz-adv-x="1187" 
d="M268 1311q78 93 199.5 146.5t243.5 53.5q197 0 304.5 -105t86.5 -263q-33 -241 -326 -346q153 -45 222.5 -147t48.5 -242q-16 -115 -84 -208t-193 -151.5t-287 -58.5q-138 0 -237 46t-187 154l72 60q69 -95 159.5 -135.5t211.5 -40.5q193 0 315 90t141 237q13 83 -14 151
t-81.5 109.5t-125 64t-149.5 22.5h-187l11 79h153q170 0 302 91t149 225q15 122 -71 203t-238 81q-118 0 -209.5 -44.5t-175.5 -129.5z" />
    <glyph glyph-name="four.osf" horiz-adv-x="1198" 
d="M913 1481h84l-131 -971h226l-13 -82h-223l-57 -428h-76l57 428h-676l13 100zM197 510h587l109 833z" />
    <glyph glyph-name="five.osf" horiz-adv-x="1236" 
d="M373 1481h792l-18 -84h-705l-123 -598q65 40 109 63t118 43.5t152 20.5q89 0 164.5 -25t134 -76t85 -138.5t10.5 -201.5q-21 -156 -105.5 -271.5t-209.5 -174.5t-273 -59q-270 0 -430 198l63 62q85 -95 163 -138t200 -43q209 0 345 116.5t161 307.5q10 75 -1.5 136
t-40.5 102.5t-72 70t-94.5 41.5t-109.5 13q-57 0 -113 -12t-110.5 -37t-87.5 -43t-84 -49q-7 -4 -10.5 -5.5t-5.5 -1.5t-3 1t-3 3.5t-5 4.5l-47 34z" />
    <glyph glyph-name="six.osf" horiz-adv-x="1179" 
d="M788 1501q110 0 183 -42t127 -120l-74 -51q-85 129 -242 129q-218 0 -368 -180t-185 -500q159 78 249 105.5t188 27.5q212 0 312.5 -120.5t76.5 -311.5q-29 -203 -177 -330.5t-339 -127.5q-235 0 -342 194.5t-58 550.5q48 363 219 569.5t430 206.5zM662 786
q-88 0 -202.5 -30.5t-191.5 -75.5q-29 -19 -40 -38t-17 -60q-9 -50 -4 -108t17 -116t41 -111t67 -94t96.5 -65.5t128.5 -24.5q154 0 272 108.5t138 264.5q23 146 -60 248t-245 102z" />
    <glyph glyph-name="seven.osf" horiz-adv-x="1103" 
d="M221 1481h930l-12 -84q-232 -298 -463 -728.5t-309 -668.5h-93q92 266 297.5 659t462.5 738h-825z" />
    <glyph glyph-name="eight.osf" horiz-adv-x="1191" 
d="M723 1501q195 0 297.5 -110.5t77.5 -294.5q-28 -220 -267 -359q5 -2 19 -8q42 -17 70.5 -33.5t73.5 -56t64 -107.5t7 -157q-25 -178 -175.5 -286.5t-373.5 -108.5q-227 0 -342 103t-90 286q6 45 23 91t51.5 100.5t97.5 106.5t147 91q-12 4 -23.5 9.5t-30.5 16.5t-34.5 24
t-34.5 33t-30.5 43.5t-23.5 55t-12 68t3 82.5q25 177 169 294t337 117zM713 1417q-155 0 -271.5 -93.5t-138.5 -233.5q-27 -220 199 -273l217 -49q27 -6 73 21.5t92 73.5t83 112.5t45 130.5q19 140 -62.5 225.5t-236.5 85.5zM530 63q185 0 308 86.5t143 231.5
q13 112 -35 178t-162 94l-280 68q-27 6 -78 -19t-104.5 -69.5t-98 -115.5t-53.5 -146q-22 -145 73.5 -226.5t286.5 -81.5z" />
    <glyph glyph-name="nine.osf" horiz-adv-x="1167" 
d="M440 -20q-117 0 -192.5 41t-132.5 120l73 52q83 -130 265 -130q474 0 555 834q-62 -142 -177.5 -214.5t-267.5 -72.5q-210 0 -310.5 121t-74.5 311q27 203 174 331t338 128q231 0 335.5 -194.5t55.5 -550.5q-50 -365 -218 -570.5t-423 -205.5zM565 694q159 0 282 92.5
t144 241.5q-27 389 -315 389q-153 0 -272.5 -107t-141.5 -263q-19 -148 62.5 -250.5t240.5 -102.5z" />
    <glyph glyph-name="zero.tf" horiz-adv-x="1368" 
d="M823 1501q104 0 186 -47t137 -141.5t72.5 -238.5t-6.5 -337q-26 -188 -83.5 -334.5t-137 -237.5t-174 -138t-199.5 -47q-104 0 -185.5 45.5t-137 139t-73 235t6.5 333.5q26 189 84 337.5t137.5 241.5t174 141t198.5 48zM635 63q184 0 315 167t176 507q45 342 -42 511
t-271 169q-88 0 -166.5 -40.5t-144.5 -121.5t-114 -213t-71 -305q-45 -338 44 -506t274 -168z" />
    <glyph glyph-name="one.tf" horiz-adv-x="1521" 
d="M844 86h467v-86h-1010v86h459v1300l-436 -198v94l438 201h82v-1397z" />
    <glyph glyph-name="two.tf" horiz-adv-x="1382" 
d="M223 0l15 102l528 504q181 168 262.5 276t97.5 226q8 67 -5.5 120.5t-42 87.5t-69.5 57t-83 32.5t-86 9.5q-111 0 -216 -50.5t-180 -156.5l-55 60q183 233 469 233q83 0 152 -26t117 -74.5t69 -124.5t8 -170q-18 -132 -104 -250t-297 -317l-486 -455h766l-10 -84h-850z
" />
    <glyph glyph-name="three.tf" horiz-adv-x="1366" 
d="M377 1300q78 93 199.5 147t242.5 54q197 0 304.5 -105t86.5 -263q-34 -243 -325 -347q153 -45 222 -147t48 -242q-12 -86 -54.5 -160.5t-112 -132t-172 -91t-224.5 -33.5q-138 0 -237 46t-187 154l72 60q70 -95 160 -136t210 -41q193 0 315.5 90.5t141.5 237.5
q13 83 -14 151t-82 109.5t-125.5 63.5t-149.5 22h-186l10 80h154q170 0 301.5 91t148.5 225q15 122 -71 203t-238 81q-118 0 -209.5 -44.5t-175.5 -129.5z" />
    <glyph glyph-name="four.tf" horiz-adv-x="1363" 
d="M1030 1481h84l-131 -971h225l-12 -82h-223l-58 -428h-75l57 428h-676l12 100zM313 510h588l109 833z" />
    <glyph glyph-name="five.tf" horiz-adv-x="1361" 
d="M465 1481h792l-18 -84h-704l-123 -598q65 40 109 63t118 43.5t152 20.5q89 0 164.5 -25t133.5 -76t84.5 -138.5t10.5 -201.5q-21 -156 -105.5 -271.5t-209.5 -174.5t-273 -59q-270 0 -430 198l63 62q85 -95 163 -138t200 -43q209 0 345 116.5t161 307.5q10 75 -1.5 136
t-40.5 102.5t-72 70t-94.5 41.5t-109.5 13q-57 0 -113 -12t-110.5 -37t-87.5 -43t-84 -49q-7 -4 -10.5 -5.5t-5.5 -1.5t-3 1t-3 3.5t-5 4.5l-47 34z" />
    <glyph glyph-name="six.tf" horiz-adv-x="1392" 
d="M897 1501q110 0 182.5 -41.5t126.5 -120.5l-73 -51q-85 129 -242 129q-218 0 -368 -180t-185 -500q159 78 248.5 105.5t187.5 27.5q212 0 312.5 -120.5t76.5 -311.5q-29 -203 -177 -330.5t-339 -127.5q-235 0 -341.5 194.5t-57.5 550.5q48 363 219 569.5t430 206.5z
M770 786q-88 0 -202 -30.5t-191 -75.5q-29 -19 -40.5 -38t-17.5 -60q-4 -44 -4.5 -92t10.5 -98.5t27.5 -98t46.5 -89.5t66.5 -73.5t88.5 -49.5t112 -18q154 0 271.5 108t137.5 265q23 146 -60 248t-245 102z" />
    <glyph glyph-name="seven.tf" horiz-adv-x="1372" 
d="M270 1481h1043v-84q-193 -299 -367.5 -730.5t-218.5 -666.5h-92q55 264 208.5 657.5t364.5 739.5h-938v84z" />
    <glyph glyph-name="eight.tf" horiz-adv-x="1366" 
d="M827 1501q195 0 297.5 -110.5t77.5 -294.5q-28 -221 -266 -359q5 -2 19 -8q32 -13 53.5 -23t60.5 -40t61 -64.5t35 -94.5t4 -132q-25 -178 -175 -286.5t-373 -108.5q-228 0 -343 103t-90 286q5 35 15.5 70.5t34.5 80t58 84.5t89 81t123 73q-12 4 -23.5 9.5t-30.5 16.5
t-34.5 24t-34.5 33t-30.5 43.5t-23.5 55t-12 68t3 82.5q25 177 168.5 294t336.5 117zM817 1417q-155 0 -271 -93.5t-138 -233.5q-27 -220 198 -273l217 -49q27 -6 73 21.5t92 73.5t83 112.5t45 130.5q19 140 -62.5 225.5t-236.5 85.5zM635 63q185 0 307.5 86.5t142.5 231.5
q13 112 -34.5 178t-161.5 94l-281 68q-27 6 -78 -19t-104.5 -69.5t-98 -115.5t-53.5 -146q-22 -145 74 -226.5t287 -81.5z" />
    <glyph glyph-name="nine.tf" horiz-adv-x="1380" 
d="M567 -20q-117 0 -192.5 41t-132.5 120l73 52q83 -130 265 -130q474 0 555 834q-62 -142 -177.5 -214.5t-267.5 -72.5q-210 0 -310.5 121t-74.5 311q27 203 174 331t338 128q231 0 335.5 -194.5t55.5 -550.5q-50 -365 -218 -570.5t-423 -205.5zM692 694q159 0 282 92.5
t144 241.5q-27 389 -315 389q-153 0 -272.5 -107t-141.5 -263q-19 -148 62.5 -250.5t240.5 -102.5z" />
    <glyph glyph-name="zero.subs" horiz-adv-x="792" 
d="M352 596q136 0 206 -123t40 -358q-32 -232 -135 -353.5t-240 -121.5q-136 0 -205 120.5t-38 352.5q32 235 134.5 359t237.5 124zM233 -309q116 0 199 105t111 319q29 215 -26 321.5t-171 106.5q-115 0 -199 -106.5t-112 -321.5q-29 -212 26.5 -318t171.5 -106z" />
    <glyph glyph-name="one.subs" horiz-adv-x="583" 
d="M70 -338l114 860l-192 -76l6 52l197 96h51l-123 -932h-53z" />
    <glyph glyph-name="two.subs" horiz-adv-x="737" 
d="M-78 -338l8 64l332 317q115 107 166 174.5t61 140.5q6 52 -8 91.5t-42.5 61t-61.5 32t-68 10.5q-70 0 -135.5 -32t-112.5 -99l-34 37q113 147 295 147q108 0 171 -65.5t46 -182.5q-12 -84 -66 -158.5t-186 -199.5l-305 -285h481l-6 -53h-535z" />
    <glyph glyph-name="three.subs" horiz-adv-x="757" 
d="M86 473q48 59 125 93t154 34q123 0 190 -66t55 -165q-21 -154 -204 -217q95 -29 138 -93t31 -153q-16 -112 -109.5 -187t-244.5 -75q-87 0 -149 29t-117 96l45 38q79 -112 231 -112q122 0 199.5 57t89.5 150q14 102 -56.5 159.5t-176.5 57.5h-117l6 51h96q107 0 190 57
t93 142q11 76 -44 127t-151 51q-74 0 -131 -27.5t-110 -81.5z" />
    <glyph glyph-name="four.subs" horiz-adv-x="790" 
d="M481 594h51l-81 -610h141l-8 -54h-140l-36 -268h-48l37 268h-426l9 64zM29 -16h370l68 524z" />
    <glyph glyph-name="five.subs" horiz-adv-x="757" 
d="M143 588h500l-12 -53h-443l-77 -377q41 25 69.5 40t74 27.5t93.5 12.5q57 0 104 -15.5t84 -47t53.5 -86.5t6.5 -128q-20 -147 -123.5 -232t-245.5 -85q-168 0 -270 125l39 38q56 -61 103.5 -87.5t123.5 -26.5q132 0 218.5 73.5t101.5 192.5q16 114 -43 171.5t-158 57.5
q-46 0 -96.5 -16t-79.5 -32t-72 -42q-10 -4 -12 -2l-4 4l-31 23z" />
    <glyph glyph-name="six.subs" horiz-adv-x="784" 
d="M381 596q125 0 194 -102l-45 -31q-57 80 -153 80q-136 0 -230.5 -113t-117.5 -315q100 49 156 66.5t118 17.5q133 0 196.5 -76t49.5 -195q-18 -128 -111.5 -208t-214.5 -80q-148 0 -214 122t-36 347q29 227 137 357t271 130zM301 147q-55 0 -127 -19t-121 -48
q-19 -12 -25.5 -24t-9.5 -38q-6 -51 2.5 -105.5t32 -105.5t71 -83.5t112.5 -32.5q98 0 172 68t86 167q14 93 -38.5 157t-154.5 64z" />
    <glyph glyph-name="seven.subs" horiz-adv-x="690" 
d="M72 594h583l-6 -53q-146 -186 -291 -457.5t-194 -421.5h-60q59 167 189 414.5t291 464.5h-521z" />
    <glyph glyph-name="eight.subs" horiz-adv-x="759" 
d="M354 600q123 0 187 -69t49 -185q-17 -139 -164 -225q-3 -1 -4 -2q55 -21 79 -40q84 -63 68 -188q-15 -112 -109.5 -179.5t-234.5 -67.5q-145 0 -216 63.5t-56 179.5q5 40 21.5 79t63 86.5t116.5 80.5q-13 4 -26.5 11t-33.5 23.5t-34 38t-21.5 57.5t-1.5 79
q15 110 105.5 184t211.5 74zM348 547q-98 0 -171 -58.5t-87 -146.5q-18 -137 125 -172l137 -31q38 -8 106.5 62.5t78.5 150.5q11 88 -41 141.5t-148 53.5zM233 -305q116 0 193.5 55t89.5 146q9 70 -21.5 111.5t-101.5 60.5l-176 41q-24 5 -70 -21.5t-90 -82t-51 -116.5
q-14 -91 46.5 -142.5t180.5 -51.5z" />
    <glyph glyph-name="nine.subs" horiz-adv-x="778" 
d="M170 -360q-73 0 -120.5 25.5t-84.5 74.5l47 33q55 -82 166 -82q298 0 348 526q-37 -90 -109.5 -136t-168.5 -46q-132 0 -195 76t-47 196q17 128 109 208.5t213 80.5q146 0 211 -122.5t34 -346.5q-31 -229 -137 -358t-266 -129zM250 88q100 0 177 58.5t89 152.5
q-15 244 -197 244q-97 0 -172.5 -68t-87.5 -166q-12 -93 39 -157t152 -64z" />
    <glyph glyph-name="zero.dnom" horiz-adv-x="792" 
d="M399 934q136 0 206 -123t40 -358q-32 -232 -135 -354t-240 -122q-136 0 -205 121t-38 353q32 235 134.5 359t237.5 124zM281 29q116 0 198.5 105t110.5 319q29 215 -26 321.5t-171 106.5q-115 0 -199 -106.5t-112 -321.5q-29 -212 27 -318t172 -106z" />
    <glyph glyph-name="one.dnom" horiz-adv-x="581" 
d="M117 0l114 860l-192 -76l6 52l197 96h51l-123 -932h-53z" />
    </font>
</defs>
</svg>
