<?xml version="1.0" standalone="no"?>
<!DOCTYPE svg PUBLIC "-//W3C//DTD SVG 1.1//EN" "http://www.w3.org/Graphics/SVG/1.1/DTD/svg11.dtd" >
<svg xmlns="http://www.w3.org/2000/svg" xmlns:xlink="http://www.w3.org/1999/xlink" version="1.1">
<metadata>
Created by FontForge 20170731 at Mon Jun 29 15:02:10 2020
 By Aleksey,,,
Copyright 2016 The Nunito Sans Project Authors (https://github.com/Fonthausen/NunitoSans)
</metadata>
<defs>
<font id="NunitoSans-Black" horiz-adv-x="0" >
  <font-face 
    font-family="Nunito Sans Black"
    font-weight="900"
    font-stretch="normal"
    units-per-em="1000"
    panose-1="0 0 0 0 0 0 0 0 0 0"
    ascent="800"
    descent="-200"
    x-height="492"
    cap-height="705"
    bbox="-287 -290 1375 1060"
    underline-thickness="54"
    underline-position="-169"
    unicode-range="U+000D-FB02"
  />
<missing-glyph horiz-adv-x="500" 
d="M50 -180v885h400v-885h-400zM100 -130h300v785h-300v-785z" />
    <glyph glyph-name="fi" unicode="fi" horiz-adv-x="674" 
d="M440 577v161h186v-161h-186zM94 0v361h-93v131h93q5 104 67 156.5t188 59.5l51 2l7 -127l-34 -2q-58 -4 -79.5 -21t-21.5 -53v-15h350v-492h-178v361h-172v-361h-178z" />
    <glyph glyph-name="fl" unicode="fl" horiz-adv-x="749" 
d="M94 0v361h-93v131h93q5 104 67 156.5t188 59.5l60 3l10 -127l-46 -3q-58 -4 -79.5 -21t-21.5 -53v-15h124v-131h-124v-361h-178zM648 -11q-102 0 -148 51.5t-46 155.5v509h178v-503q0 -70 64 -70q10 0 20.5 1t20.5 3l-2 -136q-40 -11 -87 -11z" />
    <glyph glyph-name=".notdef" horiz-adv-x="500" 
d="M50 -180v885h400v-885h-400zM100 -130h300v785h-300v-785z" />
    <glyph glyph-name=".null" 
 />
    <glyph glyph-name="nonmarkingreturn" horiz-adv-x="333" 
 />
    <glyph glyph-name="NULL" 
 />
    <glyph glyph-name="NULL" 
 />
    <glyph glyph-name="CR" unicode="&#xd;" horiz-adv-x="286" 
 />
    <glyph glyph-name="space" unicode=" " horiz-adv-x="286" 
 />
    <glyph glyph-name="exclam" unicode="!" horiz-adv-x="272" 
d="M82 238l-55 467h218l-56 -467h-107zM43 0v182h185v-182h-185z" />
    <glyph glyph-name="quotedbl" unicode="&#x22;" horiz-adv-x="515" 
d="M75 398l-43 307h204l-42 -307h-119zM322 398l-43 307h204l-42 -307h-119z" />
    <glyph glyph-name="numbersign" unicode="#" horiz-adv-x="600" 
d="M73 0l31 159h-49v106h69l36 183h-83v106h102l31 151h115l-31 -151h87l30 151h115l-30 -151h49v-106h-69l-36 -183h83v-106h-103l-31 -159h-115l31 159h-86l-31 -159h-115zM239 265h86l36 183h-86z" />
    <glyph glyph-name="dollar" unicode="$" horiz-adv-x="600" 
d="M240 -115v110q-65 6 -122.5 25t-98.5 48l51 143q44 -31 104 -49t122 -18t87 17t25 42q0 21 -17 35.5t-62 24.5l-113 24q-184 41 -184 199q0 84 56.5 142.5t151.5 76.5v115h139v-112q52 -6 99.5 -25t78.5 -47l-49 -134q-36 28 -85 43.5t-105 15.5q-52 0 -81 -19t-29 -49
q0 -20 17 -33.5t60 -23.5l113 -25q187 -41 187 -195q0 -85 -57 -142t-149 -74v-115h-139z" />
    <glyph glyph-name="percent" unicode="%" horiz-adv-x="964" 
d="M334 -32l-112 65l408 704l111 -65zM218 285q-90 0 -139.5 59.5t-49.5 157.5q0 99 50 156.5t139 57.5q88 0 138 -58.5t50 -155.5q0 -98 -49.5 -157.5t-138.5 -59.5zM218 395q23 0 35 24t12 83t-12.5 82t-34.5 23q-24 0 -36 -22.5t-12 -82.5q0 -61 12 -84t36 -23zM746 -11
q-89 0 -138.5 59t-49.5 157q0 99 50 157t138 58q89 0 139 -59t50 -156q0 -98 -49.5 -157t-139.5 -59zM746 98q23 0 35.5 24t12.5 83t-12.5 82t-35.5 23t-35 -22t-12 -83q0 -60 12 -83.5t35 -23.5z" />
    <glyph glyph-name="ampersand" unicode="&#x26;" horiz-adv-x="766" 
d="M317 -11q-81 0 -141 25.5t-92.5 71t-32.5 106.5q0 68 37.5 116t95.5 79q-32 32 -48 69.5t-16 76.5q0 54 27.5 95.5t77 64.5t116.5 23q89 0 141.5 -45.5t52.5 -122.5q0 -113 -118 -180l102 -99q18 37 28.5 79t13.5 87h145q-3 -73 -24 -141t-57 -124l180 -170h-216l-63 61
q-45 -34 -98.5 -53t-110.5 -19zM341 600q-28 0 -44 -17t-16 -45q0 -21 10.5 -40t34.5 -44q39 20 55.5 40.5t16.5 48.5q0 29 -15.5 43t-41.5 14zM329 123q28 0 51.5 8t45.5 24l-149 143q-50 -35 -50 -93q0 -38 27 -60t75 -22z" />
    <glyph glyph-name="quotesingle" unicode="'" horiz-adv-x="268" 
d="M75 398l-43 307h204l-42 -307h-119z" />
    <glyph glyph-name="parenleft" unicode="(" horiz-adv-x="407" 
d="M255 -198q-87 108 -122.5 224t-35.5 237t35.5 236.5t122.5 224.5l117 -48q-31 -79 -49.5 -146t-26.5 -131t-8 -136t8 -136t26.5 -131t49.5 -146z" />
    <glyph glyph-name="parenright" unicode=")" horiz-adv-x="407" 
d="M151 -198l-116 48q30 80 48 147t26.5 131t8.5 135t-8.5 135t-26.5 131t-48 147l116 48q87 -109 122.5 -224.5t35.5 -236.5t-35.5 -237t-122.5 -224z" />
    <glyph glyph-name="asterisk" unicode="*" horiz-adv-x="455" 
d="M176 319l-102 60l63 92l-109 -8v117l109 -9l-62 93l103 59l50 -116l49 116l105 -61l-63 -91l109 9v-118l-110 9l64 -92l-105 -61l-49 118z" />
    <glyph glyph-name="plus" unicode="+" horiz-adv-x="600" 
d="M238 40v188h-182v118h182v182h124v-182h182v-118h-182v-188h-124z" />
    <glyph glyph-name="comma" unicode="," horiz-adv-x="272" 
d="M127 -155l-67 53q54 54 67 102h-84v182h185v-115q0 -63 -22.5 -114.5t-78.5 -107.5z" />
    <glyph glyph-name="hyphen" unicode="-" horiz-adv-x="445" 
d="M63 199v139h320v-139h-320z" />
    <glyph glyph-name="period" unicode="." horiz-adv-x="272" 
d="M43 0v182h185v-182h-185z" />
    <glyph glyph-name="slash" unicode="/" horiz-adv-x="349" 
d="M109 -81l-130 38l261 813l130 -39z" />
    <glyph glyph-name="zero" unicode="0" horiz-adv-x="600" 
d="M300 -11q-131 0 -200 95.5t-69 270.5q0 176 69 268.5t200 92.5t200 -92.5t69 -267.5q0 -176 -69 -271.5t-200 -95.5zM300 135q48 0 71.5 52.5t23.5 168.5q0 115 -23.5 164.5t-71.5 49.5t-71.5 -49.5t-23.5 -164.5q0 -116 23.5 -168.5t71.5 -52.5z" />
    <glyph glyph-name="one" unicode="1" horiz-adv-x="600" 
d="M90 0v149h157v355l-119 -68l-67 133l240 136h129v-556h147v-149h-487z" />
    <glyph glyph-name="two" unicode="2" horiz-adv-x="600" 
d="M69 0v135l212 222q39 42 55.5 72t16.5 60q0 76 -97 76q-40 0 -81.5 -15t-82.5 -46l-57 134q46 36 111.5 57t135.5 21q122 0 186.5 -53t64.5 -153q0 -64 -29 -122.5t-97 -124.5l-114 -114h266v-149h-490z" />
    <glyph glyph-name="three" unicode="3" horiz-adv-x="600" 
d="M279 -11q-75 0 -144 20.5t-110 54.5l56 137q87 -61 191 -61q108 0 108 74q0 68 -96 68h-123v146h105q43 0 67.5 18t24.5 52q0 67 -93 67q-95 0 -172 -61l-57 134q45 37 110.5 57.5t136.5 20.5q118 0 184 -51.5t66 -142.5q0 -54 -27 -95t-75 -60q59 -17 91.5 -62
t32.5 -109q0 -96 -73.5 -151.5t-202.5 -55.5z" />
    <glyph glyph-name="four" unicode="4" horiz-adv-x="600" 
d="M317 0v118h-286v129l315 458h148v-448h92v-139h-92v-118h-177zM317 257v189l-127 -189h127z" />
    <glyph glyph-name="five" unicode="5" horiz-adv-x="600" 
d="M295 -11q-70 0 -138.5 20.5t-108.5 54.5l56 137q89 -61 187 -61q51 0 79 22t28 62q0 39 -27 62.5t-72 23.5q-65 0 -116 -46h-115v441h460v-149h-287v-125q46 25 106 25q67 0 118 -28.5t79.5 -79.5t28.5 -119q0 -72 -34 -126.5t-96 -84t-148 -29.5z" />
    <glyph glyph-name="six" unicode="6" horiz-adv-x="600" 
d="M328 -11q-139 0 -214.5 93t-75.5 264q0 116 38.5 199t111.5 127t174 44q58 0 114 -18.5t99 -53.5l-56 -135q-37 28 -77.5 42t-81.5 14q-150 0 -150 -186v-7q21 43 62.5 67t94.5 24q58 0 104.5 -29.5t73.5 -81.5t27 -118q0 -72 -31 -127t-86 -86.5t-127 -31.5zM318 129
q39 0 62.5 26.5t23.5 70.5t-23.5 71t-62.5 27q-38 0 -62 -27t-24 -71t24 -70.5t62 -26.5z" />
    <glyph glyph-name="seven" unicode="7" horiz-adv-x="600" 
d="M54 0l306 555h-320v150h521v-138l-306 -567h-201z" />
    <glyph glyph-name="eight" unicode="8" horiz-adv-x="600" 
d="M300 -11q-128 0 -201.5 54t-73.5 150q0 62 30.5 106.5t80.5 64.5q-42 22 -67 64t-25 95q0 90 69 141.5t187 51.5t187 -51.5t69 -141.5q0 -55 -24.5 -97t-65.5 -63q49 -20 79 -64.5t30 -105.5q0 -96 -73.5 -150t-201.5 -54zM300 426q42 0 66 20.5t24 55.5t-24 55.5
t-66 20.5t-65.5 -20.5t-23.5 -55.5t23.5 -55.5t65.5 -20.5zM300 127q109 0 109 80t-109 80q-53 0 -81 -20.5t-28 -59.5t28 -59.5t81 -20.5z" />
    <glyph glyph-name="nine" unicode="9" horiz-adv-x="600" 
d="M238 -11q-58 0 -113.5 18.5t-99.5 54.5l57 134q72 -56 158 -56q151 0 151 186v8q-22 -44 -63.5 -68t-94.5 -24q-58 0 -104.5 29.5t-73.5 81.5t-27 118q0 72 31.5 127t86.5 86.5t126 31.5q139 0 214.5 -93t75.5 -264q0 -116 -38.5 -199t-111 -127t-174.5 -44zM282 382
q39 0 62.5 26.5t23.5 70.5t-23.5 70.5t-62.5 26.5t-62.5 -26.5t-23.5 -70.5t23.5 -70.5t62.5 -26.5z" />
    <glyph glyph-name="colon" unicode=":" horiz-adv-x="272" 
d="M43 310v182h185v-182h-185zM43 0v182h185v-182h-185z" />
    <glyph glyph-name="semicolon" unicode=";" horiz-adv-x="272" 
d="M43 310v182h185v-182h-185zM127 -155l-67 53q54 54 67 102h-84v182h185v-115q0 -63 -22.5 -114.5t-78.5 -107.5z" />
    <glyph glyph-name="less" unicode="&#x3c;" horiz-adv-x="600" 
d="M544 30l-488 191v133l488 191v-131l-331 -127l331 -127v-130z" />
    <glyph glyph-name="equal" unicode="=" horiz-adv-x="600" 
d="M56 328v118h488v-118h-488zM56 128v118h488v-118h-488z" />
    <glyph glyph-name="greater" unicode="&#x3e;" horiz-adv-x="600" 
d="M56 30v130l331 127l-331 127v131l488 -191v-133z" />
    <glyph glyph-name="question" unicode="?" horiz-adv-x="478" 
d="M184 238v54q0 41 15 76t51 72q24 25 33.5 42t9.5 36q0 47 -66 47q-88 0 -169 -61l-57 134q46 36 111 57t129 21q69 0 121.5 -22t81.5 -62t29 -92q0 -45 -20.5 -83.5t-73.5 -77.5q-47 -34 -63.5 -60t-20.5 -48l-6 -33h-105zM144 0v182h185v-182h-185z" />
    <glyph glyph-name="at" unicode="@" horiz-adv-x="954" 
d="M487 -167q-97 0 -178 31t-140 88t-91 135.5t-32 174.5q0 137 57.5 239.5t161.5 158.5t243 56q122 0 212 -46.5t139.5 -131t49.5 -199.5q0 -86 -25 -149t-69.5 -97.5t-104.5 -34.5q-100 0 -134 82q-26 -41 -62.5 -61.5t-78.5 -20.5q-84 0 -129.5 52.5t-45.5 141.5
q0 73 27 129.5t75 89t110 32.5q81 0 115 -63l11 52h125l-39 -219q-3 -20 -5 -35.5t-2 -27.5q0 -29 10.5 -41t31.5 -12q38 0 62.5 50.5t24.5 131.5q0 135 -77.5 205.5t-220.5 70.5q-106 0 -184 -43t-120.5 -122t-42.5 -188q0 -102 40 -175.5t113.5 -113t172.5 -39.5
q137 0 229 68l48 -88q-47 -39 -119 -60t-158 -21zM463 164q46 0 74 41.5t28 112.5q0 79 -67 79q-47 0 -75.5 -39.5t-28.5 -103.5q0 -90 69 -90z" />
    <glyph glyph-name="A" unicode="A" horiz-adv-x="763" 
d="M-21 0l330 705h145l330 -705h-184l-61 143h-315l-61 -143h-184zM380 513l-96 -229h194l-96 229h-2z" />
    <glyph glyph-name="B" unicode="B" horiz-adv-x="702" 
d="M64 0v705h340q114 0 176.5 -49.5t62.5 -132.5q0 -55 -27.5 -96t-76.5 -61q59 -18 91 -60.5t32 -105.5q0 -93 -66.5 -146.5t-181.5 -53.5h-350zM240 425h131q50 0 73.5 18t23.5 55t-23.5 54.5t-73.5 17.5h-131v-145zM240 135h149q51 0 74.5 19.5t23.5 58.5t-23.5 58
t-74.5 19h-149v-155z" />
    <glyph glyph-name="C" unicode="C" horiz-adv-x="687" 
d="M420 -11q-117 0 -201 45t-128.5 127t-44.5 192t44.5 191.5t128.5 126.5t201 45q70 0 135 -21.5t105 -56.5l-55 -145q-44 32 -88 47.5t-90 15.5q-93 0 -140 -52.5t-47 -150.5q0 -99 47 -151.5t140 -52.5q46 0 90 15.5t88 47.5l55 -145q-40 -35 -105 -56.5t-135 -21.5z" />
    <glyph glyph-name="D" unicode="D" horiz-adv-x="786" 
d="M64 0v705h292q183 0 284 -92t101 -260t-101 -260.5t-284 -92.5h-292zM248 149h96q105 0 155.5 50.5t50.5 153.5t-51 153t-155 50h-96v-407z" />
    <glyph glyph-name="E" unicode="E" horiz-adv-x="614" 
d="M64 0v705h498v-142h-322v-134h299v-142h-299v-145h322v-142h-498z" />
    <glyph glyph-name="F" unicode="F" horiz-adv-x="579" 
d="M64 0v705h492v-142h-308v-142h286v-141h-286v-280h-184z" />
    <glyph glyph-name="G" unicode="G" horiz-adv-x="747" 
d="M424 -11q-121 0 -205.5 45t-128.5 126t-44 189q0 112 46.5 194.5t133.5 127.5t210 45q74 0 141 -19.5t109 -52.5l-56 -142q-46 30 -93 43.5t-100 13.5q-101 0 -150.5 -54t-49.5 -156t50 -154t148 -52q46 0 103 14v111h-141v129h291v-354q-56 -26 -125 -40t-139 -14z" />
    <glyph glyph-name="H" unicode="H" horiz-adv-x="786" 
d="M64 0v705h184v-272h291v272h183v-705h-183v282h-291v-282h-184z" />
    <glyph glyph-name="I" unicode="I" horiz-adv-x="312" 
d="M64 0v705h184v-705h-184z" />
    <glyph glyph-name="J" unicode="J" horiz-adv-x="391" 
d="M2 -11l-11 147l82 5q37 2 53.5 17.5t16.5 51.5v495h184v-492q0 -206 -223 -219z" />
    <glyph glyph-name="K" unicode="K" horiz-adv-x="712" 
d="M64 0v705h184v-302h2l274 302h218l-314 -335l325 -370h-219l-284 318h-2v-318h-184z" />
    <glyph glyph-name="L" unicode="L" horiz-adv-x="585" 
d="M64 0v705h184v-552h314v-153h-498z" />
    <glyph glyph-name="M" unicode="M" horiz-adv-x="884" 
d="M66 0v705h153l225 -404l225 404h149v-705h-166v383l-161 -279h-100l-159 275v-379h-166z" />
    <glyph glyph-name="N" unicode="N" horiz-adv-x="758" 
d="M64 0v705h135l324 -404v404h170v-705h-134l-324 404v-404h-171z" />
    <glyph glyph-name="O" unicode="O" horiz-adv-x="807" 
d="M404 -11q-107 0 -187.5 45.5t-125.5 127.5t-45 191q0 110 44.5 191.5t125.5 126.5t188 45t187.5 -45t125.5 -126.5t45 -191.5q0 -109 -45 -191t-125.5 -127.5t-187.5 -45.5zM404 143q78 0 122.5 55.5t44.5 154.5t-44 154t-123 55t-123 -55t-44 -154t44 -154.5t123 -55.5z
" />
    <glyph glyph-name="P" unicode="P" horiz-adv-x="676" 
d="M64 0v705h339q120 0 185.5 -61.5t65.5 -169.5t-65.5 -169.5t-185.5 -61.5h-155v-243h-184zM248 384h123q108 0 108 90t-108 90h-123v-180z" />
    <glyph glyph-name="Q" unicode="Q" horiz-adv-x="807" 
d="M592 -228l-113 183q-22 34 -76 34v0q-107 0 -187.5 45.5t-125 127.5t-44.5 191q0 110 44.5 191.5t125.5 126.5t188 45t187.5 -45t125.5 -126.5t45 -191.5t-45.5 -192.5t-126.5 -126.5q49 -14 79 -64l80 -127zM404 143q78 0 122.5 55.5t44.5 154.5t-44 154t-123 55
t-123 -55t-44 -154t44 -154.5t123 -55.5z" />
    <glyph glyph-name="R" unicode="R" horiz-adv-x="706" 
d="M64 0v705h339q120 0 185.5 -58.5t65.5 -162.5q0 -79 -39.5 -132.5t-114.5 -74.5q56 -15 90 -77l110 -200h-202l-122 224q-12 21 -30.5 30t-42.5 9h-55v-263h-184zM248 393h122q109 0 109 86q0 85 -109 85h-122v-171z" />
    <glyph glyph-name="S" unicode="S" horiz-adv-x="651" 
d="M326 -11q-83 0 -159 20.5t-125 54.5l51 143q46 -31 108 -49t125 -18q66 0 92.5 17.5t26.5 43.5q0 23 -18.5 37t-65.5 24l-117 25q-190 41 -190 199q0 69 37.5 121t104.5 80.5t156 28.5q73 0 138.5 -20.5t106.5 -55.5l-51 -134q-38 28 -88 43.5t-108 15.5q-56 0 -86 -19.5
t-30 -50.5q0 -22 18 -36t64 -24l116 -25q193 -41 193 -194q0 -69 -37 -120t-104 -79t-158 -28z" />
    <glyph glyph-name="T" unicode="T" horiz-adv-x="644" 
d="M230 0v555h-224v150h632v-150h-224v-555h-184z" />
    <glyph glyph-name="U" unicode="U" horiz-adv-x="748" 
d="M376 -11q-154 0 -235.5 78t-81.5 233v405h184v-407q0 -77 34 -116t99 -39q64 0 98 39t34 116v407h181v-405q0 -155 -79.5 -233t-233.5 -78z" />
    <glyph glyph-name="V" unicode="V" horiz-adv-x="742" 
d="M298 0l-321 705h196l202 -469l202 469h189l-322 -705h-146z" />
    <glyph glyph-name="W" unicode="W" horiz-adv-x="1128" 
d="M264 0l-253 705h188l147 -442l159 442h130l152 -451l154 451h177l-255 -705h-147l-151 424l-154 -424h-147z" />
    <glyph glyph-name="X" unicode="X" horiz-adv-x="698" 
d="M-25 0l270 356l-264 349h213l155 -216l155 216h214l-264 -349l269 -356h-214l-160 222l-160 -222h-214z" />
    <glyph glyph-name="Y" unicode="Y" horiz-adv-x="645" 
d="M230 0v312l-271 393h211l155 -229l155 229h205l-271 -393v-312h-184z" />
    <glyph glyph-name="Z" unicode="Z" horiz-adv-x="625" 
d="M45 0v135l331 419h-331v151h544v-135l-331 -419h346v-151h-559z" />
    <glyph glyph-name="bracketleft" unicode="[" horiz-adv-x="401" 
d="M102 -180v885h282v-131h-104v-623h104v-131h-282z" />
    <glyph glyph-name="backslash" unicode="\" horiz-adv-x="349" 
d="M240 -81l-261 812l130 39l261 -813z" />
    <glyph glyph-name="bracketright" unicode="]" horiz-adv-x="401" 
d="M17 -180v131h103v623h-103v131h281v-885h-281z" />
    <glyph glyph-name="asciicircum" unicode="^" horiz-adv-x="600" 
d="M43 140l191 488h132l191 -488h-130l-127 332l-127 -332h-130z" />
    <glyph glyph-name="underscore" unicode="_" horiz-adv-x="500" 
d="M20 -101v101h460v-101h-460z" />
    <glyph glyph-name="grave" unicode="`" horiz-adv-x="500" 
d="M193 557l-154 205h167l101 -205h-114z" />
    <glyph glyph-name="a" unicode="a" horiz-adv-x="568" 
d="M223 -11q-57 0 -100.5 21t-68 57.5t-24.5 83.5q0 53 28 84.5t90 45t165 13.5h38v14q0 36 -18.5 51t-63.5 15q-38 0 -84 -12t-90 -37l-45 117q25 18 64 32t82 21.5t81 7.5q123 0 182.5 -53t59.5 -167v-283h-166v70q-13 -38 -47 -59.5t-83 -21.5zM263 105q37 0 62.5 24
t25.5 63v18h-38q-59 0 -86.5 -12.5t-27.5 -39.5q0 -23 16.5 -38t47.5 -15z" />
    <glyph glyph-name="b" unicode="b" horiz-adv-x="620" 
d="M376 -11q-49 0 -90 21.5t-61 56.5v-67h-173v705h178v-272q21 32 60.5 51t85.5 19q64 0 112.5 -31t75.5 -88.5t27 -137.5q0 -79 -27.5 -137t-76 -89t-111.5 -31zM320 120q40 0 66 30t26 96q0 67 -26 96.5t-66 29.5q-41 0 -67 -29.5t-26 -96.5q0 -66 26 -96t67 -30z" />
    <glyph glyph-name="c" unicode="c" horiz-adv-x="484" 
d="M303 -11q-83 0 -144.5 31t-95.5 89t-34 138t34 137.5t95.5 88t144.5 30.5q49 0 97.5 -13.5t79.5 -37.5l-47 -122q-23 18 -53.5 28.5t-57.5 10.5q-53 0 -82 -32t-29 -90q0 -59 29 -91.5t82 -32.5q27 0 57.5 10.5t53.5 28.5l47 -122q-31 -24 -80 -37.5t-97 -13.5z" />
    <glyph glyph-name="d" unicode="d" horiz-adv-x="620" 
d="M244 -11q-63 0 -111.5 31t-76 89t-27.5 137q0 80 27.5 137.5t76 88.5t111.5 31q47 0 86.5 -19.5t60.5 -50.5v272h178v-705h-174v68q-19 -36 -60 -57.5t-91 -21.5zM301 120q40 0 66 30t26 96q0 67 -26 96.5t-66 29.5q-41 0 -67 -29.5t-26 -96.5q0 -66 26 -96t67 -30z" />
    <glyph glyph-name="e" unicode="e" horiz-adv-x="555" 
d="M320 -11q-90 0 -155.5 31.5t-100.5 89.5t-35 137q0 75 33.5 133t92 90.5t133.5 32.5q74 0 128.5 -31t84 -88.5t29.5 -134.5v-39h-331q9 -48 40 -69t86 -21q38 0 79.5 11.5t73.5 33.5l44 -117q-38 -27 -93 -43t-109 -16zM296 388q-40 0 -65.5 -24t-32.5 -70h186
q-3 47 -25.5 70.5t-62.5 23.5z" />
    <glyph glyph-name="f" unicode="f" horiz-adv-x="402" 
d="M94 0v361h-93v131h93q5 104 67 156.5t188 59.5l60 3l10 -127l-46 -3q-58 -4 -79.5 -21t-21.5 -53v-15h124v-131h-124v-361h-178z" />
    <glyph glyph-name="g" unicode="g" horiz-adv-x="626" 
d="M296 -191q-74 0 -138.5 14t-110.5 46l46 120q38 -23 90.5 -36t95.5 -13q61 0 91.5 25.5t30.5 79.5v46q-21 -36 -63 -57t-90 -21q-66 0 -115 30.5t-76.5 85.5t-27.5 129t27.5 129t76.5 85.5t115 30.5q50 0 91.5 -21.5t60.5 -56.5v67h174v-426q0 -129 -72 -193t-206 -64z
M303 144q44 0 70 30t26 84t-26 84t-70 30q-43 0 -69 -30t-26 -84t26 -84t69 -30z" />
    <glyph glyph-name="h" unicode="h" horiz-adv-x="606" 
d="M52 0v705h178v-274q53 72 154 72q88 0 130.5 -52t42.5 -160v-291h-178v284q0 45 -15.5 64t-45.5 19q-40 0 -64 -25.5t-24 -68.5v-273h-178z" />
    <glyph glyph-name="i" unicode="i" horiz-adv-x="281" 
d="M47 577v161h187v-161h-187zM52 0v492h178v-492h-178z" />
    <glyph glyph-name="j" unicode="j" horiz-adv-x="287" 
d="M51 577v161h188v-161h-188zM-39 -193l-12 125l49 6q31 4 45 19t14 46v489h178v-464q0 -74 -21.5 -120t-72 -69t-136.5 -29z" />
    <glyph glyph-name="k" unicode="k" horiz-adv-x="580" 
d="M52 0v705h178v-411h2l162 198h209l-195 -234l202 -258h-213l-165 205h-2v-205h-178z" />
    <glyph glyph-name="l" unicode="l" horiz-adv-x="348" 
d="M246 -11q-102 0 -148 51.5t-46 155.5v509h178v-503q0 -70 64 -70q10 0 20.5 1t20.5 3l-2 -136q-40 -11 -87 -11z" />
    <glyph glyph-name="m" unicode="m" horiz-adv-x="902" 
d="M54 0v492h173v-66q23 35 61.5 56t88.5 21t86.5 -22t55.5 -68q25 43 68 66.5t95 23.5q86 0 127.5 -51.5t41.5 -160.5v-291h-178v286q0 43 -13 62t-43 19q-37 0 -56.5 -26t-19.5 -74v-267h-178v286q0 43 -13 62t-43 19q-36 0 -55.5 -26t-19.5 -74v-267h-178z" />
    <glyph glyph-name="n" unicode="n" horiz-adv-x="606" 
d="M52 0v492h173v-67q26 38 67 58t92 20q88 0 130.5 -52t42.5 -160v-291h-178v284q0 45 -15.5 64t-45.5 19q-40 0 -64 -25.5t-24 -68.5v-273h-178z" />
    <glyph glyph-name="o" unicode="o" horiz-adv-x="602" 
d="M301 -11q-82 0 -143 31t-95 89t-34 137q0 80 34 137.5t95 88.5t143 31t143 -31t94.5 -88.5t33.5 -137.5q0 -79 -33.5 -137t-94.5 -89t-143 -31zM301 120q40 0 66 30t26 96q0 67 -26 96.5t-66 29.5q-41 0 -67 -29.5t-26 -96.5q0 -66 26 -96t67 -30z" />
    <glyph glyph-name="p" unicode="p" horiz-adv-x="620" 
d="M52 -180v672h173v-67q20 36 61 57t90 21q63 0 111.5 -31t76 -88.5t27.5 -137.5q0 -79 -27 -137t-75.5 -89t-112.5 -31q-46 0 -85.5 19t-60.5 51v-239h-178zM320 120q40 0 66 30t26 96q0 67 -26 96.5t-66 29.5q-41 0 -67 -29.5t-26 -96.5q0 -66 26 -96t67 -30z" />
    <glyph glyph-name="q" unicode="q" horiz-adv-x="620" 
d="M391 -180v240q-21 -32 -60.5 -51.5t-86.5 -19.5q-63 0 -111.5 31t-76 89t-27.5 137q0 80 27.5 137.5t76 88.5t111.5 31q50 0 91 -21.5t60 -57.5v68h174v-672h-178zM301 120q40 0 66 30t26 96q0 67 -26 96.5t-66 29.5q-41 0 -67 -29.5t-26 -96.5q0 -66 26 -96t67 -30z" />
    <glyph glyph-name="r" unicode="r" horiz-adv-x="434" 
d="M52 0v492h173v-83q34 85 147 93l49 4l10 -150l-97 -9q-53 -5 -77 -29.5t-24 -72.5v-245h-181z" />
    <glyph glyph-name="s" unicode="s" horiz-adv-x="496" 
d="M248 -11q-68 0 -125.5 14t-97.5 39l41 115q37 -21 86 -34.5t97 -13.5q37 0 53 10.5t16 27.5q0 15 -10.5 22.5t-29.5 11.5l-111 18q-62 10 -96 45t-34 91q0 52 29 89.5t81 58t119 20.5q53 0 105 -12.5t91 -40.5l-44 -113q-29 20 -72 33.5t-77 13.5q-41 0 -58 -11.5
t-17 -27.5q0 -27 37 -33l111 -19q64 -10 98.5 -43.5t34.5 -90.5q0 -81 -62 -125.5t-165 -44.5z" />
    <glyph glyph-name="t" unicode="t" horiz-adv-x="426" 
d="M310 -11q-112 0 -166 52t-54 157v163h-92v131h92v143h178v-143h140v-131h-140v-157q0 -72 73 -72q12 0 26.5 2.5t32.5 7.5l24 -128q-23 -12 -54 -18.5t-60 -6.5z" />
    <glyph glyph-name="u" unicode="u" horiz-adv-x="601" 
d="M236 -11q-96 0 -141.5 52.5t-45.5 160.5v290h178v-295q0 -72 62 -72q36 0 59 26t23 69v272h178v-492h-174v61q-48 -72 -139 -72z" />
    <glyph glyph-name="v" unicode="v" horiz-adv-x="542" 
d="M197 0l-216 492h187l107 -279l113 279h175l-220 -492h-146z" />
    <glyph glyph-name="w" unicode="w" horiz-adv-x="868" 
d="M193 0l-207 492h180l109 -285l108 285h111l109 -290l109 290h169l-205 -492h-147l-97 242l-92 -242h-147z" />
    <glyph glyph-name="x" unicode="x" horiz-adv-x="572" 
d="M-23 0l209 254l-196 238h207l90 -116l90 116h206l-196 -238l211 -254h-208l-104 131l-103 -131h-206z" />
    <glyph glyph-name="y" unicode="y" horiz-adv-x="541" 
d="M82 -180l99 214l-201 458h187l108 -279l112 279h176l-301 -672h-180z" />
    <glyph glyph-name="z" unicode="z" horiz-adv-x="487" 
d="M42 0v114l219 247h-219v131h412v-113l-219 -248h230v-131h-423z" />
    <glyph glyph-name="braceleft" unicode="{" horiz-adv-x="438" 
d="M284 -180q-68 0 -106.5 38.5t-38.5 106.5v153q0 39 -12.5 56t-43.5 20l-47 4v127l47 5q31 3 43.5 19.5t12.5 56.5v154q0 68 38.5 106.5t106.5 38.5h137v-131h-63q-41 0 -41 -43v-147q0 -43 -25 -78.5t-60 -44.5q35 -8 60 -43t25 -78v-146q0 -43 41 -43h63v-131h-137z" />
    <glyph glyph-name="bar" unicode="|" horiz-adv-x="316" 
d="M69 -180v885h178v-885h-178z" />
    <glyph glyph-name="braceright" unicode="}" horiz-adv-x="438" 
d="M17 -180v131h63q40 0 40 43v146q0 43 25.5 78t60.5 43q-35 8 -60.5 44t-25.5 79v147q0 43 -40 43h-63v131h136q68 0 106.5 -38t38.5 -107v-154q0 -39 12.5 -56t44.5 -20l46 -5v-127l-46 -4q-32 -3 -44.5 -20t-12.5 -56v-153q0 -69 -38.5 -107t-106.5 -38h-136z" />
    <glyph glyph-name="asciitilde" unicode="~" horiz-adv-x="600" 
d="M403 199q-21 0 -46 7t-62 26q-63 31 -89 31q-44 0 -63 -57l-87 57q16 50 54.5 81.5t86.5 31.5q22 0 48.5 -8t61.5 -26q32 -16 52.5 -23t33.5 -7q45 0 65 56l86 -58q-15 -49 -54.5 -80t-86.5 -31z" />
    <glyph glyph-name="uni00A0" unicode="&#xa0;" horiz-adv-x="286" 
 />
    <glyph glyph-name="exclamdown" unicode="&#xa1;" horiz-adv-x="272" 
d="M43 310v182h185v-182h-185zM27 -180l55 434h107l56 -434h-218z" />
    <glyph glyph-name="cent" unicode="&#xa2;" horiz-adv-x="600" 
d="M249 -115v119q-84 26 -131 89t-47 153q0 84 48 148.5t130 89.5v128h138v-116q46 -5 85 -19.5t65 -36.5l-45 -121q-26 20 -60 32.5t-67 12.5q-54 0 -83 -32.5t-29 -81.5q0 -50 28.5 -84.5t83.5 -34.5q32 0 66.5 13t60.5 32l45 -120q-27 -22 -65.5 -38t-84.5 -23v-110h-138
z" />
    <glyph glyph-name="sterling" unicode="&#xa3;" horiz-adv-x="600" 
d="M39 0v147h67v153h-67v107h67v73q0 69 28 122.5t85.5 83.5t146.5 30q63 0 121.5 -17.5t98.5 -48.5l-58 -129q-40 29 -77.5 41t-69.5 12q-49 0 -70.5 -23t-21.5 -63v-81h149v-107h-149v-153h282v-147h-532z" />
    <glyph glyph-name="currency" unicode="&#xa4;" horiz-adv-x="600" 
d="M86 -34l-60 60l72 75q-21 31 -32.5 67.5t-11.5 76.5q0 41 11.5 77.5t32.5 67.5l-72 74l61 61l73 -74q30 19 65 30.5t72 11.5q76 0 136 -42l75 77l66 -67l-76 -76q41 -62 41 -140q0 -39 -11 -75.5t-31 -66.5l74 -77l-60 -59l-73 75q-62 -45 -141 -45q-38 0 -73.5 11.5
t-64.5 31.5zM298 134q28 0 51.5 15t37.5 40.5t14 55.5q0 46 -30.5 78t-72.5 33q-29 0 -53 -15t-38 -40.5t-14 -55.5q0 -45 30 -78t75 -33z" />
    <glyph glyph-name="yen" unicode="&#xa5;" horiz-adv-x="600" 
d="M208 0v149h-145v103h145v57h-145v103h101l-193 293h196l132 -217l134 217h196l-194 -293h102v-103h-146v-57h146v-103h-146v-149h-183z" />
    <glyph glyph-name="brokenbar" unicode="&#xa6;" horiz-adv-x="316" 
d="M69 371v334h178v-334h-178zM69 -180v334h178v-334h-178z" />
    <glyph glyph-name="section" unicode="&#xa7;" horiz-adv-x="599" 
d="M281 -191q-72 0 -133 16t-101 43l46 116q22 -15 53.5 -27.5t66.5 -20t67 -7.5q39 0 61 15t22 43q0 18 -13 32.5t-44 29.5l-145 64q-69 31 -101.5 74t-32.5 99q0 88 72 145q-31 40 -31 93q0 89 67.5 140.5t181.5 51.5q142 0 216 -53l-44 -113q-36 20 -83.5 33t-86.5 13
t-61 -15t-22 -43q0 -18 13 -32.5t44 -29.5l146 -64q69 -31 101.5 -74t32.5 -99q0 -88 -73 -146q32 -40 32 -92q0 -89 -68 -140.5t-183 -51.5zM182 320q0 -52 71 -84l127 -58q14 -6 27 -14q10 20 10 41q0 53 -70 84l-128 58q-12 6 -26 14q-11 -20 -11 -41z" />
    <glyph glyph-name="dieresis" unicode="&#xa8;" horiz-adv-x="500" 
d="M278 582v150h150v-150h-150zM72 582v150h150v-150h-150z" />
    <glyph glyph-name="copyright" unicode="&#xa9;" horiz-adv-x="815" 
d="M408 -11q-78 0 -144 27.5t-115.5 77t-77 116t-27.5 143.5t27.5 143t77 115.5t116 77t143.5 27.5t143 -27.5t115.5 -77t77 -115.5t27.5 -143t-27.5 -143.5t-77 -116t-115.5 -77t-143 -27.5zM408 53q86 0 152.5 39.5t104.5 107.5t38 153t-38 153t-104.5 107t-152.5 39
t-153 -39t-105 -107t-38 -153t38 -153t105 -107.5t153 -39.5zM431 137q-103 0 -165 58t-62 158t62 157.5t165 57.5q40 0 80.5 -11.5t66.5 -31.5l-40 -103q-18 15 -42 24t-51 9q-43 0 -68.5 -27t-25.5 -75q0 -49 25.5 -76t68.5 -27q54 0 93 33l40 -103q-26 -20 -66.5 -31.5
t-80.5 -11.5z" />
    <glyph glyph-name="ordfeminine" unicode="&#xaa;" horiz-adv-x="354" 
d="M133 404q-53 0 -85.5 28t-32.5 71q0 48 41.5 68.5t132.5 20.5h31v4q0 21 -13.5 30.5t-44.5 9.5q-22 0 -51.5 -6t-54.5 -19l-25 75q25 13 65.5 21.5t75.5 8.5q157 0 157 -126v-179h-104v56h-2q-15 -30 -36 -46.5t-54 -16.5zM164 475q23 0 39.5 16.5t16.5 45.5h-28
q-38 0 -52.5 -7.5t-14.5 -24.5q0 -13 9.5 -21.5t29.5 -8.5z" />
    <glyph glyph-name="guillemotleft" unicode="&#xab;" horiz-adv-x="558" 
d="M169 61l-106 162v87l104 162l116 -54l-69 -151l69 -153zM407 61l-106 162v87l104 162l116 -54l-69 -151l69 -153z" />
    <glyph glyph-name="logicalnot" unicode="&#xac;" horiz-adv-x="600" 
d="M420 129v198h-364v119h488v-317h-124z" />
    <glyph glyph-name="uni00AD" unicode="&#xad;" horiz-adv-x="445" 
d="M63 199v139h320v-139h-320z" />
    <glyph glyph-name="registered" unicode="&#xae;" horiz-adv-x="815" 
d="M408 -11q-78 0 -144 27.5t-115.5 77t-77 116t-27.5 143.5t27.5 143t77 115.5t116 77t143.5 27.5t143 -27.5t115.5 -77t77 -115.5t27.5 -143t-27.5 -143.5t-77 -116t-115.5 -77t-143 -27.5zM408 53q86 0 152.5 39.5t104.5 107.5t38 153t-38 153t-104.5 107t-152.5 39
t-153 -39t-105 -107t-38 -153t38 -153t105 -107.5t153 -39.5zM240 142v424h197q73 0 113 -37t40 -91q0 -43 -21.5 -71t-60.5 -40q22 -6 36 -25.5t24 -59.5l25 -100h-132l-29 119q-5 18 -14.5 24.5t-23.5 6.5h-23v-150h-131zM370 386h48q48 0 48 43t-48 43h-48v-86z" />
    <glyph glyph-name="macron" unicode="&#xaf;" horiz-adv-x="500" 
d="M82 605v97h337v-97h-337z" />
    <glyph glyph-name="degree" unicode="&#xb0;" horiz-adv-x="389" 
d="M194 391q-48 0 -85.5 21.5t-59.5 58t-22 83.5q0 46 22 82.5t60 58t85 21.5q48 0 86 -21.5t59.5 -58t21.5 -82.5q0 -47 -21.5 -83.5t-59.5 -58t-86 -21.5zM194 482q29 0 48.5 21t19.5 51q0 29 -19.5 50t-48.5 21t-48 -21t-19 -50q0 -30 19 -51t48 -21z" />
    <glyph glyph-name="plusminus" unicode="&#xb1;" horiz-adv-x="600" 
d="M238 153v130h-182v120h182v129h124v-129h182v-120h-182v-130h-124zM56 0v119h488v-119h-488z" />
    <glyph glyph-name="uni00B2" unicode="&#xb2;" horiz-adv-x="380" 
d="M41 282v101l110 110q37 38 37 68q0 36 -43 36q-20 0 -42 -9t-40 -26l-42 99q26 21 70 34.5t90 13.5q72 0 114.5 -34t42.5 -92q0 -32 -15 -62.5t-51 -64.5l-63 -61h149v-113h-317z" />
    <glyph glyph-name="uni00B3" unicode="&#xb3;" horiz-adv-x="380" 
d="M183 276q-57 0 -99 13t-71 36l42 92q19 -16 46.5 -25.5t61.5 -9.5q59 0 59 36q0 25 -40 25h-90v102h76q40 0 40 28q0 30 -52 30q-56 0 -93 -35l-42 93q26 21 69.5 34.5t93.5 13.5q74 0 116 -30t42 -83q0 -31 -17.5 -56.5t-45.5 -38.5q35 -10 54.5 -36t19.5 -65
q0 -57 -47 -90.5t-123 -33.5z" />
    <glyph glyph-name="acute" unicode="&#xb4;" horiz-adv-x="500" 
d="M193 557l101 205h167l-154 -205h-114z" />
    <glyph glyph-name="uni00B5" unicode="&#xb5;" horiz-adv-x="600" 
d="M51 -180v672h178v-295q0 -71 61 -71q36 0 59.5 25.5t23.5 68.5v272h178v-492h-174v90h-1q-7 -49 -33.5 -75t-56.5 -26q-26 0 -42.5 10t-28.5 32v0l14 -211h-178z" />
    <glyph glyph-name="paragraph" unicode="&#xb6;" horiz-adv-x="668" 
d="M255 -180v428q-69 0 -120.5 28.5t-80.5 80t-29 120.5t29 120.5t81.5 79.5t122.5 28h346v-885h-123v763h-104v-763h-122z" />
    <glyph glyph-name="periodcentered" unicode="&#xb7;" horiz-adv-x="272" 
d="M43 178v182h185v-182h-185z" />
    <glyph glyph-name="cedilla" unicode="&#xb8;" horiz-adv-x="500" 
d="M248 -198q-33 0 -64 5.5t-54 17.5l24 70q38 -17 75 -17q49 0 49 21q0 18 -36 18q-16 0 -35 -4l-21 21l12 86h85l-8 -51h1q47 0 73 -20t26 -56q0 -42 -35.5 -66.5t-91.5 -24.5z" />
    <glyph glyph-name="uni00B9" unicode="&#xb9;" horiz-adv-x="380" 
d="M41 282v113h106v158l-76 -38l-54 101l171 89h99v-310h80v-113h-326z" />
    <glyph glyph-name="ordmasculine" unicode="&#xba;" horiz-adv-x="370" 
d="M185 406q-49 0 -87.5 19.5t-60.5 54.5t-22 82q0 72 48.5 113t121.5 41q74 0 122.5 -41t48.5 -113q0 -47 -22.5 -82t-61 -54.5t-87.5 -19.5zM185 489q26 0 42 19t16 54q0 36 -16 54t-42 18t-41.5 -17.5t-15.5 -54.5q0 -36 15.5 -54.5t41.5 -18.5z" />
    <glyph glyph-name="guillemotright" unicode="&#xbb;" horiz-adv-x="558" 
d="M151 61l-114 53l69 153l-69 151l116 54l104 -162v-87zM389 61l-114 53l69 153l-69 151l116 54l104 -162v-87z" />
    <glyph glyph-name="onequarter" unicode="&#xbc;" horiz-adv-x="934" 
d="M41 282v113h106v158l-76 -38l-54 101l171 89h99v-310h80v-113h-326zM353 -32l-112 65l408 704l112 -65zM748 0v61h-181v92l190 270h119v-258h49v-104h-49v-61h-128zM752 165v109l-74 -109h74z" />
    <glyph glyph-name="onehalf" unicode="&#xbd;" horiz-adv-x="986" 
d="M41 282v113h106v158l-76 -38l-54 101l171 89h99v-310h80v-113h-326zM353 -32l-112 65l408 704l112 -65zM647 0v101l110 110q37 38 37 68q0 36 -43 36q-20 0 -42 -9t-40 -26l-42 99q26 21 70 34.5t90 13.5q72 0 114.5 -34t42.5 -92q0 -32 -15 -62.5t-51 -64.5l-63 -61h149
v-113h-317z" />
    <glyph glyph-name="threequarters" unicode="&#xbe;" horiz-adv-x="934" 
d="M183 276q-57 0 -99 13t-71 36l42 92q19 -16 46.5 -25.5t61.5 -9.5q59 0 59 36q0 25 -40 25h-90v102h76q40 0 40 28q0 30 -52 30q-56 0 -93 -35l-42 93q26 21 69.5 34.5t93.5 13.5q74 0 116 -30t42 -83q0 -31 -17.5 -56.5t-45.5 -38.5q35 -10 54.5 -36t19.5 -65
q0 -57 -47 -90.5t-123 -33.5zM353 -32l-112 65l408 704l112 -65zM748 0v61h-181v92l190 270h119v-258h49v-104h-49v-61h-128zM752 165v109l-74 -109h74z" />
    <glyph glyph-name="questiondown" unicode="&#xbf;" horiz-adv-x="478" 
d="M149 310v182h185v-182h-185zM237 -191q-69 0 -121.5 20.5t-81.5 58t-29 86.5q0 42 21 79t73 72q47 31 63.5 54.5t20.5 43.5l7 31h104v-48q0 -37 -14 -69.5t-51 -63.5q-25 -21 -34.5 -36t-9.5 -32q0 -45 66 -45q88 0 169 55l57 -133q-46 -34 -110.5 -53.5t-129.5 -19.5z
" />
    <glyph glyph-name="Agrave" unicode="&#xc0;" horiz-adv-x="763" 
d="M-21 0l330 705h145l330 -705h-184l-61 143h-315l-61 -143h-184zM380 513l-96 -229h194l-96 229h-2zM320 765l-174 176h178l118 -176h-122z" />
    <glyph glyph-name="Aacute" unicode="&#xc1;" horiz-adv-x="763" 
d="M-21 0l330 705h145l330 -705h-184l-61 143h-315l-61 -143h-184zM380 513l-96 -229h194l-96 229h-2zM320 765l118 176h178l-174 -176h-122z" />
    <glyph glyph-name="Acircumflex" unicode="&#xc2;" horiz-adv-x="763" 
d="M-21 0l330 705h145l330 -705h-184l-61 143h-315l-61 -143h-184zM380 513l-96 -229h194l-96 229h-2zM182 765l126 176h146l126 -176h-120l-79 86l-79 -86h-120z" />
    <glyph glyph-name="Atilde" unicode="&#xc3;" horiz-adv-x="763" 
d="M-21 0l330 705h145l330 -705h-184l-61 143h-315l-61 -143h-184zM380 513l-96 -229h194l-96 229h-2zM222 759l-81 6q5 79 46.5 122t104.5 43q24 0 48.5 -7.5t56.5 -22.5q28 -14 45.5 -19t30.5 -5q55 0 67 59l81 -5q-5 -80 -46.5 -122.5t-104.5 -42.5q-26 0 -50.5 7.5
t-56.5 22.5q-27 13 -43 18t-31 5q-55 0 -67 -59z" />
    <glyph glyph-name="Adieresis" unicode="&#xc4;" horiz-adv-x="763" 
d="M-21 0l330 705h145l330 -705h-184l-61 143h-315l-61 -143h-184zM380 513l-96 -229h194l-96 229h-2zM409 771v149h150v-149h-150zM203 771v149h150v-149h-150z" />
    <glyph glyph-name="Aring" unicode="&#xc5;" horiz-adv-x="763" 
d="M-21 0l330 705h145l330 -705h-184l-61 143h-315l-61 -143h-184zM380 513l-96 -229h194l-96 229h-2zM381 752q-38 0 -68.5 17t-48.5 46.5t-18 66.5q0 38 18 67t48.5 46.5t68.5 17.5t68.5 -17.5t48.5 -46.5t18 -67q0 -37 -18 -66.5t-48.5 -46.5t-68.5 -17zM381 825
q24 0 40.5 16t16.5 41t-16.5 41t-40.5 16t-40.5 -16t-16.5 -41t16.5 -41t40.5 -16z" />
    <glyph glyph-name="AE" unicode="&#xc6;" horiz-adv-x="1006" 
d="M-60 0l449 705h565v-142h-369l29 -134h317v-142h-286l33 -145h276v-142h-408l-31 143h-298l-85 -143h-192zM433 507l-133 -223h184l-49 223h-2z" />
    <glyph glyph-name="Ccedilla" unicode="&#xc7;" horiz-adv-x="687" 
d="M420 -11q-117 0 -201 45t-128.5 127t-44.5 192t44.5 191.5t128.5 126.5t201 45q70 0 135 -21.5t105 -56.5l-55 -145q-44 32 -88 47.5t-90 15.5q-93 0 -140 -52.5t-47 -150.5q0 -99 47 -151.5t140 -52.5q46 0 90 15.5t88 47.5l55 -145q-40 -35 -105 -56.5t-135 -21.5z
M396 -198q-33 0 -64 5.5t-54 17.5l24 70q38 -17 75 -17q49 0 49 21q0 18 -36 18q-16 0 -35 -4l-21 21l12 86h85l-8 -51h1q47 0 73 -20t26 -56q0 -42 -35.5 -66.5t-91.5 -24.5z" />
    <glyph glyph-name="Egrave" unicode="&#xc8;" horiz-adv-x="614" 
d="M64 0v705h498v-142h-322v-134h299v-142h-299v-145h322v-142h-498zM272 765l-174 176h178l118 -176h-122z" />
    <glyph glyph-name="Eacute" unicode="&#xc9;" horiz-adv-x="614" 
d="M64 0v705h498v-142h-322v-134h299v-142h-299v-145h322v-142h-498zM272 765l118 176h178l-174 -176h-122z" />
    <glyph glyph-name="Ecircumflex" unicode="&#xca;" horiz-adv-x="614" 
d="M64 0v705h498v-142h-322v-134h299v-142h-299v-145h322v-142h-498zM134 765l126 176h146l126 -176h-120l-79 86l-79 -86h-120z" />
    <glyph glyph-name="Edieresis" unicode="&#xcb;" horiz-adv-x="614" 
d="M64 0v705h498v-142h-322v-134h299v-142h-299v-145h322v-142h-498zM361 771v149h150v-149h-150zM155 771v149h150v-149h-150z" />
    <glyph glyph-name="Igrave" unicode="&#xcc;" horiz-adv-x="312" 
d="M64 0v705h184v-705h-184zM95 765l-174 176h178l118 -176h-122z" />
    <glyph glyph-name="Iacute" unicode="&#xcd;" horiz-adv-x="312" 
d="M64 0v705h184v-705h-184zM95 765l118 176h178l-174 -176h-122z" />
    <glyph glyph-name="Icircumflex" unicode="&#xce;" horiz-adv-x="312" 
d="M64 0v705h184v-705h-184zM-43 765l126 176h146l126 -176h-120l-79 86l-79 -86h-120z" />
    <glyph glyph-name="Idieresis" unicode="&#xcf;" horiz-adv-x="312" 
d="M64 0v705h184v-705h-184zM184 771v149h150v-149h-150zM-22 771v149h150v-149h-150z" />
    <glyph glyph-name="Eth" unicode="&#xd0;" horiz-adv-x="786" 
d="M64 0v705h292q183 0 284 -92t101 -260t-101 -260.5t-284 -92.5h-292zM248 149h96q105 0 155.5 50.5t50.5 153.5t-51 153t-155 50h-96v-407zM-20 291v130h450v-130h-450z" />
    <glyph glyph-name="Ntilde" unicode="&#xd1;" horiz-adv-x="758" 
d="M64 0v705h135l324 -404v404h170v-705h-134l-324 404v-404h-171zM219 759l-81 6q5 79 46.5 122t104.5 43q24 0 48.5 -7.5t56.5 -22.5q28 -14 45.5 -19t30.5 -5q55 0 67 59l81 -5q-5 -80 -46.5 -122.5t-104.5 -42.5q-26 0 -50.5 7.5t-56.5 22.5q-27 13 -43 18t-31 5
q-55 0 -67 -59z" />
    <glyph glyph-name="Ograve" unicode="&#xd2;" horiz-adv-x="807" 
d="M404 -11q-107 0 -187.5 45.5t-125.5 127.5t-45 191q0 110 44.5 191.5t125.5 126.5t188 45t187.5 -45t125.5 -126.5t45 -191.5q0 -109 -45 -191t-125.5 -127.5t-187.5 -45.5zM404 143q78 0 122.5 55.5t44.5 154.5t-44 154t-123 55t-123 -55t-44 -154t44 -154.5t123 -55.5z
M341 765l-174 176h178l118 -176h-122z" />
    <glyph glyph-name="Oacute" unicode="&#xd3;" horiz-adv-x="807" 
d="M404 -11q-107 0 -187.5 45.5t-125.5 127.5t-45 191q0 110 44.5 191.5t125.5 126.5t188 45t187.5 -45t125.5 -126.5t45 -191.5q0 -109 -45 -191t-125.5 -127.5t-187.5 -45.5zM404 143q78 0 122.5 55.5t44.5 154.5t-44 154t-123 55t-123 -55t-44 -154t44 -154.5t123 -55.5z
M341 765l118 176h178l-174 -176h-122z" />
    <glyph glyph-name="Ocircumflex" unicode="&#xd4;" horiz-adv-x="807" 
d="M404 -11q-107 0 -187.5 45.5t-125.5 127.5t-45 191q0 110 44.5 191.5t125.5 126.5t188 45t187.5 -45t125.5 -126.5t45 -191.5q0 -109 -45 -191t-125.5 -127.5t-187.5 -45.5zM404 143q78 0 122.5 55.5t44.5 154.5t-44 154t-123 55t-123 -55t-44 -154t44 -154.5t123 -55.5z
M203 765l126 176h146l126 -176h-120l-79 86l-79 -86h-120z" />
    <glyph glyph-name="Otilde" unicode="&#xd5;" horiz-adv-x="807" 
d="M404 -11q-107 0 -187.5 45.5t-125.5 127.5t-45 191q0 110 44.5 191.5t125.5 126.5t188 45t187.5 -45t125.5 -126.5t45 -191.5q0 -109 -45 -191t-125.5 -127.5t-187.5 -45.5zM404 143q78 0 122.5 55.5t44.5 154.5t-44 154t-123 55t-123 -55t-44 -154t44 -154.5t123 -55.5z
M243 759l-81 6q5 79 46.5 122t104.5 43q24 0 48.5 -7.5t56.5 -22.5q28 -14 45.5 -19t30.5 -5q55 0 67 59l81 -5q-5 -80 -46.5 -122.5t-104.5 -42.5q-26 0 -50.5 7.5t-56.5 22.5q-27 13 -43 18t-31 5q-55 0 -67 -59z" />
    <glyph glyph-name="Odieresis" unicode="&#xd6;" horiz-adv-x="807" 
d="M404 -11q-107 0 -187.5 45.5t-125.5 127.5t-45 191q0 110 44.5 191.5t125.5 126.5t188 45t187.5 -45t125.5 -126.5t45 -191.5q0 -109 -45 -191t-125.5 -127.5t-187.5 -45.5zM404 143q78 0 122.5 55.5t44.5 154.5t-44 154t-123 55t-123 -55t-44 -154t44 -154.5t123 -55.5z
M430 771v149h150v-149h-150zM224 771v149h150v-149h-150z" />
    <glyph glyph-name="multiply" unicode="&#xd7;" horiz-adv-x="600" 
d="M150 53l-84 83l150 150l-150 150l84 85l150 -151l150 151l84 -85l-150 -150l150 -150l-84 -83l-150 149z" />
    <glyph glyph-name="Oslash" unicode="&#xd8;" horiz-adv-x="807" 
d="M404 -11q-107 0 -187.5 45.5t-125.5 127.5t-45 191q0 110 44.5 191.5t125.5 126.5t188 45t187.5 -45t125.5 -126.5t45 -191.5q0 -109 -45 -191t-125.5 -127.5t-187.5 -45.5zM404 143q78 0 122.5 55.5t44.5 154.5t-44 154t-123 55t-123 -55t-44 -154t44 -154.5t123 -55.5z
M232 -75l-116 68l75 128l57 76l224 385l28 71l74 127l116 -68l-75 -128l-57 -76l-224 -384l-28 -72z" />
    <glyph glyph-name="Ugrave" unicode="&#xd9;" horiz-adv-x="748" 
d="M376 -11q-154 0 -235.5 78t-81.5 233v405h184v-407q0 -77 34 -116t99 -39q64 0 98 39t34 116v407h181v-405q0 -155 -79.5 -233t-233.5 -78zM315 765l-174 176h178l118 -176h-122z" />
    <glyph glyph-name="Uacute" unicode="&#xda;" horiz-adv-x="748" 
d="M376 -11q-154 0 -235.5 78t-81.5 233v405h184v-407q0 -77 34 -116t99 -39q64 0 98 39t34 116v407h181v-405q0 -155 -79.5 -233t-233.5 -78zM315 765l118 176h178l-174 -176h-122z" />
    <glyph glyph-name="Ucircumflex" unicode="&#xdb;" horiz-adv-x="748" 
d="M376 -11q-154 0 -235.5 78t-81.5 233v405h184v-407q0 -77 34 -116t99 -39q64 0 98 39t34 116v407h181v-405q0 -155 -79.5 -233t-233.5 -78zM177 765l126 176h146l126 -176h-120l-79 86l-79 -86h-120z" />
    <glyph glyph-name="Udieresis" unicode="&#xdc;" horiz-adv-x="748" 
d="M376 -11q-154 0 -235.5 78t-81.5 233v405h184v-407q0 -77 34 -116t99 -39q64 0 98 39t34 116v407h181v-405q0 -155 -79.5 -233t-233.5 -78zM404 771v149h150v-149h-150zM198 771v149h150v-149h-150z" />
    <glyph glyph-name="Yacute" unicode="&#xdd;" horiz-adv-x="645" 
d="M230 0v312l-271 393h211l155 -229l155 229h205l-271 -393v-312h-184zM261 765l118 176h178l-174 -176h-122z" />
    <glyph glyph-name="Thorn" unicode="&#xde;" horiz-adv-x="679" 
d="M64 0v705h184v-107h159q119 0 184.5 -61t65.5 -169t-65.5 -170t-184.5 -62h-159v-136h-184zM248 278h126q108 0 108 90q0 89 -108 89h-126v-179z" />
    <glyph glyph-name="germandbls" unicode="&#xdf;" horiz-adv-x="700" 
d="M476 -11q-58 0 -114.5 16t-96.5 45l46 118q40 -24 85.5 -37.5t81.5 -13.5q49 0 49 35q0 16 -16.5 26.5t-64.5 23.5q-78 23 -110 57.5t-32 85.5q0 32 13.5 61.5t52.5 72.5q19 22 27 37.5t8 31.5q0 19 -14.5 31.5t-46.5 12.5q-57 0 -85.5 -34t-28.5 -95v-463h-178v433
q0 138 75.5 210.5t218.5 72.5q107 0 165.5 -41t58.5 -110q0 -33 -12.5 -63t-45.5 -62q-29 -30 -38.5 -44.5t-9.5 -26.5q0 -15 17.5 -26.5t70.5 -26.5q71 -21 102.5 -59t31.5 -93q0 -80 -57 -127.5t-153 -47.5z" />
    <glyph glyph-name="agrave" unicode="&#xe0;" horiz-adv-x="568" 
d="M223 -11q-57 0 -100.5 21t-68 57.5t-24.5 83.5q0 53 28 84.5t90 45t165 13.5h38v14q0 36 -18.5 51t-63.5 15q-38 0 -84 -12t-90 -37l-45 117q25 18 64 32t82 21.5t81 7.5q123 0 182.5 -53t59.5 -167v-283h-166v70q-13 -38 -47 -59.5t-83 -21.5zM263 105q37 0 62.5 24
t25.5 63v18h-38q-59 0 -86.5 -12.5t-27.5 -39.5q0 -23 16.5 -38t47.5 -15zM231 557l-154 205h167l101 -205h-114z" />
    <glyph glyph-name="aacute" unicode="&#xe1;" horiz-adv-x="568" 
d="M223 -11q-57 0 -100.5 21t-68 57.5t-24.5 83.5q0 53 28 84.5t90 45t165 13.5h38v14q0 36 -18.5 51t-63.5 15q-38 0 -84 -12t-90 -37l-45 117q25 18 64 32t82 21.5t81 7.5q123 0 182.5 -53t59.5 -167v-283h-166v70q-13 -38 -47 -59.5t-83 -21.5zM263 105q37 0 62.5 24
t25.5 63v18h-38q-59 0 -86.5 -12.5t-27.5 -39.5q0 -23 16.5 -38t47.5 -15zM231 557l101 205h167l-154 -205h-114z" />
    <glyph glyph-name="acircumflex" unicode="&#xe2;" horiz-adv-x="568" 
d="M223 -11q-57 0 -100.5 21t-68 57.5t-24.5 83.5q0 53 28 84.5t90 45t165 13.5h38v14q0 36 -18.5 51t-63.5 15q-38 0 -84 -12t-90 -37l-45 117q25 18 64 32t82 21.5t81 7.5q123 0 182.5 -53t59.5 -167v-283h-166v70q-13 -38 -47 -59.5t-83 -21.5zM263 105q37 0 62.5 24
t25.5 63v18h-38q-59 0 -86.5 -12.5t-27.5 -39.5q0 -23 16.5 -38t47.5 -15zM103 557l111 205h148l111 -205h-108l-77 113l-77 -113h-108z" />
    <glyph glyph-name="atilde" unicode="&#xe3;" horiz-adv-x="568" 
d="M223 -11q-57 0 -100.5 21t-68 57.5t-24.5 83.5q0 53 28 84.5t90 45t165 13.5h38v14q0 36 -18.5 51t-63.5 15q-38 0 -84 -12t-90 -37l-45 117q25 18 64 32t82 21.5t81 7.5q123 0 182.5 -53t59.5 -167v-283h-166v70q-13 -38 -47 -59.5t-83 -21.5zM263 105q37 0 62.5 24
t25.5 63v18h-38q-59 0 -86.5 -12.5t-27.5 -39.5q0 -23 16.5 -38t47.5 -15zM159 577l-82 5q5 79 42 122t94 43q23 0 42 -7.5t42 -21.5q21 -14 34 -19t27 -5q49 0 59 59l82 -6q-4 -79 -41.5 -122t-93.5 -43q-23 0 -42.5 7.5t-44.5 23.5q-35 23 -58 23q-27 0 -41 -15.5
t-19 -43.5z" />
    <glyph glyph-name="adieresis" unicode="&#xe4;" horiz-adv-x="568" 
d="M223 -11q-57 0 -100.5 21t-68 57.5t-24.5 83.5q0 53 28 84.5t90 45t165 13.5h38v14q0 36 -18.5 51t-63.5 15q-38 0 -84 -12t-90 -37l-45 117q25 18 64 32t82 21.5t81 7.5q123 0 182.5 -53t59.5 -167v-283h-166v70q-13 -38 -47 -59.5t-83 -21.5zM263 105q37 0 62.5 24
t25.5 63v18h-38q-59 0 -86.5 -12.5t-27.5 -39.5q0 -23 16.5 -38t47.5 -15zM316 582v150h150v-150h-150zM110 582v150h150v-150h-150z" />
    <glyph glyph-name="aring" unicode="&#xe5;" horiz-adv-x="568" 
d="M223 -11q-57 0 -100.5 21t-68 57.5t-24.5 83.5q0 53 28 84.5t90 45t165 13.5h38v14q0 36 -18.5 51t-63.5 15q-38 0 -84 -12t-90 -37l-45 117q25 18 64 32t82 21.5t81 7.5q123 0 182.5 -53t59.5 -167v-283h-166v70q-13 -38 -47 -59.5t-83 -21.5zM263 105q37 0 62.5 24
t25.5 63v18h-38q-59 0 -86.5 -12.5t-27.5 -39.5q0 -23 16.5 -38t47.5 -15zM288 545q-38 0 -68.5 17t-48.5 46.5t-18 66.5t18 66.5t48.5 47t68.5 17.5t68.5 -17.5t48.5 -47t18 -66.5t-18 -66.5t-48.5 -46.5t-68.5 -17zM288 618q24 0 40.5 16t16.5 41t-16.5 41t-40.5 16
t-40.5 -16t-16.5 -41t16.5 -41t40.5 -16z" />
    <glyph glyph-name="ae" unicode="&#xe6;" horiz-adv-x="870" 
d="M237 -11q-96 0 -151.5 46t-55.5 116q0 53 28 84.5t91 45t168 13.5h30v16q0 34 -17.5 49t-59.5 15q-39 0 -85 -12t-90 -37l-45 117q25 18 64 32t82.5 21.5t81.5 7.5q54 0 98.5 -13.5t72.5 -43.5q30 29 70 43t85 14q73 0 127.5 -31t84 -88.5t29.5 -134.5v-39h-325
q7 -48 36.5 -69.5t84.5 -21.5q40 0 79.5 12.5t71.5 33.5l45 -117q-39 -27 -93.5 -43t-108.5 -16q-72 0 -128.5 23.5t-89.5 70.5q-49 -94 -180 -94zM611 388q-80 0 -92 -94h180q-6 94 -88 94zM264 105q37 0 60 24.5t23 65.5v15h-34q-59 0 -86.5 -12.5t-27.5 -39.5
q0 -23 16.5 -38t48.5 -15z" />
    <glyph glyph-name="ccedilla" unicode="&#xe7;" horiz-adv-x="484" 
d="M303 -11q-83 0 -144.5 31t-95.5 89t-34 138t34 137.5t95.5 88t144.5 30.5q49 0 97.5 -13.5t79.5 -37.5l-47 -122q-23 18 -53.5 28.5t-57.5 10.5q-53 0 -82 -32t-29 -90q0 -59 29 -91.5t82 -32.5q27 0 57.5 10.5t53.5 28.5l47 -122q-31 -24 -80 -37.5t-97 -13.5zM288 -198
q-33 0 -64 5.5t-54 17.5l24 70q38 -17 75 -17q49 0 49 21q0 18 -36 18q-16 0 -35 -4l-21 21l12 86h85l-8 -51h1q47 0 73 -20t26 -56q0 -42 -35.5 -66.5t-91.5 -24.5z" />
    <glyph glyph-name="egrave" unicode="&#xe8;" horiz-adv-x="555" 
d="M320 -11q-90 0 -155.5 31.5t-100.5 89.5t-35 137q0 75 33.5 133t92 90.5t133.5 32.5q74 0 128.5 -31t84 -88.5t29.5 -134.5v-39h-331q9 -48 40 -69t86 -21q38 0 79.5 11.5t73.5 33.5l44 -117q-38 -27 -93 -43t-109 -16zM296 388q-40 0 -65.5 -24t-32.5 -70h186
q-3 47 -25.5 70.5t-62.5 23.5zM233 557l-154 205h167l101 -205h-114z" />
    <glyph glyph-name="eacute" unicode="&#xe9;" horiz-adv-x="555" 
d="M320 -11q-90 0 -155.5 31.5t-100.5 89.5t-35 137q0 75 33.5 133t92 90.5t133.5 32.5q74 0 128.5 -31t84 -88.5t29.5 -134.5v-39h-331q9 -48 40 -69t86 -21q38 0 79.5 11.5t73.5 33.5l44 -117q-38 -27 -93 -43t-109 -16zM296 388q-40 0 -65.5 -24t-32.5 -70h186
q-3 47 -25.5 70.5t-62.5 23.5zM233 557l101 205h167l-154 -205h-114z" />
    <glyph glyph-name="ecircumflex" unicode="&#xea;" horiz-adv-x="555" 
d="M320 -11q-90 0 -155.5 31.5t-100.5 89.5t-35 137q0 75 33.5 133t92 90.5t133.5 32.5q74 0 128.5 -31t84 -88.5t29.5 -134.5v-39h-331q9 -48 40 -69t86 -21q38 0 79.5 11.5t73.5 33.5l44 -117q-38 -27 -93 -43t-109 -16zM296 388q-40 0 -65.5 -24t-32.5 -70h186
q-3 47 -25.5 70.5t-62.5 23.5zM105 557l111 205h148l111 -205h-108l-77 113l-77 -113h-108z" />
    <glyph glyph-name="edieresis" unicode="&#xeb;" horiz-adv-x="555" 
d="M320 -11q-90 0 -155.5 31.5t-100.5 89.5t-35 137q0 75 33.5 133t92 90.5t133.5 32.5q74 0 128.5 -31t84 -88.5t29.5 -134.5v-39h-331q9 -48 40 -69t86 -21q38 0 79.5 11.5t73.5 33.5l44 -117q-38 -27 -93 -43t-109 -16zM296 388q-40 0 -65.5 -24t-32.5 -70h186
q-3 47 -25.5 70.5t-62.5 23.5zM318 582v150h150v-150h-150zM112 582v150h150v-150h-150z" />
    <glyph glyph-name="igrave" unicode="&#xec;" horiz-adv-x="281" 
d="M52 0v492h178v-492h-178zM83 557l-154 205h167l101 -205h-114z" />
    <glyph glyph-name="iacute" unicode="&#xed;" horiz-adv-x="281" 
d="M52 0v492h178v-492h-178zM83 557l101 205h167l-154 -205h-114z" />
    <glyph glyph-name="icircumflex" unicode="&#xee;" horiz-adv-x="281" 
d="M52 0v492h178v-492h-178zM-45 557l111 205h148l111 -205h-108l-77 113l-77 -113h-108z" />
    <glyph glyph-name="idieresis" unicode="&#xef;" horiz-adv-x="281" 
d="M52 0v492h178v-492h-178zM168 582v150h150v-150h-150zM-38 582v150h150v-150h-150z" />
    <glyph glyph-name="eth" unicode="&#xf0;" horiz-adv-x="606" 
d="M293 -11q-78 0 -137.5 29.5t-93 82t-33.5 120.5q0 66 31.5 117t87 80t127.5 29q38 0 70 -9.5t56 -32.5q-13 39 -39 71.5t-60 56.5l-168 -79l-37 78l108 51q-43 15 -87 23l30 112q61 -10 111.5 -27.5t91.5 -39.5l141 67l37 -78l-96 -45q73 -63 109.5 -143.5t36.5 -159.5
q0 -93 -33.5 -161t-97.5 -105t-155 -37zM300 122q45 0 68.5 27t23.5 72q0 44 -23.5 70.5t-68.5 26.5q-43 0 -67.5 -26.5t-24.5 -70.5q0 -46 25 -72.5t67 -26.5z" />
    <glyph glyph-name="ntilde" unicode="&#xf1;" horiz-adv-x="606" 
d="M52 0v492h173v-67q26 38 67 58t92 20q88 0 130.5 -52t42.5 -160v-291h-178v284q0 45 -15.5 64t-45.5 19q-40 0 -64 -25.5t-24 -68.5v-273h-178zM176 577l-82 5q5 79 42 122t94 43q23 0 42 -7.5t42 -21.5q21 -14 34 -19t27 -5q49 0 59 59l82 -6q-4 -79 -41.5 -122
t-93.5 -43q-23 0 -42.5 7.5t-44.5 23.5q-35 23 -58 23q-27 0 -41 -15.5t-19 -43.5z" />
    <glyph glyph-name="ograve" unicode="&#xf2;" horiz-adv-x="602" 
d="M301 -11q-82 0 -143 31t-95 89t-34 137q0 80 34 137.5t95 88.5t143 31t143 -31t94.5 -88.5t33.5 -137.5q0 -79 -33.5 -137t-94.5 -89t-143 -31zM301 120q40 0 66 30t26 96q0 67 -26 96.5t-66 29.5q-41 0 -67 -29.5t-26 -96.5q0 -66 26 -96t67 -30zM244 557l-154 205h167
l101 -205h-114z" />
    <glyph glyph-name="oacute" unicode="&#xf3;" horiz-adv-x="602" 
d="M301 -11q-82 0 -143 31t-95 89t-34 137q0 80 34 137.5t95 88.5t143 31t143 -31t94.5 -88.5t33.5 -137.5q0 -79 -33.5 -137t-94.5 -89t-143 -31zM301 120q40 0 66 30t26 96q0 67 -26 96.5t-66 29.5q-41 0 -67 -29.5t-26 -96.5q0 -66 26 -96t67 -30zM244 557l101 205h167
l-154 -205h-114z" />
    <glyph glyph-name="ocircumflex" unicode="&#xf4;" horiz-adv-x="602" 
d="M301 -11q-82 0 -143 31t-95 89t-34 137q0 80 34 137.5t95 88.5t143 31t143 -31t94.5 -88.5t33.5 -137.5q0 -79 -33.5 -137t-94.5 -89t-143 -31zM301 120q40 0 66 30t26 96q0 67 -26 96.5t-66 29.5q-41 0 -67 -29.5t-26 -96.5q0 -66 26 -96t67 -30zM116 557l111 205h148
l111 -205h-108l-77 113l-77 -113h-108z" />
    <glyph glyph-name="otilde" unicode="&#xf5;" horiz-adv-x="602" 
d="M301 -11q-82 0 -143 31t-95 89t-34 137q0 80 34 137.5t95 88.5t143 31t143 -31t94.5 -88.5t33.5 -137.5q0 -79 -33.5 -137t-94.5 -89t-143 -31zM301 120q40 0 66 30t26 96q0 67 -26 96.5t-66 29.5q-41 0 -67 -29.5t-26 -96.5q0 -66 26 -96t67 -30zM172 577l-82 5
q5 79 42 122t94 43q23 0 42 -7.5t42 -21.5q21 -14 34 -19t27 -5q49 0 59 59l82 -6q-4 -79 -41.5 -122t-93.5 -43q-23 0 -42.5 7.5t-44.5 23.5q-35 23 -58 23q-27 0 -41 -15.5t-19 -43.5z" />
    <glyph glyph-name="odieresis" unicode="&#xf6;" horiz-adv-x="602" 
d="M301 -11q-82 0 -143 31t-95 89t-34 137q0 80 34 137.5t95 88.5t143 31t143 -31t94.5 -88.5t33.5 -137.5q0 -79 -33.5 -137t-94.5 -89t-143 -31zM301 120q40 0 66 30t26 96q0 67 -26 96.5t-66 29.5q-41 0 -67 -29.5t-26 -96.5q0 -66 26 -96t67 -30zM329 582v150h150v-150
h-150zM123 582v150h150v-150h-150z" />
    <glyph glyph-name="divide" unicode="&#xf7;" horiz-adv-x="600" 
d="M231 419v126h126v-126h-126zM56 228v118h488v-118h-488zM231 29v126h126v-126h-126z" />
    <glyph glyph-name="oslash" unicode="&#xf8;" horiz-adv-x="602" 
d="M171 -70l-82 48l36 62q-46 33 -71 85.5t-25 120.5q0 80 34 137.5t95 88.5t143 31q48 0 90 -11l41 70l82 -48l-37 -62q45 -33 70 -85.5t25 -120.5q0 -79 -33.5 -137t-94.5 -89t-143 -31q-48 0 -89 11zM193 247q0 -42 12 -71l120 203q-12 3 -24 3q-49 0 -78.5 -33
t-29.5 -102zM301 111q49 0 78 33t29 103q0 40 -11 69l-119 -203q11 -2 23 -2z" />
    <glyph glyph-name="ugrave" unicode="&#xf9;" horiz-adv-x="601" 
d="M236 -11q-96 0 -141.5 52.5t-45.5 160.5v290h178v-295q0 -72 62 -72q36 0 59 26t23 69v272h178v-492h-174v61q-48 -72 -139 -72zM243 557l-154 205h167l101 -205h-114z" />
    <glyph glyph-name="uacute" unicode="&#xfa;" horiz-adv-x="601" 
d="M236 -11q-96 0 -141.5 52.5t-45.5 160.5v290h178v-295q0 -72 62 -72q36 0 59 26t23 69v272h178v-492h-174v61q-48 -72 -139 -72zM243 557l101 205h167l-154 -205h-114z" />
    <glyph glyph-name="ucircumflex" unicode="&#xfb;" horiz-adv-x="601" 
d="M236 -11q-96 0 -141.5 52.5t-45.5 160.5v290h178v-295q0 -72 62 -72q36 0 59 26t23 69v272h178v-492h-174v61q-48 -72 -139 -72zM115 557l111 205h148l111 -205h-108l-77 113l-77 -113h-108z" />
    <glyph glyph-name="udieresis" unicode="&#xfc;" horiz-adv-x="601" 
d="M236 -11q-96 0 -141.5 52.5t-45.5 160.5v290h178v-295q0 -72 62 -72q36 0 59 26t23 69v272h178v-492h-174v61q-48 -72 -139 -72zM328 582v150h150v-150h-150zM122 582v150h150v-150h-150z" />
    <glyph glyph-name="yacute" unicode="&#xfd;" horiz-adv-x="541" 
d="M82 -180l99 214l-201 458h187l108 -279l112 279h176l-301 -672h-180zM214 557l101 205h167l-154 -205h-114z" />
    <glyph glyph-name="thorn" unicode="&#xfe;" horiz-adv-x="620" 
d="M52 -180v885h178v-273q21 33 60 52t86 19q63 0 111.5 -31t76 -88.5t27.5 -137.5q0 -79 -27 -137t-75.5 -89t-112.5 -31q-46 0 -85.5 19t-60.5 51v-239h-178zM320 120q40 0 66 30t26 96q0 67 -26 96.5t-66 29.5q-41 0 -67 -29.5t-26 -96.5q0 -66 26 -96t67 -30z" />
    <glyph glyph-name="ydieresis" unicode="&#xff;" horiz-adv-x="541" 
d="M82 -180l99 214l-201 458h187l108 -279l112 279h176l-301 -672h-180zM299 582v150h150v-150h-150zM93 582v150h150v-150h-150z" />
    <glyph glyph-name="Amacron" unicode="&#x100;" horiz-adv-x="763" 
d="M-21 0l330 705h145l330 -705h-184l-61 143h-315l-61 -143h-184zM380 513l-96 -229h194l-96 229h-2zM198 796v97h367v-97h-367z" />
    <glyph glyph-name="amacron" unicode="&#x101;" horiz-adv-x="568" 
d="M223 -11q-57 0 -100.5 21t-68 57.5t-24.5 83.5q0 53 28 84.5t90 45t165 13.5h38v14q0 36 -18.5 51t-63.5 15q-38 0 -84 -12t-90 -37l-45 117q25 18 64 32t82 21.5t81 7.5q123 0 182.5 -53t59.5 -167v-283h-166v70q-13 -38 -47 -59.5t-83 -21.5zM263 105q37 0 62.5 24
t25.5 63v18h-38q-59 0 -86.5 -12.5t-27.5 -39.5q0 -23 16.5 -38t47.5 -15zM120 605v97h337v-97h-337z" />
    <glyph glyph-name="Abreve" unicode="&#x102;" horiz-adv-x="763" 
d="M-21 0l330 705h145l330 -705h-184l-61 143h-315l-61 -143h-184zM380 513l-96 -229h194l-96 229h-2zM381 760q-86 0 -140 46.5t-59 125.5l96 12q4 -40 30.5 -62.5t71.5 -22.5t72.5 22.5t32.5 62.5l95 -12q-5 -79 -58.5 -125.5t-140.5 -46.5z" />
    <glyph glyph-name="abreve" unicode="&#x103;" horiz-adv-x="568" 
d="M223 -11q-57 0 -100.5 21t-68 57.5t-24.5 83.5q0 53 28 84.5t90 45t165 13.5h38v14q0 36 -18.5 51t-63.5 15q-38 0 -84 -12t-90 -37l-45 117q25 18 64 32t82 21.5t81 7.5q123 0 182.5 -53t59.5 -167v-283h-166v70q-13 -38 -47 -59.5t-83 -21.5zM263 105q37 0 62.5 24
t25.5 63v18h-38q-59 0 -86.5 -12.5t-27.5 -39.5q0 -23 16.5 -38t47.5 -15zM288 553q-80 0 -129.5 53.5t-50.5 143.5l95 9q4 -51 26 -78t59 -27t59 27t26 78l95 -9q-1 -90 -50.5 -143.5t-129.5 -53.5z" />
    <glyph glyph-name="Aogonek" unicode="&#x104;" horiz-adv-x="763" 
d="M-21 0l330 705h145l330 -705h-184l-61 143h-315l-61 -143h-184zM380 513l-96 -229h194l-96 229h-2zM694 -198q-64 0 -99 30t-35 81q0 45 30.5 81.5t79.5 53.5l48 -48q-27 -10 -40 -28.5t-13 -37.5q0 -21 15 -33t38 -12q16 0 28.5 2.5t27.5 7.5l16 -80
q-26 -10 -47.5 -13.5t-48.5 -3.5z" />
    <glyph glyph-name="aogonek" unicode="&#x105;" horiz-adv-x="568" 
d="M223 -11q-57 0 -100.5 21t-68 57.5t-24.5 83.5q0 53 28 84.5t90 45t165 13.5h38v14q0 36 -18.5 51t-63.5 15q-38 0 -84 -12t-90 -37l-45 117q25 18 64 32t82 21.5t81 7.5q123 0 182.5 -53t59.5 -167v-283h-166v70q-13 -38 -47 -59.5t-83 -21.5zM263 105q37 0 62.5 24
t25.5 63v18h-38q-59 0 -86.5 -12.5t-27.5 -39.5q0 -23 16.5 -38t47.5 -15zM437 -198q-64 0 -99 30t-35 81q0 45 30.5 81.5t79.5 53.5l48 -48q-27 -10 -40 -28.5t-13 -37.5q0 -21 15 -33t38 -12q16 0 28.5 2.5t27.5 7.5l16 -80q-26 -10 -47.5 -13.5t-48.5 -3.5z" />
    <glyph glyph-name="Cacute" unicode="&#x106;" horiz-adv-x="687" 
d="M420 -11q-117 0 -201 45t-128.5 127t-44.5 192t44.5 191.5t128.5 126.5t201 45q70 0 135 -21.5t105 -56.5l-55 -145q-44 32 -88 47.5t-90 15.5q-93 0 -140 -52.5t-47 -150.5q0 -99 47 -151.5t140 -52.5q46 0 90 15.5t88 47.5l55 -145q-40 -35 -105 -56.5t-135 -21.5z
M337 765l118 176h178l-174 -176h-122z" />
    <glyph glyph-name="cacute" unicode="&#x107;" horiz-adv-x="484" 
d="M303 -11q-83 0 -144.5 31t-95.5 89t-34 138t34 137.5t95.5 88t144.5 30.5q49 0 97.5 -13.5t79.5 -37.5l-47 -122q-23 18 -53.5 28.5t-57.5 10.5q-53 0 -82 -32t-29 -90q0 -59 29 -91.5t82 -32.5q27 0 57.5 10.5t53.5 28.5l47 -122q-31 -24 -80 -37.5t-97 -13.5zM233 557
l101 205h167l-154 -205h-114z" />
    <glyph glyph-name="Ccircumflex" unicode="&#x108;" horiz-adv-x="687" 
d="M420 -11q-117 0 -201 45t-128.5 127t-44.5 192t44.5 191.5t128.5 126.5t201 45q70 0 135 -21.5t105 -56.5l-55 -145q-44 32 -88 47.5t-90 15.5q-93 0 -140 -52.5t-47 -150.5q0 -99 47 -151.5t140 -52.5q46 0 90 15.5t88 47.5l55 -145q-40 -35 -105 -56.5t-135 -21.5z
M199 765l126 176h146l126 -176h-120l-79 86l-79 -86h-120z" />
    <glyph glyph-name="ccircumflex" unicode="&#x109;" horiz-adv-x="484" 
d="M303 -11q-83 0 -144.5 31t-95.5 89t-34 138t34 137.5t95.5 88t144.5 30.5q49 0 97.5 -13.5t79.5 -37.5l-47 -122q-23 18 -53.5 28.5t-57.5 10.5q-53 0 -82 -32t-29 -90q0 -59 29 -91.5t82 -32.5q27 0 57.5 10.5t53.5 28.5l47 -122q-31 -24 -80 -37.5t-97 -13.5zM105 557
l111 205h148l111 -205h-108l-77 113l-77 -113h-108z" />
    <glyph glyph-name="Cdotaccent" unicode="&#x10a;" horiz-adv-x="687" 
d="M420 -11q-117 0 -201 45t-128.5 127t-44.5 192t44.5 191.5t128.5 126.5t201 45q70 0 135 -21.5t105 -56.5l-55 -145q-44 32 -88 47.5t-90 15.5q-93 0 -140 -52.5t-47 -150.5q0 -99 47 -151.5t140 -52.5q46 0 90 15.5t88 47.5l55 -145q-40 -35 -105 -56.5t-135 -21.5z
M318 778v150h160v-150h-160z" />
    <glyph glyph-name="cdotaccent" unicode="&#x10b;" horiz-adv-x="484" 
d="M303 -11q-83 0 -144.5 31t-95.5 89t-34 138t34 137.5t95.5 88t144.5 30.5q49 0 97.5 -13.5t79.5 -37.5l-47 -122q-23 18 -53.5 28.5t-57.5 10.5q-53 0 -82 -32t-29 -90q0 -59 29 -91.5t82 -32.5q27 0 57.5 10.5t53.5 28.5l47 -122q-31 -24 -80 -37.5t-97 -13.5zM210 583
v150h160v-150h-160z" />
    <glyph glyph-name="Ccaron" unicode="&#x10c;" horiz-adv-x="687" 
d="M420 -11q-117 0 -201 45t-128.5 127t-44.5 192t44.5 191.5t128.5 126.5t201 45q70 0 135 -21.5t105 -56.5l-55 -145q-44 32 -88 47.5t-90 15.5q-93 0 -140 -52.5t-47 -150.5q0 -99 47 -151.5t140 -52.5q46 0 90 15.5t88 47.5l55 -145q-40 -35 -105 -56.5t-135 -21.5z
M325 765l-126 176h120l79 -86l79 86h120l-126 -176h-146z" />
    <glyph glyph-name="ccaron" unicode="&#x10d;" horiz-adv-x="484" 
d="M303 -11q-83 0 -144.5 31t-95.5 89t-34 138t34 137.5t95.5 88t144.5 30.5q49 0 97.5 -13.5t79.5 -37.5l-47 -122q-23 18 -53.5 28.5t-57.5 10.5q-53 0 -82 -32t-29 -90q0 -59 29 -91.5t82 -32.5q27 0 57.5 10.5t53.5 28.5l47 -122q-31 -24 -80 -37.5t-97 -13.5zM216 557
l-111 205h108l77 -113l77 113h108l-111 -205h-148z" />
    <glyph glyph-name="Dcaron" unicode="&#x10e;" horiz-adv-x="786" 
d="M64 0v705h292q183 0 284 -92t101 -260t-101 -260.5t-284 -92.5h-292zM248 149h96q105 0 155.5 50.5t50.5 153.5t-51 153t-155 50h-96v-407zM316 765l-126 176h120l79 -86l79 86h120l-126 -176h-146z" />
    <glyph glyph-name="dcaron" unicode="&#x10f;" horiz-adv-x="620" 
d="M244 -11q-63 0 -111.5 31t-76 89t-27.5 137q0 80 27.5 137.5t76 88.5t111.5 31q47 0 86.5 -19.5t60.5 -50.5v272h178v-705h-174v68q-19 -36 -60 -57.5t-91 -21.5zM301 120q40 0 66 30t26 96q0 67 -26 96.5t-66 29.5q-41 0 -67 -29.5t-26 -96.5q0 -66 26 -96t67 -30z
M602 510v195h106l-29 -195h-77z" />
    <glyph glyph-name="Dcroat" unicode="&#x110;" horiz-adv-x="786" 
d="M64 0v705h292q183 0 284 -92t101 -260t-101 -260.5t-284 -92.5h-292zM248 149h96q105 0 155.5 50.5t50.5 153.5t-51 153t-155 50h-96v-407zM-20 291v130h450v-130h-450z" />
    <glyph glyph-name="dcroat" unicode="&#x111;" horiz-adv-x="620" 
d="M244 -11q-63 0 -111.5 30t-76 86.5t-27.5 134.5t27.5 134t76 86.5t111.5 30.5q48 0 87.5 -20t59.5 -52v113h-183v121h183v52h178v-52h83v-121h-83v-532h-174v67q-19 -35 -60 -56.5t-91 -21.5zM301 120q41 0 67 29t26 91t-26 90.5t-67 28.5t-67 -28.5t-26 -90.5t26 -91
t67 -29z" />
    <glyph glyph-name="Emacron" unicode="&#x112;" horiz-adv-x="614" 
d="M64 0v705h498v-142h-322v-134h299v-142h-299v-145h322v-142h-498zM150 796v97h367v-97h-367z" />
    <glyph glyph-name="emacron" unicode="&#x113;" horiz-adv-x="555" 
d="M320 -11q-90 0 -155.5 31.5t-100.5 89.5t-35 137q0 75 33.5 133t92 90.5t133.5 32.5q74 0 128.5 -31t84 -88.5t29.5 -134.5v-39h-331q9 -48 40 -69t86 -21q38 0 79.5 11.5t73.5 33.5l44 -117q-38 -27 -93 -43t-109 -16zM296 388q-40 0 -65.5 -24t-32.5 -70h186
q-3 47 -25.5 70.5t-62.5 23.5zM122 605v97h337v-97h-337z" />
    <glyph glyph-name="Ebreve" unicode="&#x114;" horiz-adv-x="614" 
d="M64 0v705h498v-142h-322v-134h299v-142h-299v-145h322v-142h-498zM333 760q-86 0 -140 46.5t-59 125.5l96 12q4 -40 30.5 -62.5t71.5 -22.5t72.5 22.5t32.5 62.5l95 -12q-5 -79 -58.5 -125.5t-140.5 -46.5z" />
    <glyph glyph-name="ebreve" unicode="&#x115;" horiz-adv-x="555" 
d="M320 -11q-90 0 -155.5 31.5t-100.5 89.5t-35 137q0 75 33.5 133t92 90.5t133.5 32.5q74 0 128.5 -31t84 -88.5t29.5 -134.5v-39h-331q9 -48 40 -69t86 -21q38 0 79.5 11.5t73.5 33.5l44 -117q-38 -27 -93 -43t-109 -16zM296 388q-40 0 -65.5 -24t-32.5 -70h186
q-3 47 -25.5 70.5t-62.5 23.5zM290 553q-80 0 -129.5 53.5t-50.5 143.5l95 9q4 -51 26 -78t59 -27t59 27t26 78l95 -9q-1 -90 -50.5 -143.5t-129.5 -53.5z" />
    <glyph glyph-name="Edotaccent" unicode="&#x116;" horiz-adv-x="614" 
d="M64 0v705h498v-142h-322v-134h299v-142h-299v-145h322v-142h-498zM253 778v150h160v-150h-160z" />
    <glyph glyph-name="edotaccent" unicode="&#x117;" horiz-adv-x="555" 
d="M320 -11q-90 0 -155.5 31.5t-100.5 89.5t-35 137q0 75 33.5 133t92 90.5t133.5 32.5q74 0 128.5 -31t84 -88.5t29.5 -134.5v-39h-331q9 -48 40 -69t86 -21q38 0 79.5 11.5t73.5 33.5l44 -117q-38 -27 -93 -43t-109 -16zM296 388q-40 0 -65.5 -24t-32.5 -70h186
q-3 47 -25.5 70.5t-62.5 23.5zM210 583v150h160v-150h-160z" />
    <glyph glyph-name="Eogonek" unicode="&#x118;" horiz-adv-x="614" 
d="M64 0v705h498v-142h-322v-134h299v-142h-299v-145h322v-142h-498zM479 -198q-64 0 -99 30t-35 81q0 45 30.5 81.5t79.5 53.5l48 -48q-27 -10 -40 -28.5t-13 -37.5q0 -21 15 -33t38 -12q16 0 28.5 2.5t27.5 7.5l16 -80q-26 -10 -47.5 -13.5t-48.5 -3.5z" />
    <glyph glyph-name="eogonek" unicode="&#x119;" horiz-adv-x="555" 
d="M320 -11q-90 0 -155.5 31.5t-100.5 89.5t-35 137q0 75 33.5 133t92 90.5t133.5 32.5q74 0 128.5 -31t84 -88.5t29.5 -134.5v-39h-331q9 -48 40 -69t86 -21q38 0 79.5 11.5t73.5 33.5l44 -117q-38 -27 -93 -43t-109 -16zM296 388q-40 0 -65.5 -24t-32.5 -70h186
q-3 47 -25.5 70.5t-62.5 23.5zM366 -198q-64 0 -99 30t-35 81q0 45 30.5 81.5t79.5 53.5l48 -48q-27 -10 -40 -28.5t-13 -37.5q0 -21 15 -33t38 -12q16 0 28.5 2.5t27.5 7.5l16 -80q-26 -10 -47.5 -13.5t-48.5 -3.5z" />
    <glyph glyph-name="Ecaron" unicode="&#x11a;" horiz-adv-x="614" 
d="M64 0v705h498v-142h-322v-134h299v-142h-299v-145h322v-142h-498zM260 765l-126 176h120l79 -86l79 86h120l-126 -176h-146z" />
    <glyph glyph-name="ecaron" unicode="&#x11b;" horiz-adv-x="555" 
d="M320 -11q-90 0 -155.5 31.5t-100.5 89.5t-35 137q0 75 33.5 133t92 90.5t133.5 32.5q74 0 128.5 -31t84 -88.5t29.5 -134.5v-39h-331q9 -48 40 -69t86 -21q38 0 79.5 11.5t73.5 33.5l44 -117q-38 -27 -93 -43t-109 -16zM296 388q-40 0 -65.5 -24t-32.5 -70h186
q-3 47 -25.5 70.5t-62.5 23.5zM216 557l-111 205h108l77 -113l77 113h108l-111 -205h-148z" />
    <glyph glyph-name="Gcircumflex" unicode="&#x11c;" horiz-adv-x="747" 
d="M424 -11q-121 0 -205.5 45t-128.5 126t-44 189q0 112 46.5 194.5t133.5 127.5t210 45q74 0 141 -19.5t109 -52.5l-56 -142q-46 30 -93 43.5t-100 13.5q-101 0 -150.5 -54t-49.5 -156t50 -154t148 -52q46 0 103 14v111h-141v129h291v-354q-56 -26 -125 -40t-139 -14z
M213 765l126 176h146l126 -176h-120l-79 86l-79 -86h-120z" />
    <glyph glyph-name="gcircumflex" unicode="&#x11d;" horiz-adv-x="626" 
d="M296 -191q-74 0 -138.5 14t-110.5 46l46 120q38 -23 90.5 -36t95.5 -13q61 0 91.5 25.5t30.5 79.5v46q-21 -36 -63 -57t-90 -21q-66 0 -115 30.5t-76.5 85.5t-27.5 129t27.5 129t76.5 85.5t115 30.5q50 0 91.5 -21.5t60.5 -56.5v67h174v-426q0 -129 -72 -193t-206 -64z
M303 144q44 0 70 30t26 84t-26 84t-70 30q-43 0 -69 -30t-26 -84t26 -84t69 -30zM127 557l111 205h148l111 -205h-108l-77 113l-77 -113h-108z" />
    <glyph glyph-name="Gbreve" unicode="&#x11e;" horiz-adv-x="747" 
d="M424 -11q-121 0 -205.5 45t-128.5 126t-44 189q0 112 46.5 194.5t133.5 127.5t210 45q74 0 141 -19.5t109 -52.5l-56 -142q-46 30 -93 43.5t-100 13.5q-101 0 -150.5 -54t-49.5 -156t50 -154t148 -52q46 0 103 14v111h-141v129h291v-354q-56 -26 -125 -40t-139 -14z
M412 760q-86 0 -140 46.5t-59 125.5l96 12q4 -40 30.5 -62.5t71.5 -22.5t72.5 22.5t32.5 62.5l95 -12q-5 -79 -58.5 -125.5t-140.5 -46.5z" />
    <glyph glyph-name="gbreve" unicode="&#x11f;" horiz-adv-x="626" 
d="M296 -191q-74 0 -138.5 14t-110.5 46l46 120q38 -23 90.5 -36t95.5 -13q61 0 91.5 25.5t30.5 79.5v46q-21 -36 -63 -57t-90 -21q-66 0 -115 30.5t-76.5 85.5t-27.5 129t27.5 129t76.5 85.5t115 30.5q50 0 91.5 -21.5t60.5 -56.5v67h174v-426q0 -129 -72 -193t-206 -64z
M303 144q44 0 70 30t26 84t-26 84t-70 30q-43 0 -69 -30t-26 -84t26 -84t69 -30zM312 553q-80 0 -129.5 53.5t-50.5 143.5l95 9q4 -51 26 -78t59 -27t59 27t26 78l95 -9q-1 -90 -50.5 -143.5t-129.5 -53.5z" />
    <glyph glyph-name="Gdotaccent" unicode="&#x120;" horiz-adv-x="747" 
d="M424 -11q-121 0 -205.5 45t-128.5 126t-44 189q0 112 46.5 194.5t133.5 127.5t210 45q74 0 141 -19.5t109 -52.5l-56 -142q-46 30 -93 43.5t-100 13.5q-101 0 -150.5 -54t-49.5 -156t50 -154t148 -52q46 0 103 14v111h-141v129h291v-354q-56 -26 -125 -40t-139 -14z
M332 778v150h160v-150h-160z" />
    <glyph glyph-name="gdotaccent" unicode="&#x121;" horiz-adv-x="626" 
d="M296 -191q-74 0 -138.5 14t-110.5 46l46 120q38 -23 90.5 -36t95.5 -13q61 0 91.5 25.5t30.5 79.5v46q-21 -36 -63 -57t-90 -21q-66 0 -115 30.5t-76.5 85.5t-27.5 129t27.5 129t76.5 85.5t115 30.5q50 0 91.5 -21.5t60.5 -56.5v67h174v-426q0 -129 -72 -193t-206 -64z
M303 144q44 0 70 30t26 84t-26 84t-70 30q-43 0 -69 -30t-26 -84t26 -84t69 -30zM232 583v150h160v-150h-160z" />
    <glyph glyph-name="uni0122" unicode="&#x122;" horiz-adv-x="747" 
d="M424 -11q-121 0 -205.5 45t-128.5 126t-44 189q0 112 46.5 194.5t133.5 127.5t210 45q74 0 141 -19.5t109 -52.5l-56 -142q-46 30 -93 43.5t-100 13.5q-101 0 -150.5 -54t-49.5 -156t50 -154t148 -52q46 0 103 14v111h-141v129h291v-354q-56 -26 -125 -40t-139 -14z
M439 -290l-60 40q16 14 24.5 29t11.5 31h-81v125h169v-75q0 -46 -14 -83t-50 -67z" />
    <glyph glyph-name="uni0123" unicode="&#x123;" horiz-adv-x="626" 
d="M296 -191q-74 0 -138.5 14t-110.5 46l46 120q38 -23 90.5 -36t95.5 -13q61 0 91.5 25.5t30.5 79.5v46q-21 -36 -63 -57t-90 -21q-66 0 -115 30.5t-76.5 85.5t-27.5 129t27.5 129t76.5 85.5t115 30.5q50 0 91.5 -21.5t60.5 -56.5v67h174v-426q0 -129 -72 -193t-206 -64z
M303 144q44 0 70 30t26 84t-26 84t-70 30q-43 0 -69 -30t-26 -84t26 -84t69 -30zM227 560v75q0 47 14 83.5t50 67.5l61 -41q-17 -14 -25.5 -28.5t-11.5 -30.5h81v-126h-169z" />
    <glyph glyph-name="Hcircumflex" unicode="&#x124;" horiz-adv-x="786" 
d="M64 0v705h184v-272h291v272h183v-705h-183v282h-291v-282h-184zM194 765l126 176h146l126 -176h-120l-79 86l-79 -86h-120z" />
    <glyph glyph-name="hcircumflex" unicode="&#x125;" horiz-adv-x="606" 
d="M52 0v705h178v-274q53 72 154 72q88 0 130.5 -52t42.5 -160v-291h-178v284q0 45 -15.5 64t-45.5 19q-40 0 -64 -25.5t-24 -68.5v-273h-178zM105 765l126 176h146l126 -176h-120l-79 86l-79 -86h-120z" />
    <glyph glyph-name="Hbar" unicode="&#x126;" horiz-adv-x="841" 
d="M91 0v501h-78v130h78v74h184v-74h291v74h183v-74h78v-130h-78v-501h-183v265h-291v-265h-184zM275 416h291v85h-291v-85z" />
    <glyph glyph-name="hbar" unicode="&#x127;" horiz-adv-x="606" 
d="M52 0v532h-83v121h83v52h178v-52h183v-121h-183v-114q53 73 154 73q88 0 130.5 -52.5t42.5 -160.5v-278h-178v271q0 45 -15.5 64t-45.5 19q-40 0 -64 -25.5t-24 -68.5v-260h-178z" />
    <glyph glyph-name="Itilde" unicode="&#x128;" horiz-adv-x="312" 
d="M64 0v705h184v-705h-184zM-3 759l-81 6q5 79 46.5 122t104.5 43q24 0 48.5 -7.5t56.5 -22.5q28 -14 45.5 -19t30.5 -5q55 0 67 59l81 -5q-5 -80 -46.5 -122.5t-104.5 -42.5q-26 0 -50.5 7.5t-56.5 22.5q-27 13 -43 18t-31 5q-55 0 -67 -59z" />
    <glyph glyph-name="itilde" unicode="&#x129;" horiz-adv-x="281" 
d="M52 0v492h178v-492h-178zM11 577l-82 5q5 79 42 122t94 43q23 0 42 -7.5t42 -21.5q21 -14 34 -19t27 -5q49 0 59 59l82 -6q-4 -79 -41.5 -122t-93.5 -43q-23 0 -42.5 7.5t-44.5 23.5q-35 23 -58 23q-27 0 -41 -15.5t-19 -43.5z" />
    <glyph glyph-name="Imacron" unicode="&#x12a;" horiz-adv-x="312" 
d="M64 0v705h184v-705h-184zM-27 796v97h367v-97h-367z" />
    <glyph glyph-name="imacron" unicode="&#x12b;" horiz-adv-x="281" 
d="M52 0v492h178v-492h-178zM-28 605v97h337v-97h-337z" />
    <glyph glyph-name="Ibreve" unicode="&#x12c;" horiz-adv-x="312" 
d="M64 0v705h184v-705h-184zM156 760q-86 0 -140 46.5t-59 125.5l96 12q4 -40 30.5 -62.5t71.5 -22.5t72.5 22.5t32.5 62.5l95 -12q-5 -79 -58.5 -125.5t-140.5 -46.5z" />
    <glyph glyph-name="ibreve" unicode="&#x12d;" horiz-adv-x="281" 
d="M52 0v492h178v-492h-178zM140 553q-80 0 -129.5 53.5t-50.5 143.5l95 9q4 -51 26 -78t59 -27t59 27t26 78l95 -9q-1 -90 -50.5 -143.5t-129.5 -53.5z" />
    <glyph glyph-name="Iogonek" unicode="&#x12e;" horiz-adv-x="312" 
d="M64 0v705h184v-705h-184zM179 -198q-64 0 -99 30t-35 81q0 45 30.5 81.5t79.5 53.5l48 -48q-27 -10 -40 -28.5t-13 -37.5q0 -21 15 -33t38 -12q16 0 28.5 2.5t27.5 7.5l16 -80q-26 -10 -47.5 -13.5t-48.5 -3.5z" />
    <glyph glyph-name="iogonek" unicode="&#x12f;" horiz-adv-x="281" 
d="M52 0v492h178v-492h-178zM46 577v161h188v-161h-188zM163 -198q-64 0 -99 30t-35 81q0 45 30.5 81.5t79.5 53.5l48 -48q-27 -10 -40 -28.5t-13 -37.5q0 -21 15 -33t38 -12q16 0 28.5 2.5t27.5 7.5l16 -80q-26 -10 -47.5 -13.5t-48.5 -3.5z" />
    <glyph glyph-name="Idotaccent" unicode="&#x130;" horiz-adv-x="312" 
d="M64 0v705h184v-705h-184zM76 778v150h160v-150h-160z" />
    <glyph glyph-name="dotlessi" unicode="&#x131;" horiz-adv-x="281" 
d="M52 0v492h178v-492h-178z" />
    <glyph glyph-name="IJ" unicode="&#x132;" horiz-adv-x="702" 
d="M64 0v705h184v-705h-184zM314 -11l-11 147l82 5q37 2 53.5 17.5t16.5 51.5v495h184v-492q0 -206 -223 -219z" />
    <glyph glyph-name="Jcircumflex" unicode="&#x134;" horiz-adv-x="391" 
d="M2 -11l-11 147l82 5q37 2 53.5 17.5t16.5 51.5v495h184v-492q0 -206 -223 -219zM35 765l126 176h146l126 -176h-120l-79 86l-79 -86h-120z" />
    <glyph glyph-name="jcircumflex" unicode="&#x135;" horiz-adv-x="287" 
d="M-39 -193l-12 125l49 6q31 4 45 19t14 46v489h178v-464q0 -74 -21.5 -120t-72 -69t-136.5 -29zM-40 557l111 205h148l111 -205h-108l-77 113l-77 -113h-108z" />
    <glyph glyph-name="uni0136" unicode="&#x136;" horiz-adv-x="712" 
d="M64 0v705h184v-302h2l274 302h218l-314 -335l325 -370h-219l-284 318h-2v-318h-184zM371 -290l-60 40q16 14 24.5 29t11.5 31h-81v125h169v-75q0 -46 -14 -83t-50 -67z" />
    <glyph glyph-name="uni0137" unicode="&#x137;" horiz-adv-x="580" 
d="M52 0v705h178v-411h2l162 198h209l-195 -234l202 -258h-213l-165 205h-2v-205h-178zM310 -290l-60 40q16 14 24.5 29t11.5 31h-81v125h169v-75q0 -46 -14 -83t-50 -67z" />
    <glyph glyph-name="kgreenlandic" unicode="&#x138;" horiz-adv-x="580" 
d="M52 0v492h178v-198h2l162 198h209l-195 -234l202 -258h-213l-165 205h-2v-205h-178z" />
    <glyph glyph-name="Lacute" unicode="&#x139;" horiz-adv-x="585" 
d="M64 0v705h184v-552h314v-153h-498zM95 765l118 176h178l-174 -176h-122z" />
    <glyph glyph-name="lacute" unicode="&#x13a;" horiz-adv-x="348" 
d="M246 -11q-102 0 -148 51.5t-46 155.5v509h178v-503q0 -70 64 -70q10 0 20.5 1t20.5 3l-2 -136q-40 -11 -87 -11zM79 765l118 176h178l-174 -176h-122z" />
    <glyph glyph-name="uni013B" unicode="&#x13b;" horiz-adv-x="585" 
d="M64 0v705h184v-552h314v-153h-498zM333 -290l-60 40q16 14 24.5 29t11.5 31h-81v125h169v-75q0 -46 -14 -83t-50 -67z" />
    <glyph glyph-name="uni013C" unicode="&#x13c;" horiz-adv-x="348" 
d="M246 -11q-102 0 -148 51.5t-46 155.5v509h178v-503q0 -70 64 -70q10 0 20.5 1t20.5 3l-2 -136q-40 -11 -87 -11zM219 -290l-60 40q16 14 24.5 29t11.5 31h-81v125h169v-75q0 -46 -14 -83t-50 -67z" />
    <glyph glyph-name="Lcaron" unicode="&#x13d;" horiz-adv-x="585" 
d="M64 0v705h184v-552h314v-153h-498zM344 456v249h128l-26 -249h-102z" />
    <glyph glyph-name="lcaron" unicode="&#x13e;" horiz-adv-x="348" 
d="M246 -11q-102 0 -148 51.5t-46 155.5v509h178v-503q0 -70 64 -70q10 0 20.5 1t20.5 3l-2 -136q-40 -11 -87 -11zM263 510v195h106l-29 -195h-77z" />
    <glyph glyph-name="Ldot" unicode="&#x13f;" horiz-adv-x="585" 
d="M64 0v705h184v-552h314v-153h-498zM358 319v159h186v-159h-186z" />
    <glyph glyph-name="ldot" unicode="&#x140;" horiz-adv-x="458" 
d="M246 -11q-102 0 -148 51.5t-46 155.5v509h178v-503q0 -70 64 -70q10 0 20.5 1t20.5 3l-2 -136q-40 -11 -87 -11zM277 277v159h186v-159h-186z" />
    <glyph glyph-name="Lslash" unicode="&#x141;" horiz-adv-x="585" 
d="M64 0v705h184v-552h314v-153h-498zM12 198l-66 118l448 258l66 -118z" />
    <glyph glyph-name="lslash" unicode="&#x142;" horiz-adv-x="348" 
d="M246 -11q-102 0 -148 51.5t-46 155.5v509h178v-503q0 -70 64 -70q10 0 20.5 1t20.5 3l-2 -136q-40 -11 -87 -11zM8 196l-66 117l351 204l66 -118z" />
    <glyph glyph-name="Nacute" unicode="&#x143;" horiz-adv-x="758" 
d="M64 0v705h135l324 -404v404h170v-705h-134l-324 404v-404h-171zM317 765l118 176h178l-174 -176h-122z" />
    <glyph glyph-name="nacute" unicode="&#x144;" horiz-adv-x="606" 
d="M52 0v492h173v-67q26 38 67 58t92 20q88 0 130.5 -52t42.5 -160v-291h-178v284q0 45 -15.5 64t-45.5 19q-40 0 -64 -25.5t-24 -68.5v-273h-178zM248 557l101 205h167l-154 -205h-114z" />
    <glyph glyph-name="uni0145" unicode="&#x145;" horiz-adv-x="758" 
d="M64 0v705h135l324 -404v404h170v-705h-134l-324 404v-404h-171zM399 -290l-60 40q16 14 24.5 29t11.5 31h-81v125h169v-75q0 -46 -14 -83t-50 -67z" />
    <glyph glyph-name="uni0146" unicode="&#x146;" horiz-adv-x="606" 
d="M52 0v492h173v-67q26 38 67 58t92 20q88 0 130.5 -52t42.5 -160v-291h-178v284q0 45 -15.5 64t-45.5 19q-40 0 -64 -25.5t-24 -68.5v-273h-178zM325 -290l-60 40q16 14 24.5 29t11.5 31h-81v125h169v-75q0 -46 -14 -83t-50 -67z" />
    <glyph glyph-name="Ncaron" unicode="&#x147;" horiz-adv-x="758" 
d="M64 0v705h135l324 -404v404h170v-705h-134l-324 404v-404h-171zM305 765l-126 176h120l79 -86l79 86h120l-126 -176h-146z" />
    <glyph glyph-name="ncaron" unicode="&#x148;" horiz-adv-x="606" 
d="M52 0v492h173v-67q26 38 67 58t92 20q88 0 130.5 -52t42.5 -160v-291h-178v284q0 45 -15.5 64t-45.5 19q-40 0 -64 -25.5t-24 -68.5v-273h-178zM231 557l-111 205h108l77 -113l77 113h108l-111 -205h-148z" />
    <glyph glyph-name="napostrophe" unicode="&#x149;" horiz-adv-x="605" 
d="M64 561l-60 41q16 13 24.5 27.5t11.5 29.5h-81v127h169v-76q0 -45 -13.5 -81.5t-50.5 -67.5zM52 0v492h173v-67q26 38 67 58t92 20q88 0 130.5 -52t42.5 -160v-291h-178v284q0 45 -15.5 64t-45.5 19q-40 0 -64 -25.5t-24 -68.5v-273h-178z" />
    <glyph glyph-name="Eng" unicode="&#x14a;" horiz-adv-x="758" 
d="M420 -193l-12 125l53 6q31 4 46.5 19t15.5 46v41l-288 360v-404h-171v705h135l324 -404v404h170v-677q0 -74 -21.5 -120t-71.5 -69t-136 -29z" />
    <glyph glyph-name="eng" unicode="&#x14b;" horiz-adv-x="606" 
d="M283 -193l-11 125l48 6q31 4 45 19t14 46v281q0 45 -15.5 64t-45.5 19q-40 0 -64 -25.5t-24 -68.5v-273h-178v492h173v-67q26 38 67 58t92 20q88 0 130.5 -52t42.5 -160v-263q0 -74 -21.5 -120t-72 -69t-136.5 -29z" />
    <glyph glyph-name="Omacron" unicode="&#x14c;" horiz-adv-x="807" 
d="M404 -11q-107 0 -187.5 45.5t-125.5 127.5t-45 191q0 110 44.5 191.5t125.5 126.5t188 45t187.5 -45t125.5 -126.5t45 -191.5q0 -109 -45 -191t-125.5 -127.5t-187.5 -45.5zM404 143q78 0 122.5 55.5t44.5 154.5t-44 154t-123 55t-123 -55t-44 -154t44 -154.5t123 -55.5z
M219 796v97h367v-97h-367z" />
    <glyph glyph-name="omacron" unicode="&#x14d;" horiz-adv-x="602" 
d="M301 -11q-82 0 -143 31t-95 89t-34 137q0 80 34 137.5t95 88.5t143 31t143 -31t94.5 -88.5t33.5 -137.5q0 -79 -33.5 -137t-94.5 -89t-143 -31zM301 120q40 0 66 30t26 96q0 67 -26 96.5t-66 29.5q-41 0 -67 -29.5t-26 -96.5q0 -66 26 -96t67 -30zM133 605v97h337v-97
h-337z" />
    <glyph glyph-name="Obreve" unicode="&#x14e;" horiz-adv-x="807" 
d="M404 -11q-107 0 -187.5 45.5t-125.5 127.5t-45 191q0 110 44.5 191.5t125.5 126.5t188 45t187.5 -45t125.5 -126.5t45 -191.5q0 -109 -45 -191t-125.5 -127.5t-187.5 -45.5zM404 143q78 0 122.5 55.5t44.5 154.5t-44 154t-123 55t-123 -55t-44 -154t44 -154.5t123 -55.5z
M402 760q-86 0 -140 46.5t-59 125.5l96 12q4 -40 30.5 -62.5t71.5 -22.5t72.5 22.5t32.5 62.5l95 -12q-5 -79 -58.5 -125.5t-140.5 -46.5z" />
    <glyph glyph-name="obreve" unicode="&#x14f;" horiz-adv-x="602" 
d="M301 -11q-82 0 -143 31t-95 89t-34 137q0 80 34 137.5t95 88.5t143 31t143 -31t94.5 -88.5t33.5 -137.5q0 -79 -33.5 -137t-94.5 -89t-143 -31zM301 120q40 0 66 30t26 96q0 67 -26 96.5t-66 29.5q-41 0 -67 -29.5t-26 -96.5q0 -66 26 -96t67 -30zM301 553
q-80 0 -129.5 53.5t-50.5 143.5l95 9q4 -51 26 -78t59 -27t59 27t26 78l95 -9q-1 -90 -50.5 -143.5t-129.5 -53.5z" />
    <glyph glyph-name="Ohungarumlaut" unicode="&#x150;" horiz-adv-x="807" 
d="M404 -11q-107 0 -187.5 45.5t-125.5 127.5t-45 191q0 110 44.5 191.5t125.5 126.5t188 45t187.5 -45t125.5 -126.5t45 -191.5q0 -109 -45 -191t-125.5 -127.5t-187.5 -45.5zM404 143q78 0 122.5 55.5t44.5 154.5t-44 154t-123 55t-123 -55t-44 -154t44 -154.5t123 -55.5z
M268 765l84 176h150l-136 -176h-98zM438 765l101 176h150l-152 -176h-99z" />
    <glyph glyph-name="ohungarumlaut" unicode="&#x151;" horiz-adv-x="602" 
d="M301 -11q-82 0 -143 31t-95 89t-34 137q0 80 34 137.5t95 88.5t143 31t143 -31t94.5 -88.5t33.5 -137.5q0 -79 -33.5 -137t-94.5 -89t-143 -31zM301 120q40 0 66 30t26 96q0 67 -26 96.5t-66 29.5q-41 0 -67 -29.5t-26 -96.5q0 -66 26 -96t67 -30zM340 557l44 205h141
l-94 -205h-91zM166 557l44 205h141l-94 -205h-91z" />
    <glyph glyph-name="OE" unicode="&#x152;" horiz-adv-x="1067" 
d="M431 0q-184 0 -284.5 92.5t-100.5 260.5t100.5 260t284.5 92h584v-142h-322v-134h300v-142h-300v-145h322v-142h-584zM442 149h75v407h-75q-104 0 -154.5 -50t-50.5 -153q0 -204 205 -204z" />
    <glyph glyph-name="oe" unicode="&#x153;" horiz-adv-x="920" 
d="M295 -11q-81 0 -141 32t-92.5 90t-32.5 138q0 78 32.5 135t92.5 88t141 31q118 0 186 -69q31 33 75.5 51t97.5 18q111 0 176 -68t65 -186v-39h-324q8 -48 37.5 -69.5t84.5 -21.5q37 0 77.5 12.5t72.5 33.5l44 -117q-38 -27 -93 -43t-108 -16q-67 0 -119 20t-85 57
q-33 -37 -80 -57t-107 -20zM663 388q-82 0 -94 -94h181q-2 47 -25 70.5t-62 23.5zM301 120q41 0 66.5 30.5t25.5 96.5q0 65 -26 95t-66 30q-41 0 -67 -30t-26 -95q0 -66 26.5 -96.5t66.5 -30.5z" />
    <glyph glyph-name="Racute" unicode="&#x154;" horiz-adv-x="706" 
d="M64 0v705h339q120 0 185.5 -58.5t65.5 -162.5q0 -79 -39.5 -132.5t-114.5 -74.5q56 -15 90 -77l110 -200h-202l-122 224q-12 21 -30.5 30t-42.5 9h-55v-263h-184zM248 393h122q109 0 109 86q0 85 -109 85h-122v-171zM296 765l118 176h178l-174 -176h-122z" />
    <glyph glyph-name="racute" unicode="&#x155;" horiz-adv-x="434" 
d="M52 0v492h173v-83q34 85 147 93l49 4l10 -150l-97 -9q-53 -5 -77 -29.5t-24 -72.5v-245h-181zM184 557l101 205h167l-154 -205h-114z" />
    <glyph glyph-name="uni0156" unicode="&#x156;" horiz-adv-x="706" 
d="M64 0v705h339q120 0 185.5 -58.5t65.5 -162.5q0 -79 -39.5 -132.5t-114.5 -74.5q56 -15 90 -77l110 -200h-202l-122 224q-12 21 -30.5 30t-42.5 9h-55v-263h-184zM248 393h122q109 0 109 86q0 85 -109 85h-122v-171zM378 -290l-60 40q16 14 24.5 29t11.5 31h-81v125h169
v-75q0 -46 -14 -83t-50 -67z" />
    <glyph glyph-name="uni0157" unicode="&#x157;" horiz-adv-x="434" 
d="M52 0v492h173v-83q34 85 147 93l49 4l10 -150l-97 -9q-53 -5 -77 -29.5t-24 -72.5v-245h-181zM162 -290l-60 40q16 14 24.5 29t11.5 31h-81v125h169v-75q0 -46 -14 -83t-50 -67z" />
    <glyph glyph-name="Rcaron" unicode="&#x158;" horiz-adv-x="706" 
d="M64 0v705h339q120 0 185.5 -58.5t65.5 -162.5q0 -79 -39.5 -132.5t-114.5 -74.5q56 -15 90 -77l110 -200h-202l-122 224q-12 21 -30.5 30t-42.5 9h-55v-263h-184zM248 393h122q109 0 109 86q0 85 -109 85h-122v-171zM284 765l-126 176h120l79 -86l79 86h120l-126 -176
h-146z" />
    <glyph glyph-name="rcaron" unicode="&#x159;" horiz-adv-x="434" 
d="M52 0v492h173v-83q34 85 147 93l49 4l10 -150l-97 -9q-53 -5 -77 -29.5t-24 -72.5v-245h-181zM167 557l-111 205h108l77 -113l77 113h108l-111 -205h-148z" />
    <glyph glyph-name="Sacute" unicode="&#x15a;" horiz-adv-x="651" 
d="M326 -11q-83 0 -159 20.5t-125 54.5l51 143q46 -31 108 -49t125 -18q66 0 92.5 17.5t26.5 43.5q0 23 -18.5 37t-65.5 24l-117 25q-190 41 -190 199q0 69 37.5 121t104.5 80.5t156 28.5q73 0 138.5 -20.5t106.5 -55.5l-51 -134q-38 28 -88 43.5t-108 15.5q-56 0 -86 -19.5
t-30 -50.5q0 -22 18 -36t64 -24l116 -25q193 -41 193 -194q0 -69 -37 -120t-104 -79t-158 -28zM277 765l118 176h178l-174 -176h-122z" />
    <glyph glyph-name="sacute" unicode="&#x15b;" horiz-adv-x="496" 
d="M248 -11q-68 0 -125.5 14t-97.5 39l41 115q37 -21 86 -34.5t97 -13.5q37 0 53 10.5t16 27.5q0 15 -10.5 22.5t-29.5 11.5l-111 18q-62 10 -96 45t-34 91q0 52 29 89.5t81 58t119 20.5q53 0 105 -12.5t91 -40.5l-44 -113q-29 20 -72 33.5t-77 13.5q-41 0 -58 -11.5
t-17 -27.5q0 -27 37 -33l111 -19q64 -10 98.5 -43.5t34.5 -90.5q0 -81 -62 -125.5t-165 -44.5zM200 557l101 205h167l-154 -205h-114z" />
    <glyph glyph-name="Scircumflex" unicode="&#x15c;" horiz-adv-x="651" 
d="M326 -11q-83 0 -159 20.5t-125 54.5l51 143q46 -31 108 -49t125 -18q66 0 92.5 17.5t26.5 43.5q0 23 -18.5 37t-65.5 24l-117 25q-190 41 -190 199q0 69 37.5 121t104.5 80.5t156 28.5q73 0 138.5 -20.5t106.5 -55.5l-51 -134q-38 28 -88 43.5t-108 15.5q-56 0 -86 -19.5
t-30 -50.5q0 -22 18 -36t64 -24l116 -25q193 -41 193 -194q0 -69 -37 -120t-104 -79t-158 -28zM139 765l126 176h146l126 -176h-120l-79 86l-79 -86h-120z" />
    <glyph glyph-name="scircumflex" unicode="&#x15d;" horiz-adv-x="496" 
d="M248 -11q-68 0 -125.5 14t-97.5 39l41 115q37 -21 86 -34.5t97 -13.5q37 0 53 10.5t16 27.5q0 15 -10.5 22.5t-29.5 11.5l-111 18q-62 10 -96 45t-34 91q0 52 29 89.5t81 58t119 20.5q53 0 105 -12.5t91 -40.5l-44 -113q-29 20 -72 33.5t-77 13.5q-41 0 -58 -11.5
t-17 -27.5q0 -27 37 -33l111 -19q64 -10 98.5 -43.5t34.5 -90.5q0 -81 -62 -125.5t-165 -44.5zM72 557l111 205h148l111 -205h-108l-77 113l-77 -113h-108z" />
    <glyph glyph-name="Scedilla" unicode="&#x15e;" horiz-adv-x="651" 
d="M326 -11q-83 0 -159 20.5t-125 54.5l51 143q46 -31 108 -49t125 -18q66 0 92.5 17.5t26.5 43.5q0 23 -18.5 37t-65.5 24l-117 25q-190 41 -190 199q0 69 37.5 121t104.5 80.5t156 28.5q73 0 138.5 -20.5t106.5 -55.5l-51 -134q-38 28 -88 43.5t-108 15.5q-56 0 -86 -19.5
t-30 -50.5q0 -22 18 -36t64 -24l116 -25q193 -41 193 -194q0 -69 -37 -120t-104 -79t-158 -28zM329 -198q-33 0 -64 5.5t-54 17.5l24 70q38 -17 75 -17q49 0 49 21q0 18 -36 18q-16 0 -35 -4l-21 21l12 86h85l-8 -51h1q47 0 73 -20t26 -56q0 -42 -35.5 -66.5t-91.5 -24.5z
" />
    <glyph glyph-name="scedilla" unicode="&#x15f;" horiz-adv-x="496" 
d="M248 -11q-68 0 -125.5 14t-97.5 39l41 115q37 -21 86 -34.5t97 -13.5q37 0 53 10.5t16 27.5q0 15 -10.5 22.5t-29.5 11.5l-111 18q-62 10 -96 45t-34 91q0 52 29 89.5t81 58t119 20.5q53 0 105 -12.5t91 -40.5l-44 -113q-29 20 -72 33.5t-77 13.5q-41 0 -58 -11.5
t-17 -27.5q0 -27 37 -33l111 -19q64 -10 98.5 -43.5t34.5 -90.5q0 -81 -62 -125.5t-165 -44.5zM247 -198q-33 0 -64 5.5t-54 17.5l24 70q38 -17 75 -17q49 0 49 21q0 18 -36 18q-16 0 -35 -4l-21 21l12 86h85l-8 -51h1q47 0 73 -20t26 -56q0 -42 -35.5 -66.5t-91.5 -24.5z
" />
    <glyph glyph-name="Scaron" unicode="&#x160;" horiz-adv-x="651" 
d="M326 -11q-83 0 -159 20.5t-125 54.5l51 143q46 -31 108 -49t125 -18q66 0 92.5 17.5t26.5 43.5q0 23 -18.5 37t-65.5 24l-117 25q-190 41 -190 199q0 69 37.5 121t104.5 80.5t156 28.5q73 0 138.5 -20.5t106.5 -55.5l-51 -134q-38 28 -88 43.5t-108 15.5q-56 0 -86 -19.5
t-30 -50.5q0 -22 18 -36t64 -24l116 -25q193 -41 193 -194q0 -69 -37 -120t-104 -79t-158 -28zM265 765l-126 176h120l79 -86l79 86h120l-126 -176h-146z" />
    <glyph glyph-name="scaron" unicode="&#x161;" horiz-adv-x="496" 
d="M248 -11q-68 0 -125.5 14t-97.5 39l41 115q37 -21 86 -34.5t97 -13.5q37 0 53 10.5t16 27.5q0 15 -10.5 22.5t-29.5 11.5l-111 18q-62 10 -96 45t-34 91q0 52 29 89.5t81 58t119 20.5q53 0 105 -12.5t91 -40.5l-44 -113q-29 20 -72 33.5t-77 13.5q-41 0 -58 -11.5
t-17 -27.5q0 -27 37 -33l111 -19q64 -10 98.5 -43.5t34.5 -90.5q0 -81 -62 -125.5t-165 -44.5zM183 557l-111 205h108l77 -113l77 113h108l-111 -205h-148z" />
    <glyph glyph-name="uni0162" unicode="&#x162;" horiz-adv-x="644" 
d="M230 0v555h-224v150h632v-150h-224v-555h-184zM320 -198q-33 0 -64 5.5t-54 17.5l24 70q38 -17 75 -17q49 0 49 21q0 18 -36 18q-16 0 -35 -4l-21 21l12 86h85l-8 -51h1q47 0 73 -20t26 -56q0 -42 -35.5 -66.5t-91.5 -24.5z" />
    <glyph glyph-name="uni0163" unicode="&#x163;" horiz-adv-x="426" 
d="M310 -11q-112 0 -166 52t-54 157v163h-92v131h92v143h178v-143h140v-131h-140v-157q0 -72 73 -72q12 0 26.5 2.5t32.5 7.5l24 -128q-23 -12 -54 -18.5t-60 -6.5zM245 -198q-33 0 -64 5.5t-54 17.5l24 70q38 -17 75 -17q49 0 49 21q0 18 -36 18q-16 0 -35 -4l-21 21l12 86
h85l-8 -51h1q47 0 73 -20t26 -56q0 -42 -35.5 -66.5t-91.5 -24.5z" />
    <glyph glyph-name="Tcaron" unicode="&#x164;" horiz-adv-x="644" 
d="M230 0v555h-224v150h632v-150h-224v-555h-184zM249 765l-126 176h120l79 -86l79 86h120l-126 -176h-146z" />
    <glyph glyph-name="tcaron" unicode="&#x165;" horiz-adv-x="426" 
d="M310 -11q-112 0 -166 52t-54 157v163h-92v131h92v143h178v-143h140v-131h-140v-157q0 -72 73 -72q12 0 26.5 2.5t32.5 7.5l24 -128q-23 -12 -54 -18.5t-60 -6.5zM307 528v177h106l-29 -177h-77z" />
    <glyph glyph-name="Tbar" unicode="&#x166;" horiz-adv-x="644" 
d="M230 0v555h-224v150h632v-150h-224v-555h-184zM96 291v130h450v-130h-450z" />
    <glyph glyph-name="tbar" unicode="&#x167;" horiz-adv-x="426" 
d="M310 -11q-112 0 -166 52t-54 157v163h-92v131h92v143h178v-143h140v-131h-140v-157q0 -72 73 -72q12 0 26.5 2.5t32.5 7.5l24 -128q-23 -12 -54 -18.5t-60 -6.5zM24 203v102h347v-102h-347z" />
    <glyph glyph-name="Utilde" unicode="&#x168;" horiz-adv-x="748" 
d="M376 -11q-154 0 -235.5 78t-81.5 233v405h184v-407q0 -77 34 -116t99 -39q64 0 98 39t34 116v407h181v-405q0 -155 -79.5 -233t-233.5 -78zM217 759l-81 6q5 79 46.5 122t104.5 43q24 0 48.5 -7.5t56.5 -22.5q28 -14 45.5 -19t30.5 -5q55 0 67 59l81 -5
q-5 -80 -46.5 -122.5t-104.5 -42.5q-26 0 -50.5 7.5t-56.5 22.5q-27 13 -43 18t-31 5q-55 0 -67 -59z" />
    <glyph glyph-name="utilde" unicode="&#x169;" horiz-adv-x="601" 
d="M236 -11q-96 0 -141.5 52.5t-45.5 160.5v290h178v-295q0 -72 62 -72q36 0 59 26t23 69v272h178v-492h-174v61q-48 -72 -139 -72zM171 577l-82 5q5 79 42 122t94 43q23 0 42 -7.5t42 -21.5q21 -14 34 -19t27 -5q49 0 59 59l82 -6q-4 -79 -41.5 -122t-93.5 -43
q-23 0 -42.5 7.5t-44.5 23.5q-35 23 -58 23q-27 0 -41 -15.5t-19 -43.5z" />
    <glyph glyph-name="Umacron" unicode="&#x16a;" horiz-adv-x="748" 
d="M376 -11q-154 0 -235.5 78t-81.5 233v405h184v-407q0 -77 34 -116t99 -39q64 0 98 39t34 116v407h181v-405q0 -155 -79.5 -233t-233.5 -78zM193 796v97h367v-97h-367z" />
    <glyph glyph-name="umacron" unicode="&#x16b;" horiz-adv-x="601" 
d="M236 -11q-96 0 -141.5 52.5t-45.5 160.5v290h178v-295q0 -72 62 -72q36 0 59 26t23 69v272h178v-492h-174v61q-48 -72 -139 -72zM132 605v97h337v-97h-337z" />
    <glyph glyph-name="Ubreve" unicode="&#x16c;" horiz-adv-x="748" 
d="M376 -11q-154 0 -235.5 78t-81.5 233v405h184v-407q0 -77 34 -116t99 -39q64 0 98 39t34 116v407h181v-405q0 -155 -79.5 -233t-233.5 -78zM376 760q-86 0 -140 46.5t-59 125.5l96 12q4 -40 30.5 -62.5t71.5 -22.5t72.5 22.5t32.5 62.5l95 -12q-5 -79 -58.5 -125.5
t-140.5 -46.5z" />
    <glyph glyph-name="ubreve" unicode="&#x16d;" horiz-adv-x="601" 
d="M236 -11q-96 0 -141.5 52.5t-45.5 160.5v290h178v-295q0 -72 62 -72q36 0 59 26t23 69v272h178v-492h-174v61q-48 -72 -139 -72zM300 553q-80 0 -129.5 53.5t-50.5 143.5l95 9q4 -51 26 -78t59 -27t59 27t26 78l95 -9q-1 -90 -50.5 -143.5t-129.5 -53.5z" />
    <glyph glyph-name="Uring" unicode="&#x16e;" horiz-adv-x="748" 
d="M376 -11q-154 0 -235.5 78t-81.5 233v405h184v-407q0 -77 34 -116t99 -39q64 0 98 39t34 116v407h181v-405q0 -155 -79.5 -233t-233.5 -78zM376 752q-38 0 -68.5 17t-48.5 46.5t-18 66.5q0 38 18 67t48.5 46.5t68.5 17.5t68.5 -17.5t48.5 -46.5t18 -67q0 -37 -18 -66.5
t-48.5 -46.5t-68.5 -17zM376 825q24 0 40.5 16t16.5 41t-16.5 41t-40.5 16t-40.5 -16t-16.5 -41t16.5 -41t40.5 -16z" />
    <glyph glyph-name="uring" unicode="&#x16f;" horiz-adv-x="601" 
d="M236 -11q-96 0 -141.5 52.5t-45.5 160.5v290h178v-295q0 -72 62 -72q36 0 59 26t23 69v272h178v-492h-174v61q-48 -72 -139 -72zM300 545q-38 0 -68.5 17t-48.5 46.5t-18 66.5t18 66.5t48.5 47t68.5 17.5t68.5 -17.5t48.5 -47t18 -66.5t-18 -66.5t-48.5 -46.5t-68.5 -17z
M300 618q24 0 40.5 16t16.5 41t-16.5 41t-40.5 16t-40.5 -16t-16.5 -41t16.5 -41t40.5 -16z" />
    <glyph glyph-name="Uhungarumlaut" unicode="&#x170;" horiz-adv-x="748" 
d="M376 -11q-154 0 -235.5 78t-81.5 233v405h184v-407q0 -77 34 -116t99 -39q64 0 98 39t34 116v407h181v-405q0 -155 -79.5 -233t-233.5 -78zM242 765l84 176h150l-136 -176h-98zM412 765l101 176h150l-152 -176h-99z" />
    <glyph glyph-name="uhungarumlaut" unicode="&#x171;" horiz-adv-x="601" 
d="M236 -11q-96 0 -141.5 52.5t-45.5 160.5v290h178v-295q0 -72 62 -72q36 0 59 26t23 69v272h178v-492h-174v61q-48 -72 -139 -72zM339 557l44 205h141l-94 -205h-91zM165 557l44 205h141l-94 -205h-91z" />
    <glyph glyph-name="Uogonek" unicode="&#x172;" horiz-adv-x="748" 
d="M376 -11q-154 0 -235.5 78t-81.5 233v405h184v-407q0 -77 34 -116t99 -39q64 0 98 39t34 116v407h181v-405q0 -155 -79.5 -233t-233.5 -78zM409 -198q-64 0 -99 30t-35 81q0 45 30.5 81.5t79.5 53.5l48 -48q-27 -10 -40 -28.5t-13 -37.5q0 -21 15 -33t38 -12
q16 0 28.5 2.5t27.5 7.5l16 -80q-26 -10 -47.5 -13.5t-48.5 -3.5z" />
    <glyph glyph-name="uogonek" unicode="&#x173;" horiz-adv-x="601" 
d="M236 -11q-96 0 -141.5 52.5t-45.5 160.5v290h178v-295q0 -72 62 -72q36 0 59 26t23 69v272h178v-492h-174v61q-48 -72 -139 -72zM468 -198q-64 0 -99 30t-35 81q0 45 30.5 81.5t79.5 53.5l48 -48q-27 -10 -40 -28.5t-13 -37.5q0 -21 15 -33t38 -12q16 0 28.5 2.5
t27.5 7.5l16 -80q-26 -10 -47.5 -13.5t-48.5 -3.5z" />
    <glyph glyph-name="Wcircumflex" unicode="&#x174;" horiz-adv-x="1128" 
d="M264 0l-253 705h188l147 -442l159 442h130l152 -451l154 451h177l-255 -705h-147l-151 424l-154 -424h-147zM366 765l126 176h146l126 -176h-120l-79 86l-79 -86h-120z" />
    <glyph glyph-name="wcircumflex" unicode="&#x175;" horiz-adv-x="868" 
d="M193 0l-207 492h180l109 -285l108 285h111l109 -290l109 290h169l-205 -492h-147l-97 242l-92 -242h-147zM250 557l111 205h148l111 -205h-108l-77 113l-77 -113h-108z" />
    <glyph glyph-name="Ycircumflex" unicode="&#x176;" horiz-adv-x="645" 
d="M230 0v312l-271 393h211l155 -229l155 229h205l-271 -393v-312h-184zM123 765l126 176h146l126 -176h-120l-79 86l-79 -86h-120z" />
    <glyph glyph-name="ycircumflex" unicode="&#x177;" horiz-adv-x="541" 
d="M82 -180l99 214l-201 458h187l108 -279l112 279h176l-301 -672h-180zM86 557l111 205h148l111 -205h-108l-77 113l-77 -113h-108z" />
    <glyph glyph-name="Ydieresis" unicode="&#x178;" horiz-adv-x="645" 
d="M230 0v312l-271 393h211l155 -229l155 229h205l-271 -393v-312h-184zM350 771v149h150v-149h-150zM144 771v149h150v-149h-150z" />
    <glyph glyph-name="Zacute" unicode="&#x179;" horiz-adv-x="625" 
d="M45 0v135l331 419h-331v151h544v-135l-331 -419h346v-151h-559zM260 765l118 176h178l-174 -176h-122z" />
    <glyph glyph-name="zacute" unicode="&#x17a;" horiz-adv-x="487" 
d="M42 0v114l219 247h-219v131h412v-113l-219 -248h230v-131h-423zM191 557l101 205h167l-154 -205h-114z" />
    <glyph glyph-name="Zdotaccent" unicode="&#x17b;" horiz-adv-x="625" 
d="M45 0v135l331 419h-331v151h544v-135l-331 -419h346v-151h-559zM241 778v150h160v-150h-160z" />
    <glyph glyph-name="zdotaccent" unicode="&#x17c;" horiz-adv-x="487" 
d="M42 0v114l219 247h-219v131h412v-113l-219 -248h230v-131h-423zM168 583v150h160v-150h-160z" />
    <glyph glyph-name="Zcaron" unicode="&#x17d;" horiz-adv-x="625" 
d="M45 0v135l331 419h-331v151h544v-135l-331 -419h346v-151h-559zM248 765l-126 176h120l79 -86l79 86h120l-126 -176h-146z" />
    <glyph glyph-name="zcaron" unicode="&#x17e;" horiz-adv-x="487" 
d="M42 0v114l219 247h-219v131h412v-113l-219 -248h230v-131h-423zM174 557l-111 205h108l77 -113l77 113h108l-111 -205h-148z" />
    <glyph glyph-name="uni0181" unicode="&#x181;" horiz-adv-x="883" 
d="M246 0v580h-19q-42 0 -61 -20t-19 -64v-51h-147v56q0 100 58 152t174 52h353q114 0 176.5 -49.5t62.5 -132.5q0 -55 -27.5 -96t-75.5 -61q59 -18 90.5 -60.5t31.5 -105.5q0 -93 -66.5 -146.5t-181.5 -53.5h-349zM421 425h131q51 0 74 18t23 55t-23 54.5t-74 17.5h-131
v-145zM421 135h149q51 0 74.5 19.5t23.5 58.5t-23.5 58t-74.5 19h-149v-155z" />
    <glyph glyph-name="uni018A" unicode="&#x18a;" horiz-adv-x="968" 
d="M246 0v580h-19q-42 0 -61 -20t-19 -64v-51h-147v56q0 100 58 152t172 52h307q184 0 284.5 -92t100.5 -260t-100.5 -260.5t-284.5 -92.5h-291zM429 149h97q104 0 154.5 50.5t50.5 153.5t-51 153t-154 50h-97v-407z" />
    <glyph glyph-name="uni018F" unicode="&#x18f;" horiz-adv-x="807" 
d="M412 -11q-119 0 -201 48t-123.5 133t-41.5 196v57h518q-34 139 -208 139q-59 0 -115 -15t-105 -45l-59 139q55 34 132.5 54.5t170.5 20.5q114 0 200 -44t134 -126t48 -195q0 -109 -45 -191t-124 -126.5t-181 -44.5zM403 136q67 0 108.5 36t54.5 110h-328
q24 -146 165 -146z" />
    <glyph glyph-name="florin" unicode="&#x192;" horiz-adv-x="600" 
d="M21 -191v138h69q27 0 45 17.5t27 57.5l72 339h-95v131h123l2 14q20 101 83 155.5t157 54.5h74v-139h-53q-38 0 -57.5 -17.5t-28.5 -57.5l-2 -10h103v-131h-131l-73 -343q-21 -101 -82 -155t-150 -54h-83z" />
    <glyph glyph-name="Ohorn" unicode="&#x1a0;" horiz-adv-x="807" 
d="M404 -11q-107 0 -187.5 45.5t-125.5 127.5t-45 191q0 110 44.5 191.5t125.5 126.5t188 45t187.5 -45t125.5 -126.5t45 -191.5q0 -109 -45 -191t-125.5 -127.5t-187.5 -45.5zM404 143q78 0 122.5 55.5t44.5 154.5t-44 154t-123 55t-123 -55t-44 -154t44 -154.5t123 -55.5z
M500 624l-37 85q16 -1 30.5 -2.5t25.5 -1.5q28 0 47 7t28.5 28t9.5 62v27h152v-48q0 -40 -18.5 -76t-50.5 -58.5t-72 -22.5h-115z" />
    <glyph glyph-name="ohorn" unicode="&#x1a1;" horiz-adv-x="602" 
d="M301 -11q-82 0 -143 31t-95 89t-34 137q0 80 34 137.5t95 88.5t143 31t143 -31t94.5 -88.5t33.5 -137.5q0 -79 -33.5 -137t-94.5 -89t-143 -31zM301 120q40 0 66 30t26 96q0 67 -26 96.5t-66 29.5q-41 0 -67 -29.5t-26 -96.5q0 -66 26 -96t67 -30zM475 412l-107 65v15
q27 0 45.5 7t28.5 28t10 62v27h152v-48q0 -61 -36 -104.5t-93 -51.5z" />
    <glyph glyph-name="Uhorn" unicode="&#x1af;" horiz-adv-x="748" 
d="M376 -11q-154 0 -235.5 78t-81.5 233v405h184v-407q0 -77 34 -116t99 -39q64 0 98 39t34 116v407h181v-405q0 -155 -79.5 -233t-233.5 -78zM670 624l-107 66v15q27 0 45.5 7t28.5 28t10 62v27h152v-48q0 -61 -36 -105t-93 -52z" />
    <glyph glyph-name="uhorn" unicode="&#x1b0;" horiz-adv-x="601" 
d="M236 -11q-96 0 -141.5 52.5t-45.5 160.5v290h178v-295q0 -72 62 -72q36 0 59 26t23 69v272h178v-492h-174v61q-48 -72 -139 -72zM530 412l-107 65v15q27 0 45.5 7t28.5 28t10 62v27h152v-48q0 -61 -36 -104.5t-93 -51.5z" />
    <glyph glyph-name="uni01B3" unicode="&#x1b3;" horiz-adv-x="671" 
d="M230 0v312l-271 393h211l155 -229l87 131q37 54 86.5 81t122.5 27q22 0 46 -3.5t37 -9.5v-122q-11 3 -23 4.5t-27 1.5q-23 0 -45.5 -10.5t-38.5 -34.5l-156 -228v-313h-184z" />
    <glyph glyph-name="uni01B4" unicode="&#x1b4;" horiz-adv-x="595" 
d="M340 372q23 58 68 94.5t128 36.5q24 0 48.5 -4t37.5 -10l-23 -128q-10 4 -19.5 5t-19.5 1q-25 0 -46 -15.5t-36 -48.5l-216 -483h-180l99 214l-201 458h187l108 -279z" />
    <glyph glyph-name="uni01C4" unicode="&#x1c4;" horiz-adv-x="1396" 
d="M64 0v705h292q183 0 284 -92t101 -260t-101 -260.5t-284 -92.5h-292zM248 149h96q105 0 155.5 50.5t50.5 153.5t-51 153t-155 50h-96v-407zM816 0v135l331 419h-331v151h544v-135l-331 -419h346v-151h-559zM1019 765l-126 176h120l79 -86l79 86h120l-126 -176h-146z" />
    <glyph glyph-name="uni01C5" unicode="&#x1c5;" horiz-adv-x="1273" 
d="M64 0v705h292q183 0 284 -92t101 -260t-101 -260.5t-284 -92.5h-292zM248 149h96q105 0 155.5 50.5t50.5 153.5t-51 153t-155 50h-96v-407zM828 0v114l219 247h-219v131h412v-113l-219 -248h230v-131h-423zM960 557l-111 205h108l77 -113l77 113h108l-111 -205h-148z" />
    <glyph glyph-name="uni01C6" unicode="&#x1c6;" horiz-adv-x="1107" 
d="M244 -11q-63 0 -111.5 31t-76 89t-27.5 137q0 80 27.5 137.5t76 88.5t111.5 31q47 0 86.5 -19.5t60.5 -50.5v272h178v-705h-174v68q-19 -36 -60 -57.5t-91 -21.5zM301 120q40 0 66 30t26 96q0 67 -26 96.5t-66 29.5q-41 0 -67 -29.5t-26 -96.5q0 -66 26 -96t67 -30z
M662 0v114l219 247h-219v131h412v-113l-219 -248h230v-131h-423zM794 557l-111 205h108l77 -113l77 113h108l-111 -205h-148z" />
    <glyph glyph-name="uni01C7" unicode="&#x1c7;" horiz-adv-x="1016" 
d="M64 0v705h184v-552h314v-153h-498zM627 -11l-11 147l82 5q37 2 53.5 17.5t16.5 51.5v495h184v-492q0 -206 -223 -219z" />
    <glyph glyph-name="uni01C8" unicode="&#x1c8;" horiz-adv-x="872" 
d="M64 0v705h184v-552h314v-153h-498zM636 577v161h188v-161h-188zM546 -193l-12 125l49 6q31 4 45 19t14 46v489h178v-464q0 -74 -21.5 -120t-72 -69t-136.5 -29z" />
    <glyph glyph-name="uni01C9" unicode="&#x1c9;" horiz-adv-x="635" 
d="M246 -11q-102 0 -148 51.5t-46 155.5v509h178v-503q0 -70 64 -70q10 0 20.5 1t20.5 3l-2 -136q-40 -11 -87 -11zM399 577v161h188v-161h-188zM309 -193l-12 125l49 6q31 4 45 19t14 46v489h178v-464q0 -74 -21.5 -120t-72 -69t-136.5 -29z" />
    <glyph glyph-name="uni01CA" unicode="&#x1ca;" horiz-adv-x="1148" 
d="M64 0v705h135l324 -404v404h170v-705h-134l-324 404v-404h-171zM760 -11l-11 147l82 5q37 2 53.5 17.5t16.5 51.5v495h184v-492q0 -206 -223 -219z" />
    <glyph glyph-name="uni01CB" unicode="&#x1cb;" horiz-adv-x="1045" 
d="M64 0v705h135l324 -404v404h170v-705h-134l-324 404v-404h-171zM809 577v161h188v-161h-188zM719 -193l-12 125l49 6q31 4 45 19t14 46v489h178v-464q0 -74 -21.5 -120t-72 -69t-136.5 -29z" />
    <glyph glyph-name="uni01CC" unicode="&#x1cc;" horiz-adv-x="893" 
d="M52 0v492h173v-67q26 38 67 58t92 20q88 0 130.5 -52t42.5 -160v-291h-178v284q0 45 -15.5 64t-45.5 19q-40 0 -64 -25.5t-24 -68.5v-273h-178zM657 577v161h188v-161h-188zM567 -193l-12 125l49 6q31 4 45 19t14 46v489h178v-464q0 -74 -21.5 -120t-72 -69t-136.5 -29z
" />
    <glyph glyph-name="uni01CD" unicode="&#x1cd;" horiz-adv-x="763" 
d="M-21 0l330 705h145l330 -705h-184l-61 143h-315l-61 -143h-184zM380 513l-96 -229h194l-96 229h-2zM308 765l-126 176h120l79 -86l79 86h120l-126 -176h-146z" />
    <glyph glyph-name="uni01CE" unicode="&#x1ce;" horiz-adv-x="568" 
d="M223 -11q-57 0 -100.5 21t-68 57.5t-24.5 83.5q0 53 28 84.5t90 45t165 13.5h38v14q0 36 -18.5 51t-63.5 15q-38 0 -84 -12t-90 -37l-45 117q25 18 64 32t82 21.5t81 7.5q123 0 182.5 -53t59.5 -167v-283h-166v70q-13 -38 -47 -59.5t-83 -21.5zM263 105q37 0 62.5 24
t25.5 63v18h-38q-59 0 -86.5 -12.5t-27.5 -39.5q0 -23 16.5 -38t47.5 -15zM214 557l-111 205h108l77 -113l77 113h108l-111 -205h-148z" />
    <glyph glyph-name="uni01D4" unicode="&#x1d4;" horiz-adv-x="601" 
d="M236 -11q-96 0 -141.5 52.5t-45.5 160.5v290h178v-295q0 -72 62 -72q36 0 59 26t23 69v272h178v-492h-174v61q-48 -72 -139 -72zM226 557l-111 205h108l77 -113l77 113h108l-111 -205h-148z" />
    <glyph glyph-name="uni01E5" unicode="&#x1e5;" horiz-adv-x="626" 
d="M296 -191q-74 0 -138.5 14t-110.5 46l47 117q37 -27 89.5 -42.5t95.5 -15.5q67 0 96 30h-98v79h124v92q-20 -34 -62 -54t-90 -20q-65 0 -114.5 28t-77.5 78.5t-28 117.5t28 117.5t77.5 78.5t114.5 28q48 0 89.5 -20t61.5 -54v63h174v-426q0 -15 -1 -29h51v-79h-66
q-27 -74 -93.5 -111.5t-168.5 -37.5zM303 184q43 0 69 25t26 68q0 44 -26 69.5t-69 25.5q-42 0 -68.5 -25t-26.5 -70q0 -44 27 -68.5t68 -24.5z" />
    <glyph glyph-name="Gcaron" unicode="&#x1e6;" horiz-adv-x="747" 
d="M424 -11q-121 0 -205.5 45t-128.5 126t-44 189q0 112 46.5 194.5t133.5 127.5t210 45q74 0 141 -19.5t109 -52.5l-56 -142q-46 30 -93 43.5t-100 13.5q-101 0 -150.5 -54t-49.5 -156t50 -154t148 -52q46 0 103 14v111h-141v129h291v-354q-56 -26 -125 -40t-139 -14z
M339 765l-126 176h120l79 -86l79 86h120l-126 -176h-146z" />
    <glyph glyph-name="gcaron" unicode="&#x1e7;" horiz-adv-x="626" 
d="M296 -191q-74 0 -138.5 14t-110.5 46l46 120q38 -23 90.5 -36t95.5 -13q61 0 91.5 25.5t30.5 79.5v46q-21 -36 -63 -57t-90 -21q-66 0 -115 30.5t-76.5 85.5t-27.5 129t27.5 129t76.5 85.5t115 30.5q50 0 91.5 -21.5t60.5 -56.5v67h174v-426q0 -129 -72 -193t-206 -64z
M303 144q44 0 70 30t26 84t-26 84t-70 30q-43 0 -69 -30t-26 -84t26 -84t69 -30zM238 557l-111 205h108l77 -113l77 113h108l-111 -205h-148z" />
    <glyph glyph-name="uni01E9" unicode="&#x1e9;" horiz-adv-x="580" 
d="M52 0v705h178v-411h2l162 198h209l-195 -234l202 -258h-213l-165 205h-2v-205h-178zM231 765l-126 176h120l79 -86l79 86h120l-126 -176h-146z" />
    <glyph glyph-name="uni01EA" unicode="&#x1ea;" horiz-adv-x="807" 
d="M404 -11q-107 0 -187.5 45.5t-125.5 127.5t-45 191q0 110 44.5 191.5t125.5 126.5t188 45t187.5 -45t125.5 -126.5t45 -191.5q0 -109 -45 -191t-125.5 -127.5t-187.5 -45.5zM404 143q78 0 122.5 55.5t44.5 154.5t-44 154t-123 55t-123 -55t-44 -154t44 -154.5t123 -55.5z
M441 -198q-64 0 -99 30t-35 81q0 45 30.5 81.5t79.5 53.5l48 -48q-27 -10 -40 -28.5t-13 -37.5q0 -21 15 -33t38 -12q16 0 28.5 2.5t27.5 7.5l16 -80q-26 -10 -47.5 -13.5t-48.5 -3.5z" />
    <glyph glyph-name="uni01EB" unicode="&#x1eb;" horiz-adv-x="602" 
d="M301 -11q-82 0 -143 31t-95 89t-34 137q0 80 34 137.5t95 88.5t143 31t143 -31t94.5 -88.5t33.5 -137.5q0 -79 -33.5 -137t-94.5 -89t-143 -31zM301 120q40 0 66 30t26 96q0 67 -26 96.5t-66 29.5q-41 0 -67 -29.5t-26 -96.5q0 -66 26 -96t67 -30zM336 -198q-64 0 -99 30
t-35 81q0 45 30.5 81.5t79.5 53.5l48 -48q-27 -10 -40 -28.5t-13 -37.5q0 -21 15 -33t38 -12q16 0 28.5 2.5t27.5 7.5l16 -80q-26 -10 -47.5 -13.5t-48.5 -3.5z" />
    <glyph glyph-name="uni01EF" unicode="&#x1ef;" horiz-adv-x="542" 
d="M238 -191q-148 0 -238 58l48 123q33 -23 77 -35.5t89 -12.5q126 0 126 86q0 85 -129 85h-90v82l172 165h-265v132h457v-118l-156 -148q88 -9 137.5 -57.5t49.5 -127.5q0 -70 -34 -122.5t-97 -81t-147 -28.5zM182 557l-111 205h108l77 -113l77 113h108l-111 -205h-148z
" />
    <glyph glyph-name="Aringacute" unicode="&#x1fa;" horiz-adv-x="763" 
d="M-21 0l330 705h145l330 -705h-184l-61 143h-315l-61 -143h-184zM380 513l-96 -229h194l-96 229h-2zM381 752q-36 0 -64.5 16t-45.5 44t-17 62q0 35 17 62.5t45.5 43.5t64.5 16q32 0 61 -14l58 53h125l-128 -111q11 -23 11 -50q0 -34 -17 -62t-45.5 -44t-64.5 -16z
M381 817q24 0 40.5 16t16.5 41t-16.5 41t-40.5 16t-40.5 -16t-16.5 -41t16.5 -41t40.5 -16z" />
    <glyph glyph-name="aringacute" unicode="&#x1fb;" horiz-adv-x="568" 
d="M223 -11q-57 0 -100.5 21t-68 57.5t-24.5 83.5q0 53 28 84.5t90 45t165 13.5h38v14q0 36 -18.5 51t-63.5 15q-38 0 -84 -12t-90 -37l-45 117q25 18 64 32t82 21.5t81 7.5q123 0 182.5 -53t59.5 -167v-283h-166v70q-13 -38 -47 -59.5t-83 -21.5zM263 105q37 0 62.5 24
t25.5 63v18h-38q-59 0 -86.5 -12.5t-27.5 -39.5q0 -23 16.5 -38t47.5 -15zM288 537q-36 0 -64.5 16t-45.5 43.5t-17 62.5q0 34 17 62t45.5 44t64.5 16q17 0 32 -4t29 -11l58 53h125l-128 -110q11 -24 11 -50q0 -35 -17 -62.5t-45.5 -43.5t-64.5 -16zM288 602q24 0 40.5 16
t16.5 41t-16.5 40.5t-40.5 15.5t-40.5 -15.5t-16.5 -40.5t16.5 -41t40.5 -16z" />
    <glyph glyph-name="AEacute" unicode="&#x1fc;" horiz-adv-x="1006" 
d="M-60 0l449 705h565v-142h-369l29 -134h317v-142h-286l33 -145h276v-142h-408l-31 143h-298l-85 -143h-192zM433 507l-133 -223h184l-49 223h-2zM428 765l118 176h178l-174 -176h-122z" />
    <glyph glyph-name="aeacute" unicode="&#x1fd;" horiz-adv-x="870" 
d="M237 -11q-96 0 -151.5 46t-55.5 116q0 53 28 84.5t91 45t168 13.5h30v16q0 34 -17.5 49t-59.5 15q-39 0 -85 -12t-90 -37l-45 117q25 18 64 32t82.5 21.5t81.5 7.5q54 0 98.5 -13.5t72.5 -43.5q30 29 70 43t85 14q73 0 127.5 -31t84 -88.5t29.5 -134.5v-39h-325
q7 -48 36.5 -69.5t84.5 -21.5q40 0 79.5 12.5t71.5 33.5l45 -117q-39 -27 -93.5 -43t-108.5 -16q-72 0 -128.5 23.5t-89.5 70.5q-49 -94 -180 -94zM611 388q-80 0 -92 -94h180q-6 94 -88 94zM264 105q37 0 60 24.5t23 65.5v15h-34q-59 0 -86.5 -12.5t-27.5 -39.5
q0 -23 16.5 -38t48.5 -15zM357 557l101 205h167l-154 -205h-114z" />
    <glyph glyph-name="Oslashacute" unicode="&#x1fe;" horiz-adv-x="807" 
d="M404 -11q-107 0 -187.5 45.5t-125.5 127.5t-45 191q0 110 44.5 191.5t125.5 126.5t188 45t187.5 -45t125.5 -126.5t45 -191.5q0 -109 -45 -191t-125.5 -127.5t-187.5 -45.5zM404 143q78 0 122.5 55.5t44.5 154.5t-44 154t-123 55t-123 -55t-44 -154t44 -154.5t123 -55.5z
M232 -75l-116 68l75 128l57 76l224 385l28 71l74 127l116 -68l-75 -128l-57 -76l-224 -384l-28 -72zM341 765l118 176h178l-174 -176h-122z" />
    <glyph glyph-name="oslashacute" unicode="&#x1ff;" horiz-adv-x="602" 
d="M171 -70l-82 48l36 62q-46 33 -71 85.5t-25 120.5q0 80 34 137.5t95 88.5t143 31q48 0 90 -11l41 70l82 -48l-37 -62q45 -33 70 -85.5t25 -120.5q0 -79 -33.5 -137t-94.5 -89t-143 -31q-48 0 -89 11zM193 247q0 -42 12 -71l120 203q-12 3 -24 3q-49 0 -78.5 -33
t-29.5 -102zM301 111q49 0 78 33t29 103q0 40 -11 69l-119 -203q11 -2 23 -2zM243 557l101 205h167l-154 -205h-114z" />
    <glyph glyph-name="uni0200" unicode="&#x200;" horiz-adv-x="763" 
d="M-21 0l330 705h145l330 -705h-184l-61 143h-315l-61 -143h-184zM380 513l-96 -229h194l-96 229h-2zM417 765l-136 176h150l85 -176h-99zM247 765l-153 176h151l100 -176h-98z" />
    <glyph glyph-name="uni0201" unicode="&#x201;" horiz-adv-x="568" 
d="M223 -11q-57 0 -100.5 21t-68 57.5t-24.5 83.5q0 53 28 84.5t90 45t165 13.5h38v14q0 36 -18.5 51t-63.5 15q-38 0 -84 -12t-90 -37l-45 117q25 18 64 32t82 21.5t81 7.5q123 0 182.5 -53t59.5 -167v-283h-166v70q-13 -38 -47 -59.5t-83 -21.5zM263 105q37 0 62.5 24
t25.5 63v18h-38q-59 0 -86.5 -12.5t-27.5 -39.5q0 -23 16.5 -38t47.5 -15zM332 557l-94 205h141l44 -205h-91zM159 557l-95 205h141l45 -205h-91z" />
    <glyph glyph-name="uni0202" unicode="&#x202;" horiz-adv-x="763" 
d="M-21 0l330 705h145l330 -705h-184l-61 143h-315l-61 -143h-184zM380 513l-96 -229h194l-96 229h-2zM278 760l-96 12q5 79 59 125.5t140 46.5q87 0 140.5 -46.5t58.5 -125.5l-95 -12q-5 40 -32.5 62.5t-72.5 22.5t-71.5 -22.5t-30.5 -62.5z" />
    <glyph glyph-name="uni0203" unicode="&#x203;" horiz-adv-x="568" 
d="M223 -11q-57 0 -100.5 21t-68 57.5t-24.5 83.5q0 53 28 84.5t90 45t165 13.5h38v14q0 36 -18.5 51t-63.5 15q-38 0 -84 -12t-90 -37l-45 117q25 18 64 32t82 21.5t81 7.5q123 0 182.5 -53t59.5 -167v-283h-166v70q-13 -38 -47 -59.5t-83 -21.5zM263 105q37 0 62.5 24
t25.5 63v18h-38q-59 0 -86.5 -12.5t-27.5 -39.5q0 -23 16.5 -38t47.5 -15zM203 553l-95 8q1 90 50.5 144t129.5 54t129.5 -54t50.5 -144l-95 -8q-4 50 -26 77t-59 27t-59 -27t-26 -77z" />
    <glyph glyph-name="uni0204" unicode="&#x204;" horiz-adv-x="614" 
d="M64 0v705h498v-142h-322v-134h299v-142h-299v-145h322v-142h-498zM369 765l-136 176h150l85 -176h-99zM199 765l-153 176h151l100 -176h-98z" />
    <glyph glyph-name="uni0205" unicode="&#x205;" horiz-adv-x="555" 
d="M320 -11q-90 0 -155.5 31.5t-100.5 89.5t-35 137q0 75 33.5 133t92 90.5t133.5 32.5q74 0 128.5 -31t84 -88.5t29.5 -134.5v-39h-331q9 -48 40 -69t86 -21q38 0 79.5 11.5t73.5 33.5l44 -117q-38 -27 -93 -43t-109 -16zM296 388q-40 0 -65.5 -24t-32.5 -70h186
q-3 47 -25.5 70.5t-62.5 23.5zM334 557l-94 205h141l44 -205h-91zM161 557l-95 205h141l45 -205h-91z" />
    <glyph glyph-name="uni0206" unicode="&#x206;" horiz-adv-x="614" 
d="M64 0v705h498v-142h-322v-134h299v-142h-299v-145h322v-142h-498zM230 760l-96 12q5 79 59 125.5t140 46.5q87 0 140.5 -46.5t58.5 -125.5l-95 -12q-5 40 -32.5 62.5t-72.5 22.5t-71.5 -22.5t-30.5 -62.5z" />
    <glyph glyph-name="uni0207" unicode="&#x207;" horiz-adv-x="555" 
d="M320 -11q-90 0 -155.5 31.5t-100.5 89.5t-35 137q0 75 33.5 133t92 90.5t133.5 32.5q74 0 128.5 -31t84 -88.5t29.5 -134.5v-39h-331q9 -48 40 -69t86 -21q38 0 79.5 11.5t73.5 33.5l44 -117q-38 -27 -93 -43t-109 -16zM296 388q-40 0 -65.5 -24t-32.5 -70h186
q-3 47 -25.5 70.5t-62.5 23.5zM205 553l-95 8q1 90 50.5 144t129.5 54t129.5 -54t50.5 -144l-95 -8q-4 50 -26 77t-59 27t-59 -27t-26 -77z" />
    <glyph glyph-name="uni0208" unicode="&#x208;" horiz-adv-x="312" 
d="M64 0v705h184v-705h-184zM192 765l-136 176h150l85 -176h-99zM22 765l-153 176h151l100 -176h-98z" />
    <glyph glyph-name="uni0209" unicode="&#x209;" horiz-adv-x="281" 
d="M52 0v492h178v-492h-178zM184 557l-94 205h141l44 -205h-91zM11 557l-95 205h141l45 -205h-91z" />
    <glyph glyph-name="uni020A" unicode="&#x20a;" horiz-adv-x="312" 
d="M64 0v705h184v-705h-184zM53 760l-96 12q5 79 59 125.5t140 46.5q87 0 140.5 -46.5t58.5 -125.5l-95 -12q-5 40 -32.5 62.5t-72.5 22.5t-71.5 -22.5t-30.5 -62.5z" />
    <glyph glyph-name="uni020B" unicode="&#x20b;" horiz-adv-x="281" 
d="M52 0v492h178v-492h-178zM55 553l-95 8q1 90 50.5 144t129.5 54t129.5 -54t50.5 -144l-95 -8q-4 50 -26 77t-59 27t-59 -27t-26 -77z" />
    <glyph glyph-name="uni020C" unicode="&#x20c;" horiz-adv-x="807" 
d="M404 -11q-107 0 -187.5 45.5t-125.5 127.5t-45 191q0 110 44.5 191.5t125.5 126.5t188 45t187.5 -45t125.5 -126.5t45 -191.5q0 -109 -45 -191t-125.5 -127.5t-187.5 -45.5zM404 143q78 0 122.5 55.5t44.5 154.5t-44 154t-123 55t-123 -55t-44 -154t44 -154.5t123 -55.5z
M438 765l-136 176h150l85 -176h-99zM268 765l-153 176h151l100 -176h-98z" />
    <glyph glyph-name="uni020D" unicode="&#x20d;" horiz-adv-x="602" 
d="M301 -11q-82 0 -143 31t-95 89t-34 137q0 80 34 137.5t95 88.5t143 31t143 -31t94.5 -88.5t33.5 -137.5q0 -79 -33.5 -137t-94.5 -89t-143 -31zM301 120q40 0 66 30t26 96q0 67 -26 96.5t-66 29.5q-41 0 -67 -29.5t-26 -96.5q0 -66 26 -96t67 -30zM345 557l-94 205h141
l44 -205h-91zM172 557l-95 205h141l45 -205h-91z" />
    <glyph glyph-name="uni020E" unicode="&#x20e;" horiz-adv-x="807" 
d="M404 -11q-107 0 -187.5 45.5t-125.5 127.5t-45 191q0 110 44.5 191.5t125.5 126.5t188 45t187.5 -45t125.5 -126.5t45 -191.5q0 -109 -45 -191t-125.5 -127.5t-187.5 -45.5zM404 143q78 0 122.5 55.5t44.5 154.5t-44 154t-123 55t-123 -55t-44 -154t44 -154.5t123 -55.5z
M299 760l-96 12q5 79 59 125.5t140 46.5q87 0 140.5 -46.5t58.5 -125.5l-95 -12q-5 40 -32.5 62.5t-72.5 22.5t-71.5 -22.5t-30.5 -62.5z" />
    <glyph glyph-name="uni020F" unicode="&#x20f;" horiz-adv-x="602" 
d="M301 -11q-82 0 -143 31t-95 89t-34 137q0 80 34 137.5t95 88.5t143 31t143 -31t94.5 -88.5t33.5 -137.5q0 -79 -33.5 -137t-94.5 -89t-143 -31zM301 120q40 0 66 30t26 96q0 67 -26 96.5t-66 29.5q-41 0 -67 -29.5t-26 -96.5q0 -66 26 -96t67 -30zM216 553l-95 8
q1 90 50.5 144t129.5 54t129.5 -54t50.5 -144l-95 -8q-4 50 -26 77t-59 27t-59 -27t-26 -77z" />
    <glyph glyph-name="uni0210" unicode="&#x210;" horiz-adv-x="706" 
d="M64 0v705h339q120 0 185.5 -58.5t65.5 -162.5q0 -79 -39.5 -132.5t-114.5 -74.5q56 -15 90 -77l110 -200h-202l-122 224q-12 21 -30.5 30t-42.5 9h-55v-263h-184zM248 393h122q109 0 109 86q0 85 -109 85h-122v-171zM393 765l-136 176h150l85 -176h-99zM223 765l-153 176
h151l100 -176h-98z" />
    <glyph glyph-name="uni0211" unicode="&#x211;" horiz-adv-x="434" 
d="M52 0v492h173v-83q34 85 147 93l49 4l10 -150l-97 -9q-53 -5 -77 -29.5t-24 -72.5v-245h-181zM285 557l-94 205h141l44 -205h-91zM112 557l-95 205h141l45 -205h-91z" />
    <glyph glyph-name="uni0212" unicode="&#x212;" horiz-adv-x="706" 
d="M64 0v705h339q120 0 185.5 -58.5t65.5 -162.5q0 -79 -39.5 -132.5t-114.5 -74.5q56 -15 90 -77l110 -200h-202l-122 224q-12 21 -30.5 30t-42.5 9h-55v-263h-184zM248 393h122q109 0 109 86q0 85 -109 85h-122v-171zM254 760l-96 12q5 79 59 125.5t140 46.5
q87 0 140.5 -46.5t58.5 -125.5l-95 -12q-5 40 -32.5 62.5t-72.5 22.5t-71.5 -22.5t-30.5 -62.5z" />
    <glyph glyph-name="uni0213" unicode="&#x213;" horiz-adv-x="434" 
d="M52 0v492h173v-83q34 85 147 93l49 4l10 -150l-97 -9q-53 -5 -77 -29.5t-24 -72.5v-245h-181zM156 553l-95 8q1 90 50.5 144t129.5 54t129.5 -54t50.5 -144l-95 -8q-4 50 -26 77t-59 27t-59 -27t-26 -77z" />
    <glyph glyph-name="uni0214" unicode="&#x214;" horiz-adv-x="748" 
d="M376 -11q-154 0 -235.5 78t-81.5 233v405h184v-407q0 -77 34 -116t99 -39q64 0 98 39t34 116v407h181v-405q0 -155 -79.5 -233t-233.5 -78zM412 765l-136 176h150l85 -176h-99zM242 765l-153 176h151l100 -176h-98z" />
    <glyph glyph-name="uni0215" unicode="&#x215;" horiz-adv-x="601" 
d="M236 -11q-96 0 -141.5 52.5t-45.5 160.5v290h178v-295q0 -72 62 -72q36 0 59 26t23 69v272h178v-492h-174v61q-48 -72 -139 -72zM344 557l-94 205h141l44 -205h-91zM171 557l-95 205h141l45 -205h-91z" />
    <glyph glyph-name="uni0216" unicode="&#x216;" horiz-adv-x="748" 
d="M376 -11q-154 0 -235.5 78t-81.5 233v405h184v-407q0 -77 34 -116t99 -39q64 0 98 39t34 116v407h181v-405q0 -155 -79.5 -233t-233.5 -78zM273 760l-96 12q5 79 59 125.5t140 46.5q87 0 140.5 -46.5t58.5 -125.5l-95 -12q-5 40 -32.5 62.5t-72.5 22.5t-71.5 -22.5
t-30.5 -62.5z" />
    <glyph glyph-name="uni0217" unicode="&#x217;" horiz-adv-x="601" 
d="M236 -11q-96 0 -141.5 52.5t-45.5 160.5v290h178v-295q0 -72 62 -72q36 0 59 26t23 69v272h178v-492h-174v61q-48 -72 -139 -72zM215 553l-95 8q1 90 50.5 144t129.5 54t129.5 -54t50.5 -144l-95 -8q-4 50 -26 77t-59 27t-59 -27t-26 -77z" />
    <glyph glyph-name="uni0218" unicode="&#x218;" horiz-adv-x="651" 
d="M326 -11q-83 0 -159 20.5t-125 54.5l51 143q46 -31 108 -49t125 -18q66 0 92.5 17.5t26.5 43.5q0 23 -18.5 37t-65.5 24l-117 25q-190 41 -190 199q0 69 37.5 121t104.5 80.5t156 28.5q73 0 138.5 -20.5t106.5 -55.5l-51 -134q-38 28 -88 43.5t-108 15.5q-56 0 -86 -19.5
t-30 -50.5q0 -22 18 -36t64 -24l116 -25q193 -41 193 -194q0 -69 -37 -120t-104 -79t-158 -28zM351 -290l-60 40q16 14 24.5 29t11.5 31h-81v125h169v-75q0 -46 -14 -83t-50 -67z" />
    <glyph glyph-name="uni0219" unicode="&#x219;" horiz-adv-x="496" 
d="M248 -11q-68 0 -125.5 14t-97.5 39l41 115q37 -21 86 -34.5t97 -13.5q37 0 53 10.5t16 27.5q0 15 -10.5 22.5t-29.5 11.5l-111 18q-62 10 -96 45t-34 91q0 52 29 89.5t81 58t119 20.5q53 0 105 -12.5t91 -40.5l-44 -113q-29 20 -72 33.5t-77 13.5q-41 0 -58 -11.5
t-17 -27.5q0 -27 37 -33l111 -19q64 -10 98.5 -43.5t34.5 -90.5q0 -81 -62 -125.5t-165 -44.5zM269 -290l-60 40q16 14 24.5 29t11.5 31h-81v125h169v-75q0 -46 -14 -83t-50 -67z" />
    <glyph glyph-name="uni021A" unicode="&#x21a;" horiz-adv-x="644" 
d="M230 0v555h-224v150h632v-150h-224v-555h-184zM342 -290l-60 40q16 14 24.5 29t11.5 31h-81v125h169v-75q0 -46 -14 -83t-50 -67z" />
    <glyph glyph-name="uni021B" unicode="&#x21b;" horiz-adv-x="426" 
d="M310 -11q-112 0 -166 52t-54 157v163h-92v131h92v143h178v-143h140v-131h-140v-157q0 -72 73 -72q12 0 26.5 2.5t32.5 7.5l24 -128q-23 -12 -54 -18.5t-60 -6.5zM267 -290l-60 40q16 14 24.5 29t11.5 31h-81v125h169v-75q0 -46 -14 -83t-50 -67z" />
    <glyph glyph-name="uni021F" unicode="&#x21f;" horiz-adv-x="606" 
d="M52 0v705h178v-274q53 72 154 72q88 0 130.5 -52t42.5 -160v-291h-178v284q0 45 -15.5 64t-45.5 19q-40 0 -64 -25.5t-24 -68.5v-273h-178zM231 765l-126 176h120l79 -86l79 86h120l-126 -176h-146z" />
    <glyph glyph-name="uni0226" unicode="&#x226;" horiz-adv-x="763" 
d="M-21 0l330 705h145l330 -705h-184l-61 143h-315l-61 -143h-184zM380 513l-96 -229h194l-96 229h-2zM301 778v150h160v-150h-160z" />
    <glyph glyph-name="uni0227" unicode="&#x227;" horiz-adv-x="568" 
d="M223 -11q-57 0 -100.5 21t-68 57.5t-24.5 83.5q0 53 28 84.5t90 45t165 13.5h38v14q0 36 -18.5 51t-63.5 15q-38 0 -84 -12t-90 -37l-45 117q25 18 64 32t82 21.5t81 7.5q123 0 182.5 -53t59.5 -167v-283h-166v70q-13 -38 -47 -59.5t-83 -21.5zM263 105q37 0 62.5 24
t25.5 63v18h-38q-59 0 -86.5 -12.5t-27.5 -39.5q0 -23 16.5 -38t47.5 -15zM208 583v150h160v-150h-160z" />
    <glyph glyph-name="uni0228" unicode="&#x228;" horiz-adv-x="614" 
d="M64 0v705h498v-142h-322v-134h299v-142h-299v-145h322v-142h-498zM331 -198q-33 0 -64 5.5t-54 17.5l24 70q38 -17 75 -17q49 0 49 21q0 18 -36 18q-16 0 -35 -4l-21 21l12 86h85l-8 -51h1q47 0 73 -20t26 -56q0 -42 -35.5 -66.5t-91.5 -24.5z" />
    <glyph glyph-name="uni022A" unicode="&#x22a;" horiz-adv-x="807" 
d="M404 -11q-107 0 -187.5 45.5t-125.5 127.5t-45 191q0 110 44.5 191.5t125.5 126.5t188 45t187.5 -45t125.5 -126.5t45 -191.5q0 -109 -45 -191t-125.5 -127.5t-187.5 -45.5zM404 143q78 0 122.5 55.5t44.5 154.5t-44 154t-123 55t-123 -55t-44 -154t44 -154.5t123 -55.5z
M234 922v97h337v-97h-337zM224 776v105h150v-105h-150zM430 776v105h150v-105h-150z" />
    <glyph glyph-name="uni022B" unicode="&#x22b;" horiz-adv-x="602" 
d="M301 -11q-82 0 -143 31t-95 89t-34 137q0 80 34 137.5t95 88.5t143 31t143 -31t94.5 -88.5t33.5 -137.5q0 -79 -33.5 -137t-94.5 -89t-143 -31zM301 120q40 0 66 30t26 96q0 67 -26 96.5t-66 29.5q-41 0 -67 -29.5t-26 -96.5q0 -66 26 -96t67 -30zM132 709v97h338v-97
h-338zM123 563v105h150v-105h-150zM329 563v105h150v-105h-150z" />
    <glyph glyph-name="uni022C" unicode="&#x22c;" horiz-adv-x="807" 
d="M404 -11q-107 0 -187.5 45.5t-125.5 127.5t-45 191q0 110 44.5 191.5t125.5 126.5t188 45t187.5 -45t125.5 -126.5t45 -191.5q0 -109 -45 -191t-125.5 -127.5t-187.5 -45.5zM404 143q78 0 122.5 55.5t44.5 154.5t-44 154t-123 55t-123 -55t-44 -154t44 -154.5t123 -55.5z
M233 922v97h338v-97h-338zM470 766q-19 0 -38.5 5.5t-40.5 14.5q-19 8 -30.5 11t-20.5 3q-23 0 -35.5 -8.5t-17.5 -25.5l-74 4q4 57 37.5 86t83.5 29q31 0 78 -19q34 -14 52 -14q44 0 53 34l74 -5q-4 -57 -37.5 -86t-83.5 -29z" />
    <glyph glyph-name="uni022D" unicode="&#x22d;" horiz-adv-x="602" 
d="M301 -11q-82 0 -143 31t-95 89t-34 137q0 80 34 137.5t95 88.5t143 31t143 -31t94.5 -88.5t33.5 -137.5q0 -79 -33.5 -137t-94.5 -89t-143 -31zM301 120q40 0 66 30t26 96q0 67 -26 96.5t-66 29.5q-41 0 -67 -29.5t-26 -96.5q0 -66 26 -96t67 -30zM133 709v97h337v-97
h-337zM186 553l-74 4q4 57 37.5 86t83.5 29q19 0 37.5 -4.5t38.5 -13.5q16 -7 29.5 -11t24.5 -4q44 0 53 34l74 -4q-4 -58 -37.5 -87t-83.5 -29q-20 0 -40 5.5t-39 14.5q-16 6 -29 10t-22 4q-23 0 -35.5 -8.5t-17.5 -25.5z" />
    <glyph glyph-name="uni0230" unicode="&#x230;" horiz-adv-x="807" 
d="M404 -11q-107 0 -187.5 45.5t-125.5 127.5t-45 191q0 110 44.5 191.5t125.5 126.5t188 45t187.5 -45t125.5 -126.5t45 -191.5q0 -109 -45 -191t-125.5 -127.5t-187.5 -45.5zM404 143q78 0 122.5 55.5t44.5 154.5t-44 154t-123 55t-123 -55t-44 -154t44 -154.5t123 -55.5z
M233 922v97h338v-97h-338zM327 776v105h150v-105h-150z" />
    <glyph glyph-name="uni0231" unicode="&#x231;" horiz-adv-x="602" 
d="M301 -11q-82 0 -143 31t-95 89t-34 137q0 80 34 137.5t95 88.5t143 31t143 -31t94.5 -88.5t33.5 -137.5q0 -79 -33.5 -137t-94.5 -89t-143 -31zM301 120q40 0 66 30t26 96q0 67 -26 96.5t-66 29.5q-41 0 -67 -29.5t-26 -96.5q0 -66 26 -96t67 -30zM132 709v97h338v-97
h-338zM226 563v105h150v-105h-150z" />
    <glyph glyph-name="uni0232" unicode="&#x232;" horiz-adv-x="645" 
d="M230 0v312l-271 393h211l155 -229l155 229h205l-271 -393v-312h-184zM139 796v97h367v-97h-367z" />
    <glyph glyph-name="uni0233" unicode="&#x233;" horiz-adv-x="541" 
d="M82 -180l99 214l-201 458h187l108 -279l112 279h176l-301 -672h-180zM103 605v97h337v-97h-337z" />
    <glyph glyph-name="uni0237" unicode="&#x237;" horiz-adv-x="287" 
d="M-39 -193l-12 125l49 6q31 4 45 19t14 46v489h178v-464q0 -74 -21.5 -120t-72 -69t-136.5 -29z" />
    <glyph glyph-name="uni0253" unicode="&#x253;" horiz-adv-x="620" 
d="M376 -11q-49 0 -90 21.5t-61 56.5v-67h-173v495q0 100 57.5 160.5t174.5 60.5q18 0 40 -3t37 -9l-20 -130q-12 3 -20.5 4t-19.5 1q-71 0 -71 -87v-59q21 32 60.5 51t85.5 19q64 0 112.5 -31t75.5 -88.5t27 -137.5q0 -79 -27.5 -137t-76 -89t-111.5 -31zM320 120
q40 0 66 30t26 96q0 67 -26 96.5t-66 29.5q-41 0 -67 -29.5t-26 -96.5q0 -66 26 -96t67 -30z" />
    <glyph glyph-name="uni0257" unicode="&#x257;" horiz-adv-x="620" 
d="M244 -11q-63 0 -111.5 31t-76 89t-27.5 137q0 80 27.5 137.5t76 88.5t111.5 31q47 0 86.5 -19.5t60.5 -50.5v62q0 100 58 160.5t175 60.5q17 0 39.5 -3t36.5 -9l-20 -130q-11 3 -20 4t-20 1q-29 0 -50 -18.5t-21 -68.5v-492h-174v68q-19 -36 -60 -57.5t-91 -21.5z
M301 120q40 0 66 30t26 96q0 67 -26 96.5t-66 29.5q-41 0 -67 -29.5t-26 -96.5q0 -66 26 -96t67 -30z" />
    <glyph glyph-name="uni0259" unicode="&#x259;" horiz-adv-x="556" 
d="M272 -11q-116 0 -181.5 66t-65.5 189v39h332q-8 48 -38.5 69t-81.5 21q-79 0 -159 -46l-45 118q45 29 100.5 43.5t110.5 14.5q86 0 149.5 -31.5t98.5 -89.5t35 -136q0 -76 -33.5 -134t-91 -90.5t-130.5 -32.5zM262 104q39 0 64.5 23.5t32.5 70.5h-182q3 -48 25.5 -71
t59.5 -23z" />
    <glyph glyph-name="uni0292" unicode="&#x292;" horiz-adv-x="542" 
d="M238 -191q-148 0 -238 58l48 123q33 -23 77 -35.5t89 -12.5q126 0 126 86q0 85 -129 85h-90v82l172 165h-265v132h457v-118l-156 -148q88 -9 137.5 -57.5t49.5 -127.5q0 -70 -34 -122.5t-97 -81t-147 -28.5z" />
    <glyph glyph-name="uni02B9" unicode="&#x2b9;" horiz-adv-x="268" 
d="M75 398l-43 307h204l-42 -307h-119z" />
    <glyph glyph-name="uni02BA" unicode="&#x2ba;" horiz-adv-x="515" 
d="M75 398l-43 307h204l-42 -307h-119zM322 398l-43 307h204l-42 -307h-119z" />
    <glyph glyph-name="uni02BB" unicode="&#x2bb;" horiz-adv-x="500" 
d="M165 560v76q0 45 13.5 81.5t50.5 67.5l60 -41q-16 -13 -24 -27.5t-11 -29.5h80v-127h-169z" />
    <glyph glyph-name="uni02BC" unicode="&#x2bc;" horiz-adv-x="382" 
d="M211 561l-60 41q16 13 24.5 27.5t11.5 29.5h-81v127h169v-76q0 -45 -13.5 -81.5t-50.5 -67.5z" />
    <glyph glyph-name="uni02BE" unicode="&#x2be;" horiz-adv-x="500" 
d="M250 549v66q19 0 30.5 13t11.5 32q0 18 -11.5 31t-30.5 13v67q48 0 80.5 -32.5t32.5 -78.5q0 -47 -32.5 -79t-80.5 -32z" />
    <glyph glyph-name="uni02BF" unicode="&#x2bf;" horiz-adv-x="500" 
d="M250 549q-47 0 -79.5 32t-32.5 79q0 46 32.5 78.5t79.5 32.5v-67q-19 0 -30.5 -13t-11.5 -31q0 -19 11.5 -32t30.5 -13v-66z" />
    <glyph glyph-name="circumflex" unicode="&#x2c6;" horiz-adv-x="500" 
d="M65 557l111 205h148l111 -205h-108l-77 113l-77 -113h-108z" />
    <glyph glyph-name="caron" unicode="&#x2c7;" horiz-adv-x="500" 
d="M176 557l-111 205h108l77 -113l77 113h108l-111 -205h-148z" />
    <glyph glyph-name="uni02C8" unicode="&#x2c8;" horiz-adv-x="500" 
d="M197 593v206h106v-206h-106z" />
    <glyph glyph-name="uni02C9" unicode="&#x2c9;" horiz-adv-x="500" 
d="M82 605v97h337v-97h-337z" />
    <glyph glyph-name="uni02CA" unicode="&#x2ca;" horiz-adv-x="500" 
d="M193 557l101 205h167l-154 -205h-114z" />
    <glyph glyph-name="fourthtofinechinese" unicode="&#x2cb;" horiz-adv-x="500" 
d="M193 557l-154 205h167l101 -205h-114z" />
    <glyph glyph-name="uni02CC" unicode="&#x2cc;" horiz-adv-x="500" 
d="M197 -270v206h106v-206h-106z" />
    <glyph glyph-name="breve" unicode="&#x2d8;" horiz-adv-x="500" 
d="M250 553q-80 0 -129.5 53.5t-50.5 143.5l95 9q4 -51 26 -78t59 -27t59 27t26 78l95 -9q-1 -90 -50.5 -143.5t-129.5 -53.5z" />
    <glyph glyph-name="dotaccent" unicode="&#x2d9;" horiz-adv-x="500" 
d="M170 583v150h160v-150h-160z" />
    <glyph glyph-name="ring" unicode="&#x2da;" horiz-adv-x="500" 
d="M250 545q-38 0 -68.5 17t-48.5 46.5t-18 66.5t18 66.5t48.5 47t68.5 17.5t68.5 -17.5t48.5 -47t18 -66.5t-18 -66.5t-48.5 -46.5t-68.5 -17zM250 618q24 0 40.5 16t16.5 41t-16.5 41t-40.5 16t-40.5 -16t-16.5 -41t16.5 -41t40.5 -16z" />
    <glyph glyph-name="ogonek" unicode="&#x2db;" horiz-adv-x="500" 
d="M226 -198q-64 0 -99 30t-35 81q0 45 30.5 81.5t79.5 53.5l48 -48q-27 -10 -40 -28.5t-13 -37.5q0 -21 15 -33t38 -12q16 0 28.5 2.5t27.5 7.5l16 -80q-26 -10 -47.5 -13.5t-48.5 -3.5z" />
    <glyph glyph-name="tilde" unicode="&#x2dc;" horiz-adv-x="500" 
d="M121 577l-82 5q5 79 42 122t94 43q23 0 42 -7.5t42 -21.5q21 -14 34 -19t27 -5q49 0 59 59l82 -6q-4 -79 -41.5 -122t-93.5 -43q-23 0 -42.5 7.5t-44.5 23.5q-35 23 -58 23q-27 0 -41 -15.5t-19 -43.5z" />
    <glyph glyph-name="hungarumlaut" unicode="&#x2dd;" horiz-adv-x="500" 
d="M289 557l44 205h141l-94 -205h-91zM115 557l44 205h141l-94 -205h-91z" />
    <glyph glyph-name="gravecomb" unicode="&#x300;" 
d="M-57 557l-154 205h167l101 -205h-114z" />
    <glyph glyph-name="acutecomb" unicode="&#x301;" 
d="M-57 557l101 205h167l-154 -205h-114z" />
    <glyph glyph-name="uni0302" unicode="&#x302;" 
d="M-185 557l111 205h148l111 -205h-108l-77 113l-77 -113h-108z" />
    <glyph glyph-name="tildecomb" unicode="&#x303;" 
d="M-129 577l-82 5q5 79 42 122t94 43q23 0 42 -7.5t42 -21.5q21 -14 34 -19t27 -5q49 0 59 59l82 -6q-4 -79 -41.5 -122t-93.5 -43q-23 0 -42.5 7.5t-44.5 23.5q-35 23 -58 23q-27 0 -41 -15.5t-19 -43.5z" />
    <glyph glyph-name="uni0304" unicode="&#x304;" 
d="M-168 605v97h337v-97h-337z" />
    <glyph glyph-name="uni0306" unicode="&#x306;" 
d="M0 553q-80 0 -129.5 53.5t-50.5 143.5l95 9q4 -51 26 -78t59 -27t59 27t26 78l95 -9q-1 -90 -50.5 -143.5t-129.5 -53.5z" />
    <glyph glyph-name="uni0307" unicode="&#x307;" 
d="M-80 583v150h160v-150h-160z" />
    <glyph glyph-name="uni0308" unicode="&#x308;" 
d="M28 582v150h150v-150h-150zM-178 582v150h150v-150h-150z" />
    <glyph glyph-name="hookabovecomb" unicode="&#x309;" 
d="M-51 557v22q0 24 12 38.5t24.5 26t12.5 26.5q0 22 -33 22q-29 0 -57 -15l-26 68q49 26 126 26q56 0 87 -19.5t31 -55.5q0 -27 -11 -42.5t-26 -26.5t-26.5 -23t-11.5 -31v-16h-102z" />
    <glyph glyph-name="uni030A" unicode="&#x30a;" 
d="M0 545q-38 0 -68.5 17t-48.5 46.5t-18 66.5t18 66.5t48.5 47t68.5 17.5t68.5 -17.5t48.5 -47t18 -66.5t-18 -66.5t-48.5 -46.5t-68.5 -17zM0 618q24 0 40.5 16t16.5 41t-16.5 41t-40.5 16t-40.5 -16t-16.5 -41t16.5 -41t40.5 -16z" />
    <glyph glyph-name="uni030B" unicode="&#x30b;" 
d="M39 557l44 205h141l-94 -205h-91zM-135 557l44 205h141l-94 -205h-91z" />
    <glyph glyph-name="uni030C" unicode="&#x30c;" 
d="M-74 557l-111 205h108l77 -113l77 113h108l-111 -205h-148z" />
    <glyph glyph-name="uni030F" unicode="&#x30f;" 
d="M44 557l-94 205h141l44 -205h-91zM-129 557l-95 205h141l45 -205h-91z" />
    <glyph glyph-name="uni0311" unicode="&#x311;" 
d="M-85 553l-95 8q1 90 50.5 144t129.5 54t129.5 -54t50.5 -144l-95 -8q-4 50 -26 77t-59 27t-59 -27t-26 -77z" />
    <glyph glyph-name="uni0312" unicode="&#x312;" 
d="M-85 560v75q0 47 14 83.5t50 67.5l61 -41q-17 -14 -25.5 -28.5t-11.5 -30.5h81v-126h-169z" />
    <glyph glyph-name="uni031B" unicode="&#x31b;" 
d="M107 412l-107 65v15q27 0 45.5 7t28.5 28t10 62v27h152v-48q0 -61 -36 -104.5t-93 -51.5z" />
    <glyph glyph-name="dotbelowcomb" unicode="&#x323;" 
d="M-80 -224v149h160v-149h-160z" />
    <glyph glyph-name="uni0324" unicode="&#x324;" 
d="M28 -206v150h150v-150h-150zM-178 -206v150h150v-150h-150z" />
    <glyph glyph-name="uni0326" unicode="&#x326;" 
d="M20 -290l-60 40q16 14 24.5 29t11.5 31h-81v125h169v-75q0 -46 -14 -83t-50 -67z" />
    <glyph glyph-name="uni0327" unicode="&#x327;" 
d="M-2 -198q-33 0 -64 5.5t-54 17.5l24 70q38 -17 75 -17q49 0 49 21q0 18 -36 18q-16 0 -35 -4l-21 21l12 86h85l-8 -51h1q47 0 73 -20t26 -56q0 -42 -35.5 -66.5t-91.5 -24.5z" />
    <glyph glyph-name="uni0328" unicode="&#x328;" 
d="M-24 -198q-64 0 -99 30t-35 81q0 45 30.5 81.5t79.5 53.5l48 -48q-27 -10 -40 -28.5t-13 -37.5q0 -21 15 -33t38 -12q16 0 28.5 2.5t27.5 7.5l16 -80q-26 -10 -47.5 -13.5t-48.5 -3.5z" />
    <glyph glyph-name="uni032E" unicode="&#x32e;" 
d="M0 -215q-80 0 -129.5 43t-50.5 114l95 9q4 -31 26 -49t59 -18t59 18t26 49l95 -9q-1 -71 -50.5 -114t-129.5 -43z" />
    <glyph glyph-name="uni0331" unicode="&#x331;" 
d="M-168 -175v97h337v-97h-337z" />
    <glyph glyph-name="uni0335" unicode="&#x335;" 
d="M-222 537v121h444v-121h-444z" />
    <glyph glyph-name="uni0337" unicode="&#x337;" 
d="M-142 198l-66 117l351 204l66 -118z" />
    <glyph glyph-name="uni0338" unicode="&#x338;" 
d="M-131 -69l-81 48l343 584l81 -49z" />
    <glyph glyph-name="uni0394" unicode="&#x394;" horiz-adv-x="763" 
d="M34 0v99l275 606h145l275 -606v-99h-695zM380 514l-157 -372h317l-158 372h-2z" />
    <glyph glyph-name="Sigma" unicode="&#x3a3;" horiz-adv-x="600" 
d="M22 -180v128l246 315l-246 314v128h556v-149h-331l194 -248v-91l-194 -248h331v-149h-556z" />
    <glyph glyph-name="uni03A9" unicode="&#x3a9;" horiz-adv-x="824" 
d="M32 0v147h148q-74 48 -105.5 113.5t-31.5 148.5q0 95 48.5 163.5t132 106t188.5 37.5t188.5 -37.5t132 -106t48.5 -163.5q0 -83 -31.5 -148.5t-105.5 -113.5h148v-147h-331v143q129 97 129 238q0 87 -48 134t-130 47q-81 0 -129.5 -47t-48.5 -134q0 -141 129 -238v-143
h-331z" />
    <glyph glyph-name="uni03BC" unicode="&#x3bc;" horiz-adv-x="601" 
d="M49 -180v672h178v-295q0 -72 62 -72q36 0 59 26t23 69v272h178v-492h-174v90h-1q-7 -49 -33.5 -75t-56.5 -26q-26 0 -42.5 10t-28.5 32v0l14 -211h-178z" />
    <glyph glyph-name="pi" unicode="&#x3c0;" horiz-adv-x="656" 
d="M564 -11q-115 0 -166.5 60t-51.5 165v147h-73q-1 -108 -14.5 -192t-43.5 -169h-181q22 78 35 139t19.5 114.5t8.5 107.5h-94v131h619v-131h-98v-129q0 -53 19.5 -76t66.5 -23q9 0 18.5 0.5t19.5 2.5l-7 -141q-46 -6 -77 -6z" />
    <glyph glyph-name="uni0400" unicode="&#x400;" horiz-adv-x="614" 
d="M64 0v705h498v-142h-322v-134h299v-142h-299v-145h322v-142h-498zM272 765l-174 176h178l118 -176h-122z" />
    <glyph glyph-name="uni0401" unicode="&#x401;" horiz-adv-x="614" 
d="M64 0v705h498v-142h-322v-134h299v-142h-299v-145h322v-142h-498zM361 771v149h150v-149h-150zM155 771v149h150v-149h-150z" />
    <glyph glyph-name="uni0402" unicode="&#x402;" horiz-adv-x="904" 
d="M604 -191q-37 0 -70.5 5.5t-60.5 15.5l28 132q18 -5 38.5 -8t41.5 -3q43 0 68 29.5t25 82.5v77q0 84 -42.5 120t-113.5 36q-26 0 -54 -5t-50 -15v-276h-184v555h-224v150h632v-150h-224v-125q21 8 56 14t71 6q150 0 233.5 -74.5t83.5 -229.5v-75q0 -84 -32.5 -142.5
t-89.5 -89t-132 -30.5z" />
    <glyph glyph-name="uni0403" unicode="&#x403;" horiz-adv-x="579" 
d="M64 0v705h498v-150h-314v-555h-184zM222 765l118 176h178l-174 -176h-122z" />
    <glyph glyph-name="uni0404" unicode="&#x404;" horiz-adv-x="687" 
d="M420 -11q-117 0 -201 45t-128.5 127t-44.5 192t44.5 191.5t128.5 126.5t201 45q70 0 135 -21.5t105 -56.5l-55 -145q-44 32 -88 47.5t-90 15.5q-71 0 -117.5 -32t-63.5 -94h273v-142h-276q16 -72 64 -105.5t120 -33.5q46 0 90 15.5t88 47.5l55 -145q-40 -35 -105 -56.5
t-135 -21.5z" />
    <glyph glyph-name="uni0405" unicode="&#x405;" horiz-adv-x="651" 
d="M326 -11q-83 0 -159 20.5t-125 54.5l51 143q46 -31 108 -49t125 -18q66 0 92.5 17.5t26.5 43.5q0 23 -18.5 37t-65.5 24l-117 25q-190 41 -190 199q0 69 37.5 121t104.5 80.5t156 28.5q73 0 138.5 -20.5t106.5 -55.5l-51 -134q-38 28 -88 43.5t-108 15.5q-56 0 -86 -19.5
t-30 -50.5q0 -22 18 -36t64 -24l116 -25q193 -41 193 -194q0 -69 -37 -120t-104 -79t-158 -28z" />
    <glyph glyph-name="uni0406" unicode="&#x406;" horiz-adv-x="312" 
d="M64 0v705h184v-705h-184z" />
    <glyph glyph-name="uni0407" unicode="&#x407;" horiz-adv-x="312" 
d="M64 0v705h184v-705h-184zM184 771v149h150v-149h-150zM-22 771v149h150v-149h-150z" />
    <glyph glyph-name="uni0408" unicode="&#x408;" horiz-adv-x="391" 
d="M2 -11l-11 147l82 5q37 2 53.5 17.5t16.5 51.5v495h184v-492q0 -206 -223 -219z" />
    <glyph glyph-name="uni0409" unicode="&#x409;" horiz-adv-x="1137" 
d="M103 -19l-93 131q55 32 89 78.5t50 118t16 179.5v217h532v-274h166q115 0 181.5 -56t66.5 -159q0 -104 -66.5 -160t-181.5 -56h-350v555h-180v-115q0 -182 -61.5 -294t-168.5 -165zM697 139h141q51 0 74.5 19t23.5 58q0 38 -23.5 57t-74.5 19h-141v-153z" />
    <glyph glyph-name="uni040A" unicode="&#x40a;" horiz-adv-x="1163" 
d="M64 0v705h184v-272h291v272h183v-274h166q115 0 181.5 -56t66.5 -159q0 -104 -66.5 -160t-181.5 -56h-349v282h-291v-282h-184zM722 139h141q52 0 75 19t23 58q0 38 -23 57t-75 19h-141v-153z" />
    <glyph glyph-name="uni040B" unicode="&#x40b;" horiz-adv-x="887" 
d="M230 0v555h-224v150h632v-150h-224v-125q22 8 58 14t71 6q143 0 220.5 -74.5t77.5 -229.5v-146h-184v140q0 84 -36.5 120t-100.5 36q-26 0 -54 -4.5t-52 -15.5v-276h-184z" />
    <glyph glyph-name="uni040C" unicode="&#x40c;" horiz-adv-x="716" 
d="M64 0v705h184v-282h70l168 282h199l-202 -319q68 -38 112 -128l125 -258h-198l-90 198q-19 41 -47 58t-72 17h-65v-273h-184zM293 765l118 176h178l-174 -176h-122z" />
    <glyph glyph-name="uni040D" unicode="&#x40d;" horiz-adv-x="758" 
d="M64 0v705h171v-408l323 408h135v-705h-170v409l-324 -409h-135zM318 765l-174 176h178l118 -176h-122z" />
    <glyph glyph-name="uni040E" unicode="&#x40e;" horiz-adv-x="681" 
d="M161 0l108 215l-298 490h194l190 -322l162 322h188l-356 -705h-188zM343 760q-65 0 -109 20.5t-68.5 54.5t-31.5 75l84 27q18 -46 47.5 -66t79.5 -20q51 0 80.5 22.5t43.5 62.5l81 -26q-15 -67 -68.5 -108.5t-138.5 -41.5z" />
    <glyph glyph-name="uni040F" unicode="&#x40f;" horiz-adv-x="779" 
d="M310 -175v175h-246v705h184v-555h283v555h184v-705h-246v-175h-159z" />
    <glyph glyph-name="uni0410" unicode="&#x410;" horiz-adv-x="763" 
d="M-21 0l330 705h145l330 -705h-184l-61 143h-315l-61 -143h-184zM380 513l-96 -229h194l-96 229h-2z" />
    <glyph glyph-name="uni0411" unicode="&#x411;" horiz-adv-x="688" 
d="M64 0v705h525v-142h-349v-132h174q115 0 181.5 -56t66.5 -159q0 -104 -66.5 -160t-181.5 -56h-350zM240 139h149q51 0 74.5 19t23.5 58q0 38 -23.5 57t-74.5 19h-149v-153z" />
    <glyph glyph-name="uni0412" unicode="&#x412;" horiz-adv-x="702" 
d="M64 0v705h340q114 0 176.5 -49.5t62.5 -132.5q0 -55 -27.5 -96t-76.5 -61q59 -18 91 -60.5t32 -105.5q0 -93 -66.5 -146.5t-181.5 -53.5h-350zM240 425h131q50 0 73.5 18t23.5 55t-23.5 54.5t-73.5 17.5h-131v-145zM240 135h149q51 0 74.5 19.5t23.5 58.5t-23.5 58
t-74.5 19h-149v-155z" />
    <glyph glyph-name="uni0413" unicode="&#x413;" horiz-adv-x="579" 
d="M64 0v705h498v-150h-314v-555h-184z" />
    <glyph glyph-name="uni0414" unicode="&#x414;" horiz-adv-x="824" 
d="M11 -175v317h71q84 106 84 376v187h536v-563h100v-317h-159v175h-473v-175h-159zM264 142h254v421h-183v-65q0 -123 -18 -211t-53 -145z" />
    <glyph glyph-name="uni0415" unicode="&#x415;" horiz-adv-x="614" 
d="M64 0v705h498v-142h-322v-134h299v-142h-299v-145h322v-142h-498z" />
    <glyph glyph-name="uni0416" unicode="&#x416;" horiz-adv-x="1069" 
d="M-4 0l126 258q44 90 111 128l-202 319h200l168 -282h48v282h176v-282h48l168 282h199l-202 -319q68 -38 112 -128l125 -258h-198l-90 198q-19 41 -46.5 58t-72.5 17h-43v-273h-176v273h-44q-45 0 -72 -17.5t-46 -57.5l-91 -198h-198z" />
    <glyph glyph-name="uni0417" unicode="&#x417;" horiz-adv-x="628" 
d="M294 -11q-87 0 -154 20t-121 57l51 135q39 -29 92 -45t115 -16q68 0 100 19.5t32 60.5q0 34 -23.5 50.5t-74.5 16.5h-170v141h151q51 0 74 16t23 50q0 31 -25.5 51t-83.5 20q-54 0 -106 -15.5t-90 -44.5l-52 135q48 35 118 55.5t153 20.5q134 0 200 -55t66 -138
q0 -55 -27.5 -96t-76.5 -61q59 -18 90.5 -60.5t31.5 -105.5q0 -93 -72 -152t-221 -59z" />
    <glyph glyph-name="uni0418" unicode="&#x418;" horiz-adv-x="758" 
d="M64 0v705h171v-408l323 408h135v-705h-170v409l-324 -409h-135z" />
    <glyph glyph-name="uni0419" unicode="&#x419;" horiz-adv-x="758" 
d="M64 0v705h171v-408l323 408h135v-705h-170v409l-324 -409h-135zM377 760q-65 0 -109 20.5t-68.5 54.5t-31.5 75l84 27q18 -46 47.5 -66t79.5 -20q51 0 80.5 22.5t43.5 62.5l81 -26q-15 -67 -68.5 -108.5t-138.5 -41.5z" />
    <glyph glyph-name="uni041A" unicode="&#x41a;" horiz-adv-x="716" 
d="M64 0v705h184v-282h70l168 282h199l-202 -319q68 -38 112 -128l125 -258h-198l-90 198q-19 41 -47 58t-72 17h-65v-273h-184z" />
    <glyph glyph-name="uni041B" unicode="&#x41b;" horiz-adv-x="765" 
d="M103 -19l-93 131q55 32 89 78.5t50 118t16 179.5v217h536v-705h-184v555h-184v-115q0 -182 -61.5 -294t-168.5 -165z" />
    <glyph glyph-name="uni041C" unicode="&#x41c;" horiz-adv-x="884" 
d="M66 0v705h153l225 -404l225 404h149v-705h-166v383l-161 -279h-100l-159 275v-379h-166z" />
    <glyph glyph-name="uni041D" unicode="&#x41d;" horiz-adv-x="786" 
d="M64 0v705h184v-272h291v272h183v-705h-183v282h-291v-282h-184z" />
    <glyph glyph-name="uni041E" unicode="&#x41e;" horiz-adv-x="807" 
d="M404 -11q-107 0 -187.5 45.5t-125.5 127.5t-45 191q0 110 44.5 191.5t125.5 126.5t188 45t187.5 -45t125.5 -126.5t45 -191.5q0 -109 -45 -191t-125.5 -127.5t-187.5 -45.5zM404 143q78 0 122.5 55.5t44.5 154.5t-44 154t-123 55t-123 -55t-44 -154t44 -154.5t123 -55.5z
" />
    <glyph glyph-name="uni041F" unicode="&#x41f;" horiz-adv-x="779" 
d="M64 0v705h651v-705h-184v555h-283v-555h-184z" />
    <glyph glyph-name="uni0420" unicode="&#x420;" horiz-adv-x="676" 
d="M64 0v705h339q120 0 185.5 -61.5t65.5 -169.5t-65.5 -169.5t-185.5 -61.5h-155v-243h-184zM248 384h123q108 0 108 90t-108 90h-123v-180z" />
    <glyph glyph-name="uni0421" unicode="&#x421;" horiz-adv-x="687" 
d="M420 -11q-117 0 -201 45t-128.5 127t-44.5 192t44.5 191.5t128.5 126.5t201 45q70 0 135 -21.5t105 -56.5l-55 -145q-44 32 -88 47.5t-90 15.5q-93 0 -140 -52.5t-47 -150.5q0 -99 47 -151.5t140 -52.5q46 0 90 15.5t88 47.5l55 -145q-40 -35 -105 -56.5t-135 -21.5z" />
    <glyph glyph-name="uni0422" unicode="&#x422;" horiz-adv-x="644" 
d="M230 0v555h-224v150h632v-150h-224v-555h-184z" />
    <glyph glyph-name="uni0423" unicode="&#x423;" horiz-adv-x="681" 
d="M161 0l108 215l-298 490h194l190 -322l162 322h188l-356 -705h-188z" />
    <glyph glyph-name="uni0424" unicode="&#x424;" horiz-adv-x="932" 
d="M374 -28v82q-153 4 -240.5 81.5t-87.5 222.5q0 146 86.5 223t241.5 81v76h184v-76q156 -4 242.5 -81t86.5 -223q0 -145 -88 -222.5t-241 -81.5v-82h-184zM375 189h1v338h-1q-60 0 -101.5 -39.5t-41.5 -129.5q0 -59 19.5 -96.5t52.5 -55t71 -17.5zM701 358q0 90 -42 129.5
t-102 39.5v-338q39 0 71.5 17.5t52.5 55t20 96.5z" />
    <glyph glyph-name="uni0425" unicode="&#x425;" horiz-adv-x="698" 
d="M-25 0l270 356l-264 349h213l155 -216l155 216h214l-264 -349l269 -356h-214l-160 222l-160 -222h-214z" />
    <glyph glyph-name="uni0426" unicode="&#x426;" horiz-adv-x="837" 
d="M656 -175v175h-592v705h184v-555h283v555h184v-555h100v-325h-159z" />
    <glyph glyph-name="uni0427" unicode="&#x427;" horiz-adv-x="721" 
d="M473 0v248q-22 -9 -57.5 -15t-71.5 -6q-142 0 -219.5 75t-77.5 229v174h183v-168q0 -84 34.5 -120t102.5 -36q26 0 54.5 5t51.5 15v304h184v-705h-184z" />
    <glyph glyph-name="uni0428" unicode="&#x428;" horiz-adv-x="1090" 
d="M64 0v705h181v-555h210v555h180v-555h210v555h181v-705h-962z" />
    <glyph glyph-name="uni0429" unicode="&#x429;" horiz-adv-x="1148" 
d="M966 -175v175h-902v705h181v-555h210v555h180v-555h210v555h181v-555h100v-325h-160z" />
    <glyph glyph-name="uni042A" unicode="&#x42a;" horiz-adv-x="826" 
d="M202 0v555h-196v150h380v-274h165q116 0 182 -56t66 -159q0 -104 -66 -160t-182 -56h-349zM386 139h141q51 0 74.5 19t23.5 58q0 38 -23.5 57t-74.5 19h-141v-153z" />
    <glyph glyph-name="uni042B" unicode="&#x42b;" horiz-adv-x="957" 
d="M64 0v705h184v-274h136q115 0 181.5 -56t66.5 -159q0 -104 -66.5 -160t-181.5 -56h-320zM709 0v705h183v-705h-183zM248 139h111q51 0 74.5 19t23.5 58q0 38 -23.5 57t-74.5 19h-111v-153z" />
    <glyph glyph-name="uni042C" unicode="&#x42c;" horiz-adv-x="688" 
d="M64 0v705h184v-274h166q115 0 181.5 -56t66.5 -159q0 -104 -66.5 -160t-181.5 -56h-350zM248 139h141q51 0 74.5 19t23.5 58q0 38 -23.5 57t-74.5 19h-141v-153z" />
    <glyph glyph-name="uni042D" unicode="&#x42d;" horiz-adv-x="687" 
d="M267 -11q-70 0 -135 21.5t-105 56.5l55 145q44 -32 88 -47.5t90 -15.5q72 0 120 33.5t64 105.5h-276v142h273q-16 62 -61 94t-110 32q-46 0 -91 -14t-97 -49l-55 145q48 35 114 56.5t136 21.5q112 0 194 -45t126.5 -126.5t44.5 -191.5t-45 -192t-129 -127t-201 -45z" />
    <glyph glyph-name="uni042E" unicode="&#x42e;" horiz-adv-x="1087" 
d="M692 -11q-92 0 -164 36t-117.5 101.5t-59.5 155.5h-103v-282h-184v705h184v-273h104q15 87 61 151t117 98.5t162 34.5q106 0 184.5 -45t122 -126.5t43.5 -191.5t-44 -192t-122.5 -127t-183.5 -45zM693 143q74 0 116 55.5t42 154.5t-41.5 154t-116.5 55t-116.5 -55
t-41.5 -154t42 -154.5t116 -55.5z" />
    <glyph glyph-name="uni042F" unicode="&#x42f;" horiz-adv-x="710" 
d="M20 0l109 200q33 59 86 76q-77 20 -118 74t-41 134q0 104 65.5 162.5t184.5 58.5h340v-705h-184v263h-45q-24 0 -42.5 -9t-30.5 -30l-123 -224h-201zM340 393h122v171h-122q-109 0 -109 -85q0 -86 109 -86z" />
    <glyph glyph-name="uni0430" unicode="&#x430;" horiz-adv-x="586" 
d="M232 -11q-57 0 -100.5 21t-68 57.5t-24.5 83.5q0 53 28 84.5t90 45t165 13.5h38v14q0 36 -18.5 51t-63.5 15q-38 0 -84 -12t-90 -37l-45 117q25 18 64 32t82 21.5t81 7.5q123 0 182.5 -53t59.5 -167v-283h-166v70q-13 -38 -47 -59.5t-83 -21.5zM272 105q37 0 62.5 24
t25.5 63v18h-38q-59 0 -86.5 -12.5t-27.5 -39.5q0 -23 16.5 -38t47.5 -15z" />
    <glyph glyph-name="uni0431" unicode="&#x431;" horiz-adv-x="619" 
d="M317 -11q-129 0 -204 73t-75 220v69q0 152 75 232t220 109l169 35l49 -138l-204 -41q-69 -13 -105.5 -52t-36.5 -104v-7q21 41 62.5 67t105.5 26q58 0 105.5 -28.5t75 -81t27.5 -126.5q0 -78 -33 -134.5t-92.5 -87.5t-138.5 -31zM310 120q92 0 92 113q0 56 -24 85t-68 29
q-45 0 -69 -29t-24 -83q0 -115 93 -115z" />
    <glyph glyph-name="uni0432" unicode="&#x432;" horiz-adv-x="594" 
d="M60 0v492h296q105 0 147.5 -35t42.5 -93q0 -37 -20 -64.5t-56 -41.5q50 -13 72.5 -43.5t22.5 -74.5q0 -64 -51 -102t-150 -38h-304zM223 303h111q25 0 39 11.5t14 32.5q0 43 -53 43h-111v-87zM223 103h120q63 0 63 49q0 48 -63 48h-120v-97z" />
    <glyph glyph-name="uni0433" unicode="&#x433;" horiz-adv-x="484" 
d="M60 0v492h405v-137h-227v-355h-178z" />
    <glyph glyph-name="uni0434" unicode="&#x434;" horiz-adv-x="649" 
d="M25 -130v264h62q22 40 31.5 91t9.5 134v133h425v-358h83v-264h-150v130h-311v-130h-150zM242 133h145v225h-110v-47q0 -48 -9 -96t-26 -82z" />
    <glyph glyph-name="uni0435" unicode="&#x435;" horiz-adv-x="573" 
d="M329 -11q-90 0 -155.5 31.5t-100.5 89.5t-35 137q0 75 33.5 133t92 90.5t133.5 32.5q74 0 128.5 -31t84 -88.5t29.5 -134.5v-39h-331q9 -48 40 -69t86 -21q38 0 79.5 11.5t73.5 33.5l44 -117q-38 -27 -93 -43t-109 -16zM305 388q-40 0 -65.5 -24t-32.5 -70h186
q-3 47 -25.5 70.5t-62.5 23.5z" />
    <glyph glyph-name="uni0436" unicode="&#x436;" horiz-adv-x="878" 
d="M-13 0l106 199q12 22 28 41t36 32l-152 220h188l121 -174h36v174h178v-174h37l120 174h188l-151 -220q19 -13 35.5 -32t28.5 -41l105 -199h-189l-75 140q-13 24 -27.5 33t-36.5 9h-35v-182h-178v182h-34q-22 0 -36.5 -9t-27.5 -33l-75 -140h-190z" />
    <glyph glyph-name="uni0437" unicode="&#x437;" horiz-adv-x="546" 
d="M265 -11q-70 0 -132 13.5t-107 40.5l41 110q36 -20 89.5 -31.5t103.5 -11.5t74 9t24 32q0 18 -13 27.5t-44 9.5h-148v120h134q52 0 52 33q0 19 -20 29t-77 10q-50 0 -92 -10.5t-76 -26.5l-41 108q41 24 104 38t140 14q106 0 163.5 -36.5t57.5 -102.5q0 -37 -20 -64.5
t-55 -41.5q94 -24 94 -118q0 -70 -66.5 -110.5t-185.5 -40.5z" />
    <glyph glyph-name="uni0438" unicode="&#x438;" horiz-adv-x="628" 
d="M60 0v492h160v-266l202 266h146v-492h-160v267l-202 -267h-146z" />
    <glyph glyph-name="uni0439" unicode="&#x439;" horiz-adv-x="628" 
d="M60 0v492h160v-266l202 266h146v-492h-160v267l-202 -267h-146zM312 553q-60 0 -101.5 20.5t-64.5 54.5t-29 74l83 27q16 -45 42.5 -65t71.5 -20t71.5 22t39.5 62l80 -26q-14 -66 -64 -107.5t-129 -41.5z" />
    <glyph glyph-name="uni043A" unicode="&#x43a;" horiz-adv-x="599" 
d="M60 0v492h178v-174h48l120 174h188l-151 -221q20 -13 35.5 -31.5t27.5 -40.5l106 -199h-189l-75 140q-14 24 -28 33t-36 9h-46v-182h-178z" />
    <glyph glyph-name="uni043B" unicode="&#x43b;" horiz-adv-x="624" 
d="M64 -17l-50 141q57 12 82 55.5t25 129.5v183h443v-492h-178v356h-103v-53q0 -142 -53.5 -224t-165.5 -96z" />
    <glyph glyph-name="uni043C" unicode="&#x43c;" horiz-adv-x="716" 
d="M60 0v492h146l153 -245l152 245h145v-492h-156v245l-102 -164h-80l-102 164v-245h-156z" />
    <glyph glyph-name="uni043D" unicode="&#x43d;" horiz-adv-x="633" 
d="M60 0v492h178v-173h157v173h178v-492h-178v182h-157v-182h-178z" />
    <glyph glyph-name="uni043E" unicode="&#x43e;" horiz-adv-x="619" 
d="M310 -11q-82 0 -143 31t-95 89t-34 137q0 80 34 137.5t95 88.5t143 31t143 -31t94.5 -88.5t33.5 -137.5q0 -79 -33.5 -137t-94.5 -89t-143 -31zM310 120q40 0 66 30t26 96q0 67 -26 96.5t-66 29.5q-41 0 -67 -29.5t-26 -96.5q0 -66 26 -96t67 -30z" />
    <glyph glyph-name="uni043F" unicode="&#x43f;" horiz-adv-x="630" 
d="M60 0v492h510v-492h-178v356h-154v-356h-178z" />
    <glyph glyph-name="uni0440" unicode="&#x440;" horiz-adv-x="638" 
d="M61 -180v672h173v-67q20 36 61 57t90 21q63 0 111.5 -31t76 -88.5t27.5 -137.5q0 -79 -27 -137t-75.5 -89t-112.5 -31q-46 0 -85.5 19t-60.5 51v-239h-178zM329 120q40 0 66 30t26 96q0 67 -26 96.5t-66 29.5q-41 0 -67 -29.5t-26 -96.5q0 -66 26 -96t67 -30z" />
    <glyph glyph-name="uni0441" unicode="&#x441;" horiz-adv-x="502" 
d="M312 -11q-83 0 -144.5 31t-95.5 89t-34 138t34 137.5t95.5 88t144.5 30.5q49 0 97.5 -13.5t79.5 -37.5l-47 -122q-23 18 -53.5 28.5t-57.5 10.5q-53 0 -82 -32t-29 -90q0 -59 29 -91.5t82 -32.5q27 0 57.5 10.5t53.5 28.5l47 -122q-31 -24 -80 -37.5t-97 -13.5z" />
    <glyph glyph-name="uni0442" unicode="&#x442;" horiz-adv-x="508" 
d="M165 0v353h-156v139h491v-139h-157v-353h-178z" />
    <glyph glyph-name="uni0443" unicode="&#x443;" horiz-adv-x="559" 
d="M91 -180l99 214l-201 458h187l108 -279l112 279h176l-301 -672h-180z" />
    <glyph glyph-name="uni0444" unicode="&#x444;" horiz-adv-x="890" 
d="M356 -180v234q-19 -32 -52 -48.5t-75 -16.5q-55 0 -98 31.5t-68 89.5t-25 136q0 79 25 137t68 89t98 31q88 0 127 -64v266h178v-265q40 63 127 63q55 0 98.5 -31t68 -89t24.5 -137q0 -78 -24.5 -136t-67.5 -89.5t-99 -31.5q-41 0 -74 16.5t-53 48.5v-234h-178zM288 118
q31 0 51 30.5t20 98.5t-20.5 97.5t-50.5 29.5q-31 0 -51.5 -29.5t-20.5 -97.5t20 -98.5t52 -30.5zM602 118q32 0 52 30.5t20 98.5t-20 97.5t-52 29.5q-31 0 -50.5 -29.5t-19.5 -97.5t19.5 -98.5t50.5 -30.5z" />
    <glyph glyph-name="uni0445" unicode="&#x445;" horiz-adv-x="590" 
d="M-14 0l209 254l-196 238h207l90 -116l90 116h206l-196 -238l211 -254h-208l-104 131l-103 -131h-206z" />
    <glyph glyph-name="uni0446" unicode="&#x446;" horiz-adv-x="654" 
d="M490 -130v130h-430v492h178v-356h141v356h178v-356h83v-266h-150z" />
    <glyph glyph-name="uni0447" unicode="&#x447;" horiz-adv-x="600" 
d="M366 0v153q-26 -9 -50 -13t-47 -4q-229 0 -229 225v131h178v-115q0 -53 19.5 -76t68.5 -23q16 0 30.5 3t25.5 9v202h178v-492h-174z" />
    <glyph glyph-name="uni0448" unicode="&#x448;" horiz-adv-x="871" 
d="M60 0v492h166v-356h127v356h165v-356h127v356h166v-492h-751z" />
    <glyph glyph-name="uni0449" unicode="&#x449;" horiz-adv-x="907" 
d="M744 -130v130h-684v492h166v-356h127v356h165v-356h127v356h166v-356h83v-266h-150z" />
    <glyph glyph-name="uni044A" unicode="&#x44a;" horiz-adv-x="657" 
d="M144 0v353h-135v139h313v-148h107q205 0 205 -168q0 -52 -26 -91.5t-72 -62t-107 -22.5h-285zM322 112h74q35 0 55.5 15.5t20.5 46.5q0 58 -76 58h-74v-120z" />
    <glyph glyph-name="uni044B" unicode="&#x44b;" horiz-adv-x="831" 
d="M60 0v492h178v-148h107q205 0 205 -168q0 -52 -26 -91.5t-72 -62t-107 -22.5h-285zM593 0v492h178v-492h-178zM238 112h74q35 0 55.5 15.5t20.5 46.5q0 58 -76 58h-74v-120z" />
    <glyph glyph-name="uni044C" unicode="&#x44c;" horiz-adv-x="573" 
d="M60 0v492h178v-148h107q205 0 205 -168q0 -52 -26 -91.5t-72 -62t-107 -22.5h-285zM238 112h74q35 0 55.5 15.5t20.5 46.5q0 58 -76 58h-74v-120z" />
    <glyph glyph-name="uni044D" unicode="&#x44d;" horiz-adv-x="534" 
d="M212 -11q-57 0 -110.5 14t-87.5 42l46 108q29 -20 66 -31.5t71 -11.5q47 0 81 19.5t49 60.5h-208v117h207q-30 76 -129 76q-74 0 -137 -43l-46 108q36 27 90 41t109 14q86 0 149.5 -30.5t98.5 -88t35 -137.5t-35 -138t-98.5 -89t-150.5 -31z" />
    <glyph glyph-name="uni044E" unicode="&#x44e;" horiz-adv-x="873" 
d="M563 -11q-105 0 -174.5 51.5t-88.5 141.5h-66v-182h-174v492h174v-173h67q21 87 90 135.5t172 48.5q82 0 143 -31t95 -88.5t34 -137.5q0 -79 -34 -137t-95 -89t-143 -31zM563 120q41 0 67 30t26 96q0 67 -26 96.5t-67 29.5t-67 -29.5t-26 -96.5q0 -66 26 -96t67 -30z" />
    <glyph glyph-name="uni044F" unicode="&#x44f;" horiz-adv-x="587" 
d="M16 0l69 121q28 49 74 67q-119 25 -119 145q0 75 52 117t150 42h285v-492h-163v149h-30q-17 0 -32 -11t-26 -29l-61 -109h-199zM281 261h83v119h-83q-37 0 -56 -15.5t-19 -43.5t19 -44t56 -16z" />
    <glyph glyph-name="uni0450" unicode="&#x450;" horiz-adv-x="573" 
d="M329 -11q-90 0 -155.5 31.5t-100.5 89.5t-35 137q0 75 33.5 133t92 90.5t133.5 32.5q74 0 128.5 -31t84 -88.5t29.5 -134.5v-39h-331q9 -48 40 -69t86 -21q38 0 79.5 11.5t73.5 33.5l44 -117q-38 -27 -93 -43t-109 -16zM305 388q-40 0 -65.5 -24t-32.5 -70h186
q-3 47 -25.5 70.5t-62.5 23.5zM242 557l-154 205h167l101 -205h-114z" />
    <glyph glyph-name="uni0451" unicode="&#x451;" horiz-adv-x="573" 
d="M329 -11q-90 0 -155.5 31.5t-100.5 89.5t-35 137q0 75 33.5 133t92 90.5t133.5 32.5q74 0 128.5 -31t84 -88.5t29.5 -134.5v-39h-331q9 -48 40 -69t86 -21q38 0 79.5 11.5t73.5 33.5l44 -117q-38 -27 -93 -43t-109 -16zM305 388q-40 0 -65.5 -24t-32.5 -70h186
q-3 47 -25.5 70.5t-62.5 23.5zM327 582v150h150v-150h-150zM121 582v150h150v-150h-150z" />
    <glyph glyph-name="uni0452" unicode="&#x452;" horiz-adv-x="627" 
d="M354 -188l-57 127q38 12 58 27t28 39t8 62v204q0 45 -13 64t-50 19q-40 0 -64.5 -25.5t-24.5 -68.5v-260h-178v532h-83v121h83v52h178v-52h183v-121h-183v-114q56 73 155 73q88 0 131.5 -52.5t43.5 -160.5v-211q0 -60 -18.5 -108.5t-65 -85.5t-131.5 -61z" />
    <glyph glyph-name="uni0453" unicode="&#x453;" horiz-adv-x="484" 
d="M60 0v492h405v-137h-227v-355h-178zM187 557l101 205h167l-154 -205h-114z" />
    <glyph glyph-name="uni0454" unicode="&#x454;" horiz-adv-x="535" 
d="M322 -11q-86 0 -150 31t-99 89t-35 138t35.5 137.5t101 88t156.5 30.5q54 0 106 -14t84 -41l-46 -108q-64 43 -137 43q-100 0 -130 -76h208v-117h-208q14 -41 48 -60.5t82 -19.5q33 0 70.5 11.5t66.5 31.5l46 -108q-34 -28 -87.5 -42t-111.5 -14z" />
    <glyph glyph-name="uni0455" unicode="&#x455;" horiz-adv-x="514" 
d="M257 -11q-68 0 -125.5 14t-97.5 39l41 115q37 -21 86 -34.5t97 -13.5q37 0 53 10.5t16 27.5q0 15 -10.5 22.5t-29.5 11.5l-111 18q-62 10 -96 45t-34 91q0 52 29 89.5t81 58t119 20.5q53 0 105 -12.5t91 -40.5l-44 -113q-29 20 -72 33.5t-77 13.5q-41 0 -58 -11.5
t-17 -27.5q0 -27 37 -33l111 -19q64 -10 98.5 -43.5t34.5 -90.5q0 -81 -62 -125.5t-165 -44.5z" />
    <glyph glyph-name="uni0456" unicode="&#x456;" horiz-adv-x="299" 
d="M56 577v161h187v-161h-187zM61 0v492h178v-492h-178z" />
    <glyph glyph-name="uni0457" unicode="&#x457;" horiz-adv-x="299" 
d="M61 0v492h178v-492h-178zM177 582v150h150v-150h-150zM-29 582v150h150v-150h-150z" />
    <glyph glyph-name="uni0458" unicode="&#x458;" horiz-adv-x="305" 
d="M60 577v161h188v-161h-188zM-30 -193l-12 125l49 6q31 4 45 19t14 46v489h178v-464q0 -74 -21.5 -120t-72 -69t-136.5 -29z" />
    <glyph glyph-name="uni0459" unicode="&#x459;" horiz-adv-x="894" 
d="M64 -17l-50 141q57 12 82 55.5t25 129.5v183h438v-148h107q205 0 205 -168q0 -52 -26 -91.5t-72 -62t-107 -22.5h-280v356h-103v-53q0 -142 -53.5 -224t-165.5 -96zM559 112h75q35 0 55 15.5t20 46.5q0 58 -75 58h-75v-120z" />
    <glyph glyph-name="uni045A" unicode="&#x45a;" horiz-adv-x="907" 
d="M60 0v492h178v-173h157v173h178v-148h106q205 0 205 -168q0 -52 -26 -91.5t-72 -62t-107 -22.5h-284v182h-157v-182h-178zM573 112h74q35 0 55 15.5t20 46.5q0 58 -75 58h-74v-120z" />
    <glyph glyph-name="uni045B" unicode="&#x45b;" horiz-adv-x="624" 
d="M61 0v532h-83v121h83v52h178v-52h183v-121h-183v-114q53 73 154 73q88 0 130.5 -52.5t42.5 -160.5v-278h-178v271q0 45 -15.5 64t-45.5 19q-40 0 -64 -25.5t-24 -68.5v-260h-178z" />
    <glyph glyph-name="uni045C" unicode="&#x45c;" horiz-adv-x="599" 
d="M60 0v492h178v-174h48l120 174h188l-151 -221q20 -13 35.5 -31.5t27.5 -40.5l106 -199h-189l-75 140q-14 24 -28 33t-36 9h-46v-182h-178zM270 557l101 205h167l-154 -205h-114z" />
    <glyph glyph-name="uni045D" unicode="&#x45d;" horiz-adv-x="628" 
d="M60 0v492h160v-266l202 266h146v-492h-160v267l-202 -267h-146zM257 557l-154 205h167l101 -205h-114z" />
    <glyph glyph-name="uni045E" unicode="&#x45e;" horiz-adv-x="559" 
d="M91 -180l99 214l-201 458h187l108 -279l112 279h176l-301 -672h-180zM278 553q-60 0 -101.5 20.5t-64.5 54.5t-29 74l83 27q16 -45 42.5 -65t71.5 -20t71.5 22t39.5 62l80 -26q-14 -66 -64 -107.5t-129 -41.5z" />
    <glyph glyph-name="uni045F" unicode="&#x45f;" horiz-adv-x="630" 
d="M239 -130v130h-179v492h178v-356h154v356h178v-492h-181v-130h-150z" />
    <glyph glyph-name="uni0462" unicode="&#x462;" horiz-adv-x="767" 
d="M151 0v506h-171v129h171v70h175v-70h235v-129h-235v-75h166q115 0 181.5 -56t66.5 -159q0 -104 -66.5 -160t-181.5 -56h-341zM326 139h142q51 0 74.5 19t23.5 58q0 38 -23.5 57t-74.5 19h-142v-153z" />
    <glyph glyph-name="uni0463" unicode="&#x463;" horiz-adv-x="657" 
d="M144 0v377h-135v115h135v213h178v-213h169v-115h-169v-58h120q88 0 140 -40t52 -119q0 -78 -53 -119t-139 -41h-298zM322 102h81q31 0 50 15t19 44t-19 42t-50 13h-81v-114z" />
    <glyph glyph-name="uni046A" unicode="&#x46a;" horiz-adv-x="1073" 
d="M-4 0l129 265q35 72 98 112.5t147 42.5l-242 285h818l-243 -285q84 -2 147 -42.5t98 -112.5l129 -265h-198l-91 198q-17 36 -42 55.5t-76 19.5h-41v-273h-184v273h-42q-51 0 -76 -19.5t-42 -55.5l-91 -198h-198zM536 417h2l140 166h-283z" />
    <glyph glyph-name="uni046B" unicode="&#x46b;" horiz-adv-x="878" 
d="M-13 0l106 179q23 38 44.5 63t49.5 38.5t69 16.5l-167 195h701l-167 -195q60 -5 95 -34t68 -84l105 -179h-189l-75 120q-15 24 -28.5 33.5t-35.5 9.5h-35v-163h-178v163h-34q-22 0 -36 -9.5t-28 -33.5l-75 -120h-190zM438 268h2l98 114h-198z" />
    <glyph glyph-name="uni0472" unicode="&#x472;" horiz-adv-x="807" 
d="M404 -11q-107 0 -187.5 45.5t-125.5 127.5t-45 191q0 110 44.5 191.5t125.5 126.5t188 45t187.5 -45t125.5 -126.5t45 -191.5q0 -109 -45 -191t-125.5 -127.5t-187.5 -45.5zM404 562q-63 0 -104.5 -35.5t-55.5 -101.5h320q-14 65 -55.5 101t-104.5 36zM404 143
q65 0 107 39t55 109h-324q12 -70 54 -109t108 -39z" />
    <glyph glyph-name="uni0473" unicode="&#x473;" horiz-adv-x="619" 
d="M310 -11q-82 0 -143.5 31t-95 89t-33.5 137q0 80 33.5 137.5t95 88.5t143.5 31t143 -31t94.5 -88.5t33.5 -137.5q0 -79 -33.5 -137t-94.5 -89t-143 -31zM310 382q-38 0 -64.5 -20t-37.5 -61h203q-11 41 -37.5 61t-63.5 20zM310 111q38 0 64 19.5t37 61.5h-202
q10 -42 37 -61.5t64 -19.5z" />
    <glyph glyph-name="uni0474" unicode="&#x474;" horiz-adv-x="802" 
d="M298 0l-321 705h196l201 -468l108 263q34 84 73.5 131t95 66t139.5 19l16 -149q-51 0 -80.5 -13t-51 -45t-46.5 -89l-184 -420h-146z" />
    <glyph glyph-name="uni0475" unicode="&#x475;" horiz-adv-x="601" 
d="M206 0l-216 492h186l108 -279l59 144q23 57 52.5 88.5t75 44.5t115.5 13l15 -141q-47 1 -75 -16.5t-46 -58.5l-128 -287h-146z" />
    <glyph glyph-name="uni048A" unicode="&#x48a;" horiz-adv-x="793" 
d="M377 760q-65 0 -109 20.5t-68.5 54.5t-31.5 75l84 27q18 -46 47.5 -66t79.5 -20q51 0 80.5 22.5t43.5 62.5l81 -26q-15 -67 -68.5 -108.5t-138.5 -41.5zM541 -175l59 175h-77v409l-324 -409h-135v705h171v-408l323 408h135v-561h111l-107 -319h-156z" />
    <glyph glyph-name="uni048B" unicode="&#x48b;" horiz-adv-x="665" 
d="M312 553q-60 0 -101.5 20.5t-64.5 54.5t-29 74l83 27q17 -45 43 -65t71 -20t71.5 22t39.5 62l80 -26q-14 -66 -64 -107.5t-129 -41.5zM60 0v492h160v-266l202 266h146v-361h100l-87 -261h-147l42 130h-68v267l-202 -267h-146z" />
    <glyph glyph-name="uni048C" unicode="&#x48c;" horiz-adv-x="757" 
d="M141 0v506h-141v129h141v70h175v-70h141v-129h-141v-75h166q115 0 181.5 -56t66.5 -159q0 -104 -66.5 -160t-181.5 -56h-341zM316 139h142q51 0 74.5 19t23.5 58q0 38 -23.5 57t-74.5 19h-142v-153z" />
    <glyph glyph-name="uni048D" unicode="&#x48d;" horiz-adv-x="657" 
d="M144 0v377h-135v115h135v213h178v-213h169v-115h-169v-58h120q88 0 140 -40t52 -119q0 -78 -53 -119t-139 -41h-298zM322 102h81q31 0 50 15t19 44t-19 42t-50 13h-81v-114z" />
    <glyph glyph-name="uni048E" unicode="&#x48e;" horiz-adv-x="676" 
d="M64 0v705h339q120 0 185.5 -61.5t65.5 -169.5q0 -73 -30.5 -125t-86.5 -79l41 -61l-80 -53l-59 89q-17 -2 -36 -2h-155v-243h-184zM248 384h98l-35 53l78 49l56 -83q34 22 34 71q0 90 -108 90h-123v-180z" />
    <glyph glyph-name="uni048F" unicode="&#x48f;" horiz-adv-x="638" 
d="M60 -180v672h176v-64q20 34 60 54.5t89 20.5q63 0 111.5 -31t76 -88.5t27.5 -137.5q0 -71 -22 -124.5t-61 -86.5l44 -58l-65 -48l-53 68q-13 -4 -27.5 -6t-30.5 -2q-47 0 -86.5 19t-60.5 51v-239h-178zM328 120q10 0 19 2l-57 74l65 49l54 -70q12 29 12 71q0 67 -26 96.5
t-67 29.5t-66.5 -29.5t-25.5 -96.5q0 -66 25.5 -96t66.5 -30z" />
    <glyph glyph-name="uni0490" unicode="&#x490;" horiz-adv-x="579" 
d="M64 0v705h338v166h160v-316h-314v-555h-184z" />
    <glyph glyph-name="uni0491" unicode="&#x491;" horiz-adv-x="484" 
d="M60 0v492h255v110h150v-247h-227v-355h-178z" />
    <glyph glyph-name="uni0492" unicode="&#x492;" horiz-adv-x="628" 
d="M113 0v277h-92v128h92v300h498v-150h-314v-150h173v-128h-173v-277h-184z" />
    <glyph glyph-name="uni0493" unicode="&#x493;" horiz-adv-x="512" 
d="M88 0v152h-84v121h84v219h405v-137h-227v-82h134v-121h-134v-152h-178z" />
    <glyph glyph-name="uni0494" unicode="&#x494;" horiz-adv-x="738" 
d="M446 -191q-43 0 -77.5 5.5t-61.5 15.5l28 132q17 -5 38 -8t42 -3q42 0 67.5 29.5t25.5 82.5v77q0 84 -42.5 120t-113.5 36q-26 0 -54 -5t-50 -15v-276h-184v705h525v-150h-341v-125q21 8 56 14t71 6q150 0 233 -74.5t83 -229.5v-75q0 -84 -31.5 -142.5t-87 -89
t-126.5 -30.5z" />
    <glyph glyph-name="uni0495" unicode="&#x495;" horiz-adv-x="607" 
d="M360 -188l-57 127q38 12 58 27t28 39t8 62v28q0 46 -13 65.5t-53 19.5q-42 0 -67.5 -25.5t-25.5 -68.5v-86h-178v492h405v-125h-227v-123q27 35 68 53.5t93 18.5q88 0 132 -52t44 -162v-35q0 -60 -18.5 -108.5t-65 -85.5t-131.5 -61z" />
    <glyph glyph-name="uni0496" unicode="&#x496;" horiz-adv-x="1095" 
d="M-4 0l126 258q44 90 111 128l-202 319h200l168 -282h48v282h176v-282h48l168 282h199l-202 -319q68 -38 112 -128l55 -114h111v-319h-159v175h-80l-90 198q-19 41 -46.5 58t-72.5 17h-43v-273h-176v273h-44q-45 0 -72 -17.5t-46 -57.5l-91 -198h-198z" />
    <glyph glyph-name="uni0497" unicode="&#x497;" horiz-adv-x="930" 
d="M-13 0l106 199q12 22 28 41t36 32l-152 220h188l121 -174h36v174h178v-174h37l120 174h188l-151 -220q19 -13 35.5 -32t28.5 -41l35 -68h88v-261h-150v130h-57l-75 140q-13 24 -27.5 33t-36.5 9h-35v-182h-178v182h-34q-22 0 -36.5 -9t-27.5 -33l-75 -140h-190z" />
    <glyph glyph-name="uni0498" unicode="&#x498;" horiz-adv-x="628" 
d="M233 -175v166q-65 7 -117.5 26t-96.5 49l51 135q39 -29 92 -45t115 -16q68 0 100 19.5t32 60.5q0 34 -23.5 50.5t-74.5 16.5h-170v141h151q51 0 74 16t23 50q0 31 -25.5 51t-83.5 20q-54 0 -106 -15.5t-90 -44.5l-52 135q48 35 118 55.5t153 20.5q134 0 200 -55t66 -138
q0 -56 -28 -96.5t-76 -59.5q59 -19 90.5 -61.5t31.5 -105.5q0 -77 -49.5 -132t-151.5 -72v-171h-153z" />
    <glyph glyph-name="uni0499" unicode="&#x499;" horiz-adv-x="546" 
d="M205 -130v121q-52 5 -98 18t-81 34l41 110q36 -20 89.5 -31.5t103.5 -11.5t74 9t24 32q0 18 -13 27.5t-44 9.5h-148v120h134q52 0 52 33q0 19 -20 29t-77 10q-50 0 -92 -10.5t-76 -26.5l-41 108q41 24 104 38t140 14q106 0 163.5 -36.5t57.5 -102.5q0 -37 -20.5 -65
t-55.5 -41q95 -24 95 -118q0 -58 -45 -96t-129 -50v-124h-138z" />
    <glyph glyph-name="uni049A" unicode="&#x49a;" horiz-adv-x="766" 
d="M64 0v705h184v-282h70l168 282h199l-202 -319q68 -38 112 -128l55 -114h111v-319h-159v175h-80l-90 198q-19 41 -47 58t-72 17h-65v-273h-184z" />
    <glyph glyph-name="uni049B" unicode="&#x49b;" horiz-adv-x="650" 
d="M60 0v492h178v-174h48l120 174h188l-151 -221q20 -13 35.5 -31.5t27.5 -40.5l36 -68h88v-261h-150v130h-57l-75 140q-14 24 -28 33t-36 9h-46v-182h-178z" />
    <glyph glyph-name="uni049C" unicode="&#x49c;" horiz-adv-x="796" 
d="M64 0v705h184v-283h44v161h105v-158l168 280h200l-203 -319q69 -38 113 -128l125 -258h-198l-91 198q-19 41 -46 59.5t-68 18.5v-155h-105v155h-44v-276h-184z" />
    <glyph glyph-name="uni049D" unicode="&#x49d;" horiz-adv-x="706" 
d="M60 0v492h178v-174h44v107h104v-107h7l120 174h188l-151 -220q19 -14 35 -32.5t29 -40.5l105 -199h-189l-75 140q-13 23 -27.5 32.5t-36.5 9.5h-5v-116h-104v116h-44v-182h-178z" />
    <glyph glyph-name="uni049E" unicode="&#x49e;" horiz-adv-x="790" 
d="M130 0v513h-140v122h140v70h183v-70h115v-122h-115v-90h101l176 282h200l-220 -334q23 -16 45.5 -43.5t43.5 -69.5l125 -258h-199l-90 198q-19 41 -46.5 58t-71.5 17h-64v-273h-183z" />
    <glyph glyph-name="uni049F" unicode="&#x49f;" horiz-adv-x="600" 
d="M61 0v532h-83v121h83v52h178v-52h183v-121h-183v-214h47l121 174h188l-152 -220q20 -13 36 -32t28 -41l106 -199h-190l-75 140q-13 24 -27.5 33t-36.5 9h-45v-182h-178z" />
    <glyph glyph-name="uni04A0" unicode="&#x4a0;" horiz-adv-x="854" 
d="M202 0v556h-196v149h380v-282h70l168 282h199l-202 -319q68 -38 112 -128l125 -258h-198l-91 198q-18 41 -46 58t-72 17h-65v-273h-184z" />
    <glyph glyph-name="uni04A1" unicode="&#x4a1;" horiz-adv-x="683" 
d="M144 0v353h-135v139h313v-174h48l120 174h188l-152 -220q20 -13 36 -32t28 -41l106 -199h-189l-75 140q-14 24 -28.5 33t-35.5 9h-46v-182h-178z" />
    <glyph glyph-name="uni04A2" unicode="&#x4a2;" horiz-adv-x="838" 
d="M64 0v705h184v-272h291v272h183v-561h91v-319h-159v175h-115v282h-291v-282h-184z" />
    <glyph glyph-name="uni04A3" unicode="&#x4a3;" horiz-adv-x="669" 
d="M506 -130v130h-111v182h-157v-182h-178v492h178v-173h157v173h178v-361h83v-261h-150z" />
    <glyph glyph-name="uni04A4" unicode="&#x4a4;" horiz-adv-x="952" 
d="M64 0v705h184v-272h291v272h407v-150h-224v-555h-183v282h-291v-282h-184z" />
    <glyph glyph-name="uni04A5" unicode="&#x4a5;" horiz-adv-x="782" 
d="M60 0v492h178v-173h157v173h368v-139h-190v-353h-178v182h-157v-182h-178z" />
    <glyph glyph-name="uni04A8" unicode="&#x4a8;" horiz-adv-x="882" 
d="M404 -11q-112 0 -192 43t-123 123t-43 190q0 117 43 200t124.5 127t195.5 44q18 0 33 -1.5t30 -4.5l-14 -140q-14 2 -25.5 2.5t-19.5 0.5q-87 0 -133 -56.5t-46 -163.5q0 -232 185 -232q-34 41 -53.5 91t-19.5 105q0 69 28 120.5t78.5 80t117.5 28.5q68 0 118.5 -28.5
t78 -80t27.5 -120.5q0 -55 -19.5 -105t-54.5 -91v0q69 0 142 33l40 -123q-69 -42 -187 -42q-40 0 -77.5 7t-71.5 21q-37 -14 -77.5 -21t-84.5 -7zM511 314q0 -59 13.5 -98t44.5 -61q32 22 46 61t14 98q0 45 -15.5 71t-43.5 26t-43.5 -26t-15.5 -71z" />
    <glyph glyph-name="uni04A9" unicode="&#x4a9;" horiz-adv-x="765" 
d="M351 -11q-152 0 -232.5 69t-80.5 191q0 79 35 136t96.5 87.5t143.5 30.5q47 0 82 -10l-25 -118q-10 3 -21 4t-23 1q-53 0 -85 -34.5t-32 -96.5q0 -65 34.5 -101.5t101.5 -42.5q-20 25 -31 53.5t-11 58.5q0 75 50.5 120t133.5 45q82 0 133.5 -45.5t51.5 -119.5
q0 -31 -11 -59t-31 -53q33 3 64 11t55 22l25 -120q-70 -29 -156 -29q-69 0 -132 21q-64 -21 -135 -21zM439 208q0 -33 10 -54t35 -33q52 23 52 87q0 32 -13.5 48t-35.5 16t-35 -16t-13 -48z" />
    <glyph glyph-name="uni04AA" unicode="&#x4aa;" horiz-adv-x="687" 
d="M327 -175v172q-133 25 -207 119.5t-74 236.5q0 110 44.5 191.5t128.5 126.5t201 45q70 0 135 -21.5t105 -56.5l-55 -145q-44 32 -88 47.5t-90 15.5q-93 0 -140 -52.5t-47 -150.5q0 -99 47 -151.5t140 -52.5q46 0 90 15.5t88 47.5l55 -145q-31 -27 -78.5 -46.5
t-101.5 -27.5v-168h-153z" />
    <glyph glyph-name="uni04AB" unicode="&#x4ab;" horiz-adv-x="502" 
d="M230 -130v128q-89 20 -140.5 85t-51.5 164q0 80 34 137.5t95.5 88t144.5 30.5q48 0 97 -13.5t80 -37.5l-48 -122q-22 18 -52.5 28.5t-57.5 10.5q-53 0 -82 -32t-29 -90q0 -59 29 -91.5t82 -32.5q27 0 57.5 10.5t52.5 28.5l48 -122q-22 -17 -54 -29t-67 -18v-123h-138z
" />
    <glyph glyph-name="uni04AC" unicode="&#x4ac;" horiz-adv-x="619" 
d="M342 -175v175h-124v555h-212v150h607v-150h-212v-411h100v-319h-159z" />
    <glyph glyph-name="uni04AD" unicode="&#x4ad;" horiz-adv-x="508" 
d="M276 -130v130h-111v353h-156v139h491v-139h-157v-222h83v-261h-150z" />
    <glyph glyph-name="uni04AE" unicode="&#x4ae;" horiz-adv-x="645" 
d="M230 0v312l-271 393h211l155 -229l155 229h205l-271 -393v-312h-184z" />
    <glyph glyph-name="uni04AF" unicode="&#x4af;" horiz-adv-x="554" 
d="M189 -180v212l-202 460h187l108 -279l113 279h174l-202 -453v-219h-178z" />
    <glyph glyph-name="uni04B0" unicode="&#x4b0;" horiz-adv-x="645" 
d="M230 0v312l-271 393h211l155 -229l155 229h205l-271 -393v-312h-184zM68 248v103h508v-103h-508z" />
    <glyph glyph-name="uni04B1" unicode="&#x4b1;" horiz-adv-x="554" 
d="M189 -180v117h-132v125h119l-189 430h187l108 -279l113 279h174l-192 -430h121v-125h-131v-117h-178z" />
    <glyph glyph-name="uni04B2" unicode="&#x4b2;" horiz-adv-x="749" 
d="M-25 0l270 356l-264 349h213l155 -216l155 216h214l-264 -349l160 -212h130v-319h-159v175h-76l-160 222l-160 -222h-214z" />
    <glyph glyph-name="uni04B3" unicode="&#x4b3;" horiz-adv-x="633" 
d="M-15 0l210 254l-196 238h207l90 -116l90 116h206l-196 -238l102 -123h110v-261h-150v130h-59l-104 131l-103 -131h-207z" />
    <glyph glyph-name="uni04B4" unicode="&#x4b4;" horiz-adv-x="975" 
d="M794 -175v175h-592v555h-196v150h549v-150h-170v-405h285v555h183v-555h100v-325h-159z" />
    <glyph glyph-name="uni04B5" unicode="&#x4b5;" horiz-adv-x="778" 
d="M615 -130v130h-471v353h-135v139h426v-139h-113v-217h182v356h178v-356h83v-266h-150z" />
    <glyph glyph-name="uni04B6" unicode="&#x4b6;" horiz-adv-x="773" 
d="M598 -175v175h-125v248q-22 -9 -57.5 -15t-71.5 -6q-142 0 -219.5 75t-77.5 229v174h183v-168q0 -84 34.5 -120t102.5 -36q26 0 54.5 5t51.5 15v304h184v-561h100v-319h-159z" />
    <glyph glyph-name="uni04B7" unicode="&#x4b7;" horiz-adv-x="637" 
d="M366 0v153q-26 -9 -50 -13t-47 -4q-229 0 -229 225v131h178v-115q0 -53 19.5 -76t68.5 -23q16 0 30.5 3t25.5 9v202h178v-361h83v-261h-150v130h-107z" />
    <glyph glyph-name="uni04B8" unicode="&#x4b8;" horiz-adv-x="721" 
d="M473 0v248q-29 -12 -65 -17v-131h-105v128q-119 10 -187.5 82.5t-68.5 220.5v174h183v-168q0 -56 17.5 -93.5t55.5 -52.5v146h105v-153q19 3 36 7t29 10v304h184v-705h-184z" />
    <glyph glyph-name="uni04B9" unicode="&#x4b9;" horiz-adv-x="655" 
d="M417 0v157q-21 -7 -41 -11v-91h-104v86q-232 13 -232 220v131h178v-119q0 -40 14 -61t40 -29v107h104v-114q23 3 41 10v206h178v-492h-178z" />
    <glyph glyph-name="uni04BA" unicode="&#x4ba;" horiz-adv-x="721" 
d="M64 0v705h184v-248q22 9 57.5 15t71.5 6q142 0 220 -75t78 -229v-174h-184v168q0 84 -34.5 120t-102.5 36q-26 0 -54.5 -4.5t-51.5 -15.5v-304h-184z" />
    <glyph glyph-name="uni04BB" unicode="&#x4bb;" horiz-adv-x="624" 
d="M61 0v705h178v-274q53 72 154 72q88 0 130.5 -52t42.5 -160v-291h-178v284q0 45 -15.5 64t-45.5 19q-40 0 -64 -25.5t-24 -68.5v-273h-178z" />
    <glyph glyph-name="uni04BC" unicode="&#x4bc;" horiz-adv-x="1010" 
d="M659 -11q-171 0 -277 78t-128 215h-33q-108 0 -161 55.5t-53 155.5v51h181v-50q0 -39 12.5 -55t42.5 -16h11q14 87 62 153t124.5 103t175.5 37q111 0 188.5 -48t119 -133t41.5 -196v-57h-518q34 -139 219 -139q56 0 110.5 14.5t97.5 44.5l60 -139q-49 -34 -123.5 -54
t-151.5 -20zM617 570q-68 0 -112.5 -36.5t-58.5 -110.5h335q-25 147 -164 147z" />
    <glyph glyph-name="uni04BD" unicode="&#x4bd;" horiz-adv-x="696" 
d="M472 -11q-125 0 -200.5 59.5t-87.5 161.5h-18q-88 0 -123 36t-35 106v31h136v-30q0 -33 10 -46t31 -13q10 62 45 109.5t89 73.5t121 26q74 0 128.5 -31t84 -88.5t29.5 -134.5v-39h-331q9 -48 39.5 -69t86.5 -21q39 0 80 11.5t73 33.5l44 -117q-38 -27 -94 -43t-108 -16z
M447 388q-40 0 -65 -23.5t-32 -70.5h183q-7 94 -86 94z" />
    <glyph glyph-name="uni04BE" unicode="&#x4be;" horiz-adv-x="1010" 
d="M659 -11q-171 0 -277 78t-128 215h-33q-108 0 -161 55.5t-53 155.5v51h181v-50q0 -39 12.5 -55t42.5 -16h11q14 87 62 153t124.5 103t175.5 37q111 0 188.5 -48t119 -133t41.5 -196v-57h-518q34 -139 219 -139q56 0 110.5 14.5t97.5 44.5l60 -139q-49 -34 -123.5 -54
t-151.5 -20zM617 570q-68 0 -112.5 -36.5t-58.5 -110.5h335q-25 147 -164 147zM698 -198q-64 0 -99 30t-35 81q0 45 30.5 81.5t79.5 53.5l48 -48q-27 -10 -40 -28.5t-13 -37.5q0 -21 15 -33t38 -12q16 0 28.5 2.5t27.5 7.5l16 -80q-26 -10 -47.5 -13.5t-48.5 -3.5z" />
    <glyph glyph-name="uni04BF" unicode="&#x4bf;" horiz-adv-x="696" 
d="M472 -11q-125 0 -200.5 59.5t-87.5 161.5h-18q-88 0 -123 36t-35 106v31h136v-30q0 -33 10 -46t31 -13q10 62 45 109.5t89 73.5t121 26q74 0 128.5 -31t84 -88.5t29.5 -134.5v-39h-331q9 -48 39.5 -69t86.5 -21q39 0 80 11.5t73 33.5l44 -117q-38 -27 -94 -43t-108 -16z
M447 388q-40 0 -65 -23.5t-32 -70.5h183q-7 94 -86 94zM492 -198q-64 0 -99 30t-35 81q0 45 30.5 81.5t79.5 53.5l48 -48q-27 -10 -40 -28.5t-13 -37.5q0 -21 15 -33t38 -12q16 0 28.5 2.5t27.5 7.5l16 -80q-26 -10 -47.5 -13.5t-48.5 -3.5z" />
    <glyph glyph-name="uni04C0" unicode="&#x4c0;" horiz-adv-x="312" 
d="M64 0v705h184v-705h-184z" />
    <glyph glyph-name="uni04C1" unicode="&#x4c1;" horiz-adv-x="1069" 
d="M-4 0l126 258q44 90 111 128l-202 319h200l168 -282h48v282h176v-282h48l168 282h199l-202 -319q68 -38 112 -128l125 -258h-198l-90 198q-19 41 -46.5 58t-72.5 17h-43v-273h-176v273h-44q-45 0 -72 -17.5t-46 -57.5l-91 -198h-198zM532 760q-65 0 -109 20.5t-68.5 54.5
t-31.5 75l84 27q18 -46 47.5 -66t79.5 -20q51 0 80.5 22.5t43.5 62.5l81 -26q-15 -67 -68.5 -108.5t-138.5 -41.5z" />
    <glyph glyph-name="uni04C2" unicode="&#x4c2;" horiz-adv-x="878" 
d="M-13 0l106 199q12 22 28 41t36 32l-152 220h188l121 -174h36v174h178v-174h37l120 174h188l-151 -220q19 -13 35.5 -32t28.5 -41l105 -199h-189l-75 140q-13 24 -27.5 33t-36.5 9h-35v-182h-178v182h-34q-22 0 -36.5 -9t-27.5 -33l-75 -140h-190zM437 553
q-60 0 -101.5 20.5t-64.5 54.5t-29 74l83 27q16 -45 42.5 -65t71.5 -20t71.5 22t39.5 62l80 -26q-14 -66 -64 -107.5t-129 -41.5z" />
    <glyph glyph-name="uni04C3" unicode="&#x4c3;" horiz-adv-x="738" 
d="M446 -191q-43 0 -78.5 5.5t-59.5 15.5l27 132q17 -5 38 -8t42 -3q42 0 67.5 29.5t25.5 82.5v58q0 83 -42.5 122.5t-115.5 39.5h-102v-283h-184v705h184v-272h88l162 272h200l-187 -293q85 -28 132.5 -98t47.5 -187v-56q0 -84 -31.5 -142.5t-87 -89t-126.5 -30.5z" />
    <glyph glyph-name="uni04C4" unicode="&#x4c4;" horiz-adv-x="606" 
d="M358 -188l-58 127q38 12 58.5 27t28 38.5t7.5 60.5v20q0 51 -26.5 74t-72.5 23h-57v-182h-178v492h178v-174h48l120 174h188l-140 -203q57 -25 87.5 -75.5t30.5 -121.5v-26q0 -59 -18.5 -107.5t-65 -85.5t-130.5 -61z" />
    <glyph glyph-name="uni04C5" unicode="&#x4c5;" horiz-adv-x="800" 
d="M547 -175l58 175h-88v555h-184v-115q0 -182 -61.5 -294t-168.5 -165l-93 131q55 32 89 78.5t50 118t16 179.5v217h536v-561h108l-107 -319h-155z" />
    <glyph glyph-name="uni04C6" unicode="&#x4c6;" horiz-adv-x="660" 
d="M64 -17l-50 141q57 12 82 55.5t25 129.5v183h443v-361h94l-87 -261h-147l42 130h-80v356h-103v-53q0 -142 -53.5 -224t-165.5 -96z" />
    <glyph glyph-name="uni04C7" unicode="&#x4c7;" horiz-adv-x="786" 
d="M443 -193l-12 125l49 6q31 4 45 19t14 46v279h-291v-282h-184v705h184v-272h291v272h183v-677q0 -74 -21.5 -120t-73 -69t-140.5 -29z" />
    <glyph glyph-name="uni04C8" unicode="&#x4c8;" horiz-adv-x="633" 
d="M299 -193l-12 125l49 6q31 3 45 18.5t14 46.5v179h-157v-182h-178v492h178v-173h157v173h178v-464q0 -74 -22 -120t-72 -69t-136 -29z" />
    <glyph glyph-name="uni04C9" unicode="&#x4c9;" horiz-adv-x="822" 
d="M64 0v705h184v-272h291v272h183v-561h100l-107 -319h-156l59 175h-79v282h-291v-282h-184z" />
    <glyph glyph-name="uni04CA" unicode="&#x4ca;" horiz-adv-x="669" 
d="M60 0v492h178v-173h157v173h178v-361h95l-88 -261h-147l42 130h-80v182h-157v-182h-178z" />
    <glyph glyph-name="uni04CB" unicode="&#x4cb;" horiz-adv-x="747" 
d="M533 -175h-160v319h100v104q-22 -9 -57.5 -15t-71.5 -6q-142 0 -219.5 75t-77.5 229v174h183v-168q0 -84 34.5 -120t102.5 -36q26 0 54.5 5t51.5 15v304h184v-705h-124v-175z" />
    <glyph glyph-name="uni04CC" unicode="&#x4cc;" horiz-adv-x="600" 
d="M433 -130h-150v216h83v67q-26 -9 -50 -13t-47 -4q-229 0 -229 225v131h178v-115q0 -53 19.5 -76t68.5 -23q16 0 30.5 3t25.5 9v202h178v-492h-107v-130z" />
    <glyph glyph-name="uni04CD" unicode="&#x4cd;" horiz-adv-x="919" 
d="M671 -175l58 175h-77v382l-161 -278h-100l-159 274v-378h-166v705h153l225 -404l225 404h149v-561h116l-108 -319h-155z" />
    <glyph glyph-name="uni04CE" unicode="&#x4ce;" horiz-adv-x="753" 
d="M60 0v492h146l153 -245l152 245h145v-361h105l-88 -261h-147l42 130h-68v245l-102 -164h-80l-102 164v-245h-156z" />
    <glyph glyph-name="uni04CF" unicode="&#x4cf;" horiz-adv-x="299" 
d="M61 0v705h178v-705h-178z" />
    <glyph glyph-name="uni04D0" unicode="&#x4d0;" horiz-adv-x="763" 
d="M-21 0l330 705h145l330 -705h-184l-61 143h-315l-61 -143h-184zM380 513l-96 -229h194l-96 229h-2zM379 760q-65 0 -109 20.5t-68.5 54.5t-31.5 75l84 27q18 -46 47.5 -66t79.5 -20q51 0 80.5 22.5t43.5 62.5l81 -26q-15 -67 -68.5 -108.5t-138.5 -41.5z" />
    <glyph glyph-name="uni04D1" unicode="&#x4d1;" horiz-adv-x="586" 
d="M232 -11q-57 0 -100.5 21t-68 57.5t-24.5 83.5q0 53 28 84.5t90 45t165 13.5h38v14q0 36 -18.5 51t-63.5 15q-38 0 -84 -12t-90 -37l-45 117q25 18 64 32t82 21.5t81 7.5q123 0 182.5 -53t59.5 -167v-283h-166v70q-13 -38 -47 -59.5t-83 -21.5zM272 105q37 0 62.5 24
t25.5 63v18h-38q-59 0 -86.5 -12.5t-27.5 -39.5q0 -23 16.5 -38t47.5 -15zM295 553q-60 0 -101.5 20.5t-64.5 54.5t-29 74l83 27q16 -45 42.5 -65t71.5 -20t71.5 22t39.5 62l80 -26q-14 -66 -64 -107.5t-129 -41.5z" />
    <glyph glyph-name="uni04D2" unicode="&#x4d2;" horiz-adv-x="763" 
d="M-21 0l330 705h145l330 -705h-184l-61 143h-315l-61 -143h-184zM380 513l-96 -229h194l-96 229h-2zM409 771v149h150v-149h-150zM203 771v149h150v-149h-150z" />
    <glyph glyph-name="uni04D3" unicode="&#x4d3;" horiz-adv-x="586" 
d="M232 -11q-57 0 -100.5 21t-68 57.5t-24.5 83.5q0 53 28 84.5t90 45t165 13.5h38v14q0 36 -18.5 51t-63.5 15q-38 0 -84 -12t-90 -37l-45 117q25 18 64 32t82 21.5t81 7.5q123 0 182.5 -53t59.5 -167v-283h-166v70q-13 -38 -47 -59.5t-83 -21.5zM272 105q37 0 62.5 24
t25.5 63v18h-38q-59 0 -86.5 -12.5t-27.5 -39.5q0 -23 16.5 -38t47.5 -15zM325 582v150h150v-150h-150zM119 582v150h150v-150h-150z" />
    <glyph glyph-name="uni04D4" unicode="&#x4d4;" horiz-adv-x="1006" 
d="M-60 0l449 705h565v-142h-369l29 -134h317v-142h-286l33 -145h276v-142h-408l-31 143h-298l-85 -143h-192zM433 507l-133 -223h184l-49 223h-2z" />
    <glyph glyph-name="uni04D5" unicode="&#x4d5;" horiz-adv-x="888" 
d="M246 -11q-96 0 -151.5 46t-55.5 116q0 53 28 84.5t91 45t168 13.5h30v16q0 34 -17.5 49t-59.5 15q-39 0 -85 -12t-90 -37l-45 117q25 18 64 32t82.5 21.5t81.5 7.5q54 0 98.5 -13.5t72.5 -43.5q30 29 70 43t85 14q73 0 127.5 -31t84 -88.5t29.5 -134.5v-39h-325
q7 -48 36.5 -69.5t84.5 -21.5q40 0 79.5 12.5t71.5 33.5l45 -117q-39 -27 -93.5 -43t-108.5 -16q-72 0 -128.5 23.5t-89.5 70.5q-49 -94 -180 -94zM620 388q-80 0 -92 -94h180q-6 94 -88 94zM273 105q37 0 60 24.5t23 65.5v15h-34q-59 0 -86.5 -12.5t-27.5 -39.5
q0 -23 16.5 -38t48.5 -15z" />
    <glyph glyph-name="uni04D6" unicode="&#x4d6;" horiz-adv-x="614" 
d="M64 0v705h498v-142h-322v-134h299v-142h-299v-145h322v-142h-498zM331 760q-65 0 -109 20.5t-68.5 54.5t-31.5 75l84 27q18 -46 47.5 -66t79.5 -20q51 0 80.5 22.5t43.5 62.5l81 -26q-15 -67 -68.5 -108.5t-138.5 -41.5z" />
    <glyph glyph-name="uni04D7" unicode="&#x4d7;" horiz-adv-x="573" 
d="M329 -11q-90 0 -155.5 31.5t-100.5 89.5t-35 137q0 75 33.5 133t92 90.5t133.5 32.5q74 0 128.5 -31t84 -88.5t29.5 -134.5v-39h-331q9 -48 40 -69t86 -21q38 0 79.5 11.5t73.5 33.5l44 -117q-38 -27 -93 -43t-109 -16zM305 388q-40 0 -65.5 -24t-32.5 -70h186
q-3 47 -25.5 70.5t-62.5 23.5zM297 553q-60 0 -101.5 20.5t-64.5 54.5t-29 74l83 27q16 -45 42.5 -65t71.5 -20t71.5 22t39.5 62l80 -26q-14 -66 -64 -107.5t-129 -41.5z" />
    <glyph glyph-name="uni04D8" unicode="&#x4d8;" horiz-adv-x="807" 
d="M412 -11q-119 0 -201 48t-123.5 133t-41.5 196v57h518q-34 139 -208 139q-59 0 -115 -15t-105 -45l-59 139q55 34 132.5 54.5t170.5 20.5q114 0 200 -44t134 -126t48 -195q0 -109 -45 -191t-124 -126.5t-181 -44.5zM403 136q67 0 108.5 36t54.5 110h-328
q24 -146 165 -146z" />
    <glyph glyph-name="uni04D9" unicode="&#x4d9;" horiz-adv-x="574" 
d="M281 -11q-116 0 -181.5 66t-65.5 189v39h332q-8 48 -38.5 69t-81.5 21q-79 0 -159 -46l-45 118q45 29 100.5 43.5t110.5 14.5q86 0 149.5 -31.5t98.5 -89.5t35 -136q0 -76 -33.5 -134t-91 -90.5t-130.5 -32.5zM271 104q39 0 64.5 23.5t32.5 70.5h-182q3 -48 25.5 -71
t59.5 -23z" />
    <glyph glyph-name="uni04DA" unicode="&#x4da;" horiz-adv-x="807" 
d="M412 -11q-119 0 -201 48t-123.5 133t-41.5 196v57h518q-34 139 -208 139q-59 0 -115 -15t-105 -45l-59 139q55 34 132.5 54.5t170.5 20.5q114 0 200 -44t134 -126t48 -195q0 -109 -45 -191t-124 -126.5t-181 -44.5zM403 136q67 0 108.5 36t54.5 110h-328
q24 -146 165 -146zM416 771v149h150v-149h-150zM210 771v149h150v-149h-150z" />
    <glyph glyph-name="uni04DB" unicode="&#x4db;" horiz-adv-x="574" 
d="M281 -11q-116 0 -181.5 66t-65.5 189v39h332q-8 48 -38.5 69t-81.5 21q-79 0 -159 -46l-45 118q45 29 100.5 43.5t110.5 14.5q86 0 149.5 -31.5t98.5 -89.5t35 -136q0 -76 -33.5 -134t-91 -90.5t-130.5 -32.5zM271 104q39 0 64.5 23.5t32.5 70.5h-182q3 -48 25.5 -71
t59.5 -23zM303 582v150h150v-150h-150zM97 582v150h150v-150h-150z" />
    <glyph glyph-name="uni04DC" unicode="&#x4dc;" horiz-adv-x="1069" 
d="M-4 0l126 258q44 90 111 128l-202 319h200l168 -282h48v282h176v-282h48l168 282h199l-202 -319q68 -38 112 -128l125 -258h-198l-90 198q-19 41 -46.5 58t-72.5 17h-43v-273h-176v273h-44q-45 0 -72 -17.5t-46 -57.5l-91 -198h-198zM562 771v149h150v-149h-150zM356 771
v149h150v-149h-150z" />
    <glyph glyph-name="uni04DD" unicode="&#x4dd;" horiz-adv-x="878" 
d="M-13 0l106 199q12 22 28 41t36 32l-152 220h188l121 -174h36v174h178v-174h37l120 174h188l-151 -220q19 -13 35.5 -32t28.5 -41l105 -199h-189l-75 140q-13 24 -27.5 33t-36.5 9h-35v-182h-178v182h-34q-22 0 -36.5 -9t-27.5 -33l-75 -140h-190zM467 582v150h150v-150
h-150zM261 582v150h150v-150h-150z" />
    <glyph glyph-name="uni04DE" unicode="&#x4de;" horiz-adv-x="628" 
d="M294 -11q-87 0 -154 20t-121 57l51 135q39 -29 92 -45t115 -16q68 0 100 19.5t32 60.5q0 34 -23.5 50.5t-74.5 16.5h-170v141h151q51 0 74 16t23 50q0 31 -25.5 51t-83.5 20q-54 0 -106 -15.5t-90 -44.5l-52 135q48 35 118 55.5t153 20.5q134 0 200 -55t66 -138
q0 -55 -27.5 -96t-76.5 -61q59 -18 90.5 -60.5t31.5 -105.5q0 -93 -72 -152t-221 -59zM328 771v149h150v-149h-150zM122 771v149h150v-149h-150z" />
    <glyph glyph-name="uni04DF" unicode="&#x4df;" horiz-adv-x="546" 
d="M265 -11q-70 0 -132 13.5t-107 40.5l41 110q36 -20 89.5 -31.5t103.5 -11.5t74 9t24 32q0 18 -13 27.5t-44 9.5h-148v120h134q52 0 52 33q0 19 -20 29t-77 10q-50 0 -92 -10.5t-76 -26.5l-41 108q41 24 104 38t140 14q106 0 163.5 -36.5t57.5 -102.5q0 -37 -20 -64.5
t-55 -41.5q94 -24 94 -118q0 -70 -66.5 -110.5t-185.5 -40.5zM294 590v150h150v-150h-150zM88 590v150h150v-150h-150z" />
    <glyph glyph-name="uni04E0" unicode="&#x4e0;" horiz-adv-x="628" 
d="M294 -11q-87 0 -154 20t-121 57l52 135q39 -29 93 -45t113 -16q68 0 100 18.5t32 57.5q0 37 -26 54t-92 17h-128v109l174 160h-302v149h519v-126l-170 -156q98 -8 150.5 -63.5t52.5 -139.5q0 -108 -72.5 -169.5t-220.5 -61.5z" />
    <glyph glyph-name="uni04E1" unicode="&#x4e1;" horiz-adv-x="542" 
d="M238 -191q-148 0 -238 58l48 123q33 -23 77 -35.5t89 -12.5q126 0 126 86q0 85 -129 85h-90v82l172 165h-265v132h457v-118l-156 -148q88 -9 137.5 -57.5t49.5 -127.5q0 -70 -34 -122.5t-97 -81t-147 -28.5z" />
    <glyph glyph-name="uni04E2" unicode="&#x4e2;" horiz-adv-x="758" 
d="M64 0v705h171v-408l323 408h135v-705h-170v409l-324 -409h-135zM196 796v97h367v-97h-367z" />
    <glyph glyph-name="uni04E3" unicode="&#x4e3;" horiz-adv-x="628" 
d="M60 0v492h160v-266l202 266h146v-492h-160v267l-202 -267h-146zM146 605v97h337v-97h-337z" />
    <glyph glyph-name="uni04E4" unicode="&#x4e4;" horiz-adv-x="758" 
d="M64 0v705h171v-408l323 408h135v-705h-170v409l-324 -409h-135zM407 771v149h150v-149h-150zM201 771v149h150v-149h-150z" />
    <glyph glyph-name="uni04E5" unicode="&#x4e5;" horiz-adv-x="628" 
d="M60 0v492h160v-266l202 266h146v-492h-160v267l-202 -267h-146zM342 582v150h150v-150h-150zM136 582v150h150v-150h-150z" />
    <glyph glyph-name="uni04E6" unicode="&#x4e6;" horiz-adv-x="807" 
d="M404 -11q-107 0 -187.5 45.5t-125.5 127.5t-45 191q0 110 44.5 191.5t125.5 126.5t188 45t187.5 -45t125.5 -126.5t45 -191.5q0 -109 -45 -191t-125.5 -127.5t-187.5 -45.5zM404 143q78 0 122.5 55.5t44.5 154.5t-44 154t-123 55t-123 -55t-44 -154t44 -154.5t123 -55.5z
M427 771v149h150v-149h-150zM221 771v149h150v-149h-150z" />
    <glyph glyph-name="uni04E7" unicode="&#x4e7;" horiz-adv-x="619" 
d="M310 -11q-82 0 -143 31t-95 89t-34 137q0 80 34 137.5t95 88.5t143 31t143 -31t94.5 -88.5t33.5 -137.5q0 -79 -33.5 -137t-94.5 -89t-143 -31zM310 120q40 0 66 30t26 96q0 67 -26 96.5t-66 29.5q-41 0 -67 -29.5t-26 -96.5q0 -66 26 -96t67 -30zM338 582v150h150v-150
h-150zM132 582v150h150v-150h-150z" />
    <glyph glyph-name="uni04E8" unicode="&#x4e8;" horiz-adv-x="807" 
d="M404 -11q-107 0 -187.5 45.5t-125.5 127.5t-45 191q0 110 44.5 191.5t125.5 126.5t188 45t187.5 -45t125.5 -126.5t45 -191.5q0 -109 -45 -191t-125.5 -127.5t-187.5 -45.5zM404 562q-63 0 -104.5 -35.5t-55.5 -101.5h320q-14 65 -55.5 101t-104.5 36zM404 143
q65 0 107 39t55 109h-324q12 -70 54 -109t108 -39z" />
    <glyph glyph-name="uni04E9" unicode="&#x4e9;" horiz-adv-x="619" 
d="M310 -11q-82 0 -143.5 31t-95 89t-33.5 137q0 80 33.5 137.5t95 88.5t143.5 31t143 -31t94.5 -88.5t33.5 -137.5q0 -79 -33.5 -137t-94.5 -89t-143 -31zM310 382q-38 0 -64.5 -20t-37.5 -61h203q-11 41 -37.5 61t-63.5 20zM310 111q38 0 64 19.5t37 61.5h-202
q10 -42 37 -61.5t64 -19.5z" />
    <glyph glyph-name="uni04EA" unicode="&#x4ea;" horiz-adv-x="807" 
d="M404 -11q-107 0 -187.5 45.5t-125.5 127.5t-45 191q0 110 44.5 191.5t125.5 126.5t188 45t187.5 -45t125.5 -126.5t45 -191.5q0 -109 -45 -191t-125.5 -127.5t-187.5 -45.5zM404 562q-63 0 -104.5 -35.5t-55.5 -101.5h320q-14 65 -55.5 101t-104.5 36zM404 143
q65 0 107 39t55 109h-324q12 -70 54 -109t108 -39zM427 771v149h150v-149h-150zM221 771v149h150v-149h-150z" />
    <glyph glyph-name="uni04EB" unicode="&#x4eb;" horiz-adv-x="619" 
d="M310 -11q-82 0 -143.5 31t-95 89t-33.5 137q0 80 33.5 137.5t95 88.5t143.5 31t143 -31t94.5 -88.5t33.5 -137.5q0 -79 -33.5 -137t-94.5 -89t-143 -31zM310 382q-38 0 -64.5 -20t-37.5 -61h203q-11 41 -37.5 61t-63.5 20zM310 111q38 0 64 19.5t37 61.5h-202
q10 -42 37 -61.5t64 -19.5zM338 582v150h150v-150h-150zM132 582v150h150v-150h-150z" />
    <glyph glyph-name="uni04EC" unicode="&#x4ec;" horiz-adv-x="687" 
d="M267 -11q-70 0 -135 21.5t-105 56.5l55 145q44 -32 88 -47.5t90 -15.5q72 0 120 33.5t64 105.5h-276v142h273q-16 62 -61 94t-110 32q-46 0 -91 -14t-97 -49l-55 145q48 35 114 56.5t136 21.5q112 0 194 -45t126.5 -126.5t44.5 -191.5t-45 -192t-129 -127t-201 -45z
M340 771v149h150v-149h-150zM134 771v149h150v-149h-150z" />
    <glyph glyph-name="uni04ED" unicode="&#x4ed;" horiz-adv-x="534" 
d="M212 -11q-57 0 -110.5 14t-87.5 42l46 108q29 -20 66 -31.5t71 -11.5q47 0 81 19.5t49 60.5h-208v117h207q-30 76 -129 76q-74 0 -137 -43l-46 108q36 27 90 41t109 14q86 0 149.5 -30.5t98.5 -88t35 -137.5t-35 -138t-98.5 -89t-150.5 -31zM264 582v150h150v-150h-150z
M58 582v150h150v-150h-150z" />
    <glyph glyph-name="uni04EE" unicode="&#x4ee;" horiz-adv-x="681" 
d="M161 0l108 215l-298 490h194l190 -322l162 322h188l-356 -705h-188zM162 796v97h367v-97h-367z" />
    <glyph glyph-name="uni04EF" unicode="&#x4ef;" horiz-adv-x="559" 
d="M91 -180l99 214l-201 458h187l108 -279l112 279h176l-301 -672h-180zM112 605v97h337v-97h-337z" />
    <glyph glyph-name="uni04F0" unicode="&#x4f0;" horiz-adv-x="681" 
d="M161 0l108 215l-298 490h194l190 -322l162 322h188l-356 -705h-188zM373 771v149h150v-149h-150zM167 771v149h150v-149h-150z" />
    <glyph glyph-name="uni04F1" unicode="&#x4f1;" horiz-adv-x="559" 
d="M91 -180l99 214l-201 458h187l108 -279l112 279h176l-301 -672h-180zM308 582v150h150v-150h-150zM102 582v150h150v-150h-150z" />
    <glyph glyph-name="uni04F2" unicode="&#x4f2;" horiz-adv-x="681" 
d="M161 0l108 215l-298 490h194l190 -322l162 322h188l-356 -705h-188zM211 765l84 176h150l-136 -176h-98zM381 765l101 176h150l-152 -176h-99z" />
    <glyph glyph-name="uni04F3" unicode="&#x4f3;" horiz-adv-x="559" 
d="M91 -180l99 214l-201 458h187l108 -279l112 279h176l-301 -672h-180zM319 557l44 205h141l-94 -205h-91zM145 557l44 205h141l-94 -205h-91z" />
    <glyph glyph-name="uni04F4" unicode="&#x4f4;" horiz-adv-x="721" 
d="M473 0v248q-22 -9 -57.5 -15t-71.5 -6q-142 0 -219.5 75t-77.5 229v174h183v-168q0 -84 34.5 -120t102.5 -36q26 0 54.5 5t51.5 15v304h184v-705h-184zM375 771v149h150v-149h-150zM169 771v149h150v-149h-150z" />
    <glyph glyph-name="uni04F5" unicode="&#x4f5;" horiz-adv-x="600" 
d="M366 0v153q-26 -9 -50 -13t-47 -4q-229 0 -229 225v131h178v-115q0 -53 19.5 -76t68.5 -23q16 0 30.5 3t25.5 9v202h178v-492h-174zM318 582v150h150v-150h-150zM112 582v150h150v-150h-150z" />
    <glyph glyph-name="uni04F6" unicode="&#x4f6;" horiz-adv-x="579" 
d="M64 0v705h498v-150h-314v-411h100v-319h-160v175h-124z" />
    <glyph glyph-name="uni04F7" unicode="&#x4f7;" horiz-adv-x="484" 
d="M60 0v492h405v-137h-227v-224h83v-261h-150v130h-111z" />
    <glyph glyph-name="uni04F8" unicode="&#x4f8;" horiz-adv-x="957" 
d="M64 0v705h184v-274h136q115 0 181.5 -56t66.5 -159q0 -104 -66.5 -160t-181.5 -56h-320zM709 0v705h183v-705h-183zM248 139h111q51 0 74.5 19t23.5 58q0 38 -23.5 57t-74.5 19h-111v-153zM506 771v149h150v-149h-150zM300 771v149h150v-149h-150z" />
    <glyph glyph-name="uni04F9" unicode="&#x4f9;" horiz-adv-x="831" 
d="M60 0v492h178v-148h107q205 0 205 -168q0 -52 -26 -91.5t-72 -62t-107 -22.5h-285zM593 0v492h178v-492h-178zM238 112h74q35 0 55.5 15.5t20.5 46.5q0 58 -76 58h-74v-120zM443 582v150h150v-150h-150zM237 582v150h150v-150h-150z" />
    <glyph glyph-name="uni04FA" unicode="&#x4fa;" horiz-adv-x="628" 
d="M87 -188l-12 118l62 5q47 4 69.5 21.5t22.5 43.5h-116v277h-92v128h92v300h498v-150h-314v-150h173v-128h-173v-133h100v-107q0 -105 -55 -158.5t-173 -60.5z" />
    <glyph glyph-name="uni04FB" unicode="&#x4fb;" horiz-adv-x="512" 
d="M79 -188l-12 118l71 5q30 3 41 21t11 44h-102v167h-84v115h84v210h405v-137h-227v-73h134v-115h-134v-63h83v-67q0 -105 -50 -159t-138 -60z" />
    <glyph glyph-name="uni04FC" unicode="&#x4fc;" horiz-adv-x="698" 
d="M416 -189l-33 144q58 4 76 21.5t18 43.5q0 13 -8 30.5t-28 43.5l-92 128l-160 -222h-214l270 356l-264 349h213l155 -216l155 216h214l-264 -349l141 -187q42 -54 57 -96t15 -77q0 -77 -60 -125t-191 -60z" />
    <glyph glyph-name="uni04FD" unicode="&#x4fd;" horiz-adv-x="590" 
d="M340 -189l-26 122q44 3 62 15t18 35q0 24 -39 73l-60 75l-103 -131h-207l210 253l-196 239h206l91 -117l90 117h206l-196 -238l106 -128q40 -48 56 -80t16 -69q0 -67 -53 -111t-181 -55z" />
    <glyph glyph-name="uni04FE" unicode="&#x4fe;" horiz-adv-x="698" 
d="M-25 0l270 356l-264 349h213l155 -216l155 216h214l-264 -349l269 -356h-214l-160 222l-160 -222h-214zM95 312v103h508v-103h-508z" />
    <glyph glyph-name="uni04FF" unicode="&#x4ff;" horiz-adv-x="590" 
d="M-14 0l209 254l-196 238h207l90 -116l90 116h206l-196 -238l211 -254h-208l-104 131l-103 -131h-206zM42 198v103h508v-103h-508z" />
    <glyph glyph-name="uni0510" unicode="&#x510;" horiz-adv-x="628" 
d="M333 -11q-149 0 -220.5 59t-71.5 152q0 63 31.5 105.5t89.5 60.5q-48 20 -75.5 61t-27.5 96t31.5 99t92.5 69t151 25q82 0 148 -20.5t113 -55.5l-51 -135q-39 29 -90.5 44.5t-105.5 15.5q-59 0 -84.5 -20t-25.5 -51q0 -34 23.5 -50t73.5 -16h152v-141h-170
q-51 0 -74.5 -16.5t-23.5 -50.5q0 -41 32 -60.5t99 -19.5q63 0 116 16t92 45l51 -135q-55 -37 -121.5 -57t-154.5 -20z" />
    <glyph glyph-name="uni0511" unicode="&#x511;" horiz-adv-x="546" 
d="M282 -11q-119 0 -186 40.5t-67 110.5q0 94 95 118q-36 14 -56 41.5t-20 64.5q0 66 64.5 102.5t175.5 36.5q63 0 123.5 -14t102.5 -38l-41 -108q-35 16 -76.5 26.5t-90.5 10.5q-56 0 -77 -10t-21 -29q0 -33 51 -33h134v-120h-148q-30 0 -43.5 -9.5t-13.5 -26.5
q0 -42 98 -42q50 0 104 11.5t89 31.5l41 -110q-44 -27 -106 -40.5t-132 -13.5z" />
    <glyph glyph-name="uni0512" unicode="&#x512;" horiz-adv-x="765" 
d="M413 -193l-12 125l52 6q32 4 48 19t16 46v552h-184v-115q0 -182 -61.5 -294t-168.5 -165l-93 131q55 32 89 78.5t50 118t16 179.5v217h536v-677q0 -74 -23 -120t-76.5 -69t-144.5 -29z" />
    <glyph glyph-name="uni0513" unicode="&#x513;" horiz-adv-x="624" 
d="M290 -193l-12 125l49 6q31 4 45 19t14 46v353h-103v-53q0 -142 -53.5 -224t-165.5 -96l-50 141q57 12 82 55.5t25 129.5v183h443v-485q0 -100 -57 -144.5t-173 -52.5z" />
    <glyph glyph-name="uni051A" unicode="&#x51a;" horiz-adv-x="807" 
d="M592 -228l-113 183q-22 34 -76 34v0q-107 0 -187.5 45.5t-125 127.5t-44.5 191q0 110 44.5 191.5t125.5 126.5t188 45t187.5 -45t125.5 -126.5t45 -191.5t-45.5 -192.5t-126.5 -126.5q49 -14 79 -64l80 -127zM404 143q78 0 122.5 55.5t44.5 154.5t-44 154t-123 55
t-123 -55t-44 -154t44 -154.5t123 -55.5z" />
    <glyph glyph-name="uni051B" unicode="&#x51b;" horiz-adv-x="638" 
d="M400 -180v240q-21 -32 -60.5 -51.5t-86.5 -19.5q-63 0 -111.5 31t-76 89t-27.5 137q0 80 27.5 137.5t76 88.5t111.5 31q50 0 91 -21.5t60 -57.5v68h174v-672h-178zM310 120q40 0 66 30t26 96q0 67 -26 96.5t-66 29.5q-41 0 -67 -29.5t-26 -96.5q0 -66 26 -96t67 -30z" />
    <glyph glyph-name="uni051C" unicode="&#x51c;" horiz-adv-x="1128" 
d="M264 0l-253 705h188l147 -442l159 442h130l152 -451l154 451h177l-255 -705h-147l-151 424l-154 -424h-147z" />
    <glyph glyph-name="uni051D" unicode="&#x51d;" horiz-adv-x="886" 
d="M202 0l-207 492h180l109 -285l108 285h111l109 -290l109 290h169l-205 -492h-147l-97 242l-92 -242h-147z" />
    <glyph glyph-name="uni0524" unicode="&#x524;" horiz-adv-x="831" 
d="M656 -175v175h-125v555h-283v-555h-184v705h651v-561h100v-319h-159z" />
    <glyph glyph-name="uni0525" unicode="&#x525;" horiz-adv-x="666" 
d="M503 -130v130h-111v356h-154v-356h-178v492h510v-361h83v-261h-150z" />
    <glyph glyph-name="uni0526" unicode="&#x526;" horiz-adv-x="773" 
d="M615 -175v175h-124v168q0 84 -34.5 120t-102.5 36q-26 0 -54.5 -4.5t-51.5 -15.5v-304h-184v705h184v-248q22 9 57.5 15t71.5 6q142 0 220 -75t78 -229v-30h100v-319h-160z" />
    <glyph glyph-name="uni0527" unicode="&#x527;" horiz-adv-x="658" 
d="M61 0v705h178v-274q53 72 154 72q88 0 130.5 -52t42.5 -160v-160h83v-261h-150v130h-111v284q0 45 -15.5 64t-45.5 19q-40 0 -64 -25.5t-24 -68.5v-273h-178z" />
    <glyph glyph-name="uni0528" unicode="&#x528;" horiz-adv-x="799" 
d="M-19 -193l-12 125l49 6q31 4 45 19t14 46v702h184v-272h290v272h184v-705h-184v282h-290v-262q0 -71 -22.5 -115.5t-74.5 -66.5t-139 -28z" />
    <glyph glyph-name="uni0529" unicode="&#x529;" horiz-adv-x="633" 
d="M-35 -193l-13 125l49 6q31 4 45 19t14 46v489h178v-173h157v173h178v-492h-178v182h-157v-154q0 -74 -21.5 -120t-71.5 -69t-136 -29z" />
    <glyph glyph-name="uni052E" unicode="&#x52e;" horiz-adv-x="817" 
d="M641 -175v175h-124v555h-184v-115q0 -182 -61.5 -294t-168.5 -165l-93 131q55 32 89 78.5t50 118t16 179.5v217h536v-561h100v-319h-160z" />
    <glyph glyph-name="uni052F" unicode="&#x52f;" horiz-adv-x="660" 
d="M64 -17l-50 141q57 12 82 55.5t25 129.5v183h443v-361h83v-261h-150v130h-111v356h-103v-53q0 -142 -53.5 -224t-165.5 -96z" />
    <glyph glyph-name="uni1E08" unicode="&#x1e08;" horiz-adv-x="687" 
d="M420 -11q-117 0 -201 45t-128.5 127t-44.5 192t44.5 191.5t128.5 126.5t201 45q70 0 135 -21.5t105 -56.5l-55 -145q-44 32 -88 47.5t-90 15.5q-93 0 -140 -52.5t-47 -150.5q0 -99 47 -151.5t140 -52.5q46 0 90 15.5t88 47.5l55 -145q-40 -35 -105 -56.5t-135 -21.5z
M396 -198q-33 0 -64 5.5t-54 17.5l24 70q38 -17 75 -17q49 0 49 21q0 18 -36 18q-16 0 -35 -4l-21 21l12 86h85l-8 -51h1q47 0 73 -20t26 -56q0 -42 -35.5 -66.5t-91.5 -24.5zM337 765l118 176h178l-174 -176h-122z" />
    <glyph glyph-name="uni1E09" unicode="&#x1e09;" horiz-adv-x="484" 
d="M303 -11q-83 0 -144.5 31t-95.5 89t-34 138t34 137.5t95.5 88t144.5 30.5q49 0 97.5 -13.5t79.5 -37.5l-47 -122q-23 18 -53.5 28.5t-57.5 10.5q-53 0 -82 -32t-29 -90q0 -59 29 -91.5t82 -32.5q27 0 57.5 10.5t53.5 28.5l47 -122q-31 -24 -80 -37.5t-97 -13.5zM288 -198
q-33 0 -64 5.5t-54 17.5l24 70q38 -17 75 -17q49 0 49 21q0 18 -36 18q-16 0 -35 -4l-21 21l12 86h85l-8 -51h1q47 0 73 -20t26 -56q0 -42 -35.5 -66.5t-91.5 -24.5zM233 557l101 205h167l-154 -205h-114z" />
    <glyph glyph-name="uni1E0C" unicode="&#x1e0c;" horiz-adv-x="786" 
d="M64 0v705h292q183 0 284 -92t101 -260t-101 -260.5t-284 -92.5h-292zM248 149h96q105 0 155.5 50.5t50.5 153.5t-51 153t-155 50h-96v-407zM309 -224v149h160v-149h-160z" />
    <glyph glyph-name="uni1E0D" unicode="&#x1e0d;" horiz-adv-x="620" 
d="M244 -11q-63 0 -111.5 31t-76 89t-27.5 137q0 80 27.5 137.5t76 88.5t111.5 31q47 0 86.5 -19.5t60.5 -50.5v272h178v-705h-174v68q-19 -36 -60 -57.5t-91 -21.5zM301 120q40 0 66 30t26 96q0 67 -26 96.5t-66 29.5q-41 0 -67 -29.5t-26 -96.5q0 -66 26 -96t67 -30z
M232 -224v149h160v-149h-160z" />
    <glyph glyph-name="uni1E0E" unicode="&#x1e0e;" horiz-adv-x="786" 
d="M64 0v705h292q183 0 284 -92t101 -260t-101 -260.5t-284 -92.5h-292zM248 149h96q105 0 155.5 50.5t50.5 153.5t-51 153t-155 50h-96v-407zM221 -175v97h337v-97h-337z" />
    <glyph glyph-name="uni1E0F" unicode="&#x1e0f;" horiz-adv-x="620" 
d="M244 -11q-63 0 -111.5 31t-76 89t-27.5 137q0 80 27.5 137.5t76 88.5t111.5 31q47 0 86.5 -19.5t60.5 -50.5v272h178v-705h-174v68q-19 -36 -60 -57.5t-91 -21.5zM301 120q40 0 66 30t26 96q0 67 -26 96.5t-66 29.5q-41 0 -67 -29.5t-26 -96.5q0 -66 26 -96t67 -30z
M144 -175v97h337v-97h-337z" />
    <glyph glyph-name="uni1E14" unicode="&#x1e14;" horiz-adv-x="614" 
d="M64 0v705h498v-142h-322v-134h299v-142h-299v-145h322v-142h-498zM281 908l-114 121h161l57 -121h-104zM165 774v97h337v-97h-337z" />
    <glyph glyph-name="uni1E15" unicode="&#x1e15;" horiz-adv-x="555" 
d="M320 -11q-90 0 -155.5 31.5t-100.5 89.5t-35 137q0 75 33.5 133t92 90.5t133.5 32.5q74 0 128.5 -31t84 -88.5t29.5 -134.5v-39h-331q9 -48 40 -69t86 -21q38 0 79.5 11.5t73.5 33.5l44 -117q-38 -27 -93 -43t-109 -16zM296 388q-40 0 -65.5 -24t-32.5 -70h186
q-3 47 -25.5 70.5t-62.5 23.5zM238 695l-114 121h161l57 -121h-104zM122 561v97h337v-97h-337z" />
    <glyph glyph-name="uni1E16" unicode="&#x1e16;" horiz-adv-x="614" 
d="M64 0v705h498v-142h-322v-134h299v-142h-299v-145h322v-142h-498zM281 908l57 121h161l-114 -121h-104zM165 774v97h337v-97h-337z" />
    <glyph glyph-name="uni1E17" unicode="&#x1e17;" horiz-adv-x="555" 
d="M320 -11q-90 0 -155.5 31.5t-100.5 89.5t-35 137q0 75 33.5 133t92 90.5t133.5 32.5q74 0 128.5 -31t84 -88.5t29.5 -134.5v-39h-331q9 -48 40 -69t86 -21q38 0 79.5 11.5t73.5 33.5l44 -117q-38 -27 -93 -43t-109 -16zM296 388q-40 0 -65.5 -24t-32.5 -70h186
q-3 47 -25.5 70.5t-62.5 23.5zM238 695l57 121h161l-114 -121h-104zM122 561v97h337v-97h-337z" />
    <glyph glyph-name="uni1E1C" unicode="&#x1e1c;" horiz-adv-x="614" 
d="M64 0v705h498v-142h-322v-134h299v-142h-299v-145h322v-142h-498zM331 -198q-33 0 -64 5.5t-54 17.5l24 70q38 -17 75 -17q49 0 49 21q0 18 -36 18q-16 0 -35 -4l-21 21l12 86h85l-8 -51h1q47 0 73 -20t26 -56q0 -42 -35.5 -66.5t-91.5 -24.5zM333 760q-86 0 -140 46.5
t-59 125.5l96 12q4 -40 30.5 -62.5t71.5 -22.5t72.5 22.5t32.5 62.5l95 -12q-5 -79 -58.5 -125.5t-140.5 -46.5z" />
    <glyph glyph-name="uni1E1D" unicode="&#x1e1d;" horiz-adv-x="555" 
d="M320 -11q-90 0 -155.5 31.5t-100.5 89.5t-35 137q0 75 33.5 133t92 90.5t133.5 32.5q74 0 128.5 -31t84 -88.5t29.5 -134.5v-39h-331q9 -48 40 -69t86 -21q38 0 79.5 11.5t73.5 33.5l44 -117q-38 -27 -93 -43t-109 -16zM296 388q-40 0 -65.5 -24t-32.5 -70h186
q-3 47 -25.5 70.5t-62.5 23.5zM288 -198q-33 0 -64 5.5t-54 17.5l24 70q38 -17 75 -17q49 0 49 21q0 18 -36 18q-16 0 -35 -4l-21 21l12 86h85l-8 -51h1q47 0 73 -20t26 -56q0 -42 -35.5 -66.5t-91.5 -24.5zM290 553q-80 0 -129.5 53.5t-50.5 143.5l95 9q4 -51 26 -78
t59 -27t59 27t26 78l95 -9q-1 -90 -50.5 -143.5t-129.5 -53.5z" />
    <glyph glyph-name="uni1E20" unicode="&#x1e20;" horiz-adv-x="747" 
d="M424 -11q-121 0 -205.5 45t-128.5 126t-44 189q0 112 46.5 194.5t133.5 127.5t210 45q74 0 141 -19.5t109 -52.5l-56 -142q-46 30 -93 43.5t-100 13.5q-101 0 -150.5 -54t-49.5 -156t50 -154t148 -52q46 0 103 14v111h-141v129h291v-354q-56 -26 -125 -40t-139 -14z
M229 796v97h367v-97h-367z" />
    <glyph glyph-name="uni1E21" unicode="&#x1e21;" horiz-adv-x="626" 
d="M296 -191q-74 0 -138.5 14t-110.5 46l46 120q38 -23 90.5 -36t95.5 -13q61 0 91.5 25.5t30.5 79.5v46q-21 -36 -63 -57t-90 -21q-66 0 -115 30.5t-76.5 85.5t-27.5 129t27.5 129t76.5 85.5t115 30.5q50 0 91.5 -21.5t60.5 -56.5v67h174v-426q0 -129 -72 -193t-206 -64z
M303 144q44 0 70 30t26 84t-26 84t-70 30q-43 0 -69 -30t-26 -84t26 -84t69 -30zM144 605v97h337v-97h-337z" />
    <glyph glyph-name="uni1E24" unicode="&#x1e24;" horiz-adv-x="786" 
d="M64 0v705h184v-272h291v272h183v-705h-183v282h-291v-282h-184zM313 -224v149h160v-149h-160z" />
    <glyph glyph-name="uni1E25" unicode="&#x1e25;" horiz-adv-x="606" 
d="M52 0v705h178v-274q53 72 154 72q88 0 130.5 -52t42.5 -160v-291h-178v284q0 45 -15.5 64t-45.5 19q-40 0 -64 -25.5t-24 -68.5v-273h-178zM225 -224v149h160v-149h-160z" />
    <glyph glyph-name="uni1E2A" unicode="&#x1e2a;" horiz-adv-x="786" 
d="M64 0v705h184v-272h291v272h183v-705h-183v282h-291v-282h-184zM393 -215q-80 0 -129.5 43t-50.5 114l95 9q4 -31 26 -49t59 -18t59 18t26 49l95 -9q-1 -71 -50.5 -114t-129.5 -43z" />
    <glyph glyph-name="uni1E2B" unicode="&#x1e2b;" horiz-adv-x="606" 
d="M52 0v705h178v-274q53 72 154 72q88 0 130.5 -52t42.5 -160v-291h-178v284q0 45 -15.5 64t-45.5 19q-40 0 -64 -25.5t-24 -68.5v-273h-178zM305 -215q-80 0 -129.5 43t-50.5 114l95 9q4 -31 26 -49t59 -18t59 18t26 49l95 -9q-1 -71 -50.5 -114t-129.5 -43z" />
    <glyph glyph-name="uni1E2E" unicode="&#x1e2e;" horiz-adv-x="312" 
d="M64 0v705h184v-705h-184zM104 908l57 121h161l-114 -121h-104zM-22 769v106h150v-106h-150zM184 769v106h150v-106h-150z" />
    <glyph glyph-name="uni1E2F" unicode="&#x1e2f;" horiz-adv-x="281" 
d="M52 0v492h178v-492h-178zM88 695l57 121h161l-114 -121h-104zM-38 557v105h150v-105h-150zM168 557v105h150v-105h-150z" />
    <glyph glyph-name="uni1E36" unicode="&#x1e36;" horiz-adv-x="585" 
d="M64 0v705h184v-552h314v-153h-498zM233 -224v149h160v-149h-160z" />
    <glyph glyph-name="uni1E37" unicode="&#x1e37;" horiz-adv-x="348" 
d="M246 -11q-102 0 -148 51.5t-46 155.5v509h178v-503q0 -70 64 -70q10 0 20.5 1t20.5 3l-2 -136q-40 -11 -87 -11zM119 -224v149h160v-149h-160z" />
    <glyph glyph-name="uni1E3A" unicode="&#x1e3a;" horiz-adv-x="585" 
d="M64 0v705h184v-552h314v-153h-498zM145 -175v97h337v-97h-337z" />
    <glyph glyph-name="uni1E3B" unicode="&#x1e3b;" horiz-adv-x="348" 
d="M246 -11q-102 0 -148 51.5t-46 155.5v509h178v-503q0 -70 64 -70q10 0 20.5 1t20.5 3l-2 -136q-40 -11 -87 -11zM31 -175v97h337v-97h-337z" />
    <glyph glyph-name="uni1E42" unicode="&#x1e42;" horiz-adv-x="884" 
d="M66 0v705h153l225 -404l225 404h149v-705h-166v383l-161 -279h-100l-159 275v-379h-166zM363 -224v149h160v-149h-160z" />
    <glyph glyph-name="uni1E43" unicode="&#x1e43;" horiz-adv-x="902" 
d="M54 0v492h173v-66q23 35 61.5 56t88.5 21t86.5 -22t55.5 -68q25 43 68 66.5t95 23.5q86 0 127.5 -51.5t41.5 -160.5v-291h-178v286q0 43 -13 62t-43 19q-37 0 -56.5 -26t-19.5 -74v-267h-178v286q0 43 -13 62t-43 19q-36 0 -55.5 -26t-19.5 -74v-267h-178zM372 -224v149
h160v-149h-160z" />
    <glyph glyph-name="uni1E44" unicode="&#x1e44;" horiz-adv-x="758" 
d="M64 0v705h135l324 -404v404h170v-705h-134l-324 404v-404h-171zM298 778v150h160v-150h-160z" />
    <glyph glyph-name="uni1E45" unicode="&#x1e45;" horiz-adv-x="606" 
d="M52 0v492h173v-67q26 38 67 58t92 20q88 0 130.5 -52t42.5 -160v-291h-178v284q0 45 -15.5 64t-45.5 19q-40 0 -64 -25.5t-24 -68.5v-273h-178zM225 583v150h160v-150h-160z" />
    <glyph glyph-name="uni1E46" unicode="&#x1e46;" horiz-adv-x="758" 
d="M64 0v705h135l324 -404v404h170v-705h-134l-324 404v-404h-171zM299 -224v149h160v-149h-160z" />
    <glyph glyph-name="uni1E47" unicode="&#x1e47;" horiz-adv-x="606" 
d="M52 0v492h173v-67q26 38 67 58t92 20q88 0 130.5 -52t42.5 -160v-291h-178v284q0 45 -15.5 64t-45.5 19q-40 0 -64 -25.5t-24 -68.5v-273h-178zM225 -224v149h160v-149h-160z" />
    <glyph glyph-name="uni1E48" unicode="&#x1e48;" horiz-adv-x="758" 
d="M64 0v705h135l324 -404v404h170v-705h-134l-324 404v-404h-171zM211 -175v97h337v-97h-337z" />
    <glyph glyph-name="uni1E49" unicode="&#x1e49;" horiz-adv-x="606" 
d="M52 0v492h173v-67q26 38 67 58t92 20q88 0 130.5 -52t42.5 -160v-291h-178v284q0 45 -15.5 64t-45.5 19q-40 0 -64 -25.5t-24 -68.5v-273h-178zM137 -175v97h337v-97h-337z" />
    <glyph glyph-name="uni1E4C" unicode="&#x1e4c;" horiz-adv-x="807" 
d="M404 -11q-107 0 -187.5 45.5t-125.5 127.5t-45 191q0 110 44.5 191.5t125.5 126.5t188 45t187.5 -45t125.5 -126.5t45 -191.5q0 -109 -45 -191t-125.5 -127.5t-187.5 -45.5zM404 143q78 0 122.5 55.5t44.5 154.5t-44 154t-123 55t-123 -55t-44 -154t44 -154.5t123 -55.5z
M350 908l57 121h161l-114 -121h-104zM470 766q-19 0 -38.5 5.5t-40.5 14.5q-19 8 -30.5 11t-20.5 3q-23 0 -35.5 -8.5t-17.5 -25.5l-74 4q4 57 37.5 86t83.5 29q31 0 78 -19q34 -14 52 -14q44 0 53 34l74 -5q-4 -57 -37.5 -86t-83.5 -29z" />
    <glyph glyph-name="uni1E4D" unicode="&#x1e4d;" horiz-adv-x="602" 
d="M301 -11q-82 0 -143 31t-95 89t-34 137q0 80 34 137.5t95 88.5t143 31t143 -31t94.5 -88.5t33.5 -137.5q0 -79 -33.5 -137t-94.5 -89t-143 -31zM301 120q40 0 66 30t26 96q0 67 -26 96.5t-66 29.5q-41 0 -67 -29.5t-26 -96.5q0 -66 26 -96t67 -30zM249 695l57 121h161
l-114 -121h-104zM186 553l-74 4q4 57 37.5 86t83.5 29q19 0 37.5 -4.5t38.5 -13.5q16 -7 29.5 -11t24.5 -4q44 0 53 34l74 -4q-4 -58 -37.5 -87t-83.5 -29q-20 0 -40 5.5t-39 14.5q-16 6 -29 10t-22 4q-23 0 -35.5 -8.5t-17.5 -25.5z" />
    <glyph glyph-name="uni1E4E" unicode="&#x1e4e;" horiz-adv-x="807" 
d="M404 -11q-107 0 -187.5 45.5t-125.5 127.5t-45 191q0 110 44.5 191.5t125.5 126.5t188 45t187.5 -45t125.5 -126.5t45 -191.5q0 -109 -45 -191t-125.5 -127.5t-187.5 -45.5zM404 143q78 0 122.5 55.5t44.5 154.5t-44 154t-123 55t-123 -55t-44 -154t44 -154.5t123 -55.5z
M224 915v105h150v-105h-150zM430 915v105h150v-105h-150zM470 766q-19 0 -38.5 5.5t-40.5 14.5q-19 8 -30.5 11t-20.5 3q-23 0 -35.5 -8.5t-17.5 -25.5l-74 4q4 57 37.5 86t83.5 29q31 0 78 -19q34 -14 52 -14q44 0 53 34l74 -5q-4 -57 -37.5 -86t-83.5 -29z" />
    <glyph glyph-name="uni1E4F" unicode="&#x1e4f;" horiz-adv-x="602" 
d="M301 -11q-82 0 -143 31t-95 89t-34 137q0 80 34 137.5t95 88.5t143 31t143 -31t94.5 -88.5t33.5 -137.5q0 -79 -33.5 -137t-94.5 -89t-143 -31zM301 120q40 0 66 30t26 96q0 67 -26 96.5t-66 29.5q-41 0 -67 -29.5t-26 -96.5q0 -66 26 -96t67 -30zM124 702v105h148v-105
h-148zM330 702v105h149v-105h-149zM186 553l-74 4q4 57 37.5 86t83.5 29q19 0 37.5 -4.5t38.5 -13.5q16 -7 29.5 -11t24.5 -4q44 0 53 34l74 -4q-4 -58 -37.5 -87t-83.5 -29q-20 0 -40 5.5t-39 14.5q-16 6 -29 10t-22 4q-23 0 -35.5 -8.5t-17.5 -25.5z" />
    <glyph glyph-name="uni1E50" unicode="&#x1e50;" horiz-adv-x="807" 
d="M404 -11q-107 0 -187.5 45.5t-125.5 127.5t-45 191q0 110 44.5 191.5t125.5 126.5t188 45t187.5 -45t125.5 -126.5t45 -191.5q0 -109 -45 -191t-125.5 -127.5t-187.5 -45.5zM404 143q78 0 122.5 55.5t44.5 154.5t-44 154t-123 55t-123 -55t-44 -154t44 -154.5t123 -55.5z
M350 908l-114 121h161l57 -121h-104zM234 774v97h337v-97h-337z" />
    <glyph glyph-name="uni1E51" unicode="&#x1e51;" horiz-adv-x="602" 
d="M301 -11q-82 0 -143 31t-95 89t-34 137q0 80 34 137.5t95 88.5t143 31t143 -31t94.5 -88.5t33.5 -137.5q0 -79 -33.5 -137t-94.5 -89t-143 -31zM301 120q40 0 66 30t26 96q0 67 -26 96.5t-66 29.5q-41 0 -67 -29.5t-26 -96.5q0 -66 26 -96t67 -30zM249 695l-114 121h161
l57 -121h-104zM133 561v97h337v-97h-337z" />
    <glyph glyph-name="uni1E52" unicode="&#x1e52;" horiz-adv-x="807" 
d="M404 -11q-107 0 -187.5 45.5t-125.5 127.5t-45 191q0 110 44.5 191.5t125.5 126.5t188 45t187.5 -45t125.5 -126.5t45 -191.5q0 -109 -45 -191t-125.5 -127.5t-187.5 -45.5zM404 143q78 0 122.5 55.5t44.5 154.5t-44 154t-123 55t-123 -55t-44 -154t44 -154.5t123 -55.5z
M350 908l57 121h161l-114 -121h-104zM234 774v97h337v-97h-337z" />
    <glyph glyph-name="uni1E53" unicode="&#x1e53;" horiz-adv-x="602" 
d="M301 -11q-82 0 -143 31t-95 89t-34 137q0 80 34 137.5t95 88.5t143 31t143 -31t94.5 -88.5t33.5 -137.5q0 -79 -33.5 -137t-94.5 -89t-143 -31zM301 120q40 0 66 30t26 96q0 67 -26 96.5t-66 29.5q-41 0 -67 -29.5t-26 -96.5q0 -66 26 -96t67 -30zM249 695l57 121h161
l-114 -121h-104zM133 561v97h337v-97h-337z" />
    <glyph glyph-name="uni1E5A" unicode="&#x1e5a;" horiz-adv-x="706" 
d="M64 0v705h339q120 0 185.5 -58.5t65.5 -162.5q0 -79 -39.5 -132.5t-114.5 -74.5q56 -15 90 -77l110 -200h-202l-122 224q-12 21 -30.5 30t-42.5 9h-55v-263h-184zM248 393h122q109 0 109 86q0 85 -109 85h-122v-171zM278 -224v149h160v-149h-160z" />
    <glyph glyph-name="uni1E5B" unicode="&#x1e5b;" horiz-adv-x="434" 
d="M52 0v492h173v-83q34 85 147 93l49 4l10 -150l-97 -9q-53 -5 -77 -29.5t-24 -72.5v-245h-181zM62 -224v149h160v-149h-160z" />
    <glyph glyph-name="uni1E5E" unicode="&#x1e5e;" horiz-adv-x="706" 
d="M64 0v705h339q120 0 185.5 -58.5t65.5 -162.5q0 -79 -39.5 -132.5t-114.5 -74.5q56 -15 90 -77l110 -200h-202l-122 224q-12 21 -30.5 30t-42.5 9h-55v-263h-184zM248 393h122q109 0 109 86q0 85 -109 85h-122v-171zM190 -175v97h337v-97h-337z" />
    <glyph glyph-name="uni1E5F" unicode="&#x1e5f;" horiz-adv-x="434" 
d="M52 0v492h173v-83q34 85 147 93l49 4l10 -150l-97 -9q-53 -5 -77 -29.5t-24 -72.5v-245h-181zM-26 -175v97h337v-97h-337z" />
    <glyph glyph-name="uni1E60" unicode="&#x1e60;" horiz-adv-x="651" 
d="M326 -11q-83 0 -159 20.5t-125 54.5l51 143q46 -31 108 -49t125 -18q66 0 92.5 17.5t26.5 43.5q0 23 -18.5 37t-65.5 24l-117 25q-190 41 -190 199q0 69 37.5 121t104.5 80.5t156 28.5q73 0 138.5 -20.5t106.5 -55.5l-51 -134q-38 28 -88 43.5t-108 15.5q-56 0 -86 -19.5
t-30 -50.5q0 -22 18 -36t64 -24l116 -25q193 -41 193 -194q0 -69 -37 -120t-104 -79t-158 -28zM258 778v150h160v-150h-160z" />
    <glyph glyph-name="uni1E61" unicode="&#x1e61;" horiz-adv-x="496" 
d="M248 -11q-68 0 -125.5 14t-97.5 39l41 115q37 -21 86 -34.5t97 -13.5q37 0 53 10.5t16 27.5q0 15 -10.5 22.5t-29.5 11.5l-111 18q-62 10 -96 45t-34 91q0 52 29 89.5t81 58t119 20.5q53 0 105 -12.5t91 -40.5l-44 -113q-29 20 -72 33.5t-77 13.5q-41 0 -58 -11.5
t-17 -27.5q0 -27 37 -33l111 -19q64 -10 98.5 -43.5t34.5 -90.5q0 -81 -62 -125.5t-165 -44.5zM177 583v150h160v-150h-160z" />
    <glyph glyph-name="uni1E62" unicode="&#x1e62;" horiz-adv-x="651" 
d="M326 -11q-83 0 -159 20.5t-125 54.5l51 143q46 -31 108 -49t125 -18q66 0 92.5 17.5t26.5 43.5q0 23 -18.5 37t-65.5 24l-117 25q-190 41 -190 199q0 69 37.5 121t104.5 80.5t156 28.5q73 0 138.5 -20.5t106.5 -55.5l-51 -134q-38 28 -88 43.5t-108 15.5q-56 0 -86 -19.5
t-30 -50.5q0 -22 18 -36t64 -24l116 -25q193 -41 193 -194q0 -69 -37 -120t-104 -79t-158 -28zM251 -224v149h160v-149h-160z" />
    <glyph glyph-name="uni1E63" unicode="&#x1e63;" horiz-adv-x="496" 
d="M248 -11q-68 0 -125.5 14t-97.5 39l41 115q37 -21 86 -34.5t97 -13.5q37 0 53 10.5t16 27.5q0 15 -10.5 22.5t-29.5 11.5l-111 18q-62 10 -96 45t-34 91q0 52 29 89.5t81 58t119 20.5q53 0 105 -12.5t91 -40.5l-44 -113q-29 20 -72 33.5t-77 13.5q-41 0 -58 -11.5
t-17 -27.5q0 -27 37 -33l111 -19q64 -10 98.5 -43.5t34.5 -90.5q0 -81 -62 -125.5t-165 -44.5zM169 -224v149h160v-149h-160z" />
    <glyph glyph-name="uni1E64" unicode="&#x1e64;" horiz-adv-x="651" 
d="M326 -11q-83 0 -159 20.5t-125 54.5l51 143q46 -31 108 -49t125 -18q66 0 92.5 17.5t26.5 43.5q0 23 -18.5 37t-65.5 24l-117 25q-190 41 -190 199q0 69 37.5 121t104.5 80.5t156 28.5q73 0 138.5 -20.5t106.5 -55.5l-51 -134q-38 28 -88 43.5t-108 15.5q-56 0 -86 -19.5
t-30 -50.5q0 -22 18 -36t64 -24l116 -25q193 -41 193 -194q0 -69 -37 -120t-104 -79t-158 -28zM189 925v105h149v-105h-149zM277 765l118 176h178l-174 -176h-122z" />
    <glyph glyph-name="uni1E65" unicode="&#x1e65;" horiz-adv-x="496" 
d="M248 -11q-68 0 -125.5 14t-97.5 39l41 115q37 -21 86 -34.5t97 -13.5q37 0 53 10.5t16 27.5q0 15 -10.5 22.5t-29.5 11.5l-111 18q-62 10 -96 45t-34 91q0 52 29 89.5t81 58t119 20.5q53 0 105 -12.5t91 -40.5l-44 -113q-29 20 -72 33.5t-77 13.5q-41 0 -58 -11.5
t-17 -27.5q0 -27 37 -33l111 -19q64 -10 98.5 -43.5t34.5 -90.5q0 -81 -62 -125.5t-165 -44.5zM109 746v105h149v-105h-149zM200 557l110 205h167l-163 -205h-114z" />
    </font>
</defs>
</svg>
