<?xml version="1.0" standalone="no"?>
<!DOCTYPE svg PUBLIC "-//W3C//DTD SVG 1.1//EN" "http://www.w3.org/Graphics/SVG/1.1/DTD/svg11.dtd" >
<svg xmlns="http://www.w3.org/2000/svg" xmlns:xlink="http://www.w3.org/1999/xlink" version="1.1">
<metadata>
Created by FontForge 20170731 at Mon Jun 29 15:02:16 2020
 By Aleksey,,,
Copyright 2016 The Nunito Sans Project Authors (https://github.com/Fonthausen/NunitoSans)
</metadata>
<defs>
<font id="NunitoSans-Italic" horiz-adv-x="0" >
  <font-face 
    font-family="Nunito Sans"
    font-weight="400"
    font-style="italic"
    font-stretch="normal"
    units-per-em="1000"
    panose-1="0 0 0 0 0 0 0 0 0 0"
    ascent="800"
    descent="-200"
    x-height="486"
    cap-height="705"
    bbox="-302 -270 1353 1043"
    underline-thickness="36"
    underline-position="-136"
    slope="-9"
    unicode-range="U+000D-FB02"
  />
<missing-glyph horiz-adv-x="500" 
d="M50 -180v885h400v-885h-400zM100 -130h300v785h-300v-785z" />
    <glyph glyph-name="fi" unicode="fi" horiz-adv-x="558" 
d="M64 0l67 423h-95l10 63h94l6 38q13 82 66 129.5t148 52.5l48 2v-62l-46 -3q-61 -5 -93.5 -34t-41.5 -87l-6 -36h300l-78 -486h-81l68 423h-218l-67 -423h-81zM451 607l15 91h98l-14 -91h-99z" />
    <glyph glyph-name="fl" unicode="fl" horiz-adv-x="629" 
d="M64 0l67 423h-95l10 63h94l6 38q13 82 66 130t148 52l50 2v-62l-48 -3q-61 -5 -93.5 -34t-41.5 -87l-6 -36h140l-10 -63h-139l-67 -423h-81zM520 -9q-72 0 -105 42.5t-20 125.5l87 546h81l-87 -546q-8 -53 8.5 -76t59.5 -23q12 0 23.5 1t23.5 4l-12 -66q-13 -4 -29 -6
t-30 -2z" />
    <glyph glyph-name=".notdef" horiz-adv-x="500" 
d="M50 -180v885h400v-885h-400zM100 -130h300v785h-300v-785z" />
    <glyph glyph-name=".null" 
 />
    <glyph glyph-name="nonmarkingreturn" horiz-adv-x="333" 
 />
    <glyph glyph-name="NULL" 
 />
    <glyph glyph-name="NULL" 
 />
    <glyph glyph-name="CR" unicode="&#xd;" horiz-adv-x="257" 
 />
    <glyph glyph-name="space" unicode=" " horiz-adv-x="257" 
 />
    <glyph glyph-name="exclam" unicode="!" horiz-adv-x="228" 
d="M80 186l57 519h101l-108 -519h-50zM25 0l16 102h103l-17 -102h-102z" />
    <glyph glyph-name="quotedbl" unicode="&#x22;" horiz-adv-x="391" 
d="M113 428l23 277h95l-63 -277h-55zM284 428l23 277h95l-63 -277h-55z" />
    <glyph glyph-name="numbersign" unicode="#" horiz-adv-x="600" 
d="M49 0l65 182h-88l8 59h101l82 231h-125l8 59h137l61 174h63l-61 -174h159l61 174h64l-61 -174h87l-8 -59h-100l-82 -231h124l-8 -59h-136l-66 -182h-63l65 182h-159l-64 -182h-64zM197 241h160l82 231h-160z" />
    <glyph glyph-name="dollar" unicode="$" horiz-adv-x="600" 
d="M219 -115l18 112q-63 5 -117 24.5t-98 59.5l34 65q54 -44 109 -61t124 -17q48 0 86.5 13.5t61 40.5t22.5 66q0 45 -28 71.5t-100 45.5l-89 24q-70 18 -111.5 59.5t-41.5 118.5q0 65 35 110t94 69t131 24l18 110h68l-19 -116q48 -8 92 -29.5t78 -56.5l-34 -62
q-44 45 -95.5 63t-105.5 18q-82 0 -130.5 -32.5t-48.5 -92.5q0 -51 25 -75.5t75 -37.5l89 -23q94 -26 137.5 -69.5t43.5 -110.5q0 -62 -32.5 -105t-86.5 -67t-118 -28l-18 -111h-68z" />
    <glyph glyph-name="percent" unicode="%" horiz-adv-x="930" 
d="M246 -26l-52 37l524 719l52 -38zM239 282q-69 0 -108 43t-39 118q0 74 23 135.5t68 98t111 36.5q70 0 109 -43.5t39 -119.5q0 -74 -23 -135t-68.5 -97t-111.5 -36zM239 339q44 0 73 28.5t44 75.5t16 104q2 57 -20 82.5t-58 25.5q-43 0 -72 -28.5t-44 -75.5t-17 -104
t20.5 -82.5t57.5 -25.5zM670 -9q-70 0 -109 43.5t-39 118.5q0 74 23.5 135t68.5 97.5t110 36.5q70 0 109 -43.5t39 -118.5t-23 -136t-68 -97t-111 -36zM669 49q44 0 73 28.5t44 75.5t17 104q1 57 -21 82.5t-57 25.5q-44 0 -73 -28.5t-44 -76t-17 -103.5q-1 -57 21 -82.5
t57 -25.5z" />
    <glyph glyph-name="ampersand" unicode="&#x26;" horiz-adv-x="693" 
d="M253 -9q-94 0 -149 42.5t-55 114.5q0 55 27 99.5t69 78.5t87 59l18 10q-31 41 -44 76.5t-13 66.5q0 52 24 92t67 62t100 22q65 0 104 -36t39 -93q0 -46 -22.5 -82t-61 -65.5t-87.5 -57.5l136 -184q28 41 49.5 97.5t33.5 119.5h70q-28 -161 -110 -270l110 -143h-94l-65 88
q-46 -46 -104.5 -71.5t-128.5 -25.5zM380 651q-50 0 -80 -30t-30 -76q0 -28 10 -52.5t38 -63.5q75 43 107 76.5t32 75.5q0 32 -21 51t-56 19zM260 58q58 0 103 20.5t82 59.5l-156 207l-15 -9q-62 -35 -103 -76.5t-41 -101.5q0 -100 130 -100z" />
    <glyph glyph-name="quotesingle" unicode="'" horiz-adv-x="221" 
d="M113 428l23 277h95l-63 -277h-55z" />
    <glyph glyph-name="parenleft" unicode="(" horiz-adv-x="317" 
d="M153 -192q-54 158 -54 311q0 115 25 223.5t69.5 204.5t102.5 171l57 -27q-77 -131 -122.5 -276t-45.5 -316q0 -64 7.5 -130t20.5 -139z" />
    <glyph glyph-name="parenright" unicode=")" horiz-adv-x="317" 
d="M27 -192l-58 27q78 132 123.5 277t45.5 315q0 64 -7.5 130t-20.5 139l59 22q55 -157 55 -311q0 -115 -25 -223.5t-69.5 -204.5t-102.5 -171z" />
    <glyph glyph-name="asterisk" unicode="*" horiz-adv-x="450" 
d="M201 353l-53 32l78 124l-146 -5v61l147 -6l-79 126l53 30l70 -134l69 134l54 -31l-79 -125l148 6v-61l-147 5l78 -124l-54 -31l-69 134z" />
    <glyph glyph-name="plus" unicode="+" horiz-adv-x="600" 
d="M236 40l34 216h-212l10 62h212l33 210h64l-33 -210h212l-10 -62h-212l-34 -216h-64z" />
    <glyph glyph-name="comma" unicode="," horiz-adv-x="228" 
d="M53 -114l-33 35q25 22 36 40.5t16 38.5h-47l16 102h102l-13 -80q-6 -41 -21.5 -72.5t-55.5 -63.5z" />
    <glyph glyph-name="hyphen" unicode="-" horiz-adv-x="424" 
d="M71 233l11 67h280l-11 -67h-280z" />
    <glyph glyph-name="period" unicode="." horiz-adv-x="228" 
d="M25 0l16 102h102l-16 -102h-102z" />
    <glyph glyph-name="slash" unicode="/" horiz-adv-x="283" 
d="M-4 -65l-58 29l378 789l60 -29z" />
    <glyph glyph-name="zero" unicode="0" horiz-adv-x="600" 
d="M289 -9q-109 0 -165.5 66.5t-56.5 192.5q0 144 34 248t97 160t149 56q109 0 165 -66.5t56 -191.5q0 -145 -34 -249t-97 -160t-148 -56zM293 62q88 0 140.5 105.5t52.5 306.5q1 169 -143 169q-89 0 -141.5 -105.5t-52.5 -306.5q0 -169 144 -169z" />
    <glyph glyph-name="one" unicode="1" horiz-adv-x="600" 
d="M86 0l11 70h161l84 530l-135 -77l-28 64l203 118h59l-101 -635h151l-12 -70h-393z" />
    <glyph glyph-name="two" unicode="2" horiz-adv-x="600" 
d="M56 0l10 62l275 257q58 53 95 106t37 113q0 49 -33 76t-93 27q-51 0 -99.5 -21t-95.5 -60l-28 65q48 42 108.5 65.5t127.5 23.5q90 0 143 -46.5t53 -119.5q0 -56 -22 -104t-59.5 -91.5t-84.5 -85.5l-214 -197h336l-11 -70h-445z" />
    <glyph glyph-name="three" unicode="3" horiz-adv-x="600" 
d="M278 -9q-65 0 -130.5 19t-113.5 67l36 61q50 -44 99.5 -59t108.5 -15q67 0 112.5 38t45.5 106q0 52 -35 83t-101 31h-101l11 71h96q46 0 83 17t59.5 48.5t22.5 75.5q0 49 -34.5 78t-90.5 29q-52 0 -103.5 -19t-95.5 -60l-29 64q46 43 109 65.5t127 22.5q63 0 107 -23
t67.5 -61.5t23.5 -86.5q1 -67 -39.5 -116.5t-105.5 -67.5q54 -18 82.5 -59t28.5 -96q0 -62 -31.5 -110t-85.5 -75.5t-123 -27.5z" />
    <glyph glyph-name="four" unicode="4" horiz-adv-x="600" 
d="M339 0l24 151h-326l9 62l418 492h68l-77 -484h105l-10 -70h-105l-24 -151h-82zM373 221l56 350l-296 -350h240z" />
    <glyph glyph-name="five" unicode="5" horiz-adv-x="600" 
d="M287 -9q-59 0 -120 19t-107 67l35 61q49 -44 94 -59t98 -15q50 0 90 22t63 60.5t23 87.5q0 61 -35.5 98.5t-96.5 37.5q-51 0 -92 -22.5t-75 -61.5h-60l67 419h408l-11 -70h-327l-40 -250q31 27 71.5 41.5t81.5 14.5q52 0 95.5 -22.5t69.5 -67t26 -110.5
q0 -75 -35.5 -131.5t-94 -87.5t-128.5 -31z" />
    <glyph glyph-name="six" unicode="6" horiz-adv-x="600" 
d="M306 -9q-106 0 -168.5 70.5t-62.5 190.5q0 97 21 181t62 147t101.5 98.5t140.5 35.5q56 0 108.5 -23.5t90.5 -65.5l-37 -61q-36 40 -78.5 58.5t-89.5 18.5q-68 0 -119 -39.5t-82 -113t-38 -174.5q25 60 80 94t117 34q56 0 100 -26.5t68.5 -71.5t24.5 -100
q0 -72 -31 -129.5t-85 -90.5t-123 -33zM302 61q49 0 86 23.5t57.5 63.5t20.5 90q0 59 -38.5 96.5t-97.5 37.5q-49 0 -86 -23.5t-57.5 -63.5t-20.5 -90q0 -59 39 -96.5t97 -37.5z" />
    <glyph glyph-name="seven" unicode="7" horiz-adv-x="600" 
d="M73 0l425 634h-369l11 71h465l-9 -62l-428 -643h-95z" />
    <glyph glyph-name="eight" unicode="8" horiz-adv-x="600" 
d="M268 -9q-68 0 -120 21t-81.5 59t-29.5 91q0 50 20.5 92.5t57 71t82.5 37.5q-43 18 -67 55.5t-24 88.5q0 66 33.5 112t92 70t132.5 24q64 0 112.5 -20.5t75.5 -58t27 -88.5q0 -67 -39.5 -118.5t-101.5 -69.5q48 -15 77 -54t29 -95q0 -70 -35.5 -119t-98 -74t-142.5 -25z
M323 391q78 0 127.5 39.5t49.5 107.5q0 52 -37.5 79.5t-101.5 27.5q-82 0 -129 -37t-47 -107q0 -53 37.5 -81.5t100.5 -28.5zM272 59q89 0 141 39t52 115q0 55 -42.5 82.5t-111.5 27.5q-89 0 -142 -38.5t-53 -113.5q0 -56 43 -84t113 -28z" />
    <glyph glyph-name="nine" unicode="9" horiz-adv-x="600" 
d="M239 -9q-56 0 -111 23.5t-92 65.5l36 62q38 -40 80.5 -59t90.5 -19q66 0 116.5 39.5t82 113t38.5 174.5q-25 -60 -80 -94t-117 -34q-57 0 -100.5 26.5t-68.5 71.5t-25 101q0 72 31.5 129t85.5 90t123 33q106 0 168 -70t62 -191q0 -93 -19.5 -176.5t-59.5 -148t-100 -101
t-141 -36.5zM304 333q49 0 86 23.5t57.5 64t20.5 89.5q0 60 -38.5 97.5t-96.5 37.5q-49 0 -86 -24t-57.5 -64t-20.5 -89q0 -60 38.5 -97.5t96.5 -37.5z" />
    <glyph glyph-name="colon" unicode=":" horiz-adv-x="228" 
d="M86 384l16 102h102l-16 -102h-102zM25 0l16 102h103l-17 -102h-102z" />
    <glyph glyph-name="semicolon" unicode=";" horiz-adv-x="228" 
d="M85 384l16 102h103l-16 -102h-103zM53 -114l-33 35q24 22 35 40.5t16 38.5h-47l16 102h103l-13 -80q-7 -41 -22.5 -72.5t-54.5 -63.5z" />
    <glyph glyph-name="less" unicode="&#x3c;" horiz-adv-x="600" 
d="M511 35l-453 220l10 64l522 220l-11 -72l-439 -184l381 -183z" />
    <glyph glyph-name="equal" unicode="=" horiz-adv-x="600" 
d="M73 356l10 62h488l-10 -62h-488zM42 157l10 61h488l-10 -61h-488z" />
    <glyph glyph-name="greater" unicode="&#x3e;" horiz-adv-x="600" 
d="M23 35l11 72l439 183l-381 184l10 65l454 -220l-10 -64z" />
    <glyph glyph-name="question" unicode="?" horiz-adv-x="443" 
d="M172 184l4 30q5 35 15 64.5t33 59.5t64 68q19 17 41.5 38t39 48t16.5 62q0 38 -24.5 62.5t-77.5 24.5q-51 0 -99.5 -20.5t-91.5 -58.5l-29 63q47 45 108.5 67t123.5 22q55 0 94 -20.5t59 -54.5t20 -74q0 -43 -19.5 -80t-48.5 -66.5t-59 -52.5q-59 -47 -80.5 -84
t-30.5 -74l-7 -24h-51zM117 0l16 102h102l-16 -102h-102z" />
    <glyph glyph-name="at" unicode="@" horiz-adv-x="946" 
d="M495 -163q-127 0 -222.5 53.5t-148.5 151.5t-53 231q0 98 32 179t90 139.5t138.5 90.5t177.5 32q115 0 202 -46.5t136 -129.5t49 -194q0 -87 -24 -151t-67 -99t-100 -35q-49 0 -78.5 23.5t-36.5 65.5q-27 -44 -67 -66.5t-83 -22.5q-78 0 -120.5 48.5t-42.5 133.5
q0 73 28.5 130.5t77 90.5t110.5 33q97 0 128 -78l12 69h66l-45 -259q-5 -26 -5 -47q0 -67 61 -67q57 0 93 63.5t36 167.5q0 95 -41.5 165t-116 109t-173.5 39q-112 0 -196 -48t-130.5 -134.5t-46.5 -201.5q0 -119 44 -204t125 -130.5t191 -45.5q81 0 146.5 25.5t108.5 71.5
l33 -48q-48 -51 -122.5 -78t-165.5 -27zM449 117q44 0 79 26.5t55 73.5t20 108q0 112 -102 112q-45 0 -80 -25.5t-55 -69.5t-20 -101q0 -60 27 -92t76 -32z" />
    <glyph glyph-name="A" unicode="A" horiz-adv-x="729" 
d="M-19 0l423 705h70l198 -705h-80l-48 180h-368l-106 -180h-89zM427 609l-211 -360h309l-96 360h-2z" />
    <glyph glyph-name="B" unicode="B" horiz-adv-x="676" 
d="M49 0l112 705h267q110 0 162 -45t52 -120q0 -70 -39 -117.5t-105 -65.5q51 -17 80 -56t29 -93q0 -102 -65 -155t-184 -53h-309zM191 390h201q78 0 123.5 36.5t45.5 105.5q0 52 -35.5 79.5t-108.5 27.5h-187zM139 66h219q167 0 167 145q0 56 -37 84.5t-106 28.5h-202z" />
    <glyph glyph-name="C" unicode="C" horiz-adv-x="673" 
d="M381 -9q-90 0 -158 34.5t-107 104.5t-39 177q0 87 25 161t72.5 129t115 86t152.5 31q73 0 133 -24t98 -66l-37 -66q-41 41 -89 61t-108 20q-86 0 -147 -43t-94 -117.5t-33 -169.5q0 -130 59 -186.5t164 -56.5q55 0 101.5 18.5t95.5 60.5l30 -66q-46 -43 -106.5 -65.5
t-127.5 -22.5z" />
    <glyph glyph-name="D" unicode="D" horiz-adv-x="742" 
d="M49 0l112 705h207q160 0 246.5 -77.5t87.5 -217.5q0 -85 -24 -159t-73 -130.5t-124 -88.5t-179 -32h-253zM142 70h162q84 0 143 26.5t96 73.5t54.5 108.5t17.5 130.5q0 110 -62.5 168t-185.5 58h-135z" />
    <glyph glyph-name="E" unicode="E" horiz-adv-x="583" 
d="M49 0l112 705h445l-11 -69h-365l-39 -244h345l-11 -69h-345l-41 -254h365l-10 -69h-445z" />
    <glyph glyph-name="F" unicode="F" horiz-adv-x="548" 
d="M49 0l112 705h436l-11 -69h-353l-40 -246h334l-11 -69h-333l-52 -321h-82z" />
    <glyph glyph-name="G" unicode="G" horiz-adv-x="726" 
d="M391 -9q-147 0 -231 78t-84 227q0 124 44.5 218t127.5 147t198 53q76 0 137 -24t99 -64l-38 -66q-42 40 -91 60t-112 20q-87 0 -149 -43t-95.5 -120t-33.5 -179q0 -119 60.5 -176.5t176.5 -57.5q43 0 79.5 7t70.5 18l34 213h-178l9 65h251l-53 -333q-41 -19 -101.5 -31
t-120.5 -12z" />
    <glyph glyph-name="H" unicode="H" horiz-adv-x="761" 
d="M49 0l112 705h82l-50 -312h422l50 312h82l-112 -705h-82l51 322h-422l-51 -322h-82z" />
    <glyph glyph-name="I" unicode="I" horiz-adv-x="257" 
d="M49 0l112 705h82l-112 -705h-82z" />
    <glyph glyph-name="J" unicode="J" horiz-adv-x="324" 
d="M-41 -7l1 69l60 4q107 8 127 130l80 509h83l-83 -519q-14 -87 -62 -135.5t-142 -54.5z" />
    <glyph glyph-name="K" unicode="K" horiz-adv-x="625" 
d="M49 0l112 705h82l-51 -320h2l390 320h109l-422 -349l331 -356h-100l-316 334h-2l-53 -334h-82z" />
    <glyph glyph-name="L" unicode="L" horiz-adv-x="543" 
d="M49 0l112 705h82l-100 -633h357l-11 -72h-440z" />
    <glyph glyph-name="M" unicode="M" horiz-adv-x="855" 
d="M51 0l112 705h67l187 -511l352 511h71l-112 -705h-75l87 551l-305 -442h-54l-167 447l-88 -556h-75z" />
    <glyph glyph-name="N" unicode="N" horiz-adv-x="739" 
d="M49 0l112 705h63l333 -576l91 576h77l-112 -705h-63l-334 577l-91 -577h-76z" />
    <glyph glyph-name="O" unicode="O" horiz-adv-x="767" 
d="M368 -9q-88 0 -154 35t-102 102.5t-36 165.5q0 119 42 214t121.5 150.5t194.5 55.5q89 0 154.5 -35t101.5 -102.5t36 -164.5q0 -120 -42 -215t-121.5 -150.5t-194.5 -55.5zM370 64q87 0 147 45.5t91 124t31 177.5q0 116 -55.5 173t-152.5 57q-86 0 -146 -45.5t-91 -123.5
t-31 -177q0 -117 55.5 -174t151.5 -57z" />
    <glyph glyph-name="P" unicode="P" horiz-adv-x="633" 
d="M49 0l112 705h254q108 0 167 -48t59 -142q0 -108 -67.5 -171t-195.5 -63h-202l-45 -281h-82zM187 350h195q87 0 132 41t45 119q0 66 -38 96.5t-113 30.5h-176z" />
    <glyph glyph-name="Q" unicode="Q" horiz-adv-x="767" 
d="M528 -201l-61 132q-28 60 -111 60h1q-128 4 -204.5 82t-76.5 221q0 119 42 214t121.5 150.5t194.5 55.5q89 0 154.5 -35t101.5 -102.5t36 -164.5q0 -98 -28 -180t-82 -139.5t-131 -83.5q37 -16 60 -67l53 -115zM370 64q87 0 147 45.5t91 124t31 177.5q0 116 -55.5 173
t-152.5 57q-86 0 -146 -45.5t-91 -123.5t-31 -177q0 -117 55.5 -174t151.5 -57z" />
    <glyph glyph-name="R" unicode="R" horiz-adv-x="669" 
d="M49 0l112 705h251q114 0 171.5 -51t57.5 -139q0 -92 -54 -145t-140 -65q23 -11 40.5 -33t29.5 -54l84 -218h-84l-83 219q-16 43 -42.5 61t-75.5 18h-138l-47 -298h-82zM189 363h200q80 0 125 38t45 109q0 63 -37.5 95t-118.5 32h-171z" />
    <glyph glyph-name="S" unicode="S" horiz-adv-x="615" 
d="M297 -9q-77 0 -147 20t-122 66l34 63q55 -44 114 -60t128 -16q81 0 130 33.5t49 91.5q0 40 -29 68.5t-102 44.5l-103 25q-70 17 -112 58t-42 118q0 65 35.5 112t95.5 73t132 26q67 0 132.5 -21.5t112.5 -67.5l-35 -63q-45 43 -100 61t-112 18q-51 0 -91 -16.5t-63.5 -46
t-23.5 -70.5q0 -51 25.5 -75t75.5 -37l104 -24q94 -22 138.5 -66.5t44.5 -107.5q0 -68 -36.5 -114t-97.5 -69.5t-135 -23.5z" />
    <glyph glyph-name="T" unicode="T" horiz-adv-x="602" 
d="M221 0l101 634h-256l11 71h595l-11 -71h-257l-100 -634h-83z" />
    <glyph glyph-name="U" unicode="U" horiz-adv-x="728" 
d="M336 -9q-135 0 -202.5 76.5t-43.5 229.5l65 408h82l-65 -415q-36 -226 168 -226q98 0 154 50t74 159l69 432h81l-68 -436q-22 -138 -98 -208t-216 -70z" />
    <glyph glyph-name="V" unicode="V" horiz-adv-x="689" 
d="M268 0l-196 705h83l162 -600l353 600h93l-421 -705h-74z" />
    <glyph glyph-name="W" unicode="W" horiz-adv-x="1101" 
d="M238 0l-135 705h81l107 -584l296 584h66l109 -590l296 590h86l-358 -705h-73l-109 579l-295 -579h-71z" />
    <glyph glyph-name="X" unicode="X" horiz-adv-x="650" 
d="M-29 0l325 364l-199 341h90l164 -287l249 287h102l-308 -349l208 -356h-91l-174 301l-264 -301h-102z" />
    <glyph glyph-name="Y" unicode="Y" horiz-adv-x="596" 
d="M218 0l53 333l-211 372h90l168 -299l264 299h100l-329 -371l-53 -334h-82z" />
    <glyph glyph-name="Z" unicode="Z" horiz-adv-x="589" 
d="M10 0l9 61l490 573h-399l12 71h504l-10 -61l-490 -573h414l-11 -71h-519z" />
    <glyph glyph-name="bracketleft" unicode="[" horiz-adv-x="315" 
d="M42 -180l140 885h199l-11 -64h-117l-120 -757h118l-10 -64h-199z" />
    <glyph glyph-name="backslash" unicode="\" horiz-adv-x="283" 
d="M191 -65l-131 805l63 13l132 -805z" />
    <glyph glyph-name="bracketright" unicode="]" horiz-adv-x="315" 
d="M-60 -180l11 64h117l120 757h-117l10 64h198l-140 -885h-199z" />
    <glyph glyph-name="asciicircum" unicode="^" horiz-adv-x="600" 
d="M33 140l296 488h64l142 -488h-64l-119 410l-249 -410h-70z" />
    <glyph glyph-name="underscore" unicode="_" horiz-adv-x="500" 
d="M-26 -53l8 53h459l-8 -53h-459z" />
    <glyph glyph-name="grave" unicode="`" horiz-adv-x="500" 
d="M268 551l-141 202h85l114 -202h-58z" />
    <glyph glyph-name="a" unicode="a" horiz-adv-x="530" 
d="M199 -9q-42 0 -78.5 19t-58.5 52t-22 75q0 77 65.5 111t209.5 34h69l5 30q10 57 -15 87.5t-88 30.5q-89 0 -165 -51l-23 59q36 26 89.5 41.5t107.5 15.5q102 0 143 -56t26 -149l-46 -290h-77l12 76q-25 -43 -67 -64t-87 -21zM219 52q54 0 97 36.5t54 101.5l6 39h-50
q-77 0 -121.5 -8t-63.5 -27t-19 -52q0 -44 29 -67t68 -23z" />
    <glyph glyph-name="b" unicode="b" horiz-adv-x="583" 
d="M295 -9q-55 0 -99.5 26.5t-63.5 80.5l-15 -98h-80l112 705h81l-47 -296q28 40 71 63t97 23q85 0 136.5 -56t51.5 -152q0 -80 -28.5 -147.5t-83 -108t-132.5 -40.5zM285 56q56 0 94 31t58 82.5t20 114.5q0 72 -35 109t-96 37q-56 0 -94 -30.5t-58 -82.5t-20 -115
q0 -71 35 -108.5t96 -37.5z" />
    <glyph glyph-name="c" unicode="c" horiz-adv-x="463" 
d="M258 -9q-108 0 -160.5 60t-52.5 156q0 54 15 105t47 92.5t81 66t117 24.5q48 0 92 -16t70 -43l-29 -58q-51 51 -130 51q-65 0 -104.5 -32.5t-57.5 -83.5t-18 -105q0 -68 32.5 -109.5t107.5 -41.5q30 0 64 12.5t63 38.5l24 -60q-29 -27 -73.5 -42t-87.5 -15z" />
    <glyph glyph-name="d" unicode="d" horiz-adv-x="583" 
d="M231 -9q-84 0 -135.5 56t-51.5 152q0 81 28.5 148.5t83 107.5t131.5 40q55 0 99 -25.5t64 -78.5l49 314h81l-112 -705h-79l13 81q-28 -42 -71.5 -66t-99.5 -24zM257 56q56 0 94 31t58 82.5t20 114.5q0 72 -35 109t-96 37q-56 0 -94 -30.5t-58 -82.5t-20 -115
q0 -71 35 -108.5t96 -37.5z" />
    <glyph glyph-name="e" unicode="e" horiz-adv-x="532" 
d="M270 -9q-104 0 -165 57.5t-61 157.5q0 79 32 144.5t90 105t138 39.5q76 0 120.5 -35t60.5 -91.5t7 -121.5l-3 -21h-366q-7 -78 33 -124t118 -46q46 0 85.5 13.5t72.5 42.5l27 -55q-34 -32 -85 -49t-104 -17zM303 435q-53 0 -88 -22.5t-55.5 -58.5t-28.5 -75h296
q6 66 -22.5 111t-101.5 45z" />
    <glyph glyph-name="f" unicode="f" horiz-adv-x="333" 
d="M64 0l67 423h-95l10 63h94l6 38q13 82 66 130t148 52l50 2v-62l-48 -3q-61 -5 -93.5 -34t-41.5 -87l-6 -36h140l-10 -63h-139l-67 -423h-81z" />
    <glyph glyph-name="g" unicode="g" horiz-adv-x="586" 
d="M248 -189q-68 0 -122 19.5t-96 51.5l28 60q44 -31 85 -48.5t96 -17.5q64 0 104 32.5t51 100.5l15 92q-27 -42 -71 -66t-100 -24q-88 0 -141 54t-53 145q0 75 29 140t84 105t133 40q56 0 100 -25.5t64 -77.5l15 94h79l-75 -473q-32 -202 -225 -202zM259 77q56 0 95 30
t59 79.5t20 107.5q0 64 -35 100t-98 36q-57 0 -95.5 -30.5t-58 -79.5t-20.5 -106q0 -66 35 -101.5t98 -35.5z" />
    <glyph glyph-name="h" unicode="h" horiz-adv-x="568" 
d="M37 0l112 705h81l-47 -298q27 42 71 65t101 23q81 0 122.5 -49t24.5 -152l-46 -294h-81l46 294q22 135 -90 135q-73 0 -116 -45t-55 -120l-42 -264h-81z" />
    <glyph glyph-name="i" unicode="i" horiz-adv-x="232" 
d="M125 607l14 91h100l-15 -91h-99zM37 0l77 486h81l-77 -486h-81z" />
    <glyph glyph-name="j" unicode="j" horiz-adv-x="236" 
d="M127 607l15 91h99l-15 -91h-99zM-111 -193l-4 63l43 4q93 7 110 111l80 501h81l-80 -496q-13 -88 -58 -131t-128 -49z" />
    <glyph glyph-name="k" unicode="k" horiz-adv-x="500" 
d="M38 0l111 705h81l-69 -435h2l257 216h102l-279 -239l227 -247h-98l-215 230h-2l-36 -230h-81z" />
    <glyph glyph-name="l" unicode="l" horiz-adv-x="296" 
d="M187 -9q-72 0 -105 42.5t-20 125.5l87 546h81l-87 -546q-8 -53 8.5 -76t59.5 -23q12 0 23.5 1t23.5 4l-12 -66q-13 -4 -29 -6t-30 -2z" />
    <glyph glyph-name="m" unicode="m" horiz-adv-x="856" 
d="M39 0l78 486h79l-14 -83q27 45 68.5 68.5t90.5 23.5q53 0 88 -26t47 -76q26 49 70.5 75.5t103.5 26.5q76 0 115.5 -48.5t23.5 -152.5l-47 -294h-81l47 298q20 131 -82 131q-61 0 -101 -44t-52 -121l-42 -264h-81l47 298q21 131 -81 131q-61 0 -101 -44t-53 -121l-42 -264
h-81z" />
    <glyph glyph-name="n" unicode="n" horiz-adv-x="568" 
d="M37 0l78 486h79l-14 -83q27 44 71.5 68t103.5 24q81 0 122.5 -49t24.5 -152l-46 -294h-81l46 294q22 135 -90 135q-73 0 -116 -45t-55 -120l-42 -264h-81z" />
    <glyph glyph-name="o" unicode="o" horiz-adv-x="556" 
d="M255 -9q-98 0 -154.5 57.5t-56.5 156.5q0 82 32 148t89.5 104t135.5 38q98 0 154 -57.5t56 -156.5q0 -82 -31.5 -147.5t-89.5 -104t-135 -38.5zM258 56q55 0 93.5 31t58 82.5t19.5 114.5q0 72 -34.5 109t-96.5 37q-55 0 -93.5 -30.5t-58.5 -82.5t-20 -115
q0 -71 35 -108.5t97 -37.5z" />
    <glyph glyph-name="p" unicode="p" horiz-adv-x="583" 
d="M9 -180l105 666h80l-13 -80q28 42 71.5 65.5t98.5 23.5q86 0 137 -56t51 -153q0 -80 -28.5 -147t-83 -107.5t-132.5 -40.5q-54 0 -98 25.5t-64 77.5l-43 -274h-81zM285 56q56 0 94 31t58 82.5t20 114.5q0 72 -35 109t-96 37q-56 0 -94 -30.5t-58 -82.5t-20 -115
q0 -71 35 -108.5t96 -37.5z" />
    <glyph glyph-name="q" unicode="q" horiz-adv-x="583" 
d="M359 -180l41 259q-28 -41 -71 -64.5t-98 -23.5q-84 0 -135.5 56t-51.5 152q0 81 28.5 148.5t83 107.5t131.5 40q56 0 100 -26.5t64 -80.5l15 98h80l-106 -666h-81zM257 56q56 0 94 31t58 82.5t20 114.5q0 72 -35 109t-96 37q-56 0 -94 -30.5t-58 -82.5t-20 -115
q0 -71 35 -108.5t96 -37.5z" />
    <glyph glyph-name="r" unicode="r" horiz-adv-x="358" 
d="M37 0l78 486h79l-13 -81q22 39 61.5 62.5t96.5 28.5l39 3l1 -70l-56 -5q-80 -8 -115.5 -48t-46.5 -108l-42 -268h-82z" />
    <glyph glyph-name="s" unicode="s" horiz-adv-x="481" 
d="M223 -9q-59 0 -110 16t-83 44l30 56q36 -28 77.5 -41t86.5 -13q54 0 84.5 21.5t30.5 60.5q0 50 -64 65l-95 23q-50 11 -78.5 43t-28.5 78q0 65 53.5 108t145.5 43q50 0 96 -16.5t74 -44.5l-28 -55q-58 54 -145 54q-56 0 -88 -23t-32 -62q0 -24 14.5 -41.5t45.5 -24.5
l95 -23q53 -13 82.5 -42.5t29.5 -76.5q0 -70 -53.5 -109.5t-139.5 -39.5z" />
    <glyph glyph-name="t" unicode="t" horiz-adv-x="350" 
d="M238 -9q-85 0 -124.5 48t-26.5 128l41 256h-96l11 63h95l23 149h81l-23 -149h154l-11 -63h-154l-39 -248q-10 -61 12.5 -88t71.5 -27q17 0 31.5 3.5t27.5 7.5l8 -63q-13 -7 -36.5 -12t-45.5 -5z" />
    <glyph glyph-name="u" unicode="u" horiz-adv-x="561" 
d="M210 -9q-79 0 -120 49t-24 153l46 293h81l-46 -293q-22 -135 87 -135q70 0 112.5 45t54.5 120l41 263h81l-77 -486h-79l13 82q-27 -43 -70.5 -67t-99.5 -24z" />
    <glyph glyph-name="v" unicode="v" horiz-adv-x="515" 
d="M180 0l-131 486h84l98 -394l225 394h87l-286 -486h-77z" />
    <glyph glyph-name="w" unicode="w" horiz-adv-x="841" 
d="M166 0l-103 486h79l76 -390l203 390h69l77 -394l203 394h85l-259 -486h-77l-77 378l-199 -378h-77z" />
    <glyph glyph-name="x" unicode="x" horiz-adv-x="525" 
d="M-25 0l242 252l-152 234h91l116 -183l168 183h99l-226 -239l160 -247h-90l-125 194l-184 -194h-99z" />
    <glyph glyph-name="y" unicode="y" horiz-adv-x="514" 
d="M65 -180l112 188l-129 478h83l98 -394l227 394h88l-394 -666h-85z" />
    <glyph glyph-name="z" unicode="z" horiz-adv-x="463" 
d="M17 0l9 53l329 371h-271l10 62h367l-9 -53l-331 -370h284l-10 -63h-378z" />
    <glyph glyph-name="braceleft" unicode="{" horiz-adv-x="352" 
d="M202 -180q-62 0 -88 27.5t-18 74.5l35 227q6 40 -5 59t-51 21l-27 3l9 62l29 2q40 3 57.5 21.5t23.5 58.5l36 227q17 102 113 102h102l-11 -64h-73q-44 0 -51 -45l-36 -228q-7 -48 -33.5 -73.5t-54.5 -31.5q25 -6 43 -32t11 -73l-35 -229q-7 -45 35 -45h74l-10 -64h-75z
" />
    <glyph glyph-name="bar" unicode="|" horiz-adv-x="265" 
d="M25 -180l140 885h81l-140 -885h-81z" />
    <glyph glyph-name="braceright" unicode="}" horiz-adv-x="352" 
d="M-59 -180l10 64h73q44 0 51 45l36 228q7 48 34 73.5t55 31.5q-26 7 -44 33t-11 73l35 228q8 45 -35 45h-74l10 64h75q62 0 88 -27.5t19 -74.5l-36 -227q-6 -40 5 -59t51 -21l27 -2l-9 -63l-29 -2q-40 -2 -57 -21t-24 -59l-36 -227q-17 -102 -113 -102h-101z" />
    <glyph glyph-name="asciitilde" unicode="~" horiz-adv-x="600" 
d="M421 217q-34 0 -66.5 14t-60.5 29q-27 15 -50.5 26t-45.5 11q-33 0 -55 -19t-38 -46l-46 30q26 46 57 71t76 25q35 0 68.5 -14.5t61.5 -30.5q26 -14 48.5 -25t44.5 -11q33 0 55 19t39 47l46 -31q-26 -46 -57.5 -70.5t-76.5 -24.5z" />
    <glyph glyph-name="uni00A0" unicode="&#xa0;" horiz-adv-x="257" 
 />
    <glyph glyph-name="exclamdown" unicode="&#xa1;" horiz-adv-x="228" 
d="M85 384l16 102h103l-16 -102h-103zM-4 -180l102 481h50l-51 -481h-101z" />
    <glyph glyph-name="cent" unicode="&#xa2;" horiz-adv-x="600" 
d="M220 -115l19 118q-76 17 -112.5 71.5t-36.5 132.5q0 65 23.5 126t73.5 104t129 52l19 117h68l-19 -115q42 -4 78 -19.5t58 -38.5l-29 -58q-51 51 -133 51q-67 0 -107.5 -32.5t-59 -83t-18.5 -102.5q0 -66 33.5 -106.5t112.5 -40.5q32 0 66 12.5t63 38.5l24 -60
q-31 -29 -78.5 -43.5t-87.5 -13.5l-17 -110h-69z" />
    <glyph glyph-name="sterling" unicode="&#xa3;" horiz-adv-x="600" 
d="M10 0l11 70h97l41 253h-99l10 61h98l21 126q16 101 72.5 152.5t162.5 51.5q62 0 115 -22.5t83 -57.5l-37 -62q-31 38 -70 55t-90 17q-134 0 -154 -130l-20 -130h180l-10 -61h-180l-40 -253h325l-11 -70h-505z" />
    <glyph glyph-name="currency" unicode="&#xa4;" horiz-adv-x="600" 
d="M79 -26l-43 44l74 75q-23 31 -36.5 70.5t-13.5 81.5q0 43 13 82t37 70l-74 76l43 43l74 -76q30 25 68 39t80 14q41 0 78.5 -13.5t68.5 -37.5l72 75l44 -45l-73 -74q51 -67 51 -153q0 -43 -13.5 -82t-38.5 -71l74 -74l-43 -43l-73 74q-30 -25 -67.5 -38.5t-79.5 -13.5
t-80 14t-69 38zM301 67q46 0 83.5 24t60 64.5t22.5 89.5t-22.5 90t-60 64.5t-83.5 23.5q-47 0 -85 -24t-60.5 -64.5t-22.5 -89.5t22.5 -89.5t60.5 -64.5t85 -24z" />
    <glyph glyph-name="yen" unicode="&#xa5;" horiz-adv-x="600" 
d="M220 0l27 175h-186l10 60h187l14 93h-187l10 60h151l-178 317h87l166 -300l260 300h97l-277 -317h150l-10 -60h-187l-14 -93h186l-10 -60h-186l-28 -175h-82z" />
    <glyph glyph-name="brokenbar" unicode="&#xa6;" horiz-adv-x="265" 
d="M113 372l53 333h81l-53 -333h-81zM26 -180l53 333h81l-53 -333h-81z" />
    <glyph glyph-name="section" unicode="&#xa7;" horiz-adv-x="545" 
d="M203 -189q-65 0 -117.5 17t-90.5 49l32 56q65 -60 174 -60q66 0 105 35t39 87q0 39 -17.5 61.5t-57.5 46.5l-100 60q-56 34 -85 73t-29 84q0 88 82 145q-11 28 -11 61q0 57 30.5 99t80.5 65.5t110 23.5q56 0 105.5 -15.5t85.5 -50.5l-29 -54q-28 27 -72 42.5t-88 15.5
q-66 0 -104.5 -35t-38.5 -87q0 -39 16.5 -63t58.5 -48l97 -57q116 -70 116 -157q0 -43 -21.5 -80.5t-60.5 -65.5q11 -26 11 -59q0 -57 -30 -99.5t-80 -66t-111 -23.5zM130 332q0 -32 22.5 -58.5t64.5 -52.5l88 -53q25 -16 44 -31.5t31 -31.5q20 20 30.5 43.5t10.5 44.5
q0 32 -23 58t-66 53l-85 50q-25 16 -44.5 32t-32.5 34q-20 -20 -30 -43.5t-10 -44.5z" />
    <glyph glyph-name="dieresis" unicode="&#xa8;" horiz-adv-x="500" 
d="M352 609l13 86h87l-14 -86h-86zM178 609l14 86h85l-12 -86h-87z" />
    <glyph glyph-name="copyright" unicode="&#xa9;" horiz-adv-x="815" 
d="M425 -9q-77 0 -143 27.5t-115 77t-76.5 115t-27.5 142.5t27.5 142.5t76.5 114.5t115 76.5t143 27.5t142.5 -27.5t114.5 -76.5t76.5 -114.5t27.5 -142.5t-27.5 -142.5t-76.5 -115t-114.5 -77t-142.5 -27.5zM425 35q67 0 124.5 24t100 67.5t66.5 101t24 125.5t-24 125.5
t-66.5 100.5t-100 67t-124.5 24t-125 -24t-100.5 -67t-66.5 -100.5t-24 -125.5t24 -125.5t66.5 -101t100.5 -67.5t125 -24zM438 137q-96 0 -152 59.5t-56 158.5t56 156t152 57q40 0 78.5 -14t64.5 -39l-24 -52q-27 24 -57 35t-59 11q-65 0 -102 -40.5t-37 -113.5t37 -115.5
t102 -42.5q29 0 59 11t57 35l24 -53q-26 -24 -65 -38.5t-78 -14.5z" />
    <glyph glyph-name="ordfeminine" unicode="&#xaa;" horiz-adv-x="327" 
d="M168 411q-42 0 -70.5 26t-28.5 64q0 44 41.5 65t128.5 21h49l3 16q5 33 -14.5 49.5t-53.5 16.5q-54 0 -100 -30l-17 40q21 17 54 26t68 9q61 0 93.5 -34.5t23.5 -91.5l-27 -172h-55l9 54h-3q-17 -28 -42.5 -43.5t-58.5 -15.5zM181 453q34 0 64 23t35 58l3 17h-37
q-66 0 -93 -11.5t-27 -36.5q0 -22 15.5 -36t39.5 -14z" />
    <glyph glyph-name="guillemotleft" unicode="&#xab;" horiz-adv-x="441" 
d="M127 86l-68 160l6 40l122 160l57 -26l-109 -158l52 -154zM308 86l-68 160l6 40l122 160l57 -26l-109 -158l52 -154z" />
    <glyph glyph-name="logicalnot" unicode="&#xac;" horiz-adv-x="600" 
d="M465 149l33 209h-424l10 62h487l-42 -271h-64z" />
    <glyph glyph-name="uni00AD" unicode="&#xad;" horiz-adv-x="424" 
d="M71 233l11 67h280l-11 -67h-280z" />
    <glyph glyph-name="registered" unicode="&#xae;" horiz-adv-x="815" 
d="M425 -9q-77 0 -143 27.5t-115 77t-76.5 115t-27.5 142.5t27.5 142.5t76.5 114.5t115 76.5t143 27.5t142.5 -27.5t114.5 -76.5t76.5 -114.5t27.5 -142.5t-27.5 -142.5t-76.5 -115t-114.5 -77t-142.5 -27.5zM425 35q67 0 124.5 24t100 67.5t66.5 101t24 125.5t-24 125.5
t-66.5 100.5t-100 67t-124.5 24t-125 -24t-100.5 -67t-66.5 -100.5t-24 -125.5t24 -125.5t66.5 -101t100.5 -67.5t125 -24zM281 142v422h171q68 0 104.5 -33t36.5 -89q0 -47 -24 -76t-68 -38q16 -6 28.5 -20t20.5 -38l48 -128h-69l-48 130q-10 25 -28 33.5t-44 8.5h-62v-172
h-66zM347 368h97q84 0 84 71t-84 71h-97v-142z" />
    <glyph glyph-name="macron" unicode="&#xaf;" horiz-adv-x="500" 
d="M163 625l8 55h297l-9 -55h-296z" />
    <glyph glyph-name="degree" unicode="&#xb0;" horiz-adv-x="371" 
d="M236 415q-42 0 -75.5 19.5t-53 52.5t-19.5 75t19.5 75.5t53 53t75.5 19.5t75.5 -19.5t53 -52.5t19.5 -76q0 -42 -19.5 -75.5t-53 -52.5t-75.5 -19zM236 469q40 0 65 26.5t25 66.5q0 41 -25 67t-65 26q-39 0 -64 -26t-25 -67q0 -40 25 -66.5t64 -26.5z" />
    <glyph glyph-name="plusminus" unicode="&#xb1;" horiz-adv-x="600" 
d="M250 127l27 170h-212l10 62h213l26 170h64l-26 -170h211l-10 -62h-212l-27 -170h-64zM18 0l9 62h488l-9 -62h-488z" />
    <glyph glyph-name="uni00B2" unicode="&#xb2;" horiz-adv-x="380" 
d="M60 282l8 51l162 146q32 29 53 57.5t21 59.5q1 26 -17 40t-50 14q-30 0 -59 -11.5t-55 -32.5l-20 52q65 51 150 51q59 0 92 -30t32 -75q-1 -47 -29.5 -85t-75.5 -78l-112 -100h193l-10 -59h-283z" />
    <glyph glyph-name="uni00B3" unicode="&#xb3;" horiz-adv-x="380" 
d="M202 278q-42 0 -83 12t-69 40l28 49q28 -26 57.5 -34t66.5 -8q35 0 60.5 18.5t25.5 53.5q2 57 -74 57h-80l10 59h76q38 0 64.5 18.5t26.5 52.5q1 26 -17.5 40t-51.5 14q-31 0 -61 -10t-57 -33l-19 51q31 26 69.5 38.5t77.5 12.5q60 0 94 -29t34 -73q-1 -39 -26 -68.5
t-65 -40.5q33 -11 50 -36t17 -57q-1 -37 -21.5 -65.5t-55.5 -45t-77 -16.5z" />
    <glyph glyph-name="acute" unicode="&#xb4;" horiz-adv-x="500" 
d="M269 551l134 202h88l-163 -202h-59z" />
    <glyph glyph-name="uni00B5" unicode="&#xb5;" horiz-adv-x="600" 
d="M27 -180l107 666h81l-47 -293q-22 -135 88 -135q69 0 111.5 45t54.5 120l42 263h81l-77 -486h-79l13 85q-23 -45 -62.5 -69.5t-89.5 -24.5q-81 0 -113 56l-29 -227h-81z" />
    <glyph glyph-name="paragraph" unicode="&#xb6;" horiz-adv-x="588" 
d="M176 -180l77 490q-53 0 -91 23t-58 61.5t-20 86.5q0 66 28.5 116.5t79 79t117.5 28.5h265l-140 -885h-65l130 823h-128l-130 -823h-65z" />
    <glyph glyph-name="periodcentered" unicode="&#xb7;" horiz-adv-x="228" 
d="M59 215l16 102h102l-16 -102h-102z" />
    <glyph glyph-name="cedilla" unicode="&#xb8;" horiz-adv-x="500" 
d="M191 -192q-56 0 -88 19l17 44q18 -8 34 -12t39 -4q27 0 44.5 10t17.5 29q0 26 -35 26q-10 0 -21 -2t-27 -7l-15 16l30 93h51l-21 -63q10 1 18 1q34 0 55 -16.5t21 -46.5q0 -39 -34 -63t-86 -24z" />
    <glyph glyph-name="uni00B9" unicode="&#xb9;" horiz-adv-x="380" 
d="M93 282l9 59h95l44 279l-83 -46l-26 54l138 77h52l-58 -364h80l-9 -59h-242z" />
    <glyph glyph-name="ordmasculine" unicode="&#xba;" horiz-adv-x="339" 
d="M214 412q-62 0 -101 37.5t-39 101.5q0 50 20.5 86.5t55 56.5t76.5 20q61 0 100.5 -38t39.5 -101q0 -51 -20.5 -87.5t-55 -56t-76.5 -19.5zM215 457q41 0 66.5 30.5t25.5 88.5q0 44 -22.5 68t-59.5 24q-41 0 -67 -30t-26 -88q0 -45 22.5 -69t60.5 -24z" />
    <glyph glyph-name="guillemotright" unicode="&#xbb;" horiz-adv-x="441" 
d="M79 86l-57 26l110 157l-53 155l60 22l68 -160l-6 -40zM260 86l-57 26l110 157l-53 155l60 22l68 -160l-6 -40z" />
    <glyph glyph-name="onequarter" unicode="&#xbc;" horiz-adv-x="893" 
d="M93 282l9 59h95l44 279l-83 -46l-26 54l138 77h52l-58 -364h80l-9 -59h-242zM247 -24l-49 32l531 721l49 -32zM702 0l14 83h-193l8 50l244 290h61l-44 -281h59l-9 -59h-59l-13 -83h-68zM725 142l28 175l-148 -175h120z" />
    <glyph glyph-name="onehalf" unicode="&#xbd;" horiz-adv-x="937" 
d="M93 282l9 59h95l44 279l-83 -46l-26 54l138 77h52l-58 -364h80l-9 -59h-242zM247 -24l-49 32l531 721l49 -32zM572 0l8 51l162 146q32 29 53 57.5t21 59.5q1 26 -17 40t-50 14q-30 0 -59 -11.5t-55 -32.5l-20 52q65 51 150 51q59 0 92 -30t32 -75q-1 -47 -29.5 -85
t-75.5 -78l-112 -100h193l-10 -59h-283z" />
    <glyph glyph-name="threequarters" unicode="&#xbe;" horiz-adv-x="893" 
d="M202 278q-42 0 -83 12t-69 40l28 49q28 -26 57.5 -34t66.5 -8q35 0 60.5 18.5t25.5 53.5q2 57 -74 57h-80l10 59h76q38 0 64.5 18.5t26.5 52.5q1 26 -17.5 40t-51.5 14q-31 0 -61 -10t-57 -33l-19 51q31 26 69.5 38.5t77.5 12.5q60 0 94 -29t34 -73q-1 -39 -26 -68.5
t-65 -40.5q33 -11 50 -36t17 -57q-1 -37 -21.5 -65.5t-55.5 -45t-77 -16.5zM247 -24l-49 32l531 721l49 -32zM702 0l14 83h-193l8 50l244 290h61l-44 -281h59l-9 -59h-59l-13 -83h-68zM725 142l28 175l-148 -175h120z" />
    <glyph glyph-name="questiondown" unicode="&#xbf;" horiz-adv-x="443" 
d="M206 384l16 102h102l-16 -102h-102zM150 -189q-52 0 -91 19t-60 51.5t-21 71.5q0 55 32.5 97.5t83.5 81.5q56 42 81 74.5t36 72.5l7 23h51l-4 -26q-6 -36 -18 -65t-35 -56t-61 -58q-41 -33 -65 -63t-24 -68q0 -35 25.5 -58.5t72.5 -23.5q54 0 102.5 16t93.5 54l28 -64
q-45 -40 -106.5 -59.5t-127.5 -19.5z" />
    <glyph glyph-name="Agrave" unicode="&#xc0;" horiz-adv-x="729" 
d="M-19 0l423 705h70l198 -705h-80l-48 180h-368l-106 -180h-89zM427 609l-211 -360h309l-96 360h-2zM418 765l-133 172h90l105 -172h-62z" />
    <glyph glyph-name="Aacute" unicode="&#xc1;" horiz-adv-x="729" 
d="M-19 0l423 705h70l198 -705h-80l-48 180h-368l-106 -180h-89zM427 609l-211 -360h309l-96 360h-2zM418 765l131 172h92l-161 -172h-62z" />
    <glyph glyph-name="Acircumflex" unicode="&#xc2;" horiz-adv-x="729" 
d="M-19 0l423 705h70l198 -705h-80l-48 180h-368l-106 -180h-89zM427 609l-211 -360h309l-96 360h-2zM281 765l140 172h76l105 -172h-61l-86 119l-114 -119h-60z" />
    <glyph glyph-name="Atilde" unicode="&#xc3;" horiz-adv-x="729" 
d="M-19 0l423 705h70l198 -705h-80l-48 180h-368l-106 -180h-89zM427 609l-211 -360h309l-96 360h-2zM285 783l-46 3q11 64 44 98.5t83 34.5q28 0 53.5 -13t48.5 -29q20 -13 38.5 -23.5t37.5 -10.5q57 0 77 79l46 -3q-12 -64 -44.5 -98.5t-81.5 -34.5q-30 0 -55 13.5
t-48 28.5q-20 13 -39 23.5t-37 10.5q-58 0 -77 -79z" />
    <glyph glyph-name="Adieresis" unicode="&#xc4;" horiz-adv-x="729" 
d="M-19 0l423 705h70l198 -705h-80l-48 180h-368l-106 -180h-89zM427 609l-211 -360h309l-96 360h-2zM499 806l14 86h86l-14 -86h-86zM325 806l14 86h86l-14 -86h-86z" />
    <glyph glyph-name="Aring" unicode="&#xc5;" horiz-adv-x="729" 
d="M-19 0l423 705h70l198 -705h-80l-48 180h-368l-106 -180h-89zM427 609l-211 -360h309l-96 360h-2zM464 758q-50 0 -84 33.5t-34 82.5q0 48 34 81.5t84 33.5t84.5 -33.5t34.5 -81.5q0 -49 -34.5 -82.5t-84.5 -33.5zM464 801q32 0 52 21t20 52q0 30 -20 51t-52 21
q-31 0 -51.5 -21t-20.5 -51q0 -31 20.5 -52t51.5 -21z" />
    <glyph glyph-name="AE" unicode="&#xc6;" horiz-adv-x="981" 
d="M-55 0l541 705h518l-11 -69h-426l14 -244h353l-11 -69h-339l14 -254h306l-12 -69h-364l-9 180h-346l-136 -180h-92zM494 608l-270 -359h291l-19 359h-2z" />
    <glyph glyph-name="Ccedilla" unicode="&#xc7;" horiz-adv-x="673" 
d="M381 -9q-90 0 -158 34.5t-107 104.5t-39 177q0 87 25 161t72.5 129t115 86t152.5 31q73 0 133 -24t98 -66l-37 -66q-41 41 -89 61t-108 20q-86 0 -147 -43t-94 -117.5t-33 -169.5q0 -130 59 -186.5t164 -56.5q55 0 101.5 18.5t95.5 60.5l30 -66q-46 -43 -106.5 -65.5
t-127.5 -22.5zM347 -192q-56 0 -88 19l17 44q18 -8 34 -12t39 -4q27 0 44.5 10t17.5 29q0 26 -35 26q-10 0 -21 -2t-27 -7l-15 16l30 93h51l-21 -63q10 1 18 1q34 0 55 -16.5t21 -46.5q0 -39 -34 -63t-86 -24z" />
    <glyph glyph-name="Egrave" unicode="&#xc8;" horiz-adv-x="583" 
d="M49 0l112 705h445l-11 -69h-365l-39 -244h345l-11 -69h-345l-41 -254h365l-10 -69h-445zM377 765l-133 172h90l105 -172h-62z" />
    <glyph glyph-name="Eacute" unicode="&#xc9;" horiz-adv-x="583" 
d="M49 0l112 705h445l-11 -69h-365l-39 -244h345l-11 -69h-345l-41 -254h365l-10 -69h-445zM377 765l131 172h92l-161 -172h-62z" />
    <glyph glyph-name="Ecircumflex" unicode="&#xca;" horiz-adv-x="583" 
d="M49 0l112 705h445l-11 -69h-365l-39 -244h345l-11 -69h-345l-41 -254h365l-10 -69h-445zM240 765l140 172h76l105 -172h-61l-86 119l-114 -119h-60z" />
    <glyph glyph-name="Edieresis" unicode="&#xcb;" horiz-adv-x="583" 
d="M49 0l112 705h445l-11 -69h-365l-39 -244h345l-11 -69h-345l-41 -254h365l-10 -69h-445zM458 806l14 86h86l-14 -86h-86zM284 806l14 86h86l-14 -86h-86z" />
    <glyph glyph-name="Igrave" unicode="&#xcc;" horiz-adv-x="257" 
d="M49 0l112 705h82l-112 -705h-82zM181 765l-133 172h90l105 -172h-62z" />
    <glyph glyph-name="Iacute" unicode="&#xcd;" horiz-adv-x="257" 
d="M49 0l112 705h82l-112 -705h-82zM181 765l131 172h92l-161 -172h-62z" />
    <glyph glyph-name="Icircumflex" unicode="&#xce;" horiz-adv-x="257" 
d="M49 0l112 705h82l-112 -705h-82zM44 765l140 172h76l105 -172h-61l-86 119l-114 -119h-60z" />
    <glyph glyph-name="Idieresis" unicode="&#xcf;" horiz-adv-x="257" 
d="M49 0l112 705h82l-112 -705h-82zM262 806l14 86h86l-14 -86h-86zM88 806l14 86h86l-14 -86h-86z" />
    <glyph glyph-name="Eth" unicode="&#xd0;" horiz-adv-x="742" 
d="M49 0l112 705h207q160 0 246.5 -77.5t87.5 -217.5q0 -85 -24 -159t-73 -130.5t-124 -88.5t-179 -32h-253zM142 70h162q84 0 143 26.5t96 73.5t54.5 108.5t17.5 130.5q0 110 -62.5 168t-185.5 58h-135zM12 326l10 64h367l-10 -64h-367z" />
    <glyph glyph-name="Ntilde" unicode="&#xd1;" horiz-adv-x="739" 
d="M49 0l112 705h63l333 -576l91 576h77l-112 -705h-63l-334 577l-91 -577h-76zM288 783l-46 3q11 64 44 98.5t83 34.5q28 0 53.5 -13t48.5 -29q20 -13 38.5 -23.5t37.5 -10.5q57 0 77 79l46 -3q-12 -64 -44.5 -98.5t-81.5 -34.5q-30 0 -55 13.5t-48 28.5q-20 13 -39 23.5
t-37 10.5q-58 0 -77 -79z" />
    <glyph glyph-name="Ograve" unicode="&#xd2;" horiz-adv-x="767" 
d="M368 -9q-88 0 -154 35t-102 102.5t-36 165.5q0 119 42 214t121.5 150.5t194.5 55.5q89 0 154.5 -35t101.5 -102.5t36 -164.5q0 -120 -42 -215t-121.5 -150.5t-194.5 -55.5zM370 64q87 0 147 45.5t91 124t31 177.5q0 116 -55.5 173t-152.5 57q-86 0 -146 -45.5t-91 -123.5
t-31 -177q0 -117 55.5 -174t151.5 -57zM425 765l-133 172h90l105 -172h-62z" />
    <glyph glyph-name="Oacute" unicode="&#xd3;" horiz-adv-x="767" 
d="M368 -9q-88 0 -154 35t-102 102.5t-36 165.5q0 119 42 214t121.5 150.5t194.5 55.5q89 0 154.5 -35t101.5 -102.5t36 -164.5q0 -120 -42 -215t-121.5 -150.5t-194.5 -55.5zM370 64q87 0 147 45.5t91 124t31 177.5q0 116 -55.5 173t-152.5 57q-86 0 -146 -45.5t-91 -123.5
t-31 -177q0 -117 55.5 -174t151.5 -57zM425 765l131 172h92l-161 -172h-62z" />
    <glyph glyph-name="Ocircumflex" unicode="&#xd4;" horiz-adv-x="767" 
d="M368 -9q-88 0 -154 35t-102 102.5t-36 165.5q0 119 42 214t121.5 150.5t194.5 55.5q89 0 154.5 -35t101.5 -102.5t36 -164.5q0 -120 -42 -215t-121.5 -150.5t-194.5 -55.5zM370 64q87 0 147 45.5t91 124t31 177.5q0 116 -55.5 173t-152.5 57q-86 0 -146 -45.5t-91 -123.5
t-31 -177q0 -117 55.5 -174t151.5 -57zM288 765l140 172h76l105 -172h-61l-86 119l-114 -119h-60z" />
    <glyph glyph-name="Otilde" unicode="&#xd5;" horiz-adv-x="767" 
d="M368 -9q-88 0 -154 35t-102 102.5t-36 165.5q0 119 42 214t121.5 150.5t194.5 55.5q89 0 154.5 -35t101.5 -102.5t36 -164.5q0 -120 -42 -215t-121.5 -150.5t-194.5 -55.5zM370 64q87 0 147 45.5t91 124t31 177.5q0 116 -55.5 173t-152.5 57q-86 0 -146 -45.5t-91 -123.5
t-31 -177q0 -117 55.5 -174t151.5 -57zM292 783l-46 3q11 64 44 98.5t83 34.5q28 0 53.5 -13t48.5 -29q20 -13 38.5 -23.5t37.5 -10.5q57 0 77 79l46 -3q-12 -64 -44.5 -98.5t-81.5 -34.5q-30 0 -55 13.5t-48 28.5q-20 13 -39 23.5t-37 10.5q-58 0 -77 -79z" />
    <glyph glyph-name="Odieresis" unicode="&#xd6;" horiz-adv-x="767" 
d="M368 -9q-88 0 -154 35t-102 102.5t-36 165.5q0 119 42 214t121.5 150.5t194.5 55.5q89 0 154.5 -35t101.5 -102.5t36 -164.5q0 -120 -42 -215t-121.5 -150.5t-194.5 -55.5zM370 64q87 0 147 45.5t91 124t31 177.5q0 116 -55.5 173t-152.5 57q-86 0 -146 -45.5t-91 -123.5
t-31 -177q0 -117 55.5 -174t151.5 -57zM506 806l14 86h86l-14 -86h-86zM332 806l14 86h86l-14 -86h-86z" />
    <glyph glyph-name="multiply" unicode="&#xd7;" horiz-adv-x="600" 
d="M99 50l-44 44l209 192l-172 188l45 45l173 -190l207 190l43 -45l-208 -191l171 -189l-44 -44l-173 190z" />
    <glyph glyph-name="Oslash" unicode="&#xd8;" horiz-adv-x="767" 
d="M368 -9q-88 0 -154 35t-102 102.5t-36 165.5q0 119 42 214t121.5 150.5t194.5 55.5q89 0 154.5 -35t101.5 -102.5t36 -164.5q0 -120 -42 -215t-121.5 -150.5t-194.5 -55.5zM370 64q87 0 147 45.5t91 124t31 177.5q0 116 -55.5 173t-152.5 57q-86 0 -146 -45.5t-91 -123.5
t-31 -177q0 -117 55.5 -174t151.5 -57zM149 -38l-50 36l70 93l27 37l360 486l27 37l70 92l50 -36l-70 -93l-27 -37l-360 -485l-28 -38z" />
    <glyph glyph-name="Ugrave" unicode="&#xd9;" horiz-adv-x="728" 
d="M336 -9q-135 0 -202.5 76.5t-43.5 229.5l65 408h82l-65 -415q-36 -226 168 -226q98 0 154 50t74 159l69 432h81l-68 -436q-22 -138 -98 -208t-216 -70zM416 765l-133 172h90l105 -172h-62z" />
    <glyph glyph-name="Uacute" unicode="&#xda;" horiz-adv-x="728" 
d="M336 -9q-135 0 -202.5 76.5t-43.5 229.5l65 408h82l-65 -415q-36 -226 168 -226q98 0 154 50t74 159l69 432h81l-68 -436q-22 -138 -98 -208t-216 -70zM416 765l131 172h92l-161 -172h-62z" />
    <glyph glyph-name="Ucircumflex" unicode="&#xdb;" horiz-adv-x="728" 
d="M336 -9q-135 0 -202.5 76.5t-43.5 229.5l65 408h82l-65 -415q-36 -226 168 -226q98 0 154 50t74 159l69 432h81l-68 -436q-22 -138 -98 -208t-216 -70zM279 765l140 172h76l105 -172h-61l-86 119l-114 -119h-60z" />
    <glyph glyph-name="Udieresis" unicode="&#xdc;" horiz-adv-x="728" 
d="M336 -9q-135 0 -202.5 76.5t-43.5 229.5l65 408h82l-65 -415q-36 -226 168 -226q98 0 154 50t74 159l69 432h81l-68 -436q-22 -138 -98 -208t-216 -70zM497 806l14 86h86l-14 -86h-86zM323 806l14 86h86l-14 -86h-86z" />
    <glyph glyph-name="Yacute" unicode="&#xdd;" horiz-adv-x="596" 
d="M218 0l53 333l-211 372h90l168 -299l264 299h100l-329 -371l-53 -334h-82zM342 765l131 172h92l-161 -172h-62z" />
    <glyph glyph-name="Thorn" unicode="&#xde;" horiz-adv-x="634" 
d="M49 0l112 705h82l-20 -127h172q108 0 167 -48t59 -141q0 -108 -67.5 -171.5t-195.5 -63.5h-202l-25 -154h-82zM166 223h197q86 0 131 41t45 119q0 66 -38 96.5t-113 30.5h-176z" />
    <glyph glyph-name="germandbls" unicode="&#xdf;" horiz-adv-x="615" 
d="M379 -9q-58 0 -108.5 17.5t-80.5 44.5l32 56q68 -54 154 -54q55 0 84.5 20.5t29.5 59.5q0 25 -19 46.5t-75 39.5q-67 23 -94 52t-27 71q0 27 9 48t30.5 42.5t58.5 49.5q32 24 50 46t18 55q0 27 -20 46.5t-59 19.5q-140 0 -166 -160l-77 -491h-81l76 483
q17 110 77.5 170.5t173.5 60.5q72 0 113.5 -35.5t41.5 -84.5t-25 -80.5t-67 -65.5q-37 -28 -56.5 -48t-19.5 -47q0 -24 20.5 -41.5t69.5 -34.5q61 -21 93 -51.5t32 -84.5q0 -71 -52.5 -110.5t-135.5 -39.5z" />
    <glyph glyph-name="agrave" unicode="&#xe0;" horiz-adv-x="530" 
d="M199 -9q-42 0 -78.5 19t-58.5 52t-22 75q0 77 65.5 111t209.5 34h69l5 30q10 57 -15 87.5t-88 30.5q-89 0 -165 -51l-23 59q36 26 89.5 41.5t107.5 15.5q102 0 143 -56t26 -149l-46 -290h-77l12 76q-25 -43 -67 -64t-87 -21zM219 52q54 0 97 36.5t54 101.5l6 39h-50
q-77 0 -121.5 -8t-63.5 -27t-19 -52q0 -44 29 -67t68 -23zM285 551l-141 202h85l114 -202h-58z" />
    <glyph glyph-name="aacute" unicode="&#xe1;" horiz-adv-x="530" 
d="M199 -9q-42 0 -78.5 19t-58.5 52t-22 75q0 77 65.5 111t209.5 34h69l5 30q10 57 -15 87.5t-88 30.5q-89 0 -165 -51l-23 59q36 26 89.5 41.5t107.5 15.5q102 0 143 -56t26 -149l-46 -290h-77l12 76q-25 -43 -67 -64t-87 -21zM219 52q54 0 97 36.5t54 101.5l6 39h-50
q-77 0 -121.5 -8t-63.5 -27t-19 -52q0 -44 29 -67t68 -23zM286 551l134 202h88l-163 -202h-59z" />
    <glyph glyph-name="acircumflex" unicode="&#xe2;" horiz-adv-x="530" 
d="M199 -9q-42 0 -78.5 19t-58.5 52t-22 75q0 77 65.5 111t209.5 34h69l5 30q10 57 -15 87.5t-88 30.5q-89 0 -165 -51l-23 59q36 26 89.5 41.5t107.5 15.5q102 0 143 -56t26 -149l-46 -290h-77l12 76q-25 -43 -67 -64t-87 -21zM219 52q54 0 97 36.5t54 101.5l6 39h-50
q-77 0 -121.5 -8t-63.5 -27t-19 -52q0 -44 29 -67t68 -23zM165 551l131 202h77l88 -202h-55l-75 148l-109 -148h-57z" />
    <glyph glyph-name="atilde" unicode="&#xe3;" horiz-adv-x="530" 
d="M199 -9q-42 0 -78.5 19t-58.5 52t-22 75q0 77 65.5 111t209.5 34h69l5 30q10 57 -15 87.5t-88 30.5q-89 0 -165 -51l-23 59q36 26 89.5 41.5t107.5 15.5q102 0 143 -56t26 -149l-46 -290h-77l12 76q-25 -43 -67 -64t-87 -21zM219 52q54 0 97 36.5t54 101.5l6 39h-50
q-77 0 -121.5 -8t-63.5 -27t-19 -52q0 -44 29 -67t68 -23zM187 590l-46 3q10 64 40.5 98.5t75.5 34.5q26 0 45 -14t35 -30q13 -12 26 -22t30 -10q51 0 69 79l46 -3q-10 -64 -40 -98.5t-75 -34.5q-27 0 -46 14t-35 29q-13 13 -26.5 23t-29.5 10q-51 0 -69 -79z" />
    <glyph glyph-name="adieresis" unicode="&#xe4;" horiz-adv-x="530" 
d="M199 -9q-42 0 -78.5 19t-58.5 52t-22 75q0 77 65.5 111t209.5 34h69l5 30q10 57 -15 87.5t-88 30.5q-89 0 -165 -51l-23 59q36 26 89.5 41.5t107.5 15.5q102 0 143 -56t26 -149l-46 -290h-77l12 76q-25 -43 -67 -64t-87 -21zM219 52q54 0 97 36.5t54 101.5l6 39h-50
q-77 0 -121.5 -8t-63.5 -27t-19 -52q0 -44 29 -67t68 -23zM369 609l13 86h87l-14 -86h-86zM195 609l14 86h85l-12 -86h-87z" />
    <glyph glyph-name="aring" unicode="&#xe5;" horiz-adv-x="530" 
d="M199 -9q-42 0 -78.5 19t-58.5 52t-22 75q0 77 65.5 111t209.5 34h69l5 30q10 57 -15 87.5t-88 30.5q-89 0 -165 -51l-23 59q36 26 89.5 41.5t107.5 15.5q102 0 143 -56t26 -149l-46 -290h-77l12 76q-25 -43 -67 -64t-87 -21zM219 52q54 0 97 36.5t54 101.5l6 39h-50
q-77 0 -121.5 -8t-63.5 -27t-19 -52q0 -44 29 -67t68 -23zM334 547q-50 0 -84.5 33.5t-34.5 81.5q0 49 34.5 82.5t84.5 33.5t84.5 -33.5t34.5 -82.5q0 -48 -34.5 -81.5t-84.5 -33.5zM334 590q31 0 51.5 21t20.5 51q0 31 -20.5 51.5t-51.5 20.5q-32 0 -52 -20.5t-20 -51.5
q0 -30 20 -51t52 -21z" />
    <glyph glyph-name="ae" unicode="&#xe6;" horiz-adv-x="861" 
d="M210 -9q-44 0 -83 17.5t-63 50t-24 78.5q0 77 65.5 111t209.5 34h72l3 22q20 126 -104 126q-90 0 -165 -52l-23 60q36 26 89.5 41.5t107.5 15.5q120 0 153 -88q32 41 79 64.5t107 23.5q75 0 119.5 -34.5t61 -90.5t6.5 -119l-4 -23h-364q-8 -78 32 -125t118 -47
q47 0 86 13.5t73 42.5l26 -55q-34 -32 -85 -49t-104 -17q-74 0 -125 30t-73 85q-29 -59 -80 -87t-111 -28zM632 435q-51 0 -86 -22t-55.5 -57.5t-28.5 -73.5h294q3 42 -8 77t-39.5 55.5t-76.5 20.5zM219 53q54 0 97.5 32.5t54.5 97.5l7 45h-52q-77 0 -121.5 -8t-63.5 -27
t-19 -51q0 -44 29 -66.5t68 -22.5z" />
    <glyph glyph-name="ccedilla" unicode="&#xe7;" horiz-adv-x="463" 
d="M258 -9q-108 0 -160.5 60t-52.5 156q0 54 15 105t47 92.5t81 66t117 24.5q48 0 92 -16t70 -43l-29 -58q-51 51 -130 51q-65 0 -104.5 -32.5t-57.5 -83.5t-18 -105q0 -68 32.5 -109.5t107.5 -41.5q30 0 64 12.5t63 38.5l24 -60q-29 -27 -73.5 -42t-87.5 -15zM219 -192
q-56 0 -88 19l17 44q18 -8 34 -12t39 -4q27 0 44.5 10t17.5 29q0 26 -35 26q-10 0 -21 -2t-27 -7l-15 16l30 93h51l-21 -63q10 1 18 1q34 0 55 -16.5t21 -46.5q0 -39 -34 -63t-86 -24z" />
    <glyph glyph-name="egrave" unicode="&#xe8;" horiz-adv-x="532" 
d="M270 -9q-104 0 -165 57.5t-61 157.5q0 79 32 144.5t90 105t138 39.5q76 0 120.5 -35t60.5 -91.5t7 -121.5l-3 -21h-366q-7 -78 33 -124t118 -46q46 0 85.5 13.5t72.5 42.5l27 -55q-34 -32 -85 -49t-104 -17zM303 435q-53 0 -88 -22.5t-55.5 -58.5t-28.5 -75h296
q6 66 -22.5 111t-101.5 45zM292 551l-141 202h85l114 -202h-58z" />
    <glyph glyph-name="eacute" unicode="&#xe9;" horiz-adv-x="532" 
d="M270 -9q-104 0 -165 57.5t-61 157.5q0 79 32 144.5t90 105t138 39.5q76 0 120.5 -35t60.5 -91.5t7 -121.5l-3 -21h-366q-7 -78 33 -124t118 -46q46 0 85.5 13.5t72.5 42.5l27 -55q-34 -32 -85 -49t-104 -17zM303 435q-53 0 -88 -22.5t-55.5 -58.5t-28.5 -75h296
q6 66 -22.5 111t-101.5 45zM293 551l134 202h88l-163 -202h-59z" />
    <glyph glyph-name="ecircumflex" unicode="&#xea;" horiz-adv-x="532" 
d="M270 -9q-104 0 -165 57.5t-61 157.5q0 79 32 144.5t90 105t138 39.5q76 0 120.5 -35t60.5 -91.5t7 -121.5l-3 -21h-366q-7 -78 33 -124t118 -46q46 0 85.5 13.5t72.5 42.5l27 -55q-34 -32 -85 -49t-104 -17zM303 435q-53 0 -88 -22.5t-55.5 -58.5t-28.5 -75h296
q6 66 -22.5 111t-101.5 45zM172 551l131 202h77l88 -202h-55l-75 148l-109 -148h-57z" />
    <glyph glyph-name="edieresis" unicode="&#xeb;" horiz-adv-x="532" 
d="M270 -9q-104 0 -165 57.5t-61 157.5q0 79 32 144.5t90 105t138 39.5q76 0 120.5 -35t60.5 -91.5t7 -121.5l-3 -21h-366q-7 -78 33 -124t118 -46q46 0 85.5 13.5t72.5 42.5l27 -55q-34 -32 -85 -49t-104 -17zM303 435q-53 0 -88 -22.5t-55.5 -58.5t-28.5 -75h296
q6 66 -22.5 111t-101.5 45zM376 609l13 86h87l-14 -86h-86zM202 609l14 86h85l-12 -86h-87z" />
    <glyph glyph-name="igrave" unicode="&#xec;" horiz-adv-x="232" 
d="M37 0l77 486h81l-77 -486h-81zM135 551l-141 202h85l114 -202h-58z" />
    <glyph glyph-name="iacute" unicode="&#xed;" horiz-adv-x="232" 
d="M37 0l77 486h81l-77 -486h-81zM136 551l134 202h88l-163 -202h-59z" />
    <glyph glyph-name="icircumflex" unicode="&#xee;" horiz-adv-x="232" 
d="M37 0l77 486h81l-77 -486h-81zM15 551l131 202h77l88 -202h-55l-75 148l-109 -148h-57z" />
    <glyph glyph-name="idieresis" unicode="&#xef;" horiz-adv-x="232" 
d="M37 0l77 486h81l-77 -486h-81zM219 609l13 86h87l-14 -86h-86zM45 609l14 86h85l-12 -86h-87z" />
    <glyph glyph-name="eth" unicode="&#xf0;" horiz-adv-x="559" 
d="M253 -9q-60 0 -108 24.5t-76 68.5t-28 104q0 78 32.5 137.5t88.5 93t127 33.5q52 0 94 -20t64 -63q-12 144 -108 223l-153 -65l-20 44l125 53q-41 23 -91 34l21 54q81 -20 139 -58l135 58l20 -44l-111 -48q61 -55 89 -133t27 -173q0 -63 -15.5 -121t-48 -103.5t-83 -72
t-120.5 -26.5zM259 57q47 0 85.5 23t61.5 67t23 106q0 64 -36 99t-99 35q-48 0 -86.5 -23t-61.5 -66.5t-23 -106.5t36.5 -98.5t99.5 -35.5z" />
    <glyph glyph-name="ntilde" unicode="&#xf1;" horiz-adv-x="568" 
d="M37 0l78 486h79l-14 -83q27 44 71.5 68t103.5 24q81 0 122.5 -49t24.5 -152l-46 -294h-81l46 294q22 135 -90 135q-73 0 -116 -45t-55 -120l-42 -264h-81zM204 590l-46 3q10 64 40.5 98.5t75.5 34.5q26 0 45 -14t35 -30q13 -12 26 -22t30 -10q51 0 69 79l46 -3
q-10 -64 -40 -98.5t-75 -34.5q-27 0 -46 14t-35 29q-13 13 -26.5 23t-29.5 10q-51 0 -69 -79z" />
    <glyph glyph-name="ograve" unicode="&#xf2;" horiz-adv-x="556" 
d="M255 -9q-98 0 -154.5 57.5t-56.5 156.5q0 82 32 148t89.5 104t135.5 38q98 0 154 -57.5t56 -156.5q0 -82 -31.5 -147.5t-89.5 -104t-135 -38.5zM258 56q55 0 93.5 31t58 82.5t19.5 114.5q0 72 -34.5 109t-96.5 37q-55 0 -93.5 -30.5t-58.5 -82.5t-20 -115
q0 -71 35 -108.5t97 -37.5zM298 551l-141 202h85l114 -202h-58z" />
    <glyph glyph-name="oacute" unicode="&#xf3;" horiz-adv-x="556" 
d="M255 -9q-98 0 -154.5 57.5t-56.5 156.5q0 82 32 148t89.5 104t135.5 38q98 0 154 -57.5t56 -156.5q0 -82 -31.5 -147.5t-89.5 -104t-135 -38.5zM258 56q55 0 93.5 31t58 82.5t19.5 114.5q0 72 -34.5 109t-96.5 37q-55 0 -93.5 -30.5t-58.5 -82.5t-20 -115
q0 -71 35 -108.5t97 -37.5zM299 551l134 202h88l-163 -202h-59z" />
    <glyph glyph-name="ocircumflex" unicode="&#xf4;" horiz-adv-x="556" 
d="M255 -9q-98 0 -154.5 57.5t-56.5 156.5q0 82 32 148t89.5 104t135.5 38q98 0 154 -57.5t56 -156.5q0 -82 -31.5 -147.5t-89.5 -104t-135 -38.5zM258 56q55 0 93.5 31t58 82.5t19.5 114.5q0 72 -34.5 109t-96.5 37q-55 0 -93.5 -30.5t-58.5 -82.5t-20 -115
q0 -71 35 -108.5t97 -37.5zM178 551l131 202h77l88 -202h-55l-75 148l-109 -148h-57z" />
    <glyph glyph-name="otilde" unicode="&#xf5;" horiz-adv-x="556" 
d="M255 -9q-98 0 -154.5 57.5t-56.5 156.5q0 82 32 148t89.5 104t135.5 38q98 0 154 -57.5t56 -156.5q0 -82 -31.5 -147.5t-89.5 -104t-135 -38.5zM258 56q55 0 93.5 31t58 82.5t19.5 114.5q0 72 -34.5 109t-96.5 37q-55 0 -93.5 -30.5t-58.5 -82.5t-20 -115
q0 -71 35 -108.5t97 -37.5zM200 590l-46 3q10 64 40.5 98.5t75.5 34.5q26 0 45 -14t35 -30q13 -12 26 -22t30 -10q51 0 69 79l46 -3q-10 -64 -40 -98.5t-75 -34.5q-27 0 -46 14t-35 29q-13 13 -26.5 23t-29.5 10q-51 0 -69 -79z" />
    <glyph glyph-name="odieresis" unicode="&#xf6;" horiz-adv-x="556" 
d="M255 -9q-98 0 -154.5 57.5t-56.5 156.5q0 82 32 148t89.5 104t135.5 38q98 0 154 -57.5t56 -156.5q0 -82 -31.5 -147.5t-89.5 -104t-135 -38.5zM258 56q55 0 93.5 31t58 82.5t19.5 114.5q0 72 -34.5 109t-96.5 37q-55 0 -93.5 -30.5t-58.5 -82.5t-20 -115
q0 -71 35 -108.5t97 -37.5zM382 609l13 86h87l-14 -86h-86zM208 609l14 86h85l-12 -86h-87z" />
    <glyph glyph-name="divide" unicode="&#xf7;" horiz-adv-x="600" 
d="M283 443l13 86h86l-13 -86h-86zM58 256l10 62h488l-10 -62h-488zM219 45l14 86h86l-14 -86h-86z" />
    <glyph glyph-name="oslash" unicode="&#xf8;" horiz-adv-x="556" 
d="M104 -40l-42 31l41 55q-59 58 -59 160q0 82 32 147.5t89.5 103.5t135.5 38q64 0 112 -26l41 56l41 -30l-41 -56q57 -57 57 -158q0 -82 -31.5 -147.5t-89.5 -104t-135 -38.5q-63 0 -110 25zM121 202q0 -60 25 -97l227 310q-31 18 -76 18q-57 0 -96 -30.5t-59.5 -83
t-20.5 -117.5zM259 53q56 0 95.5 31t60 83.5t20.5 117.5q0 58 -24 95l-227 -310q31 -17 75 -17z" />
    <glyph glyph-name="ugrave" unicode="&#xf9;" horiz-adv-x="561" 
d="M210 -9q-79 0 -120 49t-24 153l46 293h81l-46 -293q-22 -135 87 -135q70 0 112.5 45t54.5 120l41 263h81l-77 -486h-79l13 82q-27 -43 -70.5 -67t-99.5 -24zM295 552l-141 202h85l114 -202h-58z" />
    <glyph glyph-name="uacute" unicode="&#xfa;" horiz-adv-x="561" 
d="M210 -9q-79 0 -120 49t-24 153l46 293h81l-46 -293q-22 -135 87 -135q70 0 112.5 45t54.5 120l41 263h81l-77 -486h-79l13 82q-27 -43 -70.5 -67t-99.5 -24zM296 552l134 202h88l-163 -202h-59z" />
    <glyph glyph-name="ucircumflex" unicode="&#xfb;" horiz-adv-x="561" 
d="M210 -9q-79 0 -120 49t-24 153l46 293h81l-46 -293q-22 -135 87 -135q70 0 112.5 45t54.5 120l41 263h81l-77 -486h-79l13 82q-27 -43 -70.5 -67t-99.5 -24zM175 552l131 202h77l88 -202h-55l-75 148l-109 -148h-57z" />
    <glyph glyph-name="udieresis" unicode="&#xfc;" horiz-adv-x="561" 
d="M210 -9q-79 0 -120 49t-24 153l46 293h81l-46 -293q-22 -135 87 -135q70 0 112.5 45t54.5 120l41 263h81l-77 -486h-79l13 82q-27 -43 -70.5 -67t-99.5 -24zM379 610l13 86h87l-14 -86h-86zM205 610l14 86h85l-12 -86h-87z" />
    <glyph glyph-name="yacute" unicode="&#xfd;" horiz-adv-x="514" 
d="M65 -180l112 188l-129 478h83l98 -394l227 394h88l-394 -666h-85zM265 551l134 202h88l-163 -202h-59z" />
    <glyph glyph-name="thorn" unicode="&#xfe;" horiz-adv-x="583" 
d="M9 -180l140 885h81l-47 -296q28 40 71 63t97 23q85 0 136.5 -56t51.5 -152q0 -80 -28.5 -147.5t-83 -108t-132.5 -40.5q-54 0 -98 25.5t-64 77.5l-43 -274h-81zM285 56q56 0 94 31t58 82.5t20 114.5q0 72 -35 109t-96 37q-56 0 -94 -30.5t-58 -82.5t-20 -115
q0 -71 35 -108.5t96 -37.5z" />
    <glyph glyph-name="ydieresis" unicode="&#xff;" horiz-adv-x="514" 
d="M65 -180l112 188l-129 478h83l98 -394l227 394h88l-394 -666h-85zM348 609l13 86h87l-14 -86h-86zM174 609l14 86h85l-12 -86h-87z" />
    <glyph glyph-name="Amacron" unicode="&#x100;" horiz-adv-x="729" 
d="M-19 0l423 705h70l198 -705h-80l-48 180h-368l-106 -180h-89zM427 609l-211 -360h309l-96 360h-2zM294 814l8 55h326l-8 -55h-326z" />
    <glyph glyph-name="amacron" unicode="&#x101;" horiz-adv-x="530" 
d="M199 -9q-42 0 -78.5 19t-58.5 52t-22 75q0 77 65.5 111t209.5 34h69l5 30q10 57 -15 87.5t-88 30.5q-89 0 -165 -51l-23 59q36 26 89.5 41.5t107.5 15.5q102 0 143 -56t26 -149l-46 -290h-77l12 76q-25 -43 -67 -64t-87 -21zM219 52q54 0 97 36.5t54 101.5l6 39h-50
q-77 0 -121.5 -8t-63.5 -27t-19 -52q0 -44 29 -67t68 -23zM180 625l8 55h297l-9 -55h-296z" />
    <glyph glyph-name="Abreve" unicode="&#x102;" horiz-adv-x="729" 
d="M-19 0l423 705h70l198 -705h-80l-48 180h-368l-106 -180h-89zM427 609l-211 -360h309l-96 360h-2zM452 760q-70 0 -113.5 45.5t-41.5 122.5l51 7q-2 -58 27.5 -89.5t80.5 -31.5t85 31.5t43 89.5l51 -7q-13 -78 -63 -123t-120 -45z" />
    <glyph glyph-name="abreve" unicode="&#x103;" horiz-adv-x="530" 
d="M199 -9q-42 0 -78.5 19t-58.5 52t-22 75q0 77 65.5 111t209.5 34h69l5 30q10 57 -15 87.5t-88 30.5q-89 0 -165 -51l-23 59q36 26 89.5 41.5t107.5 15.5q102 0 143 -56t26 -149l-46 -290h-77l12 76q-25 -43 -67 -64t-87 -21zM219 52q54 0 97 36.5t54 101.5l6 39h-50
q-77 0 -121.5 -8t-63.5 -27t-19 -52q0 -44 29 -67t68 -23zM324 549q-67 0 -106 51t-34 139l51 5q-3 -67 21.5 -103.5t70.5 -36.5t76 36.5t39 103.5l51 -5q-12 -89 -56.5 -139.5t-112.5 -50.5z" />
    <glyph glyph-name="Aogonek" unicode="&#x104;" horiz-adv-x="729" 
d="M-19 0l423 705h70l198 -705h-80l-48 180h-368l-106 -180h-89zM427 609l-211 -360h309l-96 360h-2zM618 -192q-46 0 -71.5 25t-25.5 65q0 46 30.5 82.5t76.5 55.5l25 -36q-38 -15 -56 -39.5t-18 -51.5q0 -23 14 -37t39 -14q24 0 54 12l10 -47q-16 -6 -36 -10.5t-42 -4.5z
" />
    <glyph glyph-name="aogonek" unicode="&#x105;" horiz-adv-x="530" 
d="M199 -9q-42 0 -78.5 19t-58.5 52t-22 75q0 77 65.5 111t209.5 34h69l5 30q10 57 -15 87.5t-88 30.5q-89 0 -165 -51l-23 59q36 26 89.5 41.5t107.5 15.5q102 0 143 -56t26 -149l-46 -290h-77l12 76q-25 -43 -67 -64t-87 -21zM219 52q54 0 97 36.5t54 101.5l6 39h-50
q-77 0 -121.5 -8t-63.5 -27t-19 -52q0 -44 29 -67t68 -23zM366 -192q-46 0 -71.5 25t-25.5 65q0 46 30.5 82.5t76.5 55.5l25 -36q-38 -15 -56 -39.5t-18 -51.5q0 -23 14 -37t39 -14q24 0 54 12l10 -47q-16 -6 -36 -10.5t-42 -4.5z" />
    <glyph glyph-name="Cacute" unicode="&#x106;" horiz-adv-x="673" 
d="M381 -9q-90 0 -158 34.5t-107 104.5t-39 177q0 87 25 161t72.5 129t115 86t152.5 31q73 0 133 -24t98 -66l-37 -66q-41 41 -89 61t-108 20q-86 0 -147 -43t-94 -117.5t-33 -169.5q0 -130 59 -186.5t164 -56.5q55 0 101.5 18.5t95.5 60.5l30 -66q-46 -43 -106.5 -65.5
t-127.5 -22.5zM416 765l131 172h92l-161 -172h-62z" />
    <glyph glyph-name="cacute" unicode="&#x107;" horiz-adv-x="463" 
d="M258 -9q-108 0 -160.5 60t-52.5 156q0 54 15 105t47 92.5t81 66t117 24.5q48 0 92 -16t70 -43l-29 -58q-51 51 -130 51q-65 0 -104.5 -32.5t-57.5 -83.5t-18 -105q0 -68 32.5 -109.5t107.5 -41.5q30 0 64 12.5t63 38.5l24 -60q-29 -27 -73.5 -42t-87.5 -15zM285 551
l134 202h88l-163 -202h-59z" />
    <glyph glyph-name="Ccircumflex" unicode="&#x108;" horiz-adv-x="673" 
d="M381 -9q-90 0 -158 34.5t-107 104.5t-39 177q0 87 25 161t72.5 129t115 86t152.5 31q73 0 133 -24t98 -66l-37 -66q-41 41 -89 61t-108 20q-86 0 -147 -43t-94 -117.5t-33 -169.5q0 -130 59 -186.5t164 -56.5q55 0 101.5 18.5t95.5 60.5l30 -66q-46 -43 -106.5 -65.5
t-127.5 -22.5zM279 765l140 172h76l105 -172h-61l-86 119l-114 -119h-60z" />
    <glyph glyph-name="ccircumflex" unicode="&#x109;" horiz-adv-x="463" 
d="M258 -9q-108 0 -160.5 60t-52.5 156q0 54 15 105t47 92.5t81 66t117 24.5q48 0 92 -16t70 -43l-29 -58q-51 51 -130 51q-65 0 -104.5 -32.5t-57.5 -83.5t-18 -105q0 -68 32.5 -109.5t107.5 -41.5q30 0 64 12.5t63 38.5l24 -60q-29 -27 -73.5 -42t-87.5 -15zM164 551
l131 202h77l88 -202h-55l-75 148l-109 -148h-57z" />
    <glyph glyph-name="Cdotaccent" unicode="&#x10a;" horiz-adv-x="673" 
d="M381 -9q-90 0 -158 34.5t-107 104.5t-39 177q0 87 25 161t72.5 129t115 86t152.5 31q73 0 133 -24t98 -66l-37 -66q-41 41 -89 61t-108 20q-86 0 -147 -43t-94 -117.5t-33 -169.5q0 -130 59 -186.5t164 -56.5q55 0 101.5 18.5t95.5 60.5l30 -66q-46 -43 -106.5 -65.5
t-127.5 -22.5zM408 807l14 88h90l-14 -88h-90z" />
    <glyph glyph-name="cdotaccent" unicode="&#x10b;" horiz-adv-x="463" 
d="M258 -9q-108 0 -160.5 60t-52.5 156q0 54 15 105t47 92.5t81 66t117 24.5q48 0 92 -16t70 -43l-29 -58q-51 51 -130 51q-65 0 -104.5 -32.5t-57.5 -83.5t-18 -105q0 -68 32.5 -109.5t107.5 -41.5q30 0 64 12.5t63 38.5l24 -60q-29 -27 -73.5 -42t-87.5 -15zM278 609
l14 88h91l-14 -88h-91z" />
    <glyph glyph-name="Ccaron" unicode="&#x10c;" horiz-adv-x="673" 
d="M381 -9q-90 0 -158 34.5t-107 104.5t-39 177q0 87 25 161t72.5 129t115 86t152.5 31q73 0 133 -24t98 -66l-37 -66q-41 41 -89 61t-108 20q-86 0 -147 -43t-94 -117.5t-33 -169.5q0 -130 59 -186.5t164 -56.5q55 0 101.5 18.5t95.5 60.5l30 -66q-46 -43 -106.5 -65.5
t-127.5 -22.5zM409 765l-105 172h59l86 -119l113 119h63l-140 -172h-76z" />
    <glyph glyph-name="ccaron" unicode="&#x10d;" horiz-adv-x="463" 
d="M258 -9q-108 0 -160.5 60t-52.5 156q0 54 15 105t47 92.5t81 66t117 24.5q48 0 92 -16t70 -43l-29 -58q-51 51 -130 51q-65 0 -104.5 -32.5t-57.5 -83.5t-18 -105q0 -68 32.5 -109.5t107.5 -41.5q30 0 64 12.5t63 38.5l24 -60q-29 -27 -73.5 -42t-87.5 -15zM276 551
l-88 202h55l75 -148l109 148h57l-131 -202h-77z" />
    <glyph glyph-name="Dcaron" unicode="&#x10e;" horiz-adv-x="742" 
d="M49 0l112 705h207q160 0 246.5 -77.5t87.5 -217.5q0 -85 -24 -159t-73 -130.5t-124 -88.5t-179 -32h-253zM142 70h162q84 0 143 26.5t96 73.5t54.5 108.5t17.5 130.5q0 110 -62.5 168t-185.5 58h-135zM406 765l-105 172h59l86 -119l113 119h63l-140 -172h-76z" />
    <glyph glyph-name="dcaron" unicode="&#x10f;" horiz-adv-x="583" 
d="M231 -9q-84 0 -135.5 56t-51.5 152q0 81 28.5 148.5t83 107.5t131.5 40q55 0 99 -25.5t64 -78.5l49 314h81l-112 -705h-79l13 81q-28 -42 -71.5 -66t-99.5 -24zM257 56q56 0 94 31t58 82.5t20 114.5q0 72 -35 109t-96 37q-56 0 -94 -30.5t-58 -82.5t-20 -115
q0 -71 35 -108.5t96 -37.5zM596 515l30 190h65l-54 -190h-41z" />
    <glyph glyph-name="Dcroat" unicode="&#x110;" horiz-adv-x="742" 
d="M49 0l112 705h207q160 0 246.5 -77.5t87.5 -217.5q0 -85 -24 -159t-73 -130.5t-124 -88.5t-179 -32h-253zM142 70h162q84 0 143 26.5t96 73.5t54.5 108.5t17.5 130.5q0 110 -62.5 168t-185.5 58h-135zM12 326l10 64h367l-10 -64h-367z" />
    <glyph glyph-name="dcroat" unicode="&#x111;" horiz-adv-x="583" 
d="M231 -9q-84 0 -135.5 56t-51.5 152q0 81 28.5 148.5t83 107.5t131.5 40q55 0 99 -25.5t64 -77.5l25 162h-193l10 60h193l14 91h81l-14 -91h91l-9 -60h-92l-88 -554h-79l13 81q-28 -42 -71.5 -66t-99.5 -24zM257 56q56 0 94 31t58 82.5t20 114.5q0 72 -35 109t-96 37
q-56 0 -94 -30.5t-58 -82.5t-20 -115q0 -71 35 -108.5t96 -37.5z" />
    <glyph glyph-name="Emacron" unicode="&#x112;" horiz-adv-x="583" 
d="M49 0l112 705h445l-11 -69h-365l-39 -244h345l-11 -69h-345l-41 -254h365l-10 -69h-445zM253 814l8 55h326l-8 -55h-326z" />
    <glyph glyph-name="emacron" unicode="&#x113;" horiz-adv-x="532" 
d="M270 -9q-104 0 -165 57.5t-61 157.5q0 79 32 144.5t90 105t138 39.5q76 0 120.5 -35t60.5 -91.5t7 -121.5l-3 -21h-366q-7 -78 33 -124t118 -46q46 0 85.5 13.5t72.5 42.5l27 -55q-34 -32 -85 -49t-104 -17zM303 435q-53 0 -88 -22.5t-55.5 -58.5t-28.5 -75h296
q6 66 -22.5 111t-101.5 45zM187 625l8 55h297l-9 -55h-296z" />
    <glyph glyph-name="Ebreve" unicode="&#x114;" horiz-adv-x="583" 
d="M49 0l112 705h445l-11 -69h-365l-39 -244h345l-11 -69h-345l-41 -254h365l-10 -69h-445zM411 760q-70 0 -113.5 45.5t-41.5 122.5l51 7q-2 -58 27.5 -89.5t80.5 -31.5t85 31.5t43 89.5l51 -7q-13 -78 -63 -123t-120 -45z" />
    <glyph glyph-name="ebreve" unicode="&#x115;" horiz-adv-x="532" 
d="M270 -9q-104 0 -165 57.5t-61 157.5q0 79 32 144.5t90 105t138 39.5q76 0 120.5 -35t60.5 -91.5t7 -121.5l-3 -21h-366q-7 -78 33 -124t118 -46q46 0 85.5 13.5t72.5 42.5l27 -55q-34 -32 -85 -49t-104 -17zM303 435q-53 0 -88 -22.5t-55.5 -58.5t-28.5 -75h296
q6 66 -22.5 111t-101.5 45zM331 549q-67 0 -106 51t-34 139l51 5q-3 -67 21.5 -103.5t70.5 -36.5t76 36.5t39 103.5l51 -5q-12 -89 -56.5 -139.5t-112.5 -50.5z" />
    <glyph glyph-name="Edotaccent" unicode="&#x116;" horiz-adv-x="583" 
d="M49 0l112 705h445l-11 -69h-365l-39 -244h345l-11 -69h-345l-41 -254h365l-10 -69h-445zM369 807l14 88h90l-14 -88h-90z" />
    <glyph glyph-name="edotaccent" unicode="&#x117;" horiz-adv-x="532" 
d="M270 -9q-104 0 -165 57.5t-61 157.5q0 79 32 144.5t90 105t138 39.5q76 0 120.5 -35t60.5 -91.5t7 -121.5l-3 -21h-366q-7 -78 33 -124t118 -46q46 0 85.5 13.5t72.5 42.5l27 -55q-34 -32 -85 -49t-104 -17zM303 435q-53 0 -88 -22.5t-55.5 -58.5t-28.5 -75h296
q6 66 -22.5 111t-101.5 45zM286 609l14 88h91l-14 -88h-91z" />
    <glyph glyph-name="Eogonek" unicode="&#x118;" horiz-adv-x="583" 
d="M49 0l112 705h445l-11 -69h-365l-39 -244h345l-11 -69h-345l-41 -254h365l-10 -69h-445zM417 -192q-46 0 -71.5 25t-25.5 65q0 46 30.5 82.5t76.5 55.5l25 -36q-38 -15 -56 -39.5t-18 -51.5q0 -23 14 -37t39 -14q24 0 54 12l10 -47q-16 -6 -36 -10.5t-42 -4.5z" />
    <glyph glyph-name="eogonek" unicode="&#x119;" horiz-adv-x="532" 
d="M270 -9q-104 0 -165 57.5t-61 157.5q0 79 32 144.5t90 105t138 39.5q76 0 120.5 -35t60.5 -91.5t7 -121.5l-3 -21h-366q-7 -78 33 -124t118 -46q46 0 85.5 13.5t72.5 42.5l27 -55q-34 -32 -85 -49t-104 -17zM303 435q-53 0 -88 -22.5t-55.5 -58.5t-28.5 -75h296
q6 66 -22.5 111t-101.5 45zM285 -192q-46 0 -71.5 25t-25.5 65q0 46 30.5 82.5t76.5 55.5l25 -36q-38 -15 -56 -39.5t-18 -51.5q0 -23 14 -37t39 -14q24 0 54 12l10 -47q-16 -6 -36 -10.5t-42 -4.5z" />
    <glyph glyph-name="Ecaron" unicode="&#x11a;" horiz-adv-x="583" 
d="M49 0l112 705h445l-11 -69h-365l-39 -244h345l-11 -69h-345l-41 -254h365l-10 -69h-445zM370 765l-105 172h59l86 -119l113 119h63l-140 -172h-76z" />
    <glyph glyph-name="ecaron" unicode="&#x11b;" horiz-adv-x="532" 
d="M270 -9q-104 0 -165 57.5t-61 157.5q0 79 32 144.5t90 105t138 39.5q76 0 120.5 -35t60.5 -91.5t7 -121.5l-3 -21h-366q-7 -78 33 -124t118 -46q46 0 85.5 13.5t72.5 42.5l27 -55q-34 -32 -85 -49t-104 -17zM303 435q-53 0 -88 -22.5t-55.5 -58.5t-28.5 -75h296
q6 66 -22.5 111t-101.5 45zM284 551l-88 202h55l75 -148l109 148h57l-131 -202h-77z" />
    <glyph glyph-name="Gcircumflex" unicode="&#x11c;" horiz-adv-x="726" 
d="M391 -9q-147 0 -231 78t-84 227q0 124 44.5 218t127.5 147t198 53q76 0 137 -24t99 -64l-38 -66q-42 40 -91 60t-112 20q-87 0 -149 -43t-95.5 -120t-33.5 -179q0 -119 60.5 -176.5t176.5 -57.5q43 0 79.5 7t70.5 18l34 213h-178l9 65h251l-53 -333q-41 -19 -101.5 -31
t-120.5 -12zM282 765l140 172h76l105 -172h-61l-86 119l-114 -119h-60z" />
    <glyph glyph-name="gcircumflex" unicode="&#x11d;" horiz-adv-x="586" 
d="M248 -189q-68 0 -122 19.5t-96 51.5l28 60q44 -31 85 -48.5t96 -17.5q64 0 104 32.5t51 100.5l15 92q-27 -42 -71 -66t-100 -24q-88 0 -141 54t-53 145q0 75 29 140t84 105t133 40q56 0 100 -25.5t64 -77.5l15 94h79l-75 -473q-32 -202 -225 -202zM259 77q56 0 95 30
t59 79.5t20 107.5q0 64 -35 100t-98 36q-57 0 -95.5 -30.5t-58 -79.5t-20.5 -106q0 -66 35 -101.5t98 -35.5zM190 551l131 202h77l88 -202h-55l-75 148l-109 -148h-57z" />
    <glyph glyph-name="Gbreve" unicode="&#x11e;" horiz-adv-x="726" 
d="M391 -9q-147 0 -231 78t-84 227q0 124 44.5 218t127.5 147t198 53q76 0 137 -24t99 -64l-38 -66q-42 40 -91 60t-112 20q-87 0 -149 -43t-95.5 -120t-33.5 -179q0 -119 60.5 -176.5t176.5 -57.5q43 0 79.5 7t70.5 18l34 213h-178l9 65h251l-53 -333q-41 -19 -101.5 -31
t-120.5 -12zM453 760q-70 0 -113.5 45.5t-41.5 122.5l51 7q-2 -58 27.5 -89.5t80.5 -31.5t85 31.5t43 89.5l51 -7q-13 -78 -63 -123t-120 -45z" />
    <glyph glyph-name="gbreve" unicode="&#x11f;" horiz-adv-x="586" 
d="M248 -189q-68 0 -122 19.5t-96 51.5l28 60q44 -31 85 -48.5t96 -17.5q64 0 104 32.5t51 100.5l15 92q-27 -42 -71 -66t-100 -24q-88 0 -141 54t-53 145q0 75 29 140t84 105t133 40q56 0 100 -25.5t64 -77.5l15 94h79l-75 -473q-32 -202 -225 -202zM259 77q56 0 95 30
t59 79.5t20 107.5q0 64 -35 100t-98 36q-57 0 -95.5 -30.5t-58 -79.5t-20.5 -106q0 -66 35 -101.5t98 -35.5zM349 549q-67 0 -106 51t-34 139l51 5q-3 -67 21.5 -103.5t70.5 -36.5t76 36.5t39 103.5l51 -5q-12 -89 -56.5 -139.5t-112.5 -50.5z" />
    <glyph glyph-name="Gdotaccent" unicode="&#x120;" horiz-adv-x="726" 
d="M391 -9q-147 0 -231 78t-84 227q0 124 44.5 218t127.5 147t198 53q76 0 137 -24t99 -64l-38 -66q-42 40 -91 60t-112 20q-87 0 -149 -43t-95.5 -120t-33.5 -179q0 -119 60.5 -176.5t176.5 -57.5q43 0 79.5 7t70.5 18l34 213h-178l9 65h251l-53 -333q-41 -19 -101.5 -31
t-120.5 -12zM411 807l14 88h90l-14 -88h-90z" />
    <glyph glyph-name="gdotaccent" unicode="&#x121;" horiz-adv-x="586" 
d="M248 -189q-68 0 -122 19.5t-96 51.5l28 60q44 -31 85 -48.5t96 -17.5q64 0 104 32.5t51 100.5l15 92q-27 -42 -71 -66t-100 -24q-88 0 -141 54t-53 145q0 75 29 140t84 105t133 40q56 0 100 -25.5t64 -77.5l15 94h79l-75 -473q-32 -202 -225 -202zM259 77q56 0 95 30
t59 79.5t20 107.5q0 64 -35 100t-98 36q-57 0 -95.5 -30.5t-58 -79.5t-20.5 -106q0 -66 35 -101.5t98 -35.5zM304 609l14 88h91l-14 -88h-91z" />
    <glyph glyph-name="uni0122" unicode="&#x122;" horiz-adv-x="726" 
d="M391 -9q-147 0 -231 78t-84 227q0 124 44.5 218t127.5 147t198 53q76 0 137 -24t99 -64l-38 -66q-42 40 -91 60t-112 20q-87 0 -149 -43t-95.5 -120t-33.5 -179q0 -119 60.5 -176.5t176.5 -57.5q43 0 79.5 7t70.5 18l34 213h-178l9 65h251l-53 -333q-41 -19 -101.5 -31
t-120.5 -12zM337 -268l-29 29q23 19 32 36.5t14 40.5h-49l13 82h99l-11 -68q-6 -39 -21.5 -68.5t-47.5 -51.5z" />
    <glyph glyph-name="uni0123" unicode="&#x123;" horiz-adv-x="586" 
d="M248 -189q-68 0 -122 19.5t-96 51.5l28 60q44 -31 85 -48.5t96 -17.5q64 0 104 32.5t51 100.5l15 92q-27 -42 -71 -66t-100 -24q-88 0 -141 54t-53 145q0 75 29 140t84 105t133 40q56 0 100 -25.5t64 -77.5l15 94h79l-75 -473q-32 -202 -225 -202zM259 77q56 0 95 30
t59 79.5t20 107.5q0 64 -35 100t-98 36q-57 0 -95.5 -30.5t-58 -79.5t-20.5 -106q0 -66 35 -101.5t98 -35.5zM294 567l11 68q7 39 22 68.5t48 51.5l28 -28q-23 -20 -32 -37.5t-14 -39.5h49l-13 -83h-99z" />
    <glyph glyph-name="Hcircumflex" unicode="&#x124;" horiz-adv-x="761" 
d="M49 0l112 705h82l-50 -312h422l50 312h82l-112 -705h-82l51 322h-422l-51 -322h-82zM295 765l140 172h76l105 -172h-61l-86 119l-114 -119h-60z" />
    <glyph glyph-name="hcircumflex" unicode="&#x125;" horiz-adv-x="568" 
d="M37 0l112 705h81l-47 -298q27 42 71 65t101 23q81 0 122.5 -49t24.5 -152l-46 -294h-81l46 294q22 135 -90 135q-73 0 -116 -45t-55 -120l-42 -264h-81zM200 765l140 172h76l105 -172h-61l-86 119l-114 -119h-60z" />
    <glyph glyph-name="Hbar" unicode="&#x126;" horiz-adv-x="798" 
d="M66 0l83 519h-90l10 65h90l19 121h83l-19 -121h421l19 121h83l-20 -121h92l-10 -65h-91l-83 -519h-83l51 317h-422l-50 -317h-83zM211 388h421l21 131h-422z" />
    <glyph glyph-name="hbar" unicode="&#x127;" horiz-adv-x="568" 
d="M37 0l88 554h-92l10 60h91l15 91h81l-15 -91h194l-10 -60h-193l-23 -147q27 42 71 65t101 23q81 0 122.5 -49t24.5 -152l-46 -294h-81l46 294q22 135 -90 135q-73 0 -116 -45t-55 -120l-42 -264h-81z" />
    <glyph glyph-name="Itilde" unicode="&#x128;" horiz-adv-x="257" 
d="M49 0l112 705h82l-112 -705h-82zM48 783l-46 3q11 64 44 98.5t83 34.5q28 0 53.5 -13t48.5 -29q20 -13 38.5 -23.5t37.5 -10.5q57 0 77 79l46 -3q-12 -64 -44.5 -98.5t-81.5 -34.5q-30 0 -55 13.5t-48 28.5q-20 13 -39 23.5t-37 10.5q-58 0 -77 -79z" />
    <glyph glyph-name="itilde" unicode="&#x129;" horiz-adv-x="232" 
d="M37 0l77 486h81l-77 -486h-81zM37 590l-46 3q10 64 40.5 98.5t75.5 34.5q26 0 45 -14t35 -30q13 -12 26 -22t30 -10q51 0 69 79l46 -3q-10 -64 -40 -98.5t-75 -34.5q-27 0 -46 14t-35 29q-13 13 -26.5 23t-29.5 10q-51 0 -69 -79z" />
    <glyph glyph-name="Imacron" unicode="&#x12a;" horiz-adv-x="257" 
d="M49 0l112 705h82l-112 -705h-82zM57 814l8 55h326l-8 -55h-326z" />
    <glyph glyph-name="imacron" unicode="&#x12b;" horiz-adv-x="232" 
d="M37 0l77 486h81l-77 -486h-81zM30 625l8 55h297l-9 -55h-296z" />
    <glyph glyph-name="Ibreve" unicode="&#x12c;" horiz-adv-x="257" 
d="M49 0l112 705h82l-112 -705h-82zM215 760q-70 0 -113.5 45.5t-41.5 122.5l51 7q-2 -58 27.5 -89.5t80.5 -31.5t85 31.5t43 89.5l51 -7q-13 -78 -63 -123t-120 -45z" />
    <glyph glyph-name="ibreve" unicode="&#x12d;" horiz-adv-x="232" 
d="M37 0l77 486h81l-77 -486h-81zM174 549q-67 0 -106 51t-34 139l51 5q-3 -67 21.5 -103.5t70.5 -36.5t76 36.5t39 103.5l51 -5q-12 -89 -56.5 -139.5t-112.5 -50.5z" />
    <glyph glyph-name="Iogonek" unicode="&#x12e;" horiz-adv-x="257" 
d="M49 0l112 705h82l-112 -705h-82zM83 -192q-46 0 -71.5 25t-25.5 65q0 46 30.5 82.5t76.5 55.5l25 -36q-38 -15 -56 -39.5t-18 -51.5q0 -23 14 -37t39 -14q24 0 54 12l10 -47q-16 -6 -36 -10.5t-42 -4.5z" />
    <glyph glyph-name="iogonek" unicode="&#x12f;" horiz-adv-x="232" 
d="M37 0l77 486h81l-77 -486h-81zM125 607l14 91h100l-15 -91h-99zM71 -192q-46 0 -71.5 25t-25.5 65q0 46 30.5 82.5t76.5 55.5l25 -36q-38 -15 -56 -39.5t-18 -51.5q0 -23 14 -37t39 -14q24 0 54 12l10 -47q-16 -6 -36 -10.5t-42 -4.5z" />
    <glyph glyph-name="Idotaccent" unicode="&#x130;" horiz-adv-x="257" 
d="M49 0l112 705h82l-112 -705h-82zM173 807l14 88h90l-14 -88h-90z" />
    <glyph glyph-name="dotlessi" unicode="&#x131;" horiz-adv-x="232" 
d="M37 0l77 486h81l-77 -486h-81z" />
    <glyph glyph-name="IJ" unicode="&#x132;" horiz-adv-x="580" 
d="M49 0l112 705h82l-112 -705h-82zM216 -7l1 69l60 4q107 8 127 130l80 509h83l-83 -519q-14 -87 -62 -135.5t-142 -54.5z" />
    <glyph glyph-name="Jcircumflex" unicode="&#x134;" horiz-adv-x="324" 
d="M-41 -7l1 69l60 4q107 8 127 130l80 509h83l-83 -519q-14 -87 -62 -135.5t-142 -54.5zM111 765l140 172h76l105 -172h-61l-86 119l-114 -119h-60z" />
    <glyph glyph-name="jcircumflex" unicode="&#x135;" horiz-adv-x="236" 
d="M-111 -193l-4 63l43 4q93 7 110 111l80 501h81l-80 -496q-13 -88 -58 -131t-128 -49zM16 551l131 202h77l88 -202h-55l-75 148l-109 -148h-57z" />
    <glyph glyph-name="uni0136" unicode="&#x136;" horiz-adv-x="625" 
d="M49 0l112 705h82l-51 -320h2l390 320h109l-422 -349l331 -356h-100l-316 334h-2l-53 -334h-82zM245 -268l-29 29q23 19 32 36.5t14 40.5h-49l13 82h99l-11 -68q-6 -39 -21.5 -68.5t-47.5 -51.5z" />
    <glyph glyph-name="uni0137" unicode="&#x137;" horiz-adv-x="500" 
d="M38 0l111 705h81l-69 -435h2l257 216h102l-279 -239l227 -247h-98l-215 230h-2l-36 -230h-81zM176 -268l-29 29q23 19 32 36.5t14 40.5h-49l13 82h99l-11 -68q-6 -39 -21.5 -68.5t-47.5 -51.5z" />
    <glyph glyph-name="kgreenlandic" unicode="&#x138;" horiz-adv-x="500" 
d="M37 0l77 486h81l-34 -216h2l257 216h102l-279 -239l227 -247h-98l-215 230h-2l-37 -230h-81z" />
    <glyph glyph-name="Lacute" unicode="&#x139;" horiz-adv-x="543" 
d="M49 0l112 705h82l-100 -633h357l-11 -72h-440zM180 765l131 172h92l-161 -172h-62z" />
    <glyph glyph-name="lacute" unicode="&#x13a;" horiz-adv-x="296" 
d="M187 -9q-72 0 -105 42.5t-20 125.5l87 546h81l-87 -546q-8 -53 8.5 -76t59.5 -23q12 0 23.5 1t23.5 4l-12 -66q-13 -4 -29 -6t-30 -2zM168 765l131 172h92l-161 -172h-62z" />
    <glyph glyph-name="uni013B" unicode="&#x13b;" horiz-adv-x="543" 
d="M49 0l112 705h82l-100 -633h357l-11 -72h-440zM227 -268l-29 29q23 19 32 36.5t14 40.5h-49l13 82h99l-11 -68q-6 -39 -21.5 -68.5t-47.5 -51.5z" />
    <glyph glyph-name="uni013C" unicode="&#x13c;" horiz-adv-x="296" 
d="M187 -9q-72 0 -105 42.5t-20 125.5l87 546h81l-87 -546q-8 -53 8.5 -76t59.5 -23q12 0 23.5 1t23.5 4l-12 -66q-13 -4 -29 -6t-30 -2zM106 -268l-29 29q23 19 32 36.5t14 40.5h-49l13 82h99l-11 -68q-6 -39 -21.5 -68.5t-47.5 -51.5z" />
    <glyph glyph-name="Lcaron" unicode="&#x13d;" horiz-adv-x="543" 
d="M49 0l112 705h82l-100 -633h357l-11 -72h-440zM323 480l35 225h72l-57 -225h-50z" />
    <glyph glyph-name="lcaron" unicode="&#x13e;" horiz-adv-x="296" 
d="M187 -9q-72 0 -105 42.5t-20 125.5l87 546h81l-87 -546q-8 -53 8.5 -76t59.5 -23q12 0 23.5 1t23.5 4l-12 -66q-13 -4 -29 -6t-30 -2zM245 515l30 190h65l-54 -190h-41z" />
    <glyph glyph-name="Ldot" unicode="&#x13f;" horiz-adv-x="543" 
d="M49 0l112 705h82l-100 -633h357l-11 -72h-440zM368 342l15 94h102l-15 -94h-102z" />
    <glyph glyph-name="ldot" unicode="&#x140;" horiz-adv-x="320" 
d="M187 -9q-72 0 -105 42.5t-20 125.5l87 546h81l-87 -546q-8 -53 8.5 -76t59.5 -23q12 0 23.5 1t23.5 4l-12 -66q-13 -4 -29 -6t-30 -2zM231 309l15 94h102l-15 -94h-102z" />
    <glyph glyph-name="Lslash" unicode="&#x141;" horiz-adv-x="543" 
d="M49 0l112 705h82l-100 -633h357l-11 -72h-440zM15 271l-28 60l376 175l29 -60z" />
    <glyph glyph-name="lslash" unicode="&#x142;" horiz-adv-x="296" 
d="M187 -9q-72 0 -105 42.5t-20 125.5l87 546h81l-87 -546q-8 -53 8.5 -76t59.5 -23q12 0 23.5 1t23.5 4l-12 -66q-13 -4 -29 -6t-30 -2zM17 260l-28 60l283 135l27 -61z" />
    <glyph glyph-name="Nacute" unicode="&#x143;" horiz-adv-x="739" 
d="M49 0l112 705h63l333 -576l91 576h77l-112 -705h-63l-334 577l-91 -577h-76zM421 765l131 172h92l-161 -172h-62z" />
    <glyph glyph-name="nacute" unicode="&#x144;" horiz-adv-x="568" 
d="M37 0l78 486h79l-14 -83q27 44 71.5 68t103.5 24q81 0 122.5 -49t24.5 -152l-46 -294h-81l46 294q22 135 -90 135q-73 0 -116 -45t-55 -120l-42 -264h-81zM303 551l134 202h88l-163 -202h-59z" />
    <glyph glyph-name="uni0145" unicode="&#x145;" horiz-adv-x="739" 
d="M49 0l112 705h63l333 -576l91 576h77l-112 -705h-63l-334 577l-91 -577h-76zM299 -268l-29 29q23 19 32 36.5t14 40.5h-49l13 82h99l-11 -68q-6 -39 -21.5 -68.5t-47.5 -51.5z" />
    <glyph glyph-name="uni0146" unicode="&#x146;" horiz-adv-x="568" 
d="M37 0l78 486h79l-14 -83q27 44 71.5 68t103.5 24q81 0 122.5 -49t24.5 -152l-46 -294h-81l46 294q22 135 -90 135q-73 0 -116 -45t-55 -120l-42 -264h-81zM208 -268l-29 29q23 19 32 36.5t14 40.5h-49l13 82h99l-11 -68q-6 -39 -21.5 -68.5t-47.5 -51.5z" />
    <glyph glyph-name="Ncaron" unicode="&#x147;" horiz-adv-x="739" 
d="M49 0l112 705h63l333 -576l91 576h77l-112 -705h-63l-334 577l-91 -577h-76zM414 765l-105 172h59l86 -119l113 119h63l-140 -172h-76z" />
    <glyph glyph-name="ncaron" unicode="&#x148;" horiz-adv-x="568" 
d="M37 0l78 486h79l-14 -83q27 44 71.5 68t103.5 24q81 0 122.5 -49t24.5 -152l-46 -294h-81l46 294q22 135 -90 135q-73 0 -116 -45t-55 -120l-42 -264h-81zM294 551l-88 202h55l75 -148l109 148h57l-131 -202h-77z" />
    <glyph glyph-name="napostrophe" unicode="&#x149;" horiz-adv-x="568" 
d="M92 571l-33 26q21 19 30.5 37t12.5 35h-46l14 86h97l-10 -65q-6 -36 -19.5 -64t-45.5 -55zM37 0l78 486h79l-14 -83q27 44 71.5 68t103.5 24q81 0 122.5 -49t24.5 -152l-46 -294h-81l46 294q22 135 -90 135q-73 0 -116 -45t-55 -120l-42 -264h-81z" />
    <glyph glyph-name="Eng" unicode="&#x14a;" horiz-adv-x="739" 
d="M381 -193l-4 63l43 4q98 8 114 111l6 33l-324 559l-91 -577h-76l112 705h63l333 -577l91 577h77l-114 -715q-13 -88 -58.5 -131t-127.5 -49z" />
    <glyph glyph-name="eng" unicode="&#x14b;" horiz-adv-x="568" 
d="M222 -193l-5 63l44 4q95 7 112 111l48 309q22 135 -90 135q-73 0 -116 -45t-55 -120l-42 -264h-81l78 486h79l-14 -84q27 45 71.5 69t103.5 24q81 0 122.5 -49t24.5 -152l-48 -304q-14 -88 -60 -131t-128 -49z" />
    <glyph glyph-name="Omacron" unicode="&#x14c;" horiz-adv-x="767" 
d="M368 -9q-88 0 -154 35t-102 102.5t-36 165.5q0 119 42 214t121.5 150.5t194.5 55.5q89 0 154.5 -35t101.5 -102.5t36 -164.5q0 -120 -42 -215t-121.5 -150.5t-194.5 -55.5zM370 64q87 0 147 45.5t91 124t31 177.5q0 116 -55.5 173t-152.5 57q-86 0 -146 -45.5t-91 -123.5
t-31 -177q0 -117 55.5 -174t151.5 -57zM301 814l8 55h326l-8 -55h-326z" />
    <glyph glyph-name="omacron" unicode="&#x14d;" horiz-adv-x="556" 
d="M255 -9q-98 0 -154.5 57.5t-56.5 156.5q0 82 32 148t89.5 104t135.5 38q98 0 154 -57.5t56 -156.5q0 -82 -31.5 -147.5t-89.5 -104t-135 -38.5zM258 56q55 0 93.5 31t58 82.5t19.5 114.5q0 72 -34.5 109t-96.5 37q-55 0 -93.5 -30.5t-58.5 -82.5t-20 -115
q0 -71 35 -108.5t97 -37.5zM193 625l8 55h297l-9 -55h-296z" />
    <glyph glyph-name="Obreve" unicode="&#x14e;" horiz-adv-x="767" 
d="M368 -9q-88 0 -154 35t-102 102.5t-36 165.5q0 119 42 214t121.5 150.5t194.5 55.5q89 0 154.5 -35t101.5 -102.5t36 -164.5q0 -120 -42 -215t-121.5 -150.5t-194.5 -55.5zM370 64q87 0 147 45.5t91 124t31 177.5q0 116 -55.5 173t-152.5 57q-86 0 -146 -45.5t-91 -123.5
t-31 -177q0 -117 55.5 -174t151.5 -57zM459 760q-70 0 -113.5 45.5t-41.5 122.5l51 7q-2 -58 27.5 -89.5t80.5 -31.5t85 31.5t43 89.5l51 -7q-13 -78 -63 -123t-120 -45z" />
    <glyph glyph-name="obreve" unicode="&#x14f;" horiz-adv-x="556" 
d="M255 -9q-98 0 -154.5 57.5t-56.5 156.5q0 82 32 148t89.5 104t135.5 38q98 0 154 -57.5t56 -156.5q0 -82 -31.5 -147.5t-89.5 -104t-135 -38.5zM258 56q55 0 93.5 31t58 82.5t19.5 114.5q0 72 -34.5 109t-96.5 37q-55 0 -93.5 -30.5t-58.5 -82.5t-20 -115
q0 -71 35 -108.5t97 -37.5zM337 549q-67 0 -106 51t-34 139l51 5q-3 -67 21.5 -103.5t70.5 -36.5t76 36.5t39 103.5l51 -5q-12 -89 -56.5 -139.5t-112.5 -50.5z" />
    <glyph glyph-name="Ohungarumlaut" unicode="&#x150;" horiz-adv-x="767" 
d="M368 -9q-88 0 -154 35t-102 102.5t-36 165.5q0 119 42 214t121.5 150.5t194.5 55.5q89 0 154.5 -35t101.5 -102.5t36 -164.5q0 -120 -42 -215t-121.5 -150.5t-194.5 -55.5zM370 64q87 0 147 45.5t91 124t31 177.5q0 116 -55.5 173t-152.5 57q-86 0 -146 -45.5t-91 -123.5
t-31 -177q0 -117 55.5 -174t151.5 -57zM369 765l100 172h80l-133 -172h-47zM496 765l104 172h80l-137 -172h-47z" />
    <glyph glyph-name="ohungarumlaut" unicode="&#x151;" horiz-adv-x="556" 
d="M255 -9q-98 0 -154.5 57.5t-56.5 156.5q0 82 32 148t89.5 104t135.5 38q98 0 154 -57.5t56 -156.5q0 -82 -31.5 -147.5t-89.5 -104t-135 -38.5zM258 56q55 0 93.5 31t58 82.5t19.5 114.5q0 72 -34.5 109t-96.5 37q-55 0 -93.5 -30.5t-58.5 -82.5t-20 -115
q0 -71 35 -108.5t97 -37.5zM369 551l72 202h75l-102 -202h-45zM241 551l72 202h75l-101 -202h-46z" />
    <glyph glyph-name="OE" unicode="&#x152;" horiz-adv-x="1046" 
d="M410 0q-160 0 -247 77.5t-87 217.5q0 86 24 160.5t73 130.5t124.5 87.5t179.5 31.5h592l-11 -69h-364l-39 -244h344l-10 -69h-344l-41 -254h365l-11 -69h-548zM411 70h114l89 565h-139q-84 0 -143.5 -26.5t-96.5 -73.5t-54.5 -108.5t-17.5 -130.5q0 -110 62 -168t186 -58
z" />
    <glyph glyph-name="oe" unicode="&#x153;" horiz-adv-x="910" 
d="M255 -9q-98 0 -154.5 57.5t-56.5 157.5q0 82 32 147.5t89.5 103.5t135.5 38q66 0 112.5 -30t67.5 -85q32 52 83 83.5t120 31.5q75 0 119.5 -35t60 -91.5t5.5 -120.5l-3 -22h-359q-8 -78 31 -123.5t115 -45.5q46 0 85 13t72 43l26 -56q-33 -32 -83.5 -49t-102.5 -17
q-71 0 -121 29.5t-74 83.5q-32 -51 -82.5 -82t-117.5 -31zM683 435q-52 0 -86.5 -22.5t-54.5 -58.5t-27 -75h290q6 66 -22 111t-100 45zM258 57q55 0 93.5 30.5t58 82t19.5 114.5q0 72 -34.5 109t-96.5 37q-55 0 -93.5 -30.5t-58.5 -82.5t-20 -115q0 -71 35 -108t97 -37z
" />
    <glyph glyph-name="Racute" unicode="&#x154;" horiz-adv-x="669" 
d="M49 0l112 705h251q114 0 171.5 -51t57.5 -139q0 -92 -54 -145t-140 -65q23 -11 40.5 -33t29.5 -54l84 -218h-84l-83 219q-16 43 -42.5 61t-75.5 18h-138l-47 -298h-82zM189 363h200q80 0 125 38t45 109q0 63 -37.5 95t-118.5 32h-171zM380 765l131 172h92l-161 -172h-62z
" />
    <glyph glyph-name="racute" unicode="&#x155;" horiz-adv-x="358" 
d="M37 0l78 486h79l-13 -81q22 39 61.5 62.5t96.5 28.5l39 3l1 -70l-56 -5q-80 -8 -115.5 -48t-46.5 -108l-42 -268h-82zM231 554l134 202h88l-163 -202h-59z" />
    <glyph glyph-name="uni0156" unicode="&#x156;" horiz-adv-x="669" 
d="M49 0l112 705h251q114 0 171.5 -51t57.5 -139q0 -92 -54 -145t-140 -65q23 -11 40.5 -33t29.5 -54l84 -218h-84l-83 219q-16 43 -42.5 61t-75.5 18h-138l-47 -298h-82zM189 363h200q80 0 125 38t45 109q0 63 -37.5 95t-118.5 32h-171zM267 -268l-29 29q23 19 32 36.5
t14 40.5h-49l13 82h99l-11 -68q-6 -39 -21.5 -68.5t-47.5 -51.5z" />
    <glyph glyph-name="uni0157" unicode="&#x157;" horiz-adv-x="358" 
d="M37 0l78 486h79l-13 -81q22 39 61.5 62.5t96.5 28.5l39 3l1 -70l-56 -5q-80 -8 -115.5 -48t-46.5 -108l-42 -268h-82zM35 -268l-29 29q23 19 32 36.5t14 40.5h-49l13 82h99l-11 -68q-6 -39 -21.5 -68.5t-47.5 -51.5z" />
    <glyph glyph-name="Rcaron" unicode="&#x158;" horiz-adv-x="669" 
d="M49 0l112 705h251q114 0 171.5 -51t57.5 -139q0 -92 -54 -145t-140 -65q23 -11 40.5 -33t29.5 -54l84 -218h-84l-83 219q-16 43 -42.5 61t-75.5 18h-138l-47 -298h-82zM189 363h200q80 0 125 38t45 109q0 63 -37.5 95t-118.5 32h-171zM373 765l-105 172h59l86 -119
l113 119h63l-140 -172h-76z" />
    <glyph glyph-name="rcaron" unicode="&#x159;" horiz-adv-x="358" 
d="M37 0l78 486h79l-13 -81q22 39 61.5 62.5t96.5 28.5l39 3l1 -70l-56 -5q-80 -8 -115.5 -48t-46.5 -108l-42 -268h-82zM222 554l-88 202h55l75 -148l109 148h57l-131 -202h-77z" />
    <glyph glyph-name="Sacute" unicode="&#x15a;" horiz-adv-x="615" 
d="M297 -9q-77 0 -147 20t-122 66l34 63q55 -44 114 -60t128 -16q81 0 130 33.5t49 91.5q0 40 -29 68.5t-102 44.5l-103 25q-70 17 -112 58t-42 118q0 65 35.5 112t95.5 73t132 26q67 0 132.5 -21.5t112.5 -67.5l-35 -63q-45 43 -100 61t-112 18q-51 0 -91 -16.5t-63.5 -46
t-23.5 -70.5q0 -51 25.5 -75t75.5 -37l104 -24q94 -22 138.5 -66.5t44.5 -107.5q0 -68 -36.5 -114t-97.5 -69.5t-135 -23.5zM348 765l131 172h92l-161 -172h-62z" />
    <glyph glyph-name="sacute" unicode="&#x15b;" horiz-adv-x="481" 
d="M223 -9q-59 0 -110 16t-83 44l30 56q36 -28 77.5 -41t86.5 -13q54 0 84.5 21.5t30.5 60.5q0 50 -64 65l-95 23q-50 11 -78.5 43t-28.5 78q0 65 53.5 108t145.5 43q50 0 96 -16.5t74 -44.5l-28 -55q-58 54 -145 54q-56 0 -88 -23t-32 -62q0 -24 14.5 -41.5t45.5 -24.5
l95 -23q53 -13 82.5 -42.5t29.5 -76.5q0 -70 -53.5 -109.5t-139.5 -39.5zM253 551l134 202h88l-163 -202h-59z" />
    <glyph glyph-name="Scircumflex" unicode="&#x15c;" horiz-adv-x="615" 
d="M297 -9q-77 0 -147 20t-122 66l34 63q55 -44 114 -60t128 -16q81 0 130 33.5t49 91.5q0 40 -29 68.5t-102 44.5l-103 25q-70 17 -112 58t-42 118q0 65 35.5 112t95.5 73t132 26q67 0 132.5 -21.5t112.5 -67.5l-35 -63q-45 43 -100 61t-112 18q-51 0 -91 -16.5t-63.5 -46
t-23.5 -70.5q0 -51 25.5 -75t75.5 -37l104 -24q94 -22 138.5 -66.5t44.5 -107.5q0 -68 -36.5 -114t-97.5 -69.5t-135 -23.5zM211 765l140 172h76l105 -172h-61l-86 119l-114 -119h-60z" />
    <glyph glyph-name="scircumflex" unicode="&#x15d;" horiz-adv-x="481" 
d="M223 -9q-59 0 -110 16t-83 44l30 56q36 -28 77.5 -41t86.5 -13q54 0 84.5 21.5t30.5 60.5q0 50 -64 65l-95 23q-50 11 -78.5 43t-28.5 78q0 65 53.5 108t145.5 43q50 0 96 -16.5t74 -44.5l-28 -55q-58 54 -145 54q-56 0 -88 -23t-32 -62q0 -24 14.5 -41.5t45.5 -24.5
l95 -23q53 -13 82.5 -42.5t29.5 -76.5q0 -70 -53.5 -109.5t-139.5 -39.5zM132 551l131 202h77l88 -202h-55l-75 148l-109 -148h-57z" />
    <glyph glyph-name="Scedilla" unicode="&#x15e;" horiz-adv-x="615" 
d="M297 -9q-77 0 -147 20t-122 66l34 63q55 -44 114 -60t128 -16q81 0 130 33.5t49 91.5q0 40 -29 68.5t-102 44.5l-103 25q-70 17 -112 58t-42 118q0 65 35.5 112t95.5 73t132 26q67 0 132.5 -21.5t112.5 -67.5l-35 -63q-45 43 -100 61t-112 18q-51 0 -91 -16.5t-63.5 -46
t-23.5 -70.5q0 -51 25.5 -75t75.5 -37l104 -24q94 -22 138.5 -66.5t44.5 -107.5q0 -68 -36.5 -114t-97.5 -69.5t-135 -23.5zM273 -192q-56 0 -88 19l17 44q18 -8 34 -12t39 -4q27 0 44.5 10t17.5 29q0 26 -35 26q-10 0 -21 -2t-27 -7l-15 16l30 93h51l-21 -63q10 1 18 1
q34 0 55 -16.5t21 -46.5q0 -39 -34 -63t-86 -24z" />
    <glyph glyph-name="scedilla" unicode="&#x15f;" horiz-adv-x="481" 
d="M223 -9q-59 0 -110 16t-83 44l30 56q36 -28 77.5 -41t86.5 -13q54 0 84.5 21.5t30.5 60.5q0 50 -64 65l-95 23q-50 11 -78.5 43t-28.5 78q0 65 53.5 108t145.5 43q50 0 96 -16.5t74 -44.5l-28 -55q-58 54 -145 54q-56 0 -88 -23t-32 -62q0 -24 14.5 -41.5t45.5 -24.5
l95 -23q53 -13 82.5 -42.5t29.5 -76.5q0 -70 -53.5 -109.5t-139.5 -39.5zM192 -192q-56 0 -88 19l17 44q18 -8 34 -12t39 -4q27 0 44.5 10t17.5 29q0 26 -35 26q-10 0 -21 -2t-27 -7l-15 16l30 93h51l-21 -63q10 1 18 1q34 0 55 -16.5t21 -46.5q0 -39 -34 -63t-86 -24z" />
    <glyph glyph-name="Scaron" unicode="&#x160;" horiz-adv-x="615" 
d="M297 -9q-77 0 -147 20t-122 66l34 63q55 -44 114 -60t128 -16q81 0 130 33.5t49 91.5q0 40 -29 68.5t-102 44.5l-103 25q-70 17 -112 58t-42 118q0 65 35.5 112t95.5 73t132 26q67 0 132.5 -21.5t112.5 -67.5l-35 -63q-45 43 -100 61t-112 18q-51 0 -91 -16.5t-63.5 -46
t-23.5 -70.5q0 -51 25.5 -75t75.5 -37l104 -24q94 -22 138.5 -66.5t44.5 -107.5q0 -68 -36.5 -114t-97.5 -69.5t-135 -23.5zM341 765l-105 172h59l86 -119l113 119h63l-140 -172h-76z" />
    <glyph glyph-name="scaron" unicode="&#x161;" horiz-adv-x="481" 
d="M223 -9q-59 0 -110 16t-83 44l30 56q36 -28 77.5 -41t86.5 -13q54 0 84.5 21.5t30.5 60.5q0 50 -64 65l-95 23q-50 11 -78.5 43t-28.5 78q0 65 53.5 108t145.5 43q50 0 96 -16.5t74 -44.5l-28 -55q-58 54 -145 54q-56 0 -88 -23t-32 -62q0 -24 14.5 -41.5t45.5 -24.5
l95 -23q53 -13 82.5 -42.5t29.5 -76.5q0 -70 -53.5 -109.5t-139.5 -39.5zM244 551l-88 202h55l75 -148l109 148h57l-131 -202h-77z" />
    <glyph glyph-name="uni0162" unicode="&#x162;" horiz-adv-x="602" 
d="M221 0l101 634h-256l11 71h595l-11 -71h-257l-100 -634h-83zM243 -192q-56 0 -88 19l17 44q18 -8 34 -12t39 -4q27 0 44.5 10t17.5 29q0 26 -35 26q-10 0 -21 -2t-27 -7l-15 16l30 93h51l-21 -63q10 1 18 1q34 0 55 -16.5t21 -46.5q0 -39 -34 -63t-86 -24z" />
    <glyph glyph-name="uni0163" unicode="&#x163;" horiz-adv-x="350" 
d="M238 -9q-85 0 -124.5 48t-26.5 128l41 256h-96l11 63h95l23 149h81l-23 -149h154l-11 -63h-154l-39 -248q-10 -61 12.5 -88t71.5 -27q17 0 31.5 3.5t27.5 7.5l8 -63q-13 -7 -36.5 -12t-45.5 -5zM165 -192q-56 0 -88 19l17 44q18 -8 34 -12t39 -4q27 0 44.5 10t17.5 29
q0 26 -35 26q-10 0 -21 -2t-27 -7l-15 16l30 93h51l-21 -63q10 1 18 1q34 0 55 -16.5t21 -46.5q0 -39 -34 -63t-86 -24z" />
    <glyph glyph-name="Tcaron" unicode="&#x164;" horiz-adv-x="602" 
d="M221 0l101 634h-256l11 71h595l-11 -71h-257l-100 -634h-83zM346 765l-105 172h59l86 -119l113 119h63l-140 -172h-76z" />
    <glyph glyph-name="tcaron" unicode="&#x165;" horiz-adv-x="350" 
d="M238 -9q-85 0 -124.5 48t-26.5 128l41 256h-96l11 63h95l23 149h81l-23 -149h154l-11 -63h-154l-39 -248q-10 -61 12.5 -88t71.5 -27q17 0 31.5 3.5t27.5 7.5l8 -63q-13 -7 -36.5 -12t-45.5 -5zM293.522 537.926l28.4775 167.158h63.8301l-51.0645 -167.158h-41.2432z
" />
    <glyph glyph-name="Tbar" unicode="&#x166;" horiz-adv-x="602" 
d="M221 0l101 634h-256l11 71h595l-11 -71h-257l-100 -634h-83zM130 326l10 64h367l-10 -64h-367z" />
    <glyph glyph-name="tbar" unicode="&#x167;" horiz-adv-x="350" 
d="M238 -9q-85 0 -124.5 48t-26.5 128l41 256h-96l11 63h95l23 149h81l-23 -149h154l-11 -63h-154l-39 -248q-10 -61 12.5 -88t71.5 -27q17 0 31.5 3.5t27.5 7.5l8 -63q-13 -7 -36.5 -12t-45.5 -5zM26 239l9 55h274l-9 -55h-274z" />
    <glyph glyph-name="Utilde" unicode="&#x168;" horiz-adv-x="728" 
d="M336 -9q-135 0 -202.5 76.5t-43.5 229.5l65 408h82l-65 -415q-36 -226 168 -226q98 0 154 50t74 159l69 432h81l-68 -436q-22 -138 -98 -208t-216 -70zM283 783l-46 3q11 64 44 98.5t83 34.5q28 0 53.5 -13t48.5 -29q20 -13 38.5 -23.5t37.5 -10.5q57 0 77 79l46 -3
q-12 -64 -44.5 -98.5t-81.5 -34.5q-30 0 -55 13.5t-48 28.5q-20 13 -39 23.5t-37 10.5q-58 0 -77 -79z" />
    <glyph glyph-name="utilde" unicode="&#x169;" horiz-adv-x="561" 
d="M210 -9q-79 0 -120 49t-24 153l46 293h81l-46 -293q-22 -135 87 -135q70 0 112.5 45t54.5 120l41 263h81l-77 -486h-79l13 82q-27 -43 -70.5 -67t-99.5 -24zM197 591l-46 3q10 64 40.5 98.5t75.5 34.5q26 0 45 -14t35 -30q13 -12 26 -22t30 -10q51 0 69 79l46 -3
q-10 -64 -40 -98.5t-75 -34.5q-27 0 -46 14t-35 29q-13 13 -26.5 23t-29.5 10q-51 0 -69 -79z" />
    <glyph glyph-name="Umacron" unicode="&#x16a;" horiz-adv-x="728" 
d="M336 -9q-135 0 -202.5 76.5t-43.5 229.5l65 408h82l-65 -415q-36 -226 168 -226q98 0 154 50t74 159l69 432h81l-68 -436q-22 -138 -98 -208t-216 -70zM292 814l8 55h326l-8 -55h-326z" />
    <glyph glyph-name="umacron" unicode="&#x16b;" horiz-adv-x="561" 
d="M210 -9q-79 0 -120 49t-24 153l46 293h81l-46 -293q-22 -135 87 -135q70 0 112.5 45t54.5 120l41 263h81l-77 -486h-79l13 82q-27 -43 -70.5 -67t-99.5 -24zM190 626l8 55h297l-9 -55h-296z" />
    <glyph glyph-name="Ubreve" unicode="&#x16c;" horiz-adv-x="728" 
d="M336 -9q-135 0 -202.5 76.5t-43.5 229.5l65 408h82l-65 -415q-36 -226 168 -226q98 0 154 50t74 159l69 432h81l-68 -436q-22 -138 -98 -208t-216 -70zM450 760q-70 0 -113.5 45.5t-41.5 122.5l51 7q-2 -58 27.5 -89.5t80.5 -31.5t85 31.5t43 89.5l51 -7
q-13 -78 -63 -123t-120 -45z" />
    <glyph glyph-name="ubreve" unicode="&#x16d;" horiz-adv-x="561" 
d="M210 -9q-79 0 -120 49t-24 153l46 293h81l-46 -293q-22 -135 87 -135q70 0 112.5 45t54.5 120l41 263h81l-77 -486h-79l13 82q-27 -43 -70.5 -67t-99.5 -24zM334 550q-67 0 -106 51t-34 139l51 5q-3 -67 21.5 -103.5t70.5 -36.5t76 36.5t39 103.5l51 -5
q-12 -89 -56.5 -139.5t-112.5 -50.5z" />
    <glyph glyph-name="Uring" unicode="&#x16e;" horiz-adv-x="728" 
d="M336 -9q-135 0 -202.5 76.5t-43.5 229.5l65 408h82l-65 -415q-36 -226 168 -226q98 0 154 50t74 159l69 432h81l-68 -436q-22 -138 -98 -208t-216 -70zM462 758q-50 0 -84 33.5t-34 82.5q0 48 34 81.5t84 33.5t84.5 -33.5t34.5 -81.5q0 -49 -34.5 -82.5t-84.5 -33.5z
M462 801q32 0 52 21t20 52q0 30 -20 51t-52 21q-31 0 -51.5 -21t-20.5 -51q0 -31 20.5 -52t51.5 -21z" />
    <glyph glyph-name="uring" unicode="&#x16f;" horiz-adv-x="561" 
d="M210 -9q-79 0 -120 49t-24 153l46 293h81l-46 -293q-22 -135 87 -135q70 0 112.5 45t54.5 120l41 263h81l-77 -486h-79l13 82q-27 -43 -70.5 -67t-99.5 -24zM344 548q-50 0 -84.5 33.5t-34.5 81.5q0 49 34.5 82.5t84.5 33.5t84.5 -33.5t34.5 -82.5q0 -48 -34.5 -81.5
t-84.5 -33.5zM344 591q31 0 51.5 21t20.5 51q0 31 -20.5 51.5t-51.5 20.5q-32 0 -52 -20.5t-20 -51.5q0 -30 20 -51t52 -21z" />
    <glyph glyph-name="Uhungarumlaut" unicode="&#x170;" horiz-adv-x="728" 
d="M336 -9q-135 0 -202.5 76.5t-43.5 229.5l65 408h82l-65 -415q-36 -226 168 -226q98 0 154 50t74 159l69 432h81l-68 -436q-22 -138 -98 -208t-216 -70zM360 765l100 172h80l-133 -172h-47zM487 765l104 172h80l-137 -172h-47z" />
    <glyph glyph-name="uhungarumlaut" unicode="&#x171;" horiz-adv-x="561" 
d="M210 -9q-79 0 -120 49t-24 153l46 293h81l-46 -293q-22 -135 87 -135q70 0 112.5 45t54.5 120l41 263h81l-77 -486h-79l13 82q-27 -43 -70.5 -67t-99.5 -24zM366 552l72 202h75l-102 -202h-45zM238 552l72 202h75l-101 -202h-46z" />
    <glyph glyph-name="Uogonek" unicode="&#x172;" horiz-adv-x="728" 
d="M336 -9q-135 0 -202.5 76.5t-43.5 229.5l65 408h82l-65 -415q-36 -226 168 -226q98 0 154 50t74 159l69 432h81l-68 -436q-22 -138 -98 -208t-216 -70zM357 -192q-46 0 -71.5 25t-25.5 65q0 46 30.5 82.5t76.5 55.5l25 -36q-38 -15 -56 -39.5t-18 -51.5q0 -23 14 -37
t39 -14q24 0 54 12l10 -47q-16 -6 -36 -10.5t-42 -4.5z" />
    <glyph glyph-name="uogonek" unicode="&#x173;" horiz-adv-x="561" 
d="M210 -9q-79 0 -120 49t-24 153l46 293h81l-46 -293q-22 -135 87 -135q70 0 112.5 45t54.5 120l41 263h81l-77 -486h-79l13 82q-27 -43 -70.5 -67t-99.5 -24zM394 -192q-46 0 -71.5 25t-25.5 65q0 46 30.5 82.5t76.5 55.5l25 -36q-38 -15 -56 -39.5t-18 -51.5
q0 -23 14 -37t39 -14q24 0 54 12l10 -47q-16 -6 -36 -10.5t-42 -4.5z" />
    <glyph glyph-name="Wcircumflex" unicode="&#x174;" horiz-adv-x="1101" 
d="M238 0l-135 705h81l107 -584l296 584h66l109 -590l296 590h86l-358 -705h-73l-109 579l-295 -579h-71zM464 765l140 172h76l105 -172h-61l-86 119l-114 -119h-60z" />
    <glyph glyph-name="wcircumflex" unicode="&#x175;" horiz-adv-x="841" 
d="M166 0l-103 486h79l76 -390l203 390h69l77 -394l203 394h85l-259 -486h-77l-77 378l-199 -378h-77zM313 551l131 202h77l88 -202h-55l-75 148l-109 -148h-57z" />
    <glyph glyph-name="Ycircumflex" unicode="&#x176;" horiz-adv-x="596" 
d="M218 0l53 333l-211 372h90l168 -299l264 299h100l-329 -371l-53 -334h-82zM205 765l140 172h76l105 -172h-61l-86 119l-114 -119h-60z" />
    <glyph glyph-name="ycircumflex" unicode="&#x177;" horiz-adv-x="514" 
d="M65 -180l112 188l-129 478h83l98 -394l227 394h88l-394 -666h-85zM144 551l131 202h77l88 -202h-55l-75 148l-109 -148h-57z" />
    <glyph glyph-name="Ydieresis" unicode="&#x178;" horiz-adv-x="596" 
d="M218 0l53 333l-211 372h90l168 -299l264 299h100l-329 -371l-53 -334h-82zM423 806l14 86h86l-14 -86h-86zM249 806l14 86h86l-14 -86h-86z" />
    <glyph glyph-name="Zacute" unicode="&#x179;" horiz-adv-x="589" 
d="M10 0l9 61l490 573h-399l12 71h504l-10 -61l-490 -573h414l-11 -71h-519zM348 765l131 172h92l-161 -172h-62z" />
    <glyph glyph-name="zacute" unicode="&#x17a;" horiz-adv-x="463" 
d="M17 0l9 53l329 371h-271l10 62h367l-9 -53l-331 -370h284l-10 -63h-378zM254 551l134 202h88l-163 -202h-59z" />
    <glyph glyph-name="Zdotaccent" unicode="&#x17b;" horiz-adv-x="589" 
d="M10 0l9 61l490 573h-399l12 71h504l-10 -61l-490 -573h414l-11 -71h-519zM340 807l14 88h90l-14 -88h-90z" />
    <glyph glyph-name="zdotaccent" unicode="&#x17c;" horiz-adv-x="463" 
d="M17 0l9 53l329 371h-271l10 62h367l-9 -53l-331 -370h284l-10 -63h-378zM247 609l14 88h91l-14 -88h-91z" />
    <glyph glyph-name="Zcaron" unicode="&#x17d;" horiz-adv-x="589" 
d="M10 0l9 61l490 573h-399l12 71h504l-10 -61l-490 -573h414l-11 -71h-519zM341 765l-105 172h59l86 -119l113 119h63l-140 -172h-76z" />
    <glyph glyph-name="zcaron" unicode="&#x17e;" horiz-adv-x="463" 
d="M17 0l9 53l329 371h-271l10 62h367l-9 -53l-331 -370h284l-10 -63h-378zM245 551l-88 202h55l75 -148l109 148h57l-131 -202h-77z" />
    <glyph glyph-name="uni0181" unicode="&#x181;" horiz-adv-x="800" 
d="M173 0l102 642h-33q-56 0 -86 -25t-40 -85l-7 -43h-70l8 51q13 84 59.5 124.5t143.5 40.5h302q110 0 162 -45t52 -120q0 -70 -39 -117.5t-105 -65.5q51 -17 80 -56t29 -93q0 -102 -65 -155t-184 -53h-309zM315 390h201q78 0 123.5 36.5t45.5 105.5q0 52 -35.5 79.5
t-108.5 27.5h-187zM263 66h219q167 0 167 145q0 56 -37 84.5t-106 28.5h-202z" />
    <glyph glyph-name="uni018A" unicode="&#x18a;" horiz-adv-x="866" 
d="M173 0l102 642h-33q-56 0 -86 -25t-40 -85l-7 -43h-70l8 51q13 84 59.5 124.5t143.5 40.5h242q160 0 246.5 -77.5t87.5 -217.5q0 -85 -24 -159t-73 -130.5t-124 -88.5t-179 -32h-253zM266 70h162q84 0 143 26.5t96 73.5t54.5 108.5t17.5 130.5q0 110 -62 168t-186 58
h-136z" />
    <glyph glyph-name="uni018F" unicode="&#x18f;" horiz-adv-x="767" 
d="M363 -9q-82 0 -141 30t-94.5 81.5t-48 117.5t-0.5 139l5 31h554v21q0 105 -62.5 167.5t-172.5 62.5q-78 0 -135.5 -19.5t-109.5 -61.5l-30 66q106 88 288 88q92 0 161.5 -39t108.5 -108t39 -159q0 -119 -41.5 -213.5t-122 -149t-198.5 -54.5zM369 63q75 0 129.5 33
t87.5 91t45 134h-472q-6 -75 13.5 -133.5t68 -91.5t128.5 -33z" />
    <glyph glyph-name="florin" unicode="&#x192;" horiz-adv-x="600" 
d="M-28 -189l10 66h54q43 0 71.5 23t50.5 82l163 441h-120l10 63h134l24 64q29 83 77 123.5t137 40.5h48l-10 -68h-47q-48 0 -77 -22t-50 -82l-21 -56h124l-10 -63h-138l-168 -451q-22 -61 -50 -96t-67 -50t-96 -15h-49z" />
    <glyph glyph-name="Ohorn" unicode="&#x1a0;" horiz-adv-x="767" 
d="M368 -9q-88 0 -154 35t-102 102.5t-36 165.5q0 119 42 214t121.5 150.5t194.5 55.5q89 0 154.5 -35t101.5 -102.5t36 -164.5q0 -120 -42 -215t-121.5 -150.5t-194.5 -55.5zM370 64q87 0 147 45.5t91 124t31 177.5q0 116 -55.5 173t-152.5 57q-86 0 -146 -45.5t-91 -123.5
t-31 -177q0 -117 55.5 -174t151.5 -57zM525 655l-42 54q26 -2 44.5 -3t37.5 -1q64 0 90.5 27t36.5 86l3 17h72l-4 -28q-11 -70 -52 -111t-113 -41h-73z" />
    <glyph glyph-name="ohorn" unicode="&#x1a1;" horiz-adv-x="556" 
d="M255 -9q-98 0 -154.5 57.5t-56.5 156.5q0 82 32 148t89.5 104t135.5 38q98 0 154 -57.5t56 -156.5q0 -82 -31.5 -147.5t-89.5 -104t-135 -38.5zM258 56q55 0 93.5 31t58 82.5t19.5 114.5q0 72 -34.5 109t-96.5 37q-55 0 -93.5 -30.5t-58.5 -82.5t-20 -115
q0 -71 35 -108.5t97 -37.5zM402 436l-39 28l3 22q64 1 90.5 28t36.5 86l2 16h73l-5 -33q-10 -67 -51.5 -104.5t-109.5 -42.5z" />
    <glyph glyph-name="Uhorn" unicode="&#x1af;" horiz-adv-x="728" 
d="M336 -9q-135 0 -202.5 76.5t-43.5 229.5l65 408h82l-65 -415q-36 -226 168 -226q98 0 154 50t74 159l69 432h81l-68 -436q-22 -138 -98 -208t-216 -70zM686 655l-39 28l4 22q64 1 90.5 27t35.5 85l3 18h73l-5 -29q-10 -68 -52 -107.5t-110 -43.5z" />
    <glyph glyph-name="uhorn" unicode="&#x1b0;" horiz-adv-x="561" 
d="M210 -9q-79 0 -120 49t-24 153l46 293h81l-46 -293q-22 -135 87 -135q70 0 112.5 45t54.5 120l41 263h81l-77 -486h-79l13 82q-27 -43 -70.5 -67t-99.5 -24zM493 436l-39 28l3 22q64 1 90.5 28t36.5 86l2 16h73l-5 -33q-10 -67 -51.5 -104.5t-109.5 -42.5z" />
    <glyph glyph-name="uni01B3" unicode="&#x1b3;" horiz-adv-x="613" 
d="M218 0l53 333l-211 372h90l168 -299l203 229q39 44 73 61.5t80 17.5q37 0 61 -10l-10 -61q-19 7 -47 7q-25 0 -45 -11.5t-45 -39.5l-235 -265l-53 -334h-82z" />
    <glyph glyph-name="uni01B4" unicode="&#x1b4;" horiz-adv-x="551" 
d="M401 391q32 56 68.5 80t92.5 24q39 0 62 -9l-22 -63q-8 3 -18 4.5t-18 1.5q-31 0 -53.5 -16.5t-48.5 -60.5l-314 -532h-85l112 188l-129 478h83l98 -394z" />
    <glyph glyph-name="uni01C4" unicode="&#x1c4;" horiz-adv-x="1316" 
d="M49 0l112 705h207q160 0 246.5 -77.5t87.5 -217.5q0 -85 -24 -159t-73 -130.5t-124 -88.5t-179 -32h-253zM142 70h162q84 0 143 26.5t96 73.5t54.5 108.5t17.5 130.5q0 110 -62.5 168t-185.5 58h-135zM737 0l9 61l490 573h-399l12 71h504l-10 -61l-490 -573h414l-11 -71
h-519zM1068 765l-105 172h59l86 -119l113 119h63l-140 -172h-76z" />
    <glyph glyph-name="uni01C5" unicode="&#x1c5;" horiz-adv-x="1206" 
d="M49 0l112 705h207q160 0 246.5 -77.5t87.5 -217.5q0 -85 -24 -159t-73 -130.5t-124 -88.5t-179 -32h-253zM142 70h162q84 0 143 26.5t96 73.5t54.5 108.5t17.5 130.5q0 110 -62.5 168t-185.5 58h-135zM759 0l9 53l329 371h-271l10 62h367l-9 -53l-331 -370h284l-10 -63
h-378zM987 551l-88 202h55l75 -148l109 148h57l-131 -202h-77z" />
    <glyph glyph-name="uni01C6" unicode="&#x1c6;" horiz-adv-x="1046" 
d="M231 -9q-84 0 -135.5 56t-51.5 152q0 81 28.5 148.5t83 107.5t131.5 40q55 0 99 -25.5t64 -78.5l49 314h81l-112 -705h-79l13 81q-28 -42 -71.5 -66t-99.5 -24zM257 56q56 0 94 31t58 82.5t20 114.5q0 72 -35 109t-96 37q-56 0 -94 -30.5t-58 -82.5t-20 -115
q0 -71 35 -108.5t96 -37.5zM600 0l9 53l329 371h-271l10 62h367l-9 -53l-331 -370h284l-10 -63h-378zM828 551l-88 202h55l75 -148l109 148h57l-131 -202h-77z" />
    <glyph glyph-name="uni01C7" unicode="&#x1c7;" horiz-adv-x="907" 
d="M49 0l112 705h82l-100 -633h357l-11 -72h-440zM542 -7l1 69l60 4q107 8 127 130l80 509h83l-83 -519q-14 -87 -62 -135.5t-142 -54.5z" />
    <glyph glyph-name="uni01C8" unicode="&#x1c8;" horiz-adv-x="779" 
d="M49 0l112 705h82l-100 -633h357l-11 -72h-440zM670 607l15 91h99l-15 -91h-99zM432 -193l-4 63l43 4q93 7 110 111l80 501h81l-80 -496q-13 -88 -58 -131t-128 -49z" />
    <glyph glyph-name="uni01C9" unicode="&#x1c9;" horiz-adv-x="531" 
d="M187 -9q-72 0 -105 42.5t-20 125.5l87 546h81l-87 -546q-8 -53 8.5 -76t59.5 -23q12 0 23.5 1t23.5 4l-12 -66q-13 -4 -29 -6t-30 -2zM423 607l15 91h99l-15 -91h-99zM185 -193l-4 63l43 4q93 7 110 111l80 501h81l-80 -496q-13 -88 -58 -131t-128 -49z" />
    <glyph glyph-name="uni01CA" unicode="&#x1ca;" horiz-adv-x="1063" 
d="M49 0l112 705h63l333 -576l91 576h77l-112 -705h-63l-334 577l-91 -577h-76zM698 -7l1 69l60 4q107 8 127 130l80 509h83l-83 -519q-14 -87 -62 -135.5t-142 -54.5z" />
    <glyph glyph-name="uni01CB" unicode="&#x1cb;" horiz-adv-x="975" 
d="M49 0l112 705h63l333 -576l91 576h77l-112 -705h-63l-334 577l-91 -577h-76zM866 607l15 91h99l-15 -91h-99zM628 -193l-4 63l43 4q93 7 110 111l80 501h81l-80 -496q-13 -88 -58 -131t-128 -49z" />
    <glyph glyph-name="uni01CC" unicode="&#x1cc;" horiz-adv-x="804" 
d="M37 0l78 486h79l-14 -83q27 44 71.5 68t103.5 24q81 0 122.5 -49t24.5 -152l-46 -294h-81l46 294q22 135 -90 135q-73 0 -116 -45t-55 -120l-42 -264h-81zM695 607l15 91h99l-15 -91h-99zM457 -193l-4 63l43 4q93 7 110 111l80 501h81l-80 -496q-13 -88 -58 -131
t-128 -49z" />
    <glyph glyph-name="uni01CD" unicode="&#x1cd;" horiz-adv-x="729" 
d="M-19 0l423 705h70l198 -705h-80l-48 180h-368l-106 -180h-89zM427 609l-211 -360h309l-96 360h-2zM411 765l-105 172h59l86 -119l113 119h63l-140 -172h-76z" />
    <glyph glyph-name="uni01CE" unicode="&#x1ce;" horiz-adv-x="530" 
d="M199 -9q-42 0 -78.5 19t-58.5 52t-22 75q0 77 65.5 111t209.5 34h69l5 30q10 57 -15 87.5t-88 30.5q-89 0 -165 -51l-23 59q36 26 89.5 41.5t107.5 15.5q102 0 143 -56t26 -149l-46 -290h-77l12 76q-25 -43 -67 -64t-87 -21zM219 52q54 0 97 36.5t54 101.5l6 39h-50
q-77 0 -121.5 -8t-63.5 -27t-19 -52q0 -44 29 -67t68 -23zM277 551l-88 202h55l75 -148l109 148h57l-131 -202h-77z" />
    <glyph glyph-name="uni01D4" unicode="&#x1d4;" horiz-adv-x="561" 
d="M210 -9q-79 0 -120 49t-24 153l46 293h81l-46 -293q-22 -135 87 -135q70 0 112.5 45t54.5 120l41 263h81l-77 -486h-79l13 82q-27 -43 -70.5 -67t-99.5 -24zM287 552l-88 202h55l75 -148l109 148h57l-131 -202h-77z" />
    <glyph glyph-name="uni01E5" unicode="&#x1e5;" horiz-adv-x="586" 
d="M241 -189q-67 0 -121 18.5t-95 49.5l32 59q42 -31 84 -46.5t96 -15.5q92 0 131 64h-113l9 56h128q0 4 1 8l2 8l19 122q-26 -45 -72.5 -71t-105.5 -26q-58 0 -100.5 24.5t-66 67.5t-23.5 97q0 72 30.5 133t85.5 98.5t131 37.5q56 0 100 -25.5t62 -76.5l15 93h79l-74 -468
q-2 -10 -5 -22h68l-9 -56h-76q-54 -129 -212 -129zM261 102q54 0 93.5 28t60.5 73.5t21 99.5q0 58 -35 92.5t-98 34.5q-54 0 -93.5 -28t-60.5 -73.5t-21 -98.5q0 -59 35 -93.5t98 -34.5z" />
    <glyph glyph-name="Gcaron" unicode="&#x1e6;" horiz-adv-x="726" 
d="M391 -9q-147 0 -231 78t-84 227q0 124 44.5 218t127.5 147t198 53q76 0 137 -24t99 -64l-38 -66q-42 40 -91 60t-112 20q-87 0 -149 -43t-95.5 -120t-33.5 -179q0 -119 60.5 -176.5t176.5 -57.5q43 0 79.5 7t70.5 18l34 213h-178l9 65h251l-53 -333q-41 -19 -101.5 -31
t-120.5 -12zM412 765l-105 172h59l86 -119l113 119h63l-140 -172h-76z" />
    <glyph glyph-name="gcaron" unicode="&#x1e7;" horiz-adv-x="586" 
d="M248 -189q-68 0 -122 19.5t-96 51.5l28 60q44 -31 85 -48.5t96 -17.5q64 0 104 32.5t51 100.5l15 92q-27 -42 -71 -66t-100 -24q-88 0 -141 54t-53 145q0 75 29 140t84 105t133 40q56 0 100 -25.5t64 -77.5l15 94h79l-75 -473q-32 -202 -225 -202zM259 77q56 0 95 30
t59 79.5t20 107.5q0 64 -35 100t-98 36q-57 0 -95.5 -30.5t-58 -79.5t-20.5 -106q0 -66 35 -101.5t98 -35.5zM302 551l-88 202h55l75 -148l109 148h57l-131 -202h-77z" />
    <glyph glyph-name="uni01E9" unicode="&#x1e9;" horiz-adv-x="500" 
d="M38 0l111 705h81l-69 -435h2l257 216h102l-279 -239l227 -247h-98l-215 230h-2l-36 -230h-81zM329 765l-105 172h59l86 -119l113 119h63l-140 -172h-76z" />
    <glyph glyph-name="uni01EA" unicode="&#x1ea;" horiz-adv-x="767" 
d="M368 -9q-88 0 -154 35t-102 102.5t-36 165.5q0 119 42 214t121.5 150.5t194.5 55.5q89 0 154.5 -35t101.5 -102.5t36 -164.5q0 -120 -42 -215t-121.5 -150.5t-194.5 -55.5zM370 64q87 0 147 45.5t91 124t31 177.5q0 116 -55.5 173t-152.5 57q-86 0 -146 -45.5t-91 -123.5
t-31 -177q0 -117 55.5 -174t151.5 -57zM379 -192q-46 0 -71.5 25t-25.5 65q0 46 30.5 82.5t76.5 55.5l25 -36q-38 -15 -56 -39.5t-18 -51.5q0 -23 14 -37t39 -14q24 0 54 12l10 -47q-16 -6 -36 -10.5t-42 -4.5z" />
    <glyph glyph-name="uni01EB" unicode="&#x1eb;" horiz-adv-x="556" 
d="M255 -9q-98 0 -154.5 57.5t-56.5 156.5q0 82 32 148t89.5 104t135.5 38q98 0 154 -57.5t56 -156.5q0 -82 -31.5 -147.5t-89.5 -104t-135 -38.5zM258 56q55 0 93.5 31t58 82.5t19.5 114.5q0 72 -34.5 109t-96.5 37q-55 0 -93.5 -30.5t-58.5 -82.5t-20 -115
q0 -71 35 -108.5t97 -37.5zM275 -192q-46 0 -71.5 25t-25.5 65q0 46 30.5 82.5t76.5 55.5l25 -36q-38 -15 -56 -39.5t-18 -51.5q0 -23 14 -37t39 -14q24 0 54 12l10 -47q-16 -6 -36 -10.5t-42 -4.5z" />
    <glyph glyph-name="uni01EF" unicode="&#x1ef;" horiz-adv-x="495" 
d="M185 -189q-62 0 -120 17.5t-106 53.5l34 56q42 -34 86.5 -48t99.5 -14q81 0 123.5 43t42.5 117q0 50 -34.5 82.5t-99.5 32.5h-103l7 40l243 230h-299l10 65h398l-10 -55l-235 -220h19q59 0 100.5 -23.5t63 -63t21.5 -86.5q0 -66 -28.5 -117.5t-82.5 -80.5t-130 -29z
M246 551l-88 202h55l75 -148l109 148h57l-131 -202h-77z" />
    <glyph glyph-name="Aringacute" unicode="&#x1fa;" horiz-adv-x="729" 
d="M-19 0l423 705h70l198 -705h-80l-48 180h-368l-106 -180h-89zM427 609l-211 -360h309l-96 360h-2zM449 758q-49 0 -82.5 33t-33.5 80q0 48 33.5 81t82.5 33q37 0 66 -20l70 66h80l-117 -100q17 -26 17 -60q0 -47 -33.5 -80t-82.5 -33zM449 799q31 0 51.5 21t20.5 51
q0 31 -20.5 51.5t-51.5 20.5q-32 0 -52 -20.5t-20 -51.5q0 -30 20 -51t52 -21z" />
    <glyph glyph-name="aringacute" unicode="&#x1fb;" horiz-adv-x="530" 
d="M199 -9q-42 0 -78.5 19t-58.5 52t-22 75q0 77 65.5 111t209.5 34h69l5 30q10 57 -15 87.5t-88 30.5q-89 0 -165 -51l-23 59q36 26 89.5 41.5t107.5 15.5q102 0 143 -56t26 -149l-46 -290h-77l12 76q-25 -43 -67 -64t-87 -21zM219 52q54 0 97 36.5t54 101.5l6 39h-50
q-77 0 -121.5 -8t-63.5 -27t-19 -52q0 -44 29 -67t68 -23zM331 544q-49 0 -82.5 33t-33.5 80q0 48 33.5 81t82.5 33q36 0 66 -20l71 66h79l-117 -99q17 -27 17 -61q0 -47 -33.5 -80t-82.5 -33zM331 586q32 0 52 20.5t20 50.5q0 31 -20 51.5t-52 20.5q-31 0 -51.5 -20.5
t-20.5 -51.5q0 -30 20.5 -50.5t51.5 -20.5z" />
    <glyph glyph-name="AEacute" unicode="&#x1fc;" horiz-adv-x="981" 
d="M-55 0l541 705h518l-11 -69h-426l14 -244h353l-11 -69h-339l14 -254h306l-12 -69h-364l-9 180h-346l-136 -180h-92zM494 608l-270 -359h291l-19 359h-2zM525 765l131 172h92l-161 -172h-62z" />
    <glyph glyph-name="aeacute" unicode="&#x1fd;" horiz-adv-x="861" 
d="M210 -9q-44 0 -83 17.5t-63 50t-24 78.5q0 77 65.5 111t209.5 34h72l3 22q20 126 -104 126q-90 0 -165 -52l-23 60q36 26 89.5 41.5t107.5 15.5q120 0 153 -88q32 41 79 64.5t107 23.5q75 0 119.5 -34.5t61 -90.5t6.5 -119l-4 -23h-364q-8 -78 32 -125t118 -47
q47 0 86 13.5t73 42.5l26 -55q-34 -32 -85 -49t-104 -17q-74 0 -125 30t-73 85q-29 -59 -80 -87t-111 -28zM632 435q-51 0 -86 -22t-55.5 -57.5t-28.5 -73.5h294q3 42 -8 77t-39.5 55.5t-76.5 20.5zM219 53q54 0 97.5 32.5t54.5 97.5l7 45h-52q-77 0 -121.5 -8t-63.5 -27
t-19 -51q0 -44 29 -66.5t68 -22.5zM422 551l134 202h88l-163 -202h-59z" />
    <glyph glyph-name="Oslashacute" unicode="&#x1fe;" horiz-adv-x="767" 
d="M368 -9q-88 0 -154 35t-102 102.5t-36 165.5q0 119 42 214t121.5 150.5t194.5 55.5q89 0 154.5 -35t101.5 -102.5t36 -164.5q0 -120 -42 -215t-121.5 -150.5t-194.5 -55.5zM370 64q87 0 147 45.5t91 124t31 177.5q0 116 -55.5 173t-152.5 57q-86 0 -146 -45.5t-91 -123.5
t-31 -177q0 -117 55.5 -174t151.5 -57zM149 -38l-50 36l70 93l27 37l360 486l27 37l70 92l50 -36l-70 -93l-27 -37l-360 -485l-28 -38zM425 765l131 172h92l-161 -172h-62z" />
    <glyph glyph-name="oslashacute" unicode="&#x1ff;" horiz-adv-x="556" 
d="M104 -40l-42 31l41 55q-59 58 -59 160q0 82 32 147.5t89.5 103.5t135.5 38q64 0 112 -26l41 56l41 -30l-41 -56q57 -57 57 -158q0 -82 -31.5 -147.5t-89.5 -104t-135 -38.5q-63 0 -110 25zM121 202q0 -60 25 -97l227 310q-31 18 -76 18q-57 0 -96 -30.5t-59.5 -83
t-20.5 -117.5zM259 53q56 0 95.5 31t60 83.5t20.5 117.5q0 58 -24 95l-227 -310q31 -17 75 -17zM299 551l134 202h88l-163 -202h-59z" />
    <glyph glyph-name="uni0200" unicode="&#x200;" horiz-adv-x="729" 
d="M-19 0l423 705h70l198 -705h-80l-48 180h-368l-106 -180h-89zM427 609l-211 -360h309l-96 360h-2zM489 765l-104 172h79l72 -172h-47zM362 765l-108 172h80l75 -172h-47z" />
    <glyph glyph-name="uni0201" unicode="&#x201;" horiz-adv-x="530" 
d="M199 -9q-42 0 -78.5 19t-58.5 52t-22 75q0 77 65.5 111t209.5 34h69l5 30q10 57 -15 87.5t-88 30.5q-89 0 -165 -51l-23 59q36 26 89.5 41.5t107.5 15.5q102 0 143 -56t26 -149l-46 -290h-77l12 76q-25 -43 -67 -64t-87 -21zM219 52q54 0 97 36.5t54 101.5l6 39h-50
q-77 0 -121.5 -8t-63.5 -27t-19 -52q0 -44 29 -67t68 -23zM357 551l-65 202h74l37 -202h-46zM230 551l-66 202h75l36 -202h-45z" />
    <glyph glyph-name="uni0202" unicode="&#x202;" horiz-adv-x="729" 
d="M-19 0l423 705h70l198 -705h-80l-48 180h-368l-106 -180h-89zM427 609l-211 -360h309l-96 360h-2zM326 760l-51 6q13 79 62.5 124t120.5 45q70 0 113 -45.5t42 -123.5l-51 -6q2 57 -27.5 89t-80.5 32t-85 -32t-43 -89z" />
    <glyph glyph-name="uni0203" unicode="&#x203;" horiz-adv-x="530" 
d="M199 -9q-42 0 -78.5 19t-58.5 52t-22 75q0 77 65.5 111t209.5 34h69l5 30q10 57 -15 87.5t-88 30.5q-89 0 -165 -51l-23 59q36 26 89.5 41.5t107.5 15.5q102 0 143 -56t26 -149l-46 -290h-77l12 76q-25 -43 -67 -64t-87 -21zM219 52q54 0 97 36.5t54 101.5l6 39h-50
q-77 0 -121.5 -8t-63.5 -27t-19 -52q0 -44 29 -67t68 -23zM206 549l-51 5q12 88 56.5 139t112.5 51q67 0 106 -51t34 -139l-51 -5q3 67 -21.5 103.5t-70.5 36.5t-76 -36.5t-39 -103.5z" />
    <glyph glyph-name="uni0204" unicode="&#x204;" horiz-adv-x="583" 
d="M49 0l112 705h445l-11 -69h-365l-39 -244h345l-11 -69h-345l-41 -254h365l-10 -69h-445zM448 765l-104 172h79l72 -172h-47zM321 765l-108 172h80l75 -172h-47z" />
    <glyph glyph-name="uni0205" unicode="&#x205;" horiz-adv-x="532" 
d="M270 -9q-104 0 -165 57.5t-61 157.5q0 79 32 144.5t90 105t138 39.5q76 0 120.5 -35t60.5 -91.5t7 -121.5l-3 -21h-366q-7 -78 33 -124t118 -46q46 0 85.5 13.5t72.5 42.5l27 -55q-34 -32 -85 -49t-104 -17zM303 435q-53 0 -88 -22.5t-55.5 -58.5t-28.5 -75h296
q6 66 -22.5 111t-101.5 45zM364 551l-65 202h74l37 -202h-46zM237 551l-66 202h75l36 -202h-45z" />
    <glyph glyph-name="uni0206" unicode="&#x206;" horiz-adv-x="583" 
d="M49 0l112 705h445l-11 -69h-365l-39 -244h345l-11 -69h-345l-41 -254h365l-10 -69h-445zM285 760l-51 6q13 79 62.5 124t120.5 45q70 0 113 -45.5t42 -123.5l-51 -6q2 57 -27.5 89t-80.5 32t-85 -32t-43 -89z" />
    <glyph glyph-name="uni0207" unicode="&#x207;" horiz-adv-x="532" 
d="M270 -9q-104 0 -165 57.5t-61 157.5q0 79 32 144.5t90 105t138 39.5q76 0 120.5 -35t60.5 -91.5t7 -121.5l-3 -21h-366q-7 -78 33 -124t118 -46q46 0 85.5 13.5t72.5 42.5l27 -55q-34 -32 -85 -49t-104 -17zM303 435q-53 0 -88 -22.5t-55.5 -58.5t-28.5 -75h296
q6 66 -22.5 111t-101.5 45zM213 549l-51 5q12 88 56.5 139t112.5 51q67 0 106 -51t34 -139l-51 -5q3 67 -21.5 103.5t-70.5 36.5t-76 -36.5t-39 -103.5z" />
    <glyph glyph-name="uni0208" unicode="&#x208;" horiz-adv-x="257" 
d="M49 0l112 705h82l-112 -705h-82zM252 765l-104 172h79l72 -172h-47zM125 765l-108 172h80l75 -172h-47z" />
    <glyph glyph-name="uni0209" unicode="&#x209;" horiz-adv-x="232" 
d="M37 0l77 486h81l-77 -486h-81zM207 551l-65 202h74l37 -202h-46zM80 551l-66 202h75l36 -202h-45z" />
    <glyph glyph-name="uni020A" unicode="&#x20a;" horiz-adv-x="257" 
d="M49 0l112 705h82l-112 -705h-82zM89 760l-51 6q13 79 62.5 124t120.5 45q70 0 113 -45.5t42 -123.5l-51 -6q2 57 -27.5 89t-80.5 32t-85 -32t-43 -89z" />
    <glyph glyph-name="uni020B" unicode="&#x20b;" horiz-adv-x="232" 
d="M37 0l77 486h81l-77 -486h-81zM56 549l-51 5q12 88 56.5 139t112.5 51q67 0 106 -51t34 -139l-51 -5q3 67 -21.5 103.5t-70.5 36.5t-76 -36.5t-39 -103.5z" />
    <glyph glyph-name="uni020C" unicode="&#x20c;" horiz-adv-x="767" 
d="M368 -9q-88 0 -154 35t-102 102.5t-36 165.5q0 119 42 214t121.5 150.5t194.5 55.5q89 0 154.5 -35t101.5 -102.5t36 -164.5q0 -120 -42 -215t-121.5 -150.5t-194.5 -55.5zM370 64q87 0 147 45.5t91 124t31 177.5q0 116 -55.5 173t-152.5 57q-86 0 -146 -45.5t-91 -123.5
t-31 -177q0 -117 55.5 -174t151.5 -57zM496 765l-104 172h79l72 -172h-47zM369 765l-108 172h80l75 -172h-47z" />
    <glyph glyph-name="uni020D" unicode="&#x20d;" horiz-adv-x="556" 
d="M255 -9q-98 0 -154.5 57.5t-56.5 156.5q0 82 32 148t89.5 104t135.5 38q98 0 154 -57.5t56 -156.5q0 -82 -31.5 -147.5t-89.5 -104t-135 -38.5zM258 56q55 0 93.5 31t58 82.5t19.5 114.5q0 72 -34.5 109t-96.5 37q-55 0 -93.5 -30.5t-58.5 -82.5t-20 -115
q0 -71 35 -108.5t97 -37.5zM370 551l-65 202h74l37 -202h-46zM243 551l-66 202h75l36 -202h-45z" />
    <glyph glyph-name="uni020E" unicode="&#x20e;" horiz-adv-x="767" 
d="M368 -9q-88 0 -154 35t-102 102.5t-36 165.5q0 119 42 214t121.5 150.5t194.5 55.5q89 0 154.5 -35t101.5 -102.5t36 -164.5q0 -120 -42 -215t-121.5 -150.5t-194.5 -55.5zM370 64q87 0 147 45.5t91 124t31 177.5q0 116 -55.5 173t-152.5 57q-86 0 -146 -45.5t-91 -123.5
t-31 -177q0 -117 55.5 -174t151.5 -57zM333 760l-51 6q13 79 62.5 124t120.5 45q70 0 113 -45.5t42 -123.5l-51 -6q2 57 -27.5 89t-80.5 32t-85 -32t-43 -89z" />
    <glyph glyph-name="uni020F" unicode="&#x20f;" horiz-adv-x="556" 
d="M255 -9q-98 0 -154.5 57.5t-56.5 156.5q0 82 32 148t89.5 104t135.5 38q98 0 154 -57.5t56 -156.5q0 -82 -31.5 -147.5t-89.5 -104t-135 -38.5zM258 56q55 0 93.5 31t58 82.5t19.5 114.5q0 72 -34.5 109t-96.5 37q-55 0 -93.5 -30.5t-58.5 -82.5t-20 -115
q0 -71 35 -108.5t97 -37.5zM219 549l-51 5q12 88 56.5 139t112.5 51q67 0 106 -51t34 -139l-51 -5q3 67 -21.5 103.5t-70.5 36.5t-76 -36.5t-39 -103.5z" />
    <glyph glyph-name="uni0210" unicode="&#x210;" horiz-adv-x="669" 
d="M49 0l112 705h251q114 0 171.5 -51t57.5 -139q0 -92 -54 -145t-140 -65q23 -11 40.5 -33t29.5 -54l84 -218h-84l-83 219q-16 43 -42.5 61t-75.5 18h-138l-47 -298h-82zM189 363h200q80 0 125 38t45 109q0 63 -37.5 95t-118.5 32h-171zM451 765l-104 172h79l72 -172h-47z
M324 765l-108 172h80l75 -172h-47z" />
    <glyph glyph-name="uni0211" unicode="&#x211;" horiz-adv-x="358" 
d="M37 0l78 486h79l-13 -81q22 39 61.5 62.5t96.5 28.5l39 3l1 -70l-56 -5q-80 -8 -115.5 -48t-46.5 -108l-42 -268h-82zM302 554l-65 202h74l37 -202h-46zM175 554l-66 202h75l36 -202h-45z" />
    <glyph glyph-name="uni0212" unicode="&#x212;" horiz-adv-x="669" 
d="M49 0l112 705h251q114 0 171.5 -51t57.5 -139q0 -92 -54 -145t-140 -65q23 -11 40.5 -33t29.5 -54l84 -218h-84l-83 219q-16 43 -42.5 61t-75.5 18h-138l-47 -298h-82zM189 363h200q80 0 125 38t45 109q0 63 -37.5 95t-118.5 32h-171zM288 760l-51 6q13 79 62.5 124
t120.5 45q70 0 113 -45.5t42 -123.5l-51 -6q2 57 -27.5 89t-80.5 32t-85 -32t-43 -89z" />
    <glyph glyph-name="uni0213" unicode="&#x213;" horiz-adv-x="358" 
d="M37 0l78 486h79l-13 -81q22 39 61.5 62.5t96.5 28.5l39 3l1 -70l-56 -5q-80 -8 -115.5 -48t-46.5 -108l-42 -268h-82zM151 552l-51 5q12 88 56.5 139t112.5 51q67 0 106 -51t34 -139l-51 -5q3 67 -21.5 103.5t-70.5 36.5t-76 -36.5t-39 -103.5z" />
    <glyph glyph-name="uni0214" unicode="&#x214;" horiz-adv-x="728" 
d="M336 -9q-135 0 -202.5 76.5t-43.5 229.5l65 408h82l-65 -415q-36 -226 168 -226q98 0 154 50t74 159l69 432h81l-68 -436q-22 -138 -98 -208t-216 -70zM487 765l-104 172h79l72 -172h-47zM360 765l-108 172h80l75 -172h-47z" />
    <glyph glyph-name="uni0215" unicode="&#x215;" horiz-adv-x="561" 
d="M210 -9q-79 0 -120 49t-24 153l46 293h81l-46 -293q-22 -135 87 -135q70 0 112.5 45t54.5 120l41 263h81l-77 -486h-79l13 82q-27 -43 -70.5 -67t-99.5 -24zM367 552l-65 202h74l37 -202h-46zM240 552l-66 202h75l36 -202h-45z" />
    <glyph glyph-name="uni0216" unicode="&#x216;" horiz-adv-x="728" 
d="M336 -9q-135 0 -202.5 76.5t-43.5 229.5l65 408h82l-65 -415q-36 -226 168 -226q98 0 154 50t74 159l69 432h81l-68 -436q-22 -138 -98 -208t-216 -70zM324 760l-51 6q13 79 62.5 124t120.5 45q70 0 113 -45.5t42 -123.5l-51 -6q2 57 -27.5 89t-80.5 32t-85 -32t-43 -89z
" />
    <glyph glyph-name="uni0217" unicode="&#x217;" horiz-adv-x="561" 
d="M210 -9q-79 0 -120 49t-24 153l46 293h81l-46 -293q-22 -135 87 -135q70 0 112.5 45t54.5 120l41 263h81l-77 -486h-79l13 82q-27 -43 -70.5 -67t-99.5 -24zM216 550l-51 5q12 88 56.5 139t112.5 51q67 0 106 -51t34 -139l-51 -5q3 67 -21.5 103.5t-70.5 36.5t-76 -36.5
t-39 -103.5z" />
    <glyph glyph-name="uni0218" unicode="&#x218;" horiz-adv-x="615" 
d="M297 -9q-77 0 -147 20t-122 66l34 63q55 -44 114 -60t128 -16q81 0 130 33.5t49 91.5q0 40 -29 68.5t-102 44.5l-103 25q-70 17 -112 58t-42 118q0 65 35.5 112t95.5 73t132 26q67 0 132.5 -21.5t112.5 -67.5l-35 -63q-45 43 -100 61t-112 18q-51 0 -91 -16.5t-63.5 -46
t-23.5 -70.5q0 -51 25.5 -75t75.5 -37l104 -24q94 -22 138.5 -66.5t44.5 -107.5q0 -68 -36.5 -114t-97.5 -69.5t-135 -23.5zM250 -268l-29 29q23 19 32 36.5t14 40.5h-49l13 82h99l-11 -68q-6 -39 -21.5 -68.5t-47.5 -51.5z" />
    <glyph glyph-name="uni0219" unicode="&#x219;" horiz-adv-x="481" 
d="M223 -9q-59 0 -110 16t-83 44l30 56q36 -28 77.5 -41t86.5 -13q54 0 84.5 21.5t30.5 60.5q0 50 -64 65l-95 23q-50 11 -78.5 43t-28.5 78q0 65 53.5 108t145.5 43q50 0 96 -16.5t74 -44.5l-28 -55q-58 54 -145 54q-56 0 -88 -23t-32 -62q0 -24 14.5 -41.5t45.5 -24.5
l95 -23q53 -13 82.5 -42.5t29.5 -76.5q0 -70 -53.5 -109.5t-139.5 -39.5zM169 -268l-29 29q23 19 32 36.5t14 40.5h-49l13 82h99l-11 -68q-6 -39 -21.5 -68.5t-47.5 -51.5z" />
    <glyph glyph-name="uni021A" unicode="&#x21a;" horiz-adv-x="602" 
d="M221 0l101 634h-256l11 71h595l-11 -71h-257l-100 -634h-83zM220 -268l-29 29q23 19 32 36.5t14 40.5h-49l13 82h99l-11 -68q-6 -39 -21.5 -68.5t-47.5 -51.5z" />
    <glyph glyph-name="uni021B" unicode="&#x21b;" horiz-adv-x="350" 
d="M238 -9q-85 0 -124.5 48t-26.5 128l41 256h-96l11 63h95l23 149h81l-23 -149h154l-11 -63h-154l-39 -248q-10 -61 12.5 -88t71.5 -27q17 0 31.5 3.5t27.5 7.5l8 -63q-13 -7 -36.5 -12t-45.5 -5zM142 -268l-29 29q23 19 32 36.5t14 40.5h-49l13 82h99l-11 -68
q-6 -39 -21.5 -68.5t-47.5 -51.5z" />
    <glyph glyph-name="uni021F" unicode="&#x21f;" horiz-adv-x="568" 
d="M37 0l112 705h81l-47 -298q27 42 71 65t101 23q81 0 122.5 -49t24.5 -152l-46 -294h-81l46 294q22 135 -90 135q-73 0 -116 -45t-55 -120l-42 -264h-81zM330 765l-105 172h59l86 -119l113 119h63l-140 -172h-76z" />
    <glyph glyph-name="uni0226" unicode="&#x226;" horiz-adv-x="729" 
d="M-19 0l423 705h70l198 -705h-80l-48 180h-368l-106 -180h-89zM427 609l-211 -360h309l-96 360h-2zM410 807l14 88h90l-14 -88h-90z" />
    <glyph glyph-name="uni0227" unicode="&#x227;" horiz-adv-x="530" 
d="M199 -9q-42 0 -78.5 19t-58.5 52t-22 75q0 77 65.5 111t209.5 34h69l5 30q10 57 -15 87.5t-88 30.5q-89 0 -165 -51l-23 59q36 26 89.5 41.5t107.5 15.5q102 0 143 -56t26 -149l-46 -290h-77l12 76q-25 -43 -67 -64t-87 -21zM219 52q54 0 97 36.5t54 101.5l6 39h-50
q-77 0 -121.5 -8t-63.5 -27t-19 -52q0 -44 29 -67t68 -23zM279 609l14 88h91l-14 -88h-91z" />
    <glyph glyph-name="uni0228" unicode="&#x228;" horiz-adv-x="583" 
d="M49 0l112 705h445l-11 -69h-365l-39 -244h345l-11 -69h-345l-41 -254h365l-10 -69h-445zM272 -192q-56 0 -88 19l17 44q18 -8 34 -12t39 -4q27 0 44.5 10t17.5 29q0 26 -35 26q-10 0 -21 -2t-27 -7l-15 16l30 93h51l-21 -63q10 1 18 1q34 0 55 -16.5t21 -46.5
q0 -39 -34 -63t-86 -24z" />
    <glyph glyph-name="uni022A" unicode="&#x22a;" horiz-adv-x="767" 
d="M368 -9q-88 0 -154 35t-102 102.5t-36 165.5q0 119 42 214t121.5 150.5t194.5 55.5q89 0 154.5 -35t101.5 -102.5t36 -164.5q0 -120 -42 -215t-121.5 -150.5t-194.5 -55.5zM370 64q87 0 147 45.5t91 124t31 177.5q0 116 -55.5 173t-152.5 57q-86 0 -146 -45.5t-91 -123.5
t-31 -177q0 -117 55.5 -174t151.5 -57zM333 926l8 55h297l-9 -55h-296zM331 798l12 72h86l-12 -72h-86zM504 798l12 72h87l-12 -72h-87z" />
    <glyph glyph-name="uni022B" unicode="&#x22b;" horiz-adv-x="556" 
d="M255 -9q-98 0 -154.5 57.5t-56.5 156.5q0 82 32 148t89.5 104t135.5 38q98 0 154 -57.5t56 -156.5q0 -82 -31.5 -147.5t-89.5 -104t-135 -38.5zM258 56q55 0 93.5 31t58 82.5t19.5 114.5q0 72 -34.5 109t-96.5 37q-55 0 -93.5 -30.5t-58.5 -82.5t-20 -115
q0 -71 35 -108.5t97 -37.5zM205 707l9 55h296l-9 -55h-296zM203 579l11 73h86l-11 -73h-86zM377 579l11 73h86l-11 -73h-86z" />
    <glyph glyph-name="uni022C" unicode="&#x22c;" horiz-adv-x="767" 
d="M368 -9q-88 0 -154 35t-102 102.5t-36 165.5q0 119 42 214t121.5 150.5t194.5 55.5q89 0 154.5 -35t101.5 -102.5t36 -164.5q0 -120 -42 -215t-121.5 -150.5t-194.5 -55.5zM370 64q87 0 147 45.5t91 124t31 177.5q0 116 -55.5 173t-152.5 57q-86 0 -146 -45.5t-91 -123.5
t-31 -177q0 -117 55.5 -174t151.5 -57zM333 926l8 55h297l-9 -55h-296zM529 768q-21 0 -39 9t-35 19q-14 10 -28 17t-28 7q-22 0 -35 -13t-20 -41l-45 2q9 51 36 76.5t66 25.5q21 0 38.5 -9t33.5 -19q15 -9 29 -16.5t28 -7.5q22 0 35 12.5t20 41.5l45 -3q-9 -51 -35.5 -76
t-65.5 -25z" />
    <glyph glyph-name="uni022D" unicode="&#x22d;" horiz-adv-x="556" 
d="M255 -9q-98 0 -154.5 57.5t-56.5 156.5q0 82 32 148t89.5 104t135.5 38q98 0 154 -57.5t56 -156.5q0 -82 -31.5 -147.5t-89.5 -104t-135 -38.5zM258 56q55 0 93.5 31t58 82.5t19.5 114.5q0 72 -34.5 109t-96.5 37q-55 0 -93.5 -30.5t-58.5 -82.5t-20 -115
q0 -71 35 -108.5t97 -37.5zM205 707l8 55h297l-9 -55h-296zM216 547l-45 3q17 101 99 101q22 0 41 -9.5t35 -19.5q15 -9 28.5 -16t26.5 -7q23 0 36 13t19 41l45 -2q-16 -102 -98 -102q-21 0 -39.5 9t-35.5 19q-15 10 -29 17t-28 7q-23 0 -35.5 -12.5t-19.5 -41.5z" />
    <glyph glyph-name="uni0230" unicode="&#x230;" horiz-adv-x="767" 
d="M368 -9q-88 0 -154 35t-102 102.5t-36 165.5q0 119 42 214t121.5 150.5t194.5 55.5q89 0 154.5 -35t101.5 -102.5t36 -164.5q0 -120 -42 -215t-121.5 -150.5t-194.5 -55.5zM370 64q87 0 147 45.5t91 124t31 177.5q0 116 -55.5 173t-152.5 57q-86 0 -146 -45.5t-91 -123.5
t-31 -177q0 -117 55.5 -174t151.5 -57zM333 926l8 55h297l-9 -55h-296zM418 798l12 72h86l-12 -72h-86z" />
    <glyph glyph-name="uni0231" unicode="&#x231;" horiz-adv-x="556" 
d="M255 -9q-98 0 -154.5 57.5t-56.5 156.5q0 82 32 148t89.5 104t135.5 38q98 0 154 -57.5t56 -156.5q0 -82 -31.5 -147.5t-89.5 -104t-135 -38.5zM258 56q55 0 93.5 31t58 82.5t19.5 114.5q0 72 -34.5 109t-96.5 37q-55 0 -93.5 -30.5t-58.5 -82.5t-20 -115
q0 -71 35 -108.5t97 -37.5zM203 707l8 55h297l-9 -55h-296zM288 579l11 73h86l-11 -73h-86z" />
    <glyph glyph-name="uni0232" unicode="&#x232;" horiz-adv-x="596" 
d="M218 0l53 333l-211 372h90l168 -299l264 299h100l-329 -371l-53 -334h-82zM218 814l8 55h326l-8 -55h-326z" />
    <glyph glyph-name="uni0233" unicode="&#x233;" horiz-adv-x="514" 
d="M65 -180l112 188l-129 478h83l98 -394l227 394h88l-394 -666h-85zM159 625l8 55h297l-9 -55h-296z" />
    <glyph glyph-name="uni0237" unicode="&#x237;" horiz-adv-x="236" 
d="M-111 -193l-4 63l43 4q93 7 110 111l80 501h81l-80 -496q-13 -88 -58 -131t-128 -49z" />
    <glyph glyph-name="uni0253" unicode="&#x253;" horiz-adv-x="583" 
d="M295 -9q-55 0 -99.5 26.5t-63.5 80.5l-15 -98h-80l87 547q14 86 59.5 126.5t131.5 40.5q16 0 31 -2.5t26 -6.5l-20 -63q-12 3 -20 4.5t-18 1.5q-94 0 -109 -103l-22 -136q28 40 71 63t97 23q85 0 136.5 -56t51.5 -152q0 -80 -28.5 -147.5t-83 -108t-132.5 -40.5zM285 56
q56 0 94 31t58 82.5t20 114.5q0 72 -35 109t-96 37q-56 0 -94 -30.5t-58 -82.5t-20 -115q0 -71 35 -108.5t96 -37.5z" />
    <glyph glyph-name="uni0257" unicode="&#x257;" horiz-adv-x="583" 
d="M231 -9q-84 0 -135.5 56t-51.5 152q0 81 28.5 148.5t83 107.5t131.5 40q55 0 99 -25.5t64 -78.5l25 156q13 86 58.5 126.5t131.5 40.5q16 0 31 -2.5t27 -6.5l-20 -63q-12 3 -20.5 4.5t-17.5 1.5q-94 0 -110 -103l-87 -545h-79l13 81q-28 -42 -71.5 -66t-99.5 -24zM257 56
q56 0 94 31t58 82.5t20 114.5q0 72 -35 109t-96 37q-56 0 -94 -30.5t-58 -82.5t-20 -115q0 -71 35 -108.5t96 -37.5z" />
    <glyph glyph-name="uni0259" unicode="&#x259;" horiz-adv-x="532" 
d="M229 -9q-76 0 -121 35t-61.5 91.5t-6.5 120.5l4 23h365q8 77 -31.5 123t-117.5 46q-47 0 -86.5 -13.5t-72.5 -43.5l-27 57q34 32 85.5 48.5t104.5 16.5q104 0 164 -57.5t60 -156.5q0 -79 -31.5 -145t-90 -105.5t-137.5 -39.5zM231 51q52 0 86.5 22.5t55 58.5t28.5 75
h-292q-6 -65 22.5 -110.5t99.5 -45.5z" />
    <glyph glyph-name="uni0292" unicode="&#x292;" horiz-adv-x="495" 
d="M185 -189q-62 0 -120 17.5t-106 53.5l34 56q42 -34 86.5 -48t99.5 -14q81 0 123.5 43t42.5 117q0 50 -34.5 82.5t-99.5 32.5h-103l7 40l243 230h-299l10 65h398l-10 -55l-235 -220h19q59 0 100.5 -23.5t63 -63t21.5 -86.5q0 -66 -28.5 -117.5t-82.5 -80.5t-130 -29z" />
    <glyph glyph-name="uni02B9" unicode="&#x2b9;" horiz-adv-x="221" 
d="M113 428l23 277h95l-64 -277h-54z" />
    <glyph glyph-name="uni02BA" unicode="&#x2ba;" horiz-adv-x="391" 
d="M113 428l23 277h95l-63 -277h-55zM284 428l23 277h95l-63 -277h-55z" />
    <glyph glyph-name="uni02BB" unicode="&#x2bb;" horiz-adv-x="500" 
d="M251 567l10 63q5 37 22.5 68.5t49.5 56.5l31 -27q-24 -21 -34.5 -39.5t-15.5 -38.5h48l-12 -83h-99z" />
    <glyph glyph-name="uni02BC" unicode="&#x2bc;" horiz-adv-x="323" 
d="M218 571l-33 26q21 19 30.5 37t12.5 35h-46l14 86h97l-10 -65q-6 -36 -19.5 -64t-45.5 -55z" />
    <glyph glyph-name="uni02BE" unicode="&#x2be;" horiz-adv-x="500" 
d="M299 554l7 45q26 -2 44 16t18 45q0 21 -12 34t-33 15l7 44q40 -3 63.5 -29t23.5 -62q0 -31 -16.5 -56.5t-43.5 -39.5t-58 -12z" />
    <glyph glyph-name="uni02BF" unicode="&#x2bf;" horiz-adv-x="500" 
d="M300 554q-40 3 -63.5 28.5t-23.5 61.5q0 32 16.5 57t43.5 39t59 13l-7 -45q-27 1 -45 -17t-18 -45q0 -20 11.5 -33.5t33.5 -14.5z" />
    <glyph glyph-name="circumflex" unicode="&#x2c6;" horiz-adv-x="500" 
d="M148 551l131 202h77l88 -202h-55l-75 148l-109 -148h-57z" />
    <glyph glyph-name="caron" unicode="&#x2c7;" horiz-adv-x="500" 
d="M260 551l-88 202h55l75 -148l109 148h57l-131 -202h-77z" />
    <glyph glyph-name="uni02C8" unicode="&#x2c8;" horiz-adv-x="500" 
d="M276 595l31 200h60l-31 -200h-60z" />
    <glyph glyph-name="uni02C9" unicode="&#x2c9;" horiz-adv-x="500" 
d="M163 625l8 55h296l-8 -55h-296z" />
    <glyph glyph-name="uni02CA" unicode="&#x2ca;" horiz-adv-x="500" 
d="M269 551l124 202h87l-152 -202h-59z" />
    <glyph glyph-name="fourthtofinechinese" unicode="&#x2cb;" horiz-adv-x="500" 
d="M268 551l-141 202h86l113 -202h-58z" />
    <glyph glyph-name="uni02CC" unicode="&#x2cc;" horiz-adv-x="500" 
d="M139 -270l31 200h60l-31 -200h-60z" />
    <glyph glyph-name="breve" unicode="&#x2d8;" horiz-adv-x="500" 
d="M307 549q-67 0 -106 51t-34 139l51 5q-3 -67 21.5 -103.5t70.5 -36.5t76 36.5t39 103.5l51 -5q-12 -89 -56.5 -139.5t-112.5 -50.5z" />
    <glyph glyph-name="dotaccent" unicode="&#x2d9;" horiz-adv-x="500" 
d="M262 609l14 88h91l-14 -88h-91z" />
    <glyph glyph-name="ring" unicode="&#x2da;" horiz-adv-x="500" 
d="M317 547q-50 0 -84.5 33.5t-34.5 81.5q0 49 34.5 82.5t84.5 33.5t84.5 -33.5t34.5 -82.5q0 -48 -34.5 -81.5t-84.5 -33.5zM317 590q31 0 51.5 21t20.5 51q0 31 -20.5 51.5t-51.5 20.5q-32 0 -52 -20.5t-20 -51.5q0 -30 20 -51t52 -21z" />
    <glyph glyph-name="ogonek" unicode="&#x2db;" horiz-adv-x="500" 
d="M176 -192q-46 0 -71.5 25t-25.5 65q0 46 30.5 82.5t76.5 55.5l25 -36q-38 -15 -56 -39.5t-18 -51.5q0 -23 14 -37t39 -14q24 0 54 12l10 -47q-16 -6 -36 -10.5t-42 -4.5z" />
    <glyph glyph-name="tilde" unicode="&#x2dc;" horiz-adv-x="500" 
d="M170 590l-46 3q10 64 40.5 98.5t75.5 34.5q26 0 45 -14t35 -30q13 -12 26 -22t30 -10q51 0 69 79l46 -3q-10 -64 -40 -98.5t-75 -34.5q-27 0 -46 14t-35 29q-13 13 -26.5 23t-29.5 10q-51 0 -69 -79z" />
    <glyph glyph-name="hungarumlaut" unicode="&#x2dd;" horiz-adv-x="500" 
d="M339 551l72 202h75l-102 -202h-45zM211 551l72 202h75l-101 -202h-46z" />
    <glyph glyph-name="gravecomb" unicode="&#x300;" 
d="M-20 551l-141 202h85l114 -202h-58z" />
    <glyph glyph-name="acutecomb" unicode="&#x301;" 
d="M-19 551l134 202h88l-163 -202h-59z" />
    <glyph glyph-name="uni0302" unicode="&#x302;" 
d="M-140 551l131 202h77l88 -202h-55l-75 148l-109 -148h-57z" />
    <glyph glyph-name="tildecomb" unicode="&#x303;" 
d="M-118 590l-46 3q10 64 40.5 98.5t75.5 34.5q26 0 45 -14t35 -30q13 -12 26 -22t30 -10q51 0 69 79l46 -3q-10 -64 -40 -98.5t-75 -34.5q-27 0 -46 14t-35 29q-13 13 -26.5 23t-29.5 10q-51 0 -69 -79z" />
    <glyph glyph-name="uni0304" unicode="&#x304;" 
d="M-125 625l8 55h297l-9 -55h-296z" />
    <glyph glyph-name="uni0306" unicode="&#x306;" 
d="M19 549q-67 0 -106 51t-34 139l51 5q-3 -67 21.5 -103.5t70.5 -36.5t76 36.5t39 103.5l51 -5q-12 -89 -56.5 -139.5t-112.5 -50.5z" />
    <glyph glyph-name="uni0307" unicode="&#x307;" 
d="M-26 609l14 88h91l-14 -88h-91z" />
    <glyph glyph-name="uni0308" unicode="&#x308;" 
d="M64 609l13 86h87l-14 -86h-86zM-110 609l14 86h85l-12 -86h-87z" />
    <glyph glyph-name="hookabovecomb" unicode="&#x309;" 
d="M-22 551l4 21q3 23 14.5 38t24.5 26.5t23 22.5t10 26q0 25 -44 25q-16 0 -31.5 -3t-34.5 -12l-9 42q37 22 93 22q44 0 68 -16.5t24 -45.5q0 -27 -11 -43t-26.5 -27.5t-29 -24.5t-17.5 -35l-3 -16h-55z" />
    <glyph glyph-name="uni030A" unicode="&#x30a;" 
d="M29 547q-50 0 -84.5 33.5t-34.5 81.5q0 49 34.5 82.5t84.5 33.5t84.5 -33.5t34.5 -82.5q0 -48 -34.5 -81.5t-84.5 -33.5zM29 590q31 0 51.5 21t20.5 51q0 31 -20.5 51.5t-51.5 20.5q-32 0 -52 -20.5t-20 -51.5q0 -30 20 -51t52 -21z" />
    <glyph glyph-name="uni030B" unicode="&#x30b;" 
d="M51 551l72 202h75l-102 -202h-45zM-77 551l72 202h75l-101 -202h-46z" />
    <glyph glyph-name="uni030C" unicode="&#x30c;" 
d="M-28 551l-88 202h55l75 -148l109 148h57l-131 -202h-77z" />
    <glyph glyph-name="uni030F" unicode="&#x30f;" 
d="M52 551l-65 202h74l37 -202h-46zM-75 551l-66 202h75l36 -202h-45z" />
    <glyph glyph-name="uni0311" unicode="&#x311;" 
d="M-99 549l-51 5q12 88 56.5 139t112.5 51q67 0 106 -51t34 -139l-51 -5q3 67 -21.5 103.5t-70.5 36.5t-76 -36.5t-39 -103.5z" />
    <glyph glyph-name="uni0312" unicode="&#x312;" 
d="M-36 567l11 68q7 39 22 68.5t48 51.5l28 -28q-23 -20 -32 -37.5t-14 -39.5h49l-13 -83h-99z" />
    <glyph glyph-name="uni031B" unicode="&#x31b;" 
d="M36 436l-39 28l3 22q64 1 90.5 28t36.5 86l2 16h73l-5 -33q-10 -67 -51.5 -104.5t-109.5 -42.5z" />
    <glyph glyph-name="dotbelowcomb" unicode="&#x323;" 
d="M-75 -187l14 88h91l-14 -88h-91z" />
    <glyph glyph-name="uni0324" unicode="&#x324;" 
d="M15 -181l14 86h87l-15 -86h-86zM-159 -181l15 86h85l-13 -86h-87z" />
    <glyph glyph-name="uni0326" unicode="&#x326;" 
d="M-43 -268l-29 29q23 19 32 36.5t14 40.5h-49l13 82h99l-11 -68q-6 -39 -21.5 -68.5t-47.5 -51.5z" />
    <glyph glyph-name="uni0327" unicode="&#x327;" 
d="M-20 -192q-56 0 -88 19l17 44q18 -8 34 -12t39 -4q27 0 44.5 10t17.5 29q0 26 -35 26q-10 0 -21 -2t-27 -7l-15 16l30 93h51l-21 -63q10 1 18 1q34 0 55 -16.5t21 -46.5q0 -39 -34 -63t-86 -24z" />
    <glyph glyph-name="uni0328" unicode="&#x328;" 
d="M-35 -192q-46 0 -71.5 25t-25.5 65q0 46 30.5 82.5t76.5 55.5l25 -36q-38 -15 -56 -39.5t-18 -51.5q0 -23 14 -37t39 -14q24 0 54 12l10 -47q-16 -6 -36 -10.5t-42 -4.5z" />
    <glyph glyph-name="uni032E" unicode="&#x32e;" 
d="M-21 -215q-67 0 -107 40t-36 110l51 5q-3 -48 22.5 -74.5t71.5 -26.5t75.5 26.5t37.5 74.5l51 -5q-10 -70 -54 -110t-112 -40z" />
    <glyph glyph-name="uni0331" unicode="&#x331;" 
d="M-172 -156l8 55h297l-9 -55h-296z" />
    <glyph glyph-name="uni0335" unicode="&#x335;" 
d="M-187 526l9 61h366l-10 -61h-365z" />
    <glyph glyph-name="uni0337" unicode="&#x337;" 
d="M-127 260l-28 60l283 135l27 -61z" />
    <glyph glyph-name="uni0338" unicode="&#x338;" 
d="M-174 -37l-42 31l392 534l41 -30z" />
    <glyph glyph-name="uni0394" unicode="&#x394;" horiz-adv-x="729" 
d="M5 0l8 49l390 656h70l182 -656l-7 -49h-643zM425 609l-317 -540h464l-145 540h-2z" />
    <glyph glyph-name="Sigma" unicode="&#x3a3;" horiz-adv-x="600" 
d="M-21 -180l9 59l335 391l-214 376l10 59h508l-11 -70h-411l198 -348l-9 -49l-298 -348h403l-12 -70h-508z" />
    <glyph glyph-name="uni03A9" unicode="&#x3a9;" horiz-adv-x="778" 
d="M2 0l11 70h208q-74 63 -110.5 136t-36.5 150q0 108 45 188.5t128 125t198 44.5q89 0 158 -36t108.5 -98.5t39.5 -143.5q0 -126 -63.5 -217.5t-169.5 -148.5h191l-11 -70h-290l10 67q112 60 179 148.5t67 207.5q0 64 -27 113t-77 77t-119 28q-90 0 -153 -37.5t-95 -102
t-32 -147.5q0 -75 35 -148t107 -139l-10 -67h-291z" />
    <glyph glyph-name="uni03BC" unicode="&#x3bc;" horiz-adv-x="561" 
d="M6 -180l106 666h81l-46 -293q-22 -135 87 -135q70 0 112.5 45t54.5 120l41 263h81l-77 -486h-79l14 85q-23 -45 -62.5 -69.5t-90.5 -24.5q-80 0 -112 56l-29 -227h-81z" />
    <glyph glyph-name="pi" unicode="&#x3c0;" horiz-adv-x="587" 
d="M469 -5q-76 0 -111 49t-22 131l39 248h-164q-22 -129 -54.5 -232.5t-77.5 -190.5h-86q98 193 138 423h-98l11 63h541l-11 -63h-118l-38 -240q-9 -63 8.5 -91.5t72.5 -29.5q11 0 23.5 1.5t26.5 3.5l-14 -67q-18 -2 -34 -3.5t-32 -1.5z" />
    <glyph glyph-name="uni0400" unicode="&#x400;" horiz-adv-x="583" 
d="M49 0l112 705h445l-11 -69h-365l-39 -244h345l-11 -69h-345l-41 -254h365l-10 -69h-445zM377 765l-133 172h90l105 -172h-62z" />
    <glyph glyph-name="uni0401" unicode="&#x401;" horiz-adv-x="583" 
d="M49 0l112 705h445l-11 -69h-365l-39 -244h345l-11 -69h-345l-41 -254h365l-10 -69h-445zM458 806l14 86h86l-14 -86h-86zM284 806l14 86h86l-14 -86h-86z" />
    <glyph glyph-name="uni0402" unicode="&#x402;" horiz-adv-x="842" 
d="M521 -189q-35 0 -65 6t-50 15l17 64q37 -16 89 -16q64 0 104 42t54 126l15 89q19 116 -23.5 170.5t-137.5 54.5q-45 0 -87.5 -9t-81.5 -30l-51 -323h-83l101 634h-256l11 71h595l-11 -71h-257l-36 -235q33 18 76.5 27t91.5 9q127 0 190.5 -74.5t41.5 -217.5l-15 -92
q-19 -118 -77.5 -179t-154.5 -61z" />
    <glyph glyph-name="uni0403" unicode="&#x403;" horiz-adv-x="542" 
d="M49 0l112 705h440l-12 -71h-357l-101 -634h-82zM329 765l131 172h92l-161 -172h-62z" />
    <glyph glyph-name="uni0404" unicode="&#x404;" horiz-adv-x="673" 
d="M381 -9q-90 0 -158 34.5t-107 104.5t-39 177q0 87 25 161t72.5 129t115 86t152.5 31q73 0 133 -24t98 -66l-37 -66q-41 41 -89 61t-108 20q-72 0 -127.5 -31.5t-91 -86.5t-48.5 -128h354l-11 -69h-350q-3 -120 48.5 -189t174.5 -69q55 0 101.5 18.5t95.5 60.5l30 -66
q-46 -43 -106.5 -65.5t-127.5 -22.5z" />
    <glyph glyph-name="uni0405" unicode="&#x405;" horiz-adv-x="615" 
d="M297 -9q-77 0 -147 20t-122 66l34 63q55 -44 114 -60t128 -16q81 0 130 33.5t49 91.5q0 40 -29 68.5t-102 44.5l-103 25q-70 17 -112 58t-42 118q0 65 35.5 112t95.5 73t132 26q67 0 132.5 -21.5t112.5 -67.5l-35 -63q-45 43 -100 61t-112 18q-51 0 -91 -16.5t-63.5 -46
t-23.5 -70.5q0 -51 25.5 -75t75.5 -37l104 -24q94 -22 138.5 -66.5t44.5 -107.5q0 -68 -36.5 -114t-97.5 -69.5t-135 -23.5z" />
    <glyph glyph-name="uni0406" unicode="&#x406;" horiz-adv-x="257" 
d="M49 0l112 705h82l-112 -705h-82z" />
    <glyph glyph-name="uni0407" unicode="&#x407;" horiz-adv-x="257" 
d="M49 0l112 705h82l-112 -705h-82zM262 806l14 86h86l-14 -86h-86zM88 806l14 86h86l-14 -86h-86z" />
    <glyph glyph-name="uni0408" unicode="&#x408;" horiz-adv-x="324" 
d="M-41 -7l1 69l60 4q107 8 127 130l80 509h83l-83 -519q-14 -87 -62 -135.5t-142 -54.5z" />
    <glyph glyph-name="uni0409" unicode="&#x409;" horiz-adv-x="1129" 
d="M22 -15l-34 65q41 20 76 47t64.5 72t53 119t42.5 187l36 230h452l-50 -311h193q110 0 165.5 -49t55.5 -128q0 -108 -65 -162.5t-190 -54.5h-303l100 634h-292l-29 -179q-18 -112 -43 -190.5t-59 -132t-76.5 -88.5t-96.5 -59zM611 69h213q170 0 170 144q0 112 -147 112
h-195z" />
    <glyph glyph-name="uni040A" unicode="&#x40a;" horiz-adv-x="1165" 
d="M49 0l112 705h82l-50 -312h422l50 312h82l-49 -311h193q110 0 165.5 -49t55.5 -128q0 -108 -65 -162.5t-190 -54.5h-304l51 322h-422l-51 -322h-82zM646 69h214q170 0 170 144q0 112 -148 112h-195z" />
    <glyph glyph-name="uni040B" unicode="&#x40b;" horiz-adv-x="849" 
d="M221 0l101 634h-256l11 71h595l-11 -71h-257l-36 -235q34 18 81.5 27t94.5 9q131 0 192 -74.5t39 -216.5l-23 -144h-82l23 140q19 115 -21.5 168.5t-139.5 53.5q-44 0 -90.5 -9t-86.5 -30l-51 -323h-83z" />
    <glyph glyph-name="uni040C" unicode="&#x40c;" horiz-adv-x="641" 
d="M49 0l112 705h82l-50 -314h121l257 314h95l-271 -329q80 -31 113 -131l84 -245h-84l-69 207q-20 61 -54 87t-89 26h-114l-51 -320h-82zM369 765l131 172h92l-161 -172h-62z" />
    <glyph glyph-name="uni040D" unicode="&#x40d;" horiz-adv-x="740" 
d="M49 0l112 705h76l-89 -562l514 562h63l-112 -705h-76l89 564l-515 -564h-62zM420 765l-133 172h90l105 -172h-62z" />
    <glyph glyph-name="uni040E" unicode="&#x40e;" horiz-adv-x="643" 
d="M155 0l144 216l-227 489h84l193 -417l280 417h90l-473 -705h-91zM389 760q-64 0 -113 32.5t-66 99.5l49 17q16 -50 48.5 -73.5t84.5 -23.5t87.5 21.5t68.5 74.5l45 -16q-35 -72 -88.5 -102t-115.5 -30z" />
    <glyph glyph-name="uni040F" unicode="&#x40f;" horiz-adv-x="756" 
d="M277 -157l25 157h-253l112 705h82l-100 -634h416l100 634h83l-112 -705h-253l-25 -157h-75z" />
    <glyph glyph-name="uni0410" unicode="&#x410;" horiz-adv-x="729" 
d="M-19 0l423 705h70l198 -705h-80l-48 180h-368l-106 -180h-89zM427 609l-211 -360h309l-96 360h-2z" />
    <glyph glyph-name="uni0411" unicode="&#x411;" horiz-adv-x="660" 
d="M49 0l112 705h448l-10 -69h-369l-39 -242h195q110 0 165.5 -49t55.5 -128q0 -108 -65.5 -162.5t-190.5 -54.5h-302zM140 69h215q170 0 170 144q0 112 -147 112h-197z" />
    <glyph glyph-name="uni0412" unicode="&#x412;" horiz-adv-x="676" 
d="M49 0l112 705h267q110 0 162 -45t52 -120q0 -70 -39 -117.5t-105 -65.5q51 -17 80 -56t29 -93q0 -102 -65 -155t-184 -53h-309zM191 390h201q78 0 123.5 36.5t45.5 105.5q0 52 -35.5 79.5t-108.5 27.5h-187zM139 66h219q167 0 167 145q0 56 -37 84.5t-106 28.5h-202z" />
    <glyph glyph-name="uni0413" unicode="&#x413;" horiz-adv-x="542" 
d="M49 0l112 705h440l-12 -71h-357l-101 -634h-82z" />
    <glyph glyph-name="uni0414" unicode="&#x414;" horiz-adv-x="778" 
d="M-47 -157l36 226h69q62 62 104 172t70 280l29 184h468l-101 -636h100l-36 -226h-74l25 157h-590l-25 -157h-75zM150 69h396l90 567h-309l-18 -119q-26 -165 -64 -275.5t-95 -172.5z" />
    <glyph glyph-name="uni0415" unicode="&#x415;" horiz-adv-x="583" 
d="M49 0l112 705h445l-11 -69h-365l-39 -244h345l-11 -69h-345l-41 -254h365l-10 -69h-445z" />
    <glyph glyph-name="uni0416" unicode="&#x416;" horiz-adv-x="968" 
d="M-28 0l156 245q69 109 163 135l-166 325h87l157 -314h98l50 314h80l-50 -314h95l256 314h96l-273 -329q81 -30 115 -131l84 -245h-85l-68 207q-20 61 -54.5 87t-89.5 26h-86l-52 -320h-80l52 320h-86q-56 0 -97.5 -26.5t-79.5 -86.5l-131 -207h-91z" />
    <glyph glyph-name="uni0417" unicode="&#x417;" horiz-adv-x="640" 
d="M300 -9q-85 0 -152 21.5t-125 69.5l35 62q54 -46 113.5 -63t130.5 -17q49 0 91 13.5t68 45.5t26 86q0 57 -36 85.5t-105 28.5h-171l10 68h169q77 0 123 36t46 104q0 59 -44 84.5t-110 25.5q-63 0 -123.5 -19t-110.5 -59l-30 64q56 43 128 65t143 22q66 0 117.5 -20
t81.5 -58t30 -93q0 -72 -39 -120t-105 -66q51 -16 80 -56t29 -96q0 -74 -35.5 -121.5t-96.5 -70t-138 -22.5z" />
    <glyph glyph-name="uni0418" unicode="&#x418;" horiz-adv-x="740" 
d="M49 0l112 705h76l-89 -562l514 562h63l-112 -705h-76l89 564l-515 -564h-62z" />
    <glyph glyph-name="uni0419" unicode="&#x419;" horiz-adv-x="740" 
d="M49 0l112 705h76l-89 -562l514 562h63l-112 -705h-76l89 564l-515 -564h-62zM445 760q-64 0 -113 32.5t-66 99.5l49 17q16 -50 48.5 -73.5t84.5 -23.5t87.5 21.5t68.5 74.5l45 -16q-35 -72 -88.5 -102t-115.5 -30z" />
    <glyph glyph-name="uni041A" unicode="&#x41a;" horiz-adv-x="641" 
d="M49 0l112 705h82l-50 -314h121l257 314h95l-271 -329q80 -31 113 -131l84 -245h-84l-69 207q-20 61 -54 87t-89 26h-114l-51 -320h-82z" />
    <glyph glyph-name="uni041B" unicode="&#x41b;" horiz-adv-x="741" 
d="M21 -15l-33 66q41 20 76 46.5t64.5 71.5t53 119t41.5 187l37 230h467l-112 -705h-83l101 634h-308l-29 -179q-18 -112 -42.5 -190.5t-58 -132t-76.5 -88.5t-98 -59z" />
    <glyph glyph-name="uni041C" unicode="&#x41c;" horiz-adv-x="855" 
d="M51 0l112 705h67l187 -511l352 511h71l-112 -705h-75l87 551l-305 -442h-54l-167 447l-88 -556h-75z" />
    <glyph glyph-name="uni041D" unicode="&#x41d;" horiz-adv-x="761" 
d="M49 0l112 705h82l-50 -312h422l50 312h82l-112 -705h-82l51 322h-422l-51 -322h-82z" />
    <glyph glyph-name="uni041E" unicode="&#x41e;" horiz-adv-x="767" 
d="M368 -9q-88 0 -154 35t-102 102.5t-36 165.5q0 119 42 214t121.5 150.5t194.5 55.5q89 0 154.5 -35t101.5 -102.5t36 -164.5q0 -120 -42 -215t-121.5 -150.5t-194.5 -55.5zM370 64q87 0 147 45.5t91 124t31 177.5q0 116 -55.5 173t-152.5 57q-86 0 -146 -45.5t-91 -123.5
t-31 -177q0 -117 55.5 -174t151.5 -57z" />
    <glyph glyph-name="uni041F" unicode="&#x41f;" horiz-adv-x="756" 
d="M49 0l112 705h581l-112 -705h-83l101 634h-416l-101 -634h-82z" />
    <glyph glyph-name="uni0420" unicode="&#x420;" horiz-adv-x="633" 
d="M49 0l112 705h254q108 0 167 -48t59 -142q0 -108 -67.5 -171t-195.5 -63h-202l-45 -281h-82zM187 350h195q87 0 132 41t45 119q0 66 -38 96.5t-113 30.5h-176z" />
    <glyph glyph-name="uni0421" unicode="&#x421;" horiz-adv-x="673" 
d="M381 -9q-90 0 -158 34.5t-107 104.5t-39 177q0 87 25 161t72.5 129t115 86t152.5 31q73 0 133 -24t98 -66l-37 -66q-41 41 -89 61t-108 20q-86 0 -147 -43t-94 -117.5t-33 -169.5q0 -130 59 -186.5t164 -56.5q55 0 101.5 18.5t95.5 60.5l30 -66q-46 -43 -106.5 -65.5
t-127.5 -22.5z" />
    <glyph glyph-name="uni0422" unicode="&#x422;" horiz-adv-x="602" 
d="M221 0l101 634h-256l11 71h595l-11 -71h-257l-100 -634h-83z" />
    <glyph glyph-name="uni0423" unicode="&#x423;" horiz-adv-x="643" 
d="M155 0l144 216l-227 489h84l193 -417l280 417h90l-473 -705h-91z" />
    <glyph glyph-name="uni0424" unicode="&#x424;" horiz-adv-x="845" 
d="M339 -22l13 79q-82 4 -144 36.5t-96.5 90t-34.5 135.5q0 66 24 126.5t70 109t112.5 76.5t150.5 28h13l12 73h82l-12 -75q82 -4 144.5 -36.5t97 -90t34.5 -135.5q0 -66 -24 -126.5t-70 -109t-112.5 -76.5t-150.5 -28h-14l-12 -77h-83zM162 320q0 -90 52.5 -141t147.5 -56
l75 470h-8q-63 0 -112.5 -23t-84 -61.5t-52.5 -87.5t-18 -101zM720 394q0 91 -53 142t-149 55l-74 -470h9q64 0 113 23t83.5 61.5t52.5 87.5t18 101z" />
    <glyph glyph-name="uni0425" unicode="&#x425;" horiz-adv-x="650" 
d="M-29 0l325 364l-199 341h90l164 -287l249 287h102l-308 -349l208 -356h-91l-174 301l-264 -301h-102z" />
    <glyph glyph-name="uni0426" unicode="&#x426;" horiz-adv-x="791" 
d="M631 -157l25 157h-607l112 705h82l-100 -634h416l100 634h83l-101 -634h100l-36 -228h-74z" />
    <glyph glyph-name="uni0427" unicode="&#x427;" horiz-adv-x="676" 
d="M467 0l47 298q-34 -18 -81.5 -27t-94.5 -9q-130 0 -191 75t-39 216l24 152h82l-24 -148q-18 -115 21.5 -168.5t138.5 -53.5q44 0 90.5 9t86.5 31l52 330h83l-112 -705h-83z" />
    <glyph glyph-name="uni0428" unicode="&#x428;" horiz-adv-x="1053" 
d="M49 0l112 705h81l-100 -634h317l100 634h82l-101 -634h317l100 634h82l-112 -705h-878z" />
    <glyph glyph-name="uni0429" unicode="&#x429;" horiz-adv-x="1088" 
d="M927 -157l25 157h-903l112 705h81l-100 -634h317l100 634h81l-100 -634h317l100 634h82l-101 -634h100l-36 -228h-75z" />
    <glyph glyph-name="uni042A" unicode="&#x42a;" horiz-adv-x="790" 
d="M179 0l101 634h-214l11 71h296l-49 -311h192q110 0 165.5 -49t55.5 -128q0 -108 -65 -162.5t-190 -54.5h-303zM272 69h213q170 0 170 144q0 112 -148 112h-194z" />
    <glyph glyph-name="uni042B" unicode="&#x42b;" horiz-adv-x="854" 
d="M49 0l112 705h82l-50 -311h166q110 0 165.5 -49t55.5 -128q0 -108 -65 -162.5t-190 -54.5h-276zM646 0l112 705h82l-112 -705h-82zM142 69h186q170 0 170 144q0 112 -148 112h-167z" />
    <glyph glyph-name="uni042C" unicode="&#x42c;" horiz-adv-x="660" 
d="M49 0l112 705h82l-50 -311h193q110 0 165.5 -49t55.5 -128q0 -108 -65 -162.5t-190 -54.5h-303zM142 69h213q170 0 170 144q0 112 -147 112h-195z" />
    <glyph glyph-name="uni042D" unicode="&#x42d;" horiz-adv-x="673" 
d="M266 -9q-73 0 -133 24t-99 66l38 66q41 -41 88.5 -61t108.5 -20q75 0 131 33t91.5 91t46.5 134h-355l11 69h348q1 75 -20 130.5t-69 85.5t-128 30q-55 0 -104.5 -18.5t-97.5 -60.5l-30 66q46 43 109 65.5t130 22.5q89 0 156 -34t104.5 -104.5t37.5 -177.5q0 -87 -25 -161
t-72 -129t-114.5 -86t-152.5 -31z" />
    <glyph glyph-name="uni042E" unicode="&#x42e;" horiz-adv-x="1013" 
d="M614 -9q-98 0 -164.5 41t-98.5 115t-27 175h-142l-51 -322h-82l112 705h82l-50 -312h138q15 94 60.5 166.5t118 113.5t170.5 41q89 0 154.5 -35t101.5 -102.5t36 -164.5q0 -120 -42 -215t-121.5 -150.5t-194.5 -55.5zM616 64q87 0 147 45.5t91 124t31 177.5
q0 116 -55.5 173t-152.5 57q-86 0 -146 -45.5t-91 -123.5t-31 -177q0 -117 55.5 -174t151.5 -57z" />
    <glyph glyph-name="uni042F" unicode="&#x42f;" horiz-adv-x="670" 
d="M1 0l160 230q23 34 44.5 53.5t47.5 26.5q-73 17 -109.5 64t-36.5 117q0 72 34 119.5t92 71t131 23.5h292l-112 -705h-82l48 298h-119q-48 0 -79.5 -15t-61.5 -57l-155 -226h-94zM345 363h175l43 274h-204q-80 0 -125 -38t-45 -109q0 -63 37.5 -95t118.5 -32z" />
    <glyph glyph-name="uni0430" unicode="&#x430;" horiz-adv-x="539" 
d="M204 -9q-42 0 -78.5 19t-58.5 52t-22 75q0 77 65.5 111t209.5 34h69l5 30q10 57 -15 87.5t-88 30.5q-89 0 -165 -51l-23 59q36 26 89.5 41.5t107.5 15.5q102 0 143 -56t26 -149l-46 -290h-77l12 76q-25 -43 -67 -64t-87 -21zM224 52q54 0 97 36.5t54 101.5l6 39h-50
q-77 0 -121.5 -8t-63.5 -27t-19 -52q0 -44 29 -67t68 -23z" />
    <glyph glyph-name="uni0431" unicode="&#x431;" horiz-adv-x="566" 
d="M261 -9q-79 0 -128.5 37.5t-69 101.5t-7.5 145l12 75q15 99 45.5 161.5t84 100.5t138.5 62l157 46l22 -67l-186 -51q-81 -23 -121.5 -76.5t-55.5 -131.5q29 42 74 68t102 26q55 0 97.5 -25t66.5 -71t24 -109q0 -81 -29.5 -147t-87 -105.5t-138.5 -39.5zM262 56
q56 0 94 30t58 80.5t20 111.5q0 71 -35 108t-96 37q-55 0 -93.5 -29.5t-58.5 -76.5t-20 -101q0 -82 35 -121t96 -39z" />
    <glyph glyph-name="uni0432" unicode="&#x432;" horiz-adv-x="547" 
d="M42 0l77 486h229q77 0 115 -30t38 -80q0 -49 -25.5 -81.5t-70.5 -45.5q35 -10 57 -36t22 -67q0 -69 -49 -107.5t-150 -38.5h-243zM162 275h158q47 0 76 24t29 69q0 31 -22 47t-62 16h-154zM128 55h161q62 0 90 23.5t28 69.5q0 72 -90 72h-164z" />
    <glyph glyph-name="uni0433" unicode="&#x433;" horiz-adv-x="435" 
d="M42 0l77 486h340l-10 -65h-259l-67 -421h-81z" />
    <glyph glyph-name="uni0434" unicode="&#x434;" horiz-adv-x="592" 
d="M-33 -130l31 195h51q43 45 68.5 112t41.5 166l22 143h344l-66 -421h76l-30 -195h-70l20 130h-398l-20 -130h-70zM130 65h251l57 357h-195l-15 -94q-12 -81 -37 -152t-61 -111z" />
    <glyph glyph-name="uni0435" unicode="&#x435;" horiz-adv-x="542" 
d="M275 -9q-104 0 -165 57.5t-61 157.5q0 79 32 144.5t90 105t138 39.5q76 0 120.5 -35t60.5 -91.5t7 -121.5l-3 -21h-366q-7 -78 33 -124t118 -46q46 0 85.5 13.5t72.5 42.5l27 -55q-34 -32 -85 -49t-104 -17zM308 435q-53 0 -88 -22.5t-55.5 -58.5t-28.5 -75h296
q6 66 -22.5 111t-101.5 45z" />
    <glyph glyph-name="uni0436" unicode="&#x436;" horiz-adv-x="785" 
d="M-38 0l125 168q35 46 60.5 68.5t52.5 31.5l-134 218h84l127 -203h81l32 203h81l-32 -203h76l192 203h91l-208 -224q27 -12 45.5 -36t34.5 -60l75 -166h-82l-67 147q-19 42 -42 56.5t-60 14.5h-65l-35 -218h-81l35 218h-61q-28 0 -47.5 -6t-37.5 -21.5t-39 -43.5
l-112 -147h-89z" />
    <glyph glyph-name="uni0437" unicode="&#x437;" horiz-adv-x="497" 
d="M203 -9q-63 0 -114.5 17t-79.5 47l30 56q30 -29 73.5 -43t95.5 -14q69 0 109 20.5t40 71.5q0 32 -23 51t-68 19h-114l9 61h105q48 0 78 23.5t30 64.5q0 31 -27.5 49t-83.5 18q-48 0 -92 -12.5t-88 -41.5l-23 58q92 59 216 59q83 0 128.5 -32.5t45.5 -85.5
q0 -49 -27 -81.5t-69 -45.5q37 -11 58.5 -39t21.5 -65q0 -81 -63.5 -118t-167.5 -37z" />
    <glyph glyph-name="uni0438" unicode="&#x438;" horiz-adv-x="584" 
d="M42 0l77 486h74l-59 -372l339 372h69l-77 -486h-74l60 373l-340 -373h-69z" />
    <glyph glyph-name="uni0439" unicode="&#x439;" horiz-adv-x="584" 
d="M42 0l77 486h74l-59 -372l339 372h69l-77 -486h-74l60 373l-340 -373h-69zM342 549q-59 0 -104 32.5t-59 98.5l47 18q14 -51 44 -74.5t75 -23.5t75.5 22t58.5 75l46 -17q-30 -71 -78.5 -101t-104.5 -30z" />
    <glyph glyph-name="uni043A" unicode="&#x43a;" horiz-adv-x="526" 
d="M42 0l77 486h81l-32 -203h88l192 203h91l-207 -224q22 -10 42 -33.5t38 -62.5l75 -166h-83l-66 147q-20 42 -42.5 56.5t-59.5 14.5h-78l-35 -218h-81z" />
    <glyph glyph-name="uni043B" unicode="&#x43b;" horiz-adv-x="574" 
d="M13 -11l-21 65q49 18 80 51.5t51.5 95t36.5 161.5l19 124h353l-77 -486h-81l67 421h-196l-10 -64q-15 -92 -32.5 -155.5t-43 -105.5t-61 -67.5t-85.5 -39.5z" />
    <glyph glyph-name="uni043C" unicode="&#x43c;" horiz-adv-x="659" 
d="M42 0l77 486h64l132 -325l233 325h69l-77 -486h-72l56 351l-197 -273h-41l-116 279l-56 -357h-72z" />
    <glyph glyph-name="uni043D" unicode="&#x43d;" horiz-adv-x="587" 
d="M42 0l77 486h81l-32 -202h264l32 202h81l-77 -486h-81l34 218h-263l-35 -218h-81z" />
    <glyph glyph-name="uni043E" unicode="&#x43e;" horiz-adv-x="566" 
d="M260 -9q-98 0 -154.5 57.5t-56.5 156.5q0 82 32 148t89.5 104t135.5 38q98 0 154 -57.5t56 -156.5q0 -82 -31.5 -147.5t-89.5 -104t-135 -38.5zM263 56q55 0 93.5 31t58 82.5t19.5 114.5q0 72 -34.5 109t-96.5 37q-55 0 -93.5 -30.5t-58.5 -82.5t-20 -115
q0 -71 35 -108.5t97 -37.5z" />
    <glyph glyph-name="uni043F" unicode="&#x43f;" horiz-adv-x="584" 
d="M42 0l77 486h423l-77 -486h-81l67 421h-261l-67 -421h-81z" />
    <glyph glyph-name="uni0440" unicode="&#x440;" horiz-adv-x="593" 
d="M14 -180l105 666h80l-13 -80q28 42 71.5 65.5t98.5 23.5q86 0 137 -56t51 -153q0 -80 -28.5 -147t-83 -107.5t-132.5 -40.5q-54 0 -98 25.5t-64 77.5l-43 -274h-81zM290 56q56 0 94 31t58 82.5t20 114.5q0 72 -35 109t-96 37q-56 0 -94 -30.5t-58 -82.5t-20 -115
q0 -71 35 -108.5t96 -37.5z" />
    <glyph glyph-name="uni0441" unicode="&#x441;" horiz-adv-x="473" 
d="M263 -9q-108 0 -160.5 60t-52.5 156q0 54 15 105t47 92.5t81 66t117 24.5q48 0 92 -16t70 -43l-29 -58q-51 51 -130 51q-65 0 -104.5 -32.5t-57.5 -83.5t-18 -105q0 -68 32.5 -109.5t107.5 -41.5q30 0 64 12.5t63 38.5l24 -60q-29 -27 -73.5 -42t-87.5 -15z" />
    <glyph glyph-name="uni0442" unicode="&#x442;" horiz-adv-x="444" 
d="M143 0l67 421h-177l10 65h435l-11 -65h-176l-67 -421h-81z" />
    <glyph glyph-name="uni0443" unicode="&#x443;" horiz-adv-x="524" 
d="M70 -180l112 188l-129 478h83l98 -394l227 394h88l-394 -666h-85z" />
    <glyph glyph-name="uni0444" unicode="&#x444;" horiz-adv-x="795" 
d="M303 -180l40 254q-23 -44 -55.5 -63.5t-74.5 -19.5q-71 0 -117 56.5t-46 153.5q0 80 24.5 147t69.5 107t106 40q44 0 76 -21.5t47 -61.5l46 293h81l-45 -286q22 40 54 58t72 18q72 0 118 -56.5t46 -152.5q0 -80 -25 -147t-70 -107.5t-106 -40.5q-88 0 -121 78l-39 -249
h-81zM530 56q42 0 72 31t46 83.5t16 116.5q0 60 -27 102t-73 43q-48 0 -77.5 -31t-42.5 -83.5t-13 -116.5q0 -71 27 -108t72 -37zM230 55q49 0 78 31t42 83t13 117q0 70 -27 107.5t-72 37.5q-42 0 -72 -31t-45.5 -83.5t-15.5 -116.5q0 -61 26.5 -103t72.5 -42z" />
    <glyph glyph-name="uni0445" unicode="&#x445;" horiz-adv-x="535" 
d="M-20 0l242 252l-152 234h91l116 -183l168 183h99l-226 -239l160 -247h-90l-125 194l-184 -194h-99z" />
    <glyph glyph-name="uni0446" unicode="&#x446;" horiz-adv-x="598" 
d="M440 -130l21 130h-419l77 486h81l-67 -421h250l67 421h81l-67 -421h77l-31 -195h-70z" />
    <glyph glyph-name="uni0447" unicode="&#x447;" horiz-adv-x="552" 
d="M353 0l31 197q-31 -17 -61.5 -25.5t-67.5 -8.5q-101 0 -147 50.5t-30 149.5l19 123h81l-18 -117q-12 -72 14.5 -105t95.5 -33q37 0 66 8t58 26l35 221h81l-77 -486h-80z" />
    <glyph glyph-name="uni0448" unicode="&#x448;" horiz-adv-x="799" 
d="M42 0l77 486h78l-68 -421h203l68 421h77l-67 -421h203l66 421h78l-77 -486h-638z" />
    <glyph glyph-name="uni0449" unicode="&#x449;" horiz-adv-x="824" 
d="M667 -130l20 130h-645l77 486h78l-68 -421h203l68 421h77l-67 -421h203l67 421h78l-67 -421h76l-31 -195h-69z" />
    <glyph glyph-name="uni044A" unicode="&#x44a;" horiz-adv-x="614" 
d="M119 0l67 421h-153l10 65h234l-28 -173h144q82 0 125 -39t43 -106q0 -79 -54 -123.5t-146 -44.5h-242zM209 58h145q64 0 97 27.5t33 78.5q0 47 -28.5 69t-80.5 22h-135z" />
    <glyph glyph-name="uni044B" unicode="&#x44b;" horiz-adv-x="730" 
d="M42 0l77 486h81l-28 -173h144q82 0 125 -39t43 -106q0 -79 -54 -123.5t-146 -44.5h-242zM530 0l77 486h81l-77 -486h-81zM132 58h145q64 0 96.5 27.5t32.5 78.5q0 47 -28 69t-80 22h-134z" />
    <glyph glyph-name="uni044C" unicode="&#x44c;" horiz-adv-x="537" 
d="M42 0l77 486h81l-28 -173h144q82 0 125 -39t43 -106q0 -79 -54 -123.5t-146 -44.5h-242zM132 58h145q64 0 96.5 27.5t32.5 78.5q0 47 -28 69t-80 22h-134z" />
    <glyph glyph-name="uni044D" unicode="&#x44d;" horiz-adv-x="490" 
d="M174 -9q-52 0 -97 17t-72 45l29 53q54 -52 143 -52q54 0 91.5 22.5t59 59.5t29.5 81h-247l10 61h244q0 69 -34 112t-113 43q-35 0 -72 -12.5t-68 -39.5l-24 57q30 26 76 41.5t92 15.5q111 0 165 -59.5t54 -155.5q0 -54 -15.5 -105.5t-48 -93t-82.5 -66t-120 -24.5z" />
    <glyph glyph-name="uni044E" unicode="&#x44e;" horiz-adv-x="769" 
d="M463 -9q-70 0 -117.5 29t-71 80.5t-21.5 117.5h-96l-35 -218h-80l77 486h80l-32 -202h94q14 62 48 109.5t84.5 74.5t115.5 27q98 0 154.5 -57.5t56.5 -156.5q0 -82 -32 -147.5t-89.5 -104t-135.5 -38.5zM466 56q55 0 93.5 31t58.5 82.5t20 114.5q0 72 -35 109t-97 37
q-55 0 -93.5 -30.5t-58 -82.5t-19.5 -115q0 -71 34.5 -108.5t96.5 -37.5z" />
    <glyph glyph-name="uni044F" unicode="&#x44f;" horiz-adv-x="539" 
d="M2 0l92 130q38 54 90 70q-52 10 -80.5 43.5t-28.5 85.5q0 71 51 114t141 43h231l-78 -486h-77l30 185h-73q-40 0 -71.5 -20t-52.5 -49l-81 -116h-93zM255 244h127l30 185h-138q-59 0 -89.5 -26.5t-30.5 -73.5q0 -44 26 -64.5t75 -20.5z" />
    <glyph glyph-name="uni0450" unicode="&#x450;" horiz-adv-x="542" 
d="M275 -9q-104 0 -165 57.5t-61 157.5q0 79 32 144.5t90 105t138 39.5q76 0 120.5 -35t60.5 -91.5t7 -121.5l-3 -21h-366q-7 -78 33 -124t118 -46q46 0 85.5 13.5t72.5 42.5l27 -55q-34 -32 -85 -49t-104 -17zM308 435q-53 0 -88 -22.5t-55.5 -58.5t-28.5 -75h296
q6 66 -22.5 111t-101.5 45zM302 551l-141 202h85l114 -202h-58z" />
    <glyph glyph-name="uni0451" unicode="&#x451;" horiz-adv-x="542" 
d="M275 -9q-104 0 -165 57.5t-61 157.5q0 79 32 144.5t90 105t138 39.5q76 0 120.5 -35t60.5 -91.5t7 -121.5l-3 -21h-366q-7 -78 33 -124t118 -46q46 0 85.5 13.5t72.5 42.5l27 -55q-34 -32 -85 -49t-104 -17zM308 435q-53 0 -88 -22.5t-55.5 -58.5t-28.5 -75h296
q6 66 -22.5 111t-101.5 45zM386 609l13 86h87l-14 -86h-86zM212 609l14 86h85l-12 -86h-87z" />
    <glyph glyph-name="uni0452" unicode="&#x452;" horiz-adv-x="578" 
d="M256 -186l-22 63q54 12 85 34t46.5 56t22.5 82l39 245q21 135 -90 135q-74 0 -116.5 -45t-55.5 -120l-42 -264h-81l88 554h-92l10 60h92l14 91h81l-14 -91h193l-10 -60h-193l-23 -147q27 42 71 65t102 23q80 0 121.5 -49t25.5 -152l-39 -243q-10 -62 -31 -109t-64 -79
t-118 -49z" />
    <glyph glyph-name="uni0453" unicode="&#x453;" horiz-adv-x="435" 
d="M42 0l77 486h340l-10 -65h-259l-67 -421h-81zM254 551l134 202h88l-163 -202h-59z" />
    <glyph glyph-name="uni0454" unicode="&#x454;" horiz-adv-x="491" 
d="M269 -9q-111 0 -165 60t-54 156q0 54 15.5 105t48 92.5t83 66t119.5 24.5q55 0 100 -17t72 -44l-28 -54q-27 26 -63 39.5t-83 13.5q-53 0 -89.5 -21.5t-58.5 -56.5t-32 -77h247l-9 -61h-245q-2 -74 32.5 -118.5t114.5 -44.5q38 0 75 12t67 39l24 -56q-30 -26 -76 -42
t-95 -16z" />
    <glyph glyph-name="uni0455" unicode="&#x455;" horiz-adv-x="491" 
d="M228 -9q-59 0 -110 16t-83 44l30 56q36 -28 77.5 -41t86.5 -13q54 0 84.5 21.5t30.5 60.5q0 50 -64 65l-95 23q-50 11 -78.5 43t-28.5 78q0 65 53.5 108t145.5 43q50 0 96 -16.5t74 -44.5l-28 -55q-58 54 -145 54q-56 0 -88 -23t-32 -62q0 -24 14.5 -41.5t45.5 -24.5
l95 -23q53 -13 82.5 -42.5t29.5 -76.5q0 -70 -53.5 -109.5t-139.5 -39.5z" />
    <glyph glyph-name="uni0456" unicode="&#x456;" horiz-adv-x="242" 
d="M130 607l14 91h100l-15 -91h-99zM42 0l77 486h81l-77 -486h-81z" />
    <glyph glyph-name="uni0457" unicode="&#x457;" horiz-adv-x="242" 
d="M42 0l77 486h81l-77 -486h-81zM224 609l13 86h87l-14 -86h-86zM50 609l14 86h85l-12 -86h-87z" />
    <glyph glyph-name="uni0458" unicode="&#x458;" horiz-adv-x="245" 
d="M132 607l15 91h99l-15 -91h-99zM-106 -193l-4 63l43 4q93 7 110 111l80 501h81l-80 -496q-13 -88 -58 -131t-128 -49z" />
    <glyph glyph-name="uni0459" unicode="&#x459;" horiz-adv-x="869" 
d="M13 -11l-21 65q49 18 80 51.5t51.5 95t36.5 161.5l19 124h352l-27 -173h144q82 0 125 -39t43 -106q0 -79 -54 -123.5t-146 -44.5h-242l67 421h-196l-10 -64q-15 -92 -32.5 -155.5t-43 -105.5t-61 -67.5t-85.5 -39.5zM463 58h146q64 0 96.5 27.5t32.5 78.5q0 47 -28 69
t-81 22h-135z" />
    <glyph glyph-name="uni045A" unicode="&#x45a;" horiz-adv-x="882" 
d="M42 0l77 486h81l-32 -202h264l32 202h81l-28 -173h144q82 0 125 -39t43 -106q0 -79 -54 -123.5t-146 -44.5h-242l34 218h-263l-35 -218h-81zM477 58h145q64 0 97 27.5t33 78.5q0 47 -28.5 69t-80.5 22h-135z" />
    <glyph glyph-name="uni045B" unicode="&#x45b;" horiz-adv-x="578" 
d="M42 0l88 554h-92l10 60h91l15 91h81l-15 -91h194l-10 -60h-193l-23 -147q27 42 71 65t101 23q81 0 122.5 -49t24.5 -152l-46 -294h-81l46 294q22 135 -90 135q-73 0 -116 -45t-55 -120l-42 -264h-81z" />
    <glyph glyph-name="uni045C" unicode="&#x45c;" horiz-adv-x="526" 
d="M42 0l77 486h81l-32 -203h88l192 203h91l-207 -224q22 -10 42 -33.5t38 -62.5l75 -166h-83l-66 147q-20 42 -42.5 56.5t-59.5 14.5h-78l-35 -218h-81zM294 551l134 202h88l-163 -202h-59z" />
    <glyph glyph-name="uni045D" unicode="&#x45d;" horiz-adv-x="584" 
d="M42 0l77 486h74l-59 -372l339 372h69l-77 -486h-74l60 373l-340 -373h-69zM308 551l-141 202h85l114 -202h-58z" />
    <glyph glyph-name="uni045E" unicode="&#x45e;" horiz-adv-x="524" 
d="M70 -180l112 188l-129 478h83l98 -394l227 394h88l-394 -666h-85zM303 549q-59 0 -104 32.5t-59 98.5l47 18q14 -51 44 -74.5t75 -23.5t75.5 22t58.5 75l46 -17q-30 -71 -78.5 -101t-104.5 -30z" />
    <glyph glyph-name="uni045F" unicode="&#x45f;" horiz-adv-x="584" 
d="M198 -130l21 130h-177l77 486h81l-67 -421h261l67 421h81l-77 -486h-176l-21 -130h-70z" />
    <glyph glyph-name="uni0462" unicode="&#x462;" horiz-adv-x="724" 
d="M112 0l85 536h-170l10 65h171l16 104h83l-17 -104h239l-11 -65h-238l-23 -142h193q109 0 164.5 -49t55.5 -128q0 -108 -65 -162.5t-189 -54.5h-304zM205 69h214q170 0 170 144q0 112 -148 112h-195z" />
    <glyph glyph-name="uni0463" unicode="&#x463;" horiz-adv-x="615" 
d="M120 0l68 426h-154l10 60h154l35 219h81l-35 -219h162l-10 -60h-162l-18 -113h144q82 0 125 -37t43 -102q0 -80 -54.5 -127t-149.5 -47h-239zM211 58h144q64 0 97 28.5t33 80.5q0 46 -28.5 67t-79.5 21h-135z" />
    <glyph glyph-name="uni046A" unicode="&#x46a;" horiz-adv-x="955" 
d="M-28 0l157 247q91 143 238 143h50l-220 315h707l-320 -315h43q76 -1 124.5 -41t70.5 -104l84 -245h-84l-69 207q-20 61 -54 87t-89 26h-79l-51 -320h-82l51 320h-78q-56 0 -97.5 -26.5t-79.5 -86.5l-131 -207h-91zM496 392h2l252 251h-428z" />
    <glyph glyph-name="uni046B" unicode="&#x46b;" horiz-adv-x="785" 
d="M-38 0l123 163q33 43 58.5 68t55 35.5t75.5 10.5h43l-148 209h523l-213 -209h36q58 0 91.5 -25.5t63.5 -88.5l75 -163h-82l-66 142q-19 42 -43 56.5t-65 14.5h-62l-33 -213h-81l33 213h-62q-28 0 -47.5 -6t-37 -21.5t-39.5 -43.5l-109 -142h-89zM394 279h2l152 150h-258z
" />
    <glyph glyph-name="uni0472" unicode="&#x472;" horiz-adv-x="767" 
d="M368 -9q-88 0 -154 35t-102 102.5t-36 165.5q0 119 42 214t121.5 150.5t194.5 55.5q89 0 154.5 -35t101.5 -102.5t36 -164.5q0 -120 -42 -215t-121.5 -150.5t-194.5 -55.5zM431 641q-72 0 -125.5 -32t-87.5 -88t-47 -130h467q1 9 1 20q0 116 -55.5 173t-152.5 57zM370 64
q74 0 128.5 33.5t88 92t45.5 135.5h-468q-1 -15 -1 -30q0 -117 55.5 -174t151.5 -57z" />
    <glyph glyph-name="uni0473" unicode="&#x473;" horiz-adv-x="566" 
d="M260 -9q-98 0 -154.5 57.5t-56.5 157.5q0 82 32 147.5t89.5 103.5t134.5 38q98 0 154.5 -57.5t56.5 -156.5q0 -82 -31.5 -147.5t-89.5 -104t-135 -38.5zM302 433q-69 0 -112 -45t-58 -116h307v13q0 73 -36 110.5t-101 37.5zM264 53q68 0 111.5 45.5t57.5 116.5h-307v-13
q0 -74 36 -111.5t102 -37.5z" />
    <glyph glyph-name="uni0474" unicode="&#x474;" horiz-adv-x="742" 
d="M268 0l-196 705h83l162 -599l239 418q42 72 79 113.5t82 59t112 17.5l4 -69q-46 0 -78.5 -12.5t-61 -44t-61.5 -88.5l-290 -500h-74z" />
    <glyph glyph-name="uni0475" unicode="&#x475;" horiz-adv-x="550" 
d="M184 0l-131 486h84l98 -394l163 284q25 45 51 71t60 37t82 11l3 -65q-48 -1 -76 -20.5t-57 -68.5l-200 -341h-77z" />
    <glyph glyph-name="uni048A" unicode="&#x48a;" horiz-adv-x="757" 
d="M446 760q-65 0 -113.5 32.5t-66.5 99.5l49 17q17 -50 49.5 -73.5t83.5 -23.5q53 0 88.5 21.5t67.5 74.5l45 -16q-35 -72 -88.5 -102t-114.5 -30zM545 -157l79 157h-87l89 564l-515 -564h-62l112 705h76l-89 -562l514 562h63l-101 -636h106l-112 -226h-73z" />
    <glyph glyph-name="uni048B" unicode="&#x48b;" horiz-adv-x="609" 
d="M341 549q-58 0 -103 32.5t-59 98.5l47 18q14 -51 43.5 -74.5t74.5 -23.5q46 0 76.5 22t57.5 75l46 -17q-30 -71 -78 -101t-105 -30zM42 0l77 486h74l-59 -372l339 372h69l-67 -422h85l-99 -194h-70l66 130h-66l60 373l-340 -373h-69z" />
    <glyph glyph-name="uni048C" unicode="&#x48c;" horiz-adv-x="714" 
d="M104 0l85 536h-142l10 65h142l17 104h80l-16 -104h143l-10 -65h-144l-22 -142h192q110 0 165.5 -49t55.5 -128q0 -108 -65 -162.5t-190 -54.5h-301zM195 69h214q170 0 170 144q0 112 -147 112h-196z" />
    <glyph glyph-name="uni048D" unicode="&#x48d;" horiz-adv-x="615" 
d="M120 0l68 426h-154l10 60h154l35 219h81l-35 -219h162l-10 -60h-162l-18 -113h144q82 0 125 -37t43 -102q0 -80 -54.5 -127t-149.5 -47h-239zM211 58h144q64 0 97 28.5t33 80.5q0 46 -28.5 67t-79.5 21h-135z" />
    <glyph glyph-name="uni048E" unicode="&#x48e;" horiz-adv-x="633" 
d="M49 0l112 705h254q108 0 167 -48t59 -142q0 -81 -39 -137.5t-114 -80.5l44 -70l-44 -28l-53 86q-14 -1 -28 -2.5t-29 -1.5h-202l-45 -281h-82zM187 350h195h14l-47 76l44 27l59 -94q107 28 107 151q0 66 -38 96.5t-113 30.5h-176z" />
    <glyph glyph-name="uni048F" unicode="&#x48f;" horiz-adv-x="592" 
d="M13 -180l105 666h80l-12 -79q27 41 70.5 64.5t98.5 23.5q85 0 136.5 -56t51.5 -152q0 -76 -25.5 -140.5t-73.5 -104.5l41 -58l-45 -31l-44 61q-21 -10 -45 -16.5t-52 -6.5q-54 0 -97.5 25.5t-64.5 76.5l-43 -273h-81zM289 56q39 0 68 17l-44 63l47 31l42 -61q29 31 44 78
t15 101q0 72 -35 108.5t-96 36.5q-56 0 -94 -30.5t-58 -82.5t-20 -115q0 -71 35 -108.5t96 -37.5z" />
    <glyph glyph-name="uni0490" unicode="&#x490;" horiz-adv-x="542" 
d="M49 0l112 705h364l25 155h75l-36 -226h-357l-101 -634h-82z" />
    <glyph glyph-name="uni0491" unicode="&#x491;" horiz-adv-x="435" 
d="M42 0l77 486h271l18 116h70l-29 -181h-259l-67 -421h-81z" />
    <glyph glyph-name="uni0492" unicode="&#x492;" horiz-adv-x="578" 
d="M84 0l51 321h-98l11 63h98l50 321h441l-11 -71h-359l-39 -250h185l-10 -63h-185l-51 -321h-83z" />
    <glyph glyph-name="uni0493" unicode="&#x493;" horiz-adv-x="455" 
d="M62 0l32 204h-95l9 61h96l35 221h341l-11 -65h-259l-25 -156h145l-10 -61h-145l-32 -204h-81z" />
    <glyph glyph-name="uni0494" unicode="&#x494;" horiz-adv-x="669" 
d="M348 -189q-36 0 -65.5 6t-49.5 15l16 64q37 -16 90 -16q63 0 104 42t54 126l15 89q18 116 -24 170.5t-137 54.5q-44 0 -86.5 -9t-82.5 -30l-51 -323h-82l112 705h454l-11 -71h-372l-37 -235q34 18 77.5 27t89.5 9q128 0 191.5 -74.5t40.5 -217.5l-14 -92
q-19 -118 -77.5 -179t-154.5 -61z" />
    <glyph glyph-name="uni0495" unicode="&#x495;" horiz-adv-x="551" 
d="M262 -186l-23 63q54 12 85 34t46.5 56t23.5 82l11 70q10 68 -12.5 101.5t-80.5 33.5q-74 0 -118.5 -44.5t-56.5 -120.5l-14 -89h-81l77 486h333l-10 -65h-253l-29 -189q27 43 72.5 66t103.5 23q82 0 124.5 -49.5t25.5 -151.5l-11 -69q-10 -62 -31.5 -109t-64 -79
t-117.5 -49z" />
    <glyph glyph-name="uni0496" unicode="&#x496;" horiz-adv-x="976" 
d="M-28 0l156 245q69 109 163 135l-166 325h87l157 -314h98l50 314h80l-50 -314h95l256 314h96l-273 -329q81 -30 115 -131l60 -176h89l-36 -226h-75l25 157h-64l-68 207q-20 61 -54.5 87t-89.5 26h-86l-52 -320h-80l52 320h-86q-56 0 -97.5 -26.5t-79.5 -86.5l-131 -207
h-91z" />
    <glyph glyph-name="uni0497" unicode="&#x497;" horiz-adv-x="827" 
d="M-38 0l125 168q35 46 60.5 68.5t52.5 31.5l-134 218h84l127 -203h81l32 203h81l-32 -203h76l192 203h91l-208 -224q27 -12 45.5 -36t34.5 -60l46 -102h66l-30 -194h-70l20 130h-39l-67 147q-19 42 -42 56.5t-60 14.5h-65l-35 -218h-81l35 218h-61q-28 0 -47.5 -6
t-37.5 -21.5t-39 -43.5l-112 -147h-89z" />
    <glyph glyph-name="uni0498" unicode="&#x498;" horiz-adv-x="640" 
d="M225 -157l24 150q-68 6 -123 27.5t-103 61.5l35 62q54 -46 113.5 -63t130.5 -17q49 0 91 13.5t68 45.5t26 86q0 57 -36 85.5t-105 28.5h-171l10 68h169q77 0 123 36t46 104q0 59 -44 84.5t-110 25.5q-63 0 -123.5 -19t-110.5 -59l-30 64q56 43 128 65t143 22
q66 0 117.5 -20t81.5 -58t30 -93q0 -72 -39 -120t-106 -65q52 -17 81 -57t29 -96q0 -70 -32.5 -116t-88.5 -70t-126 -27l-23 -149h-75z" />
    <glyph glyph-name="uni0499" unicode="&#x499;" horiz-adv-x="497" 
d="M164 -130l19 122q-57 2 -102.5 19t-71.5 44l30 56q30 -29 73.5 -43t95.5 -14q69 0 109 20.5t40 71.5q0 32 -23 51t-68 19h-114l9 61h105q48 0 78 23.5t30 64.5q0 31 -27.5 49t-83.5 18q-48 0 -92 -12.5t-88 -41.5l-23 58q92 59 216 59q83 0 128.5 -32.5t45.5 -85.5
q0 -49 -27.5 -81.5t-70.5 -46.5q38 -10 60 -38t22 -65q0 -72 -49.5 -108.5t-133.5 -44.5l-19 -123h-68z" />
    <glyph glyph-name="uni049A" unicode="&#x49a;" horiz-adv-x="670" 
d="M49 0l112 705h82l-50 -314h121l257 314h95l-271 -329q80 -31 113 -131l61 -176h88l-35 -226h-75l24 157h-63l-69 207q-20 61 -54 87t-89 26h-114l-51 -320h-82z" />
    <glyph glyph-name="uni049B" unicode="&#x49b;" horiz-adv-x="565" 
d="M42 0l77 486h81l-32 -203h88l192 203h91l-207 -224q22 -10 42 -33.5t38 -62.5l46 -102h65l-30 -194h-70l21 130h-40l-66 147q-20 42 -42.5 56.5t-59.5 14.5h-78l-35 -218h-81z" />
    <glyph glyph-name="uni049C" unicode="&#x49c;" horiz-adv-x="671" 
d="M49 0l112 705h82l-50 -314h70l26 168h62l-26 -168h18l258 314h94l-270 -329q80 -31 114 -131l83 -245h-84l-68 207q-20 61 -54.5 87.5t-89.5 26.5h-12l-26 -166h-63l27 166h-70l-51 -321h-82z" />
    <glyph glyph-name="uni049D" unicode="&#x49d;" horiz-adv-x="557" 
d="M42 0l77 486h81l-32 -203h53l18 113h59l-18 -113h7l192 203h91l-208 -223q23 -11 42.5 -34.5t37.5 -62.5l75 -166h-82l-67 147q-19 42 -41.5 56.5t-57.5 14.5l-18 -121h-60l20 121h-53l-35 -218h-81z" />
    <glyph glyph-name="uni049E" unicode="&#x49e;" horiz-adv-x="674" 
d="M89 0l86 539h-140l10 64h140l16 102h83l-17 -102h131l-10 -64h-131l-23 -148h113l257 314h95l-270 -329q79 -31 113 -131l83 -245h-84l-68 207q-20 61 -54.5 87t-89.5 26h-106l-51 -320h-83z" />
    <glyph glyph-name="uni049F" unicode="&#x49f;" horiz-adv-x="527" 
d="M42 0l88 554h-92l10 60h92l14 91h81l-14 -91h193l-10 -60h-193l-43 -271h89l192 203h91l-207 -224q22 -10 42 -33.5t38 -62.5l75 -166h-83l-66 147q-19 42 -42 56.5t-61 14.5h-78l-35 -218h-81z" />
    <glyph glyph-name="uni04A0" unicode="&#x4a0;" horiz-adv-x="771" 
d="M179 0l101 635h-214l11 70h296l-50 -314h122l256 314h95l-270 -329q79 -31 113 -131l83 -245h-84l-68 207q-20 61 -54.5 87t-89.5 26h-114l-51 -320h-82z" />
    <glyph glyph-name="uni04A1" unicode="&#x4a1;" horiz-adv-x="603" 
d="M120 0l67 421h-154l10 65h236l-32 -203h88l190 203h91l-206 -224q22 -10 41.5 -33.5t37.5 -62.5l75 -166h-82l-67 147q-19 42 -41.5 56.5t-59.5 14.5h-78l-35 -218h-81z" />
    <glyph glyph-name="uni04A2" unicode="&#x4a2;" horiz-adv-x="801" 
d="M49 0l112 705h82l-50 -312h422l50 312h82l-101 -636h100l-36 -226h-75l25 157h-107l51 322h-422l-51 -322h-82z" />
    <glyph glyph-name="uni04A3" unicode="&#x4a3;" horiz-adv-x="611" 
d="M453 -130l21 130h-87l34 218h-263l-35 -218h-81l77 486h81l-32 -202h264l32 202h81l-67 -422h76l-31 -194h-70z" />
    <glyph glyph-name="uni04A4" unicode="&#x4a4;" horiz-adv-x="934" 
d="M49 0l112 705h82l-50 -312h422l50 312h339l-12 -71h-256l-101 -634h-82l51 322h-422l-51 -322h-82z" />
    <glyph glyph-name="uni04A5" unicode="&#x4a5;" horiz-adv-x="743" 
d="M42 0l77 486h81l-32 -202h264l32 202h304l-11 -65h-222l-67 -421h-81l34 218h-264l-34 -218h-81z" />
    <glyph glyph-name="uni04A8" unicode="&#x4a8;" horiz-adv-x="809" 
d="M364 -9q-85 0 -150.5 34t-102 100.5t-36.5 161.5q0 128 46 224t128.5 149.5t193.5 53.5q19 0 43 -3t37 -7l-15 -70q-16 4 -34.5 6t-33.5 2q-85 0 -147.5 -43t-96.5 -122t-34 -187q0 -117 58 -173.5t155 -56.5q33 0 63 6q-41 38 -64 90.5t-23 113.5q0 80 27.5 144.5
t78.5 103t121 38.5q77 0 122 -48t45 -130q0 -96 -41.5 -178t-113.5 -135q26 -5 55 -5q71 0 132 30l16 -65q-31 -17 -68 -25.5t-85 -8.5q-71 0 -131 28q-33 -14 -69.5 -21t-75.5 -7zM431 270q0 -62 22 -106.5t63 -70.5q72 38 110.5 111.5t38.5 166.5q0 55 -24 85t-68 30
q-46 0 -78 -30t-48 -79t-16 -107z" />
    <glyph glyph-name="uni04A9" unicode="&#x4a9;" horiz-adv-x="641" 
d="M270 -9q-106 0 -163.5 58t-57.5 155q0 77 30.5 143.5t88.5 107t141 40.5q28 0 57.5 -7t44.5 -16l-21 -61q-28 20 -81 20q-59 0 -99 -31t-60.5 -82t-20.5 -110q0 -75 39.5 -115t115.5 -40q24 0 45 3q-28 28 -43.5 63.5t-15.5 75.5q0 79 45.5 129t120.5 50q59 0 94.5 -37.5
t35.5 -93.5t-27.5 -105t-73.5 -84q15 -1 31 -1q31 0 58 6.5t52 18.5l12 -60q-55 -27 -126 -27q-54 0 -102 22q-57 -22 -120 -22zM339 191q0 -79 58 -115q47 24 73.5 66t26.5 98q0 33 -18.5 53t-48.5 20q-43 0 -67 -34.5t-24 -87.5z" />
    <glyph glyph-name="uni04AA" unicode="&#x4aa;" horiz-adv-x="673" 
d="M276 -157l24 156q-101 20 -162 96.5t-61 211.5q0 87 25 161t72.5 129t115 86t152.5 31q73 0 133 -24t98 -66l-37 -66q-41 41 -89 61t-108 20q-86 0 -147 -43t-94 -117.5t-33 -169.5q0 -130 59 -186.5t164 -56.5q55 0 101.5 18.5t95.5 60.5l30 -66q-46 -43 -106.5 -65.5
t-127.5 -22.5h-7l-23 -148h-75z" />
    <glyph glyph-name="uni04AB" unicode="&#x4ab;" horiz-adv-x="473" 
d="M190 -130l20 126q-81 14 -120.5 71t-39.5 140q0 54 15 105t47 92.5t81 66t117 24.5q48 0 92 -16t70 -43l-29 -58q-51 51 -130 51q-65 0 -104.5 -32.5t-57.5 -83.5t-18 -105q0 -68 32.5 -109.5t107.5 -41.5q30 0 64 12.5t63 38.5l24 -60q-27 -25 -67 -39.5t-80 -17.5
l-19 -121h-68z" />
    <glyph glyph-name="uni04AC" unicode="&#x4ac;" horiz-adv-x="581" 
d="M293 -157l25 157h-107l100 634h-245l11 71h573l-11 -71h-245l-90 -565h100l-36 -226h-75z" />
    <glyph glyph-name="uni04AD" unicode="&#x4ad;" horiz-adv-x="444" 
d="M208 -130l21 130h-86l67 421h-177l10 65h435l-11 -65h-176l-57 -357h75l-31 -194h-70z" />
    <glyph glyph-name="uni04AE" unicode="&#x4ae;" horiz-adv-x="596" 
d="M218 0l53 333l-211 372h90l168 -299l264 299h100l-329 -371l-53 -334h-82z" />
    <glyph glyph-name="uni04AF" unicode="&#x4af;" horiz-adv-x="518" 
d="M151 -180l29 184l-130 482h84l98 -394l226 394h87l-283 -480l-30 -186h-81z" />
    <glyph glyph-name="uni04B0" unicode="&#x4b0;" horiz-adv-x="596" 
d="M218 0l53 333l-211 372h90l168 -299l264 299h100l-329 -371l-53 -334h-82zM99 288l9 61h411l-9 -61h-411z" />
    <glyph glyph-name="uni04B1" unicode="&#x4b1;" horiz-adv-x="518" 
d="M151 -180l22 134h-122l11 66h114l-126 466h84l98 -394l226 394h87l-275 -466h116l-11 -66h-121l-22 -134h-81z" />
    <glyph glyph-name="uni04B2" unicode="&#x4b2;" horiz-adv-x="679" 
d="M-29 0l325 364l-199 341h90l164 -287l249 287h102l-308 -349l168 -287h83l-35 -226h-75l24 157h-48l-174 301l-264 -301h-102z" />
    <glyph glyph-name="uni04B3" unicode="&#x4b3;" horiz-adv-x="552" 
d="M-20 0l242 252l-152 234h90l117 -183l168 183h99l-226 -239l118 -183h70l-29 -194h-70l20 130h-40l-124 194l-185 -194h-98z" />
    <glyph glyph-name="uni04B4" unicode="&#x4b4;" horiz-adv-x="922" 
d="M761 -157l24 157h-607l101 634h-213l11 71h499l-11 -71h-203l-90 -563h417l101 634h82l-100 -634h100l-36 -228h-75z" />
    <glyph glyph-name="uni04B5" unicode="&#x4b5;" horiz-adv-x="691" 
d="M534 -130l20 130h-435l67 421h-153l10 65h379l-10 -65h-145l-56 -356h266l67 421h81l-67 -421h77l-31 -195h-70z" />
    <glyph glyph-name="uni04B6" unicode="&#x4b6;" horiz-adv-x="715" 
d="M549 -157l25 157h-107l47 298q-34 -18 -81.5 -27t-94.5 -9q-130 0 -191 75t-39 216l24 152h82l-24 -148q-18 -115 21.5 -168.5t138.5 -53.5q44 0 90.5 9t86.5 31l52 330h83l-102 -636h101l-37 -226h-75z" />
    <glyph glyph-name="uni04B7" unicode="&#x4b7;" horiz-adv-x="576" 
d="M353 0l31 197q-31 -17 -61.5 -25.5t-67.5 -8.5q-101 0 -147 50.5t-30 149.5l19 123h81l-18 -117q-12 -72 14.5 -105t95.5 -33q37 0 66 8t58 26l35 221h81l-67 -422h76l-31 -194h-70l21 130h-86z" />
    <glyph glyph-name="uni04B8" unicode="&#x4b8;" horiz-adv-x="676" 
d="M467 0l47 298q-30 -15 -69.5 -24t-80.5 -11l-24 -152h-62l24 153q-112 10 -163.5 84t-30.5 205l24 152h82l-24 -148q-16 -104 14.5 -157t109.5 -62l27 171h62l-27 -173q39 2 78 11t73 28l52 330h83l-112 -705h-83z" />
    <glyph glyph-name="uni04B9" unicode="&#x4b9;" horiz-adv-x="567" 
d="M367 0l32 198q-49 -28 -103 -33l-16 -99h-59l16 99q-92 7 -132.5 57t-26.5 141l19 123h81l-19 -119q-10 -65 12 -97t76 -38l20 123h59l-19 -124q27 2 52.5 10t50.5 23l35 222h81l-78 -486h-81z" />
    <glyph glyph-name="uni04BA" unicode="&#x4ba;" horiz-adv-x="675" 
d="M49 0l112 705h82l-47 -298q34 18 82 27t95 9q131 0 192 -74.5t38 -216.5l-23 -152h-83l24 148q19 115 -21 168.5t-139 53.5q-44 0 -90.5 -9t-86.5 -30l-53 -331h-82z" />
    <glyph glyph-name="uni04BB" unicode="&#x4bb;" horiz-adv-x="578" 
d="M42 0l112 705h81l-47 -298q27 42 71 65t101 23q81 0 122.5 -49t24.5 -152l-46 -294h-81l46 294q22 135 -90 135q-73 0 -116 -45t-55 -120l-42 -264h-81z" />
    <glyph glyph-name="uni04BC" unicode="&#x4bc;" horiz-adv-x="923" 
d="M541 -9q-93 0 -164 41t-109 114t-34 169h-13q-87 0 -131 43t-30 128l9 56h81l-8 -54q-9 -56 12 -80t71 -24h14q14 98 59 172t119.5 116t176.5 42q83 0 142 -29.5t94.5 -81t47.5 -118t1 -138.5l-5 -32h-553q-4 -76 22.5 -132t80 -87.5t130.5 -31.5q75 0 131 19.5t107 56.5
l31 -66q-54 -41 -126 -62t-156 -21zM588 643q-75 0 -129 -33.5t-87 -91.5t-45 -134h474q6 75 -14 133.5t-69 92t-130 33.5z" />
    <glyph glyph-name="uni04BD" unicode="&#x4bd;" horiz-adv-x="628" 
d="M387 -9q-74 0 -126 29t-78 82t-21 125h-12q-67 0 -96.5 33t-19.5 93l6 35h67l-5 -37q-5 -34 8 -54t51 -20h8q12 62 46 111.5t86.5 78t119.5 28.5q76 0 120.5 -35t60.5 -91.5t7 -121.5l-3 -21h-366q-7 -77 33 -123.5t118 -46.5q46 0 85.5 13.5t72.5 42.5l26 -55
q-33 -32 -84 -49t-104 -17zM420 435q-53 0 -88 -22.5t-55.5 -58.5t-28.5 -75h296q6 66 -22.5 111t-101.5 45z" />
    <glyph glyph-name="uni04BE" unicode="&#x4be;" horiz-adv-x="923" 
d="M541 -9q-93 0 -164 41t-109 114t-34 169h-13q-87 0 -131 43t-30 128l9 56h81l-8 -54q-9 -56 12 -80t71 -24h14q14 98 59 172t119.5 116t176.5 42q83 0 142 -29.5t94.5 -81t47.5 -118t1 -138.5l-5 -32h-553q-4 -76 22.5 -132t80 -87.5t130.5 -31.5q75 0 131 19.5t107 56.5
l31 -66q-54 -41 -126 -62t-156 -21zM588 643q-75 0 -129 -33.5t-87 -91.5t-45 -134h474q6 75 -14 133.5t-69 92t-130 33.5zM544 -192q-46 0 -71.5 25t-25.5 65q0 46 30.5 82.5t76.5 55.5l25 -36q-38 -15 -56 -39.5t-18 -51.5q0 -23 14 -37t39 -14q24 0 54 12l10 -47
q-16 -6 -36 -10.5t-42 -4.5z" />
    <glyph glyph-name="uni04BF" unicode="&#x4bf;" horiz-adv-x="628" 
d="M387 -9q-74 0 -126 29t-78 82t-21 125h-12q-67 0 -96.5 33t-19.5 93l6 35h67l-5 -37q-5 -34 8 -54t51 -20h8q12 62 46 111.5t86.5 78t119.5 28.5q76 0 120.5 -35t60.5 -91.5t7 -121.5l-3 -21h-366q-7 -77 33 -123.5t118 -46.5q46 0 85.5 13.5t72.5 42.5l26 -55
q-33 -32 -84 -49t-104 -17zM420 435q-53 0 -88 -22.5t-55.5 -58.5t-28.5 -75h296q6 66 -22.5 111t-101.5 45zM402 -192q-46 0 -71.5 25t-25.5 65q0 46 30.5 82.5t76.5 55.5l25 -36q-38 -15 -56 -39.5t-18 -51.5q0 -23 14 -37t39 -14q24 0 54 12l10 -47q-16 -6 -36 -10.5
t-42 -4.5z" />
    <glyph glyph-name="uni04C0" unicode="&#x4c0;" horiz-adv-x="257" 
d="M49 0l112 705h82l-112 -705h-82z" />
    <glyph glyph-name="uni04C1" unicode="&#x4c1;" horiz-adv-x="968" 
d="M-28 0l156 245q69 109 163 135l-166 325h87l157 -314h98l50 314h80l-50 -314h95l256 314h96l-273 -329q81 -30 115 -131l84 -245h-85l-68 207q-20 61 -54.5 87t-89.5 26h-86l-52 -320h-80l52 320h-86q-56 0 -97.5 -26.5t-79.5 -86.5l-131 -207h-91zM561 760
q-64 0 -113 32.5t-66 99.5l49 17q16 -50 48.5 -73.5t84.5 -23.5t87.5 21.5t68.5 74.5l45 -16q-35 -72 -88.5 -102t-115.5 -30z" />
    <glyph glyph-name="uni04C2" unicode="&#x4c2;" horiz-adv-x="785" 
d="M-38 0l125 168q35 46 60.5 68.5t52.5 31.5l-134 218h84l127 -203h81l32 203h81l-32 -203h76l192 203h91l-208 -224q27 -12 45.5 -36t34.5 -60l75 -166h-82l-67 147q-19 42 -42 56.5t-60 14.5h-65l-35 -218h-81l35 218h-61q-28 0 -47.5 -6t-37.5 -21.5t-39 -43.5
l-112 -147h-89zM444 549q-59 0 -104 32.5t-59 98.5l47 18q14 -51 44 -74.5t75 -23.5t75.5 22t58.5 75l46 -17q-30 -71 -78.5 -101t-104.5 -30z" />
    <glyph glyph-name="uni04C3" unicode="&#x4c3;" horiz-adv-x="669" 
d="M350 -189q-36 0 -68.5 6t-45.5 15l15 64q37 -16 90 -16q63 0 103.5 42t53.5 126l9 51q20 118 -26 171t-155 53h-144l-51 -323h-82l112 705h82l-50 -311h128l255 311h93l-261 -318q105 -15 154 -85t27 -197l-9 -56q-20 -117 -77 -177.5t-153 -60.5z" />
    <glyph glyph-name="uni04C4" unicode="&#x4c4;" horiz-adv-x="540" 
d="M250 -186l-23 63q54 12 85 34t46.5 56t22.5 82l5 26q11 75 -19 109t-105 34h-104l-35 -218h-81l77 486h81l-32 -203h87l192 203h91l-197 -212q66 -12 103 -60t23 -134l-5 -29q-9 -62 -30.5 -109t-64 -79t-117.5 -49z" />
    <glyph glyph-name="uni04C5" unicode="&#x4c5;" horiz-adv-x="758" 
d="M544 -157l78 157h-90l101 634h-308l-29 -179q-18 -112 -42.5 -190.5t-58 -132t-76.5 -88.5t-98 -59l-33 66q41 20 76 46.5t64.5 71.5t53 119t41.5 187l37 230h467l-102 -636h104l-112 -226h-73z" />
    <glyph glyph-name="uni04C6" unicode="&#x4c6;" horiz-adv-x="599" 
d="M13 -11l-21 65q49 18 80 51.5t51.5 95t36.5 161.5l19 124h353l-67 -422h82l-98 -194h-70l66 130h-71l67 421h-196l-10 -64q-15 -92 -32.5 -155.5t-43 -105.5t-61 -67.5t-85.5 -39.5z" />
    <glyph glyph-name="uni04C7" unicode="&#x4c7;" horiz-adv-x="761" 
d="M402 -193l-5 63l44 4q93 8 110 111l53 337h-422l-51 -322h-82l112 705h82l-50 -312h422l50 312h82l-113 -715q-14 -88 -59.5 -131t-128.5 -49z" />
    <glyph glyph-name="uni04C8" unicode="&#x4c8;" horiz-adv-x="587" 
d="M236 -193l-5 63l44 4q93 7 110 111l36 233h-263l-35 -218h-81l77 486h81l-32 -202h264l32 202h81l-79 -496q-14 -88 -59 -131t-127 -49z" />
    <glyph glyph-name="uni04C9" unicode="&#x4c9;" horiz-adv-x="778" 
d="M49 0l112 705h82l-50 -312h422l50 312h82l-101 -636h103l-112 -226h-73l78 157h-89l51 322h-422l-51 -322h-82z" />
    <glyph glyph-name="uni04CA" unicode="&#x4ca;" horiz-adv-x="611" 
d="M42 0l77 486h81l-32 -202h264l32 202h81l-67 -422h82l-99 -194h-70l66 130h-70l34 218h-263l-35 -218h-81z" />
    <glyph glyph-name="uni04CB" unicode="&#x4cb;" horiz-adv-x="683" 
d="M421 -157h-77l36 226h98l36 229q-34 -18 -81.5 -27t-94.5 -9q-130 0 -191 75t-39 216l24 152h82l-24 -148q-18 -115 21.5 -168.5t138.5 -53.5q44 0 90.5 9t86.5 31l52 330h83l-112 -705h-105z" />
    <glyph glyph-name="uni04CC" unicode="&#x4cc;" horiz-adv-x="572" 
d="M327 -130h-70l28 181h76l23 146q-31 -17 -61.5 -25.5t-67.5 -8.5q-101 0 -147 50.5t-30 149.5l19 123h81l-18 -117q-12 -72 14.5 -105t95.5 -33q37 0 66 8t58 26l35 221h81l-77 -486h-86z" />
    <glyph glyph-name="uni04CD" unicode="&#x4cd;" horiz-adv-x="872" 
d="M661 -157l78 157h-86l86 551l-304 -442h-54l-167 446l-88 -555h-75l112 705h67l187 -511l352 511h71l-102 -636h108l-112 -226h-73z" />
    <glyph glyph-name="uni04CE" unicode="&#x4ce;" horiz-adv-x="684" 
d="M42 0l77 486h64l132 -325l233 325h69l-67 -422h87l-98 -194h-70l66 130h-67l56 351l-197 -273h-41l-116 279l-56 -357h-72z" />
    <glyph glyph-name="uni04CF" unicode="&#x4cf;" horiz-adv-x="241" 
d="M42 0l112 705h81l-112 -705h-81z" />
    <glyph glyph-name="uni04D0" unicode="&#x4d0;" horiz-adv-x="729" 
d="M-19 0l423 705h70l198 -705h-80l-48 180h-368l-106 -180h-89zM427 609l-211 -360h309l-96 360h-2zM443 760q-64 0 -113 32.5t-66 99.5l49 17q16 -50 48.5 -73.5t84.5 -23.5t87.5 21.5t68.5 74.5l45 -16q-35 -72 -88.5 -102t-115.5 -30z" />
    <glyph glyph-name="uni04D1" unicode="&#x4d1;" horiz-adv-x="539" 
d="M204 -9q-42 0 -78.5 19t-58.5 52t-22 75q0 77 65.5 111t209.5 34h69l5 30q10 57 -15 87.5t-88 30.5q-89 0 -165 -51l-23 59q36 26 89.5 41.5t107.5 15.5q102 0 143 -56t26 -149l-46 -290h-77l12 76q-25 -43 -67 -64t-87 -21zM224 52q54 0 97 36.5t54 101.5l6 39h-50
q-77 0 -121.5 -8t-63.5 -27t-19 -52q0 -44 29 -67t68 -23zM324 549q-59 0 -104 32.5t-59 98.5l47 18q14 -51 44 -74.5t75 -23.5t75.5 22t58.5 75l46 -17q-30 -71 -78.5 -101t-104.5 -30z" />
    <glyph glyph-name="uni04D2" unicode="&#x4d2;" horiz-adv-x="729" 
d="M-19 0l423 705h70l198 -705h-80l-48 180h-368l-106 -180h-89zM427 609l-211 -360h309l-96 360h-2zM499 806l14 86h86l-14 -86h-86zM325 806l14 86h86l-14 -86h-86z" />
    <glyph glyph-name="uni04D3" unicode="&#x4d3;" horiz-adv-x="539" 
d="M204 -9q-42 0 -78.5 19t-58.5 52t-22 75q0 77 65.5 111t209.5 34h69l5 30q10 57 -15 87.5t-88 30.5q-89 0 -165 -51l-23 59q36 26 89.5 41.5t107.5 15.5q102 0 143 -56t26 -149l-46 -290h-77l12 76q-25 -43 -67 -64t-87 -21zM224 52q54 0 97 36.5t54 101.5l6 39h-50
q-77 0 -121.5 -8t-63.5 -27t-19 -52q0 -44 29 -67t68 -23zM374 609l13 86h87l-14 -86h-86zM200 609l14 86h85l-12 -86h-87z" />
    <glyph glyph-name="uni04D4" unicode="&#x4d4;" horiz-adv-x="981" 
d="M-55 0l541 705h518l-11 -69h-426l14 -244h353l-11 -69h-339l14 -254h306l-12 -69h-364l-9 180h-346l-136 -180h-92zM494 608l-270 -359h291l-19 359h-2z" />
    <glyph glyph-name="uni04D5" unicode="&#x4d5;" horiz-adv-x="871" 
d="M215 -9q-44 0 -83 17.5t-63 50t-24 78.5q0 77 65.5 111t209.5 34h72l3 22q20 126 -104 126q-90 0 -165 -52l-23 60q36 26 89.5 41.5t107.5 15.5q120 0 153 -88q32 41 79 64.5t107 23.5q75 0 119.5 -34.5t61 -90.5t6.5 -119l-4 -23h-364q-8 -78 32 -125t118 -47
q47 0 86 13.5t73 42.5l26 -55q-34 -32 -85 -49t-104 -17q-74 0 -125 30t-73 85q-29 -59 -80 -87t-111 -28zM637 435q-51 0 -86 -22t-55.5 -57.5t-28.5 -73.5h294q3 42 -8 77t-39.5 55.5t-76.5 20.5zM224 53q54 0 97.5 32.5t54.5 97.5l7 45h-52q-77 0 -121.5 -8t-63.5 -27
t-19 -51q0 -44 29 -66.5t68 -22.5z" />
    <glyph glyph-name="uni04D6" unicode="&#x4d6;" horiz-adv-x="583" 
d="M49 0l112 705h445l-11 -69h-365l-39 -244h345l-11 -69h-345l-41 -254h365l-10 -69h-445zM402 760q-64 0 -113 32.5t-66 99.5l49 17q16 -50 48.5 -73.5t84.5 -23.5t87.5 21.5t68.5 74.5l45 -16q-35 -72 -88.5 -102t-115.5 -30z" />
    <glyph glyph-name="uni04D7" unicode="&#x4d7;" horiz-adv-x="542" 
d="M275 -9q-104 0 -165 57.5t-61 157.5q0 79 32 144.5t90 105t138 39.5q76 0 120.5 -35t60.5 -91.5t7 -121.5l-3 -21h-366q-7 -78 33 -124t118 -46q46 0 85.5 13.5t72.5 42.5l27 -55q-34 -32 -85 -49t-104 -17zM308 435q-53 0 -88 -22.5t-55.5 -58.5t-28.5 -75h296
q6 66 -22.5 111t-101.5 45zM336 549q-59 0 -104 32.5t-59 98.5l47 18q14 -51 44 -74.5t75 -23.5t75.5 22t58.5 75l46 -17q-30 -71 -78.5 -101t-104.5 -30z" />
    <glyph glyph-name="uni04D8" unicode="&#x4d8;" horiz-adv-x="767" 
d="M363 -9q-82 0 -141 30t-94.5 81.5t-48 117.5t-0.5 139l5 31h554v21q0 105 -62.5 167.5t-172.5 62.5q-78 0 -135.5 -19.5t-109.5 -61.5l-30 66q106 88 288 88q92 0 161.5 -39t108.5 -108t39 -159q0 -119 -41.5 -213.5t-122 -149t-198.5 -54.5zM369 63q75 0 129.5 33
t87.5 91t45 134h-472q-6 -75 13.5 -133.5t68 -91.5t128.5 -33z" />
    <glyph glyph-name="uni04D9" unicode="&#x4d9;" horiz-adv-x="542" 
d="M234 -9q-76 0 -121 35t-61.5 91.5t-6.5 120.5l4 23h365q8 77 -31.5 123t-117.5 46q-47 0 -86.5 -13.5t-72.5 -43.5l-27 57q34 32 85.5 48.5t104.5 16.5q104 0 164 -57.5t60 -156.5q0 -79 -31.5 -145t-90 -105.5t-137.5 -39.5zM236 51q52 0 86.5 22.5t55 58.5t28.5 75
h-292q-6 -65 22.5 -110.5t99.5 -45.5z" />
    <glyph glyph-name="uni04DA" unicode="&#x4da;" horiz-adv-x="767" 
d="M363 -9q-82 0 -141 30t-94.5 81.5t-48 117.5t-0.5 139l5 31h554v21q0 105 -62.5 167.5t-172.5 62.5q-78 0 -135.5 -19.5t-109.5 -61.5l-30 66q106 88 288 88q92 0 161.5 -39t108.5 -108t39 -159q0 -119 -41.5 -213.5t-122 -149t-198.5 -54.5zM369 63q75 0 129.5 33
t87.5 91t45 134h-472q-6 -75 13.5 -133.5t68 -91.5t128.5 -33zM471 806l14 86h86l-14 -86h-86zM297 806l14 86h86l-14 -86h-86z" />
    <glyph glyph-name="uni04DB" unicode="&#x4db;" horiz-adv-x="542" 
d="M234 -9q-76 0 -121 35t-61.5 91.5t-6.5 120.5l4 23h365q8 77 -31.5 123t-117.5 46q-47 0 -86.5 -13.5t-72.5 -43.5l-27 57q34 32 85.5 48.5t104.5 16.5q104 0 164 -57.5t60 -156.5q0 -79 -31.5 -145t-90 -105.5t-137.5 -39.5zM236 51q52 0 86.5 22.5t55 58.5t28.5 75
h-292q-6 -65 22.5 -110.5t99.5 -45.5zM353 609l13 86h87l-14 -86h-86zM179 609l14 86h85l-12 -86h-87z" />
    <glyph glyph-name="uni04DC" unicode="&#x4dc;" horiz-adv-x="968" 
d="M-28 0l156 245q69 109 163 135l-166 325h87l157 -314h98l50 314h80l-50 -314h95l256 314h96l-273 -329q81 -30 115 -131l84 -245h-85l-68 207q-20 61 -54.5 87t-89.5 26h-86l-52 -320h-80l52 320h-86q-56 0 -97.5 -26.5t-79.5 -86.5l-131 -207h-91zM617 806l14 86h86
l-14 -86h-86zM443 806l14 86h86l-14 -86h-86z" />
    <glyph glyph-name="uni04DD" unicode="&#x4dd;" horiz-adv-x="785" 
d="M-38 0l125 168q35 46 60.5 68.5t52.5 31.5l-134 218h84l127 -203h81l32 203h81l-32 -203h76l192 203h91l-208 -224q27 -12 45.5 -36t34.5 -60l75 -166h-82l-67 147q-19 42 -42 56.5t-60 14.5h-65l-35 -218h-81l35 218h-61q-28 0 -47.5 -6t-37.5 -21.5t-39 -43.5
l-112 -147h-89zM494 609l13 86h87l-14 -86h-86zM320 609l14 86h85l-12 -86h-87z" />
    <glyph glyph-name="uni04DE" unicode="&#x4de;" horiz-adv-x="640" 
d="M300 -9q-85 0 -152 21.5t-125 69.5l35 62q54 -46 113.5 -63t130.5 -17q49 0 91 13.5t68 45.5t26 86q0 57 -36 85.5t-105 28.5h-171l10 68h169q77 0 123 36t46 104q0 59 -44 84.5t-110 25.5q-63 0 -123.5 -19t-110.5 -59l-30 64q56 43 128 65t143 22q66 0 117.5 -20
t81.5 -58t30 -93q0 -72 -39 -120t-105 -66q51 -16 80 -56t29 -96q0 -74 -35.5 -121.5t-96.5 -70t-138 -22.5zM447 806l14 86h86l-14 -86h-86zM273 806l14 86h86l-14 -86h-86z" />
    <glyph glyph-name="uni04DF" unicode="&#x4df;" horiz-adv-x="497" 
d="M203 -9q-63 0 -114.5 17t-79.5 47l30 56q30 -29 73.5 -43t95.5 -14q69 0 109 20.5t40 71.5q0 32 -23 51t-68 19h-114l9 61h105q48 0 78 23.5t30 64.5q0 31 -27.5 49t-83.5 18q-48 0 -92 -12.5t-88 -41.5l-23 58q92 59 216 59q83 0 128.5 -32.5t45.5 -85.5
q0 -49 -27 -81.5t-69 -45.5q37 -11 58.5 -39t21.5 -65q0 -81 -63.5 -118t-167.5 -37zM328 609l13 86h87l-14 -86h-86zM154 609l14 86h85l-12 -86h-87z" />
    <glyph glyph-name="uni04E0" unicode="&#x4e0;" horiz-adv-x="640" 
d="M302 -9q-86 0 -153.5 21.5t-125.5 69.5l35 62q54 -46 114 -63t131 -17q50 0 92 13.5t68 45.5t26 86q0 57 -38 85.5t-118 28.5h-124l10 57l281 255h-391l11 70h501l-9 -58l-283 -257h26q76 0 124 -24t70 -64t22 -90q0 -74 -35.5 -123t-96 -73.5t-137.5 -24.5z" />
    <glyph glyph-name="uni04E1" unicode="&#x4e1;" horiz-adv-x="495" 
d="M185 -189q-62 0 -120 17.5t-106 53.5l34 56q42 -34 86.5 -48t99.5 -14q81 0 123.5 43t42.5 117q0 50 -34.5 82.5t-99.5 32.5h-103l7 40l243 230h-299l10 65h398l-10 -55l-235 -220h19q59 0 100.5 -23.5t63 -63t21.5 -86.5q0 -66 -28.5 -117.5t-82.5 -80.5t-130 -29z" />
    <glyph glyph-name="uni04E2" unicode="&#x4e2;" horiz-adv-x="740" 
d="M49 0l112 705h76l-89 -562l514 562h63l-112 -705h-76l89 564l-515 -564h-62zM296 814l8 55h326l-8 -55h-326z" />
    <glyph glyph-name="uni04E3" unicode="&#x4e3;" horiz-adv-x="584" 
d="M42 0l77 486h74l-59 -372l339 372h69l-77 -486h-74l60 373l-340 -373h-69zM203 625l8 55h297l-9 -55h-296z" />
    <glyph glyph-name="uni04E4" unicode="&#x4e4;" horiz-adv-x="740" 
d="M49 0l112 705h76l-89 -562l514 562h63l-112 -705h-76l89 564l-515 -564h-62zM501 806l14 86h86l-14 -86h-86zM327 806l14 86h86l-14 -86h-86z" />
    <glyph glyph-name="uni04E5" unicode="&#x4e5;" horiz-adv-x="584" 
d="M42 0l77 486h74l-59 -372l339 372h69l-77 -486h-74l60 373l-340 -373h-69zM392 609l13 86h87l-14 -86h-86zM218 609l14 86h85l-12 -86h-87z" />
    <glyph glyph-name="uni04E6" unicode="&#x4e6;" horiz-adv-x="767" 
d="M368 -9q-88 0 -154 35t-102 102.5t-36 165.5q0 119 42 214t121.5 150.5t194.5 55.5q89 0 154.5 -35t101.5 -102.5t36 -164.5q0 -120 -42 -215t-121.5 -150.5t-194.5 -55.5zM370 64q87 0 147 45.5t91 124t31 177.5q0 116 -55.5 173t-152.5 57q-86 0 -146 -45.5t-91 -123.5
t-31 -177q0 -117 55.5 -174t151.5 -57zM506 806l14 86h86l-14 -86h-86zM332 806l14 86h86l-14 -86h-86z" />
    <glyph glyph-name="uni04E7" unicode="&#x4e7;" horiz-adv-x="566" 
d="M260 -9q-98 0 -154.5 57.5t-56.5 156.5q0 82 32 148t89.5 104t135.5 38q98 0 154 -57.5t56 -156.5q0 -82 -31.5 -147.5t-89.5 -104t-135 -38.5zM263 56q55 0 93.5 31t58 82.5t19.5 114.5q0 72 -34.5 109t-96.5 37q-55 0 -93.5 -30.5t-58.5 -82.5t-20 -115
q0 -71 35 -108.5t97 -37.5zM387 609l13 86h87l-14 -86h-86zM213 609l14 86h85l-12 -86h-87z" />
    <glyph glyph-name="uni04E8" unicode="&#x4e8;" horiz-adv-x="767" 
d="M368 -9q-88 0 -154 35t-102 102.5t-36 165.5q0 119 42 214t121.5 150.5t194.5 55.5q89 0 154.5 -35t101.5 -102.5t36 -164.5q0 -120 -42 -215t-121.5 -150.5t-194.5 -55.5zM431 641q-72 0 -125.5 -32t-87.5 -88t-47 -130h467q1 9 1 20q0 116 -55.5 173t-152.5 57zM370 64
q74 0 128.5 33.5t88 92t45.5 135.5h-468q-1 -15 -1 -30q0 -117 55.5 -174t151.5 -57z" />
    <glyph glyph-name="uni04E9" unicode="&#x4e9;" horiz-adv-x="566" 
d="M260 -9q-98 0 -154.5 57.5t-56.5 157.5q0 82 32 147.5t89.5 103.5t134.5 38q98 0 154.5 -57.5t56.5 -156.5q0 -82 -31.5 -147.5t-89.5 -104t-135 -38.5zM302 433q-69 0 -112 -45t-58 -116h307v13q0 73 -36 110.5t-101 37.5zM264 53q68 0 111.5 45.5t57.5 116.5h-307v-13
q0 -74 36 -111.5t102 -37.5z" />
    <glyph glyph-name="uni04EA" unicode="&#x4ea;" horiz-adv-x="767" 
d="M368 -9q-88 0 -154 35t-102 102.5t-36 165.5q0 119 42 214t121.5 150.5t194.5 55.5q89 0 154.5 -35t101.5 -102.5t36 -164.5q0 -120 -42 -215t-121.5 -150.5t-194.5 -55.5zM431 641q-72 0 -125.5 -32t-87.5 -88t-47 -130h467q1 9 1 20q0 116 -55.5 173t-152.5 57zM370 64
q74 0 128.5 33.5t88 92t45.5 135.5h-468q-1 -15 -1 -30q0 -117 55.5 -174t151.5 -57zM506 806l14 86h86l-14 -86h-86zM332 806l14 86h86l-14 -86h-86z" />
    <glyph glyph-name="uni04EB" unicode="&#x4eb;" horiz-adv-x="566" 
d="M260 -9q-98 0 -154.5 57.5t-56.5 157.5q0 82 32 147.5t89.5 103.5t134.5 38q98 0 154.5 -57.5t56.5 -156.5q0 -82 -31.5 -147.5t-89.5 -104t-135 -38.5zM302 433q-69 0 -112 -45t-58 -116h307v13q0 73 -36 110.5t-101 37.5zM264 53q68 0 111.5 45.5t57.5 116.5h-307v-13
q0 -74 36 -111.5t102 -37.5zM387 609l13 86h87l-14 -86h-86zM213 609l14 86h85l-12 -86h-87z" />
    <glyph glyph-name="uni04EC" unicode="&#x4ec;" horiz-adv-x="673" 
d="M266 -9q-73 0 -133 24t-99 66l38 66q41 -41 88.5 -61t108.5 -20q75 0 131 33t91.5 91t46.5 134h-355l11 69h348q1 75 -20 130.5t-69 85.5t-128 30q-55 0 -104.5 -18.5t-97.5 -60.5l-30 66q46 43 109 65.5t130 22.5q89 0 156 -34t104.5 -104.5t37.5 -177.5q0 -87 -25 -161
t-72 -129t-114.5 -86t-152.5 -31zM431 806l14 86h86l-14 -86h-86zM257 806l14 86h86l-14 -86h-86z" />
    <glyph glyph-name="uni04ED" unicode="&#x4ed;" horiz-adv-x="490" 
d="M174 -9q-52 0 -97 17t-72 45l29 53q54 -52 143 -52q54 0 91.5 22.5t59 59.5t29.5 81h-247l10 61h244q0 69 -34 112t-113 43q-35 0 -72 -12.5t-68 -39.5l-24 57q30 26 76 41.5t92 15.5q111 0 165 -59.5t54 -155.5q0 -54 -15.5 -105.5t-48 -93t-82.5 -66t-120 -24.5z
M312 609l13 86h87l-14 -86h-86zM138 609l14 86h85l-12 -86h-87z" />
    <glyph glyph-name="uni04EE" unicode="&#x4ee;" horiz-adv-x="643" 
d="M155 0l144 216l-227 489h84l193 -417l280 417h90l-473 -705h-91zM240 814l8 55h326l-8 -55h-326z" />
    <glyph glyph-name="uni04EF" unicode="&#x4ef;" horiz-adv-x="524" 
d="M70 -180l112 188l-129 478h83l98 -394l227 394h88l-394 -666h-85zM164 625l8 55h297l-9 -55h-296z" />
    <glyph glyph-name="uni04F0" unicode="&#x4f0;" horiz-adv-x="643" 
d="M155 0l144 216l-227 489h84l193 -417l280 417h90l-473 -705h-91zM445 806l14 86h86l-14 -86h-86zM271 806l14 86h86l-14 -86h-86z" />
    <glyph glyph-name="uni04F1" unicode="&#x4f1;" horiz-adv-x="524" 
d="M70 -180l112 188l-129 478h83l98 -394l227 394h88l-394 -666h-85zM353 609l13 86h87l-14 -86h-86zM179 609l14 86h85l-12 -86h-87z" />
    <glyph glyph-name="uni04F2" unicode="&#x4f2;" horiz-adv-x="643" 
d="M155 0l144 216l-227 489h84l193 -417l280 417h90l-473 -705h-91zM308 765l100 172h80l-133 -172h-47zM435 765l104 172h80l-137 -172h-47z" />
    <glyph glyph-name="uni04F3" unicode="&#x4f3;" horiz-adv-x="524" 
d="M70 -180l112 188l-129 478h83l98 -394l227 394h88l-394 -666h-85zM340 551l72 202h75l-102 -202h-45zM212 551l72 202h75l-101 -202h-46z" />
    <glyph glyph-name="uni04F4" unicode="&#x4f4;" horiz-adv-x="676" 
d="M467 0l47 298q-34 -18 -81.5 -27t-94.5 -9q-130 0 -191 75t-39 216l24 152h82l-24 -148q-18 -115 21.5 -168.5t138.5 -53.5q44 0 90.5 9t86.5 31l52 330h83l-112 -705h-83zM451 806l14 86h86l-14 -86h-86zM277 806l14 86h86l-14 -86h-86z" />
    <glyph glyph-name="uni04F5" unicode="&#x4f5;" horiz-adv-x="552" 
d="M353 0l31 197q-31 -17 -61.5 -25.5t-67.5 -8.5q-101 0 -147 50.5t-30 149.5l19 123h81l-18 -117q-12 -72 14.5 -105t95.5 -33q37 0 66 8t58 26l35 221h81l-77 -486h-80zM368 609l13 86h87l-14 -86h-86zM194 609l14 86h85l-12 -86h-87z" />
    <glyph glyph-name="uni04F6" unicode="&#x4f6;" horiz-adv-x="542" 
d="M49 0l112 705h440l-12 -71h-357l-90 -565h100l-36 -226h-75l25 157h-107z" />
    <glyph glyph-name="uni04F7" unicode="&#x4f7;" horiz-adv-x="435" 
d="M42 0l77 486h340l-10 -65h-259l-57 -357h76l-31 -194h-70l21 130h-87z" />
    <glyph glyph-name="uni04F8" unicode="&#x4f8;" horiz-adv-x="854" 
d="M49 0l112 705h82l-50 -311h166q110 0 165.5 -49t55.5 -128q0 -108 -65 -162.5t-190 -54.5h-276zM646 0l112 705h82l-112 -705h-82zM142 69h186q170 0 170 144q0 112 -148 112h-167zM553 806l14 86h86l-14 -86h-86zM379 806l14 86h86l-14 -86h-86z" />
    <glyph glyph-name="uni04F9" unicode="&#x4f9;" horiz-adv-x="730" 
d="M42 0l77 486h81l-28 -173h144q82 0 125 -39t43 -106q0 -79 -54 -123.5t-146 -44.5h-242zM530 0l77 486h81l-77 -486h-81zM132 58h145q64 0 96.5 27.5t32.5 78.5q0 47 -28 69t-80 22h-134zM465 609l13 86h87l-14 -86h-86zM291 609l14 86h85l-12 -86h-87z" />
    <glyph glyph-name="uni04FA" unicode="&#x4fa;" horiz-adv-x="578" 
d="M34 -182l-4 61l44 3q102 9 117 118h-107l51 321h-97l10 63h98l50 321h441l-11 -71h-359l-39 -250h185l-9 -63h-186l-40 -252h101l-9 -58q-14 -91 -58.5 -137t-125.5 -52z" />
    <glyph glyph-name="uni04FB" unicode="&#x4fb;" horiz-adv-x="455" 
d="M24 -182l-2 61l47 4q40 3 62 34.5t30 82.5h-99l33 207h-96l10 60h96l34 219h341l-11 -65h-259l-24 -154h145l-10 -60h-145l-23 -142h91l-9 -55q-15 -91 -54.5 -137.5t-105.5 -50.5z" />
    <glyph glyph-name="uni04FC" unicode="&#x4fc;" horiz-adv-x="650" 
d="M368 -185l-15 67q68 9 98 37t30 81q0 23 -9 53.5t-30 67.5l-105 180l-264 -301h-102l325 364l-199 341h90l164 -287l249 287h102l-308 -349l121 -207q25 -43 35.5 -82t10.5 -69q0 -85 -49.5 -127.5t-143.5 -55.5z" />
    <glyph glyph-name="uni04FD" unicode="&#x4fd;" horiz-adv-x="535" 
d="M286 -185l-14 60q53 6 79.5 29t26.5 71q0 22 -11.5 48.5t-36.5 66.5l-67 104l-185 -194h-98l242 252l-153 234h91l117 -183l168 183h98l-225 -239l79 -122q30 -46 45 -82.5t15 -74.5q0 -69 -44 -107t-127 -46z" />
    <glyph glyph-name="uni04FE" unicode="&#x4fe;" horiz-adv-x="650" 
d="M-29 0l325 364l-199 341h90l164 -287l249 287h102l-308 -349l208 -356h-91l-174 301l-264 -301h-102zM135 333l9 61h411l-9 -61h-411z" />
    <glyph glyph-name="uni04FF" unicode="&#x4ff;" horiz-adv-x="535" 
d="M-20 0l242 252l-152 234h91l116 -183l168 183h99l-226 -239l160 -247h-90l-125 194l-184 -194h-99zM58 214l9 61h411l-9 -61h-411z" />
    <glyph glyph-name="uni0510" unicode="&#x510;" horiz-adv-x="640" 
d="M301 -9q-124 0 -188.5 47.5t-61.5 132.5q2 71 44.5 123t113.5 69q-44 18 -67.5 53.5t-21.5 89.5q2 63 37.5 110t97.5 72.5t143 25.5q79 0 140 -24t101 -66l-39 -63q-40 41 -89.5 60.5t-118.5 19.5q-87 0 -138 -38t-52 -103q-2 -109 141 -109h156l-11 -69h-172
q-86 0 -133.5 -36.5t-49.5 -104.5q-1 -60 44.5 -88.5t132.5 -28.5q77 0 137 19t113 60l26 -64q-50 -41 -123.5 -64.5t-161.5 -23.5z" />
    <glyph glyph-name="uni0511" unicode="&#x511;" horiz-adv-x="497" 
d="M216 -9q-96 0 -142.5 33.5t-46.5 89.5q0 59 33 93.5t85 44.5q-32 13 -49.5 39.5t-17.5 58.5q0 51 29 83t78 47t109 15q58 0 108.5 -15t79.5 -41l-32 -56q-57 49 -156 49q-64 0 -102 -20t-38 -66q0 -31 23.5 -50t66.5 -19h99l-10 -61h-107q-57 0 -89.5 -23.5t-32.5 -69.5
q0 -33 27.5 -51t91.5 -18q54 0 102.5 13t90.5 42l21 -58q-47 -31 -102 -45.5t-119 -14.5z" />
    <glyph glyph-name="uni0512" unicode="&#x512;" horiz-adv-x="741" 
d="M380 -193l-4 63l43 4q95 8 111 111l103 649h-308l-29 -179q-18 -112 -43 -190.5t-58.5 -132t-76 -88.5t-96.5 -59l-34 65q41 20 76 47t64.5 72t53 119t41.5 187l37 230h467l-114 -715q-14 -88 -60.5 -131t-128.5 -49z" />
    <glyph glyph-name="uni0513" unicode="&#x513;" horiz-adv-x="574" 
d="M224 -193l-5 63l44 4q93 8 110 111l68 436h-196l-10 -64q-15 -92 -32.5 -155.5t-43 -105.5t-61 -67.5t-85.5 -39.5l-21 65q49 18 80 51.5t51.5 95t36.5 161.5l19 124h354l-80 -501q-13 -84 -58 -126.5t-127 -48.5z" />
    <glyph glyph-name="uni051A" unicode="&#x51a;" horiz-adv-x="767" 
d="M528 -201l-61 132q-28 60 -111 60h1q-128 4 -204.5 82t-76.5 221q0 119 42 214t121.5 150.5t194.5 55.5q89 0 154.5 -35t101.5 -102.5t36 -164.5q0 -98 -28 -180t-82 -139.5t-131 -83.5q37 -16 60 -67l53 -115zM370 64q87 0 147 45.5t91 124t31 177.5q0 116 -55.5 173
t-152.5 57q-86 0 -146 -45.5t-91 -123.5t-31 -177q0 -117 55.5 -174t151.5 -57z" />
    <glyph glyph-name="uni051B" unicode="&#x51b;" horiz-adv-x="593" 
d="M364 -180l41 259q-28 -41 -71 -64.5t-98 -23.5q-84 0 -135.5 56t-51.5 152q0 81 28.5 148.5t83 107.5t131.5 40q56 0 100 -26.5t64 -80.5l15 98h80l-106 -666h-81zM262 56q56 0 94 31t58 82.5t20 114.5q0 72 -35 109t-96 37q-56 0 -94 -30.5t-58 -82.5t-20 -115
q0 -71 35 -108.5t96 -37.5z" />
    <glyph glyph-name="uni051C" unicode="&#x51c;" horiz-adv-x="1101" 
d="M238 0l-135 705h81l107 -584l296 584h66l109 -590l296 590h86l-358 -705h-73l-109 579l-295 -579h-71z" />
    <glyph glyph-name="uni051D" unicode="&#x51d;" horiz-adv-x="851" 
d="M171 0l-103 486h79l76 -390l203 390h69l77 -394l203 394h85l-259 -486h-77l-77 378l-199 -378h-77z" />
    <glyph glyph-name="uni0524" unicode="&#x524;" horiz-adv-x="795" 
d="M630 -157l24 157h-107l101 634h-416l-101 -634h-82l112 705h581l-102 -636h101l-37 -226h-74z" />
    <glyph glyph-name="uni0525" unicode="&#x525;" horiz-adv-x="608" 
d="M451 -130l21 130h-88l67 421h-261l-67 -421h-81l77 486h423l-67 -422h77l-31 -194h-70z" />
    <glyph glyph-name="uni0526" unicode="&#x526;" horiz-adv-x="714" 
d="M579 -157l25 157h-107l24 148q19 115 -21 168.5t-139 53.5q-44 0 -90.5 -9t-86.5 -30l-53 -331h-82l112 705h82l-47 -298q34 18 82 27t95 9q131 0 192 -74.5t38 -216.5l-13 -83h101l-37 -226h-75z" />
    <glyph glyph-name="uni0527" unicode="&#x527;" horiz-adv-x="588" 
d="M42 0l112 705h81l-47 -298q27 42 71 65t101 23q81 0 122 -49t25 -152l-36 -230h77l-31 -194h-70l21 130h-88l46 294q22 135 -90 135q-73 0 -116 -45t-55 -120l-42 -264h-81z" />
    <glyph glyph-name="uni0528" unicode="&#x528;" horiz-adv-x="761" 
d="M-103 -193l-5 63l44 4q93 8 110 111l115 720h82l-50 -312h422l50 312h82l-112 -705h-82l51 322h-422l-53 -332q-13 -88 -59 -131t-129 -49z" />
    <glyph glyph-name="uni0529" unicode="&#x529;" horiz-adv-x="587" 
d="M-109 -193l-5 63l44 4q93 8 109 111l79 501h81l-32 -202h265l32 202h81l-77 -486h-81l34 218h-264l-36 -228q-14 -88 -59 -131t-127 -49z" />
    <glyph glyph-name="uni052E" unicode="&#x52e;" horiz-adv-x="780" 
d="M615 -157l25 157h-108l101 634h-308l-29 -179q-18 -112 -42.5 -190.5t-58 -132t-76.5 -88.5t-98 -59l-33 66q41 20 76 46.5t64.5 71.5t53 119t41.5 187l37 230h467l-102 -636h101l-36 -226h-75z" />
    <glyph glyph-name="uni052F" unicode="&#x52f;" horiz-adv-x="599" 
d="M13 -11l-21 65q49 18 80 51.5t51.5 95t36.5 161.5l19 124h353l-67 -422h76l-31 -194h-70l21 130h-87l67 421h-196l-10 -64q-15 -92 -32.5 -155.5t-43 -105.5t-61 -67.5t-85.5 -39.5z" />
    <glyph glyph-name="uni1E08" unicode="&#x1e08;" horiz-adv-x="673" 
d="M381 -9q-90 0 -158 34.5t-107 104.5t-39 177q0 87 25 161t72.5 129t115 86t152.5 31q73 0 133 -24t98 -66l-37 -66q-41 41 -89 61t-108 20q-86 0 -147 -43t-94 -117.5t-33 -169.5q0 -130 59 -186.5t164 -56.5q55 0 101.5 18.5t95.5 60.5l30 -66q-46 -43 -106.5 -65.5
t-127.5 -22.5zM347 -192q-56 0 -88 19l17 44q18 -8 34 -12t39 -4q27 0 44.5 10t17.5 29q0 26 -35 26q-10 0 -21 -2t-27 -7l-15 16l30 93h51l-21 -63q10 1 18 1q34 0 55 -16.5t21 -46.5q0 -39 -34 -63t-86 -24zM416 765l131 172h92l-161 -172h-62z" />
    <glyph glyph-name="uni1E09" unicode="&#x1e09;" horiz-adv-x="463" 
d="M258 -9q-108 0 -160.5 60t-52.5 156q0 54 15 105t47 92.5t81 66t117 24.5q48 0 92 -16t70 -43l-29 -58q-51 51 -130 51q-65 0 -104.5 -32.5t-57.5 -83.5t-18 -105q0 -68 32.5 -109.5t107.5 -41.5q30 0 64 12.5t63 38.5l24 -60q-29 -27 -73.5 -42t-87.5 -15zM219 -192
q-56 0 -88 19l17 44q18 -8 34 -12t39 -4q27 0 44.5 10t17.5 29q0 26 -35 26q-10 0 -21 -2t-27 -7l-15 16l30 93h51l-21 -63q10 1 18 1q34 0 55 -16.5t21 -46.5q0 -39 -34 -63t-86 -24zM285 551l134 202h88l-163 -202h-59z" />
    <glyph glyph-name="uni1E0C" unicode="&#x1e0c;" horiz-adv-x="742" 
d="M49 0l112 705h207q160 0 246.5 -77.5t87.5 -217.5q0 -85 -24 -159t-73 -130.5t-124 -88.5t-179 -32h-253zM142 70h162q84 0 143 26.5t96 73.5t54.5 108.5t17.5 130.5q0 110 -62.5 168t-185.5 58h-135zM259 -187l14 88h91l-14 -88h-91z" />
    <glyph glyph-name="uni1E0D" unicode="&#x1e0d;" horiz-adv-x="583" 
d="M231 -9q-84 0 -135.5 56t-51.5 152q0 81 28.5 148.5t83 107.5t131.5 40q55 0 99 -25.5t64 -78.5l49 314h81l-112 -705h-79l13 81q-28 -42 -71.5 -66t-99.5 -24zM257 56q56 0 94 31t58 82.5t20 114.5q0 72 -35 109t-96 37q-56 0 -94 -30.5t-58 -82.5t-20 -115
q0 -71 35 -108.5t96 -37.5zM183 -187l14 88h91l-14 -88h-91z" />
    <glyph glyph-name="uni1E0E" unicode="&#x1e0e;" horiz-adv-x="742" 
d="M49 0l112 705h207q160 0 246.5 -77.5t87.5 -217.5q0 -85 -24 -159t-73 -130.5t-124 -88.5t-179 -32h-253zM142 70h162q84 0 143 26.5t96 73.5t54.5 108.5t17.5 130.5q0 110 -62.5 168t-185.5 58h-135zM162 -156l8 55h297l-9 -55h-296z" />
    <glyph glyph-name="uni1E0F" unicode="&#x1e0f;" horiz-adv-x="583" 
d="M231 -9q-84 0 -135.5 56t-51.5 152q0 81 28.5 148.5t83 107.5t131.5 40q55 0 99 -25.5t64 -78.5l49 314h81l-112 -705h-79l13 81q-28 -42 -71.5 -66t-99.5 -24zM257 56q56 0 94 31t58 82.5t20 114.5q0 72 -35 109t-96 37q-56 0 -94 -30.5t-58 -82.5t-20 -115
q0 -71 35 -108.5t96 -37.5zM86 -156l8 55h297l-9 -55h-296z" />
    <glyph glyph-name="uni1E14" unicode="&#x1e14;" horiz-adv-x="583" 
d="M49 0l112 705h445l-11 -69h-365l-39 -244h345l-11 -69h-345l-41 -254h365l-10 -69h-445zM398 882l-102 141h84l74 -141h-56zM263 790l9 55h296l-8 -55h-297z" />
    <glyph glyph-name="uni1E15" unicode="&#x1e15;" horiz-adv-x="532" 
d="M270 -9q-104 0 -165 57.5t-61 157.5q0 79 32 144.5t90 105t138 39.5q76 0 120.5 -35t60.5 -91.5t7 -121.5l-3 -21h-366q-7 -78 33 -124t118 -46q46 0 85.5 13.5t72.5 42.5l27 -55q-34 -32 -85 -49t-104 -17zM303 435q-53 0 -88 -22.5t-55.5 -58.5t-28.5 -75h296
q6 66 -22.5 111t-101.5 45zM309 663l-102 142h84l74 -142h-56zM175 571l8 55h297l-9 -55h-296z" />
    <glyph glyph-name="uni1E16" unicode="&#x1e16;" horiz-adv-x="583" 
d="M49 0l112 705h445l-11 -69h-365l-39 -244h345l-11 -69h-345l-41 -254h365l-10 -69h-445zM398 882l99 141h85l-128 -141h-56zM263 790l9 55h296l-8 -55h-297z" />
    <glyph glyph-name="uni1E17" unicode="&#x1e17;" horiz-adv-x="532" 
d="M270 -9q-104 0 -165 57.5t-61 157.5q0 79 32 144.5t90 105t138 39.5q76 0 120.5 -35t60.5 -91.5t7 -121.5l-3 -21h-366q-7 -78 33 -124t118 -46q46 0 85.5 13.5t72.5 42.5l27 -55q-34 -32 -85 -49t-104 -17zM303 435q-53 0 -88 -22.5t-55.5 -58.5t-28.5 -75h296
q6 66 -22.5 111t-101.5 45zM309 663l99 142h86l-129 -142h-56zM175 571l8 55h297l-9 -55h-296z" />
    <glyph glyph-name="uni1E1C" unicode="&#x1e1c;" horiz-adv-x="583" 
d="M49 0l112 705h445l-11 -69h-365l-39 -244h345l-11 -69h-345l-41 -254h365l-10 -69h-445zM272 -192q-56 0 -88 19l17 44q18 -8 34 -12t39 -4q27 0 44.5 10t17.5 29q0 26 -35 26q-10 0 -21 -2t-27 -7l-15 16l30 93h51l-21 -63q10 1 18 1q34 0 55 -16.5t21 -46.5
q0 -39 -34 -63t-86 -24zM411 760q-70 0 -113.5 45.5t-41.5 122.5l51 7q-2 -58 27.5 -89.5t80.5 -31.5t85 31.5t43 89.5l51 -7q-13 -78 -63 -123t-120 -45z" />
    <glyph glyph-name="uni1E1D" unicode="&#x1e1d;" horiz-adv-x="532" 
d="M270 -9q-104 0 -165 57.5t-61 157.5q0 79 32 144.5t90 105t138 39.5q76 0 120.5 -35t60.5 -91.5t7 -121.5l-3 -21h-366q-7 -78 33 -124t118 -46q46 0 85.5 13.5t72.5 42.5l27 -55q-34 -32 -85 -49t-104 -17zM303 435q-53 0 -88 -22.5t-55.5 -58.5t-28.5 -75h296
q6 66 -22.5 111t-101.5 45zM230 -192q-56 0 -88 19l17 44q18 -8 34 -12t39 -4q27 0 44.5 10t17.5 29q0 26 -35 26q-10 0 -21 -2t-27 -7l-15 16l30 93h51l-21 -63q10 1 18 1q34 0 55 -16.5t21 -46.5q0 -39 -34 -63t-86 -24zM331 549q-67 0 -106 51t-34 139l51 5
q-3 -67 21.5 -103.5t70.5 -36.5t76 36.5t39 103.5l51 -5q-12 -89 -56.5 -139.5t-112.5 -50.5z" />
    <glyph glyph-name="uni1E20" unicode="&#x1e20;" horiz-adv-x="726" 
d="M391 -9q-147 0 -231 78t-84 227q0 124 44.5 218t127.5 147t198 53q76 0 137 -24t99 -64l-38 -66q-42 40 -91 60t-112 20q-87 0 -149 -43t-95.5 -120t-33.5 -179q0 -119 60.5 -176.5t176.5 -57.5q43 0 79.5 7t70.5 18l34 213h-178l9 65h251l-53 -333q-41 -19 -101.5 -31
t-120.5 -12zM295 814l8 55h326l-8 -55h-326z" />
    <glyph glyph-name="uni1E21" unicode="&#x1e21;" horiz-adv-x="586" 
d="M248 -189q-68 0 -122 19.5t-96 51.5l28 60q44 -31 85 -48.5t96 -17.5q64 0 104 32.5t51 100.5l15 92q-27 -42 -71 -66t-100 -24q-88 0 -141 54t-53 145q0 75 29 140t84 105t133 40q56 0 100 -25.5t64 -77.5l15 94h79l-75 -473q-32 -202 -225 -202zM259 77q56 0 95 30
t59 79.5t20 107.5q0 64 -35 100t-98 36q-57 0 -95.5 -30.5t-58 -79.5t-20.5 -106q0 -66 35 -101.5t98 -35.5zM205 625l8 55h297l-9 -55h-296z" />
    <glyph glyph-name="uni1E24" unicode="&#x1e24;" horiz-adv-x="761" 
d="M49 0l112 705h82l-50 -312h422l50 312h82l-112 -705h-82l51 322h-422l-51 -322h-82zM273 -187l14 88h91l-14 -88h-91z" />
    <glyph glyph-name="uni1E25" unicode="&#x1e25;" horiz-adv-x="568" 
d="M37 0l112 705h81l-47 -298q27 42 71 65t101 23q81 0 122.5 -49t24.5 -152l-46 -294h-81l46 294q22 135 -90 135q-73 0 -116 -45t-55 -120l-42 -264h-81zM177 -187l14 88h91l-14 -88h-91z" />
    <glyph glyph-name="uni1E2A" unicode="&#x1e2a;" horiz-adv-x="761" 
d="M49 0l112 705h82l-50 -312h422l50 312h82l-112 -705h-82l51 322h-422l-51 -322h-82zM327 -215q-67 0 -107 40t-36 110l51 5q-3 -48 22.5 -74.5t71.5 -26.5t75.5 26.5t37.5 74.5l51 -5q-10 -70 -54 -110t-112 -40z" />
    </font>
</defs>
</svg>
