<?xml version="1.0" standalone="no"?>
<!DOCTYPE svg PUBLIC "-//W3C//DTD SVG 1.1//EN" "http://www.w3.org/Graphics/SVG/1.1/DTD/svg11.dtd" >
<svg xmlns="http://www.w3.org/2000/svg" xmlns:xlink="http://www.w3.org/1999/xlink" version="1.1">
<metadata>
Created by FontForge 20170731 at Mon Jun 29 15:02:17 2020
 By Aleksey,,,
Copyright 2016 The Nunito Sans Project Authors (https://github.com/Fonthausen/NunitoSans)
</metadata>
<defs>
<font id="NunitoSans-LightItalic" horiz-adv-x="0" >
  <font-face 
    font-family="Nunito Sans Light"
    font-weight="300"
    font-style="italic"
    font-stretch="normal"
    units-per-em="1000"
    panose-1="0 0 0 0 0 0 0 0 0 0"
    ascent="800"
    descent="-200"
    x-height="485"
    cap-height="705"
    bbox="-294 -270 1337 1039"
    underline-thickness="32"
    underline-position="-129"
    slope="-9"
    unicode-range="U+000D-FB02"
  />
<missing-glyph horiz-adv-x="500" 
d="M50 -180v885h400v-885h-400zM100 -130h300v785h-300v-785z" />
    <glyph glyph-name="fi" unicode="fi" horiz-adv-x="534" 
d="M65 0l70 436h-96l8 49h95l7 43q12 80 63 126.5t138 50.5l45 3l1 -50l-46 -3q-63 -4 -97 -36t-44 -94l-6 -40h289l-77 -485h-61l69 436h-227l-70 -436h-61zM442 613l13 77h80l-12 -77h-81z" />
    <glyph glyph-name="fl" unicode="fl" horiz-adv-x="604" 
d="M65 0l70 436h-96l8 49h95l7 43q12 80 63 127t138 50l46 3l1 -50l-47 -3q-63 -4 -97 -36t-44 -94l-6 -40h144l-8 -49h-143l-70 -436h-61zM501 -8q-67 0 -98 40t-18 119l87 554h61l-87 -554q-9 -57 8.5 -81.5t62.5 -24.5q23 0 48 6l-10 -52q-12 -4 -27 -5.5t-27 -1.5z" />
    <glyph glyph-name=".notdef" horiz-adv-x="500" 
d="M50 -180v885h400v-885h-400zM100 -130h300v785h-300v-785z" />
    <glyph glyph-name=".null" 
 />
    <glyph glyph-name="nonmarkingreturn" horiz-adv-x="333" 
 />
    <glyph glyph-name="NULL" 
 />
    <glyph glyph-name="NULL" 
 />
    <glyph glyph-name="CR" unicode="&#xd;" horiz-adv-x="251" 
 />
    <glyph glyph-name="space" unicode=" " horiz-adv-x="251" 
 />
    <glyph glyph-name="exclam" unicode="!" horiz-adv-x="219" 
d="M80 174l65 531h77l-104 -531h-38zM29 0l14 86h85l-14 -86h-85z" />
    <glyph glyph-name="quotedbl" unicode="&#x22;" horiz-adv-x="366" 
d="M116 434l26 271h73l-58 -271h-41zM271 434l26 271h73l-58 -271h-41z" />
    <glyph glyph-name="numbersign" unicode="#" horiz-adv-x="600" 
d="M52 0l67 187h-97l8 49h106l85 241h-133l7 50h143l63 178h52l-62 -178h174l62 178h53l-62 -178h96l-8 -50h-106l-85 -241h133l-7 -49h-143l-67 -187h-53l67 187h-174l-66 -187h-53zM188 236h174l86 241h-175z" />
    <glyph glyph-name="dollar" unicode="$" horiz-adv-x="600" 
d="M226 -115l18 112q-64 4 -118.5 24t-97.5 61l28 50q53 -46 106.5 -63t125.5 -17q51 0 92.5 15t66 44.5t24.5 72.5q0 49 -30 78.5t-110 50.5l-85 23q-69 18 -110 58t-41 118q0 64 35 108.5t94.5 67t132.5 22.5l17 110h54l-19 -115q49 -8 94 -30.5t79 -59.5l-28 -48
q-44 48 -95.5 67t-107.5 19q-88 0 -140.5 -35.5t-52.5 -102.5q0 -57 27 -83.5t80 -40.5l85 -23q98 -27 141 -69t43 -109q0 -60 -32 -102.5t-86 -66t-119 -25.5l-17 -111h-54z" />
    <glyph glyph-name="percent" unicode="%" horiz-adv-x="923" 
d="M235 -24l-42 31l529 721l42 -30zM239 282q-66 0 -104 42.5t-38 117.5q0 74 23 135.5t68.5 98.5t111.5 37t104 -43t38 -118q0 -74 -23 -135.5t-68.5 -98t-111.5 -36.5zM239 329q49 0 81 29.5t48.5 79t17.5 109.5q3 62 -22 90.5t-64 28.5q-49 0 -81 -29.5t-48.5 -79
t-18.5 -110.5q-2 -62 23 -90t64 -28zM658 -8q-67 0 -105 42.5t-38 117.5q0 74 23.5 135.5t68.5 98.5t111 37t104 -43t38 -118q0 -74 -23 -135.5t-68 -98t-111 -36.5zM657 39q49 0 81 29t48.5 79t18.5 110q2 62 -23 90.5t-64 28.5q-48 0 -80.5 -29.5t-49 -79.5t-17.5 -110
q-2 -62 22.5 -90t63.5 -28z" />
    <glyph glyph-name="ampersand" unicode="&#x26;" horiz-adv-x="678" 
d="M247 -8q-90 0 -143.5 41t-53.5 112q0 56 29 101t72 79.5t85 58.5l23 12q-32 44 -46 81t-14 68q0 76 49.5 122t130.5 46q62 0 98.5 -34.5t36.5 -89.5q0 -47 -22 -81.5t-61.5 -64.5t-90.5 -60l145 -202q29 41 51.5 101t34.5 126h56q-29 -163 -108 -271l101 -137h-71l-67 94
q-44 -49 -103 -75.5t-132 -26.5zM376 663q-53 0 -85.5 -32.5t-32.5 -79.5q0 -32 11 -59t42 -69q55 33 87.5 59t46.5 50.5t14 52.5q0 35 -22.5 56.5t-60.5 21.5zM249 44q64 0 113.5 23t87.5 68l-162 221l-21 -13q-69 -40 -112.5 -85t-43.5 -107q0 -107 138 -107z" />
    <glyph glyph-name="quotesingle" unicode="'" horiz-adv-x="211" 
d="M116 434l26 271h73l-58 -271h-41z" />
    <glyph glyph-name="parenleft" unicode="(" horiz-adv-x="298" 
d="M147 -191q-22 76 -34 151.5t-12 149.5q0 116 23.5 226t66.5 207t99 174l45 -22q-78 -130 -124 -277.5t-46 -317.5q0 -65 7.5 -133.5t22.5 -140.5z" />
    <glyph glyph-name="parenright" unicode=")" horiz-adv-x="298" 
d="M14 -191l-45 22q78 130 124 277.5t46 317.5q0 66 -7.5 134t-21.5 140l47 17q23 -76 35 -151.5t12 -149.5q0 -116 -24 -226t-66.5 -207t-99.5 -174z" />
    <glyph glyph-name="asterisk" unicode="*" horiz-adv-x="449" 
d="M197 360l-43 26l81 131l-154 -5v50l155 -5l-82 132l43 25l74 -138l73 138l43 -25l-81 -132l155 5v-50l-154 5l80 -131l-43 -25l-73 137z" />
    <glyph glyph-name="plus" unicode="+" horiz-adv-x="600" 
d="M242 40l35 222h-218l8 50h218l34 216h52l-34 -216h218l-8 -50h-218l-35 -222h-52z" />
    <glyph glyph-name="comma" unicode="," horiz-adv-x="219" 
d="M50 -106l-28 29q24 23 33.5 40.5t13.5 36.5h-40l13 86h86l-12 -71q-6 -36 -19 -64.5t-47 -56.5z" />
    <glyph glyph-name="hyphen" unicode="-" horiz-adv-x="420" 
d="M74 240l8 52h272l-8 -52h-272z" />
    <glyph glyph-name="period" unicode="." horiz-adv-x="219" 
d="M29 0l13 86h86l-14 -86h-85z" />
    <glyph glyph-name="slash" unicode="/" horiz-adv-x="269" 
d="M-16 -61l-46 23l377 787l47 -23z" />
    <glyph glyph-name="zero" unicode="0" horiz-adv-x="600" 
d="M289 -8q-107 0 -162.5 65.5t-55.5 190.5q0 144 34 248.5t96 160.5t146 56q107 0 162 -65.5t55 -189.5q0 -145 -34 -249.5t-95.5 -160.5t-145.5 -56zM292 47q97 0 152.5 110.5t55.5 318.5q1 182 -157 182q-96 0 -152 -110.5t-56 -318.5q0 -182 157 -182z" />
    <glyph glyph-name="one" unicode="1" horiz-adv-x="600" 
d="M93 0l9 54h161l90 569l-138 -81l-22 49l191 114h44l-103 -651h151l-9 -54h-374z" />
    <glyph glyph-name="two" unicode="2" horiz-adv-x="600" 
d="M61 0l7 46l283 265q59 55 99 112.5t40 122.5q0 52 -35 81.5t-100 29.5q-54 0 -104 -22.5t-97 -62.5l-24 50q47 43 106 67t126 24q88 0 139.5 -45t51.5 -116q0 -56 -22.5 -104.5t-60 -92.5t-84.5 -87l-232 -214h351l-8 -54h-436z" />
    <glyph glyph-name="three" unicode="3" horiz-adv-x="600" 
d="M278 -8q-63 0 -127 18.5t-113 68.5l29 47q52 -47 102 -62.5t109 -15.5q48 0 87 19t61.5 54.5t22.5 84.5q0 56 -38.5 90.5t-108.5 34.5h-97l9 54h93q49 0 89 19t64 53.5t24 82.5q0 53 -36.5 85t-96.5 32q-53 0 -105.5 -20t-97.5 -63l-23 49q44 44 105.5 67t125.5 23
q59 0 101.5 -22t65.5 -60t23 -86q1 -68 -40 -118t-106 -69q55 -18 83 -59t28 -95q0 -63 -31 -111t-84 -74.5t-118 -26.5z" />
    <glyph glyph-name="four" unicode="4" horiz-adv-x="600" 
d="M351 0l26 159h-334l7 47l423 499h51l-78 -492h108l-8 -54h-108l-25 -159h-62zM385 213l61 383l-326 -383h265z" />
    <glyph glyph-name="five" unicode="5" horiz-adv-x="600" 
d="M290 -8q-59 0 -118.5 18.5t-105.5 68.5l28 47q50 -47 95.5 -62.5t100.5 -15.5q52 0 94.5 24t67.5 66.5t25 95.5q0 65 -37.5 106.5t-102.5 41.5q-55 0 -98 -24.5t-79 -67.5h-48l66 415h397l-8 -54h-337l-44 -278q33 31 76 48t88 17q50 0 93.5 -21.5t70 -66t26.5 -111.5
q0 -74 -34.5 -129.5t-91 -86.5t-124.5 -31z" />
    <glyph glyph-name="six" unicode="6" horiz-adv-x="600" 
d="M305 -8q-69 0 -119.5 31t-78 89t-27.5 138q0 94 20 178t60 148t99.5 100.5t138.5 36.5q55 0 107.5 -24t88.5 -67l-29 -47q-37 42 -80.5 62t-91.5 20q-72 0 -126.5 -44t-87.5 -125t-39 -192q25 67 82 104t123 37q57 0 101 -26t69.5 -70.5t25.5 -100.5q0 -70 -31 -126.5
t-84.5 -89t-120.5 -32.5zM301 47q54 0 94 25.5t62 68.5t22 96q0 64 -42 104.5t-105 40.5q-53 0 -93 -25.5t-62.5 -68.5t-22.5 -96q0 -64 42 -104.5t105 -40.5z" />
    <glyph glyph-name="seven" unicode="7" horiz-adv-x="600" 
d="M85 0l432 650h-380l9 55h453l-7 -46l-435 -659h-72z" />
    <glyph glyph-name="eight" unicode="8" horiz-adv-x="600" 
d="M268 -8q-66 0 -117 20t-80 57.5t-29 88.5q0 52 21.5 95.5t59 72.5t86.5 37q-47 16 -72.5 54t-25.5 90q0 66 33 112t90.5 70t131.5 24q61 0 108.5 -20.5t74.5 -57.5t27 -87q0 -70 -42 -122t-106 -69q51 -14 81.5 -52.5t30.5 -95.5q0 -70 -35 -118.5t-96.5 -73.5
t-140.5 -25zM322 384q84 0 138.5 42.5t54.5 116.5q0 56 -41 86t-110 30q-90 0 -141 -39.5t-51 -116.5q0 -57 40.5 -88t109.5 -31zM271 45q96 0 152 42t56 126q0 59 -45.5 88t-119.5 29q-97 0 -154 -41.5t-57 -123.5q0 -60 46 -90t122 -30z" />
    <glyph glyph-name="nine" unicode="9" horiz-adv-x="600" 
d="M239 -8q-55 0 -108.5 24t-89.5 67l29 47q37 -42 80.5 -62t92.5 -20q71 0 125.5 44t87 125t39.5 192q-25 -66 -82 -103.5t-123 -37.5q-57 0 -101 26t-69.5 70.5t-25.5 100.5q0 71 31 127t84.5 88.5t120.5 32.5q103 0 164 -69t61 -188q0 -93 -20 -176.5t-59 -148.5
t-98.5 -102t-138.5 -37zM303 323q53 0 93 25.5t62.5 69t22.5 95.5q0 65 -42 105.5t-105 40.5q-54 0 -94 -26t-62 -69t-22 -96q0 -64 42 -104.5t105 -40.5z" />
    <glyph glyph-name="colon" unicode=":" horiz-adv-x="219" 
d="M93 400l13 85h85l-13 -85h-85zM29 0l14 86h85l-14 -86h-85z" />
    <glyph glyph-name="semicolon" unicode=";" horiz-adv-x="219" 
d="M92 400l13 85h86l-14 -85h-85zM49 -106l-28 29q24 23 33.5 40.5t13.5 36.5h-40l14 86h85l-11 -71q-6 -36 -19.5 -64.5t-47.5 -56.5z" />
    <glyph glyph-name="less" unicode="&#x3c;" horiz-adv-x="600" 
d="M511 36l-452 226l8 50l523 226l-9 -59l-454 -195l393 -195z" />
    <glyph glyph-name="equal" unicode="=" horiz-adv-x="600" 
d="M74 362l8 50h488l-8 -50h-488zM43 163l8 49h488l-8 -49h-488z" />
    <glyph glyph-name="greater" unicode="&#x3e;" horiz-adv-x="600" 
d="M23 36l9 59l455 195l-394 195l9 53l453 -226l-8 -50z" />
    <glyph glyph-name="question" unicode="?" horiz-adv-x="436" 
d="M169 173l3 25q5 36 16 66.5t34.5 62t67.5 72.5q20 18 44.5 41.5t42 53t17.5 67.5q0 41 -26.5 68.5t-83.5 27.5q-54 0 -104 -22t-92 -61l-25 49q45 45 105.5 67.5t120.5 22.5q55 0 92.5 -20t56.5 -53t19 -73q0 -43 -20.5 -80.5t-50 -68.5t-58.5 -55q-60 -49 -82 -89
t-31 -78l-6 -23h-40zM119 0l14 86h84l-14 -86h-84z" />
    <glyph glyph-name="at" unicode="@" horiz-adv-x="945" 
d="M495 -163q-127 0 -221.5 53.5t-146.5 152t-52 232.5q0 97 31.5 177.5t89 139t136.5 90t175 31.5q114 0 200.5 -46t135 -129t48.5 -193q0 -87 -23.5 -151t-66 -99.5t-99.5 -35.5q-48 0 -77 24t-34 66q-27 -43 -68 -66.5t-84 -23.5q-76 0 -118 47.5t-42 131.5
q0 74 28.5 131.5t77.5 91t111 33.5q49 0 82 -22t47 -61l13 74h54l-46 -267q-3 -13 -4 -24t-1 -20q0 -70 65 -70q41 0 72 30t48 84.5t17 126.5q0 96 -42.5 168t-118.5 112.5t-176 40.5q-113 0 -198.5 -49t-133 -137t-47.5 -205q0 -122 45 -209.5t127.5 -134t195.5 -46.5
q83 0 150.5 27t109.5 75l30 -39q-48 -54 -123.5 -82.5t-166.5 -28.5zM444 107q47 0 84.5 28.5t59 78t21.5 112.5q0 119 -110 119q-47 0 -84 -26.5t-59 -73.5t-22 -106q0 -64 28.5 -98t81.5 -34z" />
    <glyph glyph-name="A" unicode="A" horiz-adv-x="722" 
d="M-11 0l419 705h55l194 -705h-60l-51 188h-378l-110 -188h-69zM426 629l-226 -388h331l-103 388h-2z" />
    <glyph glyph-name="B" unicode="B" horiz-adv-x="671" 
d="M53 0l112 705h257q107 0 159 -44.5t52 -120.5q0 -71 -39.5 -118.5t-106.5 -65.5q51 -17 80.5 -55.5t29.5 -92.5q0 -103 -63.5 -155.5t-181.5 -52.5h-299zM175 383h214q84 0 133 39.5t49 113.5q0 117 -156 117h-197zM123 52h231q181 0 181 157q0 60 -40 91t-115 31h-213z
" />
    <glyph glyph-name="C" unicode="C" horiz-adv-x="670" 
d="M376 -8q-88 0 -154.5 33.5t-104 103t-37.5 177.5q0 87 25 161t71.5 129.5t112.5 86t149 30.5q73 0 132 -24.5t98 -67.5l-31 -50q-41 43 -89.5 64t-112.5 21q-90 0 -154.5 -45.5t-99.5 -124t-35 -180.5q0 -138 63 -197.5t171 -59.5q58 0 105.5 20t96.5 64l27 -50
q-95 -91 -233 -91z" />
    <glyph glyph-name="D" unicode="D" horiz-adv-x="733" 
d="M53 0l112 705h199q156 0 241 -76.5t85 -215.5q0 -85 -23 -159.5t-71.5 -131.5t-123.5 -89.5t-179 -32.5h-240zM124 54h171q90 0 152.5 28.5t102 78.5t57.5 114.5t18 137.5q0 115 -66 176.5t-196 61.5h-144z" />
    <glyph glyph-name="E" unicode="E" horiz-adv-x="576" 
d="M54 0l111 705h435l-9 -53h-373l-43 -268h354l-9 -53h-354l-44 -278h374l-8 -53h-434z" />
    <glyph glyph-name="F" unicode="F" horiz-adv-x="542" 
d="M54 0l111 705h425l-8 -53h-363l-43 -269h343l-8 -53h-343l-53 -330h-61z" />
    <glyph glyph-name="G" unicode="G" horiz-adv-x="722" 
d="M387 -8q-146 0 -227 77t-81 223q0 126 44 221t124.5 147.5t191.5 52.5q76 0 136 -24t99 -67l-31 -50q-42 43 -92 63.5t-116 20.5q-90 0 -155 -44.5t-100 -126t-35 -192.5q0 -124 63 -184.5t185 -60.5q47 0 87 8t75 20l37 233h-186l8 52h242l-52 -328q-39 -18 -98 -29.5
t-119 -11.5z" />
    <glyph glyph-name="H" unicode="H" horiz-adv-x="756" 
d="M53 0l112 705h62l-51 -320h449l51 320h61l-112 -705h-61l52 330h-448l-53 -330h-62z" />
    <glyph glyph-name="I" unicode="I" horiz-adv-x="245" 
d="M53 0l112 705h62l-112 -705h-62z" />
    <glyph glyph-name="J" unicode="J" horiz-adv-x="310" 
d="M-42 -7v54l55 4q114 8 135 141l82 513h61l-83 -524q-13 -84 -60 -131.5t-134 -52.5z" />
    <glyph glyph-name="K" unicode="K" horiz-adv-x="607" 
d="M53 0l112 705h62l-51 -324h2l405 324h86l-435 -350l344 -355h-78l-329 336h-2l-54 -336h-62z" />
    <glyph glyph-name="L" unicode="L" horiz-adv-x="535" 
d="M53 0l112 705h62l-103 -650h367l-9 -55h-429z" />
    <glyph glyph-name="M" unicode="M" horiz-adv-x="849" 
d="M55 0l112 705h52l193 -532l365 532h53l-112 -705h-57l92 585l-326 -476h-44l-177 483l-94 -592h-57z" />
    <glyph glyph-name="N" unicode="N" horiz-adv-x="735" 
d="M53 0l112 705h49l349 -608l96 608h58l-112 -705h-48l-350 609l-96 -609h-58z" />
    <glyph glyph-name="O" unicode="O" horiz-adv-x="759" 
d="M362 -8q-129 0 -206 77t-77 222q0 90 23 166.5t67.5 134t110.5 89.5t151 32q130 0 207 -77t77 -222q0 -89 -23 -166t-68 -134.5t-110.5 -89.5t-151.5 -32zM364 48q93 0 156.5 48t96 131t32.5 186q0 124 -58.5 184t-162.5 60q-91 0 -154.5 -48t-96 -130.5t-32.5 -186.5
q0 -124 58.5 -184t160.5 -60z" />
    <glyph glyph-name="P" unicode="P" horiz-adv-x="624" 
d="M53 0l112 705h246q104 0 162 -46.5t58 -140.5q0 -104 -66 -166.5t-191 -62.5h-213l-46 -289h-62zM170 343h208q93 0 141.5 44t48.5 128q0 71 -40.5 104t-120.5 33h-188z" />
    <glyph glyph-name="Q" unicode="Q" horiz-adv-x="759" 
d="M523 -195l-57 124q-29 63 -114 63v0q-125 3 -199 80t-74 219q0 90 23 166.5t67.5 134t110.5 89.5t151 32q130 0 207 -77t77 -222q0 -100 -29 -184.5t-85 -143t-137 -81.5q18 -8 33 -24.5t28 -44.5l51 -110zM364 48q93 0 156.5 48t96 131t32.5 186q0 124 -58.5 184
t-162.5 60q-91 0 -154.5 -48t-96 -130.5t-32.5 -186.5q0 -124 58.5 -184t160.5 -60z" />
    <glyph glyph-name="R" unicode="R" horiz-adv-x="661" 
d="M53 0l112 705h241q113 0 169 -50.5t56 -136.5q0 -91 -54.5 -143t-141.5 -63q23 -11 40 -32.5t29 -53.5l86 -226h-62l-83 220q-18 47 -46 66t-83 19h-153l-48 -305h-62zM172 357h214q86 0 134 41t48 117q0 68 -40 102.5t-126 34.5h-183z" />
    <glyph glyph-name="S" unicode="S" horiz-adv-x="607" 
d="M296 -8q-77 0 -146 19.5t-119 66.5l28 48q54 -46 111.5 -62t129.5 -16q86 0 139 36.5t53 100.5q0 44 -31 75t-111 49l-101 25q-69 16 -110.5 56t-41.5 118q0 62 34.5 108t93 71.5t129.5 25.5q67 0 131.5 -21.5t109.5 -68.5l-29 -49q-45 45 -100 64t-114 19q-55 0 -98 -18
t-68.5 -51t-25.5 -78q0 -57 27.5 -83t80.5 -39l102 -24q96 -22 140.5 -65.5t44.5 -106.5q0 -65 -34.5 -109.5t-93.5 -67.5t-131 -23z" />
    <glyph glyph-name="T" unicode="T" horiz-adv-x="594" 
d="M227 0l104 650h-263l8 55h588l-9 -55h-263l-103 -650h-62z" />
    <glyph glyph-name="U" unicode="U" horiz-adv-x="724" 
d="M333 -8q-134 0 -198 75t-41 225l66 413h61l-66 -419q-38 -238 180 -238q105 0 165.5 53t79.5 171l69 433h61l-69 -440q-22 -136 -97 -204.5t-211 -68.5z" />
    <glyph glyph-name="V" unicode="V" horiz-adv-x="678" 
d="M269 0l-192 705h62l170 -627l368 627h70l-418 -705h-60z" />
    <glyph glyph-name="W" unicode="W" horiz-adv-x="1096" 
d="M240 0l-133 705h61l113 -613l310 613h52l115 -619l311 619h66l-357 -705h-58l-114 611l-310 -611h-56z" />
    <glyph glyph-name="X" unicode="X" horiz-adv-x="640" 
d="M-21 0l325 364l-198 341h67l172 -299l262 299h77l-307 -347l208 -358h-68l-182 316l-279 -316h-77z" />
    <glyph glyph-name="Y" unicode="Y" horiz-adv-x="586" 
d="M223 0l53 337l-210 368h67l179 -313l279 313h75l-328 -367l-53 -338h-62z" />
    <glyph glyph-name="Z" unicode="Z" horiz-adv-x="582" 
d="M10 0l8 46l511 604h-416l9 55h497l-7 -45l-512 -605h430l-9 -55h-511z" />
    <glyph glyph-name="bracketleft" unicode="[" horiz-adv-x="298" 
d="M44 -180l140 885h181l-8 -50h-120l-124 -785h120l-8 -50h-181z" />
    <glyph glyph-name="backslash" unicode="\" horiz-adv-x="269" 
d="M190 -61l-130 801l50 9l131 -800z" />
    <glyph glyph-name="bracketright" unicode="]" horiz-adv-x="298" 
d="M-61 -180l8 50h120l124 785h-120l8 50h181l-140 -885h-181z" />
    <glyph glyph-name="asciicircum" unicode="^" horiz-adv-x="600" 
d="M34 140l302 488h50l148 -488h-51l-129 423l-263 -423h-57z" />
    <glyph glyph-name="underscore" unicode="_" horiz-adv-x="500" 
d="M-25 -43l7 43h459l-7 -43h-459z" />
    <glyph glyph-name="grave" unicode="`" horiz-adv-x="500" 
d="M273 550l-140 201h68l119 -201h-47z" />
    <glyph glyph-name="a" unicode="a" horiz-adv-x="522" 
d="M202 -8q-41 0 -77 18t-58.5 50.5t-22.5 75.5q0 76 65.5 109t209.5 33h71l5 35q11 63 -15 96t-92 33q-90 0 -165 -52l-20 47q35 26 86.5 41.5t103.5 15.5q94 0 134 -53.5t25 -144.5l-47 -296h-58l12 78q-26 -44 -69 -65t-88 -21zM213 41q58 0 104.5 39.5t58.5 110.5l6 42
h-49q-85 0 -134 -8.5t-69.5 -29.5t-20.5 -56q0 -49 31.5 -73.5t72.5 -24.5z" />
    <glyph glyph-name="b" unicode="b" horiz-adv-x="575" 
d="M285 -8q-56 0 -101.5 27t-65.5 83l-15 -102h-61l112 705h61l-47 -300q27 41 71 65t100 24q85 0 137 -56t52 -152q0 -79 -28 -146t-82.5 -107.5t-132.5 -40.5zM281 43q60 0 101 33t62.5 88t21.5 121q0 77 -38 117t-105 40q-59 0 -100.5 -33t-62.5 -88t-21 -121
q0 -77 37.5 -117t104.5 -40z" />
    <glyph glyph-name="c" unicode="c" horiz-adv-x="459" 
d="M253 -8q-104 0 -154 59t-50 154q0 53 14.5 104.5t45 93t78.5 66.5t114 25q48 0 91 -17t69 -45l-25 -45q-53 54 -135 54q-51 0 -87 -20t-59 -54.5t-33.5 -76.5t-10.5 -85q0 -73 34.5 -117t113.5 -44q31 0 66.5 13t64.5 40l22 -47q-29 -27 -73 -42.5t-86 -15.5z" />
    <glyph glyph-name="d" unicode="d" horiz-adv-x="575" 
d="M236 -8q-85 0 -136.5 55.5t-51.5 151.5q0 79 28 146t82 108t132 41q56 0 101 -27t65 -83l51 321h61l-112 -705h-60l13 82q-28 -42 -72 -66t-101 -24zM252 43q60 0 101 33t62.5 88t21.5 121q0 77 -38 117t-105 40q-60 0 -101 -33t-62 -88t-21 -121q0 -77 37.5 -117
t104.5 -40z" />
    <glyph glyph-name="e" unicode="e" horiz-adv-x="528" 
d="M265 -8q-101 0 -159 56t-58 155q0 78 30.5 144t87 106.5t136.5 40.5q75 0 118 -35.5t58.5 -91t5.5 -117.5l-3 -20h-372q-10 -84 32 -135.5t125 -51.5q47 0 87 14t73 45l25 -43q-33 -33 -84 -50t-102 -17zM301 445q-57 0 -95 -25t-60 -64t-30 -81h318q5 47 -7 85.5
t-42.5 61.5t-83.5 23z" />
    <glyph glyph-name="f" unicode="f" horiz-adv-x="319" 
d="M65 0l70 436h-96l8 49h95l7 43q12 80 63 127t138 50l46 3l1 -50l-47 -3q-63 -4 -97 -36t-44 -94l-6 -40h144l-8 -49h-143l-70 -436h-61z" />
    <glyph glyph-name="g" unicode="g" horiz-adv-x="578" 
d="M244 -188q-65 0 -117 20t-93 52l24 47q44 -32 84.5 -50t96.5 -18q66 0 107.5 34.5t53.5 106.5l16 102q-27 -45 -72 -70t-104 -25q-87 0 -139.5 54t-52.5 144q0 74 28 139t82.5 105.5t133.5 40.5q57 0 102 -27t65 -83l16 101h60l-76 -478q-31 -195 -215 -195zM253 63
q61 0 102.5 32.5t62.5 85.5t22 114q0 70 -38 108.5t-106 38.5q-61 0 -102 -32.5t-62.5 -85t-21.5 -113.5q0 -71 37.5 -109.5t105.5 -38.5z" />
    <glyph glyph-name="h" unicode="h" horiz-adv-x="560" 
d="M42 0l112 705h61l-48 -303q28 44 72.5 68t103.5 24q81 0 122 -49t25 -150l-47 -295h-61l47 295q23 146 -98 146q-80 0 -126.5 -48.5t-59.5 -128.5l-42 -264h-61z" />
    <glyph glyph-name="i" unicode="i" horiz-adv-x="222" 
d="M129 613l13 77h81l-12 -77h-82zM41 0l78 485h61l-78 -485h-61z" />
    <glyph glyph-name="j" unicode="j" horiz-adv-x="225" 
d="M132 613l12 77h82l-13 -77h-81zM-115 -193l-3 50l42 4q100 7 118 120l80 504h61l-80 -503q-13 -83 -57 -125t-117 -47z" />
    <glyph glyph-name="k" unicode="k" horiz-adv-x="484" 
d="M42 0l111 705h61l-69 -440h2l271 220h80l-290 -239l241 -246h-76l-231 234h-2l-37 -234h-61z" />
    <glyph glyph-name="l" unicode="l" horiz-adv-x="285" 
d="M182 -8q-67 0 -98 40t-18 119l87 554h61l-87 -554q-9 -57 8.5 -81.5t62.5 -24.5q23 0 48 6l-10 -52q-12 -4 -27 -5.5t-27 -1.5z" />
    <glyph glyph-name="m" unicode="m" horiz-adv-x="847" 
d="M44 0l77 485h60l-14 -86q56 95 160 95q54 0 89 -27t46 -78q25 49 70 77t105 28q76 0 114.5 -48.5t23.5 -150.5l-47 -295h-61l47 299q22 142 -89 142q-67 0 -110.5 -47t-56.5 -130l-42 -264h-61l48 299q22 142 -89 142q-66 0 -109.5 -47t-57.5 -130l-42 -264h-61z" />
    <glyph glyph-name="n" unicode="n" horiz-adv-x="560" 
d="M42 0l77 485h60l-14 -86q28 45 73 70t105 25q81 0 122 -49t25 -150l-47 -295h-61l47 295q23 146 -98 146q-80 0 -126.5 -48.5t-59.5 -128.5l-42 -264h-61z" />
    <glyph glyph-name="o" unicode="o" horiz-adv-x="547" 
d="M250 -8q-94 0 -148 56t-54 155q0 79 29.5 145t85.5 106t134 40q93 0 147.5 -56.5t54.5 -154.5q0 -80 -30 -146t-85.5 -105.5t-133.5 -39.5zM252 43q60 0 101 33t62.5 88t21.5 121q0 77 -38 117t-105 40q-59 0 -100.5 -33t-62.5 -88t-21 -121q0 -77 37.5 -117t104.5 -40z
" />
    <glyph glyph-name="p" unicode="p" horiz-adv-x="575" 
d="M13 -180l106 665h60l-13 -83q28 43 72 67.5t101 24.5q86 0 137.5 -56t51.5 -153q0 -78 -28.5 -145t-82.5 -107.5t-132 -40.5q-56 0 -101 26.5t-65 82.5l-45 -281h-61zM281 43q60 0 101 33t62.5 88t21.5 121q0 77 -38 117t-105 40q-59 0 -100.5 -33t-62.5 -88t-21 -121
q0 -77 37.5 -117t104.5 -40z" />
    <glyph glyph-name="q" unicode="q" horiz-adv-x="575" 
d="M367 -180l41 261q-28 -42 -71.5 -65.5t-100.5 -23.5q-85 0 -136.5 55.5t-51.5 151.5q0 79 28 146t82 108t132 41q57 0 102 -27.5t65 -83.5l16 102h60l-105 -665h-61zM252 43q60 0 101 33t62.5 88t21.5 121q0 77 -38 117t-105 40q-60 0 -101 -33t-62 -88t-21 -121
q0 -77 37.5 -117t104.5 -40z" />
    <glyph glyph-name="r" unicode="r" horiz-adv-x="342" 
d="M42 0l77 485h60l-13 -80q23 37 62 61t97 28l37 3l2 -53l-44 -4q-86 -8 -124 -51.5t-49 -114.5l-43 -274h-62z" />
    <glyph glyph-name="s" unicode="s" horiz-adv-x="478" 
d="M221 -8q-57 0 -106.5 16t-79.5 44l27 44q35 -29 75.5 -41.5t86.5 -12.5q57 0 90 23t33 66q0 28 -18.5 46t-51.5 27l-95 24q-48 12 -75.5 43t-27.5 76q0 64 51.5 105.5t137.5 41.5q51 0 96 -17.5t71 -46.5l-25 -43q-55 56 -144 56q-58 0 -93 -25t-35 -69q0 -26 16 -45.5
t50 -27.5l96 -25q49 -12 78 -41t29 -74q0 -68 -51.5 -106t-134.5 -38z" />
    <glyph glyph-name="t" unicode="t" horiz-adv-x="335" 
d="M229 -8q-79 0 -116 45t-25 123l44 276h-96l8 49h95l24 150h61l-24 -150h157l-8 -49h-157l-42 -268q-10 -65 13 -94t75 -29q18 0 33 3.5t27 8.5l8 -49q-11 -6 -33.5 -11t-43.5 -5z" />
    <glyph glyph-name="u" unicode="u" horiz-adv-x="553" 
d="M215 -8q-79 0 -120 48.5t-25 150.5l47 294h61l-47 -295q-23 -146 96 -146q76 0 122 48.5t59 129.5l41 263h61l-77 -485h-59l13 85q-27 -45 -71.5 -69t-100.5 -24z" />
    <glyph glyph-name="v" unicode="v" horiz-adv-x="509" 
d="M185 0l-130 485h64l105 -418l240 418h67l-284 -485h-62z" />
    <glyph glyph-name="w" unicode="w" horiz-adv-x="835" 
d="M169 0l-98 485h60l78 -413l215 413h59l81 -416l212 416h65l-253 -485h-63l-81 407l-213 -407h-62z" />
    <glyph glyph-name="x" unicode="x" horiz-adv-x="515" 
d="M-17 0l240 251l-151 234h68l125 -195l181 195h75l-224 -238l159 -247h-69l-132 207l-197 -207h-75z" />
    <glyph glyph-name="y" unicode="y" horiz-adv-x="509" 
d="M76 -180l107 182l-129 483h63l106 -417l241 417h68l-391 -665h-65z" />
    <glyph glyph-name="z" unicode="z" horiz-adv-x="459" 
d="M19 0l7 41l347 396h-285l8 48h358l-6 -41l-347 -395h295l-8 -49h-369z" />
    <glyph glyph-name="braceleft" unicode="{" horiz-adv-x="335" 
d="M193 -180q-58 0 -81 24.5t-16 68.5l38 243q6 40 -5.5 59t-53.5 22l-23 2l7 48l25 2q41 2 59 21.5t25 59.5l38 242q16 93 104 93h92l-8 -50h-76q-44 0 -51 -46l-39 -245q-7 -47 -32.5 -71t-52.5 -30q25 -6 42 -30.5t10 -70.5l-38 -246q-7 -46 36 -46h77l-8 -50h-69z" />
    <glyph glyph-name="bar" unicode="|" horiz-adv-x="254" 
d="M30 -180l140 885h61l-140 -885h-61z" />
    <glyph glyph-name="braceright" unicode="}" horiz-adv-x="335" 
d="M-61 -180l8 50h76q44 0 51 46l39 245q7 47 32.5 71t52.5 30q-25 6 -42 30.5t-10 71.5l37 245q8 46 -35 46h-77l8 50h68q58 0 81.5 -24.5t16.5 -68.5l-38 -243q-6 -40 5.5 -59t52.5 -22l24 -1l-7 -49l-25 -2q-42 -2 -59.5 -21.5t-24.5 -59.5l-39 -242q-15 -93 -104 -93
h-91z" />
    <glyph glyph-name="asciitilde" unicode="~" horiz-adv-x="600" 
d="M423 221q-36 0 -68.5 14t-59.5 30q-28 16 -52 27.5t-47 11.5q-36 0 -58.5 -20t-39.5 -47l-39 24q26 45 56.5 69t75.5 24q35 0 69 -15t62 -31q27 -16 50 -27t46 -11q36 0 58.5 20t39.5 47l39 -24q-27 -45 -57 -68.5t-75 -23.5z" />
    <glyph glyph-name="uni00A0" unicode="&#xa0;" horiz-adv-x="251" 
 />
    <glyph glyph-name="exclamdown" unicode="&#xa1;" horiz-adv-x="219" 
d="M92 400l13 85h86l-14 -85h-85zM4 -180l98 492h38l-59 -492h-77z" />
    <glyph glyph-name="cent" unicode="&#xa2;" horiz-adv-x="600" 
d="M227 -115l18 115q-78 16 -114.5 71t-36.5 134q0 49 13 97t40.5 88.5t71 67t103.5 31.5l19 116h54l-19 -115q43 -4 79.5 -20t58.5 -41l-25 -44q-53 54 -136 54q-53 0 -90.5 -20.5t-61 -54.5t-34 -75.5t-10.5 -83.5q0 -71 35 -114.5t119 -43.5q32 0 67 12.5t65 40.5l22 -47
q-33 -31 -80.5 -45.5t-86.5 -12.5l-17 -110h-54z" />
    <glyph glyph-name="sterling" unicode="&#xa3;" horiz-adv-x="600" 
d="M12 0l8 54h104l44 275h-105l8 48h105l22 139q16 97 70.5 147t156.5 50q62 0 113 -22.5t80 -58.5l-30 -49q-58 75 -164 75q-143 0 -164 -139l-22 -142h186l-8 -48h-186l-44 -275h334l-9 -54h-499z" />
    <glyph glyph-name="currency" unicode="&#xa4;" horiz-adv-x="600" 
d="M77 -24l-39 40l74 76q-24 31 -37.5 70.5t-13.5 82.5t13.5 82.5t37.5 71.5l-74 75l39 40l74 -76q30 26 69 40.5t82 14.5q42 0 79.5 -14t68.5 -39l72 74l40 -40l-73 -74q25 -32 39 -71.5t14 -83.5t-14 -83.5t-39 -71.5l73 -74l-40 -40l-72 75q-30 -26 -68 -40t-80 -14
q-43 0 -81.5 14.5t-69.5 39.5zM301 53q50 0 90.5 26t64.5 69.5t24 96.5t-24 97t-64.5 69.5t-90.5 25.5t-91 -26t-65 -69.5t-24 -96.5t24 -96.5t65 -69.5t91 -26z" />
    <glyph glyph-name="yen" unicode="&#xa5;" horiz-adv-x="600" 
d="M230 0l29 182h-195l8 48h195l16 104h-195l8 47h163l-186 324h66l180 -317l279 317h75l-286 -324h161l-8 -47h-195l-16 -104h195l-8 -48h-195l-29 -182h-62z" />
    <glyph glyph-name="brokenbar" unicode="&#xa6;" horiz-adv-x="254" 
d="M117 372l53 333h61l-53 -333h-61zM30 -180l53 333h61l-53 -333h-61z" />
    <glyph glyph-name="section" unicode="&#xa7;" horiz-adv-x="534" 
d="M195 -188q-67 0 -117 17t-85 48l27 44q62 -59 173 -59q73 0 114.5 38.5t41.5 94.5q0 43 -18.5 67t-61.5 51l-94 58q-56 35 -85.5 74t-29.5 83q0 40 21 77.5t59 64.5q-10 27 -10 58q0 55 29.5 97t78.5 65t108 23q55 0 103 -15.5t82 -50.5l-25 -43q-26 28 -70 43.5
t-89 15.5q-72 0 -113.5 -38.5t-41.5 -95.5q0 -42 17.5 -67.5t62.5 -52.5l90 -55q118 -71 118 -157q0 -40 -21 -77.5t-59 -64.5q10 -26 10 -58q0 -55 -29.5 -97t-78 -65t-107.5 -23zM117 336q0 -34 24 -62t69 -57l82 -51q28 -19 49 -36t35 -37q23 22 35 47.5t12 48.5
q0 34 -24.5 61.5t-71.5 57.5l-77 48q-29 18 -50.5 36t-35.5 39q-23 -21 -35 -46.5t-12 -48.5z" />
    <glyph glyph-name="dieresis" unicode="&#xa8;" horiz-adv-x="500" 
d="M356 615l11 72h74l-12 -72h-73zM189 615l11 72h73l-11 -72h-73z" />
    <glyph glyph-name="copyright" unicode="&#xa9;" horiz-adv-x="815" 
d="M425 -8q-77 0 -142.5 27t-115 76.5t-76.5 115t-27 142.5t27 142.5t76 114.5t115 76t143 27t142.5 -27t114.5 -76t76 -114.5t27 -142.5t-27 -142.5t-76 -115t-114.5 -76.5t-142.5 -27zM425 31q68 0 126 24.5t101.5 68.5t67.5 102.5t24 126.5t-24 126.5t-67.5 102
t-101.5 68t-126 24.5t-126.5 -24.5t-102 -68t-67.5 -102t-24 -126.5t24 -126.5t67.5 -102.5t102 -68.5t126.5 -24.5zM436 137q-95 0 -149.5 60t-54.5 159q0 98 54.5 155t149.5 57q40 0 78 -15t64 -40l-21 -42q-28 26 -59 37.5t-61 11.5q-70 0 -109.5 -43.5t-39.5 -121.5
t39.5 -123.5t109.5 -45.5q30 0 61 11.5t59 37.5l21 -43q-26 -25 -65 -40t-77 -15z" />
    <glyph glyph-name="ordfeminine" unicode="&#xaa;" horiz-adv-x="321" 
d="M170 412q-42 0 -70.5 25.5t-28.5 63.5q0 44 40.5 64.5t128.5 20.5h51l3 18q6 37 -15 54.5t-58 17.5q-52 0 -98 -32l-16 34q20 17 51.5 26t65.5 9q57 0 89.5 -32t23.5 -89l-27 -175h-44l8 54h-2q-17 -28 -43 -43.5t-59 -15.5zM177 448q36 0 68 25t38 62l3 18h-39
q-72 0 -100.5 -12t-28.5 -38q0 -25 16.5 -40t42.5 -15z" />
    <glyph glyph-name="guillemotleft" unicode="&#xab;" horiz-adv-x="417" 
d="M127 90l-66 160l4 31l120 159l45 -20l-109 -157l54 -156zM296 90l-66 160l4 31l120 159l45 -20l-109 -157l54 -156z" />
    <glyph glyph-name="logicalnot" unicode="&#xac;" horiz-adv-x="600" 
d="M478 153l33 211h-436l8 50h488l-42 -261h-51z" />
    <glyph glyph-name="uni00AD" unicode="&#xad;" horiz-adv-x="420" 
d="M74 240l8 52h272l-8 -52h-272z" />
    <glyph glyph-name="registered" unicode="&#xae;" horiz-adv-x="815" 
d="M425 -8q-77 0 -142.5 27t-115 76.5t-76.5 115t-27 142.5t27 142.5t76 114.5t115 76t143 27t142.5 -27t114.5 -76t76 -114.5t27 -142.5t-27 -142.5t-76 -115t-114.5 -76.5t-142.5 -27zM425 31q68 0 126 24.5t101.5 68.5t67.5 102.5t24 126.5t-24 126.5t-67.5 102
t-101.5 68t-126 24.5t-126.5 -24.5t-102 -68t-67.5 -102t-24 -126.5t24 -126.5t67.5 -102.5t102 -68.5t126.5 -24.5zM285 142v421h167q67 0 102.5 -31.5t35.5 -89.5q0 -95 -94 -114q32 -12 47 -52l53 -134h-56l-52 132q-11 26 -31 35.5t-49 9.5h-69v-177h-54zM339 364h106
q92 0 92 77t-92 77h-106v-154z" />
    <glyph glyph-name="macron" unicode="&#xaf;" horiz-adv-x="500" 
d="M167 629l8 46h288l-8 -46h-288z" />
    <glyph glyph-name="degree" unicode="&#xb0;" horiz-adv-x="367" 
d="M235 421q-41 0 -73.5 19t-52 51.5t-19.5 73.5t19.5 74t52 52t73.5 19t73.5 -19t51.5 -51.5t19 -74.5q0 -41 -19 -74t-51.5 -51.5t-73.5 -18.5zM235 468q42 0 68 27t26 70t-26 70.5t-68 27.5q-41 0 -67.5 -27.5t-26.5 -70.5t26.5 -70t67.5 -27z" />
    <glyph glyph-name="plusminus" unicode="&#xb1;" horiz-adv-x="600" 
d="M256 122l28 178h-218l7 50h219l28 179h52l-28 -179h217l-7 -50h-219l-28 -178h-51zM18 0l8 50h488l-8 -50h-488z" />
    <glyph glyph-name="uni00B2" unicode="&#xb2;" horiz-adv-x="380" 
d="M62 282l7 40l166 151q35 32 58 63t23 66q1 28 -18 43.5t-55 15.5q-31 0 -61.5 -12t-58.5 -35l-17 43q30 25 68 38.5t80 13.5q56 0 88.5 -28.5t30.5 -72.5q-1 -49 -30.5 -88t-74.5 -78l-124 -112h203l-8 -48h-277z" />
    <glyph glyph-name="uni00B3" unicode="&#xb3;" horiz-adv-x="380" 
d="M203 279q-41 0 -81 11.5t-68 40.5l23 39q30 -27 60 -35.5t66 -8.5q38 0 65.5 21.5t28.5 60.5q1 30 -20 47t-61 17h-79l8 48h76q42 0 71 21t29 59q1 28 -19 44.5t-55 16.5q-31 0 -62 -11t-59 -35l-17 42q30 26 68.5 39t77.5 13q57 0 89.5 -29t31.5 -72q0 -40 -25.5 -69.5
t-64.5 -40.5q32 -12 48.5 -36.5t16.5 -56.5q-1 -37 -21 -65.5t-53.5 -44.5t-73.5 -16z" />
    <glyph glyph-name="acute" unicode="&#xb4;" horiz-adv-x="500" 
d="M275 550l134 201h71l-158 -201h-47z" />
    <glyph glyph-name="uni00B5" unicode="&#xb5;" horiz-adv-x="600" 
d="M36 -180l107 665h61l-47 -295q-24 -146 95 -146q77 0 122.5 48.5t58.5 129.5l42 263h61l-77 -485h-60l14 86q-25 -45 -67.5 -69.5t-96.5 -24.5q-86 0 -121 58l-31 -230h-61z" />
    <glyph glyph-name="paragraph" unicode="&#xb6;" horiz-adv-x="572" 
d="M174 -180l79 503q-51 0 -88 22t-56.5 59.5t-19.5 83.5q0 64 28 113t77 76.5t114 27.5h245l-140 -885h-53l132 835h-133l-132 -835h-53z" />
    <glyph glyph-name="periodcentered" unicode="&#xb7;" horiz-adv-x="219" 
d="M64 223l13 85h86l-14 -85h-85z" />
    <glyph glyph-name="cedilla" unicode="&#xb8;" horiz-adv-x="500" 
d="M192 -191q-52 0 -82 19l14 39q18 -9 33.5 -13t39.5 -4q27 0 45.5 11t18.5 31q0 28 -35 28q-11 0 -22.5 -1.5t-28.5 -7.5l-14 14l30 95h45l-22 -66q12 2 22 2q31 0 51.5 -16t20.5 -45q0 -39 -33 -62.5t-83 -23.5z" />
    <glyph glyph-name="uni00B9" unicode="&#xb9;" horiz-adv-x="380" 
d="M102 282l8 48h92l48 306l-84 -49l-22 44l127 74h43l-60 -375h80l-7 -48h-225z" />
    <glyph glyph-name="ordmasculine" unicode="&#xba;" horiz-adv-x="332" 
d="M210 412q-59 0 -96.5 38t-37.5 100q0 51 20 87.5t53.5 56t74.5 19.5q59 0 96.5 -37.5t37.5 -100.5q0 -50 -20 -86.5t-53.5 -56.5t-74.5 -20zM211 450q45 0 72.5 32.5t27.5 93.5q0 48 -24 73.5t-64 25.5q-45 0 -72.5 -32.5t-27.5 -93.5q0 -47 24 -73t64 -26z" />
    <glyph glyph-name="guillemotright" unicode="&#xbb;" horiz-adv-x="417" 
d="M69 90l-46 20l110 158l-54 156l48 16l66 -159l-4 -31zM238 90l-46 20l110 158l-54 156l48 16l66 -159l-4 -31z" />
    <glyph glyph-name="onequarter" unicode="&#xbc;" horiz-adv-x="885" 
d="M102 282l8 48h92l48 306l-84 -49l-22 44l127 74h43l-60 -375h80l-7 -48h-225zM234 -23l-38 26l532 725l39 -26zM702 0l14 89h-194l6 41l247 293h46l-45 -287h63l-7 -47h-64l-14 -89h-52zM724 136l31 198l-166 -198h135z" />
    <glyph glyph-name="onehalf" unicode="&#xbd;" horiz-adv-x="927" 
d="M102 282l8 48h92l48 306l-84 -49l-22 44l127 74h43l-60 -375h80l-7 -48h-225zM234 -23l-38 26l532 725l39 -26zM564 0l7 40l166 151q35 32 58 63t23 66q1 28 -18 43.5t-55 15.5q-31 0 -61.5 -12t-58.5 -35l-17 43q30 25 68 38.5t80 13.5q56 0 88.5 -28.5t30.5 -72.5
q-1 -49 -30.5 -88t-74.5 -78l-124 -112h203l-8 -48h-277z" />
    <glyph glyph-name="threequarters" unicode="&#xbe;" horiz-adv-x="885" 
d="M203 279q-41 0 -81 11.5t-68 40.5l23 39q30 -27 60 -35.5t66 -8.5q38 0 65.5 21.5t28.5 60.5q1 30 -20 47t-61 17h-79l8 48h76q42 0 71 21t29 59q1 28 -19 44.5t-55 16.5q-31 0 -62 -11t-59 -35l-17 42q30 26 68.5 39t77.5 13q57 0 89.5 -29t31.5 -72q0 -40 -25.5 -69.5
t-64.5 -40.5q32 -12 48.5 -36.5t16.5 -56.5q-1 -37 -21 -65.5t-53.5 -44.5t-73.5 -16zM234 -23l-38 26l532 725l39 -26zM702 0l14 89h-194l6 41l247 293h46l-45 -287h63l-7 -47h-64l-14 -89h-52zM724 136l31 198l-166 -198h135z" />
    <glyph glyph-name="questiondown" unicode="&#xbf;" horiz-adv-x="436" 
d="M216 399l14 86h84l-13 -86h-85zM146 -188q-50 0 -87 18.5t-57 50.5t-20 71q-1 54 32 97t84 84q57 45 83 80t37 78l6 21h41l-4 -22q-6 -38 -19 -68t-37 -58.5t-64 -61.5q-43 -36 -69.5 -68.5t-26.5 -74.5q0 -39 27.5 -65t78.5 -26q57 0 107.5 17.5t94.5 56.5l24 -50
q-43 -40 -103.5 -60t-127.5 -20z" />
    <glyph glyph-name="Agrave" unicode="&#xc0;" horiz-adv-x="722" 
d="M-11 0l419 705h55l194 -705h-60l-51 188h-378l-110 -188h-69zM426 629l-226 -388h331l-103 388h-2zM422 765l-127 171h72l105 -171h-50z" />
    <glyph glyph-name="Aacute" unicode="&#xc1;" horiz-adv-x="722" 
d="M-11 0l419 705h55l194 -705h-60l-51 188h-378l-110 -188h-69zM426 629l-226 -388h331l-103 388h-2zM422 765l131 171h74l-155 -171h-50z" />
    <glyph glyph-name="Acircumflex" unicode="&#xc2;" horiz-adv-x="722" 
d="M-11 0l419 705h55l194 -705h-60l-51 188h-378l-110 -188h-69zM426 629l-226 -388h331l-103 388h-2zM286 765l140 171h61l104 -171h-48l-89 126l-119 -126h-49z" />
    <glyph glyph-name="Atilde" unicode="&#xc3;" horiz-adv-x="722" 
d="M-11 0l419 705h55l194 -705h-60l-51 188h-378l-110 -188h-69zM426 629l-226 -388h331l-103 388h-2zM282 787l-38 3q11 61 42 94t78 33q28 0 53.5 -14t48.5 -30q20 -15 38.5 -26t36.5 -11q59 0 78 84l39 -3q-11 -61 -42 -94t-77 -33q-29 0 -54.5 14.5t-48.5 30.5
q-20 14 -38.5 25t-36.5 11q-59 0 -79 -84z" />
    <glyph glyph-name="Adieresis" unicode="&#xc4;" horiz-adv-x="722" 
d="M-11 0l419 705h55l194 -705h-60l-51 188h-378l-110 -188h-69zM426 629l-226 -388h331l-103 388h-2zM501 813l12 73h73l-12 -73h-73zM334 813l12 73h73l-12 -73h-73z" />
    <glyph glyph-name="Aring" unicode="&#xc5;" horiz-adv-x="722" 
d="M-11 0l419 705h55l194 -705h-60l-51 188h-378l-110 -188h-69zM426 629l-226 -388h331l-103 388h-2zM463 759q-49 0 -82 33t-33 80t33 80t82 33t82 -33t33 -80t-33 -80t-82 -33zM463 797q33 0 54 21.5t21 53.5t-21 53.5t-54 21.5t-54 -21.5t-21 -53.5t21 -53.5t54 -21.5z
" />
    <glyph glyph-name="AE" unicode="&#xc6;" horiz-adv-x="976" 
d="M-46 0l536 705h509l-8 -53h-438l14 -268h361l-8 -53h-350l14 -278h313l-9 -53h-357l-9 188h-356l-142 -188h-70zM496 628l-290 -387h313l-21 387h-2z" />
    <glyph glyph-name="Ccedilla" unicode="&#xc7;" horiz-adv-x="670" 
d="M376 -8q-88 0 -154.5 33.5t-104 103t-37.5 177.5q0 87 25 161t71.5 129.5t112.5 86t149 30.5q73 0 132 -24.5t98 -67.5l-31 -50q-41 43 -89.5 64t-112.5 21q-90 0 -154.5 -45.5t-99.5 -124t-35 -180.5q0 -138 63 -197.5t171 -59.5q58 0 105.5 20t96.5 64l27 -50
q-95 -91 -233 -91zM347 -191q-52 0 -82 19l14 39q18 -9 33.5 -13t39.5 -4q27 0 45.5 11t18.5 31q0 28 -35 28q-11 0 -22.5 -1.5t-28.5 -7.5l-14 14l30 95h45l-22 -66q12 2 22 2q31 0 51.5 -16t20.5 -45q0 -39 -33 -62.5t-83 -23.5z" />
    <glyph glyph-name="Egrave" unicode="&#xc8;" horiz-adv-x="576" 
d="M54 0l111 705h435l-9 -53h-373l-43 -268h354l-9 -53h-354l-44 -278h374l-8 -53h-434zM382 765l-127 171h72l105 -171h-50z" />
    <glyph glyph-name="Eacute" unicode="&#xc9;" horiz-adv-x="576" 
d="M54 0l111 705h435l-9 -53h-373l-43 -268h354l-9 -53h-354l-44 -278h374l-8 -53h-434zM382 765l131 171h74l-155 -171h-50z" />
    <glyph glyph-name="Ecircumflex" unicode="&#xca;" horiz-adv-x="576" 
d="M54 0l111 705h435l-9 -53h-373l-43 -268h354l-9 -53h-354l-44 -278h374l-8 -53h-434zM246 765l140 171h61l104 -171h-48l-89 126l-119 -126h-49z" />
    <glyph glyph-name="Edieresis" unicode="&#xcb;" horiz-adv-x="576" 
d="M54 0l111 705h435l-9 -53h-373l-43 -268h354l-9 -53h-354l-44 -278h374l-8 -53h-434zM461 813l12 73h73l-12 -73h-73zM294 813l12 73h73l-12 -73h-73z" />
    <glyph glyph-name="Igrave" unicode="&#xcc;" horiz-adv-x="245" 
d="M53 0l112 705h62l-112 -705h-62zM181 765l-127 171h72l105 -171h-50z" />
    <glyph glyph-name="Iacute" unicode="&#xcd;" horiz-adv-x="245" 
d="M53 0l112 705h62l-112 -705h-62zM181 765l131 171h74l-155 -171h-50z" />
    <glyph glyph-name="Icircumflex" unicode="&#xce;" horiz-adv-x="245" 
d="M53 0l112 705h62l-112 -705h-62zM45 765l140 171h61l104 -171h-48l-89 126l-119 -126h-49z" />
    <glyph glyph-name="Idieresis" unicode="&#xcf;" horiz-adv-x="245" 
d="M53 0l112 705h62l-112 -705h-62zM260 813l12 73h73l-12 -73h-73zM93 813l12 73h73l-12 -73h-73z" />
    <glyph glyph-name="Eth" unicode="&#xd0;" horiz-adv-x="733" 
d="M53 0l112 705h199q156 0 241 -76.5t85 -215.5q0 -85 -23 -159.5t-71.5 -131.5t-123.5 -89.5t-179 -32.5h-240zM124 54h171q90 0 152.5 28.5t102 78.5t57.5 114.5t18 137.5q0 115 -66 176.5t-196 61.5h-144zM17 333l8 50h350l-8 -50h-350z" />
    <glyph glyph-name="Ntilde" unicode="&#xd1;" horiz-adv-x="735" 
d="M53 0l112 705h49l349 -608l96 608h58l-112 -705h-48l-350 609l-96 -609h-58zM286 787l-38 3q11 61 42 94t78 33q28 0 53.5 -14t48.5 -30q20 -15 38.5 -26t36.5 -11q59 0 78 84l39 -3q-11 -61 -42 -94t-77 -33q-29 0 -54.5 14.5t-48.5 30.5q-20 14 -38.5 25t-36.5 11
q-59 0 -79 -84z" />
    <glyph glyph-name="Ograve" unicode="&#xd2;" horiz-adv-x="759" 
d="M362 -8q-129 0 -206 77t-77 222q0 90 23 166.5t67.5 134t110.5 89.5t151 32q130 0 207 -77t77 -222q0 -89 -23 -166t-68 -134.5t-110.5 -89.5t-151.5 -32zM364 48q93 0 156.5 48t96 131t32.5 186q0 124 -58.5 184t-162.5 60q-91 0 -154.5 -48t-96 -130.5t-32.5 -186.5
q0 -124 58.5 -184t160.5 -60zM428 765l-127 171h72l105 -171h-50z" />
    <glyph glyph-name="Oacute" unicode="&#xd3;" horiz-adv-x="759" 
d="M362 -8q-129 0 -206 77t-77 222q0 90 23 166.5t67.5 134t110.5 89.5t151 32q130 0 207 -77t77 -222q0 -89 -23 -166t-68 -134.5t-110.5 -89.5t-151.5 -32zM364 48q93 0 156.5 48t96 131t32.5 186q0 124 -58.5 184t-162.5 60q-91 0 -154.5 -48t-96 -130.5t-32.5 -186.5
q0 -124 58.5 -184t160.5 -60zM428 765l131 171h74l-155 -171h-50z" />
    <glyph glyph-name="Ocircumflex" unicode="&#xd4;" horiz-adv-x="759" 
d="M362 -8q-129 0 -206 77t-77 222q0 90 23 166.5t67.5 134t110.5 89.5t151 32q130 0 207 -77t77 -222q0 -89 -23 -166t-68 -134.5t-110.5 -89.5t-151.5 -32zM364 48q93 0 156.5 48t96 131t32.5 186q0 124 -58.5 184t-162.5 60q-91 0 -154.5 -48t-96 -130.5t-32.5 -186.5
q0 -124 58.5 -184t160.5 -60zM292 765l140 171h61l104 -171h-48l-89 126l-119 -126h-49z" />
    <glyph glyph-name="Otilde" unicode="&#xd5;" horiz-adv-x="759" 
d="M362 -8q-129 0 -206 77t-77 222q0 90 23 166.5t67.5 134t110.5 89.5t151 32q130 0 207 -77t77 -222q0 -89 -23 -166t-68 -134.5t-110.5 -89.5t-151.5 -32zM364 48q93 0 156.5 48t96 131t32.5 186q0 124 -58.5 184t-162.5 60q-91 0 -154.5 -48t-96 -130.5t-32.5 -186.5
q0 -124 58.5 -184t160.5 -60zM288 787l-38 3q11 61 42 94t78 33q28 0 53.5 -14t48.5 -30q20 -15 38.5 -26t36.5 -11q59 0 78 84l39 -3q-11 -61 -42 -94t-77 -33q-29 0 -54.5 14.5t-48.5 30.5q-20 14 -38.5 25t-36.5 11q-59 0 -79 -84z" />
    <glyph glyph-name="Odieresis" unicode="&#xd6;" horiz-adv-x="759" 
d="M362 -8q-129 0 -206 77t-77 222q0 90 23 166.5t67.5 134t110.5 89.5t151 32q130 0 207 -77t77 -222q0 -89 -23 -166t-68 -134.5t-110.5 -89.5t-151.5 -32zM364 48q93 0 156.5 48t96 131t32.5 186q0 124 -58.5 184t-162.5 60q-91 0 -154.5 -48t-96 -130.5t-32.5 -186.5
q0 -124 58.5 -184t160.5 -60zM507 813l12 73h73l-12 -73h-73zM340 813l12 73h73l-12 -73h-73z" />
    <glyph glyph-name="multiply" unicode="&#xd7;" horiz-adv-x="600" 
d="M90 49l-35 36l217 201l-179 196l36 36l181 -198l216 198l35 -36l-217 -199l179 -198l-36 -36l-181 199z" />
    <glyph glyph-name="Oslash" unicode="&#xd8;" horiz-adv-x="759" 
d="M362 -8q-129 0 -206 77t-77 222q0 90 23 166.5t67.5 134t110.5 89.5t151 32q130 0 207 -77t77 -222q0 -89 -23 -166t-68 -134.5t-110.5 -89.5t-151.5 -32zM364 48q93 0 156.5 48t96 131t32.5 186q0 124 -58.5 184t-162.5 60q-91 0 -154.5 -48t-96 -130.5t-32.5 -186.5
q0 -124 58.5 -184t160.5 -60zM143 -31l-40 29l64 86l22 29l376 509l22 29l64 85l40 -29l-65 -86l-21 -29l-376 -508l-23 -30z" />
    <glyph glyph-name="Ugrave" unicode="&#xd9;" horiz-adv-x="724" 
d="M333 -8q-134 0 -198 75t-41 225l66 413h61l-66 -419q-38 -238 180 -238q105 0 165.5 53t79.5 171l69 433h61l-69 -440q-22 -136 -97 -204.5t-211 -68.5zM420 765l-127 171h72l105 -171h-50z" />
    <glyph glyph-name="Uacute" unicode="&#xda;" horiz-adv-x="724" 
d="M333 -8q-134 0 -198 75t-41 225l66 413h61l-66 -419q-38 -238 180 -238q105 0 165.5 53t79.5 171l69 433h61l-69 -440q-22 -136 -97 -204.5t-211 -68.5zM420 765l131 171h74l-155 -171h-50z" />
    <glyph glyph-name="Ucircumflex" unicode="&#xdb;" horiz-adv-x="724" 
d="M333 -8q-134 0 -198 75t-41 225l66 413h61l-66 -419q-38 -238 180 -238q105 0 165.5 53t79.5 171l69 433h61l-69 -440q-22 -136 -97 -204.5t-211 -68.5zM284 765l140 171h61l104 -171h-48l-89 126l-119 -126h-49z" />
    <glyph glyph-name="Udieresis" unicode="&#xdc;" horiz-adv-x="724" 
d="M333 -8q-134 0 -198 75t-41 225l66 413h61l-66 -419q-38 -238 180 -238q105 0 165.5 53t79.5 171l69 433h61l-69 -440q-22 -136 -97 -204.5t-211 -68.5zM499 813l12 73h73l-12 -73h-73zM332 813l12 73h73l-12 -73h-73z" />
    <glyph glyph-name="Yacute" unicode="&#xdd;" horiz-adv-x="586" 
d="M223 0l53 337l-210 368h67l179 -313l279 313h75l-328 -367l-53 -338h-62zM344 765l131 171h74l-155 -171h-50z" />
    <glyph glyph-name="Thorn" unicode="&#xde;" horiz-adv-x="625" 
d="M53 0l112 705h62l-20 -131h183q104 0 162 -46.5t58 -140.5q0 -104 -66 -166.5t-191 -62.5h-213l-25 -158h-62zM149 212h208q93 0 141.5 44t48.5 128q0 71 -40.5 104t-119.5 33h-189z" />
    <glyph glyph-name="germandbls" unicode="&#xdf;" horiz-adv-x="597" 
d="M364 -8q-57 0 -106 17t-78 44l27 44q32 -26 70 -40t83 -14q61 0 93.5 22.5t32.5 65.5q0 28 -20 51t-78 43q-69 23 -96 51.5t-27 71.5q0 26 9 46t31.5 41t60.5 50q35 26 54.5 49t19.5 58q0 30 -21.5 50.5t-63.5 20.5q-73 0 -116.5 -43.5t-56.5 -123.5l-79 -496h-61l78 492
q16 106 75 163.5t163 57.5q67 0 104.5 -34t37.5 -81q0 -50 -26.5 -82t-69.5 -65q-37 -27 -58 -48t-21 -52q0 -25 21 -44t72 -36q62 -22 95 -52t33 -83q0 -68 -51 -106t-131 -38z" />
    <glyph glyph-name="agrave" unicode="&#xe0;" horiz-adv-x="522" 
d="M202 -8q-41 0 -77 18t-58.5 50.5t-22.5 75.5q0 76 65.5 109t209.5 33h71l5 35q11 63 -15 96t-92 33q-90 0 -165 -52l-20 47q35 26 86.5 41.5t103.5 15.5q94 0 134 -53.5t25 -144.5l-47 -296h-58l12 78q-26 -44 -69 -65t-88 -21zM213 41q58 0 104.5 39.5t58.5 110.5l6 42
h-49q-85 0 -134 -8.5t-69.5 -29.5t-20.5 -56q0 -49 31.5 -73.5t72.5 -24.5zM287 550l-140 201h68l119 -201h-47z" />
    <glyph glyph-name="aacute" unicode="&#xe1;" horiz-adv-x="522" 
d="M202 -8q-41 0 -77 18t-58.5 50.5t-22.5 75.5q0 76 65.5 109t209.5 33h71l5 35q11 63 -15 96t-92 33q-90 0 -165 -52l-20 47q35 26 86.5 41.5t103.5 15.5q94 0 134 -53.5t25 -144.5l-47 -296h-58l12 78q-26 -44 -69 -65t-88 -21zM213 41q58 0 104.5 39.5t58.5 110.5l6 42
h-49q-85 0 -134 -8.5t-69.5 -29.5t-20.5 -56q0 -49 31.5 -73.5t72.5 -24.5zM289 550l134 201h71l-158 -201h-47z" />
    <glyph glyph-name="acircumflex" unicode="&#xe2;" horiz-adv-x="522" 
d="M202 -8q-41 0 -77 18t-58.5 50.5t-22.5 75.5q0 76 65.5 109t209.5 33h71l5 35q11 63 -15 96t-92 33q-90 0 -165 -52l-20 47q35 26 86.5 41.5t103.5 15.5q94 0 134 -53.5t25 -144.5l-47 -296h-58l12 78q-26 -44 -69 -65t-88 -21zM213 41q58 0 104.5 39.5t58.5 110.5l6 42
h-49q-85 0 -134 -8.5t-69.5 -29.5t-20.5 -56q0 -49 31.5 -73.5t72.5 -24.5zM170 550l131 201h62l88 -201h-44l-78 155l-113 -155h-46z" />
    <glyph glyph-name="atilde" unicode="&#xe3;" horiz-adv-x="522" 
d="M202 -8q-41 0 -77 18t-58.5 50.5t-22.5 75.5q0 76 65.5 109t209.5 33h71l5 35q11 63 -15 96t-92 33q-90 0 -165 -52l-20 47q35 26 86.5 41.5t103.5 15.5q94 0 134 -53.5t25 -144.5l-47 -296h-58l12 78q-26 -44 -69 -65t-88 -21zM213 41q58 0 104.5 39.5t58.5 110.5l6 42
h-49q-85 0 -134 -8.5t-69.5 -29.5t-20.5 -56q0 -49 31.5 -73.5t72.5 -24.5zM183 592l-39 3q10 61 39 94t71 33q26 0 44 -14.5t34 -31.5q13 -13 26.5 -24t29.5 -11q52 0 70 84l39 -3q-10 -61 -38.5 -94t-69.5 -33q-27 0 -45.5 14.5t-33.5 30.5q-14 14 -27.5 25t-29.5 11
q-52 0 -70 -84z" />
    <glyph glyph-name="adieresis" unicode="&#xe4;" horiz-adv-x="522" 
d="M202 -8q-41 0 -77 18t-58.5 50.5t-22.5 75.5q0 76 65.5 109t209.5 33h71l5 35q11 63 -15 96t-92 33q-90 0 -165 -52l-20 47q35 26 86.5 41.5t103.5 15.5q94 0 134 -53.5t25 -144.5l-47 -296h-58l12 78q-26 -44 -69 -65t-88 -21zM213 41q58 0 104.5 39.5t58.5 110.5l6 42
h-49q-85 0 -134 -8.5t-69.5 -29.5t-20.5 -56q0 -49 31.5 -73.5t72.5 -24.5zM370 615l11 72h74l-12 -72h-73zM203 615l11 72h73l-11 -72h-73z" />
    <glyph glyph-name="aring" unicode="&#xe5;" horiz-adv-x="522" 
d="M202 -8q-41 0 -77 18t-58.5 50.5t-22.5 75.5q0 76 65.5 109t209.5 33h71l5 35q11 63 -15 96t-92 33q-90 0 -165 -52l-20 47q35 26 86.5 41.5t103.5 15.5q94 0 134 -53.5t25 -144.5l-47 -296h-58l12 78q-26 -44 -69 -65t-88 -21zM213 41q58 0 104.5 39.5t58.5 110.5l6 42
h-49q-85 0 -134 -8.5t-69.5 -29.5t-20.5 -56q0 -49 31.5 -73.5t72.5 -24.5zM330 547q-48 0 -81.5 32.5t-33.5 80.5q0 47 33.5 79.5t81.5 32.5q49 0 82.5 -32.5t33.5 -79.5q0 -48 -33.5 -80.5t-82.5 -32.5zM330 584q33 0 54 22t21 54q0 31 -21 53t-54 22t-54 -22t-21 -53
q0 -32 21 -54t54 -22z" />
    <glyph glyph-name="ae" unicode="&#xe6;" horiz-adv-x="859" 
d="M207 -8q-42 0 -79 17t-60.5 49.5t-23.5 77.5q0 76 65.5 109t209.5 33h74l4 27q22 137 -109 137q-46 0 -86 -13t-78 -40l-21 48q35 26 86.5 41.5t103.5 15.5q122 0 152 -94q32 43 79.5 68.5t109.5 25.5q75 0 118 -35t58.5 -90t5.5 -116l-3 -20h-372q-10 -86 31.5 -138
t125.5 -52q47 0 86.5 14t73.5 45l24 -43q-33 -33 -83.5 -50t-101.5 -17q-74 0 -125 31t-72 87q-29 -61 -80.5 -89.5t-112.5 -28.5zM633 445q-56 0 -94 -24.5t-60 -63t-31 -79.5h317q5 46 -7 84t-42.5 60.5t-82.5 22.5zM213 41q58 0 105.5 35.5t59.5 106.5l8 50h-53
q-85 0 -134 -9t-69.5 -29.5t-20.5 -55.5q0 -48 31.5 -73t72.5 -25z" />
    <glyph glyph-name="ccedilla" unicode="&#xe7;" horiz-adv-x="459" 
d="M253 -8q-104 0 -154 59t-50 154q0 53 14.5 104.5t45 93t78.5 66.5t114 25q48 0 91 -17t69 -45l-25 -45q-53 54 -135 54q-51 0 -87 -20t-59 -54.5t-33.5 -76.5t-10.5 -85q0 -73 34.5 -117t113.5 -44q31 0 66.5 13t64.5 40l22 -47q-29 -27 -73 -42.5t-86 -15.5zM218 -191
q-52 0 -82 19l14 39q18 -9 33.5 -13t39.5 -4q27 0 45.5 11t18.5 31q0 28 -35 28q-11 0 -22.5 -1.5t-28.5 -7.5l-14 14l30 95h45l-22 -66q12 2 22 2q31 0 51.5 -16t20.5 -45q0 -39 -33 -62.5t-83 -23.5z" />
    <glyph glyph-name="egrave" unicode="&#xe8;" horiz-adv-x="528" 
d="M265 -8q-101 0 -159 56t-58 155q0 78 30.5 144t87 106.5t136.5 40.5q75 0 118 -35.5t58.5 -91t5.5 -117.5l-3 -20h-372q-10 -84 32 -135.5t125 -51.5q47 0 87 14t73 45l25 -43q-33 -33 -84 -50t-102 -17zM301 445q-57 0 -95 -25t-60 -64t-30 -81h318q5 47 -7 85.5
t-42.5 61.5t-83.5 23zM293 550l-140 201h68l119 -201h-47z" />
    <glyph glyph-name="eacute" unicode="&#xe9;" horiz-adv-x="528" 
d="M265 -8q-101 0 -159 56t-58 155q0 78 30.5 144t87 106.5t136.5 40.5q75 0 118 -35.5t58.5 -91t5.5 -117.5l-3 -20h-372q-10 -84 32 -135.5t125 -51.5q47 0 87 14t73 45l25 -43q-33 -33 -84 -50t-102 -17zM301 445q-57 0 -95 -25t-60 -64t-30 -81h318q5 47 -7 85.5
t-42.5 61.5t-83.5 23zM295 550l134 201h71l-158 -201h-47z" />
    <glyph glyph-name="ecircumflex" unicode="&#xea;" horiz-adv-x="528" 
d="M265 -8q-101 0 -159 56t-58 155q0 78 30.5 144t87 106.5t136.5 40.5q75 0 118 -35.5t58.5 -91t5.5 -117.5l-3 -20h-372q-10 -84 32 -135.5t125 -51.5q47 0 87 14t73 45l25 -43q-33 -33 -84 -50t-102 -17zM301 445q-57 0 -95 -25t-60 -64t-30 -81h318q5 47 -7 85.5
t-42.5 61.5t-83.5 23zM176 550l131 201h62l88 -201h-44l-78 155l-113 -155h-46z" />
    <glyph glyph-name="edieresis" unicode="&#xeb;" horiz-adv-x="528" 
d="M265 -8q-101 0 -159 56t-58 155q0 78 30.5 144t87 106.5t136.5 40.5q75 0 118 -35.5t58.5 -91t5.5 -117.5l-3 -20h-372q-10 -84 32 -135.5t125 -51.5q47 0 87 14t73 45l25 -43q-33 -33 -84 -50t-102 -17zM301 445q-57 0 -95 -25t-60 -64t-30 -81h318q5 47 -7 85.5
t-42.5 61.5t-83.5 23zM376 615l11 72h74l-12 -72h-73zM209 615l11 72h73l-11 -72h-73z" />
    <glyph glyph-name="igrave" unicode="&#xec;" horiz-adv-x="222" 
d="M42 0l77 485h61l-77 -485h-61zM136 550l-140 201h68l119 -201h-47z" />
    <glyph glyph-name="iacute" unicode="&#xed;" horiz-adv-x="222" 
d="M42 0l77 485h61l-77 -485h-61zM138 550l134 201h71l-158 -201h-47z" />
    <glyph glyph-name="icircumflex" unicode="&#xee;" horiz-adv-x="222" 
d="M42 0l77 485h61l-77 -485h-61zM19 550l131 201h62l88 -201h-44l-78 155l-113 -155h-46z" />
    <glyph glyph-name="idieresis" unicode="&#xef;" horiz-adv-x="222" 
d="M42 0l77 485h61l-77 -485h-61zM219 615l11 72h74l-12 -72h-73zM52 615l11 72h73l-11 -72h-73z" />
    <glyph glyph-name="eth" unicode="&#xf0;" horiz-adv-x="550" 
d="M249 -8q-58 0 -104.5 23.5t-73 67t-26.5 103.5q0 79 32 139t87.5 94t126.5 34q54 0 97 -22.5t64 -68.5q-5 78 -32.5 139t-77.5 102l-152 -64l-17 38l128 54q-41 24 -92 37l18 43q75 -21 128 -57l133 57l17 -38l-113 -48q60 -55 87.5 -133t27.5 -179q-1 -62 -15 -119.5
t-45 -103t-80 -72t-118 -26.5zM252 44q51 0 93 24.5t67 72t25 115.5q0 70 -39 107.5t-107 37.5q-51 0 -93 -24.5t-66.5 -72t-24.5 -115.5q0 -69 39 -107t106 -38z" />
    <glyph glyph-name="ntilde" unicode="&#xf1;" horiz-adv-x="560" 
d="M42 0l77 485h60l-14 -86q28 45 73 70t105 25q81 0 122 -49t25 -150l-47 -295h-61l47 295q23 146 -98 146q-80 0 -126.5 -48.5t-59.5 -128.5l-42 -264h-61zM200 592l-39 3q10 61 39 94t71 33q26 0 44 -14.5t34 -31.5q13 -13 26.5 -24t29.5 -11q52 0 70 84l39 -3
q-10 -61 -38.5 -94t-69.5 -33q-27 0 -45.5 14.5t-33.5 30.5q-14 14 -27.5 25t-29.5 11q-52 0 -70 -84z" />
    <glyph glyph-name="ograve" unicode="&#xf2;" horiz-adv-x="547" 
d="M250 -8q-94 0 -148 56t-54 155q0 79 29.5 145t85.5 106t134 40q93 0 147.5 -56.5t54.5 -154.5q0 -80 -30 -146t-85.5 -105.5t-133.5 -39.5zM252 43q60 0 101 33t62.5 88t21.5 121q0 77 -38 117t-105 40q-59 0 -100.5 -33t-62.5 -88t-21 -121q0 -77 37.5 -117t104.5 -40z
M299 550l-140 201h68l119 -201h-47z" />
    <glyph glyph-name="oacute" unicode="&#xf3;" horiz-adv-x="547" 
d="M250 -8q-94 0 -148 56t-54 155q0 79 29.5 145t85.5 106t134 40q93 0 147.5 -56.5t54.5 -154.5q0 -80 -30 -146t-85.5 -105.5t-133.5 -39.5zM252 43q60 0 101 33t62.5 88t21.5 121q0 77 -38 117t-105 40q-59 0 -100.5 -33t-62.5 -88t-21 -121q0 -77 37.5 -117t104.5 -40z
M301 550l134 201h71l-158 -201h-47z" />
    <glyph glyph-name="ocircumflex" unicode="&#xf4;" horiz-adv-x="547" 
d="M250 -8q-94 0 -148 56t-54 155q0 79 29.5 145t85.5 106t134 40q93 0 147.5 -56.5t54.5 -154.5q0 -80 -30 -146t-85.5 -105.5t-133.5 -39.5zM252 43q60 0 101 33t62.5 88t21.5 121q0 77 -38 117t-105 40q-59 0 -100.5 -33t-62.5 -88t-21 -121q0 -77 37.5 -117t104.5 -40z
M182 550l131 201h62l88 -201h-44l-78 155l-113 -155h-46z" />
    <glyph glyph-name="otilde" unicode="&#xf5;" horiz-adv-x="547" 
d="M250 -8q-94 0 -148 56t-54 155q0 79 29.5 145t85.5 106t134 40q93 0 147.5 -56.5t54.5 -154.5q0 -80 -30 -146t-85.5 -105.5t-133.5 -39.5zM252 43q60 0 101 33t62.5 88t21.5 121q0 77 -38 117t-105 40q-59 0 -100.5 -33t-62.5 -88t-21 -121q0 -77 37.5 -117t104.5 -40z
M195 592l-39 3q10 61 39 94t71 33q26 0 44 -14.5t34 -31.5q13 -13 26.5 -24t29.5 -11q52 0 70 84l39 -3q-10 -61 -38.5 -94t-69.5 -33q-27 0 -45.5 14.5t-33.5 30.5q-14 14 -27.5 25t-29.5 11q-52 0 -70 -84z" />
    <glyph glyph-name="odieresis" unicode="&#xf6;" horiz-adv-x="547" 
d="M250 -8q-94 0 -148 56t-54 155q0 79 29.5 145t85.5 106t134 40q93 0 147.5 -56.5t54.5 -154.5q0 -80 -30 -146t-85.5 -105.5t-133.5 -39.5zM252 43q60 0 101 33t62.5 88t21.5 121q0 77 -38 117t-105 40q-59 0 -100.5 -33t-62.5 -88t-21 -121q0 -77 37.5 -117t104.5 -40z
M382 615l11 72h74l-12 -72h-73zM215 615l11 72h73l-11 -72h-73z" />
    <glyph glyph-name="divide" unicode="&#xf7;" horiz-adv-x="600" 
d="M287 447l13 78h77l-12 -78h-78zM59 262l8 50h488l-8 -50h-488zM224 48l13 78h78l-14 -78h-77z" />
    <glyph glyph-name="oslash" unicode="&#xf8;" horiz-adv-x="547" 
d="M99 -36l-35 27l40 55q-56 57 -56 157q0 79 29.5 145t85.5 106t134 40q65 0 113 -29l40 55l34 -26l-40 -56q55 -56 55 -155q0 -80 -30 -146t-85.5 -105.5t-133.5 -39.5q-64 0 -111 27zM107 200q0 -68 30 -108l241 330q-34 21 -84 21q-60 0 -102 -32.5t-63.5 -88
t-21.5 -122.5zM253 42q60 0 101.5 33t63 88t21.5 123q0 66 -29 106l-240 -330q34 -20 83 -20z" />
    <glyph glyph-name="ugrave" unicode="&#xf9;" horiz-adv-x="553" 
d="M215 -8q-79 0 -120 48.5t-25 150.5l47 294h61l-47 -295q-23 -146 96 -146q76 0 122 48.5t59 129.5l41 263h61l-77 -485h-59l13 85q-27 -45 -71.5 -69t-100.5 -24zM296 551l-140 201h68l119 -201h-47z" />
    <glyph glyph-name="uacute" unicode="&#xfa;" horiz-adv-x="553" 
d="M215 -8q-79 0 -120 48.5t-25 150.5l47 294h61l-47 -295q-23 -146 96 -146q76 0 122 48.5t59 129.5l41 263h61l-77 -485h-59l13 85q-27 -45 -71.5 -69t-100.5 -24zM298 551l134 201h71l-158 -201h-47z" />
    <glyph glyph-name="ucircumflex" unicode="&#xfb;" horiz-adv-x="553" 
d="M215 -8q-79 0 -120 48.5t-25 150.5l47 294h61l-47 -295q-23 -146 96 -146q76 0 122 48.5t59 129.5l41 263h61l-77 -485h-59l13 85q-27 -45 -71.5 -69t-100.5 -24zM179 551l131 201h62l88 -201h-44l-78 155l-113 -155h-46z" />
    <glyph glyph-name="udieresis" unicode="&#xfc;" horiz-adv-x="553" 
d="M215 -8q-79 0 -120 48.5t-25 150.5l47 294h61l-47 -295q-23 -146 96 -146q76 0 122 48.5t59 129.5l41 263h61l-77 -485h-59l13 85q-27 -45 -71.5 -69t-100.5 -24zM379 616l11 72h74l-12 -72h-73zM212 616l11 72h73l-11 -72h-73z" />
    <glyph glyph-name="yacute" unicode="&#xfd;" horiz-adv-x="509" 
d="M76 -180l107 182l-129 483h63l106 -417l241 417h68l-391 -665h-65zM269 550l134 201h71l-158 -201h-47z" />
    <glyph glyph-name="thorn" unicode="&#xfe;" horiz-adv-x="575" 
d="M13 -180l140 885h61l-47 -301q27 42 71 66t101 24q85 0 137 -56t52 -152q0 -79 -28 -146t-82.5 -107.5t-132.5 -40.5q-56 0 -101 26.5t-65 82.5l-45 -281h-61zM281 43q60 0 101 33t62.5 88t21.5 121q0 77 -38 117t-105 40q-59 0 -100.5 -33t-62.5 -88t-21 -121
q0 -77 37.5 -117t104.5 -40z" />
    <glyph glyph-name="ydieresis" unicode="&#xff;" horiz-adv-x="509" 
d="M76 -180l107 182l-129 483h63l106 -417l241 417h68l-391 -665h-65zM350 615l11 72h74l-12 -72h-73zM183 615l11 72h73l-11 -72h-73z" />
    <glyph glyph-name="Amacron" unicode="&#x100;" horiz-adv-x="722" 
d="M-11 0l419 705h55l194 -705h-60l-51 188h-378l-110 -188h-69zM426 629l-226 -388h331l-103 388h-2zM296 818l8 47h318l-8 -47h-318z" />
    <glyph glyph-name="amacron" unicode="&#x101;" horiz-adv-x="522" 
d="M202 -8q-41 0 -77 18t-58.5 50.5t-22.5 75.5q0 76 65.5 109t209.5 33h71l5 35q11 63 -15 96t-92 33q-90 0 -165 -52l-20 47q35 26 86.5 41.5t103.5 15.5q94 0 134 -53.5t25 -144.5l-47 -296h-58l12 78q-26 -44 -69 -65t-88 -21zM213 41q58 0 104.5 39.5t58.5 110.5l6 42
h-49q-85 0 -134 -8.5t-69.5 -29.5t-20.5 -56q0 -49 31.5 -73.5t72.5 -24.5zM181 629l8 46h288l-8 -46h-288z" />
    <glyph glyph-name="Abreve" unicode="&#x102;" horiz-adv-x="722" 
d="M-11 0l419 705h55l194 -705h-60l-51 188h-378l-110 -188h-69zM426 629l-226 -388h331l-103 388h-2zM450 760q-67 0 -109 45t-40 123l42 5q-3 -61 27.5 -94.5t82.5 -33.5q53 0 88 33.5t44 94.5l42 -5q-13 -78 -61.5 -123t-115.5 -45z" />
    <glyph glyph-name="abreve" unicode="&#x103;" horiz-adv-x="522" 
d="M202 -8q-41 0 -77 18t-58.5 50.5t-22.5 75.5q0 76 65.5 109t209.5 33h71l5 35q11 63 -15 96t-92 33q-90 0 -165 -52l-20 47q35 26 86.5 41.5t103.5 15.5q94 0 134 -53.5t25 -144.5l-47 -296h-58l12 78q-26 -44 -69 -65t-88 -21zM213 41q58 0 104.5 39.5t58.5 110.5l6 42
h-49q-85 0 -134 -8.5t-69.5 -29.5t-20.5 -56q0 -49 31.5 -73.5t72.5 -24.5zM321 548q-64 0 -101.5 50t-33.5 138l42 5q-4 -71 21.5 -109.5t73.5 -38.5t79 38.5t41 109.5l41 -5q-12 -88 -55 -138t-108 -50z" />
    <glyph glyph-name="Aogonek" unicode="&#x104;" horiz-adv-x="722" 
d="M-11 0l419 705h55l194 -705h-60l-51 188h-378l-110 -188h-69zM426 629l-226 -388h331l-103 388h-2zM616 -191q-45 0 -69 24.5t-24 63.5q0 46 29 81.5t75 55.5l21 -34q-39 -16 -58 -41.5t-19 -53.5q0 -24 13.5 -38.5t40.5 -14.5q25 0 54 12l10 -40q-13 -6 -32.5 -10.5
t-40.5 -4.5z" />
    <glyph glyph-name="aogonek" unicode="&#x105;" horiz-adv-x="522" 
d="M202 -8q-41 0 -77 18t-58.5 50.5t-22.5 75.5q0 76 65.5 109t209.5 33h71l5 35q11 63 -15 96t-92 33q-90 0 -165 -52l-20 47q35 26 86.5 41.5t103.5 15.5q94 0 134 -53.5t25 -144.5l-47 -296h-58l12 78q-26 -44 -69 -65t-88 -21zM213 41q58 0 104.5 39.5t58.5 110.5l6 42
h-49q-85 0 -134 -8.5t-69.5 -29.5t-20.5 -56q0 -49 31.5 -73.5t72.5 -24.5zM365 -191q-45 0 -69 24.5t-24 63.5q0 46 29 81.5t75 55.5l21 -34q-39 -16 -58 -41.5t-19 -53.5q0 -24 13.5 -38.5t40.5 -14.5q25 0 54 12l10 -40q-13 -6 -32.5 -10.5t-40.5 -4.5z" />
    <glyph glyph-name="Cacute" unicode="&#x106;" horiz-adv-x="670" 
d="M376 -8q-88 0 -154.5 33.5t-104 103t-37.5 177.5q0 87 25 161t71.5 129.5t112.5 86t149 30.5q73 0 132 -24.5t98 -67.5l-31 -50q-41 43 -89.5 64t-112.5 21q-90 0 -154.5 -45.5t-99.5 -124t-35 -180.5q0 -138 63 -197.5t171 -59.5q58 0 105.5 20t96.5 64l27 -50
q-95 -91 -233 -91zM420 765l131 171h74l-155 -171h-50z" />
    <glyph glyph-name="cacute" unicode="&#x107;" horiz-adv-x="459" 
d="M253 -8q-104 0 -154 59t-50 154q0 53 14.5 104.5t45 93t78.5 66.5t114 25q48 0 91 -17t69 -45l-25 -45q-53 54 -135 54q-51 0 -87 -20t-59 -54.5t-33.5 -76.5t-10.5 -85q0 -73 34.5 -117t113.5 -44q31 0 66.5 13t64.5 40l22 -47q-29 -27 -73 -42.5t-86 -15.5zM287 550
l134 201h71l-158 -201h-47z" />
    <glyph glyph-name="Ccircumflex" unicode="&#x108;" horiz-adv-x="670" 
d="M376 -8q-88 0 -154.5 33.5t-104 103t-37.5 177.5q0 87 25 161t71.5 129.5t112.5 86t149 30.5q73 0 132 -24.5t98 -67.5l-31 -50q-41 43 -89.5 64t-112.5 21q-90 0 -154.5 -45.5t-99.5 -124t-35 -180.5q0 -138 63 -197.5t171 -59.5q58 0 105.5 20t96.5 64l27 -50
q-95 -91 -233 -91zM284 765l140 171h61l104 -171h-48l-89 126l-119 -126h-49z" />
    <glyph glyph-name="ccircumflex" unicode="&#x109;" horiz-adv-x="459" 
d="M253 -8q-104 0 -154 59t-50 154q0 53 14.5 104.5t45 93t78.5 66.5t114 25q48 0 91 -17t69 -45l-25 -45q-53 54 -135 54q-51 0 -87 -20t-59 -54.5t-33.5 -76.5t-10.5 -85q0 -73 34.5 -117t113.5 -44q31 0 66.5 13t64.5 40l22 -47q-29 -27 -73 -42.5t-86 -15.5zM168 550
l131 201h62l88 -201h-44l-78 155l-113 -155h-46z" />
    <glyph glyph-name="Cdotaccent" unicode="&#x10a;" horiz-adv-x="670" 
d="M376 -8q-88 0 -154.5 33.5t-104 103t-37.5 177.5q0 87 25 161t71.5 129.5t112.5 86t149 30.5q73 0 132 -24.5t98 -67.5l-31 -50q-41 43 -89.5 64t-112.5 21q-90 0 -154.5 -45.5t-99.5 -124t-35 -180.5q0 -138 63 -197.5t171 -59.5q58 0 105.5 20t96.5 64l27 -50
q-95 -91 -233 -91zM414 813l12 75h76l-12 -75h-76z" />
    <glyph glyph-name="cdotaccent" unicode="&#x10b;" horiz-adv-x="459" 
d="M253 -8q-104 0 -154 59t-50 154q0 53 14.5 104.5t45 93t78.5 66.5t114 25q48 0 91 -17t69 -45l-25 -45q-53 54 -135 54q-51 0 -87 -20t-59 -54.5t-33.5 -76.5t-10.5 -85q0 -73 34.5 -117t113.5 -44q31 0 66.5 13t64.5 40l22 -47q-29 -27 -73 -42.5t-86 -15.5zM282 614
l12 75h77l-12 -75h-77z" />
    <glyph glyph-name="Ccaron" unicode="&#x10c;" horiz-adv-x="670" 
d="M376 -8q-88 0 -154.5 33.5t-104 103t-37.5 177.5q0 87 25 161t71.5 129.5t112.5 86t149 30.5q73 0 132 -24.5t98 -67.5l-31 -50q-41 43 -89.5 64t-112.5 21q-90 0 -154.5 -45.5t-99.5 -124t-35 -180.5q0 -138 63 -197.5t171 -59.5q58 0 105.5 20t96.5 64l27 -50
q-95 -91 -233 -91zM414 765l-104 171h47l89 -126l119 126h50l-139 -171h-62z" />
    <glyph glyph-name="ccaron" unicode="&#x10d;" horiz-adv-x="459" 
d="M253 -8q-104 0 -154 59t-50 154q0 53 14.5 104.5t45 93t78.5 66.5t114 25q48 0 91 -17t69 -45l-25 -45q-53 54 -135 54q-51 0 -87 -20t-59 -54.5t-33.5 -76.5t-10.5 -85q0 -73 34.5 -117t113.5 -44q31 0 66.5 13t64.5 40l22 -47q-29 -27 -73 -42.5t-86 -15.5zM279 550
l-87 201h44l77 -155l113 155h46l-131 -201h-62z" />
    <glyph glyph-name="Dcaron" unicode="&#x10e;" horiz-adv-x="733" 
d="M53 0l112 705h199q156 0 241 -76.5t85 -215.5q0 -85 -23 -159.5t-71.5 -131.5t-123.5 -89.5t-179 -32.5h-240zM124 54h171q90 0 152.5 28.5t102 78.5t57.5 114.5t18 137.5q0 115 -66 176.5t-196 61.5h-144zM409 765l-104 171h47l89 -126l119 126h50l-139 -171h-62z" />
    <glyph glyph-name="dcaron" unicode="&#x10f;" horiz-adv-x="575" 
d="M236 -8q-85 0 -136.5 55.5t-51.5 151.5q0 79 28 146t82 108t132 41q56 0 101 -27t65 -83l51 321h61l-112 -705h-60l13 82q-28 -42 -72 -66t-101 -24zM252 43q60 0 101 33t62.5 88t21.5 121q0 77 -38 117t-105 40q-60 0 -101 -33t-62 -88t-21 -121q0 -77 37.5 -117
t104.5 -40zM586 516l30 189h57l-53 -189h-34z" />
    <glyph glyph-name="Dcroat" unicode="&#x110;" horiz-adv-x="733" 
d="M53 0l112 705h199q156 0 241 -76.5t85 -215.5q0 -85 -23 -159.5t-71.5 -131.5t-123.5 -89.5t-179 -32.5h-240zM124 54h171q90 0 152.5 28.5t102 78.5t57.5 114.5t18 137.5q0 115 -66 176.5t-196 61.5h-144zM17 333l8 50h350l-8 -50h-350z" />
    <glyph glyph-name="dcroat" unicode="&#x111;" horiz-adv-x="575" 
d="M236 -8q-85 0 -136.5 55.5t-51.5 151.5q0 79 28 146t82 108t132 41q56 0 101 -27t65 -82l27 173h-195l8 48h195l16 99h61l-16 -99h93l-7 -48h-94l-88 -558h-60l13 82q-28 -42 -72 -66t-101 -24zM252 43q60 0 101 33t62.5 88t21.5 121q0 77 -38 117t-105 40
q-60 0 -101 -33t-62 -88t-21 -121q0 -77 37.5 -117t104.5 -40z" />
    <glyph glyph-name="Emacron" unicode="&#x112;" horiz-adv-x="576" 
d="M54 0l111 705h435l-9 -53h-373l-43 -268h354l-9 -53h-354l-44 -278h374l-8 -53h-434zM256 818l8 47h318l-8 -47h-318z" />
    <glyph glyph-name="emacron" unicode="&#x113;" horiz-adv-x="528" 
d="M265 -8q-101 0 -159 56t-58 155q0 78 30.5 144t87 106.5t136.5 40.5q75 0 118 -35.5t58.5 -91t5.5 -117.5l-3 -20h-372q-10 -84 32 -135.5t125 -51.5q47 0 87 14t73 45l25 -43q-33 -33 -84 -50t-102 -17zM301 445q-57 0 -95 -25t-60 -64t-30 -81h318q5 47 -7 85.5
t-42.5 61.5t-83.5 23zM187 629l8 46h288l-8 -46h-288z" />
    <glyph glyph-name="Ebreve" unicode="&#x114;" horiz-adv-x="576" 
d="M54 0l111 705h435l-9 -53h-373l-43 -268h354l-9 -53h-354l-44 -278h374l-8 -53h-434zM410 760q-67 0 -109 45t-40 123l42 5q-3 -61 27.5 -94.5t82.5 -33.5q53 0 88 33.5t44 94.5l42 -5q-13 -78 -61.5 -123t-115.5 -45z" />
    <glyph glyph-name="ebreve" unicode="&#x115;" horiz-adv-x="528" 
d="M265 -8q-101 0 -159 56t-58 155q0 78 30.5 144t87 106.5t136.5 40.5q75 0 118 -35.5t58.5 -91t5.5 -117.5l-3 -20h-372q-10 -84 32 -135.5t125 -51.5q47 0 87 14t73 45l25 -43q-33 -33 -84 -50t-102 -17zM301 445q-57 0 -95 -25t-60 -64t-30 -81h318q5 47 -7 85.5
t-42.5 61.5t-83.5 23zM327 548q-64 0 -101.5 50t-33.5 138l42 5q-4 -71 21.5 -109.5t73.5 -38.5t79 38.5t41 109.5l41 -5q-12 -88 -55 -138t-108 -50z" />
    <glyph glyph-name="Edotaccent" unicode="&#x116;" horiz-adv-x="576" 
d="M54 0l111 705h435l-9 -53h-373l-43 -268h354l-9 -53h-354l-44 -278h374l-8 -53h-434zM376 813l12 75h76l-12 -75h-76z" />
    <glyph glyph-name="edotaccent" unicode="&#x117;" horiz-adv-x="528" 
d="M265 -8q-101 0 -159 56t-58 155q0 78 30.5 144t87 106.5t136.5 40.5q75 0 118 -35.5t58.5 -91t5.5 -117.5l-3 -20h-372q-10 -84 32 -135.5t125 -51.5q47 0 87 14t73 45l25 -43q-33 -33 -84 -50t-102 -17zM301 445q-57 0 -95 -25t-60 -64t-30 -81h318q5 47 -7 85.5
t-42.5 61.5t-83.5 23zM290 614l12 75h77l-12 -75h-77z" />
    <glyph glyph-name="Eogonek" unicode="&#x118;" horiz-adv-x="576" 
d="M54 0l111 705h435l-9 -53h-373l-43 -268h354l-9 -53h-354l-44 -278h374l-8 -53h-434zM419 -191q-45 0 -69 24.5t-24 63.5q0 46 29 81.5t75 55.5l21 -34q-39 -16 -58 -41.5t-19 -53.5q0 -24 13.5 -38.5t40.5 -14.5q25 0 54 12l10 -40q-13 -6 -32.5 -10.5t-40.5 -4.5z" />
    <glyph glyph-name="eogonek" unicode="&#x119;" horiz-adv-x="528" 
d="M265 -8q-101 0 -159 56t-58 155q0 78 30.5 144t87 106.5t136.5 40.5q75 0 118 -35.5t58.5 -91t5.5 -117.5l-3 -20h-372q-10 -84 32 -135.5t125 -51.5q47 0 87 14t73 45l25 -43q-33 -33 -84 -50t-102 -17zM301 445q-57 0 -95 -25t-60 -64t-30 -81h318q5 47 -7 85.5
t-42.5 61.5t-83.5 23zM279 -191q-45 0 -69 24.5t-24 63.5q0 46 29 81.5t75 55.5l21 -34q-39 -16 -58 -41.5t-19 -53.5q0 -24 13.5 -38.5t40.5 -14.5q25 0 54 12l10 -40q-13 -6 -32.5 -10.5t-40.5 -4.5z" />
    <glyph glyph-name="Ecaron" unicode="&#x11a;" horiz-adv-x="576" 
d="M54 0l111 705h435l-9 -53h-373l-43 -268h354l-9 -53h-354l-44 -278h374l-8 -53h-434zM376 765l-104 171h47l89 -126l119 126h50l-139 -171h-62z" />
    <glyph glyph-name="ecaron" unicode="&#x11b;" horiz-adv-x="528" 
d="M265 -8q-101 0 -159 56t-58 155q0 78 30.5 144t87 106.5t136.5 40.5q75 0 118 -35.5t58.5 -91t5.5 -117.5l-3 -20h-372q-10 -84 32 -135.5t125 -51.5q47 0 87 14t73 45l25 -43q-33 -33 -84 -50t-102 -17zM301 445q-57 0 -95 -25t-60 -64t-30 -81h318q5 47 -7 85.5
t-42.5 61.5t-83.5 23zM287 550l-87 201h44l77 -155l113 155h46l-131 -201h-62z" />
    <glyph glyph-name="Gcircumflex" unicode="&#x11c;" horiz-adv-x="722" 
d="M387 -8q-146 0 -227 77t-81 223q0 126 44 221t124.5 147.5t191.5 52.5q76 0 136 -24t99 -67l-31 -50q-42 43 -92 63.5t-116 20.5q-90 0 -155 -44.5t-100 -126t-35 -192.5q0 -124 63 -184.5t185 -60.5q47 0 87 8t75 20l37 233h-186l8 52h242l-52 -328q-39 -18 -98 -29.5
t-119 -11.5zM286 765l140 171h61l104 -171h-48l-89 126l-119 -126h-49z" />
    <glyph glyph-name="gcircumflex" unicode="&#x11d;" horiz-adv-x="578" 
d="M244 -188q-65 0 -117 20t-93 52l24 47q44 -32 84.5 -50t96.5 -18q66 0 107.5 34.5t53.5 106.5l16 102q-27 -45 -72 -70t-104 -25q-87 0 -139.5 54t-52.5 144q0 74 28 139t82.5 105.5t133.5 40.5q57 0 102 -27t65 -83l16 101h60l-76 -478q-31 -195 -215 -195zM253 63
q61 0 102.5 32.5t62.5 85.5t22 114q0 70 -38 108.5t-106 38.5q-61 0 -102 -32.5t-62.5 -85t-21.5 -113.5q0 -71 37.5 -109.5t105.5 -38.5zM196 550l131 201h62l88 -201h-44l-78 155l-113 -155h-46z" />
    <glyph glyph-name="Gbreve" unicode="&#x11e;" horiz-adv-x="722" 
d="M387 -8q-146 0 -227 77t-81 223q0 126 44 221t124.5 147.5t191.5 52.5q76 0 136 -24t99 -67l-31 -50q-42 43 -92 63.5t-116 20.5q-90 0 -155 -44.5t-100 -126t-35 -192.5q0 -124 63 -184.5t185 -60.5q47 0 87 8t75 20l37 233h-186l8 52h242l-52 -328q-39 -18 -98 -29.5
t-119 -11.5zM450 760q-67 0 -109 45t-40 123l42 5q-3 -61 27.5 -94.5t82.5 -33.5q53 0 88 33.5t44 94.5l42 -5q-13 -78 -61.5 -123t-115.5 -45z" />
    <glyph glyph-name="gbreve" unicode="&#x11f;" horiz-adv-x="578" 
d="M244 -188q-65 0 -117 20t-93 52l24 47q44 -32 84.5 -50t96.5 -18q66 0 107.5 34.5t53.5 106.5l16 102q-27 -45 -72 -70t-104 -25q-87 0 -139.5 54t-52.5 144q0 74 28 139t82.5 105.5t133.5 40.5q57 0 102 -27t65 -83l16 101h60l-76 -478q-31 -195 -215 -195zM253 63
q61 0 102.5 32.5t62.5 85.5t22 114q0 70 -38 108.5t-106 38.5q-61 0 -102 -32.5t-62.5 -85t-21.5 -113.5q0 -71 37.5 -109.5t105.5 -38.5zM347 548q-64 0 -101.5 50t-33.5 138l42 5q-4 -71 21.5 -109.5t73.5 -38.5t79 38.5t41 109.5l41 -5q-12 -88 -55 -138t-108 -50z" />
    <glyph glyph-name="Gdotaccent" unicode="&#x120;" horiz-adv-x="722" 
d="M387 -8q-146 0 -227 77t-81 223q0 126 44 221t124.5 147.5t191.5 52.5q76 0 136 -24t99 -67l-31 -50q-42 43 -92 63.5t-116 20.5q-90 0 -155 -44.5t-100 -126t-35 -192.5q0 -124 63 -184.5t185 -60.5q47 0 87 8t75 20l37 233h-186l8 52h242l-52 -328q-39 -18 -98 -29.5
t-119 -11.5zM416 813l12 75h76l-12 -75h-76z" />
    <glyph glyph-name="gdotaccent" unicode="&#x121;" horiz-adv-x="578" 
d="M244 -188q-65 0 -117 20t-93 52l24 47q44 -32 84.5 -50t96.5 -18q66 0 107.5 34.5t53.5 106.5l16 102q-27 -45 -72 -70t-104 -25q-87 0 -139.5 54t-52.5 144q0 74 28 139t82.5 105.5t133.5 40.5q57 0 102 -27t65 -83l16 101h60l-76 -478q-31 -195 -215 -195zM253 63
q61 0 102.5 32.5t62.5 85.5t22 114q0 70 -38 108.5t-106 38.5q-61 0 -102 -32.5t-62.5 -85t-21.5 -113.5q0 -71 37.5 -109.5t105.5 -38.5zM310 614l12 75h77l-12 -75h-77z" />
    <glyph glyph-name="uni0122" unicode="&#x122;" horiz-adv-x="722" 
d="M387 -8q-146 0 -227 77t-81 223q0 126 44 221t124.5 147.5t191.5 52.5q76 0 136 -24t99 -67l-31 -50q-42 43 -92 63.5t-116 20.5q-90 0 -155 -44.5t-100 -126t-35 -192.5q0 -124 63 -184.5t185 -60.5q47 0 87 8t75 20l37 233h-186l8 52h242l-52 -328q-39 -18 -98 -29.5
t-119 -11.5zM329 -263l-24 25q24 20 33 39t13 43h-42l12 73h84l-10 -64q-6 -38 -21 -66.5t-45 -49.5z" />
    <glyph glyph-name="uni0123" unicode="&#x123;" horiz-adv-x="578" 
d="M244 -188q-65 0 -117 20t-93 52l24 47q44 -32 84.5 -50t96.5 -18q66 0 107.5 34.5t53.5 106.5l16 102q-27 -45 -72 -70t-104 -25q-87 0 -139.5 54t-52.5 144q0 74 28 139t82.5 105.5t133.5 40.5q57 0 102 -27t65 -83l16 101h60l-76 -478q-31 -195 -215 -195zM253 63
q61 0 102.5 32.5t62.5 85.5t22 114q0 70 -38 108.5t-106 38.5q-61 0 -102 -32.5t-62.5 -85t-21.5 -113.5q0 -71 37.5 -109.5t105.5 -38.5zM300 569l10 64q7 38 21.5 66.5t44.5 49.5l24 -25q-24 -21 -33 -39.5t-13 -42.5h42l-12 -73h-84z" />
    <glyph glyph-name="Hcircumflex" unicode="&#x124;" horiz-adv-x="756" 
d="M53 0l112 705h62l-51 -320h449l51 320h61l-112 -705h-61l52 330h-448l-53 -330h-62zM299 765l140 171h61l104 -171h-48l-89 126l-119 -126h-49z" />
    <glyph glyph-name="hcircumflex" unicode="&#x125;" horiz-adv-x="560" 
d="M42 0l112 705h61l-48 -303q28 44 72.5 68t103.5 24q81 0 122 -49t25 -150l-47 -295h-61l47 295q23 146 -98 146q-80 0 -126.5 -48.5t-59.5 -128.5l-42 -264h-61zM203 765l140 171h61l104 -171h-48l-89 126l-119 -126h-49z" />
    <glyph glyph-name="Hbar" unicode="&#x126;" horiz-adv-x="789" 
d="M69 0l84 523h-94l8 51h94l20 131h62l-21 -131h449l20 131h62l-21 -131h95l-8 -51h-94l-84 -523h-62l53 328h-449l-52 -328h-62zM192 382h448l23 141h-449z" />
    <glyph glyph-name="hbar" unicode="&#x127;" horiz-adv-x="560" 
d="M42 0l89 558h-94l8 48h93l16 99h61l-16 -99h196l-8 -48h-195l-25 -156q28 44 72.5 68t103.5 24q81 0 122 -49t25 -150l-47 -295h-61l47 295q23 146 -98 146q-80 0 -126.5 -48.5t-59.5 -128.5l-42 -264h-61z" />
    <glyph glyph-name="Itilde" unicode="&#x128;" horiz-adv-x="245" 
d="M53 0l112 705h62l-112 -705h-62zM41 787l-38 3q11 61 42 94t78 33q28 0 53.5 -14t48.5 -30q20 -15 38.5 -26t36.5 -11q59 0 78 84l39 -3q-11 -61 -42 -94t-77 -33q-29 0 -54.5 14.5t-48.5 30.5q-20 14 -38.5 25t-36.5 11q-59 0 -79 -84z" />
    <glyph glyph-name="itilde" unicode="&#x129;" horiz-adv-x="222" 
d="M42 0l77 485h61l-77 -485h-61zM32 592l-39 3q10 61 39 94t71 33q26 0 44 -14.5t34 -31.5q13 -13 26.5 -24t29.5 -11q52 0 70 84l39 -3q-10 -61 -38.5 -94t-69.5 -33q-27 0 -45.5 14.5t-33.5 30.5q-14 14 -27.5 25t-29.5 11q-52 0 -70 -84z" />
    <glyph glyph-name="Imacron" unicode="&#x12a;" horiz-adv-x="245" 
d="M53 0l112 705h62l-112 -705h-62zM55 818l8 47h318l-8 -47h-318z" />
    <glyph glyph-name="imacron" unicode="&#x12b;" horiz-adv-x="222" 
d="M42 0l77 485h61l-77 -485h-61zM30 629l8 46h288l-8 -46h-288z" />
    <glyph glyph-name="Ibreve" unicode="&#x12c;" horiz-adv-x="245" 
d="M53 0l112 705h62l-112 -705h-62zM209 760q-67 0 -109 45t-40 123l42 5q-3 -61 27.5 -94.5t82.5 -33.5q53 0 88 33.5t44 94.5l42 -5q-13 -78 -61.5 -123t-115.5 -45z" />
    <glyph glyph-name="ibreve" unicode="&#x12d;" horiz-adv-x="222" 
d="M42 0l77 485h61l-77 -485h-61zM170 548q-64 0 -101.5 50t-33.5 138l42 5q-4 -71 21.5 -109.5t73.5 -38.5t79 38.5t41 109.5l41 -5q-12 -88 -55 -138t-108 -50z" />
    <glyph glyph-name="Iogonek" unicode="&#x12e;" horiz-adv-x="245" 
d="M53 0l112 705h62l-112 -705h-62zM77 -191q-45 0 -69 24.5t-24 63.5q0 46 29 81.5t75 55.5l21 -34q-39 -16 -58 -41.5t-19 -53.5q0 -24 13.5 -38.5t40.5 -14.5q25 0 54 12l10 -40q-13 -6 -32.5 -10.5t-40.5 -4.5z" />
    <glyph glyph-name="iogonek" unicode="&#x12f;" horiz-adv-x="222" 
d="M42 0l77 485h61l-77 -485h-61zM131 613l12 77h81l-12 -77h-81zM65 -191q-45 0 -69 24.5t-24 63.5q0 46 29 81.5t75 55.5l21 -34q-39 -16 -58 -41.5t-19 -53.5q0 -24 13.5 -38.5t40.5 -14.5q25 0 54 12l10 -40q-13 -6 -32.5 -10.5t-40.5 -4.5z" />
    <glyph glyph-name="Idotaccent" unicode="&#x130;" horiz-adv-x="245" 
d="M53 0l112 705h62l-112 -705h-62zM175 813l12 75h76l-12 -75h-76z" />
    <glyph glyph-name="dotlessi" unicode="&#x131;" horiz-adv-x="222" 
d="M42 0l77 485h61l-77 -485h-61z" />
    <glyph glyph-name="IJ" unicode="&#x132;" horiz-adv-x="555" 
d="M53 0l112 705h62l-112 -705h-62zM203 -7v54l55 4q114 8 135 141l82 513h61l-83 -524q-13 -84 -60 -131.5t-134 -52.5z" />
    <glyph glyph-name="Jcircumflex" unicode="&#x134;" horiz-adv-x="310" 
d="M-42 -7v54l55 4q114 8 135 141l82 513h61l-83 -524q-13 -84 -60 -131.5t-134 -52.5zM110 765l140 171h61l104 -171h-48l-89 126l-119 -126h-49z" />
    <glyph glyph-name="jcircumflex" unicode="&#x135;" horiz-adv-x="225" 
d="M-115 -193l-3 50l42 4q100 7 118 120l80 504h61l-80 -503q-13 -83 -57 -125t-117 -47zM19 550l131 201h62l88 -201h-44l-78 155l-113 -155h-46z" />
    <glyph glyph-name="uni0136" unicode="&#x136;" horiz-adv-x="607" 
d="M53 0l112 705h62l-51 -324h2l405 324h86l-435 -350l344 -355h-78l-329 336h-2l-54 -336h-62zM235 -263l-24 25q24 20 33 39t13 43h-42l12 73h84l-10 -64q-6 -38 -21 -66.5t-45 -49.5z" />
    <glyph glyph-name="uni0137" unicode="&#x137;" horiz-adv-x="484" 
d="M42 0l111 705h61l-69 -440h2l271 220h80l-290 -239l241 -246h-76l-231 234h-2l-37 -234h-61zM162 -263l-24 25q24 20 33 39t13 43h-42l12 73h84l-10 -64q-6 -38 -21 -66.5t-45 -49.5z" />
    <glyph glyph-name="kgreenlandic" unicode="&#x138;" horiz-adv-x="484" 
d="M42 0l77 485h61l-35 -220h2l271 220h80l-290 -239l241 -246h-77l-230 234h-2l-37 -234h-61z" />
    <glyph glyph-name="Lacute" unicode="&#x139;" horiz-adv-x="535" 
d="M53 0l112 705h62l-103 -650h367l-9 -55h-429zM181 765l131 171h74l-155 -171h-50z" />
    <glyph glyph-name="lacute" unicode="&#x13a;" horiz-adv-x="285" 
d="M182 -8q-67 0 -98 40t-18 119l87 554h61l-87 -554q-9 -57 8.5 -81.5t62.5 -24.5q23 0 48 6l-10 -52q-12 -4 -27 -5.5t-27 -1.5zM170 765l131 171h74l-155 -171h-50z" />
    <glyph glyph-name="uni013B" unicode="&#x13b;" horiz-adv-x="535" 
d="M53 0l112 705h62l-103 -650h367l-9 -55h-429zM221 -263l-24 25q24 20 33 39t13 43h-42l12 73h84l-10 -64q-6 -38 -21 -66.5t-45 -49.5z" />
    <glyph glyph-name="uni013C" unicode="&#x13c;" horiz-adv-x="285" 
d="M182 -8q-67 0 -98 40t-18 119l87 554h61l-87 -554q-9 -57 8.5 -81.5t62.5 -24.5q23 0 48 6l-10 -52q-12 -4 -27 -5.5t-27 -1.5zM99 -263l-24 25q24 20 33 39t13 43h-42l12 73h84l-10 -64q-6 -38 -21 -66.5t-45 -49.5z" />
    <glyph glyph-name="Lcaron" unicode="&#x13d;" horiz-adv-x="535" 
d="M53 0l112 705h62l-103 -650h367l-9 -55h-429zM311 484l35 221h60l-55 -221h-40z" />
    <glyph glyph-name="lcaron" unicode="&#x13e;" horiz-adv-x="285" 
d="M182 -8q-67 0 -98 40t-18 119l87 554h61l-87 -554q-9 -57 8.5 -81.5t62.5 -24.5q23 0 48 6l-10 -52q-12 -4 -27 -5.5t-27 -1.5zM232 516l30 189h57l-53 -189h-34z" />
    <glyph glyph-name="Ldot" unicode="&#x13f;" horiz-adv-x="535" 
d="M53 0l112 705h62l-103 -650h367l-9 -55h-429zM369 347l13 81h84l-13 -81h-84z" />
    <glyph glyph-name="ldot" unicode="&#x140;" horiz-adv-x="297" 
d="M182 -8q-67 0 -98 40t-18 119l87 554h61l-87 -554q-9 -57 8.5 -81.5t62.5 -24.5q23 0 48 6l-10 -52q-12 -4 -27 -5.5t-27 -1.5zM222 316l13 81h84l-13 -81h-84z" />
    <glyph glyph-name="Lslash" unicode="&#x141;" horiz-adv-x="535" 
d="M53 0l112 705h62l-103 -650h367l-9 -55h-429zM17 283l-23 46l357 166l23 -46z" />
    <glyph glyph-name="lslash" unicode="&#x142;" horiz-adv-x="285" 
d="M182 -8q-67 0 -98 40t-18 119l87 554h61l-87 -554q-9 -57 8.5 -81.5t62.5 -24.5q23 0 48 6l-10 -52q-12 -4 -27 -5.5t-27 -1.5zM20 272l-23 47l262 124l22 -48z" />
    <glyph glyph-name="Nacute" unicode="&#x143;" horiz-adv-x="735" 
d="M53 0l112 705h49l349 -608l96 608h58l-112 -705h-48l-350 609l-96 -609h-58zM426 765l131 171h74l-155 -171h-50z" />
    <glyph glyph-name="nacute" unicode="&#x144;" horiz-adv-x="560" 
d="M42 0l77 485h60l-14 -86q28 45 73 70t105 25q81 0 122 -49t25 -150l-47 -295h-61l47 295q23 146 -98 146q-80 0 -126.5 -48.5t-59.5 -128.5l-42 -264h-61zM306 550l134 201h71l-158 -201h-47z" />
    <glyph glyph-name="uni0145" unicode="&#x145;" horiz-adv-x="735" 
d="M53 0l112 705h49l349 -608l96 608h58l-112 -705h-48l-350 609l-96 -609h-58zM293 -263l-24 25q24 20 33 39t13 43h-42l12 73h84l-10 -64q-6 -38 -21 -66.5t-45 -49.5z" />
    <glyph glyph-name="uni0146" unicode="&#x146;" horiz-adv-x="560" 
d="M42 0l77 485h60l-14 -86q28 45 73 70t105 25q81 0 122 -49t25 -150l-47 -295h-61l47 295q23 146 -98 146q-80 0 -126.5 -48.5t-59.5 -128.5l-42 -264h-61zM200 -263l-24 25q24 20 33 39t13 43h-42l12 73h84l-10 -64q-6 -38 -21 -66.5t-45 -49.5z" />
    <glyph glyph-name="Ncaron" unicode="&#x147;" horiz-adv-x="735" 
d="M53 0l112 705h49l349 -608l96 608h58l-112 -705h-48l-350 609l-96 -609h-58zM420 765l-104 171h47l89 -126l119 126h50l-139 -171h-62z" />
    <glyph glyph-name="ncaron" unicode="&#x148;" horiz-adv-x="560" 
d="M42 0l77 485h60l-14 -86q28 45 73 70t105 25q81 0 122 -49t25 -150l-47 -295h-61l47 295q23 146 -98 146q-80 0 -126.5 -48.5t-59.5 -128.5l-42 -264h-61zM298 550l-87 201h44l77 -155l113 155h46l-131 -201h-62z" />
    <glyph glyph-name="napostrophe" unicode="&#x149;" horiz-adv-x="560" 
d="M85 573l-28 23q22 21 31.5 39t12.5 36h-39l12 78h83l-10 -63q-6 -34 -19 -60.5t-43 -52.5zM42 0l77 485h60l-14 -86q28 45 73 70t105 25q81 0 122 -49t25 -150l-47 -295h-61l47 295q23 146 -98 146q-80 0 -126.5 -48.5t-59.5 -128.5l-42 -264h-61z" />
    <glyph glyph-name="Eng" unicode="&#x14a;" horiz-adv-x="735" 
d="M384 -193l-3 50l42 4q104 7 122 120l5 31l-343 597l-96 -609h-58l112 705h49l349 -609l96 609h58l-115 -723q-13 -83 -57 -125t-117 -47z" />
    <glyph glyph-name="eng" unicode="&#x14b;" horiz-adv-x="560" 
d="M221 -193l-3 50l42 4q101 7 120 120l49 314q23 146 -98 146q-80 0 -126.5 -48.5t-59.5 -128.5l-42 -264h-61l77 485h60l-14 -86q27 45 72.5 70t105.5 25q81 0 122 -49t25 -150l-50 -313q-13 -83 -57.5 -125t-118.5 -47z" />
    <glyph glyph-name="Omacron" unicode="&#x14c;" horiz-adv-x="759" 
d="M362 -8q-129 0 -206 77t-77 222q0 90 23 166.5t67.5 134t110.5 89.5t151 32q130 0 207 -77t77 -222q0 -89 -23 -166t-68 -134.5t-110.5 -89.5t-151.5 -32zM364 48q93 0 156.5 48t96 131t32.5 186q0 124 -58.5 184t-162.5 60q-91 0 -154.5 -48t-96 -130.5t-32.5 -186.5
q0 -124 58.5 -184t160.5 -60zM302 818l8 47h318l-8 -47h-318z" />
    <glyph glyph-name="omacron" unicode="&#x14d;" horiz-adv-x="547" 
d="M250 -8q-94 0 -148 56t-54 155q0 79 29.5 145t85.5 106t134 40q93 0 147.5 -56.5t54.5 -154.5q0 -80 -30 -146t-85.5 -105.5t-133.5 -39.5zM252 43q60 0 101 33t62.5 88t21.5 121q0 77 -38 117t-105 40q-59 0 -100.5 -33t-62.5 -88t-21 -121q0 -77 37.5 -117t104.5 -40z
M193 629l8 46h288l-8 -46h-288z" />
    <glyph glyph-name="Obreve" unicode="&#x14e;" horiz-adv-x="759" 
d="M362 -8q-129 0 -206 77t-77 222q0 90 23 166.5t67.5 134t110.5 89.5t151 32q130 0 207 -77t77 -222q0 -89 -23 -166t-68 -134.5t-110.5 -89.5t-151.5 -32zM364 48q93 0 156.5 48t96 131t32.5 186q0 124 -58.5 184t-162.5 60q-91 0 -154.5 -48t-96 -130.5t-32.5 -186.5
q0 -124 58.5 -184t160.5 -60zM456 760q-67 0 -109 45t-40 123l42 5q-3 -61 27.5 -94.5t82.5 -33.5q53 0 88 33.5t44 94.5l42 -5q-13 -78 -61.5 -123t-115.5 -45z" />
    <glyph glyph-name="obreve" unicode="&#x14f;" horiz-adv-x="547" 
d="M250 -8q-94 0 -148 56t-54 155q0 79 29.5 145t85.5 106t134 40q93 0 147.5 -56.5t54.5 -154.5q0 -80 -30 -146t-85.5 -105.5t-133.5 -39.5zM252 43q60 0 101 33t62.5 88t21.5 121q0 77 -38 117t-105 40q-59 0 -100.5 -33t-62.5 -88t-21 -121q0 -77 37.5 -117t104.5 -40z
M333 548q-64 0 -101.5 50t-33.5 138l42 5q-4 -71 21.5 -109.5t73.5 -38.5t79 38.5t41 109.5l41 -5q-12 -88 -55 -138t-108 -50z" />
    <glyph glyph-name="Ohungarumlaut" unicode="&#x150;" horiz-adv-x="759" 
d="M362 -8q-129 0 -206 77t-77 222q0 90 23 166.5t67.5 134t110.5 89.5t151 32q130 0 207 -77t77 -222q0 -89 -23 -166t-68 -134.5t-110.5 -89.5t-151.5 -32zM364 48q93 0 156.5 48t96 131t32.5 186q0 124 -58.5 184t-162.5 60q-91 0 -154.5 -48t-96 -130.5t-32.5 -186.5
q0 -124 58.5 -184t160.5 -60zM376 765l100 171h66l-129 -171h-37zM493 765l102 171h66l-131 -171h-37z" />
    <glyph glyph-name="ohungarumlaut" unicode="&#x151;" horiz-adv-x="547" 
d="M250 -8q-94 0 -148 56t-54 155q0 79 29.5 145t85.5 106t134 40q93 0 147.5 -56.5t54.5 -154.5q0 -80 -30 -146t-85.5 -105.5t-133.5 -39.5zM252 43q60 0 101 33t62.5 88t21.5 121q0 77 -38 117t-105 40q-59 0 -100.5 -33t-62.5 -88t-21 -121q0 -77 37.5 -117t104.5 -40z
M365 550l74 201h61l-99 -201h-36zM247 550l74 201h61l-99 -201h-36z" />
    <glyph glyph-name="OE" unicode="&#x152;" horiz-adv-x="1042" 
d="M405 0q-157 0 -241.5 76.5t-84.5 215.5q0 85 23 160t71.5 132t123.5 89t180 32h588l-9 -53h-372l-42 -268h353l-8 -53h-354l-44 -278h374l-9 -53h-549zM406 54h123l95 597h-149q-90 0 -153.5 -28.5t-102.5 -78.5t-57 -114.5t-18 -137.5q0 -115 65.5 -176.5t196.5 -61.5z
" />
    <glyph glyph-name="oe" unicode="&#x153;" horiz-adv-x="908" 
d="M250 -8q-94 0 -148 56t-54 155q0 79 29.5 145t85.5 106t134 40q69 0 115.5 -33t65.5 -92q31 55 83 90t124 35q73 0 116 -35t58.5 -91t5.5 -118l-4 -20h-366q-9 -85 31.5 -135.5t122.5 -50.5q46 0 85 13.5t73 44.5l24 -43q-33 -33 -83 -50t-100 -17q-74 0 -124 32t-71 90
q-31 -55 -81.5 -88.5t-121.5 -33.5zM684 445q-56 0 -93.5 -25t-59 -64t-29.5 -81h312q5 47 -6.5 85.5t-41.5 61.5t-82 23zM252 44q60 0 101 32.5t62.5 87.5t21.5 121q0 77 -38 117t-105 40q-59 0 -100.5 -33t-62.5 -88t-21 -121q0 -77 37.5 -116.5t104.5 -39.5z" />
    <glyph glyph-name="Racute" unicode="&#x154;" horiz-adv-x="661" 
d="M53 0l112 705h241q113 0 169 -50.5t56 -136.5q0 -91 -54.5 -143t-141.5 -63q23 -11 40 -32.5t29 -53.5l86 -226h-62l-83 220q-18 47 -46 66t-83 19h-153l-48 -305h-62zM172 357h214q86 0 134 41t48 117q0 68 -40 102.5t-126 34.5h-183zM383 765l131 171h74l-155 -171h-50
z" />
    <glyph glyph-name="racute" unicode="&#x155;" horiz-adv-x="342" 
d="M42 0l77 485h60l-13 -80q23 37 62 61t97 28l37 3l2 -53l-44 -4q-86 -8 -124 -51.5t-49 -114.5l-43 -274h-62zM231 553l134 201h71l-158 -201h-47z" />
    <glyph glyph-name="uni0156" unicode="&#x156;" horiz-adv-x="661" 
d="M53 0l112 705h241q113 0 169 -50.5t56 -136.5q0 -91 -54.5 -143t-141.5 -63q23 -11 40 -32.5t29 -53.5l86 -226h-62l-83 220q-18 47 -46 66t-83 19h-153l-48 -305h-62zM172 357h214q86 0 134 41t48 117q0 68 -40 102.5t-126 34.5h-183zM261 -263l-24 25q24 20 33 39
t13 43h-42l12 73h84l-10 -64q-6 -38 -21 -66.5t-45 -49.5z" />
    <glyph glyph-name="uni0157" unicode="&#x157;" horiz-adv-x="342" 
d="M42 0l77 485h60l-13 -80q23 37 62 61t97 28l37 3l2 -53l-44 -4q-86 -8 -124 -51.5t-49 -114.5l-43 -274h-62zM26 -263l-24 25q24 20 33 39t13 43h-42l12 73h84l-10 -64q-6 -38 -21 -66.5t-45 -49.5z" />
    <glyph glyph-name="Rcaron" unicode="&#x158;" horiz-adv-x="661" 
d="M53 0l112 705h241q113 0 169 -50.5t56 -136.5q0 -91 -54.5 -143t-141.5 -63q23 -11 40 -32.5t29 -53.5l86 -226h-62l-83 220q-18 47 -46 66t-83 19h-153l-48 -305h-62zM172 357h214q86 0 134 41t48 117q0 68 -40 102.5t-126 34.5h-183zM377 765l-104 171h47l89 -126
l119 126h50l-139 -171h-62z" />
    <glyph glyph-name="rcaron" unicode="&#x159;" horiz-adv-x="342" 
d="M42 0l77 485h60l-13 -80q23 37 62 61t97 28l37 3l2 -53l-44 -4q-86 -8 -124 -51.5t-49 -114.5l-43 -274h-62zM223 553l-87 201h44l77 -155l113 155h46l-131 -201h-62z" />
    <glyph glyph-name="Sacute" unicode="&#x15a;" horiz-adv-x="607" 
d="M296 -8q-77 0 -146 19.5t-119 66.5l28 48q54 -46 111.5 -62t129.5 -16q86 0 139 36.5t53 100.5q0 44 -31 75t-111 49l-101 25q-69 16 -110.5 56t-41.5 118q0 62 34.5 108t93 71.5t129.5 25.5q67 0 131.5 -21.5t109.5 -68.5l-29 -49q-45 45 -100 64t-114 19q-55 0 -98 -18
t-68.5 -51t-25.5 -78q0 -57 27.5 -83t80.5 -39l102 -24q96 -22 140.5 -65.5t44.5 -106.5q0 -65 -34.5 -109.5t-93.5 -67.5t-131 -23zM350 765l131 171h74l-155 -171h-50z" />
    <glyph glyph-name="sacute" unicode="&#x15b;" horiz-adv-x="478" 
d="M221 -8q-57 0 -106.5 16t-79.5 44l27 44q35 -29 75.5 -41.5t86.5 -12.5q57 0 90 23t33 66q0 28 -18.5 46t-51.5 27l-95 24q-48 12 -75.5 43t-27.5 76q0 64 51.5 105.5t137.5 41.5q51 0 96 -17.5t71 -46.5l-25 -43q-55 56 -144 56q-58 0 -93 -25t-35 -69q0 -26 16 -45.5
t50 -27.5l96 -25q49 -12 78 -41t29 -74q0 -68 -51.5 -106t-134.5 -38zM257 550l134 201h71l-158 -201h-47z" />
    <glyph glyph-name="Scircumflex" unicode="&#x15c;" horiz-adv-x="607" 
d="M296 -8q-77 0 -146 19.5t-119 66.5l28 48q54 -46 111.5 -62t129.5 -16q86 0 139 36.5t53 100.5q0 44 -31 75t-111 49l-101 25q-69 16 -110.5 56t-41.5 118q0 62 34.5 108t93 71.5t129.5 25.5q67 0 131.5 -21.5t109.5 -68.5l-29 -49q-45 45 -100 64t-114 19q-55 0 -98 -18
t-68.5 -51t-25.5 -78q0 -57 27.5 -83t80.5 -39l102 -24q96 -22 140.5 -65.5t44.5 -106.5q0 -65 -34.5 -109.5t-93.5 -67.5t-131 -23zM214 765l140 171h61l104 -171h-48l-89 126l-119 -126h-49z" />
    <glyph glyph-name="scircumflex" unicode="&#x15d;" horiz-adv-x="478" 
d="M221 -8q-57 0 -106.5 16t-79.5 44l27 44q35 -29 75.5 -41.5t86.5 -12.5q57 0 90 23t33 66q0 28 -18.5 46t-51.5 27l-95 24q-48 12 -75.5 43t-27.5 76q0 64 51.5 105.5t137.5 41.5q51 0 96 -17.5t71 -46.5l-25 -43q-55 56 -144 56q-58 0 -93 -25t-35 -69q0 -26 16 -45.5
t50 -27.5l96 -25q49 -12 78 -41t29 -74q0 -68 -51.5 -106t-134.5 -38zM138 550l131 201h62l88 -201h-44l-78 155l-113 -155h-46z" />
    <glyph glyph-name="Scedilla" unicode="&#x15e;" horiz-adv-x="607" 
d="M296 -8q-77 0 -146 19.5t-119 66.5l28 48q54 -46 111.5 -62t129.5 -16q86 0 139 36.5t53 100.5q0 44 -31 75t-111 49l-101 25q-69 16 -110.5 56t-41.5 118q0 62 34.5 108t93 71.5t129.5 25.5q67 0 131.5 -21.5t109.5 -68.5l-29 -49q-45 45 -100 64t-114 19q-55 0 -98 -18
t-68.5 -51t-25.5 -78q0 -57 27.5 -83t80.5 -39l102 -24q96 -22 140.5 -65.5t44.5 -106.5q0 -65 -34.5 -109.5t-93.5 -67.5t-131 -23zM270 -191q-52 0 -82 19l14 39q18 -9 33.5 -13t39.5 -4q27 0 45.5 11t18.5 31q0 28 -35 28q-11 0 -22.5 -1.5t-28.5 -7.5l-14 14l30 95h45
l-22 -66q12 2 22 2q31 0 51.5 -16t20.5 -45q0 -39 -33 -62.5t-83 -23.5z" />
    <glyph glyph-name="scedilla" unicode="&#x15f;" horiz-adv-x="478" 
d="M221 -8q-57 0 -106.5 16t-79.5 44l27 44q35 -29 75.5 -41.5t86.5 -12.5q57 0 90 23t33 66q0 28 -18.5 46t-51.5 27l-95 24q-48 12 -75.5 43t-27.5 76q0 64 51.5 105.5t137.5 41.5q51 0 96 -17.5t71 -46.5l-25 -43q-55 56 -144 56q-58 0 -93 -25t-35 -69q0 -26 16 -45.5
t50 -27.5l96 -25q49 -12 78 -41t29 -74q0 -68 -51.5 -106t-134.5 -38zM191 -191q-52 0 -82 19l14 39q18 -9 33.5 -13t39.5 -4q27 0 45.5 11t18.5 31q0 28 -35 28q-11 0 -22.5 -1.5t-28.5 -7.5l-14 14l30 95h45l-22 -66q12 2 22 2q31 0 51.5 -16t20.5 -45q0 -39 -33 -62.5
t-83 -23.5z" />
    <glyph glyph-name="Scaron" unicode="&#x160;" horiz-adv-x="607" 
d="M296 -8q-77 0 -146 19.5t-119 66.5l28 48q54 -46 111.5 -62t129.5 -16q86 0 139 36.5t53 100.5q0 44 -31 75t-111 49l-101 25q-69 16 -110.5 56t-41.5 118q0 62 34.5 108t93 71.5t129.5 25.5q67 0 131.5 -21.5t109.5 -68.5l-29 -49q-45 45 -100 64t-114 19q-55 0 -98 -18
t-68.5 -51t-25.5 -78q0 -57 27.5 -83t80.5 -39l102 -24q96 -22 140.5 -65.5t44.5 -106.5q0 -65 -34.5 -109.5t-93.5 -67.5t-131 -23zM344 765l-104 171h47l89 -126l119 126h50l-139 -171h-62z" />
    <glyph glyph-name="scaron" unicode="&#x161;" horiz-adv-x="478" 
d="M221 -8q-57 0 -106.5 16t-79.5 44l27 44q35 -29 75.5 -41.5t86.5 -12.5q57 0 90 23t33 66q0 28 -18.5 46t-51.5 27l-95 24q-48 12 -75.5 43t-27.5 76q0 64 51.5 105.5t137.5 41.5q51 0 96 -17.5t71 -46.5l-25 -43q-55 56 -144 56q-58 0 -93 -25t-35 -69q0 -26 16 -45.5
t50 -27.5l96 -25q49 -12 78 -41t29 -74q0 -68 -51.5 -106t-134.5 -38zM249 550l-87 201h44l77 -155l113 155h46l-131 -201h-62z" />
    <glyph glyph-name="uni0162" unicode="&#x162;" horiz-adv-x="594" 
d="M227 0l104 650h-263l8 55h588l-9 -55h-263l-103 -650h-62zM239 -191q-52 0 -82 19l14 39q18 -9 33.5 -13t39.5 -4q27 0 45.5 11t18.5 31q0 28 -35 28q-11 0 -22.5 -1.5t-28.5 -7.5l-14 14l30 95h45l-22 -66q12 2 22 2q31 0 51.5 -16t20.5 -45q0 -39 -33 -62.5t-83 -23.5z
" />
    <glyph glyph-name="uni0163" unicode="&#x163;" horiz-adv-x="335" 
d="M229 -8q-79 0 -116 45t-25 123l44 276h-96l8 49h95l24 150h61l-24 -150h157l-8 -49h-157l-42 -268q-10 -65 13 -94t75 -29q18 0 33 3.5t27 8.5l8 -49q-11 -6 -33.5 -11t-43.5 -5zM159 -191q-52 0 -82 19l14 39q18 -9 33.5 -13t39.5 -4q27 0 45.5 11t18.5 31q0 28 -35 28
q-11 0 -22.5 -1.5t-28.5 -7.5l-14 14l30 95h45l-22 -66q12 2 22 2q31 0 51.5 -16t20.5 -45q0 -39 -33 -62.5t-83 -23.5z" />
    <glyph glyph-name="Tcaron" unicode="&#x164;" horiz-adv-x="594" 
d="M227 0l104 650h-263l8 55h588l-9 -55h-263l-103 -650h-62zM349 765l-104 171h47l89 -126l119 126h50l-139 -171h-62z" />
    <glyph glyph-name="tcaron" unicode="&#x165;" horiz-adv-x="335" 
d="M229 -8q-79 0 -116 45t-25 123l44 276h-96l8 49h95l24 150h61l-24 -150h157l-8 -49h-157l-42 -268q-10 -65 13 -94t75 -29q18 0 33 3.5t27 8.5l8 -49q-11 -6 -33.5 -11t-43.5 -5zM280.624 536.947l29.376 168.616h55.8135l-50.918 -168.616h-34.2715z" />
    <glyph glyph-name="Tbar" unicode="&#x166;" horiz-adv-x="594" 
d="M227 0l104 650h-263l8 55h588l-9 -55h-263l-103 -650h-62zM136 333l8 50h350l-8 -50h-350z" />
    <glyph glyph-name="tbar" unicode="&#x167;" horiz-adv-x="335" 
d="M229 -8q-79 0 -116 45t-25 123l44 276h-96l8 49h95l24 150h61l-24 -150h157l-8 -49h-157l-42 -268q-10 -65 13 -94t75 -29q18 0 33 3.5t27 8.5l8 -49q-11 -6 -33.5 -11t-43.5 -5zM27 246l8 45h259l-8 -45h-259z" />
    <glyph glyph-name="Utilde" unicode="&#x168;" horiz-adv-x="724" 
d="M333 -8q-134 0 -198 75t-41 225l66 413h61l-66 -419q-38 -238 180 -238q105 0 165.5 53t79.5 171l69 433h61l-69 -440q-22 -136 -97 -204.5t-211 -68.5zM280 787l-38 3q11 61 42 94t78 33q28 0 53.5 -14t48.5 -30q20 -15 38.5 -26t36.5 -11q59 0 78 84l39 -3
q-11 -61 -42 -94t-77 -33q-29 0 -54.5 14.5t-48.5 30.5q-20 14 -38.5 25t-36.5 11q-59 0 -79 -84z" />
    <glyph glyph-name="utilde" unicode="&#x169;" horiz-adv-x="553" 
d="M215 -8q-79 0 -120 48.5t-25 150.5l47 294h61l-47 -295q-23 -146 96 -146q76 0 122 48.5t59 129.5l41 263h61l-77 -485h-59l13 85q-27 -45 -71.5 -69t-100.5 -24zM192 593l-39 3q10 61 39 94t71 33q26 0 44 -14.5t34 -31.5q13 -13 26.5 -24t29.5 -11q52 0 70 84l39 -3
q-10 -61 -38.5 -94t-69.5 -33q-27 0 -45.5 14.5t-33.5 30.5q-14 14 -27.5 25t-29.5 11q-52 0 -70 -84z" />
    <glyph glyph-name="Umacron" unicode="&#x16a;" horiz-adv-x="724" 
d="M333 -8q-134 0 -198 75t-41 225l66 413h61l-66 -419q-38 -238 180 -238q105 0 165.5 53t79.5 171l69 433h61l-69 -440q-22 -136 -97 -204.5t-211 -68.5zM294 818l8 47h318l-8 -47h-318z" />
    <glyph glyph-name="umacron" unicode="&#x16b;" horiz-adv-x="553" 
d="M215 -8q-79 0 -120 48.5t-25 150.5l47 294h61l-47 -295q-23 -146 96 -146q76 0 122 48.5t59 129.5l41 263h61l-77 -485h-59l13 85q-27 -45 -71.5 -69t-100.5 -24zM190 630l8 46h288l-8 -46h-288z" />
    <glyph glyph-name="Ubreve" unicode="&#x16c;" horiz-adv-x="724" 
d="M333 -8q-134 0 -198 75t-41 225l66 413h61l-66 -419q-38 -238 180 -238q105 0 165.5 53t79.5 171l69 433h61l-69 -440q-22 -136 -97 -204.5t-211 -68.5zM448 760q-67 0 -109 45t-40 123l42 5q-3 -61 27.5 -94.5t82.5 -33.5q53 0 88 33.5t44 94.5l42 -5
q-13 -78 -61.5 -123t-115.5 -45z" />
    <glyph glyph-name="ubreve" unicode="&#x16d;" horiz-adv-x="553" 
d="M215 -8q-79 0 -120 48.5t-25 150.5l47 294h61l-47 -295q-23 -146 96 -146q76 0 122 48.5t59 129.5l41 263h61l-77 -485h-59l13 85q-27 -45 -71.5 -69t-100.5 -24zM330 549q-64 0 -101.5 50t-33.5 138l42 5q-4 -71 21.5 -109.5t73.5 -38.5t79 38.5t41 109.5l41 -5
q-12 -88 -55 -138t-108 -50z" />
    <glyph glyph-name="Uring" unicode="&#x16e;" horiz-adv-x="724" 
d="M333 -8q-134 0 -198 75t-41 225l66 413h61l-66 -419q-38 -238 180 -238q105 0 165.5 53t79.5 171l69 433h61l-69 -440q-22 -136 -97 -204.5t-211 -68.5zM461 759q-49 0 -82 33t-33 80t33 80t82 33t82 -33t33 -80t-33 -80t-82 -33zM461 797q33 0 54 21.5t21 53.5t-21 53.5
t-54 21.5t-54 -21.5t-21 -53.5t21 -53.5t54 -21.5z" />
    <glyph glyph-name="uring" unicode="&#x16f;" horiz-adv-x="553" 
d="M215 -8q-79 0 -120 48.5t-25 150.5l47 294h61l-47 -295q-23 -146 96 -146q76 0 122 48.5t59 129.5l41 263h61l-77 -485h-59l13 85q-27 -45 -71.5 -69t-100.5 -24zM339 548q-48 0 -81.5 32.5t-33.5 80.5q0 47 33.5 79.5t81.5 32.5q49 0 82.5 -32.5t33.5 -79.5
q0 -48 -33.5 -80.5t-82.5 -32.5zM339 585q33 0 54 22t21 54q0 31 -21 53t-54 22t-54 -22t-21 -53q0 -32 21 -54t54 -22z" />
    <glyph glyph-name="Uhungarumlaut" unicode="&#x170;" horiz-adv-x="724" 
d="M333 -8q-134 0 -198 75t-41 225l66 413h61l-66 -419q-38 -238 180 -238q105 0 165.5 53t79.5 171l69 433h61l-69 -440q-22 -136 -97 -204.5t-211 -68.5zM368 765l100 171h66l-129 -171h-37zM485 765l102 171h66l-131 -171h-37z" />
    <glyph glyph-name="uhungarumlaut" unicode="&#x171;" horiz-adv-x="553" 
d="M215 -8q-79 0 -120 48.5t-25 150.5l47 294h61l-47 -295q-23 -146 96 -146q76 0 122 48.5t59 129.5l41 263h61l-77 -485h-59l13 85q-27 -45 -71.5 -69t-100.5 -24zM362 551l74 201h61l-99 -201h-36zM244 551l74 201h61l-99 -201h-36z" />
    <glyph glyph-name="Uogonek" unicode="&#x172;" horiz-adv-x="724" 
d="M333 -8q-134 0 -198 75t-41 225l66 413h61l-66 -419q-38 -238 180 -238q105 0 165.5 53t79.5 171l69 433h61l-69 -440q-22 -136 -97 -204.5t-211 -68.5zM356 -191q-45 0 -69 24.5t-24 63.5q0 46 29 81.5t75 55.5l21 -34q-39 -16 -58 -41.5t-19 -53.5q0 -24 13.5 -38.5
t40.5 -14.5q25 0 54 12l10 -40q-13 -6 -32.5 -10.5t-40.5 -4.5z" />
    <glyph glyph-name="uogonek" unicode="&#x173;" horiz-adv-x="553" 
d="M215 -8q-79 0 -120 48.5t-25 150.5l47 294h61l-47 -295q-23 -146 96 -146q76 0 122 48.5t59 129.5l41 263h61l-77 -485h-59l13 85q-27 -45 -71.5 -69t-100.5 -24zM393 -191q-45 0 -69 24.5t-24 63.5q0 46 29 81.5t75 55.5l21 -34q-39 -16 -58 -41.5t-19 -53.5
q0 -24 13.5 -38.5t40.5 -14.5q25 0 54 12l10 -40q-13 -6 -32.5 -10.5t-40.5 -4.5z" />
    <glyph glyph-name="Wcircumflex" unicode="&#x174;" horiz-adv-x="1096" 
d="M240 0l-133 705h61l113 -613l310 613h52l115 -619l311 619h66l-357 -705h-58l-114 611l-310 -611h-56zM469 765l140 171h61l104 -171h-48l-89 126l-119 -126h-49z" />
    <glyph glyph-name="wcircumflex" unicode="&#x175;" horiz-adv-x="835" 
d="M169 0l-98 485h60l78 -413l215 413h59l81 -416l212 416h65l-253 -485h-63l-81 407l-213 -407h-62zM320 550l131 201h62l88 -201h-44l-78 155l-113 -155h-46z" />
    <glyph glyph-name="Ycircumflex" unicode="&#x176;" horiz-adv-x="586" 
d="M223 0l53 337l-210 368h67l179 -313l279 313h75l-328 -367l-53 -338h-62zM208 765l140 171h61l104 -171h-48l-89 126l-119 -126h-49z" />
    <glyph glyph-name="ycircumflex" unicode="&#x177;" horiz-adv-x="509" 
d="M76 -180l107 182l-129 483h63l106 -417l241 417h68l-391 -665h-65zM150 550l131 201h62l88 -201h-44l-78 155l-113 -155h-46z" />
    <glyph glyph-name="Ydieresis" unicode="&#x178;" horiz-adv-x="586" 
d="M223 0l53 337l-210 368h67l179 -313l279 313h75l-328 -367l-53 -338h-62zM423 813l12 73h73l-12 -73h-73zM256 813l12 73h73l-12 -73h-73z" />
    <glyph glyph-name="Zacute" unicode="&#x179;" horiz-adv-x="582" 
d="M10 0l8 46l511 604h-416l9 55h497l-7 -45l-512 -605h430l-9 -55h-511zM352 765l131 171h74l-155 -171h-50z" />
    <glyph glyph-name="zacute" unicode="&#x17a;" horiz-adv-x="459" 
d="M19 0l7 41l347 396h-285l8 48h358l-6 -41l-347 -395h295l-8 -49h-369zM258 550l134 201h71l-158 -201h-47z" />
    <glyph glyph-name="Zdotaccent" unicode="&#x17b;" horiz-adv-x="582" 
d="M10 0l8 46l511 604h-416l9 55h497l-7 -45l-512 -605h430l-9 -55h-511zM346 813l12 75h76l-12 -75h-76z" />
    <glyph glyph-name="zdotaccent" unicode="&#x17c;" horiz-adv-x="459" 
d="M19 0l7 41l347 396h-285l8 48h358l-6 -41l-347 -395h295l-8 -49h-369zM253 614l12 75h77l-12 -75h-77z" />
    <glyph glyph-name="Zcaron" unicode="&#x17d;" horiz-adv-x="582" 
d="M10 0l8 46l511 604h-416l9 55h497l-7 -45l-512 -605h430l-9 -55h-511zM346 765l-104 171h47l89 -126l119 126h50l-139 -171h-62z" />
    <glyph glyph-name="zcaron" unicode="&#x17e;" horiz-adv-x="459" 
d="M19 0l7 41l347 396h-285l8 48h358l-6 -41l-347 -395h295l-8 -49h-369zM250 550l-87 201h44l77 -155l113 155h46l-131 -201h-62z" />
    <glyph glyph-name="uni0181" unicode="&#x181;" horiz-adv-x="783" 
d="M166 0l104 654h-36q-59 0 -90.5 -25.5t-41.5 -88.5l-7 -42h-54l7 48q13 80 56.5 119.5t136.5 39.5h293q107 0 159.5 -44.5t52.5 -120.5q0 -71 -39.5 -118.5t-107.5 -65.5q52 -17 81 -55.5t29 -92.5q0 -103 -63.5 -155.5t-181.5 -52.5h-298zM287 383h215q83 0 132 39.5
t49 113.5q0 117 -155 117h-198zM235 52h231q181 0 181 157q0 60 -40 91t-114 31h-214z" />
    <glyph glyph-name="uni018A" unicode="&#x18a;" horiz-adv-x="846" 
d="M166 0l104 654h-36q-59 0 -90.5 -25.5t-41.5 -88.5l-7 -42h-54l7 48q13 80 56.5 119.5t136.5 39.5h235q156 0 241 -76.5t85 -215.5q0 -85 -23 -159.5t-71.5 -131.5t-123.5 -89.5t-179 -32.5h-239zM236 54h171q90 0 153 28.5t102 78.5t57 114.5t18 137.5
q0 115 -65.5 176.5t-196.5 61.5h-145z" />
    <glyph glyph-name="uni018F" unicode="&#x18f;" horiz-adv-x="759" 
d="M357 -8q-81 0 -138.5 29.5t-91.5 81t-45.5 116.5t-0.5 135l4 29h563q1 15 1 30q0 74 -29.5 128.5t-84.5 85t-131 30.5q-81 0 -138.5 -20.5t-110.5 -64.5l-24 50q52 47 123 69t160 22t157 -38.5t105.5 -106.5t37.5 -156q0 -123 -41.5 -218t-121.5 -148.5t-194 -53.5z
M363 47q81 0 139.5 36.5t93.5 100t47 145.5h-502q-7 -79 12.5 -143t71 -101.5t138.5 -37.5z" />
    <glyph glyph-name="florin" unicode="&#x192;" horiz-adv-x="600" 
d="M-24 -188l8 51h49q47 0 77.5 24t54.5 87l171 462h-126l8 49h137l27 74q28 78 73 116t129 38h43l-8 -53h-45q-49 0 -80 -23t-54 -87l-24 -65h128l-8 -49h-138l-176 -472q-21 -56 -47 -89.5t-63.5 -48t-90.5 -14.5h-45z" />
    <glyph glyph-name="Ohorn" unicode="&#x1a0;" horiz-adv-x="759" 
d="M362 -8q-129 0 -206 77t-77 222q0 90 23 166.5t67.5 134t110.5 89.5t151 32q130 0 207 -77t77 -222q0 -89 -23 -166t-68 -134.5t-110.5 -89.5t-151.5 -32zM364 48q93 0 156.5 48t96 131t32.5 186q0 124 -58.5 184t-162.5 60q-91 0 -154.5 -48t-96 -130.5t-32.5 -186.5
q0 -124 58.5 -184t160.5 -60zM521 661l-45 48q27 -2 47 -3t41 -1q68 0 95.5 29t37.5 88l2 14h56l-4 -24q-11 -72 -51.5 -111.5t-114.5 -39.5h-64z" />
    <glyph glyph-name="ohorn" unicode="&#x1a1;" horiz-adv-x="547" 
d="M250 -8q-94 0 -148 56t-54 155q0 79 29.5 145t85.5 106t134 40q93 0 147.5 -56.5t54.5 -154.5q0 -80 -30 -146t-85.5 -105.5t-133.5 -39.5zM252 43q60 0 101 33t62.5 88t21.5 121q0 77 -38 117t-105 40q-59 0 -100.5 -33t-62.5 -88t-21 -121q0 -77 37.5 -117t104.5 -40z
M384 441l-27 21l4 23q69 1 96 30t37 87l2 14h56l-4 -30q-21 -137 -164 -145z" />
    <glyph glyph-name="Uhorn" unicode="&#x1af;" horiz-adv-x="724" 
d="M333 -8q-134 0 -198 75t-41 225l66 413h61l-66 -419q-38 -238 180 -238q105 0 165.5 53t79.5 171l69 433h61l-69 -440q-22 -136 -97 -204.5t-211 -68.5zM677 661l-26 20l4 24q68 1 95.5 29.5t37.5 86.5l2 15h56l-4 -24q-10 -70 -53 -108.5t-112 -42.5z" />
    <glyph glyph-name="uhorn" unicode="&#x1b0;" horiz-adv-x="553" 
d="M215 -8q-79 0 -120 48.5t-25 150.5l47 294h61l-47 -295q-23 -146 96 -146q76 0 122 48.5t59 129.5l41 263h61l-77 -485h-59l13 85q-27 -45 -71.5 -69t-100.5 -24zM481 441l-27 21l4 23q69 1 96 30t37 87l2 14h56l-4 -30q-21 -137 -164 -145z" />
    <glyph glyph-name="uni01B3" unicode="&#x1b3;" horiz-adv-x="610" 
d="M223 0l53 337l-210 368h67l179 -313l220 248q36 40 67.5 56.5t72.5 16.5q32 0 54 -8l-8 -49q-19 7 -46 7q-25 0 -44.5 -11.5t-45.5 -39.5l-244 -274l-53 -338h-62z" />
    <glyph glyph-name="uni01B4" unicode="&#x1b4;" horiz-adv-x="542" 
d="M412 397q30 51 63.5 74t84.5 23q34 0 56 -8l-17 -50q-8 3 -18 4.5t-18 1.5q-32 0 -54.5 -17t-49.5 -63l-318 -542h-65l107 182l-129 483h63l106 -417z" />
    <glyph glyph-name="uni01C4" unicode="&#x1c4;" horiz-adv-x="1300" 
d="M53 0l112 705h199q156 0 241 -76.5t85 -215.5q0 -85 -23 -159.5t-71.5 -131.5t-123.5 -89.5t-179 -32.5h-240zM124 54h171q90 0 152.5 28.5t102 78.5t57.5 114.5t18 137.5q0 115 -66 176.5t-196 61.5h-144zM728 0l8 46l511 604h-416l9 55h497l-7 -45l-512 -605h430
l-9 -55h-511zM1064 765l-104 171h47l89 -126l119 126h50l-139 -171h-62z" />
    <glyph glyph-name="uni01C5" unicode="&#x1c5;" horiz-adv-x="1192" 
d="M53 0l112 705h199q156 0 241 -76.5t85 -215.5q0 -85 -23 -159.5t-71.5 -131.5t-123.5 -89.5t-179 -32.5h-240zM124 54h171q90 0 152.5 28.5t102 78.5t57.5 114.5t18 137.5q0 115 -66 176.5t-196 61.5h-144zM752 0l7 41l347 396h-285l8 48h358l-6 -41l-347 -395h295
l-8 -49h-369zM983 550l-87 201h44l77 -155l113 155h46l-131 -201h-62z" />
    <glyph glyph-name="uni01C6" unicode="&#x1c6;" horiz-adv-x="1034" 
d="M236 -8q-85 0 -136.5 55.5t-51.5 151.5q0 79 28 146t82 108t132 41q56 0 101 -27t65 -83l51 321h61l-112 -705h-60l13 82q-28 -42 -72 -66t-101 -24zM252 43q60 0 101 33t62.5 88t21.5 121q0 77 -38 117t-105 40q-60 0 -101 -33t-62 -88t-21 -121q0 -77 37.5 -117
t104.5 -40zM594 0l7 41l347 396h-285l8 48h358l-6 -41l-347 -395h295l-8 -49h-369zM825 550l-87 201h44l77 -155l113 155h46l-131 -201h-62z" />
    <glyph glyph-name="uni01C7" unicode="&#x1c7;" horiz-adv-x="885" 
d="M53 0l112 705h62l-103 -650h367l-9 -55h-429zM533 -7v54l55 4q114 8 135 141l82 513h61l-83 -524q-13 -84 -60 -131.5t-134 -52.5z" />
    <glyph glyph-name="uni01C8" unicode="&#x1c8;" horiz-adv-x="760" 
d="M53 0l112 705h62l-103 -650h367l-9 -55h-429zM667 613l12 77h82l-13 -77h-81zM420 -193l-3 50l42 4q100 7 118 120l80 504h61l-80 -503q-13 -83 -57 -125t-117 -47z" />
    <glyph glyph-name="uni01C9" unicode="&#x1c9;" horiz-adv-x="510" 
d="M182 -8q-67 0 -98 40t-18 119l87 554h61l-87 -554q-9 -57 8.5 -81.5t62.5 -24.5q23 0 48 6l-10 -52q-12 -4 -27 -5.5t-27 -1.5zM417 613l12 77h82l-13 -77h-81zM170 -193l-3 50l42 4q100 7 118 120l80 504h61l-80 -503q-13 -83 -57 -125t-117 -47z" />
    <glyph glyph-name="uni01CA" unicode="&#x1ca;" horiz-adv-x="1045" 
d="M53 0l112 705h49l349 -608l96 608h58l-112 -705h-48l-350 609l-96 -609h-58zM693 -7v54l55 4q114 8 135 141l82 513h61l-83 -524q-13 -84 -60 -131.5t-134 -52.5z" />
    <glyph glyph-name="uni01CB" unicode="&#x1cb;" horiz-adv-x="961" 
d="M53 0l112 705h49l349 -608l96 608h58l-112 -705h-48l-350 609l-96 -609h-58zM867 613l12 77h82l-13 -77h-81zM620 -193l-3 50l42 4q100 7 118 120l80 504h61l-80 -503q-13 -83 -57 -125t-117 -47z" />
    <glyph glyph-name="uni01CC" unicode="&#x1cc;" horiz-adv-x="785" 
d="M42 0l77 485h60l-14 -86q28 45 73 70t105 25q81 0 122 -49t25 -150l-47 -295h-61l47 295q23 146 -98 146q-80 0 -126.5 -48.5t-59.5 -128.5l-42 -264h-61zM692 613l12 77h82l-13 -77h-81zM445 -193l-3 50l42 4q100 7 118 120l80 504h61l-80 -503q-13 -83 -57 -125
t-117 -47z" />
    <glyph glyph-name="uni01CD" unicode="&#x1cd;" horiz-adv-x="722" 
d="M-11 0l419 705h55l194 -705h-60l-51 188h-378l-110 -188h-69zM426 629l-226 -388h331l-103 388h-2zM416 765l-104 171h47l89 -126l119 126h50l-139 -171h-62z" />
    <glyph glyph-name="uni01CE" unicode="&#x1ce;" horiz-adv-x="522" 
d="M202 -8q-41 0 -77 18t-58.5 50.5t-22.5 75.5q0 76 65.5 109t209.5 33h71l5 35q11 63 -15 96t-92 33q-90 0 -165 -52l-20 47q35 26 86.5 41.5t103.5 15.5q94 0 134 -53.5t25 -144.5l-47 -296h-58l12 78q-26 -44 -69 -65t-88 -21zM213 41q58 0 104.5 39.5t58.5 110.5l6 42
h-49q-85 0 -134 -8.5t-69.5 -29.5t-20.5 -56q0 -49 31.5 -73.5t72.5 -24.5zM281 550l-87 201h44l77 -155l113 155h46l-131 -201h-62z" />
    <glyph glyph-name="uni01D4" unicode="&#x1d4;" horiz-adv-x="553" 
d="M215 -8q-79 0 -120 48.5t-25 150.5l47 294h61l-47 -295q-23 -146 96 -146q76 0 122 48.5t59 129.5l41 263h61l-77 -485h-59l13 85q-27 -45 -71.5 -69t-100.5 -24zM290 551l-87 201h44l77 -155l113 155h46l-131 -201h-62z" />
    <glyph glyph-name="uni01E5" unicode="&#x1e5;" horiz-adv-x="578" 
d="M241 -188q-65 0 -117 19.5t-91 51.5l25 46q44 -32 84.5 -49t95.5 -17q49 0 84.5 18.5t55.5 56.5h-117l7 46h128q1 5 2 10.5t3 11.5l20 130q-27 -48 -73.5 -75t-107.5 -27q-58 0 -101 24.5t-66.5 67t-23.5 96.5q0 52 16.5 100.5t48 87.5t77 61.5t103.5 22.5q57 0 102 -27
t64 -82l16 100h60l-75 -475q-3 -15 -6 -26h72l-7 -46h-78q-50 -126 -201 -126zM255 86q59 0 101 31t64 80.5t22 106.5q0 64 -38 101t-106 37q-60 0 -101.5 -31t-63.5 -81t-22 -106q0 -64 38 -101t106 -37z" />
    <glyph glyph-name="Gcaron" unicode="&#x1e6;" horiz-adv-x="722" 
d="M387 -8q-146 0 -227 77t-81 223q0 126 44 221t124.5 147.5t191.5 52.5q76 0 136 -24t99 -67l-31 -50q-42 43 -92 63.5t-116 20.5q-90 0 -155 -44.5t-100 -126t-35 -192.5q0 -124 63 -184.5t185 -60.5q47 0 87 8t75 20l37 233h-186l8 52h242l-52 -328q-39 -18 -98 -29.5
t-119 -11.5zM416 765l-104 171h47l89 -126l119 126h50l-139 -171h-62z" />
    <glyph glyph-name="gcaron" unicode="&#x1e7;" horiz-adv-x="578" 
d="M244 -188q-65 0 -117 20t-93 52l24 47q44 -32 84.5 -50t96.5 -18q66 0 107.5 34.5t53.5 106.5l16 102q-27 -45 -72 -70t-104 -25q-87 0 -139.5 54t-52.5 144q0 74 28 139t82.5 105.5t133.5 40.5q57 0 102 -27t65 -83l16 101h60l-76 -478q-31 -195 -215 -195zM253 63
q61 0 102.5 32.5t62.5 85.5t22 114q0 70 -38 108.5t-106 38.5q-61 0 -102 -32.5t-62.5 -85t-21.5 -113.5q0 -71 37.5 -109.5t105.5 -38.5zM307 550l-87 201h44l77 -155l113 155h46l-131 -201h-62z" />
    <glyph glyph-name="uni01E9" unicode="&#x1e9;" horiz-adv-x="484" 
d="M42 0l111 705h61l-69 -440h2l271 220h80l-290 -239l241 -246h-76l-231 234h-2l-37 -234h-61zM333 765l-104 171h47l89 -126l119 126h50l-139 -171h-62z" />
    <glyph glyph-name="uni01EA" unicode="&#x1ea;" horiz-adv-x="759" 
d="M362 -8q-129 0 -206 77t-77 222q0 90 23 166.5t67.5 134t110.5 89.5t151 32q130 0 207 -77t77 -222q0 -89 -23 -166t-68 -134.5t-110.5 -89.5t-151.5 -32zM364 48q93 0 156.5 48t96 131t32.5 186q0 124 -58.5 184t-162.5 60q-91 0 -154.5 -48t-96 -130.5t-32.5 -186.5
q0 -124 58.5 -184t160.5 -60zM375 -191q-45 0 -69 24.5t-24 63.5q0 46 29 81.5t75 55.5l21 -34q-39 -16 -58 -41.5t-19 -53.5q0 -24 13.5 -38.5t40.5 -14.5q25 0 54 12l10 -40q-13 -6 -32.5 -10.5t-40.5 -4.5z" />
    <glyph glyph-name="uni01EB" unicode="&#x1eb;" horiz-adv-x="547" 
d="M250 -8q-94 0 -148 56t-54 155q0 79 29.5 145t85.5 106t134 40q93 0 147.5 -56.5t54.5 -154.5q0 -80 -30 -146t-85.5 -105.5t-133.5 -39.5zM252 43q60 0 101 33t62.5 88t21.5 121q0 77 -38 117t-105 40q-59 0 -100.5 -33t-62.5 -88t-21 -121q0 -77 37.5 -117t104.5 -40z
M274 -191q-45 0 -69 24.5t-24 63.5q0 46 29 81.5t75 55.5l21 -34q-39 -16 -58 -41.5t-19 -53.5q0 -24 13.5 -38.5t40.5 -14.5q25 0 54 12l10 -40q-13 -6 -32.5 -10.5t-40.5 -4.5z" />
    <glyph glyph-name="uni01EF" unicode="&#x1ef;" horiz-adv-x="485" 
d="M181 -188q-59 0 -115 17t-103 54l28 43q44 -34 88.5 -48.5t99.5 -14.5q86 0 130 46.5t44 126.5q0 53 -35.5 88t-102.5 35h-104l5 32l253 243h-306l8 51h385l-8 -42l-246 -236h30q59 0 99.5 -23t62 -62t21.5 -86q0 -66 -28 -117t-80.5 -79t-125.5 -28zM246 550l-87 201h44
l77 -155l113 155h46l-131 -201h-62z" />
    <glyph glyph-name="Aringacute" unicode="&#x1fa;" horiz-adv-x="722" 
d="M-11 0l419 705h55l194 -705h-60l-51 188h-378l-110 -188h-69zM426 629l-226 -388h331l-103 388h-2zM446 759q-48 0 -81 32.5t-33 79.5q0 46 33 78.5t81 32.5q38 0 67 -21l74 69h70l-115 -97q19 -27 19 -62q0 -47 -33 -79.5t-82 -32.5zM446 795q33 0 54 22t21 54
q0 31 -21 53t-54 22t-54 -22t-21 -53q0 -32 21 -54t54 -22z" />
    <glyph glyph-name="aringacute" unicode="&#x1fb;" horiz-adv-x="522" 
d="M202 -8q-41 0 -77 18t-58.5 50.5t-22.5 75.5q0 76 65.5 109t209.5 33h71l5 35q11 63 -15 96t-92 33q-90 0 -165 -52l-20 47q35 26 86.5 41.5t103.5 15.5q94 0 134 -53.5t25 -144.5l-47 -296h-58l12 78q-26 -44 -69 -65t-88 -21zM213 41q58 0 104.5 39.5t58.5 110.5l6 42
h-49q-85 0 -134 -8.5t-69.5 -29.5t-20.5 -56q0 -49 31.5 -73.5t72.5 -24.5zM328 546q-48 0 -81 32.5t-33 78.5q0 47 33 79.5t81 32.5q37 0 67 -21l74 68h69l-115 -97q19 -27 19 -62q0 -46 -33 -78.5t-81 -32.5zM328 582q33 0 54 21.5t21 53.5t-21 53.5t-54 21.5t-54 -21.5
t-21 -53.5t21 -53.5t54 -21.5z" />
    <glyph glyph-name="AEacute" unicode="&#x1fc;" horiz-adv-x="976" 
d="M-46 0l536 705h509l-8 -53h-438l14 -268h361l-8 -53h-350l14 -278h313l-9 -53h-357l-9 188h-356l-142 -188h-70zM496 628l-290 -387h313l-21 387h-2zM530 765l131 171h74l-155 -171h-50z" />
    <glyph glyph-name="aeacute" unicode="&#x1fd;" horiz-adv-x="859" 
d="M207 -8q-42 0 -79 17t-60.5 49.5t-23.5 77.5q0 76 65.5 109t209.5 33h74l4 27q22 137 -109 137q-46 0 -86 -13t-78 -40l-21 48q35 26 86.5 41.5t103.5 15.5q122 0 152 -94q32 43 79.5 68.5t109.5 25.5q75 0 118 -35t58.5 -90t5.5 -116l-3 -20h-372q-10 -86 31.5 -138
t125.5 -52q47 0 86.5 14t73.5 45l24 -43q-33 -33 -83.5 -50t-101.5 -17q-74 0 -125 31t-72 87q-29 -61 -80.5 -89.5t-112.5 -28.5zM633 445q-56 0 -94 -24.5t-60 -63t-31 -79.5h317q5 46 -7 84t-42.5 60.5t-82.5 22.5zM213 41q58 0 105.5 35.5t59.5 106.5l8 50h-53
q-85 0 -134 -9t-69.5 -29.5t-20.5 -55.5q0 -48 31.5 -73t72.5 -25zM430 550l134 201h71l-158 -201h-47z" />
    <glyph glyph-name="Oslashacute" unicode="&#x1fe;" horiz-adv-x="759" 
d="M362 -8q-129 0 -206 77t-77 222q0 90 23 166.5t67.5 134t110.5 89.5t151 32q130 0 207 -77t77 -222q0 -89 -23 -166t-68 -134.5t-110.5 -89.5t-151.5 -32zM364 48q93 0 156.5 48t96 131t32.5 186q0 124 -58.5 184t-162.5 60q-91 0 -154.5 -48t-96 -130.5t-32.5 -186.5
q0 -124 58.5 -184t160.5 -60zM143 -31l-40 29l64 86l22 29l376 509l22 29l64 85l40 -29l-65 -86l-21 -29l-376 -508l-23 -30zM428 765l131 171h74l-155 -171h-50z" />
    <glyph glyph-name="oslashacute" unicode="&#x1ff;" horiz-adv-x="547" 
d="M99 -36l-35 27l40 55q-56 57 -56 157q0 79 29.5 145t85.5 106t134 40q65 0 113 -29l40 55l34 -26l-40 -56q55 -56 55 -155q0 -80 -30 -146t-85.5 -105.5t-133.5 -39.5q-64 0 -111 27zM107 200q0 -68 30 -108l241 330q-34 21 -84 21q-60 0 -102 -32.5t-63.5 -88
t-21.5 -122.5zM253 42q60 0 101.5 33t63 88t21.5 123q0 66 -29 106l-240 -330q34 -20 83 -20zM301 550l134 201h71l-158 -201h-47z" />
    <glyph glyph-name="uni0200" unicode="&#x200;" horiz-adv-x="722" 
d="M-11 0l419 705h55l194 -705h-60l-51 188h-378l-110 -188h-69zM426 629l-226 -388h331l-103 388h-2zM487 765l-100 171h65l72 -171h-37zM370 765l-102 171h65l74 -171h-37z" />
    <glyph glyph-name="uni0201" unicode="&#x201;" horiz-adv-x="522" 
d="M202 -8q-41 0 -77 18t-58.5 50.5t-22.5 75.5q0 76 65.5 109t209.5 33h71l5 35q11 63 -15 96t-92 33q-90 0 -165 -52l-20 47q35 26 86.5 41.5t103.5 15.5q94 0 134 -53.5t25 -144.5l-47 -296h-58l12 78q-26 -44 -69 -65t-88 -21zM213 41q58 0 104.5 39.5t58.5 110.5l6 42
h-49q-85 0 -134 -8.5t-69.5 -29.5t-20.5 -56q0 -49 31.5 -73.5t72.5 -24.5zM354 550l-63 201h60l39 -201h-36zM236 550l-64 201h61l39 -201h-36z" />
    <glyph glyph-name="uni0202" unicode="&#x202;" horiz-adv-x="722" 
d="M-11 0l419 705h55l194 -705h-60l-51 188h-378l-110 -188h-69zM426 629l-226 -388h331l-103 388h-2zM320 760l-42 5q13 78 61.5 123t115.5 45t109 -45t40 -123l-42 -5q2 61 -28 94.5t-83 33.5q-52 0 -87 -33.5t-44 -94.5z" />
    <glyph glyph-name="uni0203" unicode="&#x203;" horiz-adv-x="522" 
d="M202 -8q-41 0 -77 18t-58.5 50.5t-22.5 75.5q0 76 65.5 109t209.5 33h71l5 35q11 63 -15 96t-92 33q-90 0 -165 -52l-20 47q35 26 86.5 41.5t103.5 15.5q94 0 134 -53.5t25 -144.5l-47 -296h-58l12 78q-26 -44 -69 -65t-88 -21zM213 41q58 0 104.5 39.5t58.5 110.5l6 42
h-49q-85 0 -134 -8.5t-69.5 -29.5t-20.5 -56q0 -49 31.5 -73.5t72.5 -24.5zM198 548l-41 4q12 88 55 138.5t108 50.5q64 0 101.5 -50.5t33.5 -138.5l-42 -4q4 71 -21.5 109.5t-73.5 38.5t-79 -38.5t-41 -109.5z" />
    <glyph glyph-name="uni0204" unicode="&#x204;" horiz-adv-x="576" 
d="M54 0l111 705h435l-9 -53h-373l-43 -268h354l-9 -53h-354l-44 -278h374l-8 -53h-434zM447 765l-100 171h65l72 -171h-37zM330 765l-102 171h65l74 -171h-37z" />
    <glyph glyph-name="uni0205" unicode="&#x205;" horiz-adv-x="528" 
d="M265 -8q-101 0 -159 56t-58 155q0 78 30.5 144t87 106.5t136.5 40.5q75 0 118 -35.5t58.5 -91t5.5 -117.5l-3 -20h-372q-10 -84 32 -135.5t125 -51.5q47 0 87 14t73 45l25 -43q-33 -33 -84 -50t-102 -17zM301 445q-57 0 -95 -25t-60 -64t-30 -81h318q5 47 -7 85.5
t-42.5 61.5t-83.5 23zM360 550l-63 201h60l39 -201h-36zM242 550l-64 201h61l39 -201h-36z" />
    <glyph glyph-name="uni0206" unicode="&#x206;" horiz-adv-x="576" 
d="M54 0l111 705h435l-9 -53h-373l-43 -268h354l-9 -53h-354l-44 -278h374l-8 -53h-434zM280 760l-42 5q13 78 61.5 123t115.5 45t109 -45t40 -123l-42 -5q2 61 -28 94.5t-83 33.5q-52 0 -87 -33.5t-44 -94.5z" />
    <glyph glyph-name="uni0207" unicode="&#x207;" horiz-adv-x="528" 
d="M265 -8q-101 0 -159 56t-58 155q0 78 30.5 144t87 106.5t136.5 40.5q75 0 118 -35.5t58.5 -91t5.5 -117.5l-3 -20h-372q-10 -84 32 -135.5t125 -51.5q47 0 87 14t73 45l25 -43q-33 -33 -84 -50t-102 -17zM301 445q-57 0 -95 -25t-60 -64t-30 -81h318q5 47 -7 85.5
t-42.5 61.5t-83.5 23zM204 548l-41 4q12 88 55 138.5t108 50.5q64 0 101.5 -50.5t33.5 -138.5l-42 -4q4 71 -21.5 109.5t-73.5 38.5t-79 -38.5t-41 -109.5z" />
    <glyph glyph-name="uni0208" unicode="&#x208;" horiz-adv-x="245" 
d="M53 0l112 705h62l-112 -705h-62zM246 765l-100 171h65l72 -171h-37zM129 765l-102 171h65l74 -171h-37z" />
    <glyph glyph-name="uni0209" unicode="&#x209;" horiz-adv-x="222" 
d="M42 0l77 485h61l-77 -485h-61zM203 550l-63 201h60l39 -201h-36zM85 550l-64 201h61l39 -201h-36z" />
    <glyph glyph-name="uni020A" unicode="&#x20a;" horiz-adv-x="245" 
d="M53 0l112 705h62l-112 -705h-62zM79 760l-42 5q13 78 61.5 123t115.5 45t109 -45t40 -123l-42 -5q2 61 -28 94.5t-83 33.5q-52 0 -87 -33.5t-44 -94.5z" />
    <glyph glyph-name="uni020B" unicode="&#x20b;" horiz-adv-x="222" 
d="M42 0l77 485h61l-77 -485h-61zM47 548l-41 4q12 88 55 138.5t108 50.5q64 0 101.5 -50.5t33.5 -138.5l-42 -4q4 71 -21.5 109.5t-73.5 38.5t-79 -38.5t-41 -109.5z" />
    <glyph glyph-name="uni020C" unicode="&#x20c;" horiz-adv-x="759" 
d="M362 -8q-129 0 -206 77t-77 222q0 90 23 166.5t67.5 134t110.5 89.5t151 32q130 0 207 -77t77 -222q0 -89 -23 -166t-68 -134.5t-110.5 -89.5t-151.5 -32zM364 48q93 0 156.5 48t96 131t32.5 186q0 124 -58.5 184t-162.5 60q-91 0 -154.5 -48t-96 -130.5t-32.5 -186.5
q0 -124 58.5 -184t160.5 -60zM493 765l-100 171h65l72 -171h-37zM376 765l-102 171h65l74 -171h-37z" />
    <glyph glyph-name="uni020D" unicode="&#x20d;" horiz-adv-x="547" 
d="M250 -8q-94 0 -148 56t-54 155q0 79 29.5 145t85.5 106t134 40q93 0 147.5 -56.5t54.5 -154.5q0 -80 -30 -146t-85.5 -105.5t-133.5 -39.5zM252 43q60 0 101 33t62.5 88t21.5 121q0 77 -38 117t-105 40q-59 0 -100.5 -33t-62.5 -88t-21 -121q0 -77 37.5 -117t104.5 -40z
M366 550l-63 201h60l39 -201h-36zM248 550l-64 201h61l39 -201h-36z" />
    <glyph glyph-name="uni020E" unicode="&#x20e;" horiz-adv-x="759" 
d="M362 -8q-129 0 -206 77t-77 222q0 90 23 166.5t67.5 134t110.5 89.5t151 32q130 0 207 -77t77 -222q0 -89 -23 -166t-68 -134.5t-110.5 -89.5t-151.5 -32zM364 48q93 0 156.5 48t96 131t32.5 186q0 124 -58.5 184t-162.5 60q-91 0 -154.5 -48t-96 -130.5t-32.5 -186.5
q0 -124 58.5 -184t160.5 -60zM326 760l-42 5q13 78 61.5 123t115.5 45t109 -45t40 -123l-42 -5q2 61 -28 94.5t-83 33.5q-52 0 -87 -33.5t-44 -94.5z" />
    <glyph glyph-name="uni020F" unicode="&#x20f;" horiz-adv-x="547" 
d="M250 -8q-94 0 -148 56t-54 155q0 79 29.5 145t85.5 106t134 40q93 0 147.5 -56.5t54.5 -154.5q0 -80 -30 -146t-85.5 -105.5t-133.5 -39.5zM252 43q60 0 101 33t62.5 88t21.5 121q0 77 -38 117t-105 40q-59 0 -100.5 -33t-62.5 -88t-21 -121q0 -77 37.5 -117t104.5 -40z
M210 548l-41 4q12 88 55 138.5t108 50.5q64 0 101.5 -50.5t33.5 -138.5l-42 -4q4 71 -21.5 109.5t-73.5 38.5t-79 -38.5t-41 -109.5z" />
    <glyph glyph-name="uni0210" unicode="&#x210;" horiz-adv-x="661" 
d="M53 0l112 705h241q113 0 169 -50.5t56 -136.5q0 -91 -54.5 -143t-141.5 -63q23 -11 40 -32.5t29 -53.5l86 -226h-62l-83 220q-18 47 -46 66t-83 19h-153l-48 -305h-62zM172 357h214q86 0 134 41t48 117q0 68 -40 102.5t-126 34.5h-183zM448 765l-100 171h65l72 -171h-37z
M331 765l-102 171h65l74 -171h-37z" />
    <glyph glyph-name="uni0211" unicode="&#x211;" horiz-adv-x="342" 
d="M42 0l77 485h60l-13 -80q23 37 62 61t97 28l37 3l2 -53l-44 -4q-86 -8 -124 -51.5t-49 -114.5l-43 -274h-62zM296 553l-63 201h60l39 -201h-36zM178 553l-64 201h61l39 -201h-36z" />
    <glyph glyph-name="uni0212" unicode="&#x212;" horiz-adv-x="661" 
d="M53 0l112 705h241q113 0 169 -50.5t56 -136.5q0 -91 -54.5 -143t-141.5 -63q23 -11 40 -32.5t29 -53.5l86 -226h-62l-83 220q-18 47 -46 66t-83 19h-153l-48 -305h-62zM172 357h214q86 0 134 41t48 117q0 68 -40 102.5t-126 34.5h-183zM281 760l-42 5q13 78 61.5 123
t115.5 45t109 -45t40 -123l-42 -5q2 61 -28 94.5t-83 33.5q-52 0 -87 -33.5t-44 -94.5z" />
    <glyph glyph-name="uni0213" unicode="&#x213;" horiz-adv-x="342" 
d="M42 0l77 485h60l-13 -80q23 37 62 61t97 28l37 3l2 -53l-44 -4q-86 -8 -124 -51.5t-49 -114.5l-43 -274h-62zM140 551l-41 4q12 88 55 138.5t108 50.5q64 0 101.5 -50.5t33.5 -138.5l-42 -4q4 71 -21.5 109.5t-73.5 38.5t-79 -38.5t-41 -109.5z" />
    <glyph glyph-name="uni0214" unicode="&#x214;" horiz-adv-x="724" 
d="M333 -8q-134 0 -198 75t-41 225l66 413h61l-66 -419q-38 -238 180 -238q105 0 165.5 53t79.5 171l69 433h61l-69 -440q-22 -136 -97 -204.5t-211 -68.5zM485 765l-100 171h65l72 -171h-37zM368 765l-102 171h65l74 -171h-37z" />
    <glyph glyph-name="uni0215" unicode="&#x215;" horiz-adv-x="553" 
d="M215 -8q-79 0 -120 48.5t-25 150.5l47 294h61l-47 -295q-23 -146 96 -146q76 0 122 48.5t59 129.5l41 263h61l-77 -485h-59l13 85q-27 -45 -71.5 -69t-100.5 -24zM363 551l-63 201h60l39 -201h-36zM245 551l-64 201h61l39 -201h-36z" />
    <glyph glyph-name="uni0216" unicode="&#x216;" horiz-adv-x="724" 
d="M333 -8q-134 0 -198 75t-41 225l66 413h61l-66 -419q-38 -238 180 -238q105 0 165.5 53t79.5 171l69 433h61l-69 -440q-22 -136 -97 -204.5t-211 -68.5zM318 760l-42 5q13 78 61.5 123t115.5 45t109 -45t40 -123l-42 -5q2 61 -28 94.5t-83 33.5q-52 0 -87 -33.5
t-44 -94.5z" />
    <glyph glyph-name="uni0217" unicode="&#x217;" horiz-adv-x="553" 
d="M215 -8q-79 0 -120 48.5t-25 150.5l47 294h61l-47 -295q-23 -146 96 -146q76 0 122 48.5t59 129.5l41 263h61l-77 -485h-59l13 85q-27 -45 -71.5 -69t-100.5 -24zM207 549l-41 4q12 88 55 138.5t108 50.5q64 0 101.5 -50.5t33.5 -138.5l-42 -4q4 71 -21.5 109.5
t-73.5 38.5t-79 -38.5t-41 -109.5z" />
    <glyph glyph-name="uni0218" unicode="&#x218;" horiz-adv-x="607" 
d="M296 -8q-77 0 -146 19.5t-119 66.5l28 48q54 -46 111.5 -62t129.5 -16q86 0 139 36.5t53 100.5q0 44 -31 75t-111 49l-101 25q-69 16 -110.5 56t-41.5 118q0 62 34.5 108t93 71.5t129.5 25.5q67 0 131.5 -21.5t109.5 -68.5l-29 -49q-45 45 -100 64t-114 19q-55 0 -98 -18
t-68.5 -51t-25.5 -78q0 -57 27.5 -83t80.5 -39l102 -24q96 -22 140.5 -65.5t44.5 -106.5q0 -65 -34.5 -109.5t-93.5 -67.5t-131 -23zM242 -263l-24 25q24 20 33 39t13 43h-42l12 73h84l-10 -64q-6 -38 -21 -66.5t-45 -49.5z" />
    <glyph glyph-name="uni0219" unicode="&#x219;" horiz-adv-x="478" 
d="M221 -8q-57 0 -106.5 16t-79.5 44l27 44q35 -29 75.5 -41.5t86.5 -12.5q57 0 90 23t33 66q0 28 -18.5 46t-51.5 27l-95 24q-48 12 -75.5 43t-27.5 76q0 64 51.5 105.5t137.5 41.5q51 0 96 -17.5t71 -46.5l-25 -43q-55 56 -144 56q-58 0 -93 -25t-35 -69q0 -26 16 -45.5
t50 -27.5l96 -25q49 -12 78 -41t29 -74q0 -68 -51.5 -106t-134.5 -38zM163 -263l-24 25q24 20 33 39t13 43h-42l12 73h84l-10 -64q-6 -38 -21 -66.5t-45 -49.5z" />
    <glyph glyph-name="uni021A" unicode="&#x21a;" horiz-adv-x="594" 
d="M227 0l104 650h-263l8 55h588l-9 -55h-263l-103 -650h-62zM211 -263l-24 25q24 20 33 39t13 43h-42l12 73h84l-10 -64q-6 -38 -21 -66.5t-45 -49.5z" />
    <glyph glyph-name="uni021B" unicode="&#x21b;" horiz-adv-x="335" 
d="M229 -8q-79 0 -116 45t-25 123l44 276h-96l8 49h95l24 150h61l-24 -150h157l-8 -49h-157l-42 -268q-10 -65 13 -94t75 -29q18 0 33 3.5t27 8.5l8 -49q-11 -6 -33.5 -11t-43.5 -5zM131 -263l-24 25q24 20 33 39t13 43h-42l12 73h84l-10 -64q-6 -38 -21 -66.5t-45 -49.5z
" />
    <glyph glyph-name="uni021F" unicode="&#x21f;" horiz-adv-x="560" 
d="M42 0l112 705h61l-48 -303q28 44 72.5 68t103.5 24q81 0 122 -49t25 -150l-47 -295h-61l47 295q23 146 -98 146q-80 0 -126.5 -48.5t-59.5 -128.5l-42 -264h-61zM333 765l-104 171h47l89 -126l119 126h50l-139 -171h-62z" />
    <glyph glyph-name="uni0226" unicode="&#x226;" horiz-adv-x="722" 
d="M-11 0l419 705h55l194 -705h-60l-51 188h-378l-110 -188h-69zM426 629l-226 -388h331l-103 388h-2zM416 813l12 75h76l-12 -75h-76z" />
    <glyph glyph-name="uni0227" unicode="&#x227;" horiz-adv-x="522" 
d="M202 -8q-41 0 -77 18t-58.5 50.5t-22.5 75.5q0 76 65.5 109t209.5 33h71l5 35q11 63 -15 96t-92 33q-90 0 -165 -52l-20 47q35 26 86.5 41.5t103.5 15.5q94 0 134 -53.5t25 -144.5l-47 -296h-58l12 78q-26 -44 -69 -65t-88 -21zM213 41q58 0 104.5 39.5t58.5 110.5l6 42
h-49q-85 0 -134 -8.5t-69.5 -29.5t-20.5 -56q0 -49 31.5 -73.5t72.5 -24.5zM284 614l12 75h77l-12 -75h-77z" />
    <glyph glyph-name="uni0228" unicode="&#x228;" horiz-adv-x="576" 
d="M54 0l111 705h435l-9 -53h-373l-43 -268h354l-9 -53h-354l-44 -278h374l-8 -53h-434zM271 -191q-52 0 -82 19l14 39q18 -9 33.5 -13t39.5 -4q27 0 45.5 11t18.5 31q0 28 -35 28q-11 0 -22.5 -1.5t-28.5 -7.5l-14 14l30 95h45l-22 -66q12 2 22 2q31 0 51.5 -16t20.5 -45
q0 -39 -33 -62.5t-83 -23.5z" />
    <glyph glyph-name="uni022A" unicode="&#x22a;" horiz-adv-x="759" 
d="M362 -8q-129 0 -206 77t-77 222q0 90 23 166.5t67.5 134t110.5 89.5t151 32q130 0 207 -77t77 -222q0 -89 -23 -166t-68 -134.5t-110.5 -89.5t-151.5 -32zM364 48q93 0 156.5 48t96 131t32.5 186q0 124 -58.5 184t-162.5 60q-91 0 -154.5 -48t-96 -130.5t-32.5 -186.5
q0 -124 58.5 -184t160.5 -60zM334 926l7 47h288l-7 -47h-288zM338 802l11 66h73l-11 -66h-73zM505 802l11 66h74l-11 -66h-74z" />
    <glyph glyph-name="uni022B" unicode="&#x22b;" horiz-adv-x="547" 
d="M250 -8q-94 0 -148 56t-54 155q0 79 29.5 145t85.5 106t134 40q93 0 147.5 -56.5t54.5 -154.5q0 -80 -30 -146t-85.5 -105.5t-133.5 -39.5zM252 43q60 0 101 33t62.5 88t21.5 121q0 77 -38 117t-105 40q-59 0 -100.5 -33t-62.5 -88t-21 -121q0 -77 37.5 -117t104.5 -40z
M205 706l7 47h288l-7 -47h-288zM209 582l10 66h73l-9 -66h-74zM377 582l9 66h74l-10 -66h-73z" />
    <glyph glyph-name="uni022C" unicode="&#x22c;" horiz-adv-x="759" 
d="M362 -8q-129 0 -206 77t-77 222q0 90 23 166.5t67.5 134t110.5 89.5t151 32q130 0 207 -77t77 -222q0 -89 -23 -166t-68 -134.5t-110.5 -89.5t-151.5 -32zM364 48q93 0 156.5 48t96 131t32.5 186q0 124 -58.5 184t-162.5 60q-91 0 -154.5 -48t-96 -130.5t-32.5 -186.5
q0 -124 58.5 -184t160.5 -60zM334 926l7 47h288l-7 -47h-288zM524 768q-20 0 -37.5 9.5t-33.5 20.5q-14 11 -28 18.5t-28 7.5q-23 0 -35.5 -13.5t-19.5 -44.5l-39 2q8 50 33.5 74.5t62.5 24.5q21 0 38 -9.5t33 -20.5q14 -10 27.5 -18t28.5 -8q22 0 35 13.5t20 44.5l39 -2
q-9 -50 -34 -74.5t-62 -24.5z" />
    <glyph glyph-name="uni022D" unicode="&#x22d;" horiz-adv-x="547" 
d="M250 -8q-94 0 -148 56t-54 155q0 79 29.5 145t85.5 106t134 40q93 0 147.5 -56.5t54.5 -154.5q0 -80 -30 -146t-85.5 -105.5t-133.5 -39.5zM252 43q60 0 101 33t62.5 88t21.5 121q0 77 -38 117t-105 40q-59 0 -100.5 -33t-62.5 -88t-21 -121q0 -77 37.5 -117t104.5 -40z
M205 706l7 47h288l-7 -47h-288zM213 546l-39 2q16 99 92 99q22 0 40.5 -10t34.5 -21q15 -10 28 -17.5t28 -7.5q22 0 35 13.5t20 44.5l38 -2q-16 -99 -91 -99q-22 0 -40.5 9.5t-35.5 21.5q-14 10 -27.5 17.5t-27.5 7.5q-23 0 -35.5 -13.5t-19.5 -44.5z" />
    <glyph glyph-name="uni0230" unicode="&#x230;" horiz-adv-x="759" 
d="M362 -8q-129 0 -206 77t-77 222q0 90 23 166.5t67.5 134t110.5 89.5t151 32q130 0 207 -77t77 -222q0 -89 -23 -166t-68 -134.5t-110.5 -89.5t-151.5 -32zM364 48q93 0 156.5 48t96 131t32.5 186q0 124 -58.5 184t-162.5 60q-91 0 -154.5 -48t-96 -130.5t-32.5 -186.5
q0 -124 58.5 -184t160.5 -60zM334 926l7 47h288l-7 -47h-288zM422 802l11 66h73l-11 -66h-73z" />
    <glyph glyph-name="uni0231" unicode="&#x231;" horiz-adv-x="547" 
d="M250 -8q-94 0 -148 56t-54 155q0 79 29.5 145t85.5 106t134 40q93 0 147.5 -56.5t54.5 -154.5q0 -80 -30 -146t-85.5 -105.5t-133.5 -39.5zM252 43q60 0 101 33t62.5 88t21.5 121q0 77 -38 117t-105 40q-59 0 -100.5 -33t-62.5 -88t-21 -121q0 -77 37.5 -117t104.5 -40z
M204 706l7 47h288l-7 -47h-288zM292 582l10 66h73l-9 -66h-74z" />
    <glyph glyph-name="uni0232" unicode="&#x232;" horiz-adv-x="586" 
d="M223 0l53 337l-210 368h67l179 -313l279 313h75l-328 -367l-53 -338h-62zM218 818l8 47h318l-8 -47h-318z" />
    <glyph glyph-name="uni0233" unicode="&#x233;" horiz-adv-x="509" 
d="M76 -180l107 182l-129 483h63l106 -417l241 417h68l-391 -665h-65zM161 629l8 46h288l-8 -46h-288z" />
    <glyph glyph-name="uni0237" unicode="&#x237;" horiz-adv-x="225" 
d="M-115 -193l-3 50l42 4q100 7 118 120l80 504h61l-80 -503q-13 -83 -57 -125t-117 -47z" />
    <glyph glyph-name="uni0253" unicode="&#x253;" horiz-adv-x="575" 
d="M285 -8q-56 0 -101.5 27t-65.5 83l-15 -102h-61l89 557q12 81 54.5 118.5t121.5 37.5q30 0 53 -8l-16 -49q-12 3 -20 4.5t-18 1.5q-99 0 -114 -106l-24 -151q27 41 71 65t100 24q85 0 137 -56t52 -152q0 -79 -28 -146t-82.5 -107.5t-132.5 -40.5zM281 43q60 0 101 33
t62.5 88t21.5 121q0 77 -38 117t-105 40q-59 0 -100.5 -33t-62.5 -88t-21 -121q0 -77 37.5 -117t104.5 -40z" />
    <glyph glyph-name="uni0257" unicode="&#x257;" horiz-adv-x="575" 
d="M236 -8q-85 0 -136.5 55.5t-51.5 151.5q0 79 28 146t82 108t132 41q56 0 101 -27t65 -83l28 173q12 81 54.5 118.5t121.5 37.5q30 0 53 -8l-16 -49q-13 3 -21 4.5t-17 1.5q-99 0 -115 -106l-88 -556h-60l13 82q-28 -42 -72 -66t-101 -24zM252 43q60 0 101 33t62.5 88
t21.5 121q0 77 -38 117t-105 40q-60 0 -101 -33t-62 -88t-21 -121q0 -77 37.5 -117t104.5 -40z" />
    <glyph glyph-name="uni0259" unicode="&#x259;" horiz-adv-x="528" 
d="M225 -8q-74 0 -117.5 35t-59 90.5t-5.5 117.5l3 20h373q9 85 -32.5 136t-124.5 51q-47 0 -87 -14t-74 -45l-24 43q33 34 84 51t102 17q101 0 159 -56.5t58 -154.5q0 -79 -30.5 -145t-87.5 -106t-137 -40zM227 40q57 0 95 25t59.5 64t30.5 81h-317q-4 -47 7.5 -85.5
t42 -61.5t82.5 -23z" />
    <glyph glyph-name="uni0292" unicode="&#x292;" horiz-adv-x="485" 
d="M181 -188q-59 0 -115 17t-103 54l28 43q44 -34 88.5 -48.5t99.5 -14.5q86 0 130 46.5t44 126.5q0 53 -35.5 88t-102.5 35h-104l5 32l253 243h-306l8 51h385l-8 -42l-246 -236h30q59 0 99.5 -23t62 -62t21.5 -86q0 -66 -28 -117t-80.5 -79t-125.5 -28z" />
    <glyph glyph-name="uni02B9" unicode="&#x2b9;" horiz-adv-x="211" 
d="M116 434l26 271h73l-58 -271h-41z" />
    <glyph glyph-name="uni02BA" unicode="&#x2ba;" horiz-adv-x="366" 
d="M116 434l26 271h73l-58 -271h-41zM271 434l26 271h73l-58 -271h-41z" />
    <glyph glyph-name="uni02BB" unicode="&#x2bb;" horiz-adv-x="500" 
d="M259 569l9 58q5 35 22 66t47 56l26 -23q-24 -23 -35 -42.5t-15 -41.5h41l-11 -73h-84z" />
    <glyph glyph-name="uni02BC" unicode="&#x2bc;" horiz-adv-x="311" 
d="M207 573l-28 23q22 21 31.5 39t12.5 36h-39l12 78h83l-10 -63q-6 -34 -19 -60.5t-43 -52.5z" />
    <glyph glyph-name="uni02BE" unicode="&#x2be;" horiz-adv-x="500" 
d="M299 555l6 40q27 -1 46 17.5t19 45.5q0 22 -12.5 36t-34.5 15l7 40q39 -3 62 -28t23 -60q0 -31 -16.5 -55.5t-43 -38.5t-56.5 -12z" />
    <glyph glyph-name="uni02BF" unicode="&#x2bf;" horiz-adv-x="500" 
d="M300 555q-39 3 -62 28t-23 60q0 31 16 55.5t42.5 38.5t57.5 12l-6 -40q-28 1 -47 -17.5t-19 -46.5q0 -21 12.5 -35t34.5 -16z" />
    <glyph glyph-name="circumflex" unicode="&#x2c6;" horiz-adv-x="500" 
d="M156 550l131 201h62l88 -201h-44l-78 155l-113 -155h-46z" />
    <glyph glyph-name="caron" unicode="&#x2c7;" horiz-adv-x="500" 
d="M267 550l-87 201h44l77 -155l113 155h46l-131 -201h-62z" />
    <glyph glyph-name="uni02C8" unicode="&#x2c8;" horiz-adv-x="500" 
d="M280 596l32 199h51l-32 -199h-51z" />
    <glyph glyph-name="uni02C9" unicode="&#x2c9;" horiz-adv-x="500" 
d="M167 629l8 46h288l-8 -46h-288z" />
    <glyph glyph-name="uni02CA" unicode="&#x2ca;" horiz-adv-x="500" 
d="M275 550l123 201h70l-146 -201h-47z" />
    <glyph glyph-name="fourthtofinechinese" unicode="&#x2cb;" horiz-adv-x="500" 
d="M273 550l-140 201h69l118 -201h-47z" />
    <glyph glyph-name="uni02CC" unicode="&#x2cc;" horiz-adv-x="500" 
d="M143 -270l32 199h51l-32 -199h-51z" />
    <glyph glyph-name="breve" unicode="&#x2d8;" horiz-adv-x="500" 
d="M307 548q-64 0 -101.5 50t-33.5 138l42 5q-4 -71 21.5 -109.5t73.5 -38.5t79 38.5t41 109.5l41 -5q-12 -88 -55 -138t-108 -50z" />
    <glyph glyph-name="dotaccent" unicode="&#x2d9;" horiz-adv-x="500" 
d="M270 614l12 75h77l-12 -75h-77z" />
    <glyph glyph-name="ring" unicode="&#x2da;" horiz-adv-x="500" 
d="M316 547q-48 0 -81.5 32.5t-33.5 80.5q0 47 33.5 79.5t81.5 32.5q49 0 82.5 -32.5t33.5 -79.5q0 -48 -33.5 -80.5t-82.5 -32.5zM316 584q33 0 54 22t21 54q0 31 -21 53t-54 22t-54 -22t-21 -53q0 -32 21 -54t54 -22z" />
    <glyph glyph-name="ogonek" unicode="&#x2db;" horiz-adv-x="500" 
d="M179 -191q-45 0 -69 24.5t-24 63.5q0 46 29 81.5t75 55.5l21 -34q-39 -16 -58 -41.5t-19 -53.5q0 -24 13.5 -38.5t40.5 -14.5q25 0 54 12l10 -40q-13 -6 -32.5 -10.5t-40.5 -4.5z" />
    <glyph glyph-name="tilde" unicode="&#x2dc;" horiz-adv-x="500" 
d="M169 592l-39 3q10 61 39 94t71 33q26 0 44 -14.5t34 -31.5q13 -13 26.5 -24t29.5 -11q52 0 70 84l39 -3q-10 -61 -38.5 -94t-69.5 -33q-27 0 -45.5 14.5t-33.5 30.5q-14 14 -27.5 25t-29.5 11q-52 0 -70 -84z" />
    <glyph glyph-name="hungarumlaut" unicode="&#x2dd;" horiz-adv-x="500" 
d="M339 550l74 201h61l-99 -201h-36zM221 550l74 201h61l-99 -201h-36z" />
    <glyph glyph-name="gravecomb" unicode="&#x300;" 
d="M-15 550l-140 201h68l119 -201h-47z" />
    <glyph glyph-name="acutecomb" unicode="&#x301;" 
d="M-13 550l134 201h71l-158 -201h-47z" />
    <glyph glyph-name="uni0302" unicode="&#x302;" 
d="M-132 550l131 201h62l88 -201h-44l-78 155l-113 -155h-46z" />
    <glyph glyph-name="tildecomb" unicode="&#x303;" 
d="M-119 592l-39 3q10 61 39 94t71 33q26 0 44 -14.5t34 -31.5q13 -13 26.5 -24t29.5 -11q52 0 70 84l39 -3q-10 -61 -38.5 -94t-69.5 -33q-27 0 -45.5 14.5t-33.5 30.5q-14 14 -27.5 25t-29.5 11q-52 0 -70 -84z" />
    <glyph glyph-name="uni0304" unicode="&#x304;" 
d="M-121 629l8 46h288l-8 -46h-288z" />
    <glyph glyph-name="uni0306" unicode="&#x306;" 
d="M19 548q-64 0 -101.5 50t-33.5 138l42 5q-4 -71 21.5 -109.5t73.5 -38.5t79 38.5t41 109.5l41 -5q-12 -88 -55 -138t-108 -50z" />
    <glyph glyph-name="uni0307" unicode="&#x307;" 
d="M-18 614l12 75h77l-12 -75h-77z" />
    <glyph glyph-name="uni0308" unicode="&#x308;" 
d="M68 615l11 72h74l-12 -72h-73zM-99 615l11 72h73l-11 -72h-73z" />
    <glyph glyph-name="hookabovecomb" unicode="&#x309;" 
d="M-17 550l3 21q3 23 15 38.5t26 27.5t24 23.5t10 26.5q0 27 -47 27q-15 0 -31 -3.5t-35 -11.5l-7 37q17 10 39.5 15.5t46.5 5.5q42 0 64.5 -16.5t22.5 -44.5q0 -27 -11 -43t-26 -27t-28 -24.5t-18 -36.5l-3 -15h-45z" />
    <glyph glyph-name="uni030A" unicode="&#x30a;" 
d="M28 547q-48 0 -81.5 32.5t-33.5 80.5q0 47 33.5 79.5t81.5 32.5q49 0 82.5 -32.5t33.5 -79.5q0 -48 -33.5 -80.5t-82.5 -32.5zM28 584q33 0 54 22t21 54q0 31 -21 53t-54 22t-54 -22t-21 -53q0 -32 21 -54t54 -22z" />
    <glyph glyph-name="uni030B" unicode="&#x30b;" 
d="M51 550l74 201h61l-99 -201h-36zM-67 550l74 201h61l-99 -201h-36z" />
    <glyph glyph-name="uni030C" unicode="&#x30c;" 
d="M-21 550l-87 201h44l77 -155l113 155h46l-131 -201h-62z" />
    <glyph glyph-name="uni030F" unicode="&#x30f;" 
d="M52 550l-63 201h60l39 -201h-36zM-66 550l-64 201h61l39 -201h-36z" />
    <glyph glyph-name="uni0311" unicode="&#x311;" 
d="M-104 548l-41 4q12 88 55 138.5t108 50.5q64 0 101.5 -50.5t33.5 -138.5l-42 -4q4 71 -21.5 109.5t-73.5 38.5t-79 -38.5t-41 -109.5z" />
    <glyph glyph-name="uni0312" unicode="&#x312;" 
d="M-28 569l10 64q7 38 21.5 66.5t44.5 49.5l24 -25q-24 -21 -33 -39.5t-13 -42.5h42l-12 -73h-84z" />
    <glyph glyph-name="uni031B" unicode="&#x31b;" 
d="M23 441l-27 21l4 23q69 1 96 30t37 87l2 14h56l-4 -30q-21 -137 -164 -145z" />
    <glyph glyph-name="dotbelowcomb" unicode="&#x323;" 
d="M-67 -179l12 75h77l-12 -75h-77z" />
    <glyph glyph-name="uni0324" unicode="&#x324;" 
d="M19 -176l12 73h74l-13 -73h-73zM-148 -176l12 73h73l-12 -73h-73z" />
    <glyph glyph-name="uni0326" unicode="&#x326;" 
d="M-47 -263l-24 25q24 20 33 39t13 43h-42l12 73h84l-10 -64q-6 -38 -21 -66.5t-45 -49.5z" />
    <glyph glyph-name="uni0327" unicode="&#x327;" 
d="M-19 -191q-52 0 -82 19l14 39q18 -9 33.5 -13t39.5 -4q27 0 45.5 11t18.5 31q0 28 -35 28q-11 0 -22.5 -1.5t-28.5 -7.5l-14 14l30 95h45l-22 -66q12 2 22 2q31 0 51.5 -16t20.5 -45q0 -39 -33 -62.5t-83 -23.5z" />
    <glyph glyph-name="uni0328" unicode="&#x328;" 
d="M-32 -191q-45 0 -69 24.5t-24 63.5q0 46 29 81.5t75 55.5l21 -34q-39 -16 -58 -41.5t-19 -53.5q0 -24 13.5 -38.5t40.5 -14.5q25 0 54 12l10 -40q-13 -6 -32.5 -10.5t-40.5 -4.5z" />
    <glyph glyph-name="uni032E" unicode="&#x32e;" 
d="M-21 -215q-65 0 -103 39.5t-35 108.5l42 5q-3 -51 23.5 -79.5t74.5 -28.5q47 0 77.5 28.5t39.5 79.5l41 -5q-10 -69 -52.5 -108.5t-107.5 -39.5z" />
    <glyph glyph-name="uni0331" unicode="&#x331;" 
d="M-168 -152l8 46h288l-8 -46h-288z" />
    <glyph glyph-name="uni0335" unicode="&#x335;" 
d="M-178 524l7 48h350l-8 -48h-349z" />
    <glyph glyph-name="uni0337" unicode="&#x337;" 
d="M-119 272l-23 47l262 124l22 -48z" />
    <glyph glyph-name="uni0338" unicode="&#x338;" 
d="M-175 -33l-35 27l387 529l34 -26z" />
    <glyph glyph-name="uni0394" unicode="&#x394;" horiz-adv-x="722" 
d="M7 0l7 39l393 666h55l182 -666l-6 -39h-631zM425 628l-338 -575h494l-154 575h-2z" />
    <glyph glyph-name="Sigma" unicode="&#x3a3;" horiz-adv-x="600" 
d="M-17 -180l7 45l343 404l-217 391l7 45h500l-9 -54h-425l204 -368l-8 -41l-313 -368h419l-8 -54h-500z" />
    <glyph glyph-name="uni03A9" unicode="&#x3a9;" horiz-adv-x="769" 
d="M4 0l9 54h215q-76 67 -114 142.5t-38 156.5q0 107 44 188.5t126 126.5t197 45q87 0 154 -36t104.5 -99t37.5 -144q0 -130 -66.5 -225.5t-177.5 -154.5h200l-8 -54h-282l8 51q119 65 190 158t71 219q0 67 -29 118.5t-81.5 81t-124.5 29.5q-96 0 -162.5 -39.5t-100.5 -108
t-34 -155.5q0 -80 37.5 -156.5t114.5 -146.5l-8 -51h-282z" />
    <glyph glyph-name="uni03BC" unicode="&#x3bc;" horiz-adv-x="553" 
d="M11 -180l106 665h61l-47 -295q-23 -146 96 -146q76 0 122 48.5t59 129.5l41 263h61l-77 -485h-59l13 86q-25 -45 -67 -69.5t-96 -24.5q-87 0 -121 58l-31 -230h-61z" />
    <glyph glyph-name="pi" unicode="&#x3c0;" horiz-adv-x="573" 
d="M459 -4q-73 0 -105 47t-19 125l42 268h-182q-24 -134 -57.5 -241.5t-78.5 -194.5h-66q99 189 141 436h-98l8 49h525l-8 -49h-123l-41 -264q-10 -64 8.5 -93.5t73.5 -29.5q22 0 53 5l-11 -52q-35 -6 -62 -6z" />
    <glyph glyph-name="uni0400" unicode="&#x400;" horiz-adv-x="576" 
d="M54 0l111 705h435l-9 -53h-373l-43 -268h354l-9 -53h-354l-44 -278h374l-8 -53h-434zM382 765l-127 171h72l105 -171h-50z" />
    <glyph glyph-name="uni0401" unicode="&#x401;" horiz-adv-x="576" 
d="M54 0l111 705h435l-9 -53h-373l-43 -268h354l-9 -53h-354l-44 -278h374l-8 -53h-434zM461 813l12 73h73l-12 -73h-73zM294 813l12 73h73l-12 -73h-73z" />
    <glyph glyph-name="uni0402" unicode="&#x402;" horiz-adv-x="829" 
d="M513 -188q-34 0 -63.5 5.5t-48.5 15.5l15 50q37 -18 92 -18q138 0 167 180l16 94q19 122 -24 179t-145 57q-48 0 -93 -9.5t-87 -33.5l-53 -332h-62l104 650h-263l8 55h588l-9 -55h-263l-40 -257q35 19 81 29t95 10q127 0 187 -73t37 -214l-15 -98q-37 -235 -224 -235z
" />
    <glyph glyph-name="uni0403" unicode="&#x403;" horiz-adv-x="534" 
d="M53 0l112 705h429l-9 -55h-366l-104 -650h-62zM334 765l131 171h74l-155 -171h-50z" />
    <glyph glyph-name="uni0404" unicode="&#x404;" horiz-adv-x="670" 
d="M376 -8q-88 0 -154.5 33.5t-104 103t-37.5 177.5q0 87 25 161t71.5 129.5t112.5 86t149 30.5q73 0 132 -24.5t98 -67.5l-31 -50q-41 43 -89.5 64t-112.5 21q-77 0 -136.5 -34.5t-97 -95.5t-49.5 -141h369l-8 -54h-366q-4 -87 18.5 -150t74.5 -97.5t140 -34.5
q58 0 105.5 20t96.5 64l27 -50q-95 -91 -233 -91z" />
    <glyph glyph-name="uni0405" unicode="&#x405;" horiz-adv-x="607" 
d="M296 -8q-77 0 -146 19.5t-119 66.5l28 48q54 -46 111.5 -62t129.5 -16q86 0 139 36.5t53 100.5q0 44 -31 75t-111 49l-101 25q-69 16 -110.5 56t-41.5 118q0 62 34.5 108t93 71.5t129.5 25.5q67 0 131.5 -21.5t109.5 -68.5l-29 -49q-45 45 -100 64t-114 19q-55 0 -98 -18
t-68.5 -51t-25.5 -78q0 -57 27.5 -83t80.5 -39l102 -24q96 -22 140.5 -65.5t44.5 -106.5q0 -65 -34.5 -109.5t-93.5 -67.5t-131 -23z" />
    <glyph glyph-name="uni0406" unicode="&#x406;" horiz-adv-x="245" 
d="M53 0l112 705h62l-112 -705h-62z" />
    <glyph glyph-name="uni0407" unicode="&#x407;" horiz-adv-x="245" 
d="M53 0l112 705h62l-112 -705h-62zM260 813l12 73h73l-12 -73h-73zM93 813l12 73h73l-12 -73h-73z" />
    <glyph glyph-name="uni0408" unicode="&#x408;" horiz-adv-x="310" 
d="M-42 -7v54l55 4q114 8 135 141l82 513h61l-83 -524q-13 -84 -60 -131.5t-134 -52.5z" />
    <glyph glyph-name="uni0409" unicode="&#x409;" horiz-adv-x="1128" 
d="M12 -14l-25 51q40 20 75.5 46t66 72t55.5 123t44 197l37 230h435l-51 -319h207q106 0 160 -47t54 -126q0 -106 -63.5 -159.5t-184.5 -53.5h-295l103 650h-316l-30 -190q-19 -116 -44.5 -196t-58.5 -133t-75 -87.5t-94 -57.5zM597 53h228q182 0 182 157q0 61 -40 92
t-116 31h-210z" />
    <glyph glyph-name="uni040A" unicode="&#x40a;" horiz-adv-x="1166" 
d="M53 0l112 705h62l-51 -320h449l51 320h61l-50 -319h206q107 0 161 -47t54 -126q0 -106 -63.5 -159.5t-185.5 -53.5h-295l52 330h-448l-53 -330h-62zM634 53h229q182 0 182 157q0 61 -40 92t-116 31h-211z" />
    <glyph glyph-name="uni040B" unicode="&#x40b;" horiz-adv-x="841" 
d="M227 0l104 650h-263l8 55h588l-9 -55h-263l-40 -257q37 19 87 29t99 10q131 0 190 -73t37 -214l-23 -145h-62l23 140q20 121 -22.5 178t-147.5 57q-49 0 -98.5 -9.5t-92.5 -33.5l-53 -332h-62z" />
    <glyph glyph-name="uni040C" unicode="&#x40c;" horiz-adv-x="626" 
d="M53 0l112 705h62l-51 -321h132l265 321h73l-275 -331q87 -29 121 -132l82 -242h-64l-68 208q-21 66 -57 94t-94 28h-123l-53 -330h-62zM368 765l131 171h74l-155 -171h-50z" />
    <glyph glyph-name="uni040D" unicode="&#x40d;" horiz-adv-x="736" 
d="M53 0l112 705h58l-95 -596l540 596h49l-112 -705h-57l94 598l-541 -598h-48zM425 765l-127 171h72l105 -171h-50z" />
    <glyph glyph-name="uni040E" unicode="&#x40e;" horiz-adv-x="635" 
d="M164 0l143 214l-229 491h63l204 -436l294 436h68l-474 -705h-69zM385 760q-58 0 -107.5 30t-67.5 98l41 15q17 -51 50.5 -75t84.5 -24q53 0 89.5 21.5t72.5 76.5l37 -14q-37 -73 -90 -100.5t-110 -27.5z" />
    <glyph glyph-name="uni040F" unicode="&#x40f;" horiz-adv-x="751" 
d="M284 -153l25 153h-256l112 705h62l-103 -650h444l102 650h62l-112 -705h-254l-25 -153h-57z" />
    <glyph glyph-name="uni0410" unicode="&#x410;" horiz-adv-x="722" 
d="M-11 0l419 705h55l194 -705h-60l-51 188h-378l-110 -188h-69zM426 629l-226 -388h331l-103 388h-2z" />
    <glyph glyph-name="uni0411" unicode="&#x411;" horiz-adv-x="654" 
d="M53 0l112 705h435l-8 -53h-374l-43 -266h207q107 0 161 -47t54 -126q0 -106 -64 -159.5t-185 -53.5h-295zM122 53h230q182 0 182 157q0 61 -40 92t-116 31h-211z" />
    <glyph glyph-name="uni0412" unicode="&#x412;" horiz-adv-x="671" 
d="M53 0l112 705h257q107 0 159 -44.5t52 -120.5q0 -71 -39.5 -118.5t-106.5 -65.5q51 -17 80.5 -55.5t29.5 -92.5q0 -103 -63.5 -155.5t-181.5 -52.5h-299zM175 383h214q84 0 133 39.5t49 113.5q0 117 -156 117h-197zM123 52h231q181 0 181 157q0 60 -40 91t-115 31h-213z
" />
    <glyph glyph-name="uni0413" unicode="&#x413;" horiz-adv-x="534" 
d="M53 0l112 705h429l-9 -55h-366l-104 -650h-62z" />
    <glyph glyph-name="uni0414" unicode="&#x414;" horiz-adv-x="769" 
d="M-45 -153l33 206h69q64 65 107.5 179t71.5 291l30 182h453l-103 -652h100l-33 -206h-56l24 153h-614l-25 -153h-57zM128 53h427l94 599h-334l-20 -131q-27 -173 -67 -288t-100 -180z" />
    <glyph glyph-name="uni0415" unicode="&#x415;" horiz-adv-x="576" 
d="M54 0l111 705h435l-9 -53h-373l-43 -268h354l-9 -53h-354l-44 -278h374l-8 -53h-434z" />
    <glyph glyph-name="uni0416" unicode="&#x416;" horiz-adv-x="948" 
d="M-24 0l154 242q35 55 76.5 89t90.5 46l-169 328h64l165 -321h109l51 321h60l-51 -321h104l266 321h73l-277 -331q88 -28 122 -132l82 -242h-63l-69 208q-21 66 -57 94t-94 28h-95l-53 -330h-60l52 330h-94q-58 0 -102 -28.5t-85 -93.5l-132 -208h-68z" />
    <glyph glyph-name="uni0417" unicode="&#x417;" horiz-adv-x="642" 
d="M303 -8q-88 0 -154 21.5t-124 70.5l29 48q57 -49 117.5 -66.5t135.5 -17.5q53 0 98 15t72.5 49.5t27.5 94.5q0 61 -39.5 92t-113.5 31h-171l8 53h171q83 0 132 39.5t49 114.5q0 43 -22 69t-59.5 38.5t-83.5 12.5q-64 0 -127 -20.5t-114 -62.5l-25 49q55 45 127 67.5
t142 22.5q63 0 114 -18.5t81 -56.5t30 -94q0 -73 -39.5 -121.5t-106.5 -66.5q51 -16 80.5 -56t29.5 -96q0 -75 -35.5 -122t-95.5 -68.5t-134 -21.5z" />
    <glyph glyph-name="uni0418" unicode="&#x418;" horiz-adv-x="736" 
d="M53 0l112 705h58l-95 -596l540 596h49l-112 -705h-57l94 598l-541 -598h-48z" />
    <glyph glyph-name="uni0419" unicode="&#x419;" horiz-adv-x="736" 
d="M53 0l112 705h58l-95 -596l540 596h49l-112 -705h-57l94 598l-541 -598h-48zM444 760q-58 0 -107.5 30t-67.5 98l41 15q17 -51 50.5 -75t84.5 -24q53 0 89.5 21.5t72.5 76.5l37 -14q-37 -73 -90 -100.5t-110 -27.5z" />
    <glyph glyph-name="uni041A" unicode="&#x41a;" horiz-adv-x="626" 
d="M53 0l112 705h62l-51 -321h132l265 321h73l-275 -331q87 -29 121 -132l82 -242h-64l-68 208q-21 66 -57 94t-94 28h-123l-53 -330h-62z" />
    <glyph glyph-name="uni041B" unicode="&#x41b;" horiz-adv-x="736" 
d="M10 -14l-23 52q40 19 75.5 45.5t66 72t55.5 122.5t44 197l36 230h453l-112 -705h-62l104 650h-334l-30 -190q-19 -116 -43.5 -196t-57.5 -133t-75.5 -87.5t-96.5 -57.5z" />
    <glyph glyph-name="uni041C" unicode="&#x41c;" horiz-adv-x="849" 
d="M55 0l112 705h52l193 -532l365 532h53l-112 -705h-57l92 585l-326 -476h-44l-177 483l-94 -592h-57z" />
    <glyph glyph-name="uni041D" unicode="&#x41d;" horiz-adv-x="756" 
d="M53 0l112 705h62l-51 -320h449l51 320h61l-112 -705h-61l52 330h-448l-53 -330h-62z" />
    <glyph glyph-name="uni041E" unicode="&#x41e;" horiz-adv-x="759" 
d="M362 -8q-129 0 -206 77t-77 222q0 90 23 166.5t67.5 134t110.5 89.5t151 32q130 0 207 -77t77 -222q0 -89 -23 -166t-68 -134.5t-110.5 -89.5t-151.5 -32zM364 48q93 0 156.5 48t96 131t32.5 186q0 124 -58.5 184t-162.5 60q-91 0 -154.5 -48t-96 -130.5t-32.5 -186.5
q0 -124 58.5 -184t160.5 -60z" />
    <glyph glyph-name="uni041F" unicode="&#x41f;" horiz-adv-x="751" 
d="M53 0l112 705h567l-112 -705h-62l104 650h-443l-104 -650h-62z" />
    <glyph glyph-name="uni0420" unicode="&#x420;" horiz-adv-x="624" 
d="M53 0l112 705h246q104 0 162 -46.5t58 -140.5q0 -104 -66 -166.5t-191 -62.5h-213l-46 -289h-62zM170 343h208q93 0 141.5 44t48.5 128q0 71 -40.5 104t-120.5 33h-188z" />
    <glyph glyph-name="uni0421" unicode="&#x421;" horiz-adv-x="670" 
d="M376 -8q-88 0 -154.5 33.5t-104 103t-37.5 177.5q0 87 25 161t71.5 129.5t112.5 86t149 30.5q73 0 132 -24.5t98 -67.5l-31 -50q-41 43 -89.5 64t-112.5 21q-90 0 -154.5 -45.5t-99.5 -124t-35 -180.5q0 -138 63 -197.5t171 -59.5q58 0 105.5 20t96.5 64l27 -50
q-95 -91 -233 -91z" />
    <glyph glyph-name="uni0422" unicode="&#x422;" horiz-adv-x="594" 
d="M227 0l104 650h-263l8 55h588l-9 -55h-263l-103 -650h-62z" />
    <glyph glyph-name="uni0423" unicode="&#x423;" horiz-adv-x="635" 
d="M164 0l143 214l-229 491h63l204 -436l294 436h68l-474 -705h-69z" />
    <glyph glyph-name="uni0424" unicode="&#x424;" horiz-adv-x="827" 
d="M341 -21l12 78q-81 4 -142.5 36.5t-96.5 90t-35 134.5q0 65 24.5 125.5t70.5 109.5t111 77.5t147 28.5h16l12 72h62l-12 -73q81 -4 143 -36.5t96.5 -90t34.5 -135.5q0 -64 -24 -125t-70 -109.5t-111 -77t-147 -28.5h-17l-13 -77h-61zM144 318q0 -96 58 -150.5t159 -58.5
l79 497h-12q-66 0 -118.5 -24t-89.5 -65t-56.5 -92.5t-19.5 -106.5zM720 396q0 97 -58.5 151t-160.5 58l-79 -497h14q66 0 118.5 24.5t89.5 65.5t56.5 92.5t19.5 105.5z" />
    <glyph glyph-name="uni0425" unicode="&#x425;" horiz-adv-x="640" 
d="M-21 0l325 364l-198 341h67l172 -299l262 299h77l-307 -347l208 -358h-68l-182 316l-279 -316h-77z" />
    <glyph glyph-name="uni0426" unicode="&#x426;" horiz-adv-x="782" 
d="M640 -153l24 153h-611l112 705h62l-103 -650h444l102 650h62l-103 -650h100l-33 -208h-56z" />
    <glyph glyph-name="uni0427" unicode="&#x427;" horiz-adv-x="666" 
d="M474 0l48 308q-37 -19 -87 -29t-99 -10q-130 0 -189 73t-37 214l23 149h62l-23 -144q-20 -121 22.5 -178t147.5 -57q48 0 97.5 9.5t93.5 33.5l53 336h62l-112 -705h-62z" />
    <glyph glyph-name="uni0428" unicode="&#x428;" horiz-adv-x="1045" 
d="M53 0l112 705h62l-103 -650h339l103 650h61l-103 -650h339l102 650h62l-112 -705h-862z" />
    <glyph glyph-name="uni0429" unicode="&#x429;" horiz-adv-x="1076" 
d="M933 -153l25 153h-905l112 705h62l-103 -650h339l103 650h61l-103 -650h339l103 650h61l-103 -650h99l-33 -208h-57z" />
    <glyph glyph-name="uni042A" unicode="&#x42a;" horiz-adv-x="783" 
d="M182 0l104 650h-218l8 55h280l-51 -319h206q106 0 160 -47t54 -126q0 -106 -63.5 -159.5t-184.5 -53.5h-295zM252 53h228q183 0 183 157q0 61 -40 92t-117 31h-209z" />
    <glyph glyph-name="uni042B" unicode="&#x42b;" horiz-adv-x="833" 
d="M53 0l112 705h62l-51 -319h179q106 0 160 -47t54 -126q0 -106 -63.5 -159.5t-184.5 -53.5h-268zM641 0l112 705h61l-112 -705h-61zM123 53h201q183 0 183 157q0 61 -40 92t-117 31h-182z" />
    <glyph glyph-name="uni042C" unicode="&#x42c;" horiz-adv-x="654" 
d="M53 0l112 705h62l-51 -319h206q107 0 161 -47t54 -126q0 -106 -63.5 -159.5t-185.5 -53.5h-295zM123 53h229q182 0 182 157q0 61 -40 92t-116 31h-210z" />
    <glyph glyph-name="uni042D" unicode="&#x42d;" horiz-adv-x="670" 
d="M267 -8q-73 0 -132.5 24.5t-97.5 67.5l31 50q41 -43 89.5 -64t112.5 -21q79 0 139.5 36t97.5 99.5t48 146.5h-370l8 54h365q2 82 -19.5 143t-72 94.5t-136.5 33.5q-58 0 -108.5 -20t-99.5 -64l-27 50q48 45 109.5 68t129.5 23q88 0 153 -33.5t101 -103t36 -177.5
q0 -87 -24.5 -161t-71 -129.5t-112.5 -86t-149 -30.5z" />
    <glyph glyph-name="uni042E" unicode="&#x42e;" horiz-adv-x="998" 
d="M602 -8q-99 0 -164 42t-95 118.5t-23 177.5h-152l-53 -330h-62l112 705h62l-51 -320h150q14 95 58 169.5t116 116.5t171 42q129 0 206 -77t77 -222q0 -89 -23 -166t-67.5 -134.5t-110.5 -89.5t-151 -32zM604 48q92 0 155.5 48t96.5 131t33 186q0 124 -59 184t-162 60
q-92 0 -155.5 -48t-96 -130.5t-32.5 -186.5q0 -124 58.5 -184t161.5 -60z" />
    <glyph glyph-name="uni042F" unicode="&#x42f;" horiz-adv-x="662" 
d="M6 0l164 236q23 34 43.5 53.5t45.5 26.5q-74 16 -111 63t-37 117t33 116.5t90 69.5t129 23h280l-112 -705h-61l49 305h-134q-53 0 -86.5 -16t-66.5 -63l-156 -226h-70zM339 357h188l46 295h-218q-85 0 -133.5 -41t-48.5 -117q0 -68 40 -102.5t126 -34.5z" />
    <glyph glyph-name="uni0430" unicode="&#x430;" horiz-adv-x="529" 
d="M206 -8q-41 0 -77 18t-58.5 50.5t-22.5 75.5q0 76 65.5 109t209.5 33h71l5 35q11 63 -15 96t-92 33q-90 0 -165 -52l-20 47q35 26 86.5 41.5t103.5 15.5q94 0 134 -53.5t25 -144.5l-47 -296h-58l12 78q-26 -44 -69 -65t-88 -21zM217 41q58 0 104.5 39.5t58.5 110.5l6 42
h-49q-85 0 -134 -8.5t-69.5 -29.5t-20.5 -56q0 -49 31.5 -73.5t72.5 -24.5z" />
    <glyph glyph-name="uni0431" unicode="&#x431;" horiz-adv-x="555" 
d="M254 -8q-75 0 -123 36t-67 98.5t-6 141.5l11 76q16 99 44 161.5t78.5 101t132.5 62.5l161 49l19 -52l-187 -54q-83 -24 -123.5 -80t-56.5 -136q30 43 76 68.5t101 25.5q84 0 136.5 -55.5t52.5 -150.5q0 -79 -29 -145.5t-84.5 -106.5t-135.5 -40zM256 43q60 0 101 32.5
t62.5 87t21.5 119.5q0 77 -38 116.5t-105 39.5q-59 0 -100.5 -31.5t-62.5 -82t-21 -107.5q0 -90 37.5 -132t104.5 -42z" />
    <glyph glyph-name="uni0432" unicode="&#x432;" horiz-adv-x="537" 
d="M46 0l77 485h217q73 0 110.5 -29.5t37.5 -79.5q0 -51 -25.5 -83.5t-72.5 -44.5q36 -10 58 -36t22 -67q0 -70 -47.5 -107.5t-146.5 -37.5h-230zM148 269h167q51 0 82.5 26.5t31.5 74.5q0 34 -24 52t-68 18h-162zM112 45h171q68 0 98 25.5t30 74.5q0 79 -98 79h-173z" />
    <glyph glyph-name="uni0433" unicode="&#x433;" horiz-adv-x="425" 
d="M46 0l77 485h327l-8 -51h-266l-69 -434h-61z" />
    <glyph glyph-name="uni0434" unicode="&#x434;" horiz-adv-x="580" 
d="M-32 -130l28 180h49q46 46 73 116.5t43 172.5l23 146h328l-69 -435h75l-28 -180h-54l21 130h-416l-20 -130h-53zM110 50h274l61 385h-213l-16 -103q-13 -87 -40.5 -163.5t-65.5 -118.5z" />
    <glyph glyph-name="uni0435" unicode="&#x435;" horiz-adv-x="535" 
d="M269 -8q-101 0 -159 56t-58 155q0 78 30.5 144t87 106.5t136.5 40.5q75 0 118 -35.5t58.5 -91t5.5 -117.5l-3 -20h-372q-10 -84 32 -135.5t125 -51.5q47 0 87 14t73 45l25 -43q-33 -33 -84 -50t-102 -17zM305 445q-57 0 -95 -25t-60 -64t-30 -81h318q5 47 -7 85.5
t-42.5 61.5t-83.5 23z" />
    <glyph glyph-name="uni0436" unicode="&#x436;" horiz-adv-x="766" 
d="M-34 0l123 162q40 51 66 73t53 30l-139 220h65l134 -209h89l34 209h61l-34 -209h85l200 209h71l-211 -223q30 -11 49.5 -36.5t37.5 -64.5l74 -161h-63l-67 149q-21 46 -46 61.5t-66 15.5h-72l-35 -226h-61l35 226h-66q-30 0 -51.5 -6.5t-40.5 -23.5t-43 -47l-114 -149
h-68z" />
    <glyph glyph-name="uni0437" unicode="&#x437;" horiz-adv-x="487" 
d="M198 -8q-61 0 -111.5 17t-77.5 48l26 45q29 -31 72 -45.5t94 -14.5q73 0 115.5 23t42.5 80q0 34 -25 55.5t-73 21.5h-108l8 48h99q51 0 84.5 26.5t33.5 72.5q0 34 -29 54t-86 20q-49 0 -93.5 -13.5t-88.5 -43.5l-21 47q91 61 210 61q80 0 123.5 -32.5t43.5 -84.5
q0 -51 -27.5 -83.5t-70.5 -45.5q38 -10 59.5 -38t21.5 -65q0 -81 -61 -117t-161 -36z" />
    <glyph glyph-name="uni0438" unicode="&#x438;" horiz-adv-x="575" 
d="M46 0l77 485h56l-63 -395l360 395h53l-77 -485h-56l63 395l-360 -395h-53z" />
    <glyph glyph-name="uni0439" unicode="&#x439;" horiz-adv-x="575" 
d="M46 0l77 485h56l-63 -395l360 395h53l-77 -485h-56l63 395l-360 -395h-53zM337 548q-52 0 -97 30t-61 97l40 16q14 -51 44.5 -75.5t75.5 -24.5q46 0 77 22t61 77l39 -15q-32 -72 -79.5 -99.5t-99.5 -27.5z" />
    <glyph glyph-name="uni043A" unicode="&#x43a;" horiz-adv-x="511" 
d="M46 0l77 485h61l-33 -209h97l200 209h72l-212 -223q24 -9 45.5 -33t42.5 -68l73 -161h-62l-68 149q-21 46 -46 61.5t-65 15.5h-85l-36 -226h-61z" />
    <glyph glyph-name="uni043B" unicode="&#x43b;" horiz-adv-x="564" 
d="M9 -10l-17 50q50 19 82 55.5t53 102.5t39 175l17 112h335l-77 -485h-61l69 435h-216l-10 -65q-14 -95 -32 -160.5t-42 -108t-58.5 -69t-81.5 -42.5z" />
    <glyph glyph-name="uni043C" unicode="&#x43c;" horiz-adv-x="647" 
d="M46 0l77 485h49l135 -342l242 342h52l-77 -485h-54l59 373l-212 -295h-34l-122 302l-60 -380h-55z" />
    <glyph glyph-name="uni043D" unicode="&#x43d;" horiz-adv-x="577" 
d="M46 0l77 485h61l-33 -209h286l33 209h61l-77 -485h-61l36 225h-286l-36 -225h-61z" />
    <glyph glyph-name="uni043E" unicode="&#x43e;" horiz-adv-x="555" 
d="M254 -8q-94 0 -148 56t-54 155q0 79 29.5 145t85.5 106t134 40q93 0 147.5 -56.5t54.5 -154.5q0 -80 -30 -146t-85.5 -105.5t-133.5 -39.5zM256 43q60 0 101 33t62.5 88t21.5 121q0 77 -38 117t-105 40q-59 0 -100.5 -33t-62.5 -88t-21 -121q0 -77 37.5 -117t104.5 -40z
" />
    <glyph glyph-name="uni043F" unicode="&#x43f;" horiz-adv-x="574" 
d="M46 0l77 485h405l-77 -485h-61l69 435h-283l-69 -435h-61z" />
    <glyph glyph-name="uni0440" unicode="&#x440;" horiz-adv-x="583" 
d="M17 -180l106 665h60l-13 -83q28 43 72 67.5t101 24.5q86 0 137.5 -56t51.5 -153q0 -78 -28.5 -145t-82.5 -107.5t-132 -40.5q-56 0 -101 26.5t-65 82.5l-45 -281h-61zM285 43q60 0 101 33t62.5 88t21.5 121q0 77 -38 117t-105 40q-59 0 -100.5 -33t-62.5 -88t-21 -121
q0 -77 37.5 -117t104.5 -40z" />
    <glyph glyph-name="uni0441" unicode="&#x441;" horiz-adv-x="467" 
d="M257 -8q-104 0 -154 59t-50 154q0 53 14.5 104.5t45 93t78.5 66.5t114 25q48 0 91 -17t69 -45l-25 -45q-53 54 -135 54q-51 0 -87 -20t-59 -54.5t-33.5 -76.5t-10.5 -85q0 -73 34.5 -117t113.5 -44q31 0 66.5 13t64.5 40l22 -47q-29 -27 -73 -42.5t-86 -15.5z" />
    <glyph glyph-name="uni0442" unicode="&#x442;" horiz-adv-x="431" 
d="M146 0l69 434h-181l8 51h423l-8 -51h-181l-69 -434h-61z" />
    <glyph glyph-name="uni0443" unicode="&#x443;" horiz-adv-x="517" 
d="M80 -180l107 182l-129 483h63l106 -417l241 417h68l-391 -665h-65z" />
    <glyph glyph-name="uni0444" unicode="&#x444;" horiz-adv-x="775" 
d="M302 -180l41 257q-22 -45 -54.5 -65t-75.5 -20q-70 0 -115.5 55.5t-45.5 152.5q0 79 24 145.5t68 107.5t105 41q44 0 76 -23t47 -64l47 298h61l-46 -293q22 43 53.5 62.5t74.5 19.5q70 0 115 -56t45 -153q0 -79 -23.5 -145.5t-68 -107t-105.5 -40.5q-43 0 -74.5 21.5
t-46.5 62.5l-41 -256h-61zM519 43q45 -1 77 32.5t48.5 89t16.5 123.5q0 42 -13 77.5t-37 56.5t-58 22q-52 0 -83 -33t-44.5 -88.5t-13.5 -122.5q0 -77 29 -117t78 -40zM221 42q53 -1 84 32.5t44.5 89t13.5 122.5q0 77 -29 117t-78 40q-46 0 -77.5 -33t-48.5 -89t-17 -123
q0 -43 13.5 -78.5t37.5 -56.5t57 -21z" />
    <glyph glyph-name="uni0445" unicode="&#x445;" horiz-adv-x="523" 
d="M-13 0l240 251l-151 234h68l125 -195l181 195h75l-224 -238l159 -247h-69l-132 207l-197 -207h-75z" />
    <glyph glyph-name="uni0446" unicode="&#x446;" horiz-adv-x="586" 
d="M442 -130l20 130h-416l77 485h61l-69 -435h273l69 435h61l-69 -435h75l-28 -180h-54z" />
    <glyph glyph-name="uni0447" unicode="&#x447;" horiz-adv-x="542" 
d="M358 0l33 206q-32 -19 -65 -28.5t-72 -9.5q-98 0 -142.5 49.5t-29.5 146.5l19 121h61l-18 -118q-13 -76 16 -111t102 -35q40 0 72 9t65 30l36 225h61l-77 -485h-61z" />
    <glyph glyph-name="uni0448" unicode="&#x448;" horiz-adv-x="784" 
d="M46 0l77 485h60l-70 -435h219l69 435h60l-69 -435h218l69 435h59l-77 -485h-615z" />
    <glyph glyph-name="uni0449" unicode="&#x449;" horiz-adv-x="806" 
d="M663 -130l20 130h-637l77 485h60l-70 -435h219l69 435h60l-69 -435h218l69 435h59l-69 -435h76l-29 -180h-53z" />
    <glyph glyph-name="uni044A" unicode="&#x44a;" horiz-adv-x="606" 
d="M121 0l69 434h-156l8 51h217l-28 -179h152q81 0 123.5 -38t42.5 -104q0 -77 -51.5 -120.5t-143.5 -43.5h-233zM190 47h160q69 0 103.5 29.5t34.5 84.5q0 51 -30 75t-87 24h-147z" />
    <glyph glyph-name="uni044B" unicode="&#x44b;" horiz-adv-x="709" 
d="M46 0l77 485h61l-28 -179h151q81 0 123.5 -38t42.5 -104q0 -77 -51.5 -120.5t-143.5 -43.5h-232zM525 0l77 485h61l-77 -485h-61zM115 47h159q69 0 103.5 29.5t34.5 84.5q0 51 -30 75t-87 24h-147z" />
    <glyph glyph-name="uni044C" unicode="&#x44c;" horiz-adv-x="530" 
d="M46 0l77 485h61l-28 -179h151q81 0 123.5 -38t42.5 -104q0 -77 -51.5 -120.5t-143.5 -43.5h-232zM115 47h159q69 0 103.5 29.5t34.5 84.5q0 51 -30 75t-87 24h-147z" />
    <glyph glyph-name="uni044D" unicode="&#x44d;" horiz-adv-x="480" 
d="M173 -8q-52 0 -96.5 17t-69.5 45l25 43q54 -55 143 -55q58 0 97 25.5t61.5 67t29.5 89.5h-253l7 48h251q2 76 -32.5 123.5t-118.5 47.5q-36 0 -72.5 -13t-67.5 -41l-21 45q29 28 74 44t90 16q106 0 157 -59.5t51 -153.5q0 -53 -15 -104.5t-46 -93.5t-79 -66.5t-115 -24.5
z" />
    <glyph glyph-name="uni044E" unicode="&#x44e;" horiz-adv-x="747" 
d="M447 -8q-70 0 -116.5 30t-68 83t-17.5 121h-103l-36 -226h-60l77 485h60l-33 -209h102q12 62 44 111.5t82 78t115 28.5q94 0 148.5 -56.5t54.5 -154.5q0 -80 -30 -146t-85.5 -105.5t-133.5 -39.5zM449 43q60 0 101 33t62.5 88t21.5 121q0 77 -38 117t-105 40
q-60 0 -101 -33t-62 -88t-21 -121q0 -77 37.5 -117t104.5 -40z" />
    <glyph glyph-name="uni044F" unicode="&#x44f;" horiz-adv-x="529" 
d="M7 0l93 132q39 55 92 71q-53 9 -82.5 43t-29.5 87q0 66 48.5 109t135.5 43h220l-78 -485h-59l31 193h-82q-45 0 -79 -22t-57 -54l-81 -117h-72zM249 240h137l31 199h-148q-64 0 -96 -28.5t-32 -78.5q0 -47 27.5 -69.5t80.5 -22.5z" />
    <glyph glyph-name="uni0450" unicode="&#x450;" horiz-adv-x="535" 
d="M269 -8q-101 0 -159 56t-58 155q0 78 30.5 144t87 106.5t136.5 40.5q75 0 118 -35.5t58.5 -91t5.5 -117.5l-3 -20h-372q-10 -84 32 -135.5t125 -51.5q47 0 87 14t73 45l25 -43q-33 -33 -84 -50t-102 -17zM305 445q-57 0 -95 -25t-60 -64t-30 -81h318q5 47 -7 85.5
t-42.5 61.5t-83.5 23zM300 550l-140 201h68l119 -201h-47z" />
    <glyph glyph-name="uni0451" unicode="&#x451;" horiz-adv-x="535" 
d="M269 -8q-101 0 -159 56t-58 155q0 78 30.5 144t87 106.5t136.5 40.5q75 0 118 -35.5t58.5 -91t5.5 -117.5l-3 -20h-372q-10 -84 32 -135.5t125 -51.5q47 0 87 14t73 45l25 -43q-33 -33 -84 -50t-102 -17zM305 445q-57 0 -95 -25t-60 -64t-30 -81h318q5 47 -7 85.5
t-42.5 61.5t-83.5 23zM383 615l11 72h74l-12 -72h-73zM216 615l11 72h73l-11 -72h-73z" />
    <glyph glyph-name="uni0452" unicode="&#x452;" horiz-adv-x="568" 
d="M246 -185l-15 49q57 13 89.5 36t49 59t24.5 86l39 250q23 146 -98 146q-80 0 -126.5 -48.5t-59.5 -128.5l-42 -264h-61l89 558h-94l8 48h93l16 99h61l-16 -99h195l-7 -48h-195l-25 -156q28 44 72.5 68t103.5 24q81 0 122 -49t25 -150l-39 -247q-10 -63 -31.5 -109.5
t-63 -77.5t-114.5 -46z" />
    <glyph glyph-name="uni0453" unicode="&#x453;" horiz-adv-x="425" 
d="M46 0l77 485h327l-8 -51h-266l-69 -434h-61zM259 550l134 201h71l-158 -201h-47z" />
    <glyph glyph-name="uni0454" unicode="&#x454;" horiz-adv-x="481" 
d="M260 -8q-106 0 -157 59t-51 154q0 53 15 104.5t46 93t79.5 66.5t115.5 25q55 0 99.5 -17.5t70.5 -45.5l-25 -43q-27 28 -62.5 41.5t-84.5 13.5q-56 0 -94.5 -23.5t-61 -62.5t-31.5 -85h252l-7 -48h-251q-5 -82 30 -132t120 -50q39 0 76.5 13t67.5 41l22 -45
q-30 -27 -75 -43t-94 -16z" />
    <glyph glyph-name="uni0455" unicode="&#x455;" horiz-adv-x="486" 
d="M225 -8q-57 0 -106.5 16t-79.5 44l27 44q35 -29 75.5 -41.5t86.5 -12.5q57 0 90 23t33 66q0 28 -18.5 46t-51.5 27l-95 24q-48 12 -75.5 43t-27.5 76q0 64 51.5 105.5t137.5 41.5q51 0 96 -17.5t71 -46.5l-25 -43q-55 56 -144 56q-58 0 -93 -25t-35 -69q0 -26 16 -45.5
t50 -27.5l96 -25q49 -12 78 -41t29 -74q0 -68 -51.5 -106t-134.5 -38z" />
    <glyph glyph-name="uni0456" unicode="&#x456;" horiz-adv-x="230" 
d="M133 613l13 77h81l-12 -77h-82zM45 0l78 485h61l-78 -485h-61z" />
    <glyph glyph-name="uni0457" unicode="&#x457;" horiz-adv-x="230" 
d="M46 0l77 485h61l-77 -485h-61zM222 615l11 72h74l-12 -72h-73zM55 615l11 72h73l-11 -72h-73z" />
    <glyph glyph-name="uni0458" unicode="&#x458;" horiz-adv-x="233" 
d="M136 613l12 77h82l-13 -77h-81zM-111 -193l-3 50l42 4q100 7 118 120l80 504h61l-80 -503q-13 -83 -57 -125t-117 -47z" />
    <glyph glyph-name="uni0459" unicode="&#x459;" horiz-adv-x="864" 
d="M9 -10l-17 50q50 19 82 55.5t53 102.5t39 175l17 112h334l-28 -179h152q80 0 123 -38t43 -104q0 -77 -51.5 -120.5t-143.5 -43.5h-232l69 435h-216l-10 -65q-14 -95 -32 -160.5t-42 -108t-58.5 -69t-81.5 -42.5zM448 47h160q69 0 103.5 29.5t34.5 84.5q0 51 -30.5 75
t-86.5 24h-148z" />
    <glyph glyph-name="uni045A" unicode="&#x45a;" horiz-adv-x="878" 
d="M46 0l77 485h61l-33 -209h286l33 209h61l-28 -179h152q80 0 122.5 -38t42.5 -104q0 -77 -51.5 -120.5t-142.5 -43.5h-233l36 225h-286l-36 -225h-61zM462 47h160q68 0 103 29.5t35 84.5q0 51 -30.5 75t-86.5 24h-148z" />
    <glyph glyph-name="uni045B" unicode="&#x45b;" horiz-adv-x="568" 
d="M46 0l89 558h-94l8 48h93l16 99h61l-16 -99h196l-8 -48h-195l-25 -156q28 44 72.5 68t103.5 24q81 0 122 -49t25 -150l-47 -295h-61l47 295q23 146 -98 146q-80 0 -126.5 -48.5t-59.5 -128.5l-42 -264h-61z" />
    <glyph glyph-name="uni045C" unicode="&#x45c;" horiz-adv-x="511" 
d="M46 0l77 485h61l-33 -209h97l200 209h72l-212 -223q24 -9 45.5 -33t42.5 -68l73 -161h-62l-68 149q-21 46 -46 61.5t-65 15.5h-85l-36 -226h-61zM292 550l134 201h71l-158 -201h-47z" />
    <glyph glyph-name="uni045D" unicode="&#x45d;" horiz-adv-x="575" 
d="M46 0l77 485h56l-63 -395l360 395h53l-77 -485h-56l63 395l-360 -395h-53zM309 550l-140 201h68l119 -201h-47z" />
    <glyph glyph-name="uni045E" unicode="&#x45e;" horiz-adv-x="517" 
d="M80 -180l107 182l-129 483h63l106 -417l241 417h68l-391 -665h-65zM299 548q-52 0 -97 30t-61 97l40 16q14 -51 44.5 -75.5t75.5 -24.5q46 0 77 22t61 77l39 -15q-32 -72 -79.5 -99.5t-99.5 -27.5z" />
    <glyph glyph-name="uni045F" unicode="&#x45f;" horiz-adv-x="574" 
d="M202 -130l21 130h-177l77 485h61l-69 -435h283l69 435h61l-77 -485h-175l-20 -130h-54z" />
    <glyph glyph-name="uni0462" unicode="&#x462;" horiz-adv-x="715" 
d="M114 0l86 542h-172l8 52h172l18 111h62l-18 -111h239l-8 -52h-239l-25 -156h206q106 0 160 -47t54 -126q0 -106 -63.5 -159.5t-184.5 -53.5h-295zM184 53h229q182 0 182 157q0 61 -40 92t-116 31h-210z" />
    <glyph glyph-name="uni0463" unicode="&#x463;" horiz-adv-x="606" 
d="M123 0l69 437h-157l8 48h157l35 220h61l-35 -220h161l-8 -48h-161l-20 -131h151q81 0 123.5 -37t42.5 -103q0 -76 -52 -121t-145 -45h-230zM191 47h159q69 0 104 30t35 85q0 51 -30.5 74.5t-86.5 23.5h-147z" />
    <glyph glyph-name="uni046A" unicode="&#x46a;" horiz-adv-x="931" 
d="M-24 0l154 243q47 72 102 106.5t127 34.5h62l-225 321h685l-327 -321h57q73 -1 119 -40t68 -102l81 -242h-63l-69 208q-21 66 -57 94t-93 28h-87l-52 -330h-62l52 330h-85q-58 0 -102 -28.5t-85 -93.5l-132 -208h-68zM484 387h2l269 268h-457z" />
    <glyph glyph-name="uni046B" unicode="&#x46b;" horiz-adv-x="766" 
d="M-34 0l122 159q34 43 58.5 68t53.5 35.5t74 10.5h54l-150 212h486l-217 -212h52q54 0 87.5 -25t63.5 -89l74 -159h-63l-67 146q-21 46 -47 61.5t-71 15.5h-66l-36 -223h-61l36 223h-67q-31 0 -52 -6.5t-40 -23t-43 -47.5l-113 -146h-68zM385 281h2l160 158h-271z" />
    <glyph glyph-name="uni0472" unicode="&#x472;" horiz-adv-x="759" 
d="M362 -8q-129 0 -206 77t-77 222q0 90 23 166.5t67.5 134t110.5 89.5t151 32q130 0 207 -77t77 -222q0 -89 -23 -166t-68 -134.5t-110.5 -89.5t-151.5 -32zM428 657q-77 0 -134.5 -35t-93.5 -96.5t-48 -141.5h496q1 14 1 29q0 124 -58.5 184t-162.5 60zM364 48
q80 0 138.5 36.5t94 100.5t47.5 147h-498q-1 -19 -1 -40q0 -124 58.5 -184t160.5 -60z" />
    <glyph glyph-name="uni0473" unicode="&#x473;" horiz-adv-x="555" 
d="M254 -8q-94 0 -148 56t-54 155q0 79 29.5 145t85.5 106t134 40q93 0 147.5 -56.5t54.5 -154.5q0 -80 -30 -146t-85.5 -105.5t-133.5 -39.5zM298 443q-75 0 -121.5 -50t-59.5 -127h326v20q0 77 -38 117t-107 40zM257 42q75 0 121 50.5t60 127.5h-327v-20q0 -78 38.5 -118
t107.5 -40z" />
    <glyph glyph-name="uni0474" unicode="&#x474;" horiz-adv-x="730" 
d="M269 0l-192 705h62l170 -626l257 449q40 71 75 111.5t77.5 57t105.5 16.5l4 -52q-45 0 -78 -12.5t-61.5 -44t-61.5 -88.5l-298 -516h-60z" />
    <glyph glyph-name="uni0475" unicode="&#x475;" horiz-adv-x="540" 
d="M188 0l-130 485h65l105 -418l179 313q24 43 48.5 68t55.5 35.5t75 10.5l4 -50q-49 -1 -76.5 -21t-56.5 -71l-207 -352h-62z" />
    <glyph glyph-name="uni048A" unicode="&#x48a;" horiz-adv-x="749" 
d="M444 760q-58 0 -107 30t-68 98l41 15q17 -51 50.5 -75t85.5 -24t88.5 21.5t72.5 76.5l37 -14q-37 -73 -90 -100.5t-110 -27.5zM559 -153l77 153h-88l94 598l-541 -598h-48l112 705h58l-95 -596l540 596h49l-104 -651h105l-102 -207h-57z" />
    <glyph glyph-name="uni048B" unicode="&#x48b;" horiz-adv-x="597" 
d="M337 548q-52 0 -97 30t-61 97l40 16q14 -51 44.5 -75.5t75.5 -24.5q46 0 77 22t61 77l39 -15q-33 -72 -80 -99.5t-99 -27.5zM46 0l77 485h56l-63 -395l360 395h53l-69 -435h81l-92 -180h-54l66 130h-65l63 395l-360 -395h-53z" />
    <glyph glyph-name="uni048C" unicode="&#x48c;" horiz-adv-x="705" 
d="M105 0l86 542h-143l8 52h143l18 111h61l-18 -111h144l-9 -52h-143l-25 -156h206q106 0 160 -47t54 -126q0 -106 -63.5 -159.5t-184.5 -53.5h-294zM174 53h229q182 0 182 157q0 123 -156 123h-211z" />
    <glyph glyph-name="uni048D" unicode="&#x48d;" horiz-adv-x="606" 
d="M123 0l69 437h-157l8 48h157l35 220h61l-35 -220h161l-8 -48h-161l-20 -131h151q81 0 123.5 -37t42.5 -103q0 -76 -52 -121t-145 -45h-230zM191 47h159q69 0 104 30t35 85q0 51 -30.5 74.5t-86.5 23.5h-147z" />
    <glyph glyph-name="uni048E" unicode="&#x48e;" horiz-adv-x="624" 
d="M53 0l112 705h246q104 0 162 -46.5t58 -140.5q0 -81 -39.5 -137t-112.5 -77l46 -72l-37 -25l-56 87q-13 -2 -28 -3.5t-30 -1.5h-213l-46 -289h-62zM170 343h208q11 0 24 1l-51 79l37 24l62 -96q118 30 118 164q0 71 -40.5 104t-120.5 33h-188z" />
    <glyph glyph-name="uni048F" unicode="&#x48f;" horiz-adv-x="583" 
d="M17 -180l105 665h61l-13 -81q28 42 71.5 66t100.5 24q85 0 137 -56t52 -152q0 -73 -24.5 -137t-71.5 -105l46 -61l-35 -24l-47 62q-24 -14 -51.5 -21.5t-59.5 -7.5q-56 0 -100.5 26t-65.5 81l-44 -279h-61zM284 43q48 0 83 23l-43 58l36 25l42 -57q33 33 50 84t17 110
q0 77 -38 116.5t-105 39.5q-60 0 -101 -33t-62 -88t-21 -121q0 -77 37.5 -117t104.5 -40z" />
    <glyph glyph-name="uni0490" unicode="&#x490;" horiz-adv-x="534" 
d="M53 0l112 705h371l25 152h57l-33 -207h-366l-104 -650h-62z" />
    <glyph glyph-name="uni0491" unicode="&#x491;" horiz-adv-x="425" 
d="M46 0l77 485h274l18 117h54l-27 -168h-266l-69 -434h-61z" />
    <glyph glyph-name="uni0492" unicode="&#x492;" horiz-adv-x="568" 
d="M86 0l53 330h-99l8 50h99l51 325h429l-8 -55h-368l-42 -270h187l-8 -50h-188l-52 -330h-62z" />
    <glyph glyph-name="uni0493" unicode="&#x493;" horiz-adv-x="443" 
d="M64 0l34 215h-98l8 49h98l35 221h328l-9 -51h-266l-27 -170h148l-8 -49h-148l-34 -215h-61z" />
    <glyph glyph-name="uni0494" unicode="&#x494;" horiz-adv-x="655" 
d="M338 -188q-34 0 -63 5.5t-48 15.5l14 50q38 -18 92 -18q68 0 110.5 45t57.5 135l15 94q20 122 -23.5 179t-144.5 57q-48 0 -93 -9.5t-87 -33.5l-53 -332h-62l112 705h442l-8 -55h-380l-41 -257q36 19 81.5 29t93.5 10q128 0 187.5 -73t37.5 -214l-16 -98
q-37 -235 -224 -235z" />
    <glyph glyph-name="uni0495" unicode="&#x495;" horiz-adv-x="540" 
d="M252 -185l-16 49q57 13 89.5 36t49 59t24.5 86l12 78q11 74 -13.5 110.5t-87.5 36.5q-80 0 -128 -48.5t-60 -129.5l-15 -92h-61l77 485h320l-8 -51h-259l-32 -204q28 44 73.5 68t105.5 24q82 0 123.5 -49t25.5 -150l-12 -75q-10 -63 -31 -109.5t-63 -77.5t-114 -46z" />
    <glyph glyph-name="uni0496" unicode="&#x496;" horiz-adv-x="951" 
d="M-24 0l154 242q35 55 76.5 89t90.5 46l-169 328h64l165 -321h109l51 321h60l-51 -321h104l266 321h73l-277 -331q88 -28 122 -132l64 -188h81l-32 -207h-57l23 153h-60l-69 208q-21 66 -57 94t-94 28h-95l-53 -330h-60l52 330h-94q-58 0 -102 -28.5t-85 -93.5l-132 -208
h-68z" />
    <glyph glyph-name="uni0497" unicode="&#x497;" horiz-adv-x="807" 
d="M-34 0l123 162q40 51 66 73t53 30l-139 220h65l134 -209h89l34 209h61l-34 -209h85l200 209h71l-211 -223q30 -11 49.5 -36.5t37.5 -64.5l51 -111h58l-28 -180h-53l20 130h-37l-67 149q-21 46 -46 61.5t-66 15.5h-72l-35 -226h-61l35 226h-66q-30 0 -51.5 -6.5
t-40.5 -23.5t-43 -47l-114 -149h-68z" />
    <glyph glyph-name="uni0498" unicode="&#x498;" horiz-adv-x="642" 
d="M235 -153l23 146q-71 5 -127 26.5t-106 64.5l29 48q57 -49 117.5 -66.5t135.5 -17.5q53 0 98 15t72.5 49.5t27.5 94.5q0 61 -39.5 92t-113.5 31h-171l8 53h171q83 0 132 39.5t49 114.5q0 43 -22 69t-59.5 38.5t-83.5 12.5q-64 0 -127 -20.5t-114 -62.5l-25 49
q55 45 127 67.5t142 22.5q63 0 114 -18.5t81 -56.5t30 -94q0 -73 -39.5 -121.5t-106.5 -65.5q51 -17 80.5 -57t29.5 -96q0 -73 -34 -119.5t-91.5 -68.5t-128.5 -24l-22 -145h-57z" />
    <glyph glyph-name="uni0499" unicode="&#x499;" horiz-adv-x="487" 
d="M166 -130l19 122q-58 2 -104.5 19t-71.5 46l26 45q29 -31 72 -45.5t94 -14.5q73 0 115.5 23t42.5 80q0 34 -25 55.5t-73 21.5h-108l8 48h99q51 0 84.5 26.5t33.5 72.5q0 34 -29 54t-86 20q-49 0 -93.5 -13.5t-88.5 -43.5l-21 47q91 61 210 61q80 0 123.5 -32.5
t43.5 -84.5q0 -51 -27.5 -83.5t-71.5 -45.5q38 -10 60 -38t22 -65q0 -73 -49.5 -109t-132.5 -43l-19 -123h-53z" />
    <glyph glyph-name="uni049A" unicode="&#x49a;" horiz-adv-x="650" 
d="M53 0l112 705h62l-51 -321h132l265 321h73l-275 -331q87 -29 121 -132l64 -188h81l-33 -207h-57l24 153h-61l-68 208q-21 66 -57 94t-94 28h-123l-53 -330h-62z" />
    <glyph glyph-name="uni049B" unicode="&#x49b;" horiz-adv-x="547" 
d="M46 0l77 485h61l-33 -209h97l200 209h72l-212 -223q24 -9 45.5 -33t42.5 -68l50 -111h59l-28 -180h-54l20 130h-36l-68 149q-21 46 -46 61.5t-65 15.5h-85l-36 -226h-61z" />
    <glyph glyph-name="uni049C" unicode="&#x49c;" horiz-adv-x="645" 
d="M53 0l112 705h62l-51 -321h76l26 170h49l-27 -170h27l266 321h73l-276 -331q88 -29 122 -132l81 -242h-63l-68 209q-21 65 -57.5 93t-93.5 28h-19l-27 -168h-49l27 168h-75l-53 -330h-62z" />
    <glyph glyph-name="uni049D" unicode="&#x49d;" horiz-adv-x="526" 
d="M46 0l77 485h61l-33 -209h57l18 114h47l-18 -114h8l200 209h71l-211 -223q24 -9 45.5 -33t41.5 -68l74 -161h-62l-68 149q-21 46 -45.5 61.5t-61.5 15.5l-19 -122h-48l20 122h-57l-36 -226h-61z" />
    <glyph glyph-name="uni049E" unicode="&#x49e;" horiz-adv-x="653" 
d="M89 0l87 544h-140l7 51h140l18 110h62l-18 -110h135l-7 -51h-136l-25 -160h123l265 321h73l-275 -331q87 -29 121 -132l82 -242h-64l-68 208q-21 66 -57.5 94t-93.5 28h-114l-53 -330h-62z" />
    <glyph glyph-name="uni049F" unicode="&#x49f;" horiz-adv-x="512" 
d="M46 0l88 558h-93l8 48h94l15 99h61l-15 -99h195l-8 -48h-196l-44 -282h97l201 209h71l-211 -223q24 -9 45.5 -33t41.5 -68l73 -161h-62l-68 149q-20 46 -45.5 61.5t-65.5 15.5h-85l-36 -226h-61z" />
    <glyph glyph-name="uni04A0" unicode="&#x4a0;" horiz-adv-x="754" 
d="M182 0l104 651h-218l8 54h280l-51 -321h131l266 321h73l-276 -331q88 -29 122 -132l81 -242h-63l-68 208q-21 66 -57.5 94t-93.5 28h-124l-52 -330h-62z" />
    <glyph glyph-name="uni04A1" unicode="&#x4a1;" horiz-adv-x="587" 
d="M123 0l69 434h-158l8 51h219l-33 -209h97l200 209h71l-211 -223q24 -9 45 -33t42 -68l73 -161h-62l-68 149q-21 46 -45.5 61.5t-64.5 15.5h-85l-36 -226h-61z" />
    <glyph glyph-name="uni04A2" unicode="&#x4a2;" horiz-adv-x="793" 
d="M53 0l112 705h62l-51 -320h449l51 320h61l-103 -651h100l-33 -207h-57l24 153h-104l52 330h-448l-53 -330h-62z" />
    <glyph glyph-name="uni04A3" unicode="&#x4a3;" horiz-adv-x="599" 
d="M453 -130l21 130h-81l36 225h-286l-36 -225h-61l77 485h61l-33 -209h286l33 209h61l-69 -435h74l-29 -180h-54z" />
    <glyph glyph-name="uni04A4" unicode="&#x4a4;" horiz-adv-x="930" 
d="M53 0l112 705h62l-51 -320h449l51 320h324l-8 -55h-263l-104 -650h-61l52 330h-448l-53 -330h-62z" />
    <glyph glyph-name="uni04A5" unicode="&#x4a5;" horiz-adv-x="735" 
d="M46 0l77 485h61l-33 -209h286l33 209h290l-8 -51h-229l-69 -434h-61l36 225h-286l-36 -225h-61z" />
    <glyph glyph-name="uni04A8" unicode="&#x4a8;" horiz-adv-x="794" 
d="M364 -8q-84 0 -148 34t-100.5 100t-36.5 162q0 128 44 223.5t125 148.5t190 53q19 0 43.5 -3t37.5 -8l-13 -54q-16 5 -35.5 7t-35.5 2q-89 0 -154.5 -44.5t-101 -127.5t-35.5 -196q0 -123 62.5 -183t164.5 -60q40 0 77 10q-45 37 -71 92.5t-26 121.5q0 77 26 142t75 104
t119 39q74 0 116.5 -46.5t42.5 -126.5q0 -102 -44 -188.5t-120 -139.5q32 -8 68 -8q71 0 130 29l13 -51q-28 -16 -63 -24t-81 -8q-70 0 -129 28q-32 -14 -67 -21t-73 -7zM413 272q0 -67 25 -116.5t70 -77.5q77 41 119 122t42 178q0 58 -26 90t-75 32q-51 0 -85.5 -32.5
t-52 -84.5t-17.5 -111z" />
    <glyph glyph-name="uni04A9" unicode="&#x4a9;" horiz-adv-x="615" 
d="M261 -8q-99 0 -154 57t-55 154q0 55 15.5 107t46.5 93.5t78 66t110 24.5q30 0 61 -8.5t47 -19.5l-18 -47q-33 23 -91 23q-64 0 -105.5 -34t-62 -88.5t-20.5 -114.5q0 -78 40.5 -121t117.5 -43q30 0 57 6q-30 28 -47.5 66t-17.5 81q0 80 43.5 129t116.5 49q55 0 88 -37
t33 -92q0 -61 -29.5 -112.5t-79.5 -85.5q21 -4 43 -4q30 0 54 6t48 18l14 -47q-54 -26 -120 -26q-52 0 -97 22q-55 -22 -116 -22zM318 191q0 -40 16.5 -73t47.5 -52q50 24 78.5 70.5t28.5 105.5q0 37 -19.5 59t-51.5 22q-48 0 -74 -37.5t-26 -94.5z" />
    <glyph glyph-name="uni04AA" unicode="&#x4aa;" horiz-adv-x="670" 
d="M282 -153l23 150q-102 19 -163.5 94.5t-61.5 214.5q0 87 25 161t71.5 129.5t112.5 86t149 30.5q73 0 132 -24.5t98 -67.5l-31 -50q-41 43 -89.5 64t-112.5 21q-90 0 -154.5 -45.5t-99.5 -124t-35 -180.5q0 -138 63 -197.5t171 -59.5q58 0 105.5 20t96.5 64l27 -50
q-95 -91 -233 -91h-14l-23 -145h-57z" />
    <glyph glyph-name="uni04AB" unicode="&#x4ab;" horiz-adv-x="467" 
d="M194 -130l19 125q-82 12 -121.5 69t-39.5 141q0 53 15 104.5t45.5 93t78 66.5t114.5 25q48 0 91 -17t69 -45l-25 -45q-53 54 -135 54q-51 0 -87 -20t-59 -54.5t-33.5 -76.5t-10.5 -85q0 -73 34.5 -117t113.5 -44q31 0 66.5 13t64.5 40l22 -47q-28 -26 -68.5 -41.5
t-81.5 -16.5l-19 -122h-53z" />
    <glyph glyph-name="uni04AC" unicode="&#x4ac;" horiz-adv-x="573" 
d="M298 -153l24 153h-104l102 650h-252l8 55h567l-9 -55h-252l-94 -596h100l-33 -207h-57z" />
    <glyph glyph-name="uni04AD" unicode="&#x4ad;" horiz-adv-x="431" 
d="M206 -130l21 130h-81l69 434h-181l8 51h423l-8 -51h-181l-61 -384h73l-29 -180h-53z" />
    <glyph glyph-name="uni04AE" unicode="&#x4ae;" horiz-adv-x="586" 
d="M223 0l53 337l-210 368h67l179 -313l279 313h75l-328 -367l-53 -338h-62z" />
    <glyph glyph-name="uni04AF" unicode="&#x4af;" horiz-adv-x="514" 
d="M159 -180l28 178l-130 487h64l105 -418l240 418h68l-285 -486l-29 -179h-61z" />
    <glyph glyph-name="uni04B0" unicode="&#x4b0;" horiz-adv-x="586" 
d="M223 0l53 337l-210 368h67l179 -313l279 313h75l-328 -367l-53 -338h-62zM106 298l7 48h391l-7 -48h-391z" />
    <glyph glyph-name="uni04B1" unicode="&#x4b1;" horiz-adv-x="514" 
d="M159 -180l23 139h-120l8 51h115l-128 475h64l105 -418l240 418h68l-279 -475h116l-9 -51h-119l-23 -139h-61z" />
    <glyph glyph-name="uni04B2" unicode="&#x4b2;" horiz-adv-x="665" 
d="M-21 0l325 364l-198 341h67l172 -299l262 299h77l-307 -347l177 -304h74l-32 -207h-57l23 153h-45l-182 316l-279 -316h-77z" />
    <glyph glyph-name="uni04B3" unicode="&#x4b3;" horiz-adv-x="535" 
d="M-13 0l240 251l-151 234h68l125 -195l181 195h75l-225 -238l127 -197h62l-28 -180h-53l20 130h-37l-132 207l-197 -207h-75z" />
    <glyph glyph-name="uni04B4" unicode="&#x4b4;" horiz-adv-x="911" 
d="M768 -153l24 153h-611l104 650h-217l8 55h491l-9 -55h-212l-94 -595h444l103 650h62l-103 -650h100l-33 -208h-57z" />
    <glyph glyph-name="uni04B5" unicode="&#x4b5;" horiz-adv-x="673" 
d="M529 -130l20 130h-427l68 434h-156l8 51h370l-8 -51h-153l-60 -384h284l69 435h61l-69 -435h75l-28 -180h-54z" />
    <glyph glyph-name="uni04B6" unicode="&#x4b6;" horiz-adv-x="703" 
d="M553 -153l25 153h-104l48 308q-37 -19 -87 -29t-99 -10q-130 0 -189 73t-37 214l23 149h62l-23 -144q-20 -121 22.5 -178t147.5 -57q48 0 97.5 9.5t93.5 33.5l53 336h62l-104 -651h100l-34 -207h-57z" />
    <glyph glyph-name="uni04B7" unicode="&#x4b7;" horiz-adv-x="564" 
d="M358 0l33 206q-32 -19 -65 -28.5t-72 -9.5q-98 0 -142.5 49.5t-29.5 146.5l19 121h61l-18 -118q-13 -76 16 -111t102 -35q40 0 72 9t65 30l36 225h61l-70 -435h75l-29 -180h-53l21 130h-82z" />
    <glyph glyph-name="uni04B8" unicode="&#x4b8;" horiz-adv-x="666" 
d="M474 0l48 308q-33 -17 -78 -27t-91 -11l-25 -157h-49l26 157q-115 9 -165.5 81.5t-29.5 204.5l23 149h62l-23 -144q-19 -113 16.5 -169.5t125.5 -64.5l28 176h48l-27 -177q43 2 87 12t83 31l53 336h62l-112 -705h-62z" />
    <glyph glyph-name="uni04B9" unicode="&#x4b9;" horiz-adv-x="549" 
d="M365 0l33 206q-54 -32 -117 -37l-16 -101h-47l16 101q-180 13 -152 195l19 121h61l-19 -119q-11 -71 13.5 -105t85.5 -39l20 126h48l-20 -127q32 2 60 11t57 27l35 226h61l-77 -485h-61z" />
    <glyph glyph-name="uni04BA" unicode="&#x4ba;" horiz-adv-x="666" 
d="M53 0l112 705h62l-49 -308q37 19 87.5 29t99.5 10q131 0 189.5 -73t36.5 -214l-23 -149h-62l24 144q20 121 -22.5 178t-147.5 57q-49 0 -98.5 -9.5t-93.5 -33.5l-53 -336h-62z" />
    <glyph glyph-name="uni04BB" unicode="&#x4bb;" horiz-adv-x="568" 
d="M46 0l112 705h61l-48 -303q28 44 72.5 68t103.5 24q81 0 122 -49t25 -150l-47 -295h-61l47 295q23 146 -98 146q-80 0 -126.5 -48.5t-59.5 -128.5l-42 -264h-61z" />
    <glyph glyph-name="uni04BC" unicode="&#x4bc;" horiz-adv-x="905" 
d="M524 -8q-93 0 -162 42t-105 116.5t-31 171.5h-11q-83 0 -124 40.5t-28 121.5l9 58h61l-9 -55q-9 -59 14 -85t78 -26h15q13 101 58 177t119 118t174 42q82 0 139.5 -29.5t91.5 -81t45.5 -116.5t0.5 -135l-4 -29h-563q-6 -82 21.5 -143.5t83.5 -96t136 -34.5q79 0 135 20.5
t108 58.5l26 -51q-53 -42 -124.5 -63t-153.5 -21zM576 658q-80 0 -138.5 -36.5t-93.5 -100t-47 -145.5h503q7 79 -13 143t-71.5 101.5t-139.5 37.5z" />
    <glyph glyph-name="uni04BD" unicode="&#x4bd;" horiz-adv-x="613" 
d="M374 -8q-109 0 -167.5 64.5t-48.5 174.5h-10q-64 0 -93 32t-19 90l6 36h53l-6 -38q-5 -35 9 -56t55 -21h11q12 62 44.5 111.5t84 79t118.5 29.5q75 0 118 -35.5t58 -91t6 -117.5l-3 -20h-372q-10 -84 32 -135.5t125 -51.5q47 0 86.5 14t73.5 45l24 -43q-33 -33 -83.5 -50
t-101.5 -17zM410 445q-57 0 -95.5 -25t-60 -64t-30.5 -81h319q4 47 -7.5 85.5t-42 61.5t-83.5 23z" />
    <glyph glyph-name="uni04BE" unicode="&#x4be;" horiz-adv-x="905" 
d="M524 -8q-93 0 -162 42t-105 116.5t-31 171.5h-11q-83 0 -124 40.5t-28 121.5l9 58h61l-9 -55q-9 -59 14 -85t78 -26h15q13 101 58 177t119 118t174 42q82 0 139.5 -29.5t91.5 -81t45.5 -116.5t0.5 -135l-4 -29h-563q-6 -82 21.5 -143.5t83.5 -96t136 -34.5q79 0 135 20.5
t108 58.5l26 -51q-53 -42 -124.5 -63t-153.5 -21zM576 658q-80 0 -138.5 -36.5t-93.5 -100t-47 -145.5h503q7 79 -13 143t-71.5 101.5t-139.5 37.5zM525 -191q-45 0 -69 24.5t-24 63.5q0 46 29 81.5t75 55.5l21 -34q-39 -16 -58 -41.5t-19 -53.5q0 -24 13.5 -38.5
t40.5 -14.5q25 0 54 12l10 -40q-13 -6 -32.5 -10.5t-40.5 -4.5z" />
    <glyph glyph-name="uni04BF" unicode="&#x4bf;" horiz-adv-x="613" 
d="M374 -8q-109 0 -167.5 64.5t-48.5 174.5h-10q-64 0 -93 32t-19 90l6 36h53l-6 -38q-5 -35 9 -56t55 -21h11q12 62 44.5 111.5t84 79t118.5 29.5q75 0 118 -35.5t58 -91t6 -117.5l-3 -20h-372q-10 -84 32 -135.5t125 -51.5q47 0 86.5 14t73.5 45l24 -43q-33 -33 -83.5 -50
t-101.5 -17zM410 445q-57 0 -95.5 -25t-60 -64t-30.5 -81h319q4 47 -7.5 85.5t-42 61.5t-83.5 23zM388 -191q-45 0 -69 24.5t-24 63.5q0 46 29 81.5t75 55.5l21 -34q-39 -16 -58 -41.5t-19 -53.5q0 -24 13.5 -38.5t40.5 -14.5q25 0 54 12l10 -40q-13 -6 -32.5 -10.5
t-40.5 -4.5z" />
    <glyph glyph-name="uni04C0" unicode="&#x4c0;" horiz-adv-x="245" 
d="M53 0l112 705h62l-112 -705h-62z" />
    <glyph glyph-name="uni04C1" unicode="&#x4c1;" horiz-adv-x="948" 
d="M-24 0l154 242q35 55 76.5 89t90.5 46l-169 328h64l165 -321h109l51 321h60l-51 -321h104l266 321h73l-277 -331q88 -28 122 -132l82 -242h-63l-69 208q-21 66 -57 94t-94 28h-95l-53 -330h-60l52 330h-94q-58 0 -102 -28.5t-85 -93.5l-132 -208h-68zM551 760
q-58 0 -107.5 30t-67.5 98l41 15q17 -51 50.5 -75t84.5 -24q53 0 89.5 21.5t72.5 76.5l37 -14q-37 -73 -90 -100.5t-110 -27.5z" />
    <glyph glyph-name="uni04C2" unicode="&#x4c2;" horiz-adv-x="766" 
d="M-34 0l123 162q40 51 66 73t53 30l-139 220h65l134 -209h89l34 209h61l-34 -209h85l200 209h71l-211 -223q30 -11 49.5 -36.5t37.5 -64.5l74 -161h-63l-67 149q-21 46 -46 61.5t-66 15.5h-72l-35 -226h-61l35 226h-66q-30 0 -51.5 -6.5t-40.5 -23.5t-43 -47l-114 -149
h-68zM434 548q-52 0 -97 30t-61 97l40 16q14 -51 44.5 -75.5t75.5 -24.5q46 0 77 22t61 77l39 -15q-32 -72 -79.5 -99.5t-99.5 -27.5z" />
    <glyph glyph-name="uni04C3" unicode="&#x4c3;" horiz-adv-x="655" 
d="M340 -188q-34 0 -66 5.5t-44 15.5l13 50q37 -18 92 -18q138 0 167 180l9 49q20 125 -27.5 181t-163.5 56h-152l-53 -331h-62l112 705h62l-51 -319h136l265 319h72l-269 -323q112 -12 163 -81.5t29 -200.5l-9 -54q-20 -115 -74.5 -174.5t-148.5 -59.5z" />
    <glyph glyph-name="uni04C4" unicode="&#x4c4;" horiz-adv-x="527" 
d="M238 -185l-16 49q57 13 89.5 36t49 59t24.5 86l5 28q12 79 -19.5 116t-112.5 37h-115l-36 -226h-61l77 485h61l-33 -209h96l201 209h71l-204 -215q72 -10 111 -56.5t25 -135.5l-5 -30q-10 -63 -31 -109.5t-63 -77.5t-114 -46z" />
    <glyph glyph-name="uni04C5" unicode="&#x4c5;" horiz-adv-x="749" 
d="M557 -153l76 153h-90l104 650h-334l-30 -190q-19 -116 -43.5 -196t-57.5 -133t-75.5 -87.5t-96.5 -57.5l-23 52q40 19 75.5 45.5t66 72t55.5 122.5t44 197l36 230h453l-104 -651h102l-102 -207h-56z" />
    <glyph glyph-name="uni04C6" unicode="&#x4c6;" horiz-adv-x="586" 
d="M9 -10l-17 50q50 19 82 55.5t53 102.5t39 175l17 112h335l-69 -435h78l-92 -180h-54l66 130h-67l69 435h-216l-10 -65q-14 -95 -32 -160.5t-42 -108t-58.5 -69t-81.5 -42.5z" />
    <glyph glyph-name="uni04C7" unicode="&#x4c7;" horiz-adv-x="756" 
d="M404 -193l-3 50l42 4q100 7 118 120l55 349h-448l-53 -330h-62l112 705h62l-51 -320h449l51 320h61l-114 -723q-13 -83 -57 -125t-118 -47z" />
    <glyph glyph-name="uni04C8" unicode="&#x4c8;" horiz-adv-x="577" 
d="M234 -193l-4 50l43 4q99 7 118 120l38 244h-286l-36 -225h-61l77 485h61l-33 -209h286l33 209h61l-80 -503q-13 -83 -57 -125t-117 -47z" />
    <glyph glyph-name="uni04C9" unicode="&#x4c9;" horiz-adv-x="769" 
d="M53 0l112 705h62l-51 -320h449l51 320h61l-103 -651h101l-102 -207h-56l76 153h-89l52 330h-448l-53 -330h-62z" />
    <glyph glyph-name="uni04CA" unicode="&#x4ca;" horiz-adv-x="599" 
d="M46 0l77 485h61l-33 -209h286l33 209h61l-69 -435h78l-92 -180h-54l67 130h-68l36 225h-286l-36 -225h-61z" />
    <glyph glyph-name="uni04CB" unicode="&#x4cb;" horiz-adv-x="670" 
d="M411 -153h-59l33 207h97l40 254q-37 -19 -87 -29t-99 -10q-130 0 -189 73t-37 214l23 149h62l-23 -144q-20 -121 22.5 -178t147.5 -57q48 0 97.5 9.5t93.5 33.5l53 336h62l-112 -705h-101z" />
    <glyph glyph-name="uni04CC" unicode="&#x4cc;" horiz-adv-x="558" 
d="M318 -130h-54l27 173h74l26 163q-32 -19 -65 -28.5t-72 -9.5q-98 0 -142.5 49.5t-29.5 146.5l19 121h61l-18 -118q-13 -76 16 -111t102 -35q40 0 72 9t65 30l36 225h61l-77 -485h-81z" />
    <glyph glyph-name="uni04CD" unicode="&#x4cd;" horiz-adv-x="863" 
d="M672 -153l76 153h-87l92 585l-326 -476h-44l-177 483l-94 -592h-57l112 705h52l193 -532l365 532h53l-104 -651h104l-102 -207h-56z" />
    <glyph glyph-name="uni04CE" unicode="&#x4ce;" horiz-adv-x="670" 
d="M46 0l77 485h49l135 -342l242 342h52l-69 -435h83l-92 -180h-54l66 130h-65l59 373l-212 -295h-34l-122 302l-60 -380h-55z" />
    <glyph glyph-name="uni04CF" unicode="&#x4cf;" horiz-adv-x="229" 
d="M45 0l112 705h61l-112 -705h-61z" />
    <glyph glyph-name="uni04D0" unicode="&#x4d0;" horiz-adv-x="722" 
d="M-11 0l419 705h55l194 -705h-60l-51 188h-378l-110 -188h-69zM426 629l-226 -388h331l-103 388h-2zM441 760q-58 0 -107.5 30t-67.5 98l41 15q17 -51 50.5 -75t84.5 -24q53 0 89.5 21.5t72.5 76.5l37 -14q-37 -73 -90 -100.5t-110 -27.5z" />
    <glyph glyph-name="uni04D1" unicode="&#x4d1;" horiz-adv-x="529" 
d="M206 -8q-41 0 -77 18t-58.5 50.5t-22.5 75.5q0 76 65.5 109t209.5 33h71l5 35q11 63 -15 96t-92 33q-90 0 -165 -52l-20 47q35 26 86.5 41.5t103.5 15.5q94 0 134 -53.5t25 -144.5l-47 -296h-58l12 78q-26 -44 -69 -65t-88 -21zM217 41q58 0 104.5 39.5t58.5 110.5l6 42
h-49q-85 0 -134 -8.5t-69.5 -29.5t-20.5 -56q0 -49 31.5 -73.5t72.5 -24.5zM319 548q-52 0 -97 30t-61 97l40 16q14 -51 44.5 -75.5t75.5 -24.5q46 0 77 22t61 77l39 -15q-32 -72 -79.5 -99.5t-99.5 -27.5z" />
    <glyph glyph-name="uni04D2" unicode="&#x4d2;" horiz-adv-x="722" 
d="M-11 0l419 705h55l194 -705h-60l-51 188h-378l-110 -188h-69zM426 629l-226 -388h331l-103 388h-2zM501 813l12 73h73l-12 -73h-73zM334 813l12 73h73l-12 -73h-73z" />
    <glyph glyph-name="uni04D3" unicode="&#x4d3;" horiz-adv-x="529" 
d="M206 -8q-41 0 -77 18t-58.5 50.5t-22.5 75.5q0 76 65.5 109t209.5 33h71l5 35q11 63 -15 96t-92 33q-90 0 -165 -52l-20 47q35 26 86.5 41.5t103.5 15.5q94 0 134 -53.5t25 -144.5l-47 -296h-58l12 78q-26 -44 -69 -65t-88 -21zM217 41q58 0 104.5 39.5t58.5 110.5l6 42
h-49q-85 0 -134 -8.5t-69.5 -29.5t-20.5 -56q0 -49 31.5 -73.5t72.5 -24.5zM374 615l11 72h74l-12 -72h-73zM207 615l11 72h73l-11 -72h-73z" />
    <glyph glyph-name="uni04D4" unicode="&#x4d4;" horiz-adv-x="976" 
d="M-46 0l536 705h509l-8 -53h-438l14 -268h361l-8 -53h-350l14 -278h313l-9 -53h-357l-9 188h-356l-142 -188h-70zM496 628l-290 -387h313l-21 387h-2z" />
    <glyph glyph-name="uni04D5" unicode="&#x4d5;" horiz-adv-x="867" 
d="M211 -8q-42 0 -79 17t-60.5 49.5t-23.5 77.5q0 76 65.5 109t209.5 33h74l4 27q22 137 -109 137q-46 0 -86 -13t-78 -40l-21 48q35 26 86.5 41.5t103.5 15.5q122 0 152 -94q32 43 79.5 68.5t109.5 25.5q75 0 118 -35t58.5 -90t5.5 -116l-3 -20h-372q-10 -86 31.5 -138
t125.5 -52q47 0 86.5 14t73.5 45l24 -43q-33 -33 -83.5 -50t-101.5 -17q-74 0 -125 31t-72 87q-29 -61 -80.5 -89.5t-112.5 -28.5zM637 445q-56 0 -94 -24.5t-60 -63t-31 -79.5h317q5 46 -7 84t-42.5 60.5t-82.5 22.5zM217 41q58 0 105.5 35.5t59.5 106.5l8 50h-53
q-85 0 -134 -9t-69.5 -29.5t-20.5 -55.5q0 -48 31.5 -73t72.5 -25z" />
    <glyph glyph-name="uni04D6" unicode="&#x4d6;" horiz-adv-x="576" 
d="M54 0l111 705h435l-9 -53h-373l-43 -268h354l-9 -53h-354l-44 -278h374l-8 -53h-434zM401 760q-58 0 -107.5 30t-67.5 98l41 15q17 -51 50.5 -75t84.5 -24q53 0 89.5 21.5t72.5 76.5l37 -14q-37 -73 -90 -100.5t-110 -27.5z" />
    <glyph glyph-name="uni04D7" unicode="&#x4d7;" horiz-adv-x="535" 
d="M269 -8q-101 0 -159 56t-58 155q0 78 30.5 144t87 106.5t136.5 40.5q75 0 118 -35.5t58.5 -91t5.5 -117.5l-3 -20h-372q-10 -84 32 -135.5t125 -51.5q47 0 87 14t73 45l25 -43q-33 -33 -84 -50t-102 -17zM305 445q-57 0 -95 -25t-60 -64t-30 -81h318q5 47 -7 85.5
t-42.5 61.5t-83.5 23zM328 548q-52 0 -97 30t-61 97l40 16q14 -51 44.5 -75.5t75.5 -24.5q46 0 77 22t61 77l39 -15q-32 -72 -79.5 -99.5t-99.5 -27.5z" />
    <glyph glyph-name="uni04D8" unicode="&#x4d8;" horiz-adv-x="759" 
d="M357 -8q-81 0 -138.5 29.5t-91.5 81t-45.5 116.5t-0.5 135l4 29h563q1 15 1 30q0 74 -29.5 128.5t-84.5 85t-131 30.5q-81 0 -138.5 -20.5t-110.5 -64.5l-24 50q52 47 123 69t160 22t157 -38.5t105.5 -106.5t37.5 -156q0 -123 -41.5 -218t-121.5 -148.5t-194 -53.5z
M363 47q81 0 139.5 36.5t93.5 100t47 145.5h-502q-7 -79 12.5 -143t71 -101.5t138.5 -37.5z" />
    <glyph glyph-name="uni04D9" unicode="&#x4d9;" horiz-adv-x="535" 
d="M229 -8q-74 0 -117.5 35t-59 90.5t-5.5 117.5l3 20h373q9 85 -32.5 136t-124.5 51q-47 0 -87 -14t-74 -45l-24 43q33 34 84 51t102 17q101 0 159 -56.5t58 -154.5q0 -79 -30.5 -145t-87.5 -106t-137 -40zM231 40q57 0 95 25t59.5 64t30.5 81h-317q-4 -47 7.5 -85.5
t42 -61.5t82.5 -23z" />
    <glyph glyph-name="uni04DA" unicode="&#x4da;" horiz-adv-x="759" 
d="M357 -8q-81 0 -138.5 29.5t-91.5 81t-45.5 116.5t-0.5 135l4 29h563q1 15 1 30q0 74 -29.5 128.5t-84.5 85t-131 30.5q-81 0 -138.5 -20.5t-110.5 -64.5l-24 50q52 47 123 69t160 22t157 -38.5t105.5 -106.5t37.5 -156q0 -123 -41.5 -218t-121.5 -148.5t-194 -53.5z
M363 47q81 0 139.5 36.5t93.5 100t47 145.5h-502q-7 -79 12.5 -143t71 -101.5t138.5 -37.5zM473 813l12 73h73l-12 -73h-73zM306 813l12 73h73l-12 -73h-73z" />
    <glyph glyph-name="uni04DB" unicode="&#x4db;" horiz-adv-x="535" 
d="M229 -8q-74 0 -117.5 35t-59 90.5t-5.5 117.5l3 20h373q9 85 -32.5 136t-124.5 51q-47 0 -87 -14t-74 -45l-24 43q33 34 84 51t102 17q101 0 159 -56.5t58 -154.5q0 -79 -30.5 -145t-87.5 -106t-137 -40zM231 40q57 0 95 25t59.5 64t30.5 81h-317q-4 -47 7.5 -85.5
t42 -61.5t82.5 -23zM353 615l11 72h74l-12 -72h-73zM186 615l11 72h73l-11 -72h-73z" />
    <glyph glyph-name="uni04DC" unicode="&#x4dc;" horiz-adv-x="948" 
d="M-24 0l154 242q35 55 76.5 89t90.5 46l-169 328h64l165 -321h109l51 321h60l-51 -321h104l266 321h73l-277 -331q88 -28 122 -132l82 -242h-63l-69 208q-21 66 -57 94t-94 28h-95l-53 -330h-60l52 330h-94q-58 0 -102 -28.5t-85 -93.5l-132 -208h-68zM611 813l12 73h73
l-12 -73h-73zM444 813l12 73h73l-12 -73h-73z" />
    <glyph glyph-name="uni04DD" unicode="&#x4dd;" horiz-adv-x="766" 
d="M-34 0l123 162q40 51 66 73t53 30l-139 220h65l134 -209h89l34 209h61l-34 -209h85l200 209h71l-211 -223q30 -11 49.5 -36.5t37.5 -64.5l74 -161h-63l-67 149q-21 46 -46 61.5t-66 15.5h-72l-35 -226h-61l35 226h-66q-30 0 -51.5 -6.5t-40.5 -23.5t-43 -47l-114 -149
h-68zM489 615l11 72h74l-12 -72h-73zM322 615l11 72h73l-11 -72h-73z" />
    <glyph glyph-name="uni04DE" unicode="&#x4de;" horiz-adv-x="642" 
d="M303 -8q-88 0 -154 21.5t-124 70.5l29 48q57 -49 117.5 -66.5t135.5 -17.5q53 0 98 15t72.5 49.5t27.5 94.5q0 61 -39.5 92t-113.5 31h-171l8 53h171q83 0 132 39.5t49 114.5q0 43 -22 69t-59.5 38.5t-83.5 12.5q-64 0 -127 -20.5t-114 -62.5l-25 49q55 45 127 67.5
t142 22.5q63 0 114 -18.5t81 -56.5t30 -94q0 -73 -39.5 -121.5t-106.5 -66.5q51 -16 80.5 -56t29.5 -96q0 -75 -35.5 -122t-95.5 -68.5t-134 -21.5zM454 813l12 73h73l-12 -73h-73zM287 813l12 73h73l-12 -73h-73z" />
    <glyph glyph-name="uni04DF" unicode="&#x4df;" horiz-adv-x="487" 
d="M198 -8q-61 0 -111.5 17t-77.5 48l26 45q29 -31 72 -45.5t94 -14.5q73 0 115.5 23t42.5 80q0 34 -25 55.5t-73 21.5h-108l8 48h99q51 0 84.5 26.5t33.5 72.5q0 34 -29 54t-86 20q-49 0 -93.5 -13.5t-88.5 -43.5l-21 47q91 61 210 61q80 0 123.5 -32.5t43.5 -84.5
q0 -51 -27.5 -83.5t-70.5 -45.5q38 -10 59.5 -38t21.5 -65q0 -81 -61 -117t-161 -36zM326 615l11 72h74l-12 -72h-73zM159 615l11 72h73l-11 -72h-73z" />
    <glyph glyph-name="uni04E0" unicode="&#x4e0;" horiz-adv-x="642" 
d="M304 -8q-89 0 -155 21.5t-123 70.5l28 48q57 -49 117.5 -66.5t135.5 -17.5q54 0 99 15t72.5 49.5t27.5 94.5q0 61 -41 92t-128 31h-118l8 46l298 275h-407l8 54h495l-7 -44l-302 -278h39q78 0 125.5 -23.5t69.5 -63t22 -88.5q0 -76 -35.5 -123.5t-95 -70t-133.5 -22.5z
" />
    <glyph glyph-name="uni04E1" unicode="&#x4e1;" horiz-adv-x="485" 
d="M181 -188q-59 0 -115 17t-103 54l28 43q44 -34 88.5 -48.5t99.5 -14.5q86 0 130 46.5t44 126.5q0 53 -35.5 88t-102.5 35h-104l5 32l253 243h-306l8 51h385l-8 -42l-246 -236h30q59 0 99.5 -23t62 -62t21.5 -86q0 -66 -28 -117t-80.5 -79t-125.5 -28z" />
    <glyph glyph-name="uni04E2" unicode="&#x4e2;" horiz-adv-x="736" 
d="M53 0l112 705h58l-95 -596l540 596h49l-112 -705h-57l94 598l-541 -598h-48zM299 818l8 47h318l-8 -47h-318z" />
    <glyph glyph-name="uni04E3" unicode="&#x4e3;" horiz-adv-x="575" 
d="M46 0l77 485h56l-63 -395l360 395h53l-77 -485h-56l63 395l-360 -395h-53zM203 629l8 46h288l-8 -46h-288z" />
    <glyph glyph-name="uni04E4" unicode="&#x4e4;" horiz-adv-x="736" 
d="M53 0l112 705h58l-95 -596l540 596h49l-112 -705h-57l94 598l-541 -598h-48zM504 813l12 73h73l-12 -73h-73zM337 813l12 73h73l-12 -73h-73z" />
    <glyph glyph-name="uni04E5" unicode="&#x4e5;" horiz-adv-x="575" 
d="M46 0l77 485h56l-63 -395l360 395h53l-77 -485h-56l63 395l-360 -395h-53zM392 615l11 72h74l-12 -72h-73zM225 615l11 72h73l-11 -72h-73z" />
    <glyph glyph-name="uni04E6" unicode="&#x4e6;" horiz-adv-x="759" 
d="M362 -8q-129 0 -206 77t-77 222q0 90 23 166.5t67.5 134t110.5 89.5t151 32q130 0 207 -77t77 -222q0 -89 -23 -166t-68 -134.5t-110.5 -89.5t-151.5 -32zM364 48q93 0 156.5 48t96 131t32.5 186q0 124 -58.5 184t-162.5 60q-91 0 -154.5 -48t-96 -130.5t-32.5 -186.5
q0 -124 58.5 -184t160.5 -60zM507 813l12 73h73l-12 -73h-73zM340 813l12 73h73l-12 -73h-73z" />
    <glyph glyph-name="uni04E7" unicode="&#x4e7;" horiz-adv-x="555" 
d="M254 -8q-94 0 -148 56t-54 155q0 79 29.5 145t85.5 106t134 40q93 0 147.5 -56.5t54.5 -154.5q0 -80 -30 -146t-85.5 -105.5t-133.5 -39.5zM256 43q60 0 101 33t62.5 88t21.5 121q0 77 -38 117t-105 40q-59 0 -100.5 -33t-62.5 -88t-21 -121q0 -77 37.5 -117t104.5 -40z
M386 615l11 72h74l-12 -72h-73zM219 615l11 72h73l-11 -72h-73z" />
    <glyph glyph-name="uni04E8" unicode="&#x4e8;" horiz-adv-x="759" 
d="M362 -8q-129 0 -206 77t-77 222q0 90 23 166.5t67.5 134t110.5 89.5t151 32q130 0 207 -77t77 -222q0 -89 -23 -166t-68 -134.5t-110.5 -89.5t-151.5 -32zM428 657q-77 0 -134.5 -35t-93.5 -96.5t-48 -141.5h496q1 14 1 29q0 124 -58.5 184t-162.5 60zM364 48
q80 0 138.5 36.5t94 100.5t47.5 147h-498q-1 -19 -1 -40q0 -124 58.5 -184t160.5 -60z" />
    <glyph glyph-name="uni04E9" unicode="&#x4e9;" horiz-adv-x="555" 
d="M254 -8q-94 0 -148 56t-54 155q0 79 29.5 145t85.5 106t134 40q93 0 147.5 -56.5t54.5 -154.5q0 -80 -30 -146t-85.5 -105.5t-133.5 -39.5zM298 443q-75 0 -121.5 -50t-59.5 -127h326v20q0 77 -38 117t-107 40zM257 42q75 0 121 50.5t60 127.5h-327v-20q0 -78 38.5 -118
t107.5 -40z" />
    <glyph glyph-name="uni04EA" unicode="&#x4ea;" horiz-adv-x="759" 
d="M362 -8q-129 0 -206 77t-77 222q0 90 23 166.5t67.5 134t110.5 89.5t151 32q130 0 207 -77t77 -222q0 -89 -23 -166t-68 -134.5t-110.5 -89.5t-151.5 -32zM428 657q-77 0 -134.5 -35t-93.5 -96.5t-48 -141.5h496q1 14 1 29q0 124 -58.5 184t-162.5 60zM364 48
q80 0 138.5 36.5t94 100.5t47.5 147h-498q-1 -19 -1 -40q0 -124 58.5 -184t160.5 -60zM507 813l12 73h73l-12 -73h-73zM340 813l12 73h73l-12 -73h-73z" />
    <glyph glyph-name="uni04EB" unicode="&#x4eb;" horiz-adv-x="555" 
d="M254 -8q-94 0 -148 56t-54 155q0 79 29.5 145t85.5 106t134 40q93 0 147.5 -56.5t54.5 -154.5q0 -80 -30 -146t-85.5 -105.5t-133.5 -39.5zM298 443q-75 0 -121.5 -50t-59.5 -127h326v20q0 77 -38 117t-107 40zM257 42q75 0 121 50.5t60 127.5h-327v-20q0 -78 38.5 -118
t107.5 -40zM386 615l11 72h74l-12 -72h-73zM219 615l11 72h73l-11 -72h-73z" />
    <glyph glyph-name="uni04EC" unicode="&#x4ec;" horiz-adv-x="670" 
d="M267 -8q-73 0 -132.5 24.5t-97.5 67.5l31 50q41 -43 89.5 -64t112.5 -21q79 0 139.5 36t97.5 99.5t48 146.5h-370l8 54h365q2 82 -19.5 143t-72 94.5t-136.5 33.5q-58 0 -108.5 -20t-99.5 -64l-27 50q48 45 109.5 68t129.5 23q88 0 153 -33.5t101 -103t36 -177.5
q0 -87 -24.5 -161t-71 -129.5t-112.5 -86t-149 -30.5zM432 813l12 73h73l-12 -73h-73zM265 813l12 73h73l-12 -73h-73z" />
    <glyph glyph-name="uni04ED" unicode="&#x4ed;" horiz-adv-x="480" 
d="M173 -8q-52 0 -96.5 17t-69.5 45l25 43q54 -55 143 -55q58 0 97 25.5t61.5 67t29.5 89.5h-253l7 48h251q2 76 -32.5 123.5t-118.5 47.5q-36 0 -72.5 -13t-67.5 -41l-21 45q29 28 74 44t90 16q106 0 157 -59.5t51 -153.5q0 -53 -15 -104.5t-46 -93.5t-79 -66.5t-115 -24.5
zM312 615l11 72h74l-12 -72h-73zM145 615l11 72h73l-11 -72h-73z" />
    <glyph glyph-name="uni04EE" unicode="&#x4ee;" horiz-adv-x="635" 
d="M164 0l143 214l-229 491h63l204 -436l294 436h68l-474 -705h-69zM240 818l8 47h318l-8 -47h-318z" />
    <glyph glyph-name="uni04EF" unicode="&#x4ef;" horiz-adv-x="517" 
d="M80 -180l107 182l-129 483h63l106 -417l241 417h68l-391 -665h-65zM165 629l8 46h288l-8 -46h-288z" />
    <glyph glyph-name="uni04F0" unicode="&#x4f0;" horiz-adv-x="635" 
d="M164 0l143 214l-229 491h63l204 -436l294 436h68l-474 -705h-69zM445 813l12 73h73l-12 -73h-73zM278 813l12 73h73l-12 -73h-73z" />
    <glyph glyph-name="uni04F1" unicode="&#x4f1;" horiz-adv-x="517" 
d="M80 -180l107 182l-129 483h63l106 -417l241 417h68l-391 -665h-65zM354 615l11 72h74l-12 -72h-73zM187 615l11 72h73l-11 -72h-73z" />
    <glyph glyph-name="uni04F2" unicode="&#x4f2;" horiz-adv-x="635" 
d="M164 0l143 214l-229 491h63l204 -436l294 436h68l-474 -705h-69zM314 765l100 171h66l-129 -171h-37zM431 765l102 171h66l-131 -171h-37z" />
    <glyph glyph-name="uni04F3" unicode="&#x4f3;" horiz-adv-x="517" 
d="M80 -180l107 182l-129 483h63l106 -417l241 417h68l-391 -665h-65zM337 550l74 201h61l-99 -201h-36zM219 550l74 201h61l-99 -201h-36z" />
    <glyph glyph-name="uni04F4" unicode="&#x4f4;" horiz-adv-x="666" 
d="M474 0l48 308q-37 -19 -87 -29t-99 -10q-130 0 -189 73t-37 214l23 149h62l-23 -144q-20 -121 22.5 -178t147.5 -57q48 0 97.5 9.5t93.5 33.5l53 336h62l-112 -705h-62zM449 813l12 73h73l-12 -73h-73zM282 813l12 73h73l-12 -73h-73z" />
    <glyph glyph-name="uni04F5" unicode="&#x4f5;" horiz-adv-x="542" 
d="M358 0l33 206q-32 -19 -65 -28.5t-72 -9.5q-98 0 -142.5 49.5t-29.5 146.5l19 121h61l-18 -118q-13 -76 16 -111t102 -35q40 0 72 9t65 30l36 225h61l-77 -485h-61zM367 615l11 72h74l-12 -72h-73zM200 615l11 72h73l-11 -72h-73z" />
    <glyph glyph-name="uni04F6" unicode="&#x4f6;" horiz-adv-x="534" 
d="M53 0l112 705h429l-9 -55h-366l-95 -596h100l-34 -207h-57l24 153h-104z" />
    <glyph glyph-name="uni04F7" unicode="&#x4f7;" horiz-adv-x="425" 
d="M46 0l77 485h327l-8 -51h-266l-61 -384h74l-29 -180h-54l21 130h-81z" />
    <glyph glyph-name="uni04F8" unicode="&#x4f8;" horiz-adv-x="833" 
d="M53 0l112 705h62l-51 -319h179q106 0 160 -47t54 -126q0 -106 -63.5 -159.5t-184.5 -53.5h-268zM641 0l112 705h61l-112 -705h-61zM123 53h201q183 0 183 157q0 61 -40 92t-117 31h-182zM546 813l12 73h73l-12 -73h-73zM379 813l12 73h73l-12 -73h-73z" />
    <glyph glyph-name="uni04F9" unicode="&#x4f9;" horiz-adv-x="709" 
d="M46 0l77 485h61l-28 -179h151q81 0 123.5 -38t42.5 -104q0 -77 -51.5 -120.5t-143.5 -43.5h-232zM525 0l77 485h61l-77 -485h-61zM115 47h159q69 0 103.5 29.5t34.5 84.5q0 51 -30 75t-87 24h-147zM458 615l11 72h74l-12 -72h-73zM291 615l11 72h73l-11 -72h-73z" />
    <glyph glyph-name="uni04FA" unicode="&#x4fa;" horiz-adv-x="568" 
d="M33 -181l-3 49l40 3q52 5 82 36t39 93h-105l53 330h-99l8 50h99l51 325h429l-8 -55h-368l-43 -270h188l-8 -50h-188l-43 -276h100l-7 -49q-14 -88 -56 -132.5t-116 -50.5z" />
    <glyph glyph-name="uni04FB" unicode="&#x4fb;" horiz-adv-x="443" 
d="M28 -181l-2 49l41 4q43 3 66.5 37.5t32.5 90.5h-102l35 216h-98l7 48h98l35 221h328l-9 -51h-266l-27 -170h148l-8 -48h-147l-27 -166h96l-8 -45q-29 -174 -149 -183z" />
    <glyph glyph-name="uni04FC" unicode="&#x4fc;" horiz-adv-x="640" 
d="M366 -184l-12 51q72 10 102.5 40.5t30.5 86.5q0 25 -9.5 58.5t-32.5 73.5l-110 190l-279 -316h-77l325 364l-198 341h67l172 -299l262 299h77l-307 -347l124 -213q24 -43 35 -83t11 -69q0 -82 -46.5 -123t-134.5 -54z" />
    <glyph glyph-name="uni04FD" unicode="&#x4fd;" horiz-adv-x="523" 
d="M283 -184l-11 47q55 7 82.5 32t27.5 76q0 25 -12.5 53.5t-40.5 72.5l-70 110l-197 -207h-75l240 251l-151 234h68l125 -195l180 195h76l-225 -238l79 -122q31 -48 46.5 -85t15.5 -76q0 -64 -40.5 -102.5t-117.5 -45.5z" />
    <glyph glyph-name="uni04FE" unicode="&#x4fe;" horiz-adv-x="640" 
d="M-21 0l325 364l-198 341h67l172 -299l262 299h77l-307 -347l208 -358h-68l-182 316l-279 -316h-77zM141 339l7 48h391l-7 -48h-391z" />
    <glyph glyph-name="uni04FF" unicode="&#x4ff;" horiz-adv-x="523" 
d="M-13 0l240 251l-151 234h68l125 -195l181 195h75l-224 -238l159 -247h-69l-132 207l-197 -207h-75zM63 220l7 48h391l-7 -48h-391z" />
    <glyph glyph-name="uni0510" unicode="&#x510;" horiz-adv-x="642" 
d="M303 -8q-120 0 -184.5 45t-63.5 129q1 72 44 125.5t116 70.5q-44 17 -68 52.5t-23 88.5q1 64 36 111.5t96.5 73t140.5 25.5q78 0 139 -24t100 -68l-32 -49q-41 44 -90.5 64.5t-122.5 20.5q-93 0 -148.5 -41.5t-56.5 -114.5q-1 -118 153 -118h157l-9 -53h-172
q-93 0 -145 -41t-53 -115q0 -65 48.5 -95.5t140.5 -30.5q78 0 139.5 20t116.5 64l25 -49q-48 -42 -122 -66.5t-162 -24.5z" />
    <glyph glyph-name="uni0511" unicode="&#x511;" horiz-adv-x="487" 
d="M212 -8q-93 0 -137 33t-44 88q0 59 33.5 93.5t84.5 44.5q-31 12 -49 38.5t-18 59.5q0 51 27.5 83t74.5 47t105 15q57 0 105.5 -15.5t76.5 -41.5l-28 -46q-28 27 -67.5 39.5t-87.5 12.5q-64 0 -105.5 -22t-41.5 -74q0 -34 26 -55.5t73 -21.5h92l-8 -48h-99
q-63 0 -98.5 -26.5t-35.5 -76.5q0 -37 28.5 -57t96.5 -20q54 0 101 13.5t90 44.5l20 -48q-91 -60 -215 -60z" />
    <glyph glyph-name="uni0512" unicode="&#x512;" horiz-adv-x="736" 
d="M383 -193l-3 50l42 4q101 8 119 120l106 669h-334l-30 -190q-19 -116 -44 -196t-58.5 -133t-75 -87.5t-93.5 -57.5l-25 51q40 20 75.5 46t66 72t55.5 123t44 197l36 230h453l-115 -723q-13 -83 -57.5 -125t-117.5 -47z" />
    <glyph glyph-name="uni0513" unicode="&#x513;" horiz-adv-x="564" 
d="M220 -193l-3 50l42 4q100 7 118 120l72 454h-216l-10 -65q-14 -95 -32 -160.5t-42 -108t-58.5 -69t-81.5 -42.5l-17 50q50 19 82 55.5t53 102.5t39 175l17 112h335l-80 -506q-25 -159 -174 -169z" />
    <glyph glyph-name="uni051A" unicode="&#x51a;" horiz-adv-x="759" 
d="M523 -195l-57 124q-29 63 -114 63v0q-125 3 -199 80t-74 219q0 90 23 166.5t67.5 134t110.5 89.5t151 32q130 0 207 -77t77 -222q0 -100 -29 -184.5t-85 -143t-137 -81.5q18 -8 33 -24.5t28 -44.5l51 -110zM364 48q93 0 156.5 48t96 131t32.5 186q0 124 -58.5 184
t-162.5 60q-91 0 -154.5 -48t-96 -130.5t-32.5 -186.5q0 -124 58.5 -184t160.5 -60z" />
    <glyph glyph-name="uni051B" unicode="&#x51b;" horiz-adv-x="583" 
d="M371 -180l41 261q-28 -42 -71.5 -65.5t-100.5 -23.5q-85 0 -136.5 55.5t-51.5 151.5q0 79 28 146t82 108t132 41q57 0 102 -27.5t65 -83.5l16 102h60l-105 -665h-61zM256 43q60 0 101 33t62.5 88t21.5 121q0 77 -38 117t-105 40q-60 0 -101 -33t-62 -88t-21 -121
q0 -77 37.5 -117t104.5 -40z" />
    <glyph glyph-name="uni051C" unicode="&#x51c;" horiz-adv-x="1096" 
d="M240 0l-133 705h61l113 -613l310 613h52l115 -619l311 619h66l-357 -705h-58l-114 611l-310 -611h-56z" />
    <glyph glyph-name="uni051D" unicode="&#x51d;" horiz-adv-x="843" 
d="M173 0l-98 485h60l78 -413l215 413h59l81 -416l212 416h65l-253 -485h-63l-81 407l-213 -407h-62z" />
    <glyph glyph-name="uni0524" unicode="&#x524;" horiz-adv-x="787" 
d="M638 -153l24 153h-104l104 650h-443l-104 -650h-62l112 705h567l-104 -651h101l-34 -207h-57z" />
    <glyph glyph-name="uni0525" unicode="&#x525;" horiz-adv-x="596" 
d="M451 -130l21 130h-82l69 435h-283l-69 -435h-61l77 485h405l-69 -435h75l-29 -180h-54z" />
    <glyph glyph-name="uni0526" unicode="&#x526;" horiz-adv-x="702" 
d="M586 -153l24 153h-104l24 144q20 121 -22.5 178t-147.5 57q-49 0 -98.5 -9.5t-93.5 -33.5l-53 -336h-62l112 705h62l-49 -308q37 19 87.5 29t99.5 10q131 0 189.5 -73t36.5 -214l-15 -95h101l-34 -207h-57z" />
    <glyph glyph-name="uni0527" unicode="&#x527;" horiz-adv-x="573" 
d="M46 0l112 705h61l-48 -303q28 44 72.5 68t103.5 24q81 0 122 -49t25 -150l-39 -245h75l-29 -180h-54l21 130h-82l47 295q23 146 -98 146q-80 0 -126.5 -48.5t-59.5 -128.5l-42 -264h-61z" />
    <glyph glyph-name="uni0528" unicode="&#x528;" horiz-adv-x="756" 
d="M-107 -193l-3 50l42 4q100 7 119 120l114 724h62l-51 -320h449l51 320h61l-112 -705h-61l52 330h-448l-56 -348q-13 -83 -57 -125t-118 -47z" />
    <glyph glyph-name="uni0529" unicode="&#x529;" horiz-adv-x="577" 
d="M-114 -193l-4 50l43 4q99 7 118 120l79 504h61l-33 -209h287l33 209h61l-77 -485h-61l36 225h-287l-39 -243q-12 -83 -56 -125t-118 -47z" />
    <glyph glyph-name="uni052E" unicode="&#x52e;" horiz-adv-x="772" 
d="M624 -153l24 153h-105l104 650h-334l-30 -190q-19 -116 -43.5 -196t-57.5 -133t-75.5 -87.5t-96.5 -57.5l-23 52q40 19 75.5 45.5t66 72t55.5 122.5t44 197l36 230h453l-104 -651h101l-33 -207h-57z" />
    <glyph glyph-name="uni052F" unicode="&#x52f;" horiz-adv-x="586" 
d="M9 -10l-17 50q50 19 82 55.5t53 102.5t39 175l17 112h335l-69 -435h74l-29 -180h-54l21 130h-81l69 435h-216l-10 -65q-14 -95 -32 -160.5t-42 -108t-58.5 -69t-81.5 -42.5z" />
    <glyph glyph-name="uni1E08" unicode="&#x1e08;" horiz-adv-x="670" 
d="M376 -8q-88 0 -154.5 33.5t-104 103t-37.5 177.5q0 87 25 161t71.5 129.5t112.5 86t149 30.5q73 0 132 -24.5t98 -67.5l-31 -50q-41 43 -89.5 64t-112.5 21q-90 0 -154.5 -45.5t-99.5 -124t-35 -180.5q0 -138 63 -197.5t171 -59.5q58 0 105.5 20t96.5 64l27 -50
q-95 -91 -233 -91zM347 -191q-52 0 -82 19l14 39q18 -9 33.5 -13t39.5 -4q27 0 45.5 11t18.5 31q0 28 -35 28q-11 0 -22.5 -1.5t-28.5 -7.5l-14 14l30 95h45l-22 -66q12 2 22 2q31 0 51.5 -16t20.5 -45q0 -39 -33 -62.5t-83 -23.5zM420 765l131 171h74l-155 -171h-50z" />
    <glyph glyph-name="uni1E09" unicode="&#x1e09;" horiz-adv-x="459" 
d="M253 -8q-104 0 -154 59t-50 154q0 53 14.5 104.5t45 93t78.5 66.5t114 25q48 0 91 -17t69 -45l-25 -45q-53 54 -135 54q-51 0 -87 -20t-59 -54.5t-33.5 -76.5t-10.5 -85q0 -73 34.5 -117t113.5 -44q31 0 66.5 13t64.5 40l22 -47q-29 -27 -73 -42.5t-86 -15.5zM218 -191
q-52 0 -82 19l14 39q18 -9 33.5 -13t39.5 -4q27 0 45.5 11t18.5 31q0 28 -35 28q-11 0 -22.5 -1.5t-28.5 -7.5l-14 14l30 95h45l-22 -66q12 2 22 2q31 0 51.5 -16t20.5 -45q0 -39 -33 -62.5t-83 -23.5zM287 550l134 201h71l-158 -201h-47z" />
    <glyph glyph-name="uni1E0C" unicode="&#x1e0c;" horiz-adv-x="733" 
d="M53 0l112 705h199q156 0 241 -76.5t85 -215.5q0 -85 -23 -159.5t-71.5 -131.5t-123.5 -89.5t-179 -32.5h-240zM124 54h171q90 0 152.5 28.5t102 78.5t57.5 114.5t18 137.5q0 115 -66 176.5t-196 61.5h-144zM263 -179l12 75h77l-12 -75h-77z" />
    <glyph glyph-name="uni1E0D" unicode="&#x1e0d;" horiz-adv-x="575" 
d="M236 -8q-85 0 -136.5 55.5t-51.5 151.5q0 79 28 146t82 108t132 41q56 0 101 -27t65 -83l51 321h61l-112 -705h-60l13 82q-28 -42 -72 -66t-101 -24zM252 43q60 0 101 33t62.5 88t21.5 121q0 77 -38 117t-105 40q-60 0 -101 -33t-62 -88t-21 -121q0 -77 37.5 -117
t104.5 -40zM187 -179l12 75h77l-12 -75h-77z" />
    <glyph glyph-name="uni1E0E" unicode="&#x1e0e;" horiz-adv-x="733" 
d="M53 0l112 705h199q156 0 241 -76.5t85 -215.5q0 -85 -23 -159.5t-71.5 -131.5t-123.5 -89.5t-179 -32.5h-240zM124 54h171q90 0 152.5 28.5t102 78.5t57.5 114.5t18 137.5q0 115 -66 176.5t-196 61.5h-144zM162 -152l8 46h288l-8 -46h-288z" />
    <glyph glyph-name="uni1E0F" unicode="&#x1e0f;" horiz-adv-x="575" 
d="M236 -8q-85 0 -136.5 55.5t-51.5 151.5q0 79 28 146t82 108t132 41q56 0 101 -27t65 -83l51 321h61l-112 -705h-60l13 82q-28 -42 -72 -66t-101 -24zM252 43q60 0 101 33t62.5 88t21.5 121q0 77 -38 117t-105 40q-60 0 -101 -33t-62 -88t-21 -121q0 -77 37.5 -117
t104.5 -40zM86 -152l8 46h288l-8 -46h-288z" />
    <glyph glyph-name="uni1E14" unicode="&#x1e14;" horiz-adv-x="576" 
d="M54 0l111 705h435l-9 -53h-373l-43 -268h354l-9 -53h-354l-44 -278h374l-8 -53h-434zM401 876l-102 146h68l80 -146h-46zM267 793l7 46h288l-7 -46h-288z" />
    <glyph glyph-name="uni1E15" unicode="&#x1e15;" horiz-adv-x="528" 
d="M265 -8q-101 0 -159 56t-58 155q0 78 30.5 144t87 106.5t136.5 40.5q75 0 118 -35.5t58.5 -91t5.5 -117.5l-3 -20h-372q-10 -84 32 -135.5t125 -51.5q47 0 87 14t73 45l25 -43q-33 -33 -84 -50t-102 -17zM301 445q-57 0 -95 -25t-60 -64t-30 -81h318q5 47 -7 85.5
t-42.5 61.5t-83.5 23zM309 656l-102 146h68l80 -146h-46zM175 573l7 46h288l-7 -46h-288z" />
    <glyph glyph-name="uni1E16" unicode="&#x1e16;" horiz-adv-x="576" 
d="M54 0l111 705h435l-9 -53h-373l-43 -268h354l-9 -53h-354l-44 -278h374l-8 -53h-434zM401 876l105 146h70l-129 -146h-46zM267 793l7 46h288l-7 -46h-288z" />
    <glyph glyph-name="uni1E17" unicode="&#x1e17;" horiz-adv-x="528" 
d="M265 -8q-101 0 -159 56t-58 155q0 78 30.5 144t87 106.5t136.5 40.5q75 0 118 -35.5t58.5 -91t5.5 -117.5l-3 -20h-372q-10 -84 32 -135.5t125 -51.5q47 0 87 14t73 45l25 -43q-33 -33 -84 -50t-102 -17zM301 445q-57 0 -95 -25t-60 -64t-30 -81h318q5 47 -7 85.5
t-42.5 61.5t-83.5 23zM309 656l105 146h70l-129 -146h-46zM175 573l7 46h288l-7 -46h-288z" />
    <glyph glyph-name="uni1E1C" unicode="&#x1e1c;" horiz-adv-x="576" 
d="M54 0l111 705h435l-9 -53h-373l-43 -268h354l-9 -53h-354l-44 -278h374l-8 -53h-434zM271 -191q-52 0 -82 19l14 39q18 -9 33.5 -13t39.5 -4q27 0 45.5 11t18.5 31q0 28 -35 28q-11 0 -22.5 -1.5t-28.5 -7.5l-14 14l30 95h45l-22 -66q12 2 22 2q31 0 51.5 -16t20.5 -45
q0 -39 -33 -62.5t-83 -23.5zM410 760q-67 0 -109 45t-40 123l42 5q-3 -61 27.5 -94.5t82.5 -33.5q53 0 88 33.5t44 94.5l42 -5q-13 -78 -61.5 -123t-115.5 -45z" />
    <glyph glyph-name="uni1E1D" unicode="&#x1e1d;" horiz-adv-x="528" 
d="M265 -8q-101 0 -159 56t-58 155q0 78 30.5 144t87 106.5t136.5 40.5q75 0 118 -35.5t58.5 -91t5.5 -117.5l-3 -20h-372q-10 -84 32 -135.5t125 -51.5q47 0 87 14t73 45l25 -43q-33 -33 -84 -50t-102 -17zM301 445q-57 0 -95 -25t-60 -64t-30 -81h318q5 47 -7 85.5
t-42.5 61.5t-83.5 23zM228 -191q-52 0 -82 19l14 39q18 -9 33.5 -13t39.5 -4q27 0 45.5 11t18.5 31q0 28 -35 28q-11 0 -22.5 -1.5t-28.5 -7.5l-14 14l30 95h45l-22 -66q12 2 22 2q31 0 51.5 -16t20.5 -45q0 -39 -33 -62.5t-83 -23.5zM327 548q-64 0 -101.5 50t-33.5 138
l42 5q-4 -71 21.5 -109.5t73.5 -38.5t79 38.5t41 109.5l41 -5q-12 -88 -55 -138t-108 -50z" />
    <glyph glyph-name="uni1E20" unicode="&#x1e20;" horiz-adv-x="722" 
d="M387 -8q-146 0 -227 77t-81 223q0 126 44 221t124.5 147.5t191.5 52.5q76 0 136 -24t99 -67l-31 -50q-42 43 -92 63.5t-116 20.5q-90 0 -155 -44.5t-100 -126t-35 -192.5q0 -124 63 -184.5t185 -60.5q47 0 87 8t75 20l37 233h-186l8 52h242l-52 -328q-39 -18 -98 -29.5
t-119 -11.5zM296 818l8 47h318l-8 -47h-318z" />
    <glyph glyph-name="uni1E21" unicode="&#x1e21;" horiz-adv-x="578" 
d="M244 -188q-65 0 -117 20t-93 52l24 47q44 -32 84.5 -50t96.5 -18q66 0 107.5 34.5t53.5 106.5l16 102q-27 -45 -72 -70t-104 -25q-87 0 -139.5 54t-52.5 144q0 74 28 139t82.5 105.5t133.5 40.5q57 0 102 -27t65 -83l16 101h60l-76 -478q-31 -195 -215 -195zM253 63
q61 0 102.5 32.5t62.5 85.5t22 114q0 70 -38 108.5t-106 38.5q-61 0 -102 -32.5t-62.5 -85t-21.5 -113.5q0 -71 37.5 -109.5t105.5 -38.5zM207 629l8 46h288l-8 -46h-288z" />
    <glyph glyph-name="uni1E24" unicode="&#x1e24;" horiz-adv-x="756" 
d="M53 0l112 705h62l-51 -320h449l51 320h61l-112 -705h-61l52 330h-448l-53 -330h-62zM278 -179l12 75h77l-12 -75h-77z" />
    <glyph glyph-name="uni1E25" unicode="&#x1e25;" horiz-adv-x="560" 
d="M42 0l112 705h61l-48 -303q28 44 72.5 68t103.5 24q81 0 122 -49t25 -150l-47 -295h-61l47 295q23 146 -98 146q-80 0 -126.5 -48.5t-59.5 -128.5l-42 -264h-61zM182 -179l12 75h77l-12 -75h-77z" />
    </font>
</defs>
</svg>
