<?xml version="1.0" standalone="no"?>
<!DOCTYPE svg PUBLIC "-//W3C//DTD SVG 1.1//EN" "http://www.w3.org/Graphics/SVG/1.1/DTD/svg11.dtd" >
<svg xmlns="http://www.w3.org/2000/svg" xmlns:xlink="http://www.w3.org/1999/xlink" version="1.1">
<metadata>
Created by FontForge 20170731 at Mon Jun 29 15:02:24 2020
 By Aleksey,,,
Copyright 2016 The Nunito Sans Project Authors (https://github.com/Fonthausen/NunitoSans)
</metadata>
<defs>
<font id="NunitoSans-Regular" horiz-adv-x="0" >
  <font-face 
    font-family="Nunito Sans"
    font-weight="400"
    font-stretch="normal"
    units-per-em="1000"
    panose-1="0 0 0 0 0 0 0 0 0 0"
    ascent="800"
    descent="-200"
    x-height="486"
    cap-height="705"
    bbox="-252 -270 1294 1043"
    underline-thickness="36"
    underline-position="-136"
    unicode-range="U+000D-FB02"
  />
<missing-glyph horiz-adv-x="500" 
d="M50 -180v885h400v-885h-400zM100 -130h300v785h-300v-785z" />
    <glyph glyph-name="fi" unicode="fi" horiz-adv-x="559" 
d="M102 0v423h-96v63h96v17q0 97 48.5 147t149.5 56l37 2l5 -63l-42 -2q-62 -4 -89.5 -36.5t-27.5 -93.5v-27h300v-486h-81v423h-219v-423h-81zM393 607v91h99v-91h-99z" />
    <glyph glyph-name="fl" unicode="fl" horiz-adv-x="629" 
d="M102 0v423h-96v63h96v17q0 97 48.5 147t149.5 56l39 2l7 -62l-46 -3q-62 -5 -89.5 -37t-27.5 -93v-27h140v-63h-140v-423h-81zM558 -9q-74 0 -111.5 43.5t-37.5 126.5v544h81v-538q0 -107 85 -107q25 0 45 6l-2 -68q-31 -7 -60 -7z" />
    <glyph glyph-name=".notdef" horiz-adv-x="500" 
d="M50 -180v885h400v-885h-400zM100 -130h300v785h-300v-785z" />
    <glyph glyph-name=".null" 
 />
    <glyph glyph-name="nonmarkingreturn" horiz-adv-x="333" 
 />
    <glyph glyph-name="NULL" 
 />
    <glyph glyph-name="NULL" 
 />
    <glyph glyph-name="CR" unicode="&#xd;" horiz-adv-x="257" 
 />
    <glyph glyph-name="space" unicode=" " horiz-adv-x="257" 
 />
    <glyph glyph-name="exclam" unicode="!" horiz-adv-x="228" 
d="M89 184l-25 521h100l-25 -521h-50zM63 0v102h102v-102h-102z" />
    <glyph glyph-name="quotedbl" unicode="&#x22;" horiz-adv-x="391" 
d="M84 428l-21 277h95l-19 -277h-55zM255 428l-21 277h95l-19 -277h-55z" />
    <glyph glyph-name="numbersign" unicode="#" horiz-adv-x="600" 
d="M88 0l36 182h-89v59h100l45 231h-125v59h135l35 174h63l-34 -174h159l34 174h64l-34 -174h88v-59h-100l-45 -231h125v-59h-135l-36 -182h-64l35 182h-158l-35 -182h-64zM198 241h158l46 231h-159z" />
    <glyph glyph-name="dollar" unicode="$" horiz-adv-x="600" 
d="M276 -115v111q-67 3 -126.5 23t-103.5 60l30 66q47 -39 100.5 -58t124.5 -19q85 0 126.5 33t41.5 86q0 44 -29.5 70t-99.5 41l-100 21q-90 19 -134.5 64.5t-44.5 120.5q0 56 26.5 100.5t75 71.5t113.5 32v112h68v-112q51 -4 101.5 -25t86.5 -60l-28 -64q-40 41 -89 59.5
t-109 18.5q-74 0 -119 -36t-45 -95q0 -47 28.5 -74t90.5 -40l100 -22q97 -20 144 -63t47 -115q0 -82 -58 -133.5t-150 -61.5v-112h-68z" />
    <glyph glyph-name="percent" unicode="%" horiz-adv-x="930" 
d="M286 -25l-57 33l415 722l56 -33zM226 282q-80 0 -125 57t-45 159t45 158.5t125 56.5q79 0 124.5 -56.5t45.5 -158.5t-45.5 -159t-124.5 -57zM226 341q46 0 73 39.5t27 117.5t-27 117t-73 39q-47 0 -73.5 -39t-26.5 -117t26.5 -117.5t73.5 -39.5zM704 -9q-79 0 -124.5 57
t-45.5 159q0 101 45.5 158t124.5 57q80 0 125 -57t45 -158q0 -102 -45 -159t-125 -57zM704 50q47 0 73.5 39.5t26.5 117.5t-26.5 117t-73.5 39q-46 0 -72.5 -39t-26.5 -117q0 -79 26.5 -118t72.5 -39z" />
    <glyph glyph-name="ampersand" unicode="&#x26;" horiz-adv-x="693" 
d="M287 -9q-106 0 -165.5 49t-59.5 129q0 68 37 117t111 98l15 10q-45 49 -63 87t-18 77q0 70 47 113t126 43q69 0 113.5 -38.5t44.5 -104.5q0 -52 -30 -95.5t-110 -93.5l164 -185q21 42 34 98t15 118h70q-2 -78 -20.5 -146.5t-48.5 -120.5l135 -146h-99l-79 89
q-42 -47 -98 -72.5t-121 -25.5zM317 651q-43 0 -70 -25t-27 -66q0 -21 6 -38.5t21.5 -39t42.5 -52.5q63 40 88.5 71t25.5 66q0 39 -24 61.5t-63 22.5zM291 58q103 0 168 80l-189 206l-12 -8q-64 -42 -90 -77t-26 -84q0 -55 38 -86t111 -31z" />
    <glyph glyph-name="quotesingle" unicode="'" horiz-adv-x="221" 
d="M84 428l-21 277h95l-19 -277h-55z" />
    <glyph glyph-name="parenleft" unicode="(" horiz-adv-x="317" 
d="M224 -192q-64 110 -93 223.5t-29 231.5t29 231t93 224l58 -22q-48 -112 -71 -217.5t-23 -215.5t23 -215.5t71 -217.5z" />
    <glyph glyph-name="parenright" unicode=")" horiz-adv-x="317" 
d="M93 -192l-58 22q48 113 70.5 218.5t22.5 214.5t-22.5 214.5t-70.5 218.5l58 22q64 -111 93 -224t29 -231t-29 -231.5t-93 -223.5z" />
    <glyph glyph-name="asterisk" unicode="*" horiz-adv-x="450" 
d="M155 353l-53 32l78 124l-146 -5v61l147 -6l-79 126l53 30l70 -134l69 134l54 -31l-79 -125l148 6v-61l-147 5l78 -124l-54 -31l-69 134z" />
    <glyph glyph-name="plus" unicode="+" horiz-adv-x="600" 
d="M268 40v216h-212v62h212v210h64v-210h212v-62h-212v-216h-64z" />
    <glyph glyph-name="comma" unicode="," horiz-adv-x="228" 
d="M105 -114l-38 29q22 23 31.5 43.5t12.5 41.5h-48v102h102v-72q0 -41 -13 -76t-47 -68z" />
    <glyph glyph-name="hyphen" unicode="-" horiz-adv-x="424" 
d="M72 233v67h280v-67h-280z" />
    <glyph glyph-name="period" unicode="." horiz-adv-x="228" 
d="M63 0v102h102v-102h-102z" />
    <glyph glyph-name="slash" unicode="/" horiz-adv-x="283" 
d="M45 -63l-64 19l256 796l65 -19z" />
    <glyph glyph-name="zero" unicode="0" horiz-adv-x="600" 
d="M300 -9q-121 0 -184 93t-63 269q0 177 63 269t184 92q122 0 184.5 -91.5t62.5 -268.5t-63.5 -270t-183.5 -93zM300 62q84 0 124.5 71t40.5 221t-40 219.5t-125 69.5q-84 0 -124.5 -70t-40.5 -219q0 -150 40.5 -221t124.5 -71z" />
    <glyph glyph-name="one" unicode="1" horiz-adv-x="600" 
d="M124 0v70h161v536l-127 -80l-35 61l185 118h59v-635h151v-70h-394z" />
    <glyph glyph-name="two" unicode="2" horiz-adv-x="600" 
d="M90 0v62l241 260q51 56 73.5 102t22.5 94q0 123 -143 123q-107 0 -189 -80l-31 64q39 40 99.5 64.5t127.5 24.5q106 0 162.5 -49.5t56.5 -140.5q0 -63 -31 -123.5t-95 -128.5l-189 -202h344v-70h-449z" />
    <glyph glyph-name="three" unicode="3" horiz-adv-x="600" 
d="M292 -9q-70 0 -133 21.5t-106 62.5l30 65q49 -40 99 -58t108 -18q76 0 116.5 33.5t40.5 98.5q0 62 -41 94t-119 32h-104v71h97q68 0 107.5 35.5t39.5 97.5q0 55 -36.5 85t-103.5 30q-110 0 -192 -80l-30 64q39 42 99.5 65.5t127.5 23.5q102 0 159.5 -48t57.5 -133
q0 -59 -30 -103.5t-83 -64.5q63 -17 98 -62.5t35 -112.5q0 -91 -63.5 -145t-173.5 -54z" />
    <glyph glyph-name="four" unicode="4" horiz-adv-x="600" 
d="M377 0v151h-325v62l339 492h69v-484h105v-70h-105v-151h-83zM377 221v349l-240 -349h240z" />
    <glyph glyph-name="five" unicode="5" horiz-adv-x="600" 
d="M315 -9q-68 0 -130 22t-105 62l31 65q93 -76 203 -76q73 0 115 41t42 108q0 69 -40 113t-110 44q-101 0 -159 -84h-60v419h409v-70h-328v-252q58 58 153 58q66 0 115 -28t75.5 -78.5t26.5 -117.5q0 -66 -29 -117t-82.5 -80t-126.5 -29z" />
    <glyph glyph-name="six" unicode="6" horiz-adv-x="600" 
d="M324 -9q-125 0 -192.5 90.5t-67.5 253.5q0 183 75 281t210 98q54 0 108.5 -23t89.5 -62l-30 -64q-37 38 -80.5 57t-89.5 19q-98 0 -150.5 -73t-52.5 -217v-49q19 66 70.5 103t121.5 37q62 0 110 -28.5t75 -78.5t27 -115q0 -67 -28.5 -118.5t-79 -81t-116.5 -29.5zM319 61
q67 0 108.5 43t41.5 113q0 69 -41.5 112.5t-108.5 43.5t-108.5 -43.5t-41.5 -112.5q0 -70 41.5 -113t108.5 -43z" />
    <glyph glyph-name="seven" unicode="7" horiz-adv-x="600" 
d="M112 0l328 634h-373v71h466v-62l-330 -643h-91z" />
    <glyph glyph-name="eight" unicode="8" horiz-adv-x="600" 
d="M300 -9q-119 0 -185 51.5t-66 144.5q0 65 35.5 111t94.5 63q-53 20 -83 64t-30 101q0 89 63.5 138.5t170.5 49.5t171 -49.5t64 -138.5q0 -57 -30.5 -101.5t-82.5 -63.5q59 -17 94 -63t35 -111q0 -93 -66 -144.5t-185 -51.5zM300 391q73 0 114.5 34.5t41.5 93.5
q0 60 -41.5 93.5t-114.5 33.5t-114 -33.5t-41 -93.5q0 -59 41 -93.5t114 -34.5zM300 59q172 0 172 133q0 131 -172 131t-172 -131q0 -133 172 -133z" />
    <glyph glyph-name="nine" unicode="9" horiz-adv-x="600" 
d="M252 -9q-54 0 -109 23t-90 62l31 65q36 -39 79.5 -58t89.5 -19q98 0 151 73t53 217v50q-20 -66 -71.5 -103.5t-121.5 -37.5q-62 0 -110 28.5t-75 78.5t-27 115q0 67 28.5 118.5t79 81t116.5 29.5q125 0 192.5 -90.5t67.5 -253.5q0 -182 -75 -280.5t-209 -98.5zM281 332
q67 0 109 43.5t42 112.5q0 70 -42 113.5t-109 43.5q-66 0 -108 -43.5t-42 -113.5q0 -69 42 -112.5t108 -43.5z" />
    <glyph glyph-name="colon" unicode=":" horiz-adv-x="228" 
d="M63 384v102h102v-102h-102zM63 0v102h102v-102h-102z" />
    <glyph glyph-name="semicolon" unicode=";" horiz-adv-x="228" 
d="M63 384v102h102v-102h-102zM105 -114l-38 29q22 23 31.5 43.5t12.5 41.5h-48v102h102v-72q0 -41 -13 -76t-47 -68z" />
    <glyph glyph-name="less" unicode="&#x3c;" horiz-adv-x="600" 
d="M544 35l-488 220v64l488 220v-68l-410 -184l410 -183v-69z" />
    <glyph glyph-name="equal" unicode="=" horiz-adv-x="600" 
d="M56 356v62h488v-62h-488zM56 157v61h488v-61h-488z" />
    <glyph glyph-name="greater" unicode="&#x3e;" horiz-adv-x="600" 
d="M56 35v69l410 183l-410 184v68l488 -220v-64z" />
    <glyph glyph-name="question" unicode="?" horiz-adv-x="443" 
d="M182 184v29q0 51 19 95.5t67 100.5q38 44 53 75t15 66q0 42 -30 66.5t-83 24.5q-55 0 -102 -20t-89 -60l-30 64q39 40 99 64.5t126 24.5q86 0 139 -43.5t53 -114.5q0 -47 -20.5 -88t-71.5 -95q-47 -50 -66.5 -87.5t-24.5 -76.5l-2 -25h-52zM157 0v102h102v-102h-102z" />
    <glyph glyph-name="at" unicode="@" horiz-adv-x="946" 
d="M485 -163q-127 0 -222.5 53.5t-148.5 151.5t-53 231q0 98 31.5 179t90 139.5t138.5 90.5t177 32q116 0 203 -46.5t135.5 -129.5t48.5 -194q0 -87 -23.5 -151t-66.5 -99t-100 -35q-49 0 -79 23.5t-36 65.5q-28 -44 -67.5 -66.5t-83.5 -22.5q-77 0 -119.5 48.5t-42.5 133.5
q0 73 28 130.5t77 90.5t111 33q96 0 127 -78l12 69h66l-45 -259q-4 -26 -4 -47q0 -67 60 -67q57 0 93 63.5t36 167.5q0 95 -41.5 165t-115.5 109t-174 39q-111 0 -195 -48t-131 -134.5t-47 -201.5q0 -119 44 -204t125 -130.5t192 -45.5q81 0 146.5 25.5t108.5 71.5l33 -48
q-49 -51 -123.5 -78t-164.5 -27zM438 117q45 0 79.5 26.5t54.5 73.5t20 108q0 112 -102 112q-44 0 -79 -25.5t-55.5 -69.5t-20.5 -101q0 -60 27 -92t76 -32z" />
    <glyph glyph-name="A" unicode="A" horiz-adv-x="729" 
d="M19 0l311 705h70l311 -705h-85l-78 180h-367l-77 -180h-85zM364 609l-153 -360h308l-153 360h-2z" />
    <glyph glyph-name="B" unicode="B" horiz-adv-x="676" 
d="M87 0v705h282q109 0 168.5 -48.5t59.5 -135.5q0 -58 -30 -99t-83 -60q61 -16 95.5 -59t34.5 -109q0 -94 -61 -144t-172 -50h-294zM167 390h190q159 0 159 124q0 125 -159 125h-190v-249zM167 66h206q160 0 160 129t-160 129h-206v-258z" />
    <glyph glyph-name="C" unicode="C" horiz-adv-x="673" 
d="M392 -9q-104 0 -178 44t-113.5 125t-39.5 193q0 111 39.5 192t113.5 125t178 44q73 0 134.5 -23t104.5 -67l-32 -67q-46 43 -95.5 62.5t-109.5 19.5q-119 0 -182 -75t-63 -211q0 -137 63 -212t182 -75q60 0 109.5 19.5t95.5 62.5l32 -67q-43 -43 -104.5 -66.5
t-134.5 -23.5z" />
    <glyph glyph-name="D" unicode="D" horiz-adv-x="742" 
d="M87 0v705h238q171 0 264 -90.5t93 -261.5t-93 -262t-264 -91h-238zM169 70h150q276 0 276 283q0 282 -276 282h-150v-565z" />
    <glyph glyph-name="E" unicode="E" horiz-adv-x="583" 
d="M87 0v705h445v-69h-365v-244h344v-69h-344v-254h365v-69h-445z" />
    <glyph glyph-name="F" unicode="F" horiz-adv-x="548" 
d="M87 0v705h436v-69h-354v-246h334v-69h-334v-321h-82z" />
    <glyph glyph-name="G" unicode="G" horiz-adv-x="726" 
d="M409 -9q-170 0 -259 96t-89 265q0 112 40 193t115 125t181 44q75 0 138 -22.5t107 -65.5l-32 -66q-48 42 -99 61t-115 19q-120 0 -184 -75.5t-64 -212.5q0 -140 66 -214t197 -74q85 0 163 29v209h-179v65h250v-326q-28 -15 -67.5 -26t-83.5 -17.5t-85 -6.5z" />
    <glyph glyph-name="H" unicode="H" horiz-adv-x="761" 
d="M87 0v705h82v-312h423v312h82v-705h-82v322h-423v-322h-82z" />
    <glyph glyph-name="I" unicode="I" horiz-adv-x="256" 
d="M87 0v705h82v-705h-82z" />
    <glyph glyph-name="J" unicode="J" horiz-adv-x="324" 
d="M-4 -7l-6 69l60 4q51 4 78 35.5t27 86.5v517h82v-518q0 -87 -45 -135.5t-131 -54.5z" />
    <glyph glyph-name="K" unicode="K" horiz-adv-x="625" 
d="M87 0v705h82v-320h2l342 320h105l-368 -343l390 -362h-108l-361 332h-2v-332h-82z" />
    <glyph glyph-name="L" unicode="L" horiz-adv-x="543" 
d="M87 0v705h82v-633h359v-72h-441z" />
    <glyph glyph-name="M" unicode="M" horiz-adv-x="855" 
d="M89 0v705h69l271 -509l269 509h69v-705h-76v551l-235 -442h-54l-238 441v-550h-75z" />
    <glyph glyph-name="N" unicode="N" horiz-adv-x="740" 
d="M87 0v705h64l425 -567v567h76v-705h-62l-426 569v-569h-77z" />
    <glyph glyph-name="O" unicode="O" horiz-adv-x="767" 
d="M383 -9q-98 0 -170.5 44.5t-112 125.5t-39.5 192t39 192t111.5 125t171.5 44q100 0 172.5 -44t112 -124.5t39.5 -191.5t-40 -192.5t-112.5 -126t-171.5 -44.5zM383 64q113 0 175 76t62 213t-62 212.5t-175 75.5q-111 0 -173 -75.5t-62 -212.5q0 -136 62 -212.5t173 -76.5
z" />
    <glyph glyph-name="P" unicode="P" horiz-adv-x="633" 
d="M87 0v705h279q114 0 174.5 -55t60.5 -157q0 -101 -60.5 -156.5t-174.5 -55.5h-197v-281h-82zM169 350h187q164 0 164 143q0 144 -164 144h-187v-287z" />
    <glyph glyph-name="Q" unicode="Q" horiz-adv-x="767" 
d="M578 -201l-84 135q-34 57 -111 57v0q-98 0 -170.5 44.5t-112 125.5t-39.5 192t39 192t111.5 125t171.5 44q100 0 172.5 -44t112 -124.5t39.5 -191.5q0 -129 -53 -217.5t-147 -124.5q40 -13 73 -69l67 -108zM383 64q113 0 175 76t62 213t-62 212.5t-175 75.5
q-111 0 -173 -75.5t-62 -212.5q0 -136 62 -212.5t173 -76.5z" />
    <glyph glyph-name="R" unicode="R" horiz-adv-x="669" 
d="M87 0v705h279q114 0 174.5 -53t60.5 -151q0 -78 -42.5 -128t-120.5 -65q46 -16 79 -78l124 -230h-90l-122 226q-23 42 -53 57t-79 15h-128v-298h-82zM169 363h185q166 0 166 138q0 136 -166 136h-185v-274z" />
    <glyph glyph-name="S" unicode="S" horiz-adv-x="615" 
d="M315 -9q-83 0 -150 21.5t-116 62.5l29 66q51 -39 107 -58t130 -19q90 0 133.5 33.5t43.5 88.5q0 44 -31.5 70t-105.5 41l-104 21q-94 20 -140.5 65.5t-46.5 121.5q0 63 32.5 110t90.5 73t134 26q71 0 132 -22.5t103 -64.5l-29 -64q-45 41 -95 59.5t-112 18.5
q-79 0 -126 -36.5t-47 -96.5q0 -48 29.5 -76t96.5 -41l104 -22q101 -21 149.5 -63.5t48.5 -115.5q0 -59 -31.5 -104t-90 -70t-138.5 -25z" />
    <glyph glyph-name="T" unicode="T" horiz-adv-x="602" 
d="M260 0v634h-256v71h595v-71h-256v-634h-83z" />
    <glyph glyph-name="U" unicode="U" horiz-adv-x="728" 
d="M365 -9q-139 0 -211 73.5t-72 214.5v426h82v-422q0 -219 201 -219q199 0 199 219v422h82v-426q0 -141 -71.5 -214.5t-209.5 -73.5z" />
    <glyph glyph-name="V" unicode="V" horiz-adv-x="689" 
d="M307 0l-308 705h88l259 -601l258 601h86l-309 -705h-74z" />
    <glyph glyph-name="W" unicode="W" horiz-adv-x="1101" 
d="M277 0l-247 705h86l199 -585l204 585h66l202 -590l203 590h82l-247 -705h-73l-201 580l-203 -580h-71z" />
    <glyph glyph-name="X" unicode="X" horiz-adv-x="650" 
d="M10 0l268 360l-255 345h96l207 -283l205 283h97l-256 -345l268 -360h-97l-218 298l-217 -298h-98z" />
    <glyph glyph-name="Y" unicode="Y" horiz-adv-x="596" 
d="M257 0v334l-270 371h96l217 -299l216 299h93l-270 -373v-332h-82z" />
    <glyph glyph-name="Z" unicode="Z" horiz-adv-x="589" 
d="M48 0v61l405 573h-405v71h505v-61l-406 -573h420v-71h-519z" />
    <glyph glyph-name="bracketleft" unicode="[" horiz-adv-x="315" 
d="M109 -180v885h199v-64h-118v-757h118v-64h-199z" />
    <glyph glyph-name="backslash" unicode="\" horiz-adv-x="283" 
d="M237 -63l-256 796l64 19l257 -796z" />
    <glyph glyph-name="bracketright" unicode="]" horiz-adv-x="315" 
d="M8 -180v64h117v757h-117v64h198v-885h-198z" />
    <glyph glyph-name="asciicircum" unicode="^" horiz-adv-x="600" 
d="M49 140l219 488h64l219 -488h-67l-184 410l-184 -410h-67z" />
    <glyph glyph-name="underscore" unicode="_" horiz-adv-x="500" 
d="M20 -53v53h460v-53h-460z" />
    <glyph glyph-name="grave" unicode="`" horiz-adv-x="500" 
d="M221 551l-131 202h86l103 -202h-58z" />
    <glyph glyph-name="a" unicode="a" horiz-adv-x="530" 
d="M229 -9q-50 0 -89.5 19.5t-62.5 53.5t-23 76q0 53 27.5 84t91 44.5t173.5 13.5h32v31q0 62 -25.5 89.5t-81.5 27.5q-44 0 -85 -12.5t-84 -40.5l-28 59q38 27 92.5 43t104.5 16q94 0 139.5 -46t45.5 -143v-306h-76v84q-19 -43 -58.5 -68t-92.5 -25zM242 52q60 0 98 41.5
t38 105.5v30h-31q-81 0 -127.5 -7.5t-65 -26t-18.5 -50.5q0 -41 28.5 -67t77.5 -26z" />
    <glyph glyph-name="b" unicode="b" horiz-adv-x="583" 
d="M322 -9q-58 0 -101.5 26t-65.5 71v-88h-79v705h81v-303q21 43 65 68t100 25q65 0 113.5 -30.5t75 -87t26.5 -134.5q0 -77 -26.5 -133.5t-75 -87.5t-113.5 -31zM305 56q68 0 109 48.5t41 138.5q0 91 -41 139t-109 48t-109 -48t-41 -139q0 -90 41 -138.5t109 -48.5z" />
    <glyph glyph-name="c" unicode="c" horiz-adv-x="463" 
d="M282 -9q-73 0 -126 31.5t-81.5 89t-28.5 134.5q0 116 63 182.5t173 66.5q45 0 89 -16t73 -45l-28 -59q-29 28 -63.5 41t-65.5 13q-76 0 -117 -47.5t-41 -136.5q0 -87 41 -137.5t117 -50.5q31 0 65.5 13t63.5 42l28 -59q-29 -29 -73.5 -45.5t-88.5 -16.5z" />
    <glyph glyph-name="d" unicode="d" horiz-adv-x="583" 
d="M261 -9q-65 0 -113.5 31t-75 87.5t-26.5 133.5q0 78 26.5 134.5t75 87t113.5 30.5q57 0 100.5 -25t64.5 -69v304h81v-705h-79v89q-21 -46 -65 -72t-102 -26zM278 56q68 0 109 48.5t41 138.5q0 91 -41 139t-109 48q-69 0 -109.5 -48t-40.5 -139q0 -90 40.5 -138.5
t109.5 -48.5z" />
    <glyph glyph-name="e" unicode="e" horiz-adv-x="532" 
d="M295 -9q-115 0 -182 67.5t-67 183.5q0 75 30 132.5t82.5 89t121.5 31.5q99 0 155 -63.5t56 -174.5v-31h-366q4 -83 48 -126.5t122 -43.5q44 0 84 13.5t76 44.5l28 -57q-33 -31 -84 -48.5t-104 -17.5zM282 435q-69 0 -109 -43t-47 -113h295q-3 74 -38.5 115t-100.5 41z
" />
    <glyph glyph-name="f" unicode="f" horiz-adv-x="333" 
d="M102 0v423h-96v63h96v17q0 97 48.5 147t149.5 56l39 2l7 -62l-46 -3q-62 -5 -89.5 -37t-27.5 -93v-27h140v-63h-140v-423h-81z" />
    <glyph glyph-name="g" unicode="g" horiz-adv-x="586" 
d="M291 -189q-63 0 -118.5 16.5t-98.5 49.5l27 59q45 -32 89.5 -46t96.5 -14q144 0 144 148v86q-21 -46 -65.5 -72.5t-101.5 -26.5q-67 0 -116 31t-75.5 85.5t-26.5 126.5t26.5 126.5t75.5 84.5t116 30q57 0 101.5 -26t65.5 -71v88h79v-451q0 -112 -55.5 -168t-163.5 -56z
M279 77q70 0 111 48t41 129t-41 128.5t-111 47.5q-69 0 -110 -47.5t-41 -128.5t41 -129t110 -48z" />
    <glyph glyph-name="h" unicode="h" horiz-adv-x="568" 
d="M76 0v705h81v-299q24 44 67.5 66.5t97.5 22.5q173 0 173 -192v-303h-81v298q0 68 -26.5 99.5t-84.5 31.5q-67 0 -106.5 -41.5t-39.5 -110.5v-277h-81z" />
    <glyph glyph-name="i" unicode="i" horiz-adv-x="232" 
d="M66 607v91h100v-91h-100zM76 0v486h81v-486h-81z" />
    <glyph glyph-name="j" unicode="j" horiz-adv-x="236" 
d="M69 607v91h100v-91h-100zM-50 -193l-6 63l43 4q92 8 92 111v501h81v-493q0 -87 -41 -132t-126 -51z" />
    <glyph glyph-name="k" unicode="k" horiz-adv-x="500" 
d="M76 0v705h81v-435h2l225 216h103l-244 -234l265 -252h-103l-246 228h-2v-228h-81z" />
    <glyph glyph-name="l" unicode="l" horiz-adv-x="296" 
d="M225 -9q-74 0 -111.5 43.5t-37.5 126.5v544h81v-538q0 -107 85 -107q25 0 45 6l-2 -68q-31 -7 -60 -7z" />
    <glyph glyph-name="m" unicode="m" horiz-adv-x="856" 
d="M78 0v486h79v-82q22 44 61 67.5t91 23.5q114 0 146 -99q22 46 65 72.5t99 26.5q162 0 162 -192v-303h-81v299q0 67 -23.5 98.5t-77.5 31.5q-59 0 -94 -42t-35 -112v-275h-81v299q0 67 -23.5 98.5t-77.5 31.5q-60 0 -94.5 -42t-34.5 -112v-275h-81z" />
    <glyph glyph-name="n" unicode="n" horiz-adv-x="568" 
d="M76 0v486h79v-83q24 46 68 69t99 23q173 0 173 -192v-303h-81v298q0 68 -26.5 99.5t-84.5 31.5q-67 0 -106.5 -41.5t-39.5 -110.5v-277h-81z" />
    <glyph glyph-name="o" unicode="o" horiz-adv-x="556" 
d="M278 -9q-71 0 -123 31t-80.5 87.5t-28.5 133.5t28.5 133.5t80.5 87.5t123 31q70 0 122.5 -31t81 -87.5t28.5 -133.5t-28.5 -133.5t-81 -87.5t-122.5 -31zM278 56q68 0 109 48.5t41 138.5q0 91 -41 139t-109 48q-69 0 -109.5 -48t-40.5 -139q0 -90 40.5 -138.5
t109.5 -48.5z" />
    <glyph glyph-name="p" unicode="p" horiz-adv-x="583" 
d="M76 -180v666h79v-87q22 45 65.5 70.5t101.5 25.5q65 0 113.5 -30.5t75 -87t26.5 -134.5q0 -77 -26.5 -133.5t-75 -87.5t-113.5 -31q-56 0 -100 25t-65 69v-265h-81zM305 56q68 0 109 48.5t41 138.5q0 91 -41 139t-109 48t-109 -48t-41 -139q0 -90 41 -138.5t109 -48.5z
" />
    <glyph glyph-name="q" unicode="q" horiz-adv-x="583" 
d="M426 -180v265q-21 -43 -64.5 -68.5t-100.5 -25.5q-65 0 -113.5 31t-75 87.5t-26.5 133.5q0 78 26.5 134.5t75 87t113.5 30.5q58 0 102 -26t65 -71v88h79v-666h-81zM278 56q68 0 109 48.5t41 138.5q0 91 -41 139t-109 48q-69 0 -109.5 -48t-40.5 -139q0 -90 40.5 -138.5
t109.5 -48.5z" />
    <glyph glyph-name="r" unicode="r" horiz-adv-x="358" 
d="M76 0v486h79v-87q39 88 160 97l29 3l6 -70l-51 -6q-69 -6 -105 -43.5t-36 -102.5v-277h-82z" />
    <glyph glyph-name="s" unicode="s" horiz-adv-x="481" 
d="M240 -9q-57 0 -108 16t-84 45l26 57q36 -29 79.5 -42.5t88.5 -13.5q57 0 86 21t29 57q0 28 -19 44.5t-60 25.5l-91 20q-124 27 -124 128q0 66 52.5 106t137.5 40q50 0 95.5 -15.5t75.5 -45.5l-27 -57q-29 27 -67.5 41.5t-76.5 14.5q-56 0 -85 -22t-29 -58q0 -56 74 -72
l91 -19q64 -14 97 -44.5t33 -82.5q0 -67 -53 -105.5t-141 -38.5z" />
    <glyph glyph-name="t" unicode="t" horiz-adv-x="350" 
d="M271 -9q-86 0 -129 45.5t-43 131.5v255h-95v63h95v149h81v-149h154v-63h-154v-247q0 -57 24 -86.5t78 -29.5q16 0 32 4t29 8l14 -62q-13 -7 -38 -13t-48 -6z" />
    <glyph glyph-name="u" unicode="u" horiz-adv-x="561" 
d="M248 -9q-175 0 -175 193v302h81v-301q0 -65 26.5 -96t83.5 -31q62 0 101 41.5t39 110.5v276h81v-486h-79v82q-23 -44 -64.5 -67.5t-93.5 -23.5z" />
    <glyph glyph-name="v" unicode="v" horiz-adv-x="515" 
d="M219 0l-209 486h88l161 -394l163 394h83l-210 -486h-76z" />
    <glyph glyph-name="w" unicode="w" horiz-adv-x="841" 
d="M205 0l-181 486h85l137 -391l142 391h69l140 -392l139 392h81l-182 -486h-77l-137 377l-138 -377h-78z" />
    <glyph glyph-name="x" unicode="x" horiz-adv-x="525" 
d="M14 0l202 251l-190 235h96l141 -179l142 179h95l-190 -235l202 -251h-96l-154 193l-152 -193h-96z" />
    <glyph glyph-name="y" unicode="y" horiz-adv-x="514" 
d="M132 -180l83 188l-205 478h88l161 -394l162 394h85l-289 -666h-85z" />
    <glyph glyph-name="z" unicode="z" horiz-adv-x="463" 
d="M55 0v54l278 369h-278v63h368v-54l-278 -369h289v-63h-379z" />
    <glyph glyph-name="braceleft" unicode="{" horiz-adv-x="352" 
d="M247 -180q-49 0 -75 26.5t-26 75.5v227q0 42 -16 60t-54 21l-27 2v62l27 2q38 2 54 20.5t16 59.5v227q0 49 26 75.5t75 26.5h98v-64h-74q-44 0 -44 -45v-228q0 -40 -20 -69t-52 -36q32 -7 52 -36t20 -69v-229q0 -45 44 -45h74v-64h-98z" />
    <glyph glyph-name="bar" unicode="|" horiz-adv-x="265" 
d="M92 -180v885h81v-885h-81z" />
    <glyph glyph-name="braceright" unicode="}" horiz-adv-x="352" 
d="M8 -180v64h74q43 0 43 45v229q0 40 20.5 69t52.5 36q-32 7 -52.5 36t-20.5 69v228q0 45 -43 45h-74v64h98q48 0 74 -26.5t26 -75.5v-227q0 -41 16 -59.5t54 -20.5l27 -2v-62l-27 -2q-38 -2 -54 -20.5t-16 -60.5v-227q0 -49 -26 -75.5t-74 -26.5h-98z" />
    <glyph glyph-name="asciitilde" unicode="~" horiz-adv-x="600" 
d="M415 217q-25 0 -54.5 9.5t-71.5 32.5q-40 22 -62 30t-38 8q-56 0 -82 -64l-51 26q20 47 53 73t77 26q25 0 53 -9t69 -32q38 -20 61.5 -30t41.5 -10q57 0 84 64l49 -26q-40 -98 -129 -98z" />
    <glyph glyph-name="uni00A0" unicode="&#xa0;" horiz-adv-x="257" 
 />
    <glyph glyph-name="exclamdown" unicode="&#xa1;" horiz-adv-x="228" 
d="M63 384v102h102v-102h-102zM64 -180l25 483h50l25 -483h-100z" />
    <glyph glyph-name="cent" unicode="&#xa2;" horiz-adv-x="600" 
d="M284 -115v111q-58 9 -101.5 42.5t-67.5 86.5t-24 119q0 64 24 115.5t67.5 85.5t101.5 44v117h68v-114q44 -4 84.5 -20t65.5 -43l-27 -58q-28 27 -64.5 41t-75.5 14q-74 0 -117.5 -50t-43.5 -132q0 -83 42.5 -133t117.5 -50q39 0 76 14t65 40l27 -57q-26 -26 -66 -43
t-84 -21v-109h-68z" />
    <glyph glyph-name="sterling" unicode="&#xa3;" horiz-adv-x="600" 
d="M48 0v70h98v253h-98v61h98v126q0 96 54 150t162 54q57 0 112 -20.5t92 -57.5l-33 -64q-32 38 -77 55t-95 17q-133 0 -133 -130v-130h180v-61h-180v-253h325v-70h-505z" />
    <glyph glyph-name="currency" unicode="&#xa4;" horiz-adv-x="600" 
d="M78 -26l-43 44l74 75q-23 31 -36.5 70.5t-13.5 81.5q0 43 13 82t37 70l-74 76l43 43l74 -76q30 25 68 39t80 14q41 0 78.5 -13.5t68.5 -37.5l72 75l44 -45l-73 -74q51 -67 51 -153q0 -43 -13.5 -82t-38.5 -71l74 -74l-43 -43l-73 74q-30 -25 -67.5 -38.5t-79.5 -13.5
t-80 14t-69 38zM300 67q46 0 83.5 24t60 64.5t22.5 89.5t-22.5 89.5t-60 64.5t-83.5 24q-47 0 -85 -24t-60.5 -64.5t-22.5 -89.5t22.5 -89.5t60.5 -64.5t85 -24z" />
    <glyph glyph-name="yen" unicode="&#xa5;" horiz-adv-x="600" 
d="M259 0v175h-187v60h187v93h-187v60h151l-228 317h92l213 -300l213 300h92l-227 -317h150v-60h-187v-93h187v-60h-187v-175h-82z" />
    <glyph glyph-name="brokenbar" unicode="&#xa6;" horiz-adv-x="265" 
d="M92 372v333h81v-333h-81zM92 -180v333h81v-333h-81z" />
    <glyph glyph-name="section" unicode="&#xa7;" horiz-adv-x="545" 
d="M248 -189q-64 0 -116 16.5t-84 46.5l27 58q30 -27 77.5 -42.5t96.5 -15.5q60 0 97 29t37 82q0 38 -19.5 65.5t-70.5 51.5l-110 51q-80 38 -110.5 78t-30.5 96q0 36 16.5 70.5t43.5 58.5q-9 14 -14.5 33t-5.5 45q0 56 27.5 96t75.5 61.5t108 21.5q59 0 109 -16t81 -45
l-27 -57q-31 26 -75.5 41t-89.5 15q-56 0 -92.5 -29t-36.5 -83q0 -38 19.5 -65t70.5 -51l110 -52q81 -38 111 -78t30 -95q0 -37 -16 -71t-44 -59q9 -13 14.5 -32.5t5.5 -45.5q0 -56 -28 -96t-76.5 -61.5t-110.5 -21.5zM116 338q0 -36 22.5 -65t83.5 -57l94 -44
q30 -15 51.5 -30t35.5 -30q26 32 26 75q0 36 -22.5 64.5t-83.5 56.5l-94 45q-30 14 -51.5 29.5t-35.5 29.5q-26 -32 -26 -74z" />
    <glyph glyph-name="dieresis" unicode="&#xa8;" horiz-adv-x="500" 
d="M293 609v86h87v-86h-87zM120 609v86h87v-86h-87z" />
    <glyph glyph-name="copyright" unicode="&#xa9;" horiz-adv-x="815" 
d="M408 -9q-77 0 -143 27.5t-115 77t-76.5 115t-27.5 142.5t27.5 142.5t76.5 114.5t115 76.5t143 27.5t142.5 -27.5t114.5 -76.5t76.5 -114.5t27.5 -142.5t-27.5 -142.5t-76.5 -115t-114.5 -77t-142.5 -27.5zM408 35q67 0 124.5 24t100 67.5t66.5 101t24 125.5t-24 125.5
t-66.5 100.5t-100 67t-124.5 24t-125 -24t-100.5 -67t-66.5 -100.5t-24 -125.5t24 -125.5t66.5 -101t100.5 -67.5t125 -24zM421 137q-96 0 -152 59.5t-56 158.5t56 156t152 57q40 0 78.5 -14t64.5 -39l-24 -52q-27 23 -57 34t-59 11q-65 0 -102 -40t-37 -113t37 -115.5
t102 -42.5q29 0 59 11t57 35l24 -53q-26 -24 -65 -38.5t-78 -14.5z" />
    <glyph glyph-name="ordfeminine" unicode="&#xaa;" horiz-adv-x="327" 
d="M136 411q-47 0 -78 25.5t-31 64.5q0 46 41.5 66t113.5 20h52v16q0 66 -72 66q-27 0 -55 -7.5t-51 -21.5l-16 42q25 16 58.5 24t65.5 8q126 0 126 -113v-185h-54v54h-2q-32 -59 -98 -59zM149 453q37 0 61 24.5t24 68.5v5h-50q-100 0 -100 -49q0 -20 15.5 -34.5t49.5 -14.5
z" />
    <glyph glyph-name="guillemotleft" unicode="&#xab;" horiz-adv-x="441" 
d="M157 85l-96 160v41l95 160l58 -24l-78 -157l78 -157zM338 85l-96 160v41l95 160l58 -24l-78 -157l78 -157z" />
    <glyph glyph-name="logicalnot" unicode="&#xac;" horiz-adv-x="600" 
d="M480 149v209h-424v62h488v-271h-64z" />
    <glyph glyph-name="uni00AD" unicode="&#xad;" horiz-adv-x="424" 
d="M72 233v67h280v-67h-280z" />
    <glyph glyph-name="registered" unicode="&#xae;" horiz-adv-x="815" 
d="M408 -9q-77 0 -143 27.5t-115 77t-76.5 115t-27.5 142.5t27.5 142.5t76.5 114.5t115 76.5t143 27.5t142.5 -27.5t114.5 -76.5t76.5 -114.5t27.5 -142.5t-27.5 -142.5t-76.5 -115t-114.5 -77t-142.5 -27.5zM408 35q67 0 124.5 24t100 67.5t66.5 101t24 125.5t-24 125.5
t-66.5 100.5t-100 67t-124.5 24t-125 -24t-100.5 -67t-66.5 -100.5t-24 -125.5t24 -125.5t66.5 -101t100.5 -67.5t125 -24zM264 142v422h171q68 0 104.5 -33t36.5 -89q0 -47 -24 -76t-68 -38q16 -6 28.5 -20t20.5 -38l48 -128h-69l-48 130q-10 25 -28 33.5t-44 8.5h-62v-172
h-66zM330 368h97q84 0 84 71t-84 71h-97v-142z" />
    <glyph glyph-name="macron" unicode="&#xaf;" horiz-adv-x="500" 
d="M102 625v55h296v-55h-296z" />
    <glyph glyph-name="degree" unicode="&#xb0;" horiz-adv-x="371" 
d="M186 418q-43 0 -76.5 19.5t-53 53t-19.5 75.5t19.5 75.5t53 53t76.5 19.5q42 0 75 -19.5t52.5 -53t19.5 -75.5t-19.5 -75.5t-52.5 -53t-75 -19.5zM186 473q39 0 64 26.5t25 66.5q0 41 -25 67t-64 26q-40 0 -65 -26t-25 -67q0 -40 25 -66.5t65 -26.5z" />
    <glyph glyph-name="plusminus" unicode="&#xb1;" horiz-adv-x="600" 
d="M268 127v170h-212v62h212v170h64v-170h212v-62h-212v-170h-64zM56 0v62h488v-62h-488z" />
    <glyph glyph-name="uni00B2" unicode="&#xb2;" horiz-adv-x="380" 
d="M54 282v50l135 146q29 32 41.5 56.5t12.5 50.5q0 65 -70 65q-27 0 -56.5 -12t-51.5 -34l-28 50q26 25 66 40t82 15q60 0 95.5 -31.5t35.5 -85.5q0 -34 -16 -66.5t-50 -68.5l-109 -116h196v-59h-283z" />
    <glyph glyph-name="uni00B3" unicode="&#xb3;" horiz-adv-x="380" 
d="M187 278q-49 0 -88 15t-64 41l28 49q43 -46 118 -46q35 0 58.5 16t23.5 52q0 33 -23.5 47t-62.5 14h-77v59h66q39 0 62 16t23 49q0 28 -20 44t-55 16q-30 0 -59.5 -12t-51.5 -34l-28 50q26 25 65.5 40t83.5 15q61 0 97 -30t36 -79q0 -37 -19 -62.5t-48 -37.5
q35 -10 57 -36t22 -66q0 -57 -41.5 -88.5t-102.5 -31.5z" />
    <glyph glyph-name="acute" unicode="&#xb4;" horiz-adv-x="500" 
d="M221 551l103 202h87l-132 -202h-58z" />
    <glyph glyph-name="uni00B5" unicode="&#xb5;" horiz-adv-x="600" 
d="M95 -180v666h81v-300q0 -65 26 -95.5t82 -30.5q64 0 103 41t39 110v275h81v-486h-79v88q-20 -47 -58.5 -72t-85.5 -25q-37 0 -66 11t-49 40l7 -222h-81z" />
    <glyph glyph-name="paragraph" unicode="&#xb6;" horiz-adv-x="588" 
d="M244 -180v490q-60 0 -105 25.5t-69.5 70t-24.5 102.5q0 57 24.5 101.5t69.5 70t106 25.5h256v-885h-65v823h-127v-823h-65z" />
    <glyph glyph-name="periodcentered" unicode="&#xb7;" horiz-adv-x="228" 
d="M63 215v102h102v-102h-102z" />
    <glyph glyph-name="cedilla" unicode="&#xb8;" horiz-adv-x="500" 
d="M253 -192q-56 0 -89 19l13 44q18 -8 34.5 -12t39.5 -4q26 0 42 9.5t16 27.5q0 28 -38 28q-11 0 -21.5 -2t-25.5 -7l-16 16l14 93h51l-11 -63q10 1 19 1q37 0 60.5 -18t23.5 -50q0 -37 -31 -59.5t-81 -22.5z" />
    <glyph glyph-name="uni00B9" unicode="&#xb9;" horiz-adv-x="380" 
d="M87 282v59h94v285l-79 -49l-31 51l126 77h52v-364h80v-59h-242z" />
    <glyph glyph-name="ordmasculine" unicode="&#xba;" horiz-adv-x="339" 
d="M170 411q-64 0 -105.5 41.5t-41.5 110.5t41.5 110t105.5 41q63 0 104.5 -41t41.5 -110t-41.5 -110.5t-104.5 -41.5zM170 457q40 0 64 27.5t24 78.5t-24 78t-64 27q-41 0 -65 -26.5t-24 -78.5t24 -79t65 -27z" />
    <glyph glyph-name="guillemotright" unicode="&#xbb;" horiz-adv-x="441" 
d="M103 85l-57 23l78 157l-78 157l58 24l95 -160v-41zM284 85l-57 23l78 157l-78 157l58 24l95 -160v-41z" />
    <glyph glyph-name="onequarter" unicode="&#xbc;" horiz-adv-x="893" 
d="M87 282v59h94v285l-79 -49l-31 51l126 77h52v-364h80v-59h-242zM290 -24l-54 32l416 721l54 -32zM741 0v83h-193v50l199 290h61v-281h60v-59h-60v-83h-67zM741 142v181l-124 -181h124z" />
    <glyph glyph-name="onehalf" unicode="&#xbd;" horiz-adv-x="937" 
d="M87 282v59h94v285l-79 -49l-31 51l126 77h52v-364h80v-59h-242zM290 -24l-54 32l416 721l54 -32zM611 0v50l135 146q29 32 41.5 56.5t12.5 50.5q0 65 -70 65q-27 0 -56.5 -12t-51.5 -34l-28 50q26 25 66 40t82 15q60 0 95.5 -31.5t35.5 -85.5q0 -34 -16 -66.5t-50 -68.5
l-109 -116h196v-59h-283z" />
    <glyph glyph-name="threequarters" unicode="&#xbe;" horiz-adv-x="893" 
d="M187 278q-49 0 -88 15t-64 41l28 49q43 -46 118 -46q35 0 58.5 16t23.5 52q0 33 -23.5 47t-62.5 14h-77v59h66q39 0 62 16t23 49q0 28 -20 44t-55 16q-30 0 -59.5 -12t-51.5 -34l-28 50q26 25 65.5 40t83.5 15q61 0 97 -30t36 -79q0 -37 -19 -62.5t-48 -37.5
q35 -10 57 -36t22 -66q0 -57 -41.5 -88.5t-102.5 -31.5zM290 -24l-54 32l416 721l54 -32zM741 0v83h-193v50l199 290h61v-281h60v-59h-60v-83h-67zM741 142v181l-124 -181h124z" />
    <glyph glyph-name="questiondown" unicode="&#xbf;" horiz-adv-x="443" 
d="M185 384v102h101v-102h-101zM216 -189q-86 0 -139 41t-53 108q0 43 19.5 81t71.5 88q48 45 67.5 79.5t24.5 70.5l3 23h51v-27q0 -46 -18.5 -87.5t-66.5 -90.5q-40 -40 -54.5 -68.5t-14.5 -57.5q0 -40 30 -63.5t83 -23.5q55 0 102 18.5t89 54.5l31 -64
q-39 -37 -99.5 -59.5t-126.5 -22.5z" />
    <glyph glyph-name="Agrave" unicode="&#xc0;" horiz-adv-x="729" 
d="M19 0l311 705h70l311 -705h-85l-78 180h-367l-77 -180h-85zM364 609l-153 -360h308l-153 360h-2zM335 765l-147 172h91l118 -172h-62z" />
    <glyph glyph-name="Aacute" unicode="&#xc1;" horiz-adv-x="729" 
d="M19 0l311 705h70l311 -705h-85l-78 180h-367l-77 -180h-85zM364 609l-153 -360h308l-153 360h-2zM335 765l118 172h91l-147 -172h-62z" />
    <glyph glyph-name="Acircumflex" unicode="&#xc2;" horiz-adv-x="729" 
d="M19 0l311 705h70l311 -705h-85l-78 180h-367l-77 -180h-85zM364 609l-153 -360h308l-153 360h-2zM205 765l123 172h76l123 -172h-61l-100 119l-100 -119h-61z" />
    <glyph glyph-name="Atilde" unicode="&#xc3;" horiz-adv-x="729" 
d="M19 0l311 705h70l311 -705h-85l-78 180h-367l-77 -180h-85zM364 609l-153 -360h308l-153 360h-2zM203 783l-46 3q7 64 38.5 98.5t81.5 34.5q24 0 47.5 -10t55.5 -31t48 -28t30 -7q57 0 71 79l46 -3q-6 -64 -38 -98.5t-81 -34.5q-24 0 -48.5 10t-57.5 32q-28 19 -45 26.5
t-31 7.5q-57 0 -71 -79z" />
    <glyph glyph-name="Adieresis" unicode="&#xc4;" horiz-adv-x="729" 
d="M19 0l311 705h70l311 -705h-85l-78 180h-367l-77 -180h-85zM364 609l-153 -360h308l-153 360h-2zM409 806v86h87v-86h-87zM236 806v86h87v-86h-87z" />
    <glyph glyph-name="Aring" unicode="&#xc5;" horiz-adv-x="729" 
d="M19 0l311 705h70l311 -705h-85l-78 180h-367l-77 -180h-85zM364 609l-153 -360h308l-153 360h-2zM366 758q-50 0 -84.5 33.5t-34.5 82.5q0 48 34.5 81.5t84.5 33.5t84.5 -33.5t34.5 -81.5q0 -49 -34.5 -82.5t-84.5 -33.5zM366 801q32 0 52 21t20 52q0 30 -20 51t-52 21
q-31 0 -51.5 -21t-20.5 -51q0 -31 20.5 -52t51.5 -21z" />
    <glyph glyph-name="AE" unicode="&#xc6;" horiz-adv-x="981" 
d="M-16 0l429 705h517v-69h-426l52 -244h354v-69h-340l55 -254h305v-69h-366l-38 180h-346l-107 -180h-89zM433 608l-213 -359h291l-76 359h-2z" />
    <glyph glyph-name="Ccedilla" unicode="&#xc7;" horiz-adv-x="673" 
d="M392 -9q-104 0 -178 44t-113.5 125t-39.5 193q0 111 39.5 192t113.5 125t178 44q73 0 134.5 -23t104.5 -67l-32 -67q-46 43 -95.5 62.5t-109.5 19.5q-119 0 -182 -75t-63 -211q0 -137 63 -212t182 -75q60 0 109.5 19.5t95.5 62.5l32 -67q-43 -43 -104.5 -66.5
t-134.5 -23.5zM388 -192q-56 0 -89 19l13 44q18 -8 34.5 -12t39.5 -4q26 0 42 9.5t16 27.5q0 28 -38 28q-11 0 -21.5 -2t-25.5 -7l-16 16l14 93h51l-11 -63q10 1 19 1q37 0 60.5 -18t23.5 -50q0 -37 -31 -59.5t-81 -22.5z" />
    <glyph glyph-name="Egrave" unicode="&#xc8;" horiz-adv-x="583" 
d="M87 0v705h445v-69h-365v-244h344v-69h-344v-254h365v-69h-445zM293 765l-147 172h91l118 -172h-62z" />
    <glyph glyph-name="Eacute" unicode="&#xc9;" horiz-adv-x="583" 
d="M87 0v705h445v-69h-365v-244h344v-69h-344v-254h365v-69h-445zM293 765l118 172h91l-147 -172h-62z" />
    <glyph glyph-name="Ecircumflex" unicode="&#xca;" horiz-adv-x="583" 
d="M87 0v705h445v-69h-365v-244h344v-69h-344v-254h365v-69h-445zM163 765l123 172h76l123 -172h-61l-100 119l-100 -119h-61z" />
    <glyph glyph-name="Edieresis" unicode="&#xcb;" horiz-adv-x="583" 
d="M87 0v705h445v-69h-365v-244h344v-69h-344v-254h365v-69h-445zM367 806v86h87v-86h-87zM194 806v86h87v-86h-87z" />
    <glyph glyph-name="Igrave" unicode="&#xcc;" horiz-adv-x="256" 
d="M87 0v705h82v-705h-82zM97 765l-147 172h91l118 -172h-62z" />
    <glyph glyph-name="Iacute" unicode="&#xcd;" horiz-adv-x="256" 
d="M87 0v705h82v-705h-82zM97 765l118 172h91l-147 -172h-62z" />
    <glyph glyph-name="Icircumflex" unicode="&#xce;" horiz-adv-x="256" 
d="M87 0v705h82v-705h-82zM-33 765l123 172h76l123 -172h-61l-100 119l-100 -119h-61z" />
    <glyph glyph-name="Idieresis" unicode="&#xcf;" horiz-adv-x="256" 
d="M87 0v705h82v-705h-82zM171 806v86h87v-86h-87zM-2 806v86h87v-86h-87z" />
    <glyph glyph-name="Eth" unicode="&#xd0;" horiz-adv-x="742" 
d="M87 0v705h238q171 0 264 -90.5t93 -261.5t-93 -262t-264 -91h-238zM169 70h150q276 0 276 283q0 282 -276 282h-150v-565zM-1 326v64h366v-64h-366z" />
    <glyph glyph-name="Ntilde" unicode="&#xd1;" horiz-adv-x="740" 
d="M87 0v705h64l425 -567v567h76v-705h-62l-426 569v-569h-77zM207 783l-46 3q7 64 38.5 98.5t81.5 34.5q24 0 47.5 -10t55.5 -31t48 -28t30 -7q57 0 71 79l46 -3q-6 -64 -38 -98.5t-81 -34.5q-24 0 -48.5 10t-57.5 32q-28 19 -45 26.5t-31 7.5q-57 0 -71 -79z" />
    <glyph glyph-name="Ograve" unicode="&#xd2;" horiz-adv-x="767" 
d="M383 -9q-98 0 -170.5 44.5t-112 125.5t-39.5 192t39 192t111.5 125t171.5 44q100 0 172.5 -44t112 -124.5t39.5 -191.5t-40 -192.5t-112.5 -126t-171.5 -44.5zM383 64q113 0 175 76t62 213t-62 212.5t-175 75.5q-111 0 -173 -75.5t-62 -212.5q0 -136 62 -212.5t173 -76.5
zM352 765l-147 172h91l118 -172h-62z" />
    <glyph glyph-name="Oacute" unicode="&#xd3;" horiz-adv-x="767" 
d="M383 -9q-98 0 -170.5 44.5t-112 125.5t-39.5 192t39 192t111.5 125t171.5 44q100 0 172.5 -44t112 -124.5t39.5 -191.5t-40 -192.5t-112.5 -126t-171.5 -44.5zM383 64q113 0 175 76t62 213t-62 212.5t-175 75.5q-111 0 -173 -75.5t-62 -212.5q0 -136 62 -212.5t173 -76.5
zM352 765l118 172h91l-147 -172h-62z" />
    <glyph glyph-name="Ocircumflex" unicode="&#xd4;" horiz-adv-x="767" 
d="M383 -9q-98 0 -170.5 44.5t-112 125.5t-39.5 192t39 192t111.5 125t171.5 44q100 0 172.5 -44t112 -124.5t39.5 -191.5t-40 -192.5t-112.5 -126t-171.5 -44.5zM383 64q113 0 175 76t62 213t-62 212.5t-175 75.5q-111 0 -173 -75.5t-62 -212.5q0 -136 62 -212.5t173 -76.5
zM222 765l123 172h76l123 -172h-61l-100 119l-100 -119h-61z" />
    <glyph glyph-name="Otilde" unicode="&#xd5;" horiz-adv-x="767" 
d="M383 -9q-98 0 -170.5 44.5t-112 125.5t-39.5 192t39 192t111.5 125t171.5 44q100 0 172.5 -44t112 -124.5t39.5 -191.5t-40 -192.5t-112.5 -126t-171.5 -44.5zM383 64q113 0 175 76t62 213t-62 212.5t-175 75.5q-111 0 -173 -75.5t-62 -212.5q0 -136 62 -212.5t173 -76.5
zM220 783l-46 3q7 64 38.5 98.5t81.5 34.5q24 0 47.5 -10t55.5 -31t48 -28t30 -7q57 0 71 79l46 -3q-6 -64 -38 -98.5t-81 -34.5q-24 0 -48.5 10t-57.5 32q-28 19 -45 26.5t-31 7.5q-57 0 -71 -79z" />
    <glyph glyph-name="Odieresis" unicode="&#xd6;" horiz-adv-x="767" 
d="M383 -9q-98 0 -170.5 44.5t-112 125.5t-39.5 192t39 192t111.5 125t171.5 44q100 0 172.5 -44t112 -124.5t39.5 -191.5t-40 -192.5t-112.5 -126t-171.5 -44.5zM383 64q113 0 175 76t62 213t-62 212.5t-175 75.5q-111 0 -173 -75.5t-62 -212.5q0 -136 62 -212.5t173 -76.5
zM426 806v86h87v-86h-87zM253 806v86h87v-86h-87z" />
    <glyph glyph-name="multiply" unicode="&#xd7;" horiz-adv-x="600" 
d="M110 51l-44 43l190 190l-190 190l44 45l190 -190l190 190l44 -45l-190 -190l190 -190l-44 -43l-190 190z" />
    <glyph glyph-name="Oslash" unicode="&#xd8;" horiz-adv-x="767" 
d="M383 -9q-98 0 -170.5 44.5t-112 125.5t-39.5 192t39 192t111.5 125t171.5 44q100 0 172.5 -44t112 -124.5t39.5 -191.5t-40 -192.5t-112.5 -126t-171.5 -44.5zM383 64q113 0 175 76t62 213t-62 212.5t-175 75.5q-111 0 -173 -75.5t-62 -212.5q0 -136 62 -212.5t173 -76.5
zM189 -47l-57 33l54 93l24 40l296 506l19 35l54 92l57 -33l-55 -93l-24 -40l-295 -506l-19 -34z" />
    <glyph glyph-name="Ugrave" unicode="&#xd9;" horiz-adv-x="728" 
d="M365 -9q-139 0 -211 73.5t-72 214.5v426h82v-422q0 -219 201 -219q199 0 199 219v422h82v-426q0 -141 -71.5 -214.5t-209.5 -73.5zM334 765l-147 172h91l118 -172h-62z" />
    <glyph glyph-name="Uacute" unicode="&#xda;" horiz-adv-x="728" 
d="M365 -9q-139 0 -211 73.5t-72 214.5v426h82v-422q0 -219 201 -219q199 0 199 219v422h82v-426q0 -141 -71.5 -214.5t-209.5 -73.5zM334 765l118 172h91l-147 -172h-62z" />
    <glyph glyph-name="Ucircumflex" unicode="&#xdb;" horiz-adv-x="728" 
d="M365 -9q-139 0 -211 73.5t-72 214.5v426h82v-422q0 -219 201 -219q199 0 199 219v422h82v-426q0 -141 -71.5 -214.5t-209.5 -73.5zM204 765l123 172h76l123 -172h-61l-100 119l-100 -119h-61z" />
    <glyph glyph-name="Udieresis" unicode="&#xdc;" horiz-adv-x="728" 
d="M365 -9q-139 0 -211 73.5t-72 214.5v426h82v-422q0 -219 201 -219q199 0 199 219v422h82v-426q0 -141 -71.5 -214.5t-209.5 -73.5zM408 806v86h87v-86h-87zM235 806v86h87v-86h-87z" />
    <glyph glyph-name="Yacute" unicode="&#xdd;" horiz-adv-x="596" 
d="M257 0v334l-270 371h96l217 -299l216 299h93l-270 -373v-332h-82zM267 765l118 172h91l-147 -172h-62z" />
    <glyph glyph-name="Thorn" unicode="&#xde;" horiz-adv-x="634" 
d="M87 0v705h82v-128h198q113 0 174 -55t61 -156t-61 -156.5t-174 -55.5h-198v-154h-82zM169 222h188q163 0 163 144q0 143 -163 143h-188v-287z" />
    <glyph glyph-name="germandbls" unicode="&#xdf;" horiz-adv-x="615" 
d="M403 -9q-51 0 -101 16.5t-83 47.5l27 57q37 -29 79 -43t79 -14q48 0 76.5 21t28.5 58q0 29 -24 48t-83 38q-80 25 -112 56.5t-32 79.5q0 31 16.5 60t61.5 68q31 27 43.5 48.5t12.5 46.5q0 33 -23.5 52.5t-66.5 19.5q-71 0 -108 -42t-37 -119v-490h-81v480q0 111 59 172.5
t166 61.5q80 0 124.5 -35t44.5 -93q0 -38 -17 -68.5t-59 -66.5q-35 -30 -47 -48.5t-12 -38.5q0 -26 23.5 -45t83.5 -38q77 -24 110 -58t33 -87q0 -65 -50 -105t-132 -40z" />
    <glyph glyph-name="agrave" unicode="&#xe0;" horiz-adv-x="530" 
d="M229 -9q-50 0 -89.5 19.5t-62.5 53.5t-23 76q0 53 27.5 84t91 44.5t173.5 13.5h32v31q0 62 -25.5 89.5t-81.5 27.5q-44 0 -85 -12.5t-84 -40.5l-28 59q38 27 92.5 43t104.5 16q94 0 139.5 -46t45.5 -143v-306h-76v84q-19 -43 -58.5 -68t-92.5 -25zM242 52q60 0 98 41.5
t38 105.5v30h-31q-81 0 -127.5 -7.5t-65 -26t-18.5 -50.5q0 -41 28.5 -67t77.5 -26zM243 551l-131 202h86l103 -202h-58z" />
    <glyph glyph-name="aacute" unicode="&#xe1;" horiz-adv-x="530" 
d="M229 -9q-50 0 -89.5 19.5t-62.5 53.5t-23 76q0 53 27.5 84t91 44.5t173.5 13.5h32v31q0 62 -25.5 89.5t-81.5 27.5q-44 0 -85 -12.5t-84 -40.5l-28 59q38 27 92.5 43t104.5 16q94 0 139.5 -46t45.5 -143v-306h-76v84q-19 -43 -58.5 -68t-92.5 -25zM242 52q60 0 98 41.5
t38 105.5v30h-31q-81 0 -127.5 -7.5t-65 -26t-18.5 -50.5q0 -41 28.5 -67t77.5 -26zM243 551l103 202h87l-132 -202h-58z" />
    <glyph glyph-name="acircumflex" unicode="&#xe2;" horiz-adv-x="530" 
d="M229 -9q-50 0 -89.5 19.5t-62.5 53.5t-23 76q0 53 27.5 84t91 44.5t173.5 13.5h32v31q0 62 -25.5 89.5t-81.5 27.5q-44 0 -85 -12.5t-84 -40.5l-28 59q38 27 92.5 43t104.5 16q94 0 139.5 -46t45.5 -143v-306h-76v84q-19 -43 -58.5 -68t-92.5 -25zM242 52q60 0 98 41.5
t38 105.5v30h-31q-81 0 -127.5 -7.5t-65 -26t-18.5 -50.5q0 -41 28.5 -67t77.5 -26zM124 551l109 202h78l109 -202h-56l-92 148l-92 -148h-56z" />
    <glyph glyph-name="atilde" unicode="&#xe3;" horiz-adv-x="530" 
d="M229 -9q-50 0 -89.5 19.5t-62.5 53.5t-23 76q0 53 27.5 84t91 44.5t173.5 13.5h32v31q0 62 -25.5 89.5t-81.5 27.5q-44 0 -85 -12.5t-84 -40.5l-28 59q38 27 92.5 43t104.5 16q94 0 139.5 -46t45.5 -143v-306h-76v84q-19 -43 -58.5 -68t-92.5 -25zM242 52q60 0 98 41.5
t38 105.5v30h-31q-81 0 -127.5 -7.5t-65 -26t-18.5 -50.5q0 -41 28.5 -67t77.5 -26zM138 590l-46 3q5 63 33.5 98t73.5 35q22 0 40.5 -10.5t42.5 -31.5q22 -19 35.5 -26.5t26.5 -7.5q51 0 62 79l46 -3q-5 -63 -33 -98t-73 -35q-21 0 -39.5 9.5t-44.5 32.5q-21 19 -34.5 26.5
t-26.5 7.5q-51 0 -63 -79z" />
    <glyph glyph-name="adieresis" unicode="&#xe4;" horiz-adv-x="530" 
d="M229 -9q-50 0 -89.5 19.5t-62.5 53.5t-23 76q0 53 27.5 84t91 44.5t173.5 13.5h32v31q0 62 -25.5 89.5t-81.5 27.5q-44 0 -85 -12.5t-84 -40.5l-28 59q38 27 92.5 43t104.5 16q94 0 139.5 -46t45.5 -143v-306h-76v84q-19 -43 -58.5 -68t-92.5 -25zM242 52q60 0 98 41.5
t38 105.5v30h-31q-81 0 -127.5 -7.5t-65 -26t-18.5 -50.5q0 -41 28.5 -67t77.5 -26zM315 609v86h87v-86h-87zM142 609v86h87v-86h-87z" />
    <glyph glyph-name="aring" unicode="&#xe5;" horiz-adv-x="530" 
d="M229 -9q-50 0 -89.5 19.5t-62.5 53.5t-23 76q0 53 27.5 84t91 44.5t173.5 13.5h32v31q0 62 -25.5 89.5t-81.5 27.5q-44 0 -85 -12.5t-84 -40.5l-28 59q38 27 92.5 43t104.5 16q94 0 139.5 -46t45.5 -143v-306h-76v84q-19 -43 -58.5 -68t-92.5 -25zM242 52q60 0 98 41.5
t38 105.5v30h-31q-81 0 -127.5 -7.5t-65 -26t-18.5 -50.5q0 -41 28.5 -67t77.5 -26zM272 547q-50 0 -84.5 33.5t-34.5 82.5q0 48 34.5 81.5t84.5 33.5t84.5 -33.5t34.5 -81.5q0 -49 -34.5 -82.5t-84.5 -33.5zM272 590q32 0 52 21t20 52q0 30 -20 51t-52 21q-31 0 -51.5 -21
t-20.5 -51q0 -31 20.5 -52t51.5 -21z" />
    <glyph glyph-name="ae" unicode="&#xe6;" horiz-adv-x="861" 
d="M234 -9q-52 0 -93 19.5t-64 53.5t-23 76q0 53 27.5 84t92 44.5t173.5 13.5h34v30q0 62 -26.5 90t-82.5 28q-44 0 -85.5 -12t-84.5 -40l-28 58q38 27 92.5 43t106.5 16q125 0 163 -92q28 45 74.5 68.5t102.5 23.5q95 0 150.5 -63.5t55.5 -174.5v-29h-359q5 -84 46.5 -128
t119.5 -44q86 0 158 59l27 -58q-33 -31 -83.5 -48.5t-100.5 -17.5q-75 0 -130 31t-82 91q-20 -57 -67 -89.5t-114 -32.5zM612 435q-64 0 -104 -41t-47 -112h289q-3 72 -38 112.5t-100 40.5zM244 52q61 0 99 43t38 109v24h-34q-81 0 -127.5 -7t-65 -25.5t-18.5 -50.5
q0 -41 28.5 -67t79.5 -26z" />
    <glyph glyph-name="ccedilla" unicode="&#xe7;" horiz-adv-x="463" 
d="M282 -9q-73 0 -126 31.5t-81.5 89t-28.5 134.5q0 116 63 182.5t173 66.5q45 0 89 -16t73 -45l-28 -59q-29 28 -63.5 41t-65.5 13q-76 0 -117 -47.5t-41 -136.5q0 -87 41 -137.5t117 -50.5q31 0 65.5 13t63.5 42l28 -59q-29 -29 -73.5 -45.5t-88.5 -16.5zM281 -192
q-56 0 -89 19l13 44q18 -8 34.5 -12t39.5 -4q26 0 42 9.5t16 27.5q0 28 -38 28q-11 0 -21.5 -2t-25.5 -7l-16 16l14 93h51l-11 -63q10 1 19 1q37 0 60.5 -18t23.5 -50q0 -37 -31 -59.5t-81 -22.5z" />
    <glyph glyph-name="egrave" unicode="&#xe8;" horiz-adv-x="532" 
d="M295 -9q-115 0 -182 67.5t-67 183.5q0 75 30 132.5t82.5 89t121.5 31.5q99 0 155 -63.5t56 -174.5v-31h-366q4 -83 48 -126.5t122 -43.5q44 0 84 13.5t76 44.5l28 -57q-33 -31 -84 -48.5t-104 -17.5zM282 435q-69 0 -109 -43t-47 -113h295q-3 74 -38.5 115t-100.5 41z
M251 551l-131 202h86l103 -202h-58z" />
    <glyph glyph-name="eacute" unicode="&#xe9;" horiz-adv-x="532" 
d="M295 -9q-115 0 -182 67.5t-67 183.5q0 75 30 132.5t82.5 89t121.5 31.5q99 0 155 -63.5t56 -174.5v-31h-366q4 -83 48 -126.5t122 -43.5q44 0 84 13.5t76 44.5l28 -57q-33 -31 -84 -48.5t-104 -17.5zM282 435q-69 0 -109 -43t-47 -113h295q-3 74 -38.5 115t-100.5 41z
M251 551l103 202h87l-132 -202h-58z" />
    <glyph glyph-name="ecircumflex" unicode="&#xea;" horiz-adv-x="532" 
d="M295 -9q-115 0 -182 67.5t-67 183.5q0 75 30 132.5t82.5 89t121.5 31.5q99 0 155 -63.5t56 -174.5v-31h-366q4 -83 48 -126.5t122 -43.5q44 0 84 13.5t76 44.5l28 -57q-33 -31 -84 -48.5t-104 -17.5zM282 435q-69 0 -109 -43t-47 -113h295q-3 74 -38.5 115t-100.5 41z
M132 551l109 202h78l109 -202h-56l-92 148l-92 -148h-56z" />
    <glyph glyph-name="edieresis" unicode="&#xeb;" horiz-adv-x="532" 
d="M295 -9q-115 0 -182 67.5t-67 183.5q0 75 30 132.5t82.5 89t121.5 31.5q99 0 155 -63.5t56 -174.5v-31h-366q4 -83 48 -126.5t122 -43.5q44 0 84 13.5t76 44.5l28 -57q-33 -31 -84 -48.5t-104 -17.5zM282 435q-69 0 -109 -43t-47 -113h295q-3 74 -38.5 115t-100.5 41z
M323 609v86h87v-86h-87zM150 609v86h87v-86h-87z" />
    <glyph glyph-name="igrave" unicode="&#xec;" horiz-adv-x="232" 
d="M76 0v486h81v-486h-81zM87 551l-131 202h86l103 -202h-58z" />
    <glyph glyph-name="iacute" unicode="&#xed;" horiz-adv-x="232" 
d="M76 0v486h81v-486h-81zM87 551l103 202h87l-132 -202h-58z" />
    <glyph glyph-name="icircumflex" unicode="&#xee;" horiz-adv-x="232" 
d="M76 0v486h81v-486h-81zM-32 551l109 202h78l109 -202h-56l-92 148l-92 -148h-56z" />
    <glyph glyph-name="idieresis" unicode="&#xef;" horiz-adv-x="232" 
d="M76 0v486h81v-486h-81zM159 609v86h87v-86h-87zM-14 609v86h87v-86h-87z" />
    <glyph glyph-name="eth" unicode="&#xf0;" horiz-adv-x="559" 
d="M276 -9q-69 0 -121 29t-80.5 81t-28.5 122q0 68 28.5 120t79.5 80.5t118 28.5q52 0 92.5 -19t65.5 -60q-12 70 -46.5 124t-87.5 90l-160 -70l-23 51l124 54q-20 10 -43.5 19t-50.5 16l17 55q44 -11 81.5 -26t67.5 -32l133 58l23 -51l-102 -44q73 -58 112 -142t39 -191
q0 -142 -61 -217.5t-177 -75.5zM277 57q70 0 110 44.5t40 121.5q0 76 -39.5 120t-110.5 44q-69 0 -109 -44t-40 -120q0 -79 39.5 -122.5t109.5 -43.5z" />
    <glyph glyph-name="ntilde" unicode="&#xf1;" horiz-adv-x="568" 
d="M76 0v486h79v-83q24 46 68 69t99 23q173 0 173 -192v-303h-81v298q0 68 -26.5 99.5t-84.5 31.5q-67 0 -106.5 -41.5t-39.5 -110.5v-277h-81zM151 590l-46 3q5 63 33.5 98t73.5 35q22 0 40.5 -10.5t42.5 -31.5q22 -19 35.5 -26.5t26.5 -7.5q51 0 62 79l46 -3
q-5 -63 -33 -98t-73 -35q-21 0 -39.5 9.5t-44.5 32.5q-21 19 -34.5 26.5t-26.5 7.5q-51 0 -63 -79z" />
    <glyph glyph-name="ograve" unicode="&#xf2;" horiz-adv-x="556" 
d="M278 -9q-71 0 -123 31t-80.5 87.5t-28.5 133.5t28.5 133.5t80.5 87.5t123 31q70 0 122.5 -31t81 -87.5t28.5 -133.5t-28.5 -133.5t-81 -87.5t-122.5 -31zM278 56q68 0 109 48.5t41 138.5q0 91 -41 139t-109 48q-69 0 -109.5 -48t-40.5 -139q0 -90 40.5 -138.5
t109.5 -48.5zM249 551l-131 202h86l103 -202h-58z" />
    <glyph glyph-name="oacute" unicode="&#xf3;" horiz-adv-x="556" 
d="M278 -9q-71 0 -123 31t-80.5 87.5t-28.5 133.5t28.5 133.5t80.5 87.5t123 31q70 0 122.5 -31t81 -87.5t28.5 -133.5t-28.5 -133.5t-81 -87.5t-122.5 -31zM278 56q68 0 109 48.5t41 138.5q0 91 -41 139t-109 48q-69 0 -109.5 -48t-40.5 -139q0 -90 40.5 -138.5
t109.5 -48.5zM249 551l103 202h87l-132 -202h-58z" />
    <glyph glyph-name="ocircumflex" unicode="&#xf4;" horiz-adv-x="556" 
d="M278 -9q-71 0 -123 31t-80.5 87.5t-28.5 133.5t28.5 133.5t80.5 87.5t123 31q70 0 122.5 -31t81 -87.5t28.5 -133.5t-28.5 -133.5t-81 -87.5t-122.5 -31zM278 56q68 0 109 48.5t41 138.5q0 91 -41 139t-109 48q-69 0 -109.5 -48t-40.5 -139q0 -90 40.5 -138.5
t109.5 -48.5zM130 551l109 202h78l109 -202h-56l-92 148l-92 -148h-56z" />
    <glyph glyph-name="otilde" unicode="&#xf5;" horiz-adv-x="556" 
d="M278 -9q-71 0 -123 31t-80.5 87.5t-28.5 133.5t28.5 133.5t80.5 87.5t123 31q70 0 122.5 -31t81 -87.5t28.5 -133.5t-28.5 -133.5t-81 -87.5t-122.5 -31zM278 56q68 0 109 48.5t41 138.5q0 91 -41 139t-109 48q-69 0 -109.5 -48t-40.5 -139q0 -90 40.5 -138.5
t109.5 -48.5zM144 590l-46 3q5 63 33.5 98t73.5 35q22 0 40.5 -10.5t42.5 -31.5q22 -19 35.5 -26.5t26.5 -7.5q51 0 62 79l46 -3q-5 -63 -33 -98t-73 -35q-21 0 -39.5 9.5t-44.5 32.5q-21 19 -34.5 26.5t-26.5 7.5q-51 0 -63 -79z" />
    <glyph glyph-name="odieresis" unicode="&#xf6;" horiz-adv-x="556" 
d="M278 -9q-71 0 -123 31t-80.5 87.5t-28.5 133.5t28.5 133.5t80.5 87.5t123 31q70 0 122.5 -31t81 -87.5t28.5 -133.5t-28.5 -133.5t-81 -87.5t-122.5 -31zM278 56q68 0 109 48.5t41 138.5q0 91 -41 139t-109 48q-69 0 -109.5 -48t-40.5 -139q0 -90 40.5 -138.5
t109.5 -48.5zM321 609v86h87v-86h-87zM148 609v86h87v-86h-87z" />
    <glyph glyph-name="divide" unicode="&#xf7;" horiz-adv-x="600" 
d="M251 443v86h86v-86h-86zM56 256v62h488v-62h-488zM251 45v86h86v-86h-86z" />
    <glyph glyph-name="oslash" unicode="&#xf8;" horiz-adv-x="556" 
d="M141 -48l-49 28l36 61q-39 33 -60.5 84.5t-21.5 117.5q0 77 28.5 133.5t80.5 87.5t123 31q56 0 102 -20l35 60l49 -29l-36 -61q39 -33 60.5 -84t21.5 -118q0 -77 -28.5 -133.5t-81 -87.5t-122.5 -31q-57 0 -102 21zM128 243q0 -86 38 -135l179 307q-29 15 -67 15
q-69 0 -109.5 -48t-40.5 -139zM278 56q68 0 109 48.5t41 138.5q0 87 -39 136l-179 -308q30 -15 68 -15z" />
    <glyph glyph-name="ugrave" unicode="&#xf9;" horiz-adv-x="561" 
d="M248 -9q-175 0 -175 193v302h81v-301q0 -65 26.5 -96t83.5 -31q62 0 101 41.5t39 110.5v276h81v-486h-79v82q-23 -44 -64.5 -67.5t-93.5 -23.5zM252 552l-131 202h86l103 -202h-58z" />
    <glyph glyph-name="uacute" unicode="&#xfa;" horiz-adv-x="561" 
d="M248 -9q-175 0 -175 193v302h81v-301q0 -65 26.5 -96t83.5 -31q62 0 101 41.5t39 110.5v276h81v-486h-79v82q-23 -44 -64.5 -67.5t-93.5 -23.5zM252 552l103 202h87l-132 -202h-58z" />
    <glyph glyph-name="ucircumflex" unicode="&#xfb;" horiz-adv-x="561" 
d="M248 -9q-175 0 -175 193v302h81v-301q0 -65 26.5 -96t83.5 -31q62 0 101 41.5t39 110.5v276h81v-486h-79v82q-23 -44 -64.5 -67.5t-93.5 -23.5zM133 552l109 202h78l109 -202h-56l-92 148l-92 -148h-56z" />
    <glyph glyph-name="udieresis" unicode="&#xfc;" horiz-adv-x="561" 
d="M248 -9q-175 0 -175 193v302h81v-301q0 -65 26.5 -96t83.5 -31q62 0 101 41.5t39 110.5v276h81v-486h-79v82q-23 -44 -64.5 -67.5t-93.5 -23.5zM324 610v86h87v-86h-87zM151 610v86h87v-86h-87z" />
    <glyph glyph-name="yacute" unicode="&#xfd;" horiz-adv-x="514" 
d="M132 -180l83 188l-205 478h88l161 -394l162 394h85l-289 -666h-85zM229 551l103 202h87l-132 -202h-58z" />
    <glyph glyph-name="thorn" unicode="&#xfe;" horiz-adv-x="583" 
d="M76 -180v885h81v-303q21 43 64.5 68t100.5 25q65 0 113.5 -30.5t75 -87t26.5 -134.5q0 -77 -26.5 -133.5t-75 -87.5t-113.5 -31q-56 0 -100 25t-65 69v-265h-81zM305 56q68 0 109 48.5t41 138.5q0 91 -41 139t-109 48t-109 -48t-41 -139q0 -90 41 -138.5t109 -48.5z" />
    <glyph glyph-name="ydieresis" unicode="&#xff;" horiz-adv-x="514" 
d="M132 -180l83 188l-205 478h88l161 -394l162 394h85l-289 -666h-85zM301 609v86h87v-86h-87zM128 609v86h87v-86h-87z" />
    <glyph glyph-name="Amacron" unicode="&#x100;" horiz-adv-x="729" 
d="M19 0l311 705h70l311 -705h-85l-78 180h-367l-77 -180h-85zM364 609l-153 -360h308l-153 360h-2zM203 814v55h326v-55h-326z" />
    <glyph glyph-name="amacron" unicode="&#x101;" horiz-adv-x="530" 
d="M229 -9q-50 0 -89.5 19.5t-62.5 53.5t-23 76q0 53 27.5 84t91 44.5t173.5 13.5h32v31q0 62 -25.5 89.5t-81.5 27.5q-44 0 -85 -12.5t-84 -40.5l-28 59q38 27 92.5 43t104.5 16q94 0 139.5 -46t45.5 -143v-306h-76v84q-19 -43 -58.5 -68t-92.5 -25zM242 52q60 0 98 41.5
t38 105.5v30h-31q-81 0 -127.5 -7.5t-65 -26t-18.5 -50.5q0 -41 28.5 -67t77.5 -26zM124 625v55h296v-55h-296z" />
    <glyph glyph-name="Abreve" unicode="&#x102;" horiz-adv-x="729" 
d="M19 0l311 705h70l311 -705h-85l-78 180h-367l-77 -180h-85zM364 609l-153 -360h308l-153 360h-2zM366 760q-70 0 -116.5 45t-52.5 123l51 7q5 -58 36 -89.5t82 -31.5t82.5 31.5t35.5 89.5l51 -7q-6 -78 -52.5 -123t-116.5 -45z" />
    <glyph glyph-name="abreve" unicode="&#x103;" horiz-adv-x="530" 
d="M229 -9q-50 0 -89.5 19.5t-62.5 53.5t-23 76q0 53 27.5 84t91 44.5t173.5 13.5h32v31q0 62 -25.5 89.5t-81.5 27.5q-44 0 -85 -12.5t-84 -40.5l-28 59q38 27 92.5 43t104.5 16q94 0 139.5 -46t45.5 -143v-306h-76v84q-19 -43 -58.5 -68t-92.5 -25zM242 52q60 0 98 41.5
t38 105.5v30h-31q-81 0 -127.5 -7.5t-65 -26t-18.5 -50.5q0 -41 28.5 -67t77.5 -26zM272 549q-67 0 -108.5 50.5t-45.5 139.5l51 5q3 -67 30 -103.5t73 -36.5t73 36.5t30 103.5l51 -5q-4 -89 -45 -139.5t-109 -50.5z" />
    <glyph glyph-name="Aogonek" unicode="&#x104;" horiz-adv-x="729" 
d="M19 0l311 705h70l311 -705h-85l-78 180h-367l-77 -180h-85zM364 609l-153 -360h308l-153 360h-2zM673 -192q-48 0 -76.5 26t-28.5 71q0 40 25.5 75t69.5 56l29 -36q-24 -10 -45 -32.5t-21 -53.5q0 -29 16.5 -42.5t41.5 -13.5t53 12l14 -45q-30 -17 -78 -17z" />
    <glyph glyph-name="aogonek" unicode="&#x105;" horiz-adv-x="530" 
d="M229 -9q-50 0 -89.5 19.5t-62.5 53.5t-23 76q0 53 27.5 84t91 44.5t173.5 13.5h32v31q0 62 -25.5 89.5t-81.5 27.5q-44 0 -85 -12.5t-84 -40.5l-28 59q38 27 92.5 43t104.5 16q94 0 139.5 -46t45.5 -143v-306h-76v84q-19 -43 -58.5 -68t-92.5 -25zM242 52q60 0 98 41.5
t38 105.5v30h-31q-81 0 -127.5 -7.5t-65 -26t-18.5 -50.5q0 -41 28.5 -67t77.5 -26zM421 -192q-48 0 -76.5 26t-28.5 71q0 40 25.5 75t69.5 56l29 -36q-24 -10 -45 -32.5t-21 -53.5q0 -29 16.5 -42.5t41.5 -13.5t53 12l14 -45q-30 -17 -78 -17z" />
    <glyph glyph-name="Cacute" unicode="&#x106;" horiz-adv-x="673" 
d="M392 -9q-104 0 -178 44t-113.5 125t-39.5 193q0 111 39.5 192t113.5 125t178 44q73 0 134.5 -23t104.5 -67l-32 -67q-46 43 -95.5 62.5t-109.5 19.5q-119 0 -182 -75t-63 -211q0 -137 63 -212t182 -75q60 0 109.5 19.5t95.5 62.5l32 -67q-43 -43 -104.5 -66.5
t-134.5 -23.5zM356 765l118 172h91l-147 -172h-62z" />
    <glyph glyph-name="cacute" unicode="&#x107;" horiz-adv-x="463" 
d="M282 -9q-73 0 -126 31.5t-81.5 89t-28.5 134.5q0 116 63 182.5t173 66.5q45 0 89 -16t73 -45l-28 -59q-29 28 -63.5 41t-65.5 13q-76 0 -117 -47.5t-41 -136.5q0 -87 41 -137.5t117 -50.5q31 0 65.5 13t63.5 42l28 -59q-29 -29 -73.5 -45.5t-88.5 -16.5zM249 551l103 202
h87l-132 -202h-58z" />
    <glyph glyph-name="Ccircumflex" unicode="&#x108;" horiz-adv-x="673" 
d="M392 -9q-104 0 -178 44t-113.5 125t-39.5 193q0 111 39.5 192t113.5 125t178 44q73 0 134.5 -23t104.5 -67l-32 -67q-46 43 -95.5 62.5t-109.5 19.5q-119 0 -182 -75t-63 -211q0 -137 63 -212t182 -75q60 0 109.5 19.5t95.5 62.5l32 -67q-43 -43 -104.5 -66.5
t-134.5 -23.5zM226 765l123 172h76l123 -172h-61l-100 119l-100 -119h-61z" />
    <glyph glyph-name="ccircumflex" unicode="&#x109;" horiz-adv-x="463" 
d="M282 -9q-73 0 -126 31.5t-81.5 89t-28.5 134.5q0 116 63 182.5t173 66.5q45 0 89 -16t73 -45l-28 -59q-29 28 -63.5 41t-65.5 13q-76 0 -117 -47.5t-41 -136.5q0 -87 41 -137.5t117 -50.5q31 0 65.5 13t63.5 42l28 -59q-29 -29 -73.5 -45.5t-88.5 -16.5zM130 551l109 202
h78l109 -202h-56l-92 148l-92 -148h-56z" />
    <glyph glyph-name="Cdotaccent" unicode="&#x10a;" horiz-adv-x="673" 
d="M392 -9q-104 0 -178 44t-113.5 125t-39.5 193q0 111 39.5 192t113.5 125t178 44q73 0 134.5 -23t104.5 -67l-32 -67q-46 43 -95.5 62.5t-109.5 19.5q-119 0 -182 -75t-63 -211q0 -137 63 -212t182 -75q60 0 109.5 19.5t95.5 62.5l32 -67q-43 -43 -104.5 -66.5
t-134.5 -23.5zM342 807v88h90v-88h-90z" />
    <glyph glyph-name="cdotaccent" unicode="&#x10b;" horiz-adv-x="463" 
d="M282 -9q-73 0 -126 31.5t-81.5 89t-28.5 134.5q0 116 63 182.5t173 66.5q45 0 89 -16t73 -45l-28 -59q-29 28 -63.5 41t-65.5 13q-76 0 -117 -47.5t-41 -136.5q0 -87 41 -137.5t117 -50.5q31 0 65.5 13t63.5 42l28 -59q-29 -29 -73.5 -45.5t-88.5 -16.5zM232 609v88h92
v-88h-92z" />
    <glyph glyph-name="Ccaron" unicode="&#x10c;" horiz-adv-x="673" 
d="M392 -9q-104 0 -178 44t-113.5 125t-39.5 193q0 111 39.5 192t113.5 125t178 44q73 0 134.5 -23t104.5 -67l-32 -67q-46 43 -95.5 62.5t-109.5 19.5q-119 0 -182 -75t-63 -211q0 -137 63 -212t182 -75q60 0 109.5 19.5t95.5 62.5l32 -67q-43 -43 -104.5 -66.5
t-134.5 -23.5zM349 765l-123 172h61l100 -119l100 119h61l-123 -172h-76z" />
    <glyph glyph-name="ccaron" unicode="&#x10d;" horiz-adv-x="463" 
d="M282 -9q-73 0 -126 31.5t-81.5 89t-28.5 134.5q0 116 63 182.5t173 66.5q45 0 89 -16t73 -45l-28 -59q-29 28 -63.5 41t-65.5 13q-76 0 -117 -47.5t-41 -136.5q0 -87 41 -137.5t117 -50.5q31 0 65.5 13t63.5 42l28 -59q-29 -29 -73.5 -45.5t-88.5 -16.5zM239 551
l-109 202h56l92 -148l92 148h56l-109 -202h-78z" />
    <glyph glyph-name="Dcaron" unicode="&#x10e;" horiz-adv-x="742" 
d="M87 0v705h238q171 0 264 -90.5t93 -261.5t-93 -262t-264 -91h-238zM169 70h150q276 0 276 283q0 282 -276 282h-150v-565zM332 765l-123 172h61l100 -119l100 119h61l-123 -172h-76z" />
    <glyph glyph-name="dcaron" unicode="&#x10f;" horiz-adv-x="583" 
d="M261 -9q-65 0 -113.5 31t-75 87.5t-26.5 133.5q0 78 26.5 134.5t75 87t113.5 30.5q57 0 100.5 -25t64.5 -69v304h81v-705h-79v89q-21 -46 -65 -72t-102 -26zM278 56q68 0 109 48.5t41 138.5q0 91 -41 139t-109 48q-69 0 -109.5 -48t-40.5 -139q0 -90 40.5 -138.5
t109.5 -48.5zM553 515v190h65l-23 -190h-42z" />
    <glyph glyph-name="Dcroat" unicode="&#x110;" horiz-adv-x="742" 
d="M87 0v705h238q171 0 264 -90.5t93 -261.5t-93 -262t-264 -91h-238zM169 70h150q276 0 276 283q0 282 -276 282h-150v-565zM-1 326v64h366v-64h-366z" />
    <glyph glyph-name="dcroat" unicode="&#x111;" horiz-adv-x="583" 
d="M261 -9q-64 0 -112.5 31t-75.5 87.5t-27 133.5q0 78 27 134.5t75 87t113 30.5q57 0 100.5 -25t65.5 -69v153h-193v60h193v91h81v-91h91v-60h-91v-554h-81v87q-21 -45 -65 -70.5t-101 -25.5zM278 56q69 0 109.5 48.5t40.5 138.5q0 91 -40.5 139t-109.5 48q-68 0 -109 -48
t-41 -139q0 -90 41 -138.5t109 -48.5z" />
    <glyph glyph-name="Emacron" unicode="&#x112;" horiz-adv-x="583" 
d="M87 0v705h445v-69h-365v-244h344v-69h-344v-254h365v-69h-445zM161 814v55h326v-55h-326z" />
    <glyph glyph-name="emacron" unicode="&#x113;" horiz-adv-x="532" 
d="M295 -9q-115 0 -182 67.5t-67 183.5q0 75 30 132.5t82.5 89t121.5 31.5q99 0 155 -63.5t56 -174.5v-31h-366q4 -83 48 -126.5t122 -43.5q44 0 84 13.5t76 44.5l28 -57q-33 -31 -84 -48.5t-104 -17.5zM282 435q-69 0 -109 -43t-47 -113h295q-3 74 -38.5 115t-100.5 41z
M132 625v55h296v-55h-296z" />
    <glyph glyph-name="Ebreve" unicode="&#x114;" horiz-adv-x="583" 
d="M87 0v705h445v-69h-365v-244h344v-69h-344v-254h365v-69h-445zM324 760q-70 0 -116.5 45t-52.5 123l51 7q5 -58 36 -89.5t82 -31.5t82.5 31.5t35.5 89.5l51 -7q-6 -78 -52.5 -123t-116.5 -45z" />
    <glyph glyph-name="ebreve" unicode="&#x115;" horiz-adv-x="532" 
d="M295 -9q-115 0 -182 67.5t-67 183.5q0 75 30 132.5t82.5 89t121.5 31.5q99 0 155 -63.5t56 -174.5v-31h-366q4 -83 48 -126.5t122 -43.5q44 0 84 13.5t76 44.5l28 -57q-33 -31 -84 -48.5t-104 -17.5zM282 435q-69 0 -109 -43t-47 -113h295q-3 74 -38.5 115t-100.5 41z
M280 549q-67 0 -108.5 50.5t-45.5 139.5l51 5q3 -67 30 -103.5t73 -36.5t73 36.5t30 103.5l51 -5q-4 -89 -45 -139.5t-109 -50.5z" />
    <glyph glyph-name="Edotaccent" unicode="&#x116;" horiz-adv-x="583" 
d="M87 0v705h445v-69h-365v-244h344v-69h-344v-254h365v-69h-445zM279 807v88h90v-88h-90z" />
    <glyph glyph-name="edotaccent" unicode="&#x117;" horiz-adv-x="532" 
d="M295 -9q-115 0 -182 67.5t-67 183.5q0 75 30 132.5t82.5 89t121.5 31.5q99 0 155 -63.5t56 -174.5v-31h-366q4 -83 48 -126.5t122 -43.5q44 0 84 13.5t76 44.5l28 -57q-33 -31 -84 -48.5t-104 -17.5zM282 435q-69 0 -109 -43t-47 -113h295q-3 74 -38.5 115t-100.5 41z
M234 609v88h92v-88h-92z" />
    <glyph glyph-name="Eogonek" unicode="&#x118;" horiz-adv-x="583" 
d="M87 0v705h445v-69h-365v-244h344v-69h-344v-254h365v-69h-445zM475 -192q-48 0 -76.5 26t-28.5 71q0 40 25.5 75t69.5 56l29 -36q-24 -10 -45 -32.5t-21 -53.5q0 -29 16.5 -42.5t41.5 -13.5t53 12l14 -45q-30 -17 -78 -17z" />
    <glyph glyph-name="eogonek" unicode="&#x119;" horiz-adv-x="532" 
d="M295 -9q-115 0 -182 67.5t-67 183.5q0 75 30 132.5t82.5 89t121.5 31.5q99 0 155 -63.5t56 -174.5v-31h-366q4 -83 48 -126.5t122 -43.5q44 0 84 13.5t76 44.5l28 -57q-33 -31 -84 -48.5t-104 -17.5zM282 435q-69 0 -109 -43t-47 -113h295q-3 74 -38.5 115t-100.5 41z
M337 -192q-48 0 -76.5 26t-28.5 71q0 40 25.5 75t69.5 56l29 -36q-24 -10 -45 -32.5t-21 -53.5q0 -29 16.5 -42.5t41.5 -13.5t53 12l14 -45q-30 -17 -78 -17z" />
    <glyph glyph-name="Ecaron" unicode="&#x11a;" horiz-adv-x="583" 
d="M87 0v705h445v-69h-365v-244h344v-69h-344v-254h365v-69h-445zM286 765l-123 172h61l100 -119l100 119h61l-123 -172h-76z" />
    <glyph glyph-name="ecaron" unicode="&#x11b;" horiz-adv-x="532" 
d="M295 -9q-115 0 -182 67.5t-67 183.5q0 75 30 132.5t82.5 89t121.5 31.5q99 0 155 -63.5t56 -174.5v-31h-366q4 -83 48 -126.5t122 -43.5q44 0 84 13.5t76 44.5l28 -57q-33 -31 -84 -48.5t-104 -17.5zM282 435q-69 0 -109 -43t-47 -113h295q-3 74 -38.5 115t-100.5 41z
M241 551l-109 202h56l92 -148l92 148h56l-109 -202h-78z" />
    <glyph glyph-name="Gcircumflex" unicode="&#x11c;" horiz-adv-x="726" 
d="M409 -9q-170 0 -259 96t-89 265q0 112 40 193t115 125t181 44q75 0 138 -22.5t107 -65.5l-32 -66q-48 42 -99 61t-115 19q-120 0 -184 -75.5t-64 -212.5q0 -140 66 -214t197 -74q85 0 163 29v209h-179v65h250v-326q-28 -15 -67.5 -26t-83.5 -17.5t-85 -6.5zM230 765
l123 172h76l123 -172h-61l-100 119l-100 -119h-61z" />
    <glyph glyph-name="gcircumflex" unicode="&#x11d;" horiz-adv-x="586" 
d="M291 -189q-63 0 -118.5 16.5t-98.5 49.5l27 59q45 -32 89.5 -46t96.5 -14q144 0 144 148v86q-21 -46 -65.5 -72.5t-101.5 -26.5q-67 0 -116 31t-75.5 85.5t-26.5 126.5t26.5 126.5t75.5 84.5t116 30q57 0 101.5 -26t65.5 -71v88h79v-451q0 -112 -55.5 -168t-163.5 -56z
M279 77q70 0 111 48t41 129t-41 128.5t-111 47.5q-69 0 -110 -47.5t-41 -128.5t41 -129t110 -48zM147 551l109 202h78l109 -202h-56l-92 148l-92 -148h-56z" />
    <glyph glyph-name="Gbreve" unicode="&#x11e;" horiz-adv-x="726" 
d="M409 -9q-170 0 -259 96t-89 265q0 112 40 193t115 125t181 44q75 0 138 -22.5t107 -65.5l-32 -66q-48 42 -99 61t-115 19q-120 0 -184 -75.5t-64 -212.5q0 -140 66 -214t197 -74q85 0 163 29v209h-179v65h250v-326q-28 -15 -67.5 -26t-83.5 -17.5t-85 -6.5zM391 760
q-70 0 -116.5 45t-52.5 123l51 7q5 -58 36 -89.5t82 -31.5t82.5 31.5t35.5 89.5l51 -7q-6 -78 -52.5 -123t-116.5 -45z" />
    <glyph glyph-name="gbreve" unicode="&#x11f;" horiz-adv-x="586" 
d="M291 -189q-63 0 -118.5 16.5t-98.5 49.5l27 59q45 -32 89.5 -46t96.5 -14q144 0 144 148v86q-21 -46 -65.5 -72.5t-101.5 -26.5q-67 0 -116 31t-75.5 85.5t-26.5 126.5t26.5 126.5t75.5 84.5t116 30q57 0 101.5 -26t65.5 -71v88h79v-451q0 -112 -55.5 -168t-163.5 -56z
M279 77q70 0 111 48t41 129t-41 128.5t-111 47.5q-69 0 -110 -47.5t-41 -128.5t41 -129t110 -48zM295 549q-67 0 -108.5 50.5t-45.5 139.5l51 5q3 -67 30 -103.5t73 -36.5t73 36.5t30 103.5l51 -5q-4 -89 -45 -139.5t-109 -50.5z" />
    <glyph glyph-name="Gdotaccent" unicode="&#x120;" horiz-adv-x="726" 
d="M409 -9q-170 0 -259 96t-89 265q0 112 40 193t115 125t181 44q75 0 138 -22.5t107 -65.5l-32 -66q-48 42 -99 61t-115 19q-120 0 -184 -75.5t-64 -212.5q0 -140 66 -214t197 -74q85 0 163 29v209h-179v65h250v-326q-28 -15 -67.5 -26t-83.5 -17.5t-85 -6.5zM346 807v88
h90v-88h-90z" />
    <glyph glyph-name="gdotaccent" unicode="&#x121;" horiz-adv-x="586" 
d="M291 -189q-63 0 -118.5 16.5t-98.5 49.5l27 59q45 -32 89.5 -46t96.5 -14q144 0 144 148v86q-21 -46 -65.5 -72.5t-101.5 -26.5q-67 0 -116 31t-75.5 85.5t-26.5 126.5t26.5 126.5t75.5 84.5t116 30q57 0 101.5 -26t65.5 -71v88h79v-451q0 -112 -55.5 -168t-163.5 -56z
M279 77q70 0 111 48t41 129t-41 128.5t-111 47.5q-69 0 -110 -47.5t-41 -128.5t41 -129t110 -48zM249 609v88h92v-88h-92z" />
    <glyph glyph-name="uni0122" unicode="&#x122;" horiz-adv-x="726" 
d="M409 -9q-170 0 -259 96t-89 265q0 112 40 193t115 125t181 44q75 0 138 -22.5t107 -65.5l-32 -66q-48 42 -99 61t-115 19q-120 0 -184 -75.5t-64 -212.5q0 -140 66 -214t197 -74q85 0 163 29v209h-179v65h250v-326q-28 -15 -67.5 -26t-83.5 -17.5t-85 -6.5zM395 -268
l-35 26q19 21 27.5 40t9.5 40h-48v82h98v-60q0 -37 -12.5 -69.5t-39.5 -58.5z" />
    <glyph glyph-name="uni0123" unicode="&#x123;" horiz-adv-x="586" 
d="M291 -189q-63 0 -118.5 16.5t-98.5 49.5l27 59q45 -32 89.5 -46t96.5 -14q144 0 144 148v86q-21 -46 -65.5 -72.5t-101.5 -26.5q-67 0 -116 31t-75.5 85.5t-26.5 126.5t26.5 126.5t75.5 84.5t116 30q57 0 101.5 -26t65.5 -71v88h79v-451q0 -112 -55.5 -168t-163.5 -56z
M279 77q70 0 111 48t41 129t-41 128.5t-111 47.5q-69 0 -110 -47.5t-41 -128.5t41 -129t110 -48zM246 567v60q0 38 12.5 70t39.5 58l35 -25q-19 -22 -27.5 -41t-9.5 -39h48v-83h-98z" />
    <glyph glyph-name="Hcircumflex" unicode="&#x124;" horiz-adv-x="761" 
d="M87 0v705h82v-312h423v312h82v-705h-82v322h-423v-322h-82zM219 765l123 172h76l123 -172h-61l-100 119l-100 -119h-61z" />
    <glyph glyph-name="hcircumflex" unicode="&#x125;" horiz-adv-x="568" 
d="M76 0v705h81v-299q24 44 67.5 66.5t97.5 22.5q173 0 173 -192v-303h-81v298q0 68 -26.5 99.5t-84.5 31.5q-67 0 -106.5 -41.5t-39.5 -110.5v-277h-81zM125 765l123 172h76l123 -172h-61l-100 119l-100 -119h-61z" />
    <glyph glyph-name="Hbar" unicode="&#x126;" horiz-adv-x="798" 
d="M105 0v519h-90v65h90v121h83v-121h422v121h83v-121h90v-65h-90v-519h-83v317h-422v-317h-83zM188 388h422v131h-422v-131z" />
    <glyph glyph-name="hbar" unicode="&#x127;" horiz-adv-x="568" 
d="M76 0v554h-92v60h92v91h81v-91h193v-60h-193v-148q24 44 67.5 66.5t97.5 22.5q173 0 173 -192v-303h-81v298q0 68 -26.5 99.5t-84.5 31.5q-67 0 -106.5 -41.5t-39.5 -110.5v-277h-81z" />
    <glyph glyph-name="Itilde" unicode="&#x128;" horiz-adv-x="256" 
d="M87 0v705h82v-705h-82zM-35 783l-46 3q7 64 38.5 98.5t81.5 34.5q24 0 47.5 -10t55.5 -31t48 -28t30 -7q57 0 71 79l46 -3q-6 -64 -38 -98.5t-81 -34.5q-24 0 -48.5 10t-57.5 32q-28 19 -45 26.5t-31 7.5q-57 0 -71 -79z" />
    <glyph glyph-name="itilde" unicode="&#x129;" horiz-adv-x="232" 
d="M76 0v486h81v-486h-81zM-18 590l-46 3q5 63 33.5 98t73.5 35q22 0 40.5 -10.5t42.5 -31.5q22 -19 35.5 -26.5t26.5 -7.5q51 0 62 79l46 -3q-5 -63 -33 -98t-73 -35q-21 0 -39.5 9.5t-44.5 32.5q-21 19 -34.5 26.5t-26.5 7.5q-51 0 -63 -79z" />
    <glyph glyph-name="Imacron" unicode="&#x12a;" horiz-adv-x="256" 
d="M87 0v705h82v-705h-82zM-35 814v55h326v-55h-326z" />
    <glyph glyph-name="imacron" unicode="&#x12b;" horiz-adv-x="232" 
d="M76 0v486h81v-486h-81zM-32 625v55h296v-55h-296z" />
    <glyph glyph-name="Ibreve" unicode="&#x12c;" horiz-adv-x="256" 
d="M87 0v705h82v-705h-82zM128 760q-70 0 -116.5 45t-52.5 123l51 7q5 -58 36 -89.5t82 -31.5t82.5 31.5t35.5 89.5l51 -7q-6 -78 -52.5 -123t-116.5 -45z" />
    <glyph glyph-name="ibreve" unicode="&#x12d;" horiz-adv-x="232" 
d="M76 0v486h81v-486h-81zM116 549q-67 0 -108.5 50.5t-45.5 139.5l51 5q3 -67 30 -103.5t73 -36.5t73 36.5t30 103.5l51 -5q-4 -89 -45 -139.5t-109 -50.5z" />
    <glyph glyph-name="Iogonek" unicode="&#x12e;" horiz-adv-x="256" 
d="M87 0v705h82v-705h-82zM138 -192q-48 0 -76.5 26t-28.5 71q0 40 25.5 75t69.5 56l29 -36q-24 -10 -45 -32.5t-21 -53.5q0 -29 16.5 -42.5t41.5 -13.5t53 12l14 -45q-30 -17 -78 -17z" />
    <glyph glyph-name="iogonek" unicode="&#x12f;" horiz-adv-x="232" 
d="M76 0v486h81v-486h-81zM66 607v91h100v-91h-100zM125 -192q-48 0 -76.5 26t-28.5 71q0 40 25.5 75t69.5 56l29 -36q-24 -10 -45 -32.5t-21 -53.5q0 -29 16.5 -42.5t41.5 -13.5t53 12l14 -45q-30 -17 -78 -17z" />
    <glyph glyph-name="Idotaccent" unicode="&#x130;" horiz-adv-x="256" 
d="M87 0v705h82v-705h-82zM83 807v88h90v-88h-90z" />
    <glyph glyph-name="dotlessi" unicode="&#x131;" horiz-adv-x="232" 
d="M76 0v486h81v-486h-81z" />
    <glyph glyph-name="IJ" unicode="&#x132;" horiz-adv-x="580" 
d="M87 0v705h82v-705h-82zM252 -7l-6 69l60 4q51 4 78 35.5t27 86.5v517h82v-518q0 -87 -45 -135.5t-131 -54.5z" />
    <glyph glyph-name="Jcircumflex" unicode="&#x134;" horiz-adv-x="324" 
d="M-4 -7l-6 69l60 4q51 4 78 35.5t27 86.5v517h82v-518q0 -87 -45 -135.5t-131 -54.5zM35 765l123 172h76l123 -172h-61l-100 119l-100 -119h-61z" />
    <glyph glyph-name="jcircumflex" unicode="&#x135;" horiz-adv-x="236" 
d="M-50 -193l-6 63l43 4q92 8 92 111v501h81v-493q0 -87 -41 -132t-126 -51zM-29 551l109 202h78l109 -202h-56l-92 148l-92 -148h-56z" />
    <glyph glyph-name="uni0136" unicode="&#x136;" horiz-adv-x="625" 
d="M87 0v705h82v-320h2l342 320h105l-368 -343l390 -362h-108l-361 332h-2v-332h-82zM313 -268l-35 26q19 21 27.5 40t9.5 40h-48v82h98v-60q0 -37 -12.5 -69.5t-39.5 -58.5z" />
    <glyph glyph-name="uni0137" unicode="&#x137;" horiz-adv-x="500" 
d="M76 0v705h81v-435h2l225 216h103l-244 -234l265 -252h-103l-246 228h-2v-228h-81zM247 -268l-35 26q19 21 27.5 40t9.5 40h-48v82h98v-60q0 -37 -12.5 -69.5t-39.5 -58.5z" />
    <glyph glyph-name="kgreenlandic" unicode="&#x138;" horiz-adv-x="500" 
d="M76 0v486h81v-216h2l225 216h103l-244 -234l265 -252h-103l-246 228h-2v-228h-81z" />
    <glyph glyph-name="Lacute" unicode="&#x139;" horiz-adv-x="543" 
d="M87 0v705h82v-633h359v-72h-441zM97 765l118 172h91l-147 -172h-62z" />
    <glyph glyph-name="lacute" unicode="&#x13a;" horiz-adv-x="296" 
d="M225 -9q-74 0 -111.5 43.5t-37.5 126.5v544h81v-538q0 -107 85 -107q25 0 45 6l-2 -68q-31 -7 -60 -7zM85 765l118 172h91l-147 -172h-62z" />
    <glyph glyph-name="uni013B" unicode="&#x13b;" horiz-adv-x="543" 
d="M87 0v705h82v-633h359v-72h-441zM304 -268l-35 26q19 21 27.5 40t9.5 40h-48v82h98v-60q0 -37 -12.5 -69.5t-39.5 -58.5z" />
    <glyph glyph-name="uni013C" unicode="&#x13c;" horiz-adv-x="296" 
d="M225 -9q-74 0 -111.5 43.5t-37.5 126.5v544h81v-538q0 -107 85 -107q25 0 45 6l-2 -68q-31 -7 -60 -7zM183 -268l-35 26q19 21 27.5 40t9.5 40h-48v82h98v-60q0 -37 -12.5 -69.5t-39.5 -58.5z" />
    <glyph glyph-name="Lcaron" unicode="&#x13d;" horiz-adv-x="543" 
d="M87 0v705h82v-633h359v-72h-441zM284 480v225h72l-21 -225h-51z" />
    <glyph glyph-name="lcaron" unicode="&#x13e;" horiz-adv-x="296" 
d="M225 -9q-74 0 -111.5 43.5t-37.5 126.5v544h81v-538q0 -107 85 -107q25 0 45 6l-2 -68q-31 -7 -60 -7zM202 515v190h65l-23 -190h-42z" />
    <glyph glyph-name="Ldot" unicode="&#x13f;" horiz-adv-x="543" 
d="M87 0v705h82v-633h359v-72h-441zM353 342v94h101v-94h-101z" />
    <glyph glyph-name="ldot" unicode="&#x140;" horiz-adv-x="320" 
d="M225 -9q-74 0 -111.5 43.5t-37.5 126.5v544h81v-538q0 -107 85 -107q25 0 45 6l-2 -68q-31 -7 -60 -7zM225 309v94h101v-94h-101z" />
    <glyph glyph-name="Lslash" unicode="&#x141;" horiz-adv-x="543" 
d="M87 0v705h82v-633h359v-72h-441zM9 254l-33 58l360 207l33 -58z" />
    <glyph glyph-name="lslash" unicode="&#x142;" horiz-adv-x="296" 
d="M225 -9q-74 0 -111.5 43.5t-37.5 126.5v544h81v-538q0 -107 85 -107q25 0 45 6l-2 -68q-31 -7 -60 -7zM11 252l-33 57l263 154l33 -57z" />
    <glyph glyph-name="Nacute" unicode="&#x143;" horiz-adv-x="740" 
d="M87 0v705h64l425 -567v567h76v-705h-62l-426 569v-569h-77zM339 765l118 172h91l-147 -172h-62z" />
    <glyph glyph-name="nacute" unicode="&#x144;" horiz-adv-x="568" 
d="M76 0v486h79v-83q24 46 68 69t99 23q173 0 173 -192v-303h-81v298q0 68 -26.5 99.5t-84.5 31.5q-67 0 -106.5 -41.5t-39.5 -110.5v-277h-81zM256 551l103 202h87l-132 -202h-58z" />
    <glyph glyph-name="uni0145" unicode="&#x145;" horiz-adv-x="740" 
d="M87 0v705h64l425 -567v567h76v-705h-62l-426 569v-569h-77zM367 -268l-35 26q19 21 27.5 40t9.5 40h-48v82h98v-60q0 -37 -12.5 -69.5t-39.5 -58.5z" />
    <glyph glyph-name="uni0146" unicode="&#x146;" horiz-adv-x="568" 
d="M76 0v486h79v-83q24 46 68 69t99 23q173 0 173 -192v-303h-81v298q0 68 -26.5 99.5t-84.5 31.5q-67 0 -106.5 -41.5t-39.5 -110.5v-277h-81zM282 -268l-35 26q19 21 27.5 40t9.5 40h-48v82h98v-60q0 -37 -12.5 -69.5t-39.5 -58.5z" />
    <glyph glyph-name="Ncaron" unicode="&#x147;" horiz-adv-x="740" 
d="M87 0v705h64l425 -567v567h76v-705h-62l-426 569v-569h-77zM332 765l-123 172h61l100 -119l100 119h61l-123 -172h-76z" />
    <glyph glyph-name="ncaron" unicode="&#x148;" horiz-adv-x="568" 
d="M76 0v486h79v-83q24 46 68 69t99 23q173 0 173 -192v-303h-81v298q0 68 -26.5 99.5t-84.5 31.5q-67 0 -106.5 -41.5t-39.5 -110.5v-277h-81zM246 551l-109 202h56l92 -148l92 148h56l-109 -202h-78z" />
    <glyph glyph-name="napostrophe" unicode="&#x149;" horiz-adv-x="568" 
d="M35 571l-36 26q19 19 26 36.5t8 35.5h-46v86h98v-60q0 -36 -10.5 -66.5t-39.5 -57.5zM76 0v486h79v-83q24 46 68 69t99 23q173 0 173 -192v-303h-81v298q0 68 -26.5 99.5t-84.5 31.5q-67 0 -106.5 -41.5t-39.5 -110.5v-277h-81z" />
    <glyph glyph-name="Eng" unicode="&#x14a;" horiz-adv-x="740" 
d="M442 -193l-5 63l44 4q95 8 95 111v34l-412 550v-569h-77v705h64l425 -567v567h76v-712q0 -87 -40.5 -132t-125.5 -51z" />
    <glyph glyph-name="eng" unicode="&#x14b;" horiz-adv-x="568" 
d="M285 -193l-6 63l43 4q92 8 92 111v313q0 68 -26.5 99.5t-84.5 31.5q-67 0 -106.5 -41.5t-39.5 -110.5v-277h-81v486h79v-83q24 46 68 69t99 23q173 0 173 -192v-310q0 -87 -41 -132t-126 -51z" />
    <glyph glyph-name="Omacron" unicode="&#x14c;" horiz-adv-x="767" 
d="M383 -9q-98 0 -170.5 44.5t-112 125.5t-39.5 192t39 192t111.5 125t171.5 44q100 0 172.5 -44t112 -124.5t39.5 -191.5t-40 -192.5t-112.5 -126t-171.5 -44.5zM383 64q113 0 175 76t62 213t-62 212.5t-175 75.5q-111 0 -173 -75.5t-62 -212.5q0 -136 62 -212.5t173 -76.5
zM220 814v55h326v-55h-326z" />
    <glyph glyph-name="omacron" unicode="&#x14d;" horiz-adv-x="556" 
d="M278 -9q-71 0 -123 31t-80.5 87.5t-28.5 133.5t28.5 133.5t80.5 87.5t123 31q70 0 122.5 -31t81 -87.5t28.5 -133.5t-28.5 -133.5t-81 -87.5t-122.5 -31zM278 56q68 0 109 48.5t41 138.5q0 91 -41 139t-109 48q-69 0 -109.5 -48t-40.5 -139q0 -90 40.5 -138.5
t109.5 -48.5zM130 625v55h296v-55h-296z" />
    <glyph glyph-name="Obreve" unicode="&#x14e;" horiz-adv-x="767" 
d="M383 -9q-98 0 -170.5 44.5t-112 125.5t-39.5 192t39 192t111.5 125t171.5 44q100 0 172.5 -44t112 -124.5t39.5 -191.5t-40 -192.5t-112.5 -126t-171.5 -44.5zM383 64q113 0 175 76t62 213t-62 212.5t-175 75.5q-111 0 -173 -75.5t-62 -212.5q0 -136 62 -212.5t173 -76.5
zM383 760q-70 0 -116.5 45t-52.5 123l51 7q5 -58 36 -89.5t82 -31.5t82.5 31.5t35.5 89.5l51 -7q-6 -78 -52.5 -123t-116.5 -45z" />
    <glyph glyph-name="obreve" unicode="&#x14f;" horiz-adv-x="556" 
d="M278 -9q-71 0 -123 31t-80.5 87.5t-28.5 133.5t28.5 133.5t80.5 87.5t123 31q70 0 122.5 -31t81 -87.5t28.5 -133.5t-28.5 -133.5t-81 -87.5t-122.5 -31zM278 56q68 0 109 48.5t41 138.5q0 91 -41 139t-109 48q-69 0 -109.5 -48t-40.5 -139q0 -90 40.5 -138.5
t109.5 -48.5zM278 549q-67 0 -108.5 50.5t-45.5 139.5l51 5q3 -67 30 -103.5t73 -36.5t73 36.5t30 103.5l51 -5q-4 -89 -45 -139.5t-109 -50.5z" />
    <glyph glyph-name="Ohungarumlaut" unicode="&#x150;" horiz-adv-x="767" 
d="M383 -9q-98 0 -170.5 44.5t-112 125.5t-39.5 192t39 192t111.5 125t171.5 44q100 0 172.5 -44t112 -124.5t39.5 -191.5t-40 -192.5t-112.5 -126t-171.5 -44.5zM383 64q113 0 175 76t62 213t-62 212.5t-175 75.5q-111 0 -173 -75.5t-62 -212.5q0 -136 62 -212.5t173 -76.5
zM296 765l86 172h80l-119 -172h-47zM423 765l89 172h80l-122 -172h-47z" />
    <glyph glyph-name="ohungarumlaut" unicode="&#x151;" horiz-adv-x="556" 
d="M278 -9q-71 0 -123 31t-80.5 87.5t-28.5 133.5t28.5 133.5t80.5 87.5t123 31q70 0 122.5 -31t81 -87.5t28.5 -133.5t-28.5 -133.5t-81 -87.5t-122.5 -31zM278 56q68 0 109 48.5t41 138.5q0 91 -41 139t-109 48q-69 0 -109.5 -48t-40.5 -139q0 -90 40.5 -138.5
t109.5 -48.5zM319 551l53 202h75l-83 -202h-45zM191 551l54 202h75l-84 -202h-45z" />
    <glyph glyph-name="OE" unicode="&#x152;" horiz-adv-x="1046" 
d="M418 0q-171 0 -264 91t-93 262t93 261.5t264 90.5h578v-69h-365v-244h344v-69h-344v-254h365v-69h-578zM424 70h127v565h-127q-276 0 -276 -282q0 -283 276 -283z" />
    <glyph glyph-name="oe" unicode="&#x153;" horiz-adv-x="910" 
d="M276 -9q-70 0 -122 31t-80 88t-28 134t28 133.5t80 87t122 30.5q67 0 116.5 -31t75.5 -87q27 55 77.5 86.5t116.5 31.5q95 0 150.5 -63.5t55.5 -174.5v-31h-358q4 -82 45.5 -126t120.5 -44q85 0 157 59l27 -58q-32 -31 -82 -48.5t-102 -17.5q-74 0 -128.5 30t-80.5 87
q-27 -55 -76 -86t-115 -31zM661 435q-66 0 -105 -42.5t-46 -113.5h289q-3 73 -38 114.5t-100 41.5zM278 56q69 0 109.5 49t40.5 138q0 90 -41 138.5t-109 48.5q-69 0 -109.5 -48.5t-40.5 -138.5q0 -89 41 -138t109 -49z" />
    <glyph glyph-name="Racute" unicode="&#x154;" horiz-adv-x="669" 
d="M87 0v705h279q114 0 174.5 -53t60.5 -151q0 -78 -42.5 -128t-120.5 -65q46 -16 79 -78l124 -230h-90l-122 226q-23 42 -53 57t-79 15h-128v-298h-82zM169 363h185q166 0 166 138q0 136 -166 136h-185v-274zM310 765l118 172h91l-147 -172h-62z" />
    <glyph glyph-name="racute" unicode="&#x155;" horiz-adv-x="358" 
d="M76 0v486h79v-87q39 88 160 97l29 3l6 -70l-51 -6q-69 -6 -105 -43.5t-36 -102.5v-277h-82zM186 551l103 202h87l-132 -202h-58z" />
    <glyph glyph-name="uni0156" unicode="&#x156;" horiz-adv-x="669" 
d="M87 0v705h279q114 0 174.5 -53t60.5 -151q0 -78 -42.5 -128t-120.5 -65q46 -16 79 -78l124 -230h-90l-122 226q-23 42 -53 57t-79 15h-128v-298h-82zM169 363h185q166 0 166 138q0 136 -166 136h-185v-274zM338 -268l-35 26q19 21 27.5 40t9.5 40h-48v82h98v-60
q0 -37 -12.5 -69.5t-39.5 -58.5z" />
    <glyph glyph-name="uni0157" unicode="&#x157;" horiz-adv-x="358" 
d="M76 0v486h79v-87q39 88 160 97l29 3l6 -70l-51 -6q-69 -6 -105 -43.5t-36 -102.5v-277h-82zM113 -268l-35 26q19 21 27.5 40t9.5 40h-48v82h98v-60q0 -37 -12.5 -69.5t-39.5 -58.5z" />
    <glyph glyph-name="Rcaron" unicode="&#x158;" horiz-adv-x="669" 
d="M87 0v705h279q114 0 174.5 -53t60.5 -151q0 -78 -42.5 -128t-120.5 -65q46 -16 79 -78l124 -230h-90l-122 226q-23 42 -53 57t-79 15h-128v-298h-82zM169 363h185q166 0 166 138q0 136 -166 136h-185v-274zM303 765l-123 172h61l100 -119l100 119h61l-123 -172h-76z" />
    <glyph glyph-name="rcaron" unicode="&#x159;" horiz-adv-x="358" 
d="M76 0v486h79v-87q39 88 160 97l29 3l6 -70l-51 -6q-69 -6 -105 -43.5t-36 -102.5v-277h-82zM176 551l-109 202h56l92 -148l92 148h56l-109 -202h-78z" />
    <glyph glyph-name="Sacute" unicode="&#x15a;" horiz-adv-x="615" 
d="M315 -9q-83 0 -150 21.5t-116 62.5l29 66q51 -39 107 -58t130 -19q90 0 133.5 33.5t43.5 88.5q0 44 -31.5 70t-105.5 41l-104 21q-94 20 -140.5 65.5t-46.5 121.5q0 63 32.5 110t90.5 73t134 26q71 0 132 -22.5t103 -64.5l-29 -64q-45 41 -95 59.5t-112 18.5
q-79 0 -126 -36.5t-47 -96.5q0 -48 29.5 -76t96.5 -41l104 -22q101 -21 149.5 -63.5t48.5 -115.5q0 -59 -31.5 -104t-90 -70t-138.5 -25zM283 765l118 172h91l-147 -172h-62z" />
    <glyph glyph-name="sacute" unicode="&#x15b;" horiz-adv-x="481" 
d="M240 -9q-57 0 -108 16t-84 45l26 57q36 -29 79.5 -42.5t88.5 -13.5q57 0 86 21t29 57q0 28 -19 44.5t-60 25.5l-91 20q-124 27 -124 128q0 66 52.5 106t137.5 40q50 0 95.5 -15.5t75.5 -45.5l-27 -57q-29 27 -67.5 41.5t-76.5 14.5q-56 0 -85 -22t-29 -58q0 -56 74 -72
l91 -19q64 -14 97 -44.5t33 -82.5q0 -67 -53 -105.5t-141 -38.5zM220 551l103 202h87l-132 -202h-58z" />
    <glyph glyph-name="Scircumflex" unicode="&#x15c;" horiz-adv-x="615" 
d="M315 -9q-83 0 -150 21.5t-116 62.5l29 66q51 -39 107 -58t130 -19q90 0 133.5 33.5t43.5 88.5q0 44 -31.5 70t-105.5 41l-104 21q-94 20 -140.5 65.5t-46.5 121.5q0 63 32.5 110t90.5 73t134 26q71 0 132 -22.5t103 -64.5l-29 -64q-45 41 -95 59.5t-112 18.5
q-79 0 -126 -36.5t-47 -96.5q0 -48 29.5 -76t96.5 -41l104 -22q101 -21 149.5 -63.5t48.5 -115.5q0 -59 -31.5 -104t-90 -70t-138.5 -25zM153 765l123 172h76l123 -172h-61l-100 119l-100 -119h-61z" />
    <glyph glyph-name="scircumflex" unicode="&#x15d;" horiz-adv-x="481" 
d="M240 -9q-57 0 -108 16t-84 45l26 57q36 -29 79.5 -42.5t88.5 -13.5q57 0 86 21t29 57q0 28 -19 44.5t-60 25.5l-91 20q-124 27 -124 128q0 66 52.5 106t137.5 40q50 0 95.5 -15.5t75.5 -45.5l-27 -57q-29 27 -67.5 41.5t-76.5 14.5q-56 0 -85 -22t-29 -58q0 -56 74 -72
l91 -19q64 -14 97 -44.5t33 -82.5q0 -67 -53 -105.5t-141 -38.5zM101 551l109 202h78l109 -202h-56l-92 148l-92 -148h-56z" />
    <glyph glyph-name="Scedilla" unicode="&#x15e;" horiz-adv-x="615" 
d="M315 -9q-83 0 -150 21.5t-116 62.5l29 66q51 -39 107 -58t130 -19q90 0 133.5 33.5t43.5 88.5q0 44 -31.5 70t-105.5 41l-104 21q-94 20 -140.5 65.5t-46.5 121.5q0 63 32.5 110t90.5 73t134 26q71 0 132 -22.5t103 -64.5l-29 -64q-45 41 -95 59.5t-112 18.5
q-79 0 -126 -36.5t-47 -96.5q0 -48 29.5 -76t96.5 -41l104 -22q101 -21 149.5 -63.5t48.5 -115.5q0 -59 -31.5 -104t-90 -70t-138.5 -25zM319 -192q-56 0 -89 19l13 44q18 -8 34.5 -12t39.5 -4q26 0 42 9.5t16 27.5q0 28 -38 28q-11 0 -21.5 -2t-25.5 -7l-16 16l14 93h51
l-11 -63q10 1 19 1q37 0 60.5 -18t23.5 -50q0 -37 -31 -59.5t-81 -22.5z" />
    <glyph glyph-name="scedilla" unicode="&#x15f;" horiz-adv-x="481" 
d="M240 -9q-57 0 -108 16t-84 45l26 57q36 -29 79.5 -42.5t88.5 -13.5q57 0 86 21t29 57q0 28 -19 44.5t-60 25.5l-91 20q-124 27 -124 128q0 66 52.5 106t137.5 40q50 0 95.5 -15.5t75.5 -45.5l-27 -57q-29 27 -67.5 41.5t-76.5 14.5q-56 0 -85 -22t-29 -58q0 -56 74 -72
l91 -19q64 -14 97 -44.5t33 -82.5q0 -67 -53 -105.5t-141 -38.5zM243 -192q-56 0 -89 19l13 44q18 -8 34.5 -12t39.5 -4q26 0 42 9.5t16 27.5q0 28 -38 28q-11 0 -21.5 -2t-25.5 -7l-16 16l14 93h51l-11 -63q10 1 19 1q37 0 60.5 -18t23.5 -50q0 -37 -31 -59.5t-81 -22.5z
" />
    <glyph glyph-name="Scaron" unicode="&#x160;" horiz-adv-x="615" 
d="M315 -9q-83 0 -150 21.5t-116 62.5l29 66q51 -39 107 -58t130 -19q90 0 133.5 33.5t43.5 88.5q0 44 -31.5 70t-105.5 41l-104 21q-94 20 -140.5 65.5t-46.5 121.5q0 63 32.5 110t90.5 73t134 26q71 0 132 -22.5t103 -64.5l-29 -64q-45 41 -95 59.5t-112 18.5
q-79 0 -126 -36.5t-47 -96.5q0 -48 29.5 -76t96.5 -41l104 -22q101 -21 149.5 -63.5t48.5 -115.5q0 -59 -31.5 -104t-90 -70t-138.5 -25zM276 765l-123 172h61l100 -119l100 119h61l-123 -172h-76z" />
    <glyph glyph-name="scaron" unicode="&#x161;" horiz-adv-x="481" 
d="M240 -9q-57 0 -108 16t-84 45l26 57q36 -29 79.5 -42.5t88.5 -13.5q57 0 86 21t29 57q0 28 -19 44.5t-60 25.5l-91 20q-124 27 -124 128q0 66 52.5 106t137.5 40q50 0 95.5 -15.5t75.5 -45.5l-27 -57q-29 27 -67.5 41.5t-76.5 14.5q-56 0 -85 -22t-29 -58q0 -56 74 -72
l91 -19q64 -14 97 -44.5t33 -82.5q0 -67 -53 -105.5t-141 -38.5zM210 551l-109 202h56l92 -148l92 148h56l-109 -202h-78z" />
    <glyph glyph-name="uni0162" unicode="&#x162;" horiz-adv-x="602" 
d="M260 0v634h-256v71h595v-71h-256v-634h-83zM304 -192q-56 0 -89 19l13 44q18 -8 34.5 -12t39.5 -4q26 0 42 9.5t16 27.5q0 28 -38 28q-11 0 -21.5 -2t-25.5 -7l-16 16l14 93h51l-11 -63q10 1 19 1q37 0 60.5 -18t23.5 -50q0 -37 -31 -59.5t-81 -22.5z" />
    <glyph glyph-name="uni0163" unicode="&#x163;" horiz-adv-x="350" 
d="M271 -9q-86 0 -129 45.5t-43 131.5v255h-95v63h95v149h81v-149h154v-63h-154v-247q0 -57 24 -86.5t78 -29.5q16 0 32 4t29 8l14 -62q-13 -7 -38 -13t-48 -6zM219 -192q-56 0 -89 19l13 44q18 -8 34.5 -12t39.5 -4q26 0 42 9.5t16 27.5q0 28 -38 28q-11 0 -21.5 -2
t-25.5 -7l-16 16l14 93h51l-11 -63q10 1 19 1q37 0 60.5 -18t23.5 -50q0 -37 -31 -59.5t-81 -22.5z" />
    <glyph glyph-name="Tcaron" unicode="&#x164;" horiz-adv-x="602" 
d="M260 0v634h-256v71h595v-71h-256v-634h-83zM263 765l-123 172h61l100 -119l100 119h61l-123 -172h-76z" />
    <glyph glyph-name="tcaron" unicode="&#x165;" horiz-adv-x="350" 
d="M271 -9q-86 0 -129 45.5t-43 131.5v255h-95v63h95v149h81v-149h154v-63h-154v-247q0 -57 24 -86.5t78 -29.5q16 0 32 4t29 8l14 -62q-13 -7 -38 -13t-48 -6zM248 533v172h65l-23 -172h-42z" />
    <glyph glyph-name="Tbar" unicode="&#x166;" horiz-adv-x="602" 
d="M260 0v634h-256v71h595v-71h-256v-634h-83zM118 326v64h366v-64h-366z" />
    <glyph glyph-name="tbar" unicode="&#x167;" horiz-adv-x="350" 
d="M271 -9q-86 0 -129 45.5t-43 131.5v255h-95v63h95v149h81v-149h154v-63h-154v-247q0 -57 24 -86.5t78 -29.5q16 0 32 4t29 8l14 -62q-13 -7 -38 -13t-48 -6zM27 239v55h275v-55h-275z" />
    <glyph glyph-name="Utilde" unicode="&#x168;" horiz-adv-x="728" 
d="M365 -9q-139 0 -211 73.5t-72 214.5v426h82v-422q0 -219 201 -219q199 0 199 219v422h82v-426q0 -141 -71.5 -214.5t-209.5 -73.5zM202 783l-46 3q7 64 38.5 98.5t81.5 34.5q24 0 47.5 -10t55.5 -31t48 -28t30 -7q57 0 71 79l46 -3q-6 -64 -38 -98.5t-81 -34.5
q-24 0 -48.5 10t-57.5 32q-28 19 -45 26.5t-31 7.5q-57 0 -71 -79z" />
    <glyph glyph-name="utilde" unicode="&#x169;" horiz-adv-x="561" 
d="M248 -9q-175 0 -175 193v302h81v-301q0 -65 26.5 -96t83.5 -31q62 0 101 41.5t39 110.5v276h81v-486h-79v82q-23 -44 -64.5 -67.5t-93.5 -23.5zM147 591l-46 3q5 63 33.5 98t73.5 35q22 0 40.5 -10.5t42.5 -31.5q22 -19 35.5 -26.5t26.5 -7.5q51 0 62 79l46 -3
q-5 -63 -33 -98t-73 -35q-21 0 -39.5 9.5t-44.5 32.5q-21 19 -34.5 26.5t-26.5 7.5q-51 0 -63 -79z" />
    <glyph glyph-name="Umacron" unicode="&#x16a;" horiz-adv-x="728" 
d="M365 -9q-139 0 -211 73.5t-72 214.5v426h82v-422q0 -219 201 -219q199 0 199 219v422h82v-426q0 -141 -71.5 -214.5t-209.5 -73.5zM202 814v55h326v-55h-326z" />
    <glyph glyph-name="umacron" unicode="&#x16b;" horiz-adv-x="561" 
d="M248 -9q-175 0 -175 193v302h81v-301q0 -65 26.5 -96t83.5 -31q62 0 101 41.5t39 110.5v276h81v-486h-79v82q-23 -44 -64.5 -67.5t-93.5 -23.5zM133 626v55h296v-55h-296z" />
    <glyph glyph-name="Ubreve" unicode="&#x16c;" horiz-adv-x="728" 
d="M365 -9q-139 0 -211 73.5t-72 214.5v426h82v-422q0 -219 201 -219q199 0 199 219v422h82v-426q0 -141 -71.5 -214.5t-209.5 -73.5zM365 760q-70 0 -116.5 45t-52.5 123l51 7q5 -58 36 -89.5t82 -31.5t82.5 31.5t35.5 89.5l51 -7q-6 -78 -52.5 -123t-116.5 -45z" />
    <glyph glyph-name="ubreve" unicode="&#x16d;" horiz-adv-x="561" 
d="M248 -9q-175 0 -175 193v302h81v-301q0 -65 26.5 -96t83.5 -31q62 0 101 41.5t39 110.5v276h81v-486h-79v82q-23 -44 -64.5 -67.5t-93.5 -23.5zM281 550q-67 0 -108.5 50.5t-45.5 139.5l51 5q3 -67 30 -103.5t73 -36.5t73 36.5t30 103.5l51 -5q-4 -89 -45 -139.5
t-109 -50.5z" />
    <glyph glyph-name="Uring" unicode="&#x16e;" horiz-adv-x="728" 
d="M365 -9q-139 0 -211 73.5t-72 214.5v426h82v-422q0 -219 201 -219q199 0 199 219v422h82v-426q0 -141 -71.5 -214.5t-209.5 -73.5zM365 758q-50 0 -84.5 33.5t-34.5 82.5q0 48 34.5 81.5t84.5 33.5t84.5 -33.5t34.5 -81.5q0 -49 -34.5 -82.5t-84.5 -33.5zM365 801
q32 0 52 21t20 52q0 30 -20 51t-52 21q-31 0 -51.5 -21t-20.5 -51q0 -31 20.5 -52t51.5 -21z" />
    <glyph glyph-name="uring" unicode="&#x16f;" horiz-adv-x="561" 
d="M248 -9q-175 0 -175 193v302h81v-301q0 -65 26.5 -96t83.5 -31q62 0 101 41.5t39 110.5v276h81v-486h-79v82q-23 -44 -64.5 -67.5t-93.5 -23.5zM281 548q-50 0 -84.5 33.5t-34.5 82.5q0 48 34.5 81.5t84.5 33.5t84.5 -33.5t34.5 -81.5q0 -49 -34.5 -82.5t-84.5 -33.5z
M281 591q32 0 52 21t20 52q0 30 -20 51t-52 21q-31 0 -51.5 -21t-20.5 -51q0 -31 20.5 -52t51.5 -21z" />
    <glyph glyph-name="Uhungarumlaut" unicode="&#x170;" horiz-adv-x="728" 
d="M365 -9q-139 0 -211 73.5t-72 214.5v426h82v-422q0 -219 201 -219q199 0 199 219v422h82v-426q0 -141 -71.5 -214.5t-209.5 -73.5zM278 765l86 172h80l-119 -172h-47zM405 765l89 172h80l-122 -172h-47z" />
    <glyph glyph-name="uhungarumlaut" unicode="&#x171;" horiz-adv-x="561" 
d="M248 -9q-175 0 -175 193v302h81v-301q0 -65 26.5 -96t83.5 -31q62 0 101 41.5t39 110.5v276h81v-486h-79v82q-23 -44 -64.5 -67.5t-93.5 -23.5zM322 552l53 202h75l-83 -202h-45zM194 552l54 202h75l-84 -202h-45z" />
    <glyph glyph-name="Uogonek" unicode="&#x172;" horiz-adv-x="728" 
d="M365 -9q-139 0 -211 73.5t-72 214.5v426h82v-422q0 -219 201 -219q199 0 199 219v422h82v-426q0 -141 -71.5 -214.5t-209.5 -73.5zM403 -192q-48 0 -76.5 26t-28.5 71q0 40 25.5 75t69.5 56l29 -36q-24 -10 -45 -32.5t-21 -53.5q0 -29 16.5 -42.5t41.5 -13.5t53 12
l14 -45q-30 -17 -78 -17z" />
    <glyph glyph-name="uogonek" unicode="&#x173;" horiz-adv-x="561" 
d="M248 -9q-175 0 -175 193v302h81v-301q0 -65 26.5 -96t83.5 -31q62 0 101 41.5t39 110.5v276h81v-486h-79v82q-23 -44 -64.5 -67.5t-93.5 -23.5zM450 -192q-48 0 -76.5 26t-28.5 71q0 40 25.5 75t69.5 56l29 -36q-24 -10 -45 -32.5t-21 -53.5q0 -29 16.5 -42.5t41.5 -13.5
t53 12l14 -45q-30 -17 -78 -17z" />
    <glyph glyph-name="Wcircumflex" unicode="&#x174;" horiz-adv-x="1101" 
d="M277 0l-247 705h86l199 -585l204 585h66l202 -590l203 590h82l-247 -705h-73l-201 580l-203 -580h-71zM390 765l123 172h76l123 -172h-61l-100 119l-100 -119h-61z" />
    <glyph glyph-name="wcircumflex" unicode="&#x175;" horiz-adv-x="841" 
d="M205 0l-181 486h85l137 -391l142 391h69l140 -392l139 392h81l-182 -486h-77l-137 377l-138 -377h-78zM273 551l109 202h78l109 -202h-56l-92 148l-92 -148h-56z" />
    <glyph glyph-name="Ycircumflex" unicode="&#x176;" horiz-adv-x="596" 
d="M257 0v334l-270 371h96l217 -299l216 299h93l-270 -373v-332h-82zM137 765l123 172h76l123 -172h-61l-100 119l-100 -119h-61z" />
    <glyph glyph-name="ycircumflex" unicode="&#x177;" horiz-adv-x="514" 
d="M132 -180l83 188l-205 478h88l161 -394l162 394h85l-289 -666h-85zM110 551l109 202h78l109 -202h-56l-92 148l-92 -148h-56z" />
    <glyph glyph-name="Ydieresis" unicode="&#x178;" horiz-adv-x="596" 
d="M257 0v334l-270 371h96l217 -299l216 299h93l-270 -373v-332h-82zM341 806v86h87v-86h-87zM168 806v86h87v-86h-87z" />
    <glyph glyph-name="Zacute" unicode="&#x179;" horiz-adv-x="589" 
d="M48 0v61l405 573h-405v71h505v-61l-406 -573h420v-71h-519zM275 765l118 172h91l-147 -172h-62z" />
    <glyph glyph-name="zacute" unicode="&#x17a;" horiz-adv-x="463" 
d="M55 0v54l278 369h-278v63h368v-54l-278 -369h289v-63h-379zM210 551l103 202h87l-132 -202h-58z" />
    <glyph glyph-name="Zdotaccent" unicode="&#x17b;" horiz-adv-x="589" 
d="M48 0v61l405 573h-405v71h505v-61l-406 -573h420v-71h-519zM261 807v88h90v-88h-90z" />
    <glyph glyph-name="zdotaccent" unicode="&#x17c;" horiz-adv-x="463" 
d="M55 0v54l278 369h-278v63h368v-54l-278 -369h289v-63h-379zM193 609v88h92v-88h-92z" />
    <glyph glyph-name="Zcaron" unicode="&#x17d;" horiz-adv-x="589" 
d="M48 0v61l405 573h-405v71h505v-61l-406 -573h420v-71h-519zM268 765l-123 172h61l100 -119l100 119h61l-123 -172h-76z" />
    <glyph glyph-name="zcaron" unicode="&#x17e;" horiz-adv-x="463" 
d="M55 0v54l278 369h-278v63h368v-54l-278 -369h289v-63h-379zM200 551l-109 202h56l92 -148l92 148h56l-109 -202h-78z" />
    <glyph glyph-name="uni0181" unicode="&#x181;" horiz-adv-x="800" 
d="M211 0v642h-32q-56 0 -82.5 -26.5t-26.5 -82.5v-44h-70v48q0 83 46 125.5t142 42.5h305q109 0 168.5 -48.5t59.5 -135.5q0 -58 -30 -99t-83 -60q61 -16 95.5 -59t34.5 -109q0 -94 -61 -144t-172 -50h-294zM291 390h190q159 0 159 124q0 125 -159 125h-190v-249zM291 66
h206q160 0 160 129t-160 129h-206v-258z" />
    <glyph glyph-name="uni018A" unicode="&#x18a;" horiz-adv-x="866" 
d="M211 0v642h-32q-56 0 -82.5 -26.5t-26.5 -82.5v-44h-70v48q0 168 180 168h269q171 0 264 -90.5t93 -261.5t-93 -262t-264 -91h-238zM294 70h149q276 0 276 283q0 282 -276 282h-149v-565z" />
    <glyph glyph-name="uni018F" unicode="&#x18f;" horiz-adv-x="767" 
d="M389 -9q-109 0 -182 45t-109.5 126.5t-36.5 190.5v37h557q-9 121 -77 186t-187 65q-73 0 -128 -19.5t-105 -61.5l-33 65q104 89 274 89q105 0 182.5 -43.5t120 -124.5t42.5 -193t-39.5 -193t-111 -125t-167.5 -44zM386 63q103 0 164 66.5t69 191.5h-472q6 -127 66 -192.5
t173 -65.5z" />
    <glyph glyph-name="florin" unicode="&#x192;" horiz-adv-x="600" 
d="M41 -189v66h47q44 0 71.5 23t40.5 82l94 441h-121v63h134l13 60q17 81 63 124.5t126 43.5h48v-68h-42q-47 0 -75 -22.5t-40 -81.5l-12 -56h124v-63h-137l-95 -445q-18 -80 -63.5 -123.5t-123.5 -43.5h-52z" />
    <glyph glyph-name="Ohorn" unicode="&#x1a0;" horiz-adv-x="767" 
d="M383 -9q-98 0 -170.5 44.5t-112 125.5t-39.5 192t39 192t111.5 125t171.5 44q100 0 172.5 -44t112 -124.5t39.5 -191.5t-40 -192.5t-112.5 -126t-171.5 -44.5zM383 64q113 0 175 76t62 213t-62 212.5t-175 75.5q-111 0 -173 -75.5t-62 -212.5q0 -136 62 -212.5t173 -76.5
zM488 655l-49 54q24 -2 44.5 -3t38.5 -1q64 0 87 27t23 86v17h72v-28q0 -68 -38.5 -110t-104.5 -42h-73z" />
    <glyph glyph-name="ohorn" unicode="&#x1a1;" horiz-adv-x="556" 
d="M278 -9q-71 0 -123 31t-80.5 87.5t-28.5 133.5t28.5 133.5t80.5 87.5t123 31q70 0 122.5 -31t81 -87.5t28.5 -133.5t-28.5 -133.5t-81 -87.5t-122.5 -31zM278 56q68 0 109 48.5t41 138.5q0 91 -41 139t-109 48q-69 0 -109.5 -48t-40.5 -139q0 -90 40.5 -138.5
t109.5 -48.5zM372 436l-42 28v22q64 1 87 28t23 86v16h72v-28q0 -68 -37 -107.5t-103 -44.5z" />
    <glyph glyph-name="Uhorn" unicode="&#x1af;" horiz-adv-x="728" 
d="M365 -9q-139 0 -211 73.5t-72 214.5v426h82v-422q0 -219 201 -219q199 0 199 219v422h82v-426q0 -141 -71.5 -214.5t-209.5 -73.5zM622 655l-41 28v22q64 1 87 28t23 85v17h72v-28q0 -68 -37 -108t-104 -44z" />
    <glyph glyph-name="uhorn" unicode="&#x1b0;" horiz-adv-x="561" 
d="M248 -9q-175 0 -175 193v302h81v-301q0 -65 26.5 -96t83.5 -31q62 0 101 41.5t39 110.5v276h81v-486h-79v82q-23 -44 -64.5 -67.5t-93.5 -23.5zM462 436l-42 28v22q64 1 87 28t23 86v16h72v-28q0 -68 -37 -107.5t-103 -44.5z" />
    <glyph glyph-name="uni01B3" unicode="&#x1b3;" horiz-adv-x="613" 
d="M257 0v334l-270 371h96l217 -299l159 227q56 80 144 80q34 0 59 -9v-62q-20 8 -48 8q-25 0 -46.5 -11.5t-41.5 -38.5l-187 -267v-333h-82z" />
    <glyph glyph-name="uni01B4" unicode="&#x1b4;" horiz-adv-x="551" 
d="M384 394q20 49 53 75t89 26q36 0 60 -9l-12 -63q-9 3 -19 4.5t-19 1.5q-30 0 -50 -16.5t-39 -60.5l-230 -532h-85l83 188l-205 478h88l161 -394z" />
    <glyph glyph-name="uni01C4" unicode="&#x1c4;" horiz-adv-x="1316" 
d="M87 0v705h238q171 0 264 -90.5t93 -261.5t-93 -262t-264 -91h-238zM169 70h150q276 0 276 283q0 282 -276 282h-150v-565zM775 0v61l405 573h-405v71h505v-61l-406 -573h420v-71h-519zM995 765l-123 172h61l100 -119l100 119h61l-123 -172h-76z" />
    <glyph glyph-name="uni01C5" unicode="&#x1c5;" horiz-adv-x="1206" 
d="M87 0v705h238q171 0 264 -90.5t93 -261.5t-93 -262t-264 -91h-238zM169 70h150q276 0 276 283q0 282 -276 282h-150v-565zM797 0v54l278 369h-278v63h368v-54l-278 -369h289v-63h-379zM942 551l-109 202h56l92 -148l92 148h56l-109 -202h-78z" />
    <glyph glyph-name="uni01C6" unicode="&#x1c6;" horiz-adv-x="1046" 
d="M261 -9q-65 0 -113.5 31t-75 87.5t-26.5 133.5q0 78 26.5 134.5t75 87t113.5 30.5q57 0 100.5 -25t64.5 -69v304h81v-705h-79v89q-21 -46 -65 -72t-102 -26zM278 56q68 0 109 48.5t41 138.5q0 91 -41 139t-109 48q-69 0 -109.5 -48t-40.5 -139q0 -90 40.5 -138.5
t109.5 -48.5zM638 0v54l278 369h-278v63h368v-54l-278 -369h289v-63h-379zM783 551l-109 202h56l92 -148l92 148h56l-109 -202h-78z" />
    <glyph glyph-name="uni01C7" unicode="&#x1c7;" horiz-adv-x="908" 
d="M87 0v705h82v-633h359v-72h-441zM579 -7l-6 69l60 4q51 4 78 35.5t27 86.5v517h82v-518q0 -87 -45 -135.5t-131 -54.5z" />
    <glyph glyph-name="uni01C8" unicode="&#x1c8;" horiz-adv-x="779" 
d="M87 0v705h82v-633h359v-72h-441zM612 607v91h100v-91h-100zM493 -193l-6 63l43 4q92 8 92 111v501h81v-493q0 -87 -41 -132t-126 -51z" />
    <glyph glyph-name="uni01C9" unicode="&#x1c9;" horiz-adv-x="531" 
d="M225 -9q-74 0 -111.5 43.5t-37.5 126.5v544h81v-538q0 -107 85 -107q25 0 45 6l-2 -68q-31 -7 -60 -7zM365 607v91h100v-91h-100zM246 -193l-6 63l43 4q92 8 92 111v501h81v-493q0 -87 -41 -132t-126 -51z" />
    <glyph glyph-name="uni01CA" unicode="&#x1ca;" horiz-adv-x="1064" 
d="M87 0v705h64l425 -567v567h76v-705h-62l-426 569v-569h-77zM736 -7l-6 69l60 4q51 4 78 35.5t27 86.5v517h82v-518q0 -87 -45 -135.5t-131 -54.5z" />
    <glyph glyph-name="uni01CB" unicode="&#x1cb;" horiz-adv-x="975" 
d="M87 0v705h64l425 -567v567h76v-705h-62l-426 569v-569h-77zM809 607v91h100v-91h-100zM690 -193l-6 63l43 4q92 8 92 111v501h81v-493q0 -87 -41 -132t-126 -51z" />
    <glyph glyph-name="uni01CC" unicode="&#x1cc;" horiz-adv-x="804" 
d="M76 0v486h79v-83q24 46 68 69t99 23q173 0 173 -192v-303h-81v298q0 68 -26.5 99.5t-84.5 31.5q-67 0 -106.5 -41.5t-39.5 -110.5v-277h-81zM637 607v91h100v-91h-100zM518 -193l-6 63l43 4q92 8 92 111v501h81v-493q0 -87 -41 -132t-126 -51z" />
    <glyph glyph-name="uni01CD" unicode="&#x1cd;" horiz-adv-x="729" 
d="M19 0l311 705h70l311 -705h-85l-78 180h-367l-77 -180h-85zM364 609l-153 -360h308l-153 360h-2zM328 765l-123 172h61l100 -119l100 119h61l-123 -172h-76z" />
    <glyph glyph-name="uni01CE" unicode="&#x1ce;" horiz-adv-x="530" 
d="M229 -9q-50 0 -89.5 19.5t-62.5 53.5t-23 76q0 53 27.5 84t91 44.5t173.5 13.5h32v31q0 62 -25.5 89.5t-81.5 27.5q-44 0 -85 -12.5t-84 -40.5l-28 59q38 27 92.5 43t104.5 16q94 0 139.5 -46t45.5 -143v-306h-76v84q-19 -43 -58.5 -68t-92.5 -25zM242 52q60 0 98 41.5
t38 105.5v30h-31q-81 0 -127.5 -7.5t-65 -26t-18.5 -50.5q0 -41 28.5 -67t77.5 -26zM233 551l-109 202h56l92 -148l92 148h56l-109 -202h-78z" />
    <glyph glyph-name="uni01D4" unicode="&#x1d4;" horiz-adv-x="561" 
d="M248 -9q-175 0 -175 193v302h81v-301q0 -65 26.5 -96t83.5 -31q62 0 101 41.5t39 110.5v276h81v-486h-79v82q-23 -44 -64.5 -67.5t-93.5 -23.5zM242 552l-109 202h56l92 -148l92 148h56l-109 -202h-78z" />
    <glyph glyph-name="uni01E5" unicode="&#x1e5;" horiz-adv-x="586" 
d="M291 -189q-63 0 -118.5 16.5t-98.5 49.5l27 59q45 -32 89.5 -45.5t96.5 -13.5q92 0 125 63h-109v56h127q1 13 1 28v109q-20 -46 -64 -71t-103 -25q-65 0 -114 29t-76.5 81t-27.5 119t27.5 119t76.5 81t114 29q59 0 102.5 -25t64.5 -70v86h79v-451q0 -20 -2 -39h69v-56
h-80q-42 -129 -206 -129zM279 102q69 0 110 44.5t41 119.5t-40.5 119.5t-110.5 44.5q-69 0 -110 -44t-41 -120t41.5 -120t109.5 -44z" />
    <glyph glyph-name="Gcaron" unicode="&#x1e6;" horiz-adv-x="726" 
d="M409 -9q-170 0 -259 96t-89 265q0 112 40 193t115 125t181 44q75 0 138 -22.5t107 -65.5l-32 -66q-48 42 -99 61t-115 19q-120 0 -184 -75.5t-64 -212.5q0 -140 66 -214t197 -74q85 0 163 29v209h-179v65h250v-326q-28 -15 -67.5 -26t-83.5 -17.5t-85 -6.5zM353 765
l-123 172h61l100 -119l100 119h61l-123 -172h-76z" />
    <glyph glyph-name="gcaron" unicode="&#x1e7;" horiz-adv-x="586" 
d="M291 -189q-63 0 -118.5 16.5t-98.5 49.5l27 59q45 -32 89.5 -46t96.5 -14q144 0 144 148v86q-21 -46 -65.5 -72.5t-101.5 -26.5q-67 0 -116 31t-75.5 85.5t-26.5 126.5t26.5 126.5t75.5 84.5t116 30q57 0 101.5 -26t65.5 -71v88h79v-451q0 -112 -55.5 -168t-163.5 -56z
M279 77q70 0 111 48t41 129t-41 128.5t-111 47.5q-69 0 -110 -47.5t-41 -128.5t41 -129t110 -48zM256 551l-109 202h56l92 -148l92 148h56l-109 -202h-78z" />
    <glyph glyph-name="uni01E9" unicode="&#x1e9;" horiz-adv-x="500" 
d="M76 0v705h81v-435h2l225 216h103l-244 -234l265 -252h-103l-246 228h-2v-228h-81zM248 765l-123 172h61l100 -119l100 119h61l-123 -172h-76z" />
    <glyph glyph-name="uni01EA" unicode="&#x1ea;" horiz-adv-x="767" 
d="M383 -9q-98 0 -170.5 44.5t-112 125.5t-39.5 192t39 192t111.5 125t171.5 44q100 0 172.5 -44t112 -124.5t39.5 -191.5t-40 -192.5t-112.5 -126t-171.5 -44.5zM383 64q113 0 175 76t62 213t-62 212.5t-175 75.5q-111 0 -173 -75.5t-62 -212.5q0 -136 62 -212.5t173 -76.5
zM421 -192q-48 0 -76.5 26t-28.5 71q0 40 25.5 75t69.5 56l29 -36q-24 -10 -45 -32.5t-21 -53.5q0 -29 16.5 -42.5t41.5 -13.5t53 12l14 -45q-30 -17 -78 -17z" />
    <glyph glyph-name="uni01EB" unicode="&#x1eb;" horiz-adv-x="556" 
d="M278 -9q-71 0 -123 31t-80.5 87.5t-28.5 133.5t28.5 133.5t80.5 87.5t123 31q70 0 122.5 -31t81 -87.5t28.5 -133.5t-28.5 -133.5t-81 -87.5t-122.5 -31zM278 56q68 0 109 48.5t41 138.5q0 91 -41 139t-109 48q-69 0 -109.5 -48t-40.5 -139q0 -90 40.5 -138.5
t109.5 -48.5zM318 -192q-48 0 -76.5 26t-28.5 71q0 40 25.5 75t69.5 56l29 -36q-24 -10 -45 -32.5t-21 -53.5q0 -29 16.5 -42.5t41.5 -13.5t53 12l14 -45q-30 -17 -78 -17z" />
    <glyph glyph-name="uni01EF" unicode="&#x1ef;" horiz-adv-x="495" 
d="M228 -189q-67 0 -121 16t-91 45l28 59q71 -55 177 -55q80 0 120.5 37t40.5 107q0 63 -40 97t-113 34h-103v40l210 230h-301v65h397v-55l-201 -220h19q101 0 157 -49.5t56 -137.5q0 -99 -62.5 -156t-172.5 -57zM194 551l-109 202h56l92 -148l92 148h56l-109 -202h-78z" />
    <glyph glyph-name="Aringacute" unicode="&#x1fa;" horiz-adv-x="729" 
d="M19 0l311 705h70l311 -705h-85l-78 180h-367l-77 -180h-85zM364 609l-153 -360h308l-153 360h-2zM366 758q-49 0 -82.5 33t-33.5 80q0 48 33.5 81t82.5 33q36 0 66 -20l71 66h79l-117 -100q17 -26 17 -60q0 -47 -33.5 -80t-82.5 -33zM366 799q32 0 52 21t20 51
q0 31 -20 51.5t-52 20.5q-31 0 -51.5 -20.5t-20.5 -51.5q0 -30 20.5 -51t51.5 -21z" />
    <glyph glyph-name="aringacute" unicode="&#x1fb;" horiz-adv-x="530" 
d="M229 -9q-50 0 -89.5 19.5t-62.5 53.5t-23 76q0 53 27.5 84t91 44.5t173.5 13.5h32v31q0 62 -25.5 89.5t-81.5 27.5q-44 0 -85 -12.5t-84 -40.5l-28 59q38 27 92.5 43t104.5 16q94 0 139.5 -46t45.5 -143v-306h-76v84q-19 -43 -58.5 -68t-92.5 -25zM242 52q60 0 98 41.5
t38 105.5v30h-31q-81 0 -127.5 -7.5t-65 -26t-18.5 -50.5q0 -41 28.5 -67t77.5 -26zM272 544q-49 0 -82.5 33t-33.5 80q0 48 33.5 81t82.5 33q36 0 66 -20l71 66h79l-117 -99q17 -27 17 -61q0 -47 -33.5 -80t-82.5 -33zM272 586q32 0 52 20.5t20 50.5q0 31 -20 51.5
t-52 20.5q-31 0 -51.5 -20.5t-20.5 -51.5q0 -30 20.5 -50.5t51.5 -20.5z" />
    <glyph glyph-name="AEacute" unicode="&#x1fc;" horiz-adv-x="981" 
d="M-16 0l429 705h517v-69h-426l52 -244h354v-69h-340l55 -254h305v-69h-366l-38 180h-346l-107 -180h-89zM433 608l-213 -359h291l-76 359h-2zM456 765l118 172h91l-147 -172h-62z" />
    <glyph glyph-name="aeacute" unicode="&#x1fd;" horiz-adv-x="861" 
d="M234 -9q-52 0 -93 19.5t-64 53.5t-23 76q0 53 27.5 84t92 44.5t173.5 13.5h34v30q0 62 -26.5 90t-82.5 28q-44 0 -85.5 -12t-84.5 -40l-28 58q38 27 92.5 43t106.5 16q125 0 163 -92q28 45 74.5 68.5t102.5 23.5q95 0 150.5 -63.5t55.5 -174.5v-29h-359q5 -84 46.5 -128
t119.5 -44q86 0 158 59l27 -58q-33 -31 -83.5 -48.5t-100.5 -17.5q-75 0 -130 31t-82 91q-20 -57 -67 -89.5t-114 -32.5zM612 435q-64 0 -104 -41t-47 -112h289q-3 72 -38 112.5t-100 40.5zM244 52q61 0 99 43t38 109v24h-34q-81 0 -127.5 -7t-65 -25.5t-18.5 -50.5
q0 -41 28.5 -67t79.5 -26zM387 551l103 202h87l-132 -202h-58z" />
    <glyph glyph-name="Oslashacute" unicode="&#x1fe;" horiz-adv-x="767" 
d="M383 -9q-98 0 -170.5 44.5t-112 125.5t-39.5 192t39 192t111.5 125t171.5 44q100 0 172.5 -44t112 -124.5t39.5 -191.5t-40 -192.5t-112.5 -126t-171.5 -44.5zM383 64q113 0 175 76t62 213t-62 212.5t-175 75.5q-111 0 -173 -75.5t-62 -212.5q0 -136 62 -212.5t173 -76.5
zM189 -47l-57 33l54 93l24 40l296 506l19 35l54 92l57 -33l-55 -93l-24 -40l-295 -506l-19 -34zM352 765l118 172h91l-147 -172h-62z" />
    <glyph glyph-name="oslashacute" unicode="&#x1ff;" horiz-adv-x="556" 
d="M141 -48l-49 28l36 61q-39 33 -60.5 84.5t-21.5 117.5q0 77 28.5 133.5t80.5 87.5t123 31q56 0 102 -20l35 60l49 -29l-36 -61q39 -33 60.5 -84t21.5 -118q0 -77 -28.5 -133.5t-81 -87.5t-122.5 -31q-57 0 -102 21zM128 243q0 -86 38 -135l179 307q-29 15 -67 15
q-69 0 -109.5 -48t-40.5 -139zM278 56q68 0 109 48.5t41 138.5q0 87 -39 136l-179 -308q30 -15 68 -15zM248 551l103 202h87l-132 -202h-58z" />
    <glyph glyph-name="uni0200" unicode="&#x200;" horiz-adv-x="729" 
d="M19 0l311 705h70l311 -705h-85l-78 180h-367l-77 -180h-85zM364 609l-153 -360h308l-153 360h-2zM406 765l-118 172h80l85 -172h-47zM279 765l-122 172h80l89 -172h-47z" />
    <glyph glyph-name="uni0201" unicode="&#x201;" horiz-adv-x="530" 
d="M229 -9q-50 0 -89.5 19.5t-62.5 53.5t-23 76q0 53 27.5 84t91 44.5t173.5 13.5h32v31q0 62 -25.5 89.5t-81.5 27.5q-44 0 -85 -12.5t-84 -40.5l-28 59q38 27 92.5 43t104.5 16q94 0 139.5 -46t45.5 -143v-306h-76v84q-19 -43 -58.5 -68t-92.5 -25zM242 52q60 0 98 41.5
t38 105.5v30h-31q-81 0 -127.5 -7.5t-65 -26t-18.5 -50.5q0 -41 28.5 -67t77.5 -26zM314 551l-83 202h74l54 -202h-45zM187 551l-84 202h75l54 -202h-45z" />
    <glyph glyph-name="uni0202" unicode="&#x202;" horiz-adv-x="729" 
d="M19 0l311 705h70l311 -705h-85l-78 180h-367l-77 -180h-85zM364 609l-153 -360h308l-153 360h-2zM248 760l-51 6q6 79 52.5 124t116.5 45t116.5 -45t52.5 -124l-51 -6q-4 57 -35.5 89t-82.5 32t-82 -32t-36 -89z" />
    <glyph glyph-name="uni0203" unicode="&#x203;" horiz-adv-x="530" 
d="M229 -9q-50 0 -89.5 19.5t-62.5 53.5t-23 76q0 53 27.5 84t91 44.5t173.5 13.5h32v31q0 62 -25.5 89.5t-81.5 27.5q-44 0 -85 -12.5t-84 -40.5l-28 59q38 27 92.5 43t104.5 16q94 0 139.5 -46t45.5 -143v-306h-76v84q-19 -43 -58.5 -68t-92.5 -25zM242 52q60 0 98 41.5
t38 105.5v30h-31q-81 0 -127.5 -7.5t-65 -26t-18.5 -50.5q0 -41 28.5 -67t77.5 -26zM169 549l-51 5q4 88 45.5 139t108.5 51q68 0 109 -51t45 -139l-51 -5q-3 67 -30 103.5t-73 36.5t-73 -36.5t-30 -103.5z" />
    <glyph glyph-name="uni0204" unicode="&#x204;" horiz-adv-x="583" 
d="M87 0v705h445v-69h-365v-244h344v-69h-344v-254h365v-69h-445zM364 765l-118 172h80l85 -172h-47zM237 765l-122 172h80l89 -172h-47z" />
    <glyph glyph-name="uni0205" unicode="&#x205;" horiz-adv-x="532" 
d="M295 -9q-115 0 -182 67.5t-67 183.5q0 75 30 132.5t82.5 89t121.5 31.5q99 0 155 -63.5t56 -174.5v-31h-366q4 -83 48 -126.5t122 -43.5q44 0 84 13.5t76 44.5l28 -57q-33 -31 -84 -48.5t-104 -17.5zM282 435q-69 0 -109 -43t-47 -113h295q-3 74 -38.5 115t-100.5 41z
M322 551l-83 202h74l54 -202h-45zM195 551l-84 202h75l54 -202h-45z" />
    <glyph glyph-name="uni0206" unicode="&#x206;" horiz-adv-x="583" 
d="M87 0v705h445v-69h-365v-244h344v-69h-344v-254h365v-69h-445zM206 760l-51 6q6 79 52.5 124t116.5 45t116.5 -45t52.5 -124l-51 -6q-4 57 -35.5 89t-82.5 32t-82 -32t-36 -89z" />
    <glyph glyph-name="uni0207" unicode="&#x207;" horiz-adv-x="532" 
d="M295 -9q-115 0 -182 67.5t-67 183.5q0 75 30 132.5t82.5 89t121.5 31.5q99 0 155 -63.5t56 -174.5v-31h-366q4 -83 48 -126.5t122 -43.5q44 0 84 13.5t76 44.5l28 -57q-33 -31 -84 -48.5t-104 -17.5zM282 435q-69 0 -109 -43t-47 -113h295q-3 74 -38.5 115t-100.5 41z
M177 549l-51 5q4 88 45.5 139t108.5 51q68 0 109 -51t45 -139l-51 -5q-3 67 -30 103.5t-73 36.5t-73 -36.5t-30 -103.5z" />
    <glyph glyph-name="uni0208" unicode="&#x208;" horiz-adv-x="256" 
d="M87 0v705h82v-705h-82zM168 765l-118 172h80l85 -172h-47zM41 765l-122 172h80l89 -172h-47z" />
    <glyph glyph-name="uni0209" unicode="&#x209;" horiz-adv-x="232" 
d="M76 0v486h81v-486h-81zM158 551l-83 202h74l54 -202h-45zM31 551l-84 202h75l54 -202h-45z" />
    <glyph glyph-name="uni020A" unicode="&#x20a;" horiz-adv-x="256" 
d="M87 0v705h82v-705h-82zM10 760l-51 6q6 79 52.5 124t116.5 45t116.5 -45t52.5 -124l-51 -6q-4 57 -35.5 89t-82.5 32t-82 -32t-36 -89z" />
    <glyph glyph-name="uni020B" unicode="&#x20b;" horiz-adv-x="232" 
d="M76 0v486h81v-486h-81zM13 549l-51 5q4 88 45.5 139t108.5 51q68 0 109 -51t45 -139l-51 -5q-3 67 -30 103.5t-73 36.5t-73 -36.5t-30 -103.5z" />
    <glyph glyph-name="uni020C" unicode="&#x20c;" horiz-adv-x="767" 
d="M383 -9q-98 0 -170.5 44.5t-112 125.5t-39.5 192t39 192t111.5 125t171.5 44q100 0 172.5 -44t112 -124.5t39.5 -191.5t-40 -192.5t-112.5 -126t-171.5 -44.5zM383 64q113 0 175 76t62 213t-62 212.5t-175 75.5q-111 0 -173 -75.5t-62 -212.5q0 -136 62 -212.5t173 -76.5
zM423 765l-118 172h80l85 -172h-47zM296 765l-122 172h80l89 -172h-47z" />
    <glyph glyph-name="uni020D" unicode="&#x20d;" horiz-adv-x="556" 
d="M278 -9q-71 0 -123 31t-80.5 87.5t-28.5 133.5t28.5 133.5t80.5 87.5t123 31q70 0 122.5 -31t81 -87.5t28.5 -133.5t-28.5 -133.5t-81 -87.5t-122.5 -31zM278 56q68 0 109 48.5t41 138.5q0 91 -41 139t-109 48q-69 0 -109.5 -48t-40.5 -139q0 -90 40.5 -138.5
t109.5 -48.5zM320 551l-83 202h74l54 -202h-45zM193 551l-84 202h75l54 -202h-45z" />
    <glyph glyph-name="uni020E" unicode="&#x20e;" horiz-adv-x="767" 
d="M383 -9q-98 0 -170.5 44.5t-112 125.5t-39.5 192t39 192t111.5 125t171.5 44q100 0 172.5 -44t112 -124.5t39.5 -191.5t-40 -192.5t-112.5 -126t-171.5 -44.5zM383 64q113 0 175 76t62 213t-62 212.5t-175 75.5q-111 0 -173 -75.5t-62 -212.5q0 -136 62 -212.5t173 -76.5
zM265 760l-51 6q6 79 52.5 124t116.5 45t116.5 -45t52.5 -124l-51 -6q-4 57 -35.5 89t-82.5 32t-82 -32t-36 -89z" />
    <glyph glyph-name="uni020F" unicode="&#x20f;" horiz-adv-x="556" 
d="M278 -9q-71 0 -123 31t-80.5 87.5t-28.5 133.5t28.5 133.5t80.5 87.5t123 31q70 0 122.5 -31t81 -87.5t28.5 -133.5t-28.5 -133.5t-81 -87.5t-122.5 -31zM278 56q68 0 109 48.5t41 138.5q0 91 -41 139t-109 48q-69 0 -109.5 -48t-40.5 -139q0 -90 40.5 -138.5
t109.5 -48.5zM175 549l-51 5q4 88 45.5 139t108.5 51q68 0 109 -51t45 -139l-51 -5q-3 67 -30 103.5t-73 36.5t-73 -36.5t-30 -103.5z" />
    <glyph glyph-name="uni0210" unicode="&#x210;" horiz-adv-x="669" 
d="M87 0v705h279q114 0 174.5 -53t60.5 -151q0 -78 -42.5 -128t-120.5 -65q46 -16 79 -78l124 -230h-90l-122 226q-23 42 -53 57t-79 15h-128v-298h-82zM169 363h185q166 0 166 138q0 136 -166 136h-185v-274zM381 765l-118 172h80l85 -172h-47zM254 765l-122 172h80
l89 -172h-47z" />
    <glyph glyph-name="uni0211" unicode="&#x211;" horiz-adv-x="358" 
d="M76 0v486h79v-87q39 88 160 97l29 3l6 -70l-51 -6q-69 -6 -105 -43.5t-36 -102.5v-277h-82zM257 551l-83 202h74l54 -202h-45zM130 551l-84 202h75l54 -202h-45z" />
    <glyph glyph-name="uni0212" unicode="&#x212;" horiz-adv-x="669" 
d="M87 0v705h279q114 0 174.5 -53t60.5 -151q0 -78 -42.5 -128t-120.5 -65q46 -16 79 -78l124 -230h-90l-122 226q-23 42 -53 57t-79 15h-128v-298h-82zM169 363h185q166 0 166 138q0 136 -166 136h-185v-274zM223 760l-51 6q6 79 52.5 124t116.5 45t116.5 -45t52.5 -124
l-51 -6q-4 57 -35.5 89t-82.5 32t-82 -32t-36 -89z" />
    <glyph glyph-name="uni0213" unicode="&#x213;" horiz-adv-x="358" 
d="M76 0v486h79v-87q39 88 160 97l29 3l6 -70l-51 -6q-69 -6 -105 -43.5t-36 -102.5v-277h-82zM112 549l-51 5q4 88 45.5 139t108.5 51q68 0 109 -51t45 -139l-51 -5q-3 67 -30 103.5t-73 36.5t-73 -36.5t-30 -103.5z" />
    <glyph glyph-name="uni0214" unicode="&#x214;" horiz-adv-x="728" 
d="M365 -9q-139 0 -211 73.5t-72 214.5v426h82v-422q0 -219 201 -219q199 0 199 219v422h82v-426q0 -141 -71.5 -214.5t-209.5 -73.5zM405 765l-118 172h80l85 -172h-47zM278 765l-122 172h80l89 -172h-47z" />
    <glyph glyph-name="uni0215" unicode="&#x215;" horiz-adv-x="561" 
d="M248 -9q-175 0 -175 193v302h81v-301q0 -65 26.5 -96t83.5 -31q62 0 101 41.5t39 110.5v276h81v-486h-79v82q-23 -44 -64.5 -67.5t-93.5 -23.5zM323 552l-83 202h74l54 -202h-45zM196 552l-84 202h75l54 -202h-45z" />
    <glyph glyph-name="uni0216" unicode="&#x216;" horiz-adv-x="728" 
d="M365 -9q-139 0 -211 73.5t-72 214.5v426h82v-422q0 -219 201 -219q199 0 199 219v422h82v-426q0 -141 -71.5 -214.5t-209.5 -73.5zM247 760l-51 6q6 79 52.5 124t116.5 45t116.5 -45t52.5 -124l-51 -6q-4 57 -35.5 89t-82.5 32t-82 -32t-36 -89z" />
    <glyph glyph-name="uni0217" unicode="&#x217;" horiz-adv-x="561" 
d="M248 -9q-175 0 -175 193v302h81v-301q0 -65 26.5 -96t83.5 -31q62 0 101 41.5t39 110.5v276h81v-486h-79v82q-23 -44 -64.5 -67.5t-93.5 -23.5zM178 550l-51 5q4 88 45.5 139t108.5 51q68 0 109 -51t45 -139l-51 -5q-3 67 -30 103.5t-73 36.5t-73 -36.5t-30 -103.5z" />
    <glyph glyph-name="uni0218" unicode="&#x218;" horiz-adv-x="615" 
d="M315 -9q-83 0 -150 21.5t-116 62.5l29 66q51 -39 107 -58t130 -19q90 0 133.5 33.5t43.5 88.5q0 44 -31.5 70t-105.5 41l-104 21q-94 20 -140.5 65.5t-46.5 121.5q0 63 32.5 110t90.5 73t134 26q71 0 132 -22.5t103 -64.5l-29 -64q-45 41 -95 59.5t-112 18.5
q-79 0 -126 -36.5t-47 -96.5q0 -48 29.5 -76t96.5 -41l104 -22q101 -21 149.5 -63.5t48.5 -115.5q0 -59 -31.5 -104t-90 -70t-138.5 -25zM313 -268l-35 26q19 21 27.5 40t9.5 40h-48v82h98v-60q0 -37 -12.5 -69.5t-39.5 -58.5z" />
    <glyph glyph-name="uni0219" unicode="&#x219;" horiz-adv-x="481" 
d="M240 -9q-57 0 -108 16t-84 45l26 57q36 -29 79.5 -42.5t88.5 -13.5q57 0 86 21t29 57q0 28 -19 44.5t-60 25.5l-91 20q-124 27 -124 128q0 66 52.5 106t137.5 40q50 0 95.5 -15.5t75.5 -45.5l-27 -57q-29 27 -67.5 41.5t-76.5 14.5q-56 0 -85 -22t-29 -58q0 -56 74 -72
l91 -19q64 -14 97 -44.5t33 -82.5q0 -67 -53 -105.5t-141 -38.5zM237 -268l-35 26q19 21 27.5 40t9.5 40h-48v82h98v-60q0 -37 -12.5 -69.5t-39.5 -58.5z" />
    <glyph glyph-name="uni021A" unicode="&#x21a;" horiz-adv-x="602" 
d="M260 0v634h-256v71h595v-71h-256v-634h-83zM298 -268l-35 26q19 21 27.5 40t9.5 40h-48v82h98v-60q0 -37 -12.5 -69.5t-39.5 -58.5z" />
    <glyph glyph-name="uni021B" unicode="&#x21b;" horiz-adv-x="350" 
d="M271 -9q-86 0 -129 45.5t-43 131.5v255h-95v63h95v149h81v-149h154v-63h-154v-247q0 -57 24 -86.5t78 -29.5q16 0 32 4t29 8l14 -62q-13 -7 -38 -13t-48 -6zM213 -268l-35 26q19 21 27.5 40t9.5 40h-48v82h98v-60q0 -37 -12.5 -69.5t-39.5 -58.5z" />
    <glyph glyph-name="uni021F" unicode="&#x21f;" horiz-adv-x="568" 
d="M76 0v705h81v-299q24 44 67.5 66.5t97.5 22.5q173 0 173 -192v-303h-81v298q0 68 -26.5 99.5t-84.5 31.5q-67 0 -106.5 -41.5t-39.5 -110.5v-277h-81zM248 765l-123 172h61l100 -119l100 119h61l-123 -172h-76z" />
    <glyph glyph-name="uni0226" unicode="&#x226;" horiz-adv-x="729" 
d="M19 0l311 705h70l311 -705h-85l-78 180h-367l-77 -180h-85zM364 609l-153 -360h308l-153 360h-2zM321 807v88h90v-88h-90z" />
    <glyph glyph-name="uni0227" unicode="&#x227;" horiz-adv-x="530" 
d="M229 -9q-50 0 -89.5 19.5t-62.5 53.5t-23 76q0 53 27.5 84t91 44.5t173.5 13.5h32v31q0 62 -25.5 89.5t-81.5 27.5q-44 0 -85 -12.5t-84 -40.5l-28 59q38 27 92.5 43t104.5 16q94 0 139.5 -46t45.5 -143v-306h-76v84q-19 -43 -58.5 -68t-92.5 -25zM242 52q60 0 98 41.5
t38 105.5v30h-31q-81 0 -127.5 -7.5t-65 -26t-18.5 -50.5q0 -41 28.5 -67t77.5 -26zM226 609v88h92v-88h-92z" />
    <glyph glyph-name="uni0228" unicode="&#x228;" horiz-adv-x="583" 
d="M87 0v705h445v-69h-365v-244h344v-69h-344v-254h365v-69h-445zM327 -192q-56 0 -89 19l13 44q18 -8 34.5 -12t39.5 -4q26 0 42 9.5t16 27.5q0 28 -38 28q-11 0 -21.5 -2t-25.5 -7l-16 16l14 93h51l-11 -63q10 1 19 1q37 0 60.5 -18t23.5 -50q0 -37 -31 -59.5t-81 -22.5z
" />
    <glyph glyph-name="uni022A" unicode="&#x22a;" horiz-adv-x="767" 
d="M383 -9q-98 0 -170.5 44.5t-112 125.5t-39.5 192t39 192t111.5 125t171.5 44q100 0 172.5 -44t112 -124.5t39.5 -191.5t-40 -192.5t-112.5 -126t-171.5 -44.5zM383 64q113 0 175 76t62 213t-62 212.5t-175 75.5q-111 0 -173 -75.5t-62 -212.5q0 -136 62 -212.5t173 -76.5
zM235 926v55h296v-55h-296zM253 797v73h87v-73h-87zM426 797v73h87v-73h-87z" />
    <glyph glyph-name="uni022B" unicode="&#x22b;" horiz-adv-x="556" 
d="M278 -9q-71 0 -123 31t-80.5 87.5t-28.5 133.5t28.5 133.5t80.5 87.5t123 31q70 0 122.5 -31t81 -87.5t28.5 -133.5t-28.5 -133.5t-81 -87.5t-122.5 -31zM278 56q68 0 109 48.5t41 138.5q0 91 -41 139t-109 48q-69 0 -109.5 -48t-40.5 -139q0 -90 40.5 -138.5
t109.5 -48.5zM130 707v55h296v-55h-296zM148 579v73h87v-73h-87zM321 579v73h87v-73h-87z" />
    <glyph glyph-name="uni022C" unicode="&#x22c;" horiz-adv-x="767" 
d="M383 -9q-98 0 -170.5 44.5t-112 125.5t-39.5 192t39 192t111.5 125t171.5 44q100 0 172.5 -44t112 -124.5t39.5 -191.5t-40 -192.5t-112.5 -126t-171.5 -44.5zM383 64q113 0 175 76t62 213t-62 212.5t-175 75.5q-111 0 -173 -75.5t-62 -212.5q0 -136 62 -212.5t173 -76.5
zM235 926v55h296v-55h-296zM448 768q-18 0 -35 7t-40 22q-20 14 -31.5 18.5t-21.5 4.5q-22 0 -33.5 -13t-16.5 -41l-45 2q4 51 29.5 76.5t64.5 25.5q16 0 32 -6t40 -22q20 -14 32 -19t23 -5q23 0 34.5 12.5t15.5 41.5l45 -3q-4 -51 -29 -76t-64 -25z" />
    <glyph glyph-name="uni022D" unicode="&#x22d;" horiz-adv-x="556" 
d="M278 -9q-71 0 -123 31t-80.5 87.5t-28.5 133.5t28.5 133.5t80.5 87.5t123 31q70 0 122.5 -31t81 -87.5t28.5 -133.5t-28.5 -133.5t-81 -87.5t-122.5 -31zM278 56q68 0 109 48.5t41 138.5q0 91 -41 139t-109 48q-69 0 -109.5 -48t-40.5 -139q0 -90 40.5 -138.5
t109.5 -48.5zM130 707v55h296v-55h-296zM165 547l-45 3q4 51 29.5 76t64.5 25q16 0 33 -6.5t40 -22.5q33 -23 54 -23q23 0 34.5 13t15.5 41l45 -2q-4 -51 -29 -76.5t-64 -25.5q-32 0 -74 29q-35 23 -54 23q-22 0 -33.5 -12.5t-16.5 -41.5z" />
    <glyph glyph-name="uni0230" unicode="&#x230;" horiz-adv-x="767" 
d="M383 -9q-98 0 -170.5 44.5t-112 125.5t-39.5 192t39 192t111.5 125t171.5 44q100 0 172.5 -44t112 -124.5t39.5 -191.5t-40 -192.5t-112.5 -126t-171.5 -44.5zM383 64q113 0 175 76t62 213t-62 212.5t-175 75.5q-111 0 -173 -75.5t-62 -212.5q0 -136 62 -212.5t173 -76.5
zM235 926v55h296v-55h-296zM340 797v73h87v-73h-87z" />
    <glyph glyph-name="uni0231" unicode="&#x231;" horiz-adv-x="556" 
d="M278 -9q-71 0 -123 31t-80.5 87.5t-28.5 133.5t28.5 133.5t80.5 87.5t123 31q70 0 122.5 -31t81 -87.5t28.5 -133.5t-28.5 -133.5t-81 -87.5t-122.5 -31zM278 56q68 0 109 48.5t41 138.5q0 91 -41 139t-109 48q-69 0 -109.5 -48t-40.5 -139q0 -90 40.5 -138.5
t109.5 -48.5zM130 707v55h296v-55h-296zM235 579v73h87v-73h-87z" />
    <glyph glyph-name="uni0232" unicode="&#x232;" horiz-adv-x="596" 
d="M257 0v334l-270 371h96l217 -299l216 299h93l-270 -373v-332h-82zM135 814v55h326v-55h-326z" />
    <glyph glyph-name="uni0233" unicode="&#x233;" horiz-adv-x="514" 
d="M132 -180l83 188l-205 478h88l161 -394l162 394h85l-289 -666h-85zM110 625v55h296v-55h-296z" />
    <glyph glyph-name="uni0237" unicode="&#x237;" horiz-adv-x="236" 
d="M-50 -193l-6 63l43 4q92 8 92 111v501h81v-493q0 -87 -41 -132t-126 -51z" />
    <glyph glyph-name="uni0253" unicode="&#x253;" horiz-adv-x="583" 
d="M322 -9q-58 0 -101.5 26t-65.5 71v-88h-79v544q0 81 42.5 125.5t124.5 44.5q31 0 56 -8l-10 -64q-13 3 -21 4t-18 1q-47 0 -70 -26.5t-23 -75.5v-143q21 43 65 68t100 25q65 0 113.5 -30.5t75 -87t26.5 -134.5q0 -77 -26.5 -133.5t-75 -87.5t-113.5 -31zM305 56
q68 0 109 48.5t41 138.5q0 91 -41 139t-109 48t-109 -48t-41 -139q0 -90 41 -138.5t109 -48.5z" />
    <glyph glyph-name="uni0257" unicode="&#x257;" horiz-adv-x="583" 
d="M261 -9q-65 0 -113.5 31t-75 87.5t-26.5 133.5q0 78 26.5 134.5t75 87t113.5 30.5q57 0 100.5 -25t64.5 -69v143q0 81 43 125.5t125 44.5q31 0 56 -8l-10 -64q-13 3 -21 4t-18 1q-45 0 -69.5 -25.5t-24.5 -76.5v-545h-79v89q-21 -46 -65 -72t-102 -26zM278 56
q68 0 109 48.5t41 138.5q0 91 -41 139t-109 48q-69 0 -109.5 -48t-40.5 -139q0 -90 40.5 -138.5t109.5 -48.5z" />
    <glyph glyph-name="uni0259" unicode="&#x259;" horiz-adv-x="532" 
d="M258 -9q-102 0 -159.5 63t-57.5 178v29h367q-5 82 -49 125.5t-120 43.5q-87 0 -163 -57l-27 57q35 31 86 48t104 17q114 0 180.5 -67t66.5 -183q0 -77 -29 -134t-80.5 -88.5t-118.5 -31.5zM257 51q63 0 103 40.5t47 115.5h-292q6 -156 142 -156z" />
    <glyph glyph-name="uni0292" unicode="&#x292;" horiz-adv-x="495" 
d="M228 -189q-67 0 -121 16t-91 45l28 59q71 -55 177 -55q80 0 120.5 37t40.5 107q0 63 -40 97t-113 34h-103v40l210 230h-301v65h397v-55l-201 -220h19q101 0 157 -49.5t56 -137.5q0 -99 -62.5 -156t-172.5 -57z" />
    <glyph glyph-name="uni02B9" unicode="&#x2b9;" horiz-adv-x="221" 
d="M84 428l-21 277h95l-19 -277h-55z" />
    <glyph glyph-name="uni02BA" unicode="&#x2ba;" horiz-adv-x="391" 
d="M84 428l-21 277h95l-19 -277h-55zM255 428l-21 277h95l-19 -277h-55z" />
    <glyph glyph-name="uni02BB" unicode="&#x2bb;" horiz-adv-x="500" 
d="M201 567v61q0 36 10.5 66.5t39.5 57.5l35 -26q-18 -20 -25.5 -37.5t-8.5 -34.5h47v-87h-98z" />
    <glyph glyph-name="uni02BC" unicode="&#x2bc;" horiz-adv-x="323" 
d="M161 571l-36 26q19 19 26 36.5t8 35.5h-46v86h98v-60q0 -36 -10.5 -66.5t-39.5 -57.5z" />
    <glyph glyph-name="uni02BE" unicode="&#x2be;" horiz-adv-x="500" 
d="M250 554v45q24 0 38.5 16t14.5 38q0 23 -14.5 39t-38.5 16v45q44 0 73 -29t29 -71t-29 -70.5t-73 -28.5z" />
    <glyph glyph-name="uni02BF" unicode="&#x2bf;" horiz-adv-x="500" 
d="M250 554q-43 0 -72 28.5t-29 70.5t29 71t72 29v-45q-23 0 -38 -16t-15 -39q0 -22 15 -38t38 -16v-45z" />
    <glyph glyph-name="circumflex" unicode="&#x2c6;" horiz-adv-x="500" 
d="M102 551l109 202h78l109 -202h-56l-92 148l-92 -148h-56z" />
    <glyph glyph-name="caron" unicode="&#x2c7;" horiz-adv-x="500" 
d="M211 551l-109 202h56l92 -148l92 148h56l-109 -202h-78z" />
    <glyph glyph-name="uni02C8" unicode="&#x2c8;" horiz-adv-x="500" 
d="M220 595v200h60v-200h-60z" />
    <glyph glyph-name="uni02C9" unicode="&#x2c9;" horiz-adv-x="500" 
d="M102 625v55h296v-55h-296z" />
    <glyph glyph-name="uni02CA" unicode="&#x2ca;" horiz-adv-x="500" 
d="M221 551l103 202h87l-132 -202h-58z" />
    <glyph glyph-name="fourthtofinechinese" unicode="&#x2cb;" horiz-adv-x="500" 
d="M221 551l-131 202h86l103 -202h-58z" />
    <glyph glyph-name="uni02CC" unicode="&#x2cc;" horiz-adv-x="500" 
d="M220 -270v200h60v-200h-60z" />
    <glyph glyph-name="breve" unicode="&#x2d8;" horiz-adv-x="500" 
d="M250 549q-67 0 -108.5 50.5t-45.5 139.5l51 5q3 -67 30 -103.5t73 -36.5t73 36.5t30 103.5l51 -5q-4 -89 -45 -139.5t-109 -50.5z" />
    <glyph glyph-name="dotaccent" unicode="&#x2d9;" horiz-adv-x="500" 
d="M204 609v88h92v-88h-92z" />
    <glyph glyph-name="ring" unicode="&#x2da;" horiz-adv-x="500" 
d="M250 547q-50 0 -84.5 33.5t-34.5 82.5q0 48 34.5 81.5t84.5 33.5t84.5 -33.5t34.5 -81.5q0 -49 -34.5 -82.5t-84.5 -33.5zM250 590q32 0 52 21t20 52q0 30 -20 51t-52 21q-31 0 -51.5 -21t-20.5 -51q0 -31 20.5 -52t51.5 -21z" />
    <glyph glyph-name="ogonek" unicode="&#x2db;" horiz-adv-x="500" 
d="M231 -192q-48 0 -76.5 26t-28.5 71q0 40 25.5 75t69.5 56l29 -36q-24 -10 -45 -32.5t-21 -53.5q0 -29 16.5 -42.5t41.5 -13.5t53 12l14 -45q-30 -17 -78 -17z" />
    <glyph glyph-name="tilde" unicode="&#x2dc;" horiz-adv-x="500" 
d="M116 590l-46 3q5 63 33.5 98t73.5 35q22 0 40.5 -10.5t42.5 -31.5q22 -19 35.5 -26.5t26.5 -7.5q51 0 62 79l46 -3q-5 -63 -33 -98t-73 -35q-21 0 -39.5 9.5t-44.5 32.5q-21 19 -34.5 26.5t-26.5 7.5q-51 0 -63 -79z" />
    <glyph glyph-name="hungarumlaut" unicode="&#x2dd;" horiz-adv-x="500" 
d="M291 551l53 202h75l-83 -202h-45zM163 551l54 202h75l-84 -202h-45z" />
    <glyph glyph-name="gravecomb" unicode="&#x300;" 
d="M-29 551l-131 202h86l103 -202h-58z" />
    <glyph glyph-name="acutecomb" unicode="&#x301;" 
d="M-29 551l103 202h87l-132 -202h-58z" />
    <glyph glyph-name="uni0302" unicode="&#x302;" 
d="M-148 551l109 202h78l109 -202h-56l-92 148l-92 -148h-56z" />
    <glyph glyph-name="tildecomb" unicode="&#x303;" 
d="M-134 590l-46 3q5 63 33.5 98t73.5 35q22 0 40.5 -10.5t42.5 -31.5q22 -19 35.5 -26.5t26.5 -7.5q51 0 62 79l46 -3q-5 -63 -33 -98t-73 -35q-21 0 -39.5 9.5t-44.5 32.5q-21 19 -34.5 26.5t-26.5 7.5q-51 0 -63 -79z" />
    <glyph glyph-name="uni0304" unicode="&#x304;" 
d="M-148 625v55h296v-55h-296z" />
    <glyph glyph-name="uni0306" unicode="&#x306;" 
d="M0 549q-67 0 -108.5 50.5t-45.5 139.5l51 5q3 -67 30 -103.5t73 -36.5t73 36.5t30 103.5l51 -5q-4 -89 -45 -139.5t-109 -50.5z" />
    <glyph glyph-name="uni0307" unicode="&#x307;" 
d="M-46 609v88h92v-88h-92z" />
    <glyph glyph-name="uni0308" unicode="&#x308;" 
d="M43 609v86h87v-86h-87zM-130 609v86h87v-86h-87z" />
    <glyph glyph-name="hookabovecomb" unicode="&#x309;" 
d="M-27 551v21q0 23 9 37.5t21.5 25.5t22 22t9.5 25q0 28 -46 28q-16 0 -31 -3t-32 -12l-14 42q36 22 92 22q46 0 71.5 -18t25.5 -50q0 -25 -11 -40t-25.5 -26t-26 -24t-11.5 -34v-16h-54z" />
    <glyph glyph-name="uni030A" unicode="&#x30a;" 
d="M0 547q-50 0 -84.5 33.5t-34.5 82.5q0 48 34.5 81.5t84.5 33.5t84.5 -33.5t34.5 -81.5q0 -49 -34.5 -82.5t-84.5 -33.5zM0 590q32 0 52 21t20 52q0 30 -20 51t-52 21q-31 0 -51.5 -21t-20.5 -51q0 -31 20.5 -52t51.5 -21z" />
    <glyph glyph-name="uni030B" unicode="&#x30b;" 
d="M41 551l53 202h75l-83 -202h-45zM-87 551l54 202h75l-84 -202h-45z" />
    <glyph glyph-name="uni030C" unicode="&#x30c;" 
d="M-39 551l-109 202h56l92 -148l92 148h56l-109 -202h-78z" />
    <glyph glyph-name="uni030F" unicode="&#x30f;" 
d="M42 551l-83 202h74l54 -202h-45zM-85 551l-84 202h75l54 -202h-45z" />
    <glyph glyph-name="uni0311" unicode="&#x311;" 
d="M-103 549l-51 5q4 88 45.5 139t108.5 51q68 0 109 -51t45 -139l-51 -5q-3 67 -30 103.5t-73 36.5t-73 -36.5t-30 -103.5z" />
    <glyph glyph-name="uni0312" unicode="&#x312;" 
d="M-49 567v60q0 38 12.5 70t39.5 58l35 -25q-19 -22 -27.5 -41t-9.5 -39h48v-83h-98z" />
    <glyph glyph-name="uni031B" unicode="&#x31b;" 
d="M41 436l-42 28v22q64 1 87 28t23 86v16h72v-28q0 -68 -37 -107.5t-103 -44.5z" />
    <glyph glyph-name="dotbelowcomb" unicode="&#x323;" 
d="M-46 -187v88h92v-88h-92z" />
    <glyph glyph-name="uni0324" unicode="&#x324;" 
d="M43 -181v86h87v-86h-87zM-130 -181v86h87v-86h-87z" />
    <glyph glyph-name="uni0326" unicode="&#x326;" 
d="M-3 -268l-35 26q19 21 27.5 40t9.5 40h-48v82h98v-60q0 -37 -12.5 -69.5t-39.5 -58.5z" />
    <glyph glyph-name="uni0327" unicode="&#x327;" 
d="M3 -192q-56 0 -89 19l13 44q18 -8 34.5 -12t39.5 -4q26 0 42 9.5t16 27.5q0 28 -38 28q-11 0 -21.5 -2t-25.5 -7l-16 16l14 93h51l-11 -63q10 1 19 1q37 0 60.5 -18t23.5 -50q0 -37 -31 -59.5t-81 -22.5z" />
    <glyph glyph-name="uni0328" unicode="&#x328;" 
d="M-19 -192q-48 0 -76.5 26t-28.5 71q0 40 25.5 75t69.5 56l29 -36q-24 -10 -45 -32.5t-21 -53.5q0 -29 16.5 -42.5t41.5 -13.5t53 12l14 -45q-30 -17 -78 -17z" />
    <glyph glyph-name="uni032E" unicode="&#x32e;" 
d="M0 -215q-67 0 -108.5 40t-45.5 110l51 5q3 -48 30 -74.5t73 -26.5t73 26.5t30 74.5l51 -5q-4 -70 -45 -110t-109 -40z" />
    <glyph glyph-name="uni0331" unicode="&#x331;" 
d="M-148 -156v55h296v-55h-296z" />
    <glyph glyph-name="uni0335" unicode="&#x335;" 
d="M-183 526v61h366v-61h-366z" />
    <glyph glyph-name="uni0337" unicode="&#x337;" 
d="M-115 252l-33 57l263 154l33 -57z" />
    <glyph glyph-name="uni0338" unicode="&#x338;" 
d="M-137 -46l-49 29l323 554l49 -29z" />
    <glyph glyph-name="uni0394" unicode="&#x394;" horiz-adv-x="729" 
d="M44 0v49l286 656h70l285 -656v-49h-641zM364 609l-231 -540h464l-231 540h-2z" />
    <glyph glyph-name="Sigma" unicode="&#x3a3;" horiz-adv-x="600" 
d="M46 -180v59l273 384l-273 383v59h508v-70h-405l246 -348v-49l-246 -348h405v-70h-508z" />
    <glyph glyph-name="uni03A9" unicode="&#x3a9;" horiz-adv-x="778" 
d="M41 0v70h199q-95 64 -139.5 146t-44.5 182q0 99 41.5 169.5t117 108.5t174.5 38q100 0 175 -38t116.5 -108.5t41.5 -169.5q0 -100 -44 -182t-139 -146h198v-70h-290v67q96 68 142.5 148t46.5 175q0 120 -66 185.5t-181 65.5q-114 0 -180 -65.5t-66 -185.5q0 -95 46 -175
t143 -148v-67h-291z" />
    <glyph glyph-name="uni03BC" unicode="&#x3bc;" horiz-adv-x="561" 
d="M73 -180v666h81v-300q0 -65 26.5 -96.5t83.5 -31.5q62 0 101 42t39 111v275h81v-486h-79v88q-19 -47 -57.5 -72t-86.5 -25q-36 0 -65.5 11t-48.5 40l6 -222h-81z" />
    <glyph glyph-name="pi" unicode="&#x3c0;" horiz-adv-x="587" 
d="M511 -5q-87 0 -125.5 48.5t-38.5 133.5v246h-164q-2 -129 -18 -232.5t-47 -190.5h-86q68 192 71 423h-98v63h542v-63h-119v-241q0 -60 23 -89t76 -29q21 0 50 5l-4 -68q-35 -6 -62 -6z" />
    <glyph glyph-name="uni0400" unicode="&#x400;" horiz-adv-x="583" 
d="M87 0v705h445v-69h-365v-244h344v-69h-344v-254h365v-69h-445zM293 765l-147 172h91l118 -172h-62z" />
    <glyph glyph-name="uni0401" unicode="&#x401;" horiz-adv-x="583" 
d="M87 0v705h445v-69h-365v-244h344v-69h-344v-254h365v-69h-445zM367 806v86h87v-86h-87zM194 806v86h87v-86h-87z" />
    <glyph glyph-name="uni0402" unicode="&#x402;" horiz-adv-x="842" 
d="M578 -189q-34 0 -64.5 6t-51.5 15l16 64q40 -16 93 -16q63 0 97 42t34 126v92q0 114 -50.5 168t-152.5 54q-94 0 -156 -39v-323h-83v634h-256v71h595v-71h-256v-235q27 17 71.5 26.5t91.5 9.5q137 0 208 -72.5t71 -216.5v-95q0 -117 -55 -178.5t-152 -61.5z" />
    <glyph glyph-name="uni0403" unicode="&#x403;" horiz-adv-x="542" 
d="M87 0v705h441v-71h-359v-634h-82zM246 765l118 172h91l-147 -172h-62z" />
    <glyph glyph-name="uni0404" unicode="&#x404;" horiz-adv-x="673" 
d="M392 -9q-104 0 -178 44t-113.5 125t-39.5 193q0 111 39.5 192t113.5 125t178 44q72 0 134 -23t105 -67l-32 -67q-46 43 -95.5 62.5t-109.5 19.5q-111 0 -173.5 -65t-71.5 -181h354v-69h-354q7 -124 70 -191t175 -67q60 0 109.5 19.5t95.5 62.5l32 -67q-43 -43 -105 -66.5
t-134 -23.5z" />
    <glyph glyph-name="uni0405" unicode="&#x405;" horiz-adv-x="615" 
d="M315 -9q-83 0 -150 21.5t-116 62.5l29 66q51 -39 107 -58t130 -19q90 0 133.5 33.5t43.5 88.5q0 44 -31.5 70t-105.5 41l-104 21q-94 20 -140.5 65.5t-46.5 121.5q0 63 32.5 110t90.5 73t134 26q71 0 132 -22.5t103 -64.5l-29 -64q-45 41 -95 59.5t-112 18.5
q-79 0 -126 -36.5t-47 -96.5q0 -48 29.5 -76t96.5 -41l104 -22q101 -21 149.5 -63.5t48.5 -115.5q0 -59 -31.5 -104t-90 -70t-138.5 -25z" />
    <glyph glyph-name="uni0406" unicode="&#x406;" horiz-adv-x="256" 
d="M87 0v705h82v-705h-82z" />
    <glyph glyph-name="uni0407" unicode="&#x407;" horiz-adv-x="256" 
d="M87 0v705h82v-705h-82zM171 806v86h87v-86h-87zM-2 806v86h87v-86h-87z" />
    <glyph glyph-name="uni0408" unicode="&#x408;" horiz-adv-x="324" 
d="M-4 -7l-6 69l60 4q51 4 78 35.5t27 86.5v517h82v-518q0 -87 -45 -135.5t-131 -54.5z" />
    <glyph glyph-name="uni0409" unicode="&#x409;" horiz-adv-x="1129" 
d="M56 -15l-39 65q40 21 71 51t53 79t34 124.5t12 188.5v212h451v-311h212q111 0 172 -49t61 -147t-61 -148t-172 -50h-294v634h-293v-162q0 -147 -24 -242.5t-70.5 -153.5t-112.5 -91zM638 69h204q160 0 160 129q0 127 -160 127h-204v-256z" />
    <glyph glyph-name="uni040A" unicode="&#x40a;" horiz-adv-x="1165" 
d="M87 0v705h82v-312h423v312h82v-311h211q111 0 172.5 -49t61.5 -147t-61.5 -148t-172.5 -50h-293v322h-423v-322h-82zM674 69h203q160 0 160 129q0 127 -160 127h-203v-256z" />
    <glyph glyph-name="uni040B" unicode="&#x40b;" horiz-adv-x="849" 
d="M260 0v634h-256v71h595v-71h-256v-235q31 18 78 27t94 9q134 0 205 -72.5t71 -216.5v-146h-82v140q0 115 -51.5 168.5t-148.5 53.5q-45 0 -87.5 -9t-78.5 -30v-323h-83z" />
    <glyph glyph-name="uni040C" unicode="&#x40c;" horiz-adv-x="641" 
d="M87 0v705h82v-314h124l207 314h93l-219 -326q44 -15 77.5 -48.5t59.5 -85.5l119 -245h-90l-97 207q-29 61 -67 87t-93 26h-114v-320h-82zM296 765l118 172h91l-147 -172h-62z" />
    <glyph glyph-name="uni040D" unicode="&#x40d;" horiz-adv-x="740" 
d="M87 0v705h77v-569l425 569h63v-705h-76v571l-426 -571h-63zM339 765l-147 172h91l118 -172h-62z" />
    <glyph glyph-name="uni040E" unicode="&#x40e;" horiz-adv-x="643" 
d="M198 0l109 211l-308 494h89l259 -417l214 417h85l-361 -705h-87zM324 760q-66 0 -117 32.5t-72 99.5l47 17q21 -50 55.5 -73.5t85.5 -23.5q53 0 86.5 21.5t61.5 74.5l46 -16q-29 -72 -80.5 -102t-112.5 -30z" />
    <glyph glyph-name="uni040F" unicode="&#x40f;" horiz-adv-x="756" 
d="M340 -157v157h-253v705h82v-634h417v634h83v-705h-254v-157h-75z" />
    <glyph glyph-name="uni0410" unicode="&#x410;" horiz-adv-x="729" 
d="M19 0l311 705h70l311 -705h-85l-78 180h-367l-77 -180h-85zM364 609l-153 -360h308l-153 360h-2z" />
    <glyph glyph-name="uni0411" unicode="&#x411;" horiz-adv-x="660" 
d="M87 0v705h461v-69h-381v-242h214q111 0 172 -49t61 -147t-61 -148t-172 -50h-294zM167 69h206q160 0 160 129q0 127 -160 127h-206v-256z" />
    <glyph glyph-name="uni0412" unicode="&#x412;" horiz-adv-x="676" 
d="M87 0v705h282q109 0 168.5 -48.5t59.5 -135.5q0 -58 -30 -99t-83 -60q61 -16 95.5 -59t34.5 -109q0 -94 -61 -144t-172 -50h-294zM167 390h190q159 0 159 124q0 125 -159 125h-190v-249zM167 66h206q160 0 160 129t-160 129h-206v-258z" />
    <glyph glyph-name="uni0413" unicode="&#x413;" horiz-adv-x="542" 
d="M87 0v705h441v-71h-359v-634h-82z" />
    <glyph glyph-name="uni0414" unicode="&#x414;" horiz-adv-x="778" 
d="M17 -157v226h69q52 65 77 176.5t25 277.5v182h468v-636h100v-226h-75v157h-590v-157h-74zM172 69h401v567h-308v-119q0 -161 -22.5 -269t-70.5 -179z" />
    <glyph glyph-name="uni0415" unicode="&#x415;" horiz-adv-x="583" 
d="M87 0v705h445v-69h-365v-244h344v-69h-344v-254h365v-69h-445z" />
    <glyph glyph-name="uni0416" unicode="&#x416;" horiz-adv-x="968" 
d="M11 0l118 245q51 106 138 134l-218 326h92l207 -314h96v314h80v-314h97l207 314h92l-218 -326q43 -15 77 -48.5t59 -85.5l120 -245h-89l-99 207q-29 61 -66.5 87t-92.5 26h-87v-320h-80v320h-86q-56 0 -94 -26.5t-67 -86.5l-97 -207h-89z" />
    <glyph glyph-name="uni0417" unicode="&#x417;" horiz-adv-x="640" 
d="M312 -9q-89 0 -158.5 24.5t-113.5 66.5l29 65q48 -42 105.5 -62.5t132.5 -20.5q97 0 142.5 33.5t45.5 99.5q0 126 -160 126h-172v68h156q159 0 159 122q0 60 -42.5 94t-127.5 34q-63 0 -119.5 -19.5t-102.5 -60.5l-30 65q46 43 114.5 65.5t143.5 22.5q123 0 185 -53
t62 -140q0 -58 -30.5 -99t-82.5 -60q61 -16 95.5 -59t34.5 -109q0 -94 -65.5 -148.5t-200.5 -54.5z" />
    <glyph glyph-name="uni0418" unicode="&#x418;" horiz-adv-x="740" 
d="M87 0v705h77v-569l425 569h63v-705h-76v571l-426 -571h-63z" />
    <glyph glyph-name="uni0419" unicode="&#x419;" horiz-adv-x="740" 
d="M87 0v705h77v-569l425 569h63v-705h-76v571l-426 -571h-63zM370 760q-66 0 -117 32.5t-72 99.5l47 17q21 -50 55.5 -73.5t85.5 -23.5q53 0 86.5 21.5t61.5 74.5l46 -16q-29 -72 -80.5 -102t-112.5 -30z" />
    <glyph glyph-name="uni041A" unicode="&#x41a;" horiz-adv-x="641" 
d="M87 0v705h82v-314h124l207 314h93l-219 -326q44 -15 77.5 -48.5t59.5 -85.5l119 -245h-90l-97 207q-29 61 -67 87t-93 26h-114v-320h-82z" />
    <glyph glyph-name="uni041B" unicode="&#x41b;" horiz-adv-x="741" 
d="M56 -15l-39 65q40 21 71 51t53 79t34 124.5t12 188.5v212h467v-705h-83v634h-308v-162q0 -147 -24 -242.5t-70.5 -153.5t-112.5 -91z" />
    <glyph glyph-name="uni041C" unicode="&#x41c;" horiz-adv-x="855" 
d="M89 0v705h69l271 -509l269 509h69v-705h-76v551l-235 -442h-54l-238 441v-550h-75z" />
    <glyph glyph-name="uni041D" unicode="&#x41d;" horiz-adv-x="761" 
d="M87 0v705h82v-312h423v312h82v-705h-82v322h-423v-322h-82z" />
    <glyph glyph-name="uni041E" unicode="&#x41e;" horiz-adv-x="767" 
d="M383 -9q-98 0 -170.5 44.5t-112 125.5t-39.5 192t39 192t111.5 125t171.5 44q100 0 172.5 -44t112 -124.5t39.5 -191.5t-40 -192.5t-112.5 -126t-171.5 -44.5zM383 64q113 0 175 76t62 213t-62 212.5t-175 75.5q-111 0 -173 -75.5t-62 -212.5q0 -136 62 -212.5t173 -76.5
z" />
    <glyph glyph-name="uni041F" unicode="&#x41f;" horiz-adv-x="756" 
d="M87 0v705h582v-705h-83v634h-417v-634h-82z" />
    <glyph glyph-name="uni0420" unicode="&#x420;" horiz-adv-x="633" 
d="M87 0v705h279q114 0 174.5 -55t60.5 -157q0 -101 -60.5 -156.5t-174.5 -55.5h-197v-281h-82zM169 350h187q164 0 164 143q0 144 -164 144h-187v-287z" />
    <glyph glyph-name="uni0421" unicode="&#x421;" horiz-adv-x="673" 
d="M392 -9q-104 0 -178 44t-113.5 125t-39.5 193q0 111 39.5 192t113.5 125t178 44q73 0 134.5 -23t104.5 -67l-32 -67q-46 43 -95.5 62.5t-109.5 19.5q-119 0 -182 -75t-63 -211q0 -137 63 -212t182 -75q60 0 109.5 19.5t95.5 62.5l32 -67q-43 -43 -104.5 -66.5
t-134.5 -23.5z" />
    <glyph glyph-name="uni0422" unicode="&#x422;" horiz-adv-x="602" 
d="M260 0v634h-256v71h595v-71h-256v-634h-83z" />
    <glyph glyph-name="uni0423" unicode="&#x423;" horiz-adv-x="643" 
d="M198 0l109 211l-308 494h89l259 -417l214 417h85l-361 -705h-87z" />
    <glyph glyph-name="uni0424" unicode="&#x424;" horiz-adv-x="845" 
d="M381 -22v78h-2q-99 0 -170.5 36.5t-109.5 104.5t-38 161q0 142 83 221.5t235 79.5h2v73h83v-73h3q151 0 234 -79.5t83 -221.5q0 -93 -38 -161t-109 -104.5t-170 -36.5h-3v-78h-83zM478 593h-14v-470h14q66 0 115.5 28t77.5 80.5t28 126.5q0 113 -60 174t-161 61zM367 123
h15v470h-15q-101 0 -161 -61t-60 -174q0 -74 28 -126.5t77.5 -80.5t115.5 -28z" />
    <glyph glyph-name="uni0425" unicode="&#x425;" horiz-adv-x="650" 
d="M10 0l268 360l-255 345h96l207 -283l205 283h97l-256 -345l268 -360h-97l-218 298l-217 -298h-98z" />
    <glyph glyph-name="uni0426" unicode="&#x426;" horiz-adv-x="791" 
d="M694 -157v157h-607v705h82v-634h417v634h83v-634h100v-228h-75z" />
    <glyph glyph-name="uni0427" unicode="&#x427;" horiz-adv-x="676" 
d="M506 0v298q-31 -18 -78.5 -27t-94.5 -9q-133 0 -204 72.5t-71 216.5v154h82v-148q0 -115 50.5 -168.5t149.5 -53.5q44 0 87 9t79 31v330h83v-705h-83z" />
    <glyph glyph-name="uni0428" unicode="&#x428;" horiz-adv-x="1053" 
d="M87 0v705h82v-634h317v634h81v-634h317v634h82v-705h-879z" />
    <glyph glyph-name="uni0429" unicode="&#x429;" horiz-adv-x="1088" 
d="M991 -157v157h-904v705h82v-634h317v634h81v-634h317v634h82v-634h99v-228h-74z" />
    <glyph glyph-name="uni042A" unicode="&#x42a;" horiz-adv-x="790" 
d="M217 0v634h-213v71h296v-311h210q112 0 173 -49t61 -147t-61 -148t-173 -50h-293zM300 69h203q160 0 160 129q0 127 -160 127h-203v-256z" />
    <glyph glyph-name="uni042B" unicode="&#x42b;" horiz-adv-x="854" 
d="M87 0v705h82v-311h182q111 0 172 -49t61 -147t-61 -148t-172 -50h-264zM685 0v705h82v-705h-82zM169 69h174q160 0 160 129q0 127 -160 127h-174v-256z" />
    <glyph glyph-name="uni042C" unicode="&#x42c;" horiz-adv-x="660" 
d="M87 0v705h82v-311h212q111 0 172 -49t61 -147t-61 -148t-172 -50h-294zM169 69h204q160 0 160 129q0 127 -160 127h-204v-256z" />
    <glyph glyph-name="uni042D" unicode="&#x42d;" horiz-adv-x="673" 
d="M280 -9q-72 0 -134 23.5t-104 66.5l31 67q46 -43 96 -62.5t110 -19.5q111 0 174.5 67t70.5 191h-354v69h353q-9 116 -70 181t-164 65q-60 0 -111 -19t-105 -63l-31 67q102 90 248 90q100 0 172 -44t111 -125t39 -192q0 -112 -39.5 -193t-113.5 -125t-179 -44z" />
    <glyph glyph-name="uni042E" unicode="&#x42e;" horiz-adv-x="1013" 
d="M638 -9q-91 0 -159.5 40t-108 114.5t-45.5 176.5h-156v-322h-82v705h82v-312h157q7 100 47 171.5t107 110.5t158 39q97 0 167.5 -44t109 -125t38.5 -192t-38.5 -192t-109.5 -125.5t-167 -44.5zM638 64q109 0 168.5 76t59.5 213t-59.5 212.5t-168.5 75.5
q-108 0 -168 -75.5t-60 -212.5q0 -136 60 -212.5t168 -76.5z" />
    <glyph glyph-name="uni042F" unicode="&#x42f;" horiz-adv-x="670" 
d="M38 0l125 230q32 59 76 76q-81 15 -125.5 65t-44.5 130q0 98 60.5 151t174.5 53h279v-705h-82v298h-118q-49 0 -78.5 -15t-52.5 -57l-123 -226h-91zM316 363h185v274h-185q-166 0 -166 -136q0 -138 166 -138z" />
    <glyph glyph-name="uni0430" unicode="&#x430;" horiz-adv-x="539" 
d="M234 -9q-50 0 -89.5 19.5t-62.5 53.5t-23 76q0 53 27.5 84t91 44.5t173.5 13.5h32v31q0 62 -25.5 89.5t-81.5 27.5q-44 0 -85 -12.5t-84 -40.5l-28 59q38 27 92.5 43t104.5 16q94 0 139.5 -46t45.5 -143v-306h-76v84q-19 -43 -58.5 -68t-92.5 -25zM247 52q60 0 98 41.5
t38 105.5v30h-31q-81 0 -127.5 -7.5t-65 -26t-18.5 -50.5q0 -41 28.5 -67t77.5 -26z" />
    <glyph glyph-name="uni0431" unicode="&#x431;" horiz-adv-x="566" 
d="M285 -9q-108 0 -171 71t-63 206v75q0 145 58 220.5t176 107.5l173 49l27 -67l-194 -52q-81 -22 -121.5 -78.5t-40.5 -138.5v-2q23 49 68 77.5t106 28.5q63 0 111 -30t74.5 -85.5t26.5 -130.5q0 -76 -28.5 -132.5t-80 -87.5t-121.5 -31zM282 56q71 0 111 47.5t40 136.5
q0 87 -40 135t-110 48t-110 -47t-40 -129q0 -94 39 -142.5t110 -48.5z" />
    <glyph glyph-name="uni0432" unicode="&#x432;" horiz-adv-x="547" 
d="M80 0v486h237q86 0 127 -32.5t41 -95.5q0 -38 -21.5 -66t-58.5 -41q45 -11 70.5 -42t25.5 -75q0 -62 -46 -98t-130 -36h-245zM157 275h156q46 0 71 20.5t25 58.5q0 37 -25 57t-71 20h-156v-156zM157 55h165q50 0 76 21t26 62q0 40 -26 61t-76 21h-165v-165z" />
    <glyph glyph-name="uni0433" unicode="&#x433;" horiz-adv-x="435" 
d="M80 0v486h341v-65h-260v-421h-81z" />
    <glyph glyph-name="uni0434" unicode="&#x434;" horiz-adv-x="592" 
d="M27 -130v195h51q35 51 50 117.5t15 160.5v143h344v-421h77v-195h-70v130h-398v-130h-69zM156 65h254v357h-195v-93q0 -75 -15 -145t-44 -119z" />
    <glyph glyph-name="uni0435" unicode="&#x435;" horiz-adv-x="542" 
d="M300 -9q-115 0 -182 67.5t-67 183.5q0 75 30 132.5t82.5 89t121.5 31.5q99 0 155 -63.5t56 -174.5v-31h-366q4 -83 48 -126.5t122 -43.5q44 0 84 13.5t76 44.5l28 -57q-33 -31 -84 -48.5t-104 -17.5zM287 435q-69 0 -109 -43t-47 -113h295q-3 74 -38.5 115t-100.5 41z
" />
    <glyph glyph-name="uni0436" unicode="&#x436;" horiz-adv-x="785" 
d="M1 0l100 168q26 44 47.5 67t48.5 33l-171 218h89l160 -203h77v203h81v-203h78l159 203h89l-171 -218q27 -10 48.5 -33t47.5 -67l100 -168h-87l-88 147q-25 43 -48.5 57t-64.5 14h-63v-218h-81v218h-63q-41 0 -64 -14t-49 -57l-88 -147h-87z" />
    <glyph glyph-name="uni0437" unicode="&#x437;" horiz-adv-x="497" 
d="M241 -9q-63 0 -118.5 16.5t-89.5 46.5l26 57q35 -28 82 -42.5t98 -14.5q72 0 103.5 21t31.5 62q0 79 -101 79h-115v61h105q43 0 68.5 20t25.5 56t-28 57.5t-90 21.5q-97 0 -172 -53l-26 57q82 59 208 59q93 0 139 -36t46 -101q0 -37 -21.5 -65.5t-58.5 -41.5
q45 -11 71 -41.5t26 -75.5q0 -65 -53 -104t-157 -39z" />
    <glyph glyph-name="uni0438" unicode="&#x438;" horiz-adv-x="584" 
d="M80 0v486h74v-376l281 376h69v-486h-74v376l-281 -376h-69z" />
    <glyph glyph-name="uni0439" unicode="&#x439;" horiz-adv-x="584" 
d="M80 0v486h74v-376l281 376h69v-486h-74v376l-281 -376h-69zM292 549q-60 0 -106 32.5t-65 98.5l47 18q18 -51 48.5 -74.5t75.5 -23.5q46 0 75.5 22t53.5 75l46 -17q-27 -71 -73 -101t-102 -30z" />
    <glyph glyph-name="uni043A" unicode="&#x43a;" horiz-adv-x="526" 
d="M80 0v486h81v-203h91l159 203h89l-169 -219q26 -10 47 -33t47 -66l100 -168h-87l-88 147q-25 43 -48 57t-65 14h-76v-218h-81z" />
    <glyph glyph-name="uni043B" unicode="&#x43b;" horiz-adv-x="574" 
d="M53 -11l-30 64q45 19 71 53.5t36.5 95.5t10.5 160v124h353v-486h-81v421h-196v-62q0 -114 -16.5 -188t-52.5 -117t-95 -65z" />
    <glyph glyph-name="uni043C" unicode="&#x43c;" horiz-adv-x="659" 
d="M80 0v486h67l183 -325l183 325h66v-486h-72v354l-157 -276h-41l-157 276v-354h-72z" />
    <glyph glyph-name="uni043D" unicode="&#x43d;" horiz-adv-x="587" 
d="M80 0v486h81v-202h265v202h81v-486h-81v218h-265v-218h-81z" />
    <glyph glyph-name="uni043E" unicode="&#x43e;" horiz-adv-x="566" 
d="M283 -9q-71 0 -123 31t-80.5 87.5t-28.5 133.5t28.5 133.5t80.5 87.5t123 31q70 0 122.5 -31t81 -87.5t28.5 -133.5t-28.5 -133.5t-81 -87.5t-122.5 -31zM283 56q68 0 109 48.5t41 138.5q0 91 -41 139t-109 48q-69 0 -109.5 -48t-40.5 -139q0 -90 40.5 -138.5
t109.5 -48.5z" />
    <glyph glyph-name="uni043F" unicode="&#x43f;" horiz-adv-x="584" 
d="M80 0v486h424v-486h-81v421h-262v-421h-81z" />
    <glyph glyph-name="uni0440" unicode="&#x440;" horiz-adv-x="593" 
d="M81 -180v666h79v-87q22 45 65.5 70.5t101.5 25.5q65 0 113.5 -30.5t75 -87t26.5 -134.5q0 -77 -26.5 -133.5t-75 -87.5t-113.5 -31q-56 0 -100 25t-65 69v-265h-81zM310 56q68 0 109 48.5t41 138.5q0 91 -41 139t-109 48t-109 -48t-41 -139q0 -90 41 -138.5t109 -48.5z
" />
    <glyph glyph-name="uni0441" unicode="&#x441;" horiz-adv-x="473" 
d="M287 -9q-73 0 -126 31.5t-81.5 89t-28.5 134.5q0 116 63 182.5t173 66.5q45 0 89 -16t73 -45l-28 -59q-29 28 -63.5 41t-65.5 13q-76 0 -117 -47.5t-41 -136.5q0 -87 41 -137.5t117 -50.5q31 0 65.5 13t63.5 42l28 -59q-29 -29 -73.5 -45.5t-88.5 -16.5z" />
    <glyph glyph-name="uni0442" unicode="&#x442;" horiz-adv-x="444" 
d="M181 0v421h-176v65h434v-65h-177v-421h-81z" />
    <glyph glyph-name="uni0443" unicode="&#x443;" horiz-adv-x="524" 
d="M137 -180l83 188l-205 478h88l161 -394l162 394h85l-289 -666h-85z" />
    <glyph glyph-name="uni0444" unicode="&#x444;" horiz-adv-x="795" 
d="M357 -180v259q-18 -42 -51 -65t-79 -23q-53 0 -92.5 31t-61.5 87.5t-22 133.5q0 116 48 184t128 68q46 0 79 -23t51 -65v298h81v-297q18 42 51 64.5t79 22.5q79 0 127.5 -68t48.5 -184q0 -115 -48 -183.5t-128 -68.5q-46 0 -79 23t-51 64v-258h-81zM245 55q53 0 83 48
t30 140t-30.5 140t-82.5 48t-82.5 -48t-30.5 -140t30.5 -140t82.5 -48zM549 55q52 0 83 48t31 140t-31 140t-83 48t-82 -48t-30 -140t29.5 -140t82.5 -48z" />
    <glyph glyph-name="uni0445" unicode="&#x445;" horiz-adv-x="535" 
d="M19 0l202 251l-190 235h96l141 -179l142 179h95l-190 -235l202 -251h-96l-154 193l-152 -193h-96z" />
    <glyph glyph-name="uni0446" unicode="&#x446;" horiz-adv-x="598" 
d="M500 -130v130h-420v486h81v-421h251v421h81v-421h77v-195h-70z" />
    <glyph glyph-name="uni0447" unicode="&#x447;" horiz-adv-x="552" 
d="M392 0v197q-56 -34 -129 -34q-104 0 -154 49.5t-50 150.5v123h81v-117q0 -72 31.5 -105t101.5 -33q36 0 63.5 8t54.5 26v221h81v-486h-80z" />
    <glyph glyph-name="uni0448" unicode="&#x448;" horiz-adv-x="799" 
d="M80 0v486h78v-421h203v421h77v-421h203v421h78v-486h-639z" />
    <glyph glyph-name="uni0449" unicode="&#x449;" horiz-adv-x="824" 
d="M726 -130v130h-646v486h78v-421h203v421h77v-421h203v421h78v-421h77v-195h-70z" />
    <glyph glyph-name="uni044A" unicode="&#x44a;" horiz-adv-x="614" 
d="M158 0v421h-153v65h234v-173h146q94 0 141.5 -40.5t47.5 -114.5q0 -73 -49.5 -115.5t-139.5 -42.5h-227zM239 58h139q56 0 87 24t31 75q0 50 -31 74t-87 24h-139v-197z" />
    <glyph glyph-name="uni044B" unicode="&#x44b;" horiz-adv-x="730" 
d="M80 0v486h81v-173h147q93 0 141 -40.5t48 -114.5q0 -73 -49.5 -115.5t-139.5 -42.5h-228zM569 0v486h81v-486h-81zM161 58h139q56 0 87.5 24t31.5 75q0 50 -31 74t-88 24h-139v-197z" />
    <glyph glyph-name="uni044C" unicode="&#x44c;" horiz-adv-x="537" 
d="M80 0v486h81v-173h147q93 0 141 -40.5t48 -114.5q0 -73 -49.5 -115.5t-139.5 -42.5h-228zM161 58h139q56 0 87.5 24t31.5 75q0 50 -31 74t-88 24h-139v-197z" />
    <glyph glyph-name="uni044D" unicode="&#x44d;" horiz-adv-x="490" 
d="M201 -9q-50 0 -100 17t-76 46l28 56q29 -28 68 -42t76 -14q73 0 115 42.5t49 120.5h-246v61h246q-7 65 -46 110t-118 45q-37 0 -76 -14t-68 -43l-28 57q30 29 79 45.5t98 16.5q110 0 173.5 -66.5t63.5 -182.5q0 -77 -28.5 -134.5t-82 -89t-127.5 -31.5z" />
    <glyph glyph-name="uni044E" unicode="&#x44e;" horiz-adv-x="769" 
d="M486 -9q-100 0 -161 61.5t-69 165.5h-97v-218h-79v486h79v-202h98q12 98 72.5 154.5t156.5 56.5q71 0 123 -31t80.5 -87.5t28.5 -133.5t-28.5 -133.5t-80.5 -87.5t-123 -31zM486 56q69 0 109.5 48.5t40.5 138.5q0 91 -40.5 139t-109.5 48q-68 0 -109 -48t-41 -139
q0 -90 41 -138.5t109 -48.5z" />
    <glyph glyph-name="uni044F" unicode="&#x44f;" horiz-adv-x="539" 
d="M40 0l75 130q30 53 77 69q-62 9 -96 45.5t-34 95.5q0 67 44.5 106.5t133.5 39.5h219v-486h-77v185h-71q-40 0 -67.5 -20t-44.5 -49l-66 -116h-93zM255 244h127v185h-127q-59 0 -87 -24.5t-28 -67.5q0 -44 28 -68.5t87 -24.5z" />
    <glyph glyph-name="uni0450" unicode="&#x450;" horiz-adv-x="542" 
d="M300 -9q-115 0 -182 67.5t-67 183.5q0 75 30 132.5t82.5 89t121.5 31.5q99 0 155 -63.5t56 -174.5v-31h-366q4 -83 48 -126.5t122 -43.5q44 0 84 13.5t76 44.5l28 -57q-33 -31 -84 -48.5t-104 -17.5zM287 435q-69 0 -109 -43t-47 -113h295q-3 74 -38.5 115t-100.5 41z
M256 551l-131 202h86l103 -202h-58z" />
    <glyph glyph-name="uni0451" unicode="&#x451;" horiz-adv-x="542" 
d="M300 -9q-115 0 -182 67.5t-67 183.5q0 75 30 132.5t82.5 89t121.5 31.5q99 0 155 -63.5t56 -174.5v-31h-366q4 -83 48 -126.5t122 -43.5q44 0 84 13.5t76 44.5l28 -57q-33 -31 -84 -48.5t-104 -17.5zM287 435q-69 0 -109 -43t-47 -113h295q-3 74 -38.5 115t-100.5 41z
M328 609v86h87v-86h-87zM155 609v86h87v-86h-87z" />
    <glyph glyph-name="uni0452" unicode="&#x452;" horiz-adv-x="578" 
d="M315 -186l-23 63q52 12 79.5 34.5t37.5 58t10 86.5v242q0 68 -26.5 99.5t-84.5 31.5q-66 0 -106 -41.5t-40 -110.5v-277h-81v554h-92v60h92v91h81v-91h193v-60h-193v-147q24 43 67.5 65.5t96.5 22.5q174 0 174 -192v-244q0 -66 -16 -115t-56.5 -81t-112.5 -49z" />
    <glyph glyph-name="uni0453" unicode="&#x453;" horiz-adv-x="435" 
d="M80 0v486h341v-65h-260v-421h-81zM207 551l103 202h87l-132 -202h-58z" />
    <glyph glyph-name="uni0454" unicode="&#x454;" horiz-adv-x="491" 
d="M290 -9q-74 0 -127.5 31.5t-82.5 89t-29 134.5q0 116 64.5 182.5t178.5 66.5q50 0 98 -16.5t74 -45.5l-28 -57q-30 29 -69 43t-75 14q-80 0 -118.5 -45t-46.5 -110h246v-61h-246q8 -78 50 -120.5t115 -42.5q37 0 76 14t68 42l28 -56q-26 -29 -76 -46t-100 -17z" />
    <glyph glyph-name="uni0455" unicode="&#x455;" horiz-adv-x="491" 
d="M245 -9q-57 0 -108 16t-84 45l26 57q36 -29 79.5 -42.5t88.5 -13.5q57 0 86 21t29 57q0 28 -19 44.5t-60 25.5l-91 20q-124 27 -124 128q0 66 52.5 106t137.5 40q50 0 95.5 -15.5t75.5 -45.5l-27 -57q-29 27 -67.5 41.5t-76.5 14.5q-56 0 -85 -22t-29 -58q0 -56 74 -72
l91 -19q64 -14 97 -44.5t33 -82.5q0 -67 -53 -105.5t-141 -38.5z" />
    <glyph glyph-name="uni0456" unicode="&#x456;" horiz-adv-x="242" 
d="M71 607v91h100v-91h-100zM81 0v486h81v-486h-81z" />
    <glyph glyph-name="uni0457" unicode="&#x457;" horiz-adv-x="242" 
d="M81 0v486h81v-486h-81zM164 609v86h87v-86h-87zM-9 609v86h87v-86h-87z" />
    <glyph glyph-name="uni0458" unicode="&#x458;" horiz-adv-x="245" 
d="M74 607v91h100v-91h-100zM-45 -193l-6 63l43 4q92 8 92 111v501h81v-493q0 -87 -41 -132t-126 -51z" />
    <glyph glyph-name="uni0459" unicode="&#x459;" horiz-adv-x="869" 
d="M53 -11l-30 64q45 19 71 53.5t36.5 95.5t10.5 160v124h352v-173h147q93 0 140.5 -40.5t47.5 -114.5q0 -73 -49 -115.5t-139 -42.5h-227v421h-196v-62q0 -114 -16.5 -188t-52.5 -117t-95 -65zM493 58h139q56 0 87.5 24t31.5 75q0 50 -31.5 74t-87.5 24h-139v-197z" />
    <glyph glyph-name="uni045A" unicode="&#x45a;" horiz-adv-x="882" 
d="M80 0v486h81v-202h265v202h81v-173h146q93 0 141 -40.5t48 -114.5q0 -73 -49.5 -115.5t-139.5 -42.5h-227v218h-265v-218h-81zM507 58h138q57 0 88 24t31 75q0 50 -31 74t-88 24h-138v-197z" />
    <glyph glyph-name="uni045B" unicode="&#x45b;" horiz-adv-x="578" 
d="M81 0v554h-92v60h92v91h81v-91h193v-60h-193v-148q24 44 67.5 66.5t97.5 22.5q173 0 173 -192v-303h-81v298q0 68 -26.5 99.5t-84.5 31.5q-67 0 -106.5 -41.5t-39.5 -110.5v-277h-81z" />
    <glyph glyph-name="uni045C" unicode="&#x45c;" horiz-adv-x="526" 
d="M80 0v486h81v-203h91l159 203h89l-169 -219q26 -10 47 -33t47 -66l100 -168h-87l-88 147q-25 43 -48 57t-65 14h-76v-218h-81zM261 551l103 202h87l-132 -202h-58z" />
    <glyph glyph-name="uni045D" unicode="&#x45d;" horiz-adv-x="584" 
d="M80 0v486h74v-376l281 376h69v-486h-74v376l-281 -376h-69zM263 551l-131 202h86l103 -202h-58z" />
    <glyph glyph-name="uni045E" unicode="&#x45e;" horiz-adv-x="524" 
d="M137 -180l83 188l-205 478h88l161 -394l162 394h85l-289 -666h-85zM263 549q-60 0 -106 32.5t-65 98.5l47 18q18 -51 48.5 -74.5t75.5 -23.5q46 0 75.5 22t53.5 75l46 -17q-27 -71 -73 -101t-102 -30z" />
    <glyph glyph-name="uni045F" unicode="&#x45f;" horiz-adv-x="584" 
d="M256 -130v130h-176v486h81v-421h262v421h81v-486h-178v-130h-70z" />
    <glyph glyph-name="uni0462" unicode="&#x462;" horiz-adv-x="724" 
d="M153 0v536h-173v65h173v104h80v-104h239v-65h-239v-142h211q112 0 173 -49t61 -147t-61 -148t-173 -50h-291zM233 69h204q160 0 160 129q0 127 -160 127h-204v-256z" />
    <glyph glyph-name="uni0463" unicode="&#x463;" horiz-adv-x="615" 
d="M158 0v426h-153v60h153v219h81v-219h162v-60h-162v-113h147q93 0 140.5 -40.5t47.5 -114.5q0 -73 -49 -115.5t-139 -42.5h-228zM239 58h139q56 0 87.5 24t31.5 75q0 50 -31.5 74t-87.5 24h-139v-197z" />
    <glyph glyph-name="uni046A" unicode="&#x46a;" horiz-adv-x="955" 
d="M11 0l120 247q32 64 85 103.5t144 39.5h34l-271 315h709l-271 -315h34q91 0 144 -39.5t85 -103.5l120 -247h-89l-99 207q-29 60 -65.5 86.5t-93.5 26.5h-78v-320h-83v320h-78q-57 0 -93.5 -26.5t-65.5 -86.5l-99 -207h-89zM476 392h2l213 251h-427z" />
    <glyph glyph-name="uni046B" unicode="&#x46b;" horiz-adv-x="785" 
d="M1 0l100 163q26 42 48 67.5t49.5 36t69.5 10.5h44l-180 209h522l-181 -209h45q41 0 68.5 -11t50 -36t48.5 -67l99 -163h-87l-88 142q-26 42 -49 56.5t-64 14.5h-63v-213h-81v213h-63q-41 0 -64 -14.5t-49 -56.5l-88 -142h-87zM391 279h2l128 150h-257z" />
    <glyph glyph-name="uni0472" unicode="&#x472;" horiz-adv-x="767" 
d="M383 -9q-98 0 -170.5 44.5t-112 125.5t-39.5 192t39 192t111.5 125t171.5 44q100 0 172.5 -44t112 -124.5t39.5 -191.5t-40 -192.5t-112.5 -126t-171.5 -44.5zM383 641q-103 0 -164 -65.5t-70 -184.5h469q-8 119 -69 184.5t-166 65.5zM383 64q107 0 168.5 68.5
t67.5 192.5h-471q7 -123 68 -192t167 -69z" />
    <glyph glyph-name="uni0473" unicode="&#x473;" horiz-adv-x="566" 
d="M283 -9q-71 0 -123 31t-80.5 87.5t-28.5 133.5t28.5 133.5t80.5 87.5t123 31q70 0 122.5 -31t81 -87.5t28.5 -133.5t-28.5 -133.5t-81 -87.5t-122.5 -31zM283 430q-63 0 -102.5 -40.5t-46.5 -117.5h298q-7 77 -47 117.5t-102 40.5zM283 56q62 0 102 41t47 118h-298
q6 -77 46 -118t103 -41z" />
    <glyph glyph-name="uni0474" unicode="&#x474;" horiz-adv-x="742" 
d="M307 0l-308 705h88l257 -600l173 419q30 72 62 113.5t75.5 59t107.5 17.5l8 -69q-46 0 -77 -12.5t-54 -44t-47 -88.5l-211 -500h-74z" />
    <glyph glyph-name="uni0475" unicode="&#x475;" horiz-adv-x="550" 
d="M224 0l-209 486h88l161 -394l117 284q19 45 41.5 71t55 37t80.5 11l8 -65q-48 -1 -73.5 -20.5t-45.5 -68.5l-147 -341h-76z" />
    <glyph glyph-name="uni048A" unicode="&#x48a;" horiz-adv-x="757" 
d="M369 760q-65 0 -116 32.5t-73 99.5l48 17q21 -50 55.5 -73.5t85.5 -23.5q53 0 86.5 21.5t61.5 74.5l46 -16q-30 -72 -81 -102t-113 -30zM610 -157l52 157h-86v571l-426 -571h-63v705h77v-569l425 569h63v-636h105l-75 -226h-72z" />
    <glyph glyph-name="uni048B" unicode="&#x48b;" horiz-adv-x="609" 
d="M291 549q-59 0 -105 32.5t-65 98.5l47 18q18 -51 48.5 -74.5t75.5 -23.5q46 0 75.5 22t53.5 75l46 -17q-27 -71 -73 -101t-103 -30zM80 0v486h74v-376l281 376h69v-422h84l-68 -194h-70l46 130h-66v376l-281 -376h-69z" />
    <glyph glyph-name="uni048C" unicode="&#x48c;" horiz-adv-x="714" 
d="M143 0v536h-143v65h143v104h80v-104h144v-65h-144v-142h211q112 0 173 -49t61 -147t-61 -148t-173 -50h-291zM223 69h204q160 0 160 129q0 127 -160 127h-204v-256z" />
    <glyph glyph-name="uni048D" unicode="&#x48d;" horiz-adv-x="615" 
d="M158 0v426h-153v60h153v219h81v-219h162v-60h-162v-113h147q93 0 140.5 -40.5t47.5 -114.5q0 -73 -49 -115.5t-139 -42.5h-228zM239 58h139q56 0 87.5 24t31.5 75q0 50 -31.5 74t-87.5 24h-139v-197z" />
    <glyph glyph-name="uni048E" unicode="&#x48e;" horiz-adv-x="633" 
d="M87 0v705h279q114 0 174.5 -55t60.5 -157q0 -69 -29 -116.5t-82 -71.5l49 -74l-50 -34l-60 90q-28 -6 -63 -6h-197v-281h-82zM169 350h187q15 0 30 1l-48 72l51 34l59 -90q72 33 72 126q0 144 -164 144h-187v-287z" />
    <glyph glyph-name="uni048F" unicode="&#x48f;" horiz-adv-x="592" 
d="M80 -180v666h80v-86q22 44 65.5 69.5t100.5 25.5q65 0 113.5 -30.5t75 -87t26.5 -134.5q0 -68 -20.5 -119.5t-55.5 -82.5l44 -57l-42 -31l-46 59q-20 -9 -43.5 -15t-51.5 -6q-56 0 -99.5 25t-65.5 69v-265h-81zM310 56q19 0 35.5 4t29.5 11l-50 65l42 31l49 -63
q20 22 31.5 57t11.5 82q0 91 -40.5 139t-108.5 48q-69 0 -109.5 -48t-40.5 -139q0 -90 40.5 -138.5t109.5 -48.5z" />
    <glyph glyph-name="uni0490" unicode="&#x490;" horiz-adv-x="542" 
d="M87 0v705h366v155h75v-226h-359v-634h-82z" />
    <glyph glyph-name="uni0491" unicode="&#x491;" horiz-adv-x="435" 
d="M80 0v486h271v116h70v-181h-260v-421h-81z" />
    <glyph glyph-name="uni0492" unicode="&#x492;" horiz-adv-x="578" 
d="M123 0v321h-97v63h97v321h441v-71h-358v-250h185v-63h-185v-321h-83z" />
    <glyph glyph-name="uni0493" unicode="&#x493;" horiz-adv-x="455" 
d="M100 0v204h-95v61h95v221h341v-65h-260v-156h146v-61h-146v-204h-81z" />
    <glyph glyph-name="uni0494" unicode="&#x494;" horiz-adv-x="669" 
d="M408 -189q-36 0 -67 6t-52 15l16 64q40 -16 93 -16q63 0 97 42t34 126v92q0 114 -50.5 168t-152.5 54q-94 0 -157 -39v-323h-82v705h461v-71h-379v-235q28 17 72 26.5t92 9.5q137 0 207.5 -72.5t70.5 -216.5v-95q0 -117 -54.5 -178.5t-148.5 -61.5z" />
    <glyph glyph-name="uni0495" unicode="&#x495;" horiz-adv-x="551" 
d="M319 -186l-22 63q52 12 79.5 34.5t37.5 58t10 86.5v61q0 73 -26 105t-88 32q-68 0 -108.5 -41.5t-40.5 -110.5v-102h-81v486h341v-65h-260v-187q25 41 69 64t99 23q88 0 132 -48.5t44 -151.5v-62q0 -66 -16 -115t-56.5 -81t-113.5 -49z" />
    <glyph glyph-name="uni0496" unicode="&#x496;" horiz-adv-x="976" 
d="M11 0l118 245q51 106 138 134l-218 326h92l207 -314h96v314h80v-314h97l207 314h92l-218 -326q43 -15 77 -48.5t59 -85.5l86 -176h86v-226h-75v157h-66l-99 207q-29 61 -66.5 87t-92.5 26h-87v-320h-80v320h-86q-56 0 -94 -26.5t-67 -86.5l-97 -207h-89z" />
    <glyph glyph-name="uni0497" unicode="&#x497;" horiz-adv-x="827" 
d="M1 0l100 168q26 44 47.5 67t48.5 33l-171 218h89l160 -203h77v203h81v-203h78l159 203h89l-171 -218q27 -10 48.5 -33t47.5 -67l62 -104h64v-194h-71v130h-42l-88 147q-25 43 -48.5 57t-64.5 14h-63v-218h-81v218h-63q-41 0 -64 -14t-49 -57l-88 -147h-87z" />
    <glyph glyph-name="uni0498" unicode="&#x498;" horiz-adv-x="640" 
d="M280 -157v149q-78 4 -139 27.5t-101 62.5l29 65q48 -42 105.5 -62.5t132.5 -20.5q97 0 142.5 33.5t45.5 99.5q0 126 -160 126h-172v68h156q159 0 159 122q0 60 -42.5 94t-127.5 34q-63 0 -119.5 -19.5t-102.5 -60.5l-30 65q46 43 114.5 65.5t143.5 22.5q123 0 185 -53
t62 -140q0 -58 -30.5 -99t-82.5 -60q60 -15 95 -58.5t35 -109.5q0 -87 -55 -140t-168 -61v-150h-75z" />
    <glyph glyph-name="uni0499" unicode="&#x499;" horiz-adv-x="497" 
d="M212 -130v122q-55 3 -102 19t-77 43l26 57q35 -28 82 -42.5t98 -14.5q72 0 103.5 21t31.5 62q0 79 -101 79h-115v61h105q43 0 68.5 20t25.5 56t-28 57.5t-90 21.5q-97 0 -172 -53l-26 57q82 59 208 59q93 0 139 -36t46 -101q0 -38 -22 -66t-59 -41q46 -11 72 -41.5
t26 -75.5q0 -58 -43 -96t-128 -45v-123h-68z" />
    <glyph glyph-name="uni049A" unicode="&#x49a;" horiz-adv-x="670" 
d="M87 0v705h82v-314h124l207 314h93l-219 -326q44 -15 77.5 -48.5t59.5 -85.5l85 -176h86v-226h-75v157h-67l-97 207q-29 61 -67 87t-93 26h-114v-320h-82z" />
    <glyph glyph-name="uni049B" unicode="&#x49b;" horiz-adv-x="565" 
d="M80 0v486h81v-203h91l159 203h89l-169 -219q26 -10 47 -33t47 -66l62 -104h64v-194h-71v130h-42l-88 147q-25 43 -48 57t-65 14h-76v-218h-81z" />
    <glyph glyph-name="uni049C" unicode="&#x49c;" horiz-adv-x="671" 
d="M87 0v705h82v-314h71v168h62v-168h21l207 314h92l-218 -326q44 -15 77.5 -48.5t59.5 -85.5l119 -245h-89l-98 207q-29 61 -67 87.5t-93 26.5h-11v-166h-62v166h-71v-321h-82z" />
    <glyph glyph-name="uni049D" unicode="&#x49d;" horiz-adv-x="557" 
d="M80 0v486h81v-203h55v113h59v-113h8l159 203h89l-171 -218q27 -10 48.5 -33t47.5 -67l100 -168h-87l-88 147q-24 39 -45 54.5t-61 16.5v-121h-59v121h-55v-218h-81z" />
    <glyph glyph-name="uni049E" unicode="&#x49e;" horiz-adv-x="674" 
d="M128 0v539h-140v64h140v102h82v-102h140v-64h-140v-148h126l209 314h93l-223 -330q78 -26 129 -130l119 -245h-89l-98 207q-29 61 -67 87t-93 26h-106v-320h-82z" />
    <glyph glyph-name="uni049F" unicode="&#x49f;" horiz-adv-x="527" 
d="M81 0v554h-92v60h92v91h81v-91h193v-60h-193v-271h91l159 203h89l-171 -218q27 -10 48.5 -33t47.5 -67l100 -168h-87l-88 147q-26 42 -49 56.5t-64 14.5h-76v-218h-81z" />
    <glyph glyph-name="uni04A0" unicode="&#x4a0;" horiz-adv-x="771" 
d="M217 0v635h-213v70h296v-314h124l207 314h92l-218 -326q43 -15 76.5 -48.5t59.5 -85.5l119 -245h-89l-98 207q-29 61 -66.5 87t-92.5 26h-114v-320h-83z" />
    <glyph glyph-name="uni04A1" unicode="&#x4a1;" horiz-adv-x="603" 
d="M158 0v421h-153v65h234v-203h90l159 203h89l-170 -218q26 -10 47.5 -33t48.5 -67l100 -168h-87l-88 147q-26 42 -49 56.5t-64 14.5h-76v-218h-81z" />
    <glyph glyph-name="uni04A2" unicode="&#x4a2;" horiz-adv-x="801" 
d="M87 0v705h82v-312h423v312h82v-636h100v-226h-75v157h-107v322h-423v-322h-82z" />
    <glyph glyph-name="uni04A3" unicode="&#x4a3;" horiz-adv-x="611" 
d="M513 -130v130h-87v218h-265v-218h-81v486h81v-202h265v202h81v-422h77v-194h-71z" />
    <glyph glyph-name="uni04A4" unicode="&#x4a4;" horiz-adv-x="934" 
d="M87 0v705h82v-312h423v312h339v-71h-257v-634h-82v322h-423v-322h-82z" />
    <glyph glyph-name="uni04A5" unicode="&#x4a5;" horiz-adv-x="743" 
d="M80 0v486h81v-202h265v202h303v-65h-222v-421h-81v218h-265v-218h-81z" />
    <glyph glyph-name="uni04A8" unicode="&#x4a8;" horiz-adv-x="809" 
d="M387 -9q-102 0 -175 43t-112 123t-39 193q0 114 38.5 195.5t111 125t173.5 43.5q22 0 39.5 -2t29.5 -5l-10 -70q-18 2 -32.5 3.5t-25.5 1.5q-113 0 -175.5 -75t-62.5 -214q0 -142 62.5 -217.5t178.5 -75.5q35 0 65 6q-53 45 -83.5 112t-30.5 149q0 106 51.5 167.5
t141.5 61.5q89 0 140.5 -61.5t51.5 -167.5q0 -82 -30.5 -149t-84.5 -111q31 -7 66 -7q72 0 129 30l20 -65q-55 -34 -151 -34q-77 0 -142 28q-66 -28 -144 -28zM419 327q0 -81 29 -140t83 -91q54 32 83.5 91t29.5 140q0 75 -29.5 117t-82.5 42q-54 0 -83.5 -42t-29.5 -117z
" />
    <glyph glyph-name="uni04A9" unicode="&#x4a9;" horiz-adv-x="641" 
d="M309 -9q-122 0 -190 69t-68 187q0 76 29 131.5t81.5 86t123.5 30.5q64 0 103 -20l-18 -62q-33 18 -84 18q-72 0 -114 -49t-42 -135q0 -94 47 -144t132 -50q18 0 35 1q-34 30 -53 71t-19 90q0 72 40 115.5t106 43.5t106 -43.5t40 -115.5q0 -49 -19.5 -90t-54.5 -71
q16 -1 34 -1q64 0 112 26l18 -59q-56 -29 -125 -29q-60 0 -111 20q-51 -20 -109 -20zM340 212q0 -97 77 -137q78 40 78 137q0 48 -21 74.5t-56 26.5t-56.5 -26.5t-21.5 -74.5z" />
    <glyph glyph-name="uni04AA" unicode="&#x4aa;" horiz-adv-x="673" 
d="M344 -157v151q-134 15 -208.5 110t-74.5 249q0 111 39.5 192t113.5 125t178 44q73 0 134.5 -23t104.5 -67l-32 -67q-46 43 -95.5 62.5t-109.5 19.5q-119 0 -182 -75t-63 -211q0 -137 63 -212t182 -75q60 0 109.5 19.5t95.5 62.5l32 -67q-39 -39 -93.5 -62t-118.5 -27
v-149h-75z" />
    <glyph glyph-name="uni04AB" unicode="&#x4ab;" horiz-adv-x="473" 
d="M248 -130v124q-92 12 -144.5 79.5t-52.5 172.5q0 116 63 182.5t173 66.5q45 0 89 -16t73 -45l-28 -59q-29 28 -63.5 41t-65.5 13q-76 0 -117 -47.5t-41 -136.5q0 -87 41 -137.5t117 -50.5q31 0 65.5 13t63.5 42l28 -59q-24 -24 -59.5 -39.5t-72.5 -20.5v-123h-69z" />
    <glyph glyph-name="uni04AC" unicode="&#x4ac;" horiz-adv-x="581" 
d="M357 -157v157h-108v634h-245v71h573v-71h-245v-565h100v-226h-75z" />
    <glyph glyph-name="uni04AD" unicode="&#x4ad;" horiz-adv-x="444" 
d="M268 -130v130h-87v421h-176v65h434v-65h-177v-357h77v-194h-71z" />
    <glyph glyph-name="uni04AE" unicode="&#x4ae;" horiz-adv-x="596" 
d="M257 0v334l-270 371h96l217 -299l216 299h93l-270 -373v-332h-82z" />
    <glyph glyph-name="uni04AF" unicode="&#x4af;" horiz-adv-x="518" 
d="M218 -180v184l-206 482h87l161 -394l163 394h84l-208 -480v-186h-81z" />
    <glyph glyph-name="uni04B0" unicode="&#x4b0;" horiz-adv-x="596" 
d="M257 0v334l-270 371h96l217 -299l216 299h93l-270 -373v-332h-82zM93 288v61h411v-61h-411z" />
    <glyph glyph-name="uni04B1" unicode="&#x4b1;" horiz-adv-x="518" 
d="M218 -180v134h-121v66h115l-200 466h87l161 -394l163 394h84l-202 -466h116v-66h-122v-134h-81z" />
    <glyph glyph-name="uni04B2" unicode="&#x4b2;" horiz-adv-x="679" 
d="M10 0l268 360l-255 345h96l207 -283l205 283h97l-256 -345l217 -291h83v-226h-75v157h-54l-218 298l-217 -298h-98z" />
    <glyph glyph-name="uni04B3" unicode="&#x4b3;" horiz-adv-x="539" 
d="M19 0l202 251l-190 235h95l142 -179l142 179h95l-190 -235l150 -187h69v-194h-71v130h-42l-154 193l-153 -193h-95z" />
    <glyph glyph-name="uni04B4" unicode="&#x4b4;" horiz-adv-x="922" 
d="M824 -157v157h-607v634h-213v71h508v-71h-213v-563h418v634h82v-634h100v-228h-75z" />
    <glyph glyph-name="uni04B5" unicode="&#x4b5;" horiz-adv-x="691" 
d="M593 -130v130h-435v421h-153v65h387v-65h-153v-356h267v421h81v-421h76v-195h-70z" />
    <glyph glyph-name="uni04B6" unicode="&#x4b6;" horiz-adv-x="715" 
d="M614 -157v157h-108v298q-31 -18 -78.5 -27t-94.5 -9q-133 0 -204 72.5t-71 216.5v154h82v-148q0 -115 50.5 -168.5t149.5 -53.5q44 0 87 9t79 31v330h83v-636h100v-226h-75z" />
    <glyph glyph-name="uni04B7" unicode="&#x4b7;" horiz-adv-x="576" 
d="M392 0v197q-56 -34 -129 -34q-104 0 -154 49.5t-50 150.5v123h81v-117q0 -72 31.5 -105t101.5 -33q36 0 63.5 8t54.5 26v221h81v-422h77v-194h-71v130h-86z" />
    <glyph glyph-name="uni04B8" unicode="&#x4b8;" horiz-adv-x="676" 
d="M506 0v298q-28 -16 -66.5 -24.5t-78.5 -10.5v-152h-62v152q-115 10 -178 79.5t-63 208.5v154h82v-148q0 -103 40.5 -156t118.5 -63v171h62v-173q39 2 76.5 11t68.5 28v330h83v-705h-83z" />
    <glyph glyph-name="uni04B9" unicode="&#x4b9;" horiz-adv-x="567" 
d="M406 0v198q-22 -14 -47.5 -22t-49.5 -11v-99h-59v98q-97 5 -144 55t-47 144v123h81v-119q0 -65 27.5 -97.5t82.5 -37.5v123h59v-124q25 2 49.5 10t47.5 23v222h81v-486h-81z" />
    <glyph glyph-name="uni04BA" unicode="&#x4ba;" horiz-adv-x="675" 
d="M87 0v705h82v-298q31 18 78.5 27t94.5 9q134 0 205 -72.5t71 -216.5v-154h-82v148q0 115 -50.5 168.5t-149.5 53.5q-45 0 -87.5 -9t-79.5 -30v-331h-82z" />
    <glyph glyph-name="uni04BB" unicode="&#x4bb;" horiz-adv-x="578" 
d="M81 0v705h81v-299q24 44 67.5 66.5t97.5 22.5q173 0 173 -192v-303h-81v298q0 68 -26.5 99.5t-84.5 31.5q-67 0 -106.5 -41.5t-39.5 -110.5v-277h-81z" />
    <glyph glyph-name="uni04BC" unicode="&#x4bc;" horiz-adv-x="923" 
d="M584 -9q-165 0 -260 86t-106 238h-21q-88 0 -132.5 43.5t-44.5 127.5v56h82v-54q0 -55 24.5 -79.5t75.5 -24.5h16q6 101 47 175t112.5 114.5t168.5 40.5q103 0 173.5 -45t106.5 -126.5t36 -190.5v-37h-557q9 -121 80 -186t201 -65q59 0 113.5 17.5t103.5 58.5l32 -65
q-49 -42 -115 -63t-136 -21zM547 643q-109 0 -172 -67t-70 -192h475q-7 127 -66 193t-167 66z" />
    <glyph glyph-name="uni04BD" unicode="&#x4bd;" horiz-adv-x="628" 
d="M408 -9q-113 0 -179.5 63.5t-69.5 171.5h-10q-68 0 -99.5 33.5t-31.5 93.5v35h67v-36q0 -39 15.5 -56t54.5 -17h5q8 65 39 114t80.5 75.5t112.5 26.5q99 0 155 -63.5t56 -174.5v-31h-366q5 -83 49 -126.5t122 -43.5q43 0 83 13.5t77 44.5l27 -57q-33 -31 -84 -48.5
t-103 -17.5zM394 435q-70 0 -110 -44t-46 -112h295q-3 74 -38 115t-101 41z" />
    <glyph glyph-name="uni04BE" unicode="&#x4be;" horiz-adv-x="923" 
d="M584 -9q-165 0 -260 86t-106 238h-21q-88 0 -132.5 43.5t-44.5 127.5v56h82v-54q0 -55 24.5 -79.5t75.5 -24.5h16q6 101 47 175t112.5 114.5t168.5 40.5q103 0 173.5 -45t106.5 -126.5t36 -190.5v-37h-557q9 -121 80 -186t201 -65q59 0 113.5 17.5t103.5 58.5l32 -65
q-49 -42 -115 -63t-136 -21zM547 643q-109 0 -172 -67t-70 -192h475q-7 127 -66 193t-167 66zM599 -192q-48 0 -76.5 26t-28.5 71q0 40 25.5 75t69.5 56l29 -36q-24 -10 -45 -32.5t-21 -53.5q0 -29 16.5 -42.5t41.5 -13.5t53 12l14 -45q-30 -17 -78 -17z" />
    <glyph glyph-name="uni04BF" unicode="&#x4bf;" horiz-adv-x="628" 
d="M408 -9q-113 0 -179.5 63.5t-69.5 171.5h-10q-68 0 -99.5 33.5t-31.5 93.5v35h67v-36q0 -39 15.5 -56t54.5 -17h5q8 65 39 114t80.5 75.5t112.5 26.5q99 0 155 -63.5t56 -174.5v-31h-366q5 -83 49 -126.5t122 -43.5q43 0 83 13.5t77 44.5l27 -57q-33 -31 -84 -48.5
t-103 -17.5zM394 435q-70 0 -110 -44t-46 -112h295q-3 74 -38 115t-101 41zM436 -192q-48 0 -76.5 26t-28.5 71q0 40 25.5 75t69.5 56l29 -36q-24 -10 -45 -32.5t-21 -53.5q0 -29 16.5 -42.5t41.5 -13.5t53 12l14 -45q-30 -17 -78 -17z" />
    <glyph glyph-name="uni04C0" unicode="&#x4c0;" horiz-adv-x="256" 
d="M87 0v705h82v-705h-82z" />
    <glyph glyph-name="uni04C1" unicode="&#x4c1;" horiz-adv-x="968" 
d="M11 0l118 245q51 106 138 134l-218 326h92l207 -314h96v314h80v-314h97l207 314h92l-218 -326q43 -15 77 -48.5t59 -85.5l120 -245h-89l-99 207q-29 61 -66.5 87t-92.5 26h-87v-320h-80v320h-86q-56 0 -94 -26.5t-67 -86.5l-97 -207h-89zM484 760q-66 0 -117 32.5
t-72 99.5l47 17q21 -50 55.5 -73.5t85.5 -23.5q53 0 86.5 21.5t61.5 74.5l46 -16q-29 -72 -80.5 -102t-112.5 -30z" />
    <glyph glyph-name="uni04C2" unicode="&#x4c2;" horiz-adv-x="785" 
d="M1 0l100 168q26 44 47.5 67t48.5 33l-171 218h89l160 -203h77v203h81v-203h78l159 203h89l-171 -218q27 -10 48.5 -33t47.5 -67l100 -168h-87l-88 147q-25 43 -48.5 57t-64.5 14h-63v-218h-81v218h-63q-41 0 -64 -14t-49 -57l-88 -147h-87zM392 549q-60 0 -106 32.5
t-65 98.5l47 18q18 -51 48.5 -74.5t75.5 -23.5q46 0 75.5 22t53.5 75l46 -17q-27 -71 -73 -101t-102 -30z" />
    <glyph glyph-name="uni04C3" unicode="&#x4c3;" horiz-adv-x="669" 
d="M408 -189q-36 0 -69.5 6t-48.5 15l15 64q40 -16 93 -16q63 0 97 42t34 126v51q0 118 -53.5 171t-162.5 53h-144v-323h-82v705h82v-311h130l205 311h92l-212 -316q113 -13 170 -83t57 -201v-54q0 -117 -54.5 -178.5t-148.5 -61.5z" />
    <glyph glyph-name="uni04C4" unicode="&#x4c4;" horiz-adv-x="540" 
d="M308 -186l-23 63q52 12 79.5 34t37.5 56t10 82v26q0 75 -34 109t-104 34h-113v-218h-81v486h81v-203h91l159 203h89l-163 -209q74 -12 115 -61.5t41 -135.5v-29q0 -62 -16 -109t-56.5 -79t-112.5 -49z" />
    <glyph glyph-name="uni04C5" unicode="&#x4c5;" horiz-adv-x="758" 
d="M608 -157l52 157h-89v634h-308v-162q0 -147 -24 -242.5t-70.5 -153.5t-112.5 -91l-39 65q40 21 71 51t53 79t34 124.5t12 188.5v212h467v-636h102l-76 -226h-72z" />
    <glyph glyph-name="uni04C6" unicode="&#x4c6;" horiz-adv-x="599" 
d="M53 -11l-30 64q45 19 71 53.5t36.5 95.5t10.5 160v124h353v-422h82l-68 -194h-70l45 130h-70v421h-196v-62q0 -114 -16.5 -188t-52.5 -117t-95 -65z" />
    <glyph glyph-name="uni04C7" unicode="&#x4c7;" horiz-adv-x="761" 
d="M462 -193l-5 63l43 4q92 8 92 111v337h-423v-322h-82v705h82v-312h423v312h82v-712q0 -87 -41 -132t-128 -51z" />
    <glyph glyph-name="uni04C8" unicode="&#x4c8;" horiz-adv-x="587" 
d="M296 -193l-5 63l43 4q92 7 92 111v233h-265v-218h-81v486h81v-202h265v202h81v-493q0 -172 -168 -183z" />
    <glyph glyph-name="uni04C9" unicode="&#x4c9;" horiz-adv-x="778" 
d="M87 0v705h82v-312h423v312h82v-636h102l-76 -226h-71l52 157h-89v322h-423v-322h-82z" />
    <glyph glyph-name="uni04CA" unicode="&#x4ca;" horiz-adv-x="611" 
d="M80 0v486h81v-202h265v202h81v-422h81l-68 -194h-70l46 130h-70v218h-265v-218h-81z" />
    <glyph glyph-name="uni04CB" unicode="&#x4cb;" horiz-adv-x="683" 
d="M481 -157h-75v226h100v229q-31 -18 -78.5 -27t-94.5 -9q-133 0 -204 72.5t-71 216.5v154h82v-148q0 -115 50.5 -168.5t149.5 -53.5q44 0 87 9t79 31v330h83v-705h-108v-157z" />
    <glyph glyph-name="uni04CC" unicode="&#x4cc;" horiz-adv-x="552" 
d="M385 -130h-70v181h77v146q-56 -34 -129 -34q-104 0 -154 49.5t-50 150.5v123h81v-117q0 -72 31.5 -105t101.5 -33q36 0 63.5 8t54.5 26v221h81v-486h-87v-130z" />
    <glyph glyph-name="uni04CD" unicode="&#x4cd;" horiz-adv-x="872" 
d="M725 -157l53 157h-87v550l-235 -441h-54l-238 441v-550h-75v705h69l271 -509l269 509h69v-636h106l-76 -226h-72z" />
    <glyph glyph-name="uni04CE" unicode="&#x4ce;" horiz-adv-x="684" 
d="M80 0v486h67l183 -325l183 325h66v-422h87l-68 -194h-70l45 130h-66v354l-157 -276h-41l-157 276v-354h-72z" />
    <glyph glyph-name="uni04CF" unicode="&#x4cf;" horiz-adv-x="241" 
d="M81 0v705h81v-705h-81z" />
    <glyph glyph-name="uni04D0" unicode="&#x4d0;" horiz-adv-x="729" 
d="M19 0l311 705h70l311 -705h-85l-78 180h-367l-77 -180h-85zM364 609l-153 -360h308l-153 360h-2zM364 760q-66 0 -117 32.5t-72 99.5l47 17q21 -50 55.5 -73.5t85.5 -23.5q53 0 86.5 21.5t61.5 74.5l46 -16q-29 -72 -80.5 -102t-112.5 -30z" />
    <glyph glyph-name="uni04D1" unicode="&#x4d1;" horiz-adv-x="539" 
d="M234 -9q-50 0 -89.5 19.5t-62.5 53.5t-23 76q0 53 27.5 84t91 44.5t173.5 13.5h32v31q0 62 -25.5 89.5t-81.5 27.5q-44 0 -85 -12.5t-84 -40.5l-28 59q38 27 92.5 43t104.5 16q94 0 139.5 -46t45.5 -143v-306h-76v84q-19 -43 -58.5 -68t-92.5 -25zM247 52q60 0 98 41.5
t38 105.5v30h-31q-81 0 -127.5 -7.5t-65 -26t-18.5 -50.5q0 -41 28.5 -67t77.5 -26zM276 549q-60 0 -106 32.5t-65 98.5l47 18q18 -51 48.5 -74.5t75.5 -23.5q46 0 75.5 22t53.5 75l46 -17q-27 -71 -73 -101t-102 -30z" />
    <glyph glyph-name="uni04D2" unicode="&#x4d2;" horiz-adv-x="729" 
d="M19 0l311 705h70l311 -705h-85l-78 180h-367l-77 -180h-85zM364 609l-153 -360h308l-153 360h-2zM407 806v86h87v-86h-87zM234 806v86h87v-86h-87z" />
    <glyph glyph-name="uni04D3" unicode="&#x4d3;" horiz-adv-x="539" 
d="M234 -9q-50 0 -89.5 19.5t-62.5 53.5t-23 76q0 53 27.5 84t91 44.5t173.5 13.5h32v31q0 62 -25.5 89.5t-81.5 27.5q-44 0 -85 -12.5t-84 -40.5l-28 59q38 27 92.5 43t104.5 16q94 0 139.5 -46t45.5 -143v-306h-76v84q-19 -43 -58.5 -68t-92.5 -25zM247 52q60 0 98 41.5
t38 105.5v30h-31q-81 0 -127.5 -7.5t-65 -26t-18.5 -50.5q0 -41 28.5 -67t77.5 -26zM319 609v86h87v-86h-87zM146 609v86h87v-86h-87z" />
    <glyph glyph-name="uni04D4" unicode="&#x4d4;" horiz-adv-x="981" 
d="M-16 0l429 705h517v-69h-426l52 -244h354v-69h-340l55 -254h305v-69h-366l-38 180h-346l-107 -180h-89zM433 608l-213 -359h291l-76 359h-2z" />
    <glyph glyph-name="uni04D5" unicode="&#x4d5;" horiz-adv-x="871" 
d="M239 -9q-52 0 -93 19.5t-64 53.5t-23 76q0 53 27.5 84t92 44.5t173.5 13.5h34v30q0 62 -26.5 90t-82.5 28q-44 0 -85.5 -12t-84.5 -40l-28 58q38 27 92.5 43t106.5 16q125 0 163 -92q28 45 74.5 68.5t102.5 23.5q95 0 150.5 -63.5t55.5 -174.5v-29h-359q5 -84 46.5 -128
t119.5 -44q86 0 158 59l27 -58q-33 -31 -83.5 -48.5t-100.5 -17.5q-75 0 -130 31t-82 91q-20 -57 -67 -89.5t-114 -32.5zM617 435q-64 0 -104 -41t-47 -112h289q-3 72 -38 112.5t-100 40.5zM249 52q61 0 99 43t38 109v24h-34q-81 0 -127.5 -7t-65 -25.5t-18.5 -50.5
q0 -41 28.5 -67t79.5 -26z" />
    <glyph glyph-name="uni04D6" unicode="&#x4d6;" horiz-adv-x="583" 
d="M87 0v705h445v-69h-365v-244h344v-69h-344v-254h365v-69h-445zM324 760q-66 0 -117 32.5t-72 99.5l47 17q21 -50 55.5 -73.5t85.5 -23.5q53 0 86.5 21.5t61.5 74.5l46 -16q-29 -72 -80.5 -102t-112.5 -30z" />
    <glyph glyph-name="uni04D7" unicode="&#x4d7;" horiz-adv-x="542" 
d="M300 -9q-115 0 -182 67.5t-67 183.5q0 75 30 132.5t82.5 89t121.5 31.5q99 0 155 -63.5t56 -174.5v-31h-366q4 -83 48 -126.5t122 -43.5q44 0 84 13.5t76 44.5l28 -57q-33 -31 -84 -48.5t-104 -17.5zM287 435q-69 0 -109 -43t-47 -113h295q-3 74 -38.5 115t-100.5 41z
M285 549q-60 0 -106 32.5t-65 98.5l47 18q18 -51 48.5 -74.5t75.5 -23.5q46 0 75.5 22t53.5 75l46 -17q-27 -71 -73 -101t-102 -30z" />
    <glyph glyph-name="uni04D8" unicode="&#x4d8;" horiz-adv-x="767" 
d="M389 -9q-109 0 -182 45t-109.5 126.5t-36.5 190.5v37h557q-9 121 -77 186t-187 65q-73 0 -128 -19.5t-105 -61.5l-33 65q104 89 274 89q105 0 182.5 -43.5t120 -124.5t42.5 -193t-39.5 -193t-111 -125t-167.5 -44zM386 63q103 0 164 66.5t69 191.5h-472q6 -127 66 -192.5
t173 -65.5z" />
    <glyph glyph-name="uni04D9" unicode="&#x4d9;" horiz-adv-x="542" 
d="M263 -9q-102 0 -159.5 63t-57.5 178v29h367q-5 82 -49 125.5t-120 43.5q-87 0 -163 -57l-27 57q35 31 86 48t104 17q114 0 180.5 -67t66.5 -183q0 -77 -29 -134t-80.5 -88.5t-118.5 -31.5zM262 51q63 0 103 40.5t47 115.5h-292q6 -156 142 -156z" />
    <glyph glyph-name="uni04DA" unicode="&#x4da;" horiz-adv-x="767" 
d="M389 -9q-109 0 -182 45t-109.5 126.5t-36.5 190.5v37h557q-9 121 -77 186t-187 65q-73 0 -128 -19.5t-105 -61.5l-33 65q104 89 274 89q105 0 182.5 -43.5t120 -124.5t42.5 -193t-39.5 -193t-111 -125t-167.5 -44zM386 63q103 0 164 66.5t69 191.5h-472q6 -127 66 -192.5
t173 -65.5zM420 806v86h87v-86h-87zM247 806v86h87v-86h-87z" />
    <glyph glyph-name="uni04DB" unicode="&#x4db;" horiz-adv-x="542" 
d="M263 -9q-102 0 -159.5 63t-57.5 178v29h367q-5 82 -49 125.5t-120 43.5q-87 0 -163 -57l-27 57q35 31 86 48t104 17q114 0 180.5 -67t66.5 -183q0 -77 -29 -134t-80.5 -88.5t-118.5 -31.5zM262 51q63 0 103 40.5t47 115.5h-292q6 -156 142 -156zM292 609v86h87v-86h-87z
M119 609v86h87v-86h-87z" />
    <glyph glyph-name="uni04DC" unicode="&#x4dc;" horiz-adv-x="968" 
d="M11 0l118 245q51 106 138 134l-218 326h92l207 -314h96v314h80v-314h97l207 314h92l-218 -326q43 -15 77 -48.5t59 -85.5l120 -245h-89l-99 207q-29 61 -66.5 87t-92.5 26h-87v-320h-80v320h-86q-56 0 -94 -26.5t-67 -86.5l-97 -207h-89zM527 806v86h87v-86h-87zM354 806
v86h87v-86h-87z" />
    <glyph glyph-name="uni04DD" unicode="&#x4dd;" horiz-adv-x="785" 
d="M1 0l100 168q26 44 47.5 67t48.5 33l-171 218h89l160 -203h77v203h81v-203h78l159 203h89l-171 -218q27 -10 48.5 -33t47.5 -67l100 -168h-87l-88 147q-25 43 -48.5 57t-64.5 14h-63v-218h-81v218h-63q-41 0 -64 -14t-49 -57l-88 -147h-87zM435 609v86h87v-86h-87z
M262 609v86h87v-86h-87z" />
    <glyph glyph-name="uni04DE" unicode="&#x4de;" horiz-adv-x="640" 
d="M312 -9q-89 0 -158.5 24.5t-113.5 66.5l29 65q48 -42 105.5 -62.5t132.5 -20.5q97 0 142.5 33.5t45.5 99.5q0 126 -160 126h-172v68h156q159 0 159 122q0 60 -42.5 94t-127.5 34q-63 0 -119.5 -19.5t-102.5 -60.5l-30 65q46 43 114.5 65.5t143.5 22.5q123 0 185 -53
t62 -140q0 -58 -30.5 -99t-82.5 -60q61 -16 95.5 -59t34.5 -109q0 -94 -65.5 -148.5t-200.5 -54.5zM357 806v86h87v-86h-87zM184 806v86h87v-86h-87z" />
    <glyph glyph-name="uni04DF" unicode="&#x4df;" horiz-adv-x="497" 
d="M241 -9q-63 0 -118.5 16.5t-89.5 46.5l26 57q35 -28 82 -42.5t98 -14.5q72 0 103.5 21t31.5 62q0 79 -101 79h-115v61h105q43 0 68.5 20t25.5 56t-28 57.5t-90 21.5q-97 0 -172 -53l-26 57q82 59 208 59q93 0 139 -36t46 -101q0 -37 -21.5 -65.5t-58.5 -41.5
q45 -11 71 -41.5t26 -75.5q0 -65 -53 -104t-157 -39zM288 611v86h87v-86h-87zM115 611v86h87v-86h-87z" />
    <glyph glyph-name="uni04E0" unicode="&#x4e0;" horiz-adv-x="640" 
d="M312 -9q-89 0 -158.5 24.5t-113.5 66.5l31 65q94 -83 236 -83q97 0 142.5 33t45.5 99q0 65 -42 96t-138 31h-103v57l233 255h-390v70h494v-58l-235 -257h24q113 0 176.5 -48t63.5 -143q0 -98 -66 -153t-200 -55z" />
    <glyph glyph-name="uni04E1" unicode="&#x4e1;" horiz-adv-x="495" 
d="M228 -189q-67 0 -121 16t-91 45l28 59q71 -55 177 -55q80 0 120.5 37t40.5 107q0 63 -40 97t-113 34h-103v40l210 230h-301v65h397v-55l-201 -220h19q101 0 157 -49.5t56 -137.5q0 -99 -62.5 -156t-172.5 -57z" />
    <glyph glyph-name="uni04E2" unicode="&#x4e2;" horiz-adv-x="740" 
d="M87 0v705h77v-569l425 569h63v-705h-76v571l-426 -571h-63zM207 814v55h326v-55h-326z" />
    <glyph glyph-name="uni04E3" unicode="&#x4e3;" horiz-adv-x="584" 
d="M80 0v486h74v-376l281 376h69v-486h-74v376l-281 -376h-69zM144 625v55h296v-55h-296z" />
    <glyph glyph-name="uni04E4" unicode="&#x4e4;" horiz-adv-x="740" 
d="M87 0v705h77v-569l425 569h63v-705h-76v571l-426 -571h-63zM413 806v86h87v-86h-87zM240 806v86h87v-86h-87z" />
    <glyph glyph-name="uni04E5" unicode="&#x4e5;" horiz-adv-x="584" 
d="M80 0v486h74v-376l281 376h69v-486h-74v376l-281 -376h-69zM335 609v86h87v-86h-87zM162 609v86h87v-86h-87z" />
    <glyph glyph-name="uni04E6" unicode="&#x4e6;" horiz-adv-x="767" 
d="M383 -9q-98 0 -170.5 44.5t-112 125.5t-39.5 192t39 192t111.5 125t171.5 44q100 0 172.5 -44t112 -124.5t39.5 -191.5t-40 -192.5t-112.5 -126t-171.5 -44.5zM383 64q113 0 175 76t62 213t-62 212.5t-175 75.5q-111 0 -173 -75.5t-62 -212.5q0 -136 62 -212.5t173 -76.5
zM426 806v86h87v-86h-87zM253 806v86h87v-86h-87z" />
    <glyph glyph-name="uni04E7" unicode="&#x4e7;" horiz-adv-x="566" 
d="M283 -9q-71 0 -123 31t-80.5 87.5t-28.5 133.5t28.5 133.5t80.5 87.5t123 31q70 0 122.5 -31t81 -87.5t28.5 -133.5t-28.5 -133.5t-81 -87.5t-122.5 -31zM283 56q68 0 109 48.5t41 138.5q0 91 -41 139t-109 48q-69 0 -109.5 -48t-40.5 -139q0 -90 40.5 -138.5
t109.5 -48.5zM326 609v86h87v-86h-87zM153 609v86h87v-86h-87z" />
    <glyph glyph-name="uni04E8" unicode="&#x4e8;" horiz-adv-x="767" 
d="M383 -9q-98 0 -170.5 44.5t-112 125.5t-39.5 192t39 192t111.5 125t171.5 44q100 0 172.5 -44t112 -124.5t39.5 -191.5t-40 -192.5t-112.5 -126t-171.5 -44.5zM383 641q-103 0 -164 -65.5t-70 -184.5h469q-8 119 -69 184.5t-166 65.5zM383 64q107 0 168.5 68.5
t67.5 192.5h-471q7 -123 68 -192t167 -69z" />
    <glyph glyph-name="uni04E9" unicode="&#x4e9;" horiz-adv-x="566" 
d="M283 -9q-71 0 -123 31t-80.5 87.5t-28.5 133.5t28.5 133.5t80.5 87.5t123 31q70 0 122.5 -31t81 -87.5t28.5 -133.5t-28.5 -133.5t-81 -87.5t-122.5 -31zM283 430q-63 0 -102.5 -40.5t-46.5 -117.5h298q-7 77 -47 117.5t-102 40.5zM283 56q62 0 102 41t47 118h-298
q6 -77 46 -118t103 -41z" />
    <glyph glyph-name="uni04EA" unicode="&#x4ea;" horiz-adv-x="767" 
d="M383 -9q-98 0 -170.5 44.5t-112 125.5t-39.5 192t39 192t111.5 125t171.5 44q100 0 172.5 -44t112 -124.5t39.5 -191.5t-40 -192.5t-112.5 -126t-171.5 -44.5zM383 641q-103 0 -164 -65.5t-70 -184.5h469q-8 119 -69 184.5t-166 65.5zM383 64q107 0 168.5 68.5
t67.5 192.5h-471q7 -123 68 -192t167 -69zM426 806v86h87v-86h-87zM253 806v86h87v-86h-87z" />
    <glyph glyph-name="uni04EB" unicode="&#x4eb;" horiz-adv-x="566" 
d="M283 -9q-71 0 -123 31t-80.5 87.5t-28.5 133.5t28.5 133.5t80.5 87.5t123 31q70 0 122.5 -31t81 -87.5t28.5 -133.5t-28.5 -133.5t-81 -87.5t-122.5 -31zM283 430q-63 0 -102.5 -40.5t-46.5 -117.5h298q-7 77 -47 117.5t-102 40.5zM283 56q62 0 102 41t47 118h-298
q6 -77 46 -118t103 -41zM326 609v86h87v-86h-87zM153 609v86h87v-86h-87z" />
    <glyph glyph-name="uni04EC" unicode="&#x4ec;" horiz-adv-x="673" 
d="M280 -9q-72 0 -134 23.5t-104 66.5l31 67q46 -43 96 -62.5t110 -19.5q111 0 174.5 67t70.5 191h-354v69h353q-9 116 -70 181t-164 65q-60 0 -111 -19t-105 -63l-31 67q102 90 248 90q100 0 172 -44t111 -125t39 -192q0 -112 -39.5 -193t-113.5 -125t-179 -44zM341 806v86
h87v-86h-87zM168 806v86h87v-86h-87z" />
    <glyph glyph-name="uni04ED" unicode="&#x4ed;" horiz-adv-x="490" 
d="M201 -9q-50 0 -100 17t-76 46l28 56q29 -28 68 -42t76 -14q73 0 115 42.5t49 120.5h-246v61h246q-7 65 -46 110t-118 45q-37 0 -76 -14t-68 -43l-28 57q30 29 79 45.5t98 16.5q110 0 173.5 -66.5t63.5 -182.5q0 -77 -28.5 -134.5t-82 -89t-127.5 -31.5zM259 609v86h87
v-86h-87zM86 609v86h87v-86h-87z" />
    <glyph glyph-name="uni04EE" unicode="&#x4ee;" horiz-adv-x="643" 
d="M198 0l109 211l-308 494h89l259 -417l214 417h85l-361 -705h-87zM161 814v55h326v-55h-326z" />
    <glyph glyph-name="uni04EF" unicode="&#x4ef;" horiz-adv-x="524" 
d="M137 -180l83 188l-205 478h88l161 -394l162 394h85l-289 -666h-85zM115 625v55h296v-55h-296z" />
    <glyph glyph-name="uni04F0" unicode="&#x4f0;" horiz-adv-x="643" 
d="M198 0l109 211l-308 494h89l259 -417l214 417h85l-361 -705h-87zM367 806v86h87v-86h-87zM194 806v86h87v-86h-87z" />
    <glyph glyph-name="uni04F1" unicode="&#x4f1;" horiz-adv-x="524" 
d="M137 -180l83 188l-205 478h88l161 -394l162 394h85l-289 -666h-85zM306 609v86h87v-86h-87zM133 609v86h87v-86h-87z" />
    <glyph glyph-name="uni04F2" unicode="&#x4f2;" horiz-adv-x="643" 
d="M198 0l109 211l-308 494h89l259 -417l214 417h85l-361 -705h-87zM237 765l86 172h80l-119 -172h-47zM364 765l89 172h80l-122 -172h-47z" />
    <glyph glyph-name="uni04F3" unicode="&#x4f3;" horiz-adv-x="524" 
d="M137 -180l83 188l-205 478h88l161 -394l162 394h85l-289 -666h-85zM304 551l53 202h75l-83 -202h-45zM176 551l54 202h75l-84 -202h-45z" />
    <glyph glyph-name="uni04F4" unicode="&#x4f4;" horiz-adv-x="676" 
d="M506 0v298q-31 -18 -78.5 -27t-94.5 -9q-133 0 -204 72.5t-71 216.5v154h82v-148q0 -115 50.5 -168.5t149.5 -53.5q44 0 87 9t79 31v330h83v-705h-83zM361 806v86h87v-86h-87zM188 806v86h87v-86h-87z" />
    <glyph glyph-name="uni04F5" unicode="&#x4f5;" horiz-adv-x="552" 
d="M392 0v197q-56 -34 -129 -34q-104 0 -154 49.5t-50 150.5v123h81v-117q0 -72 31.5 -105t101.5 -33q36 0 63.5 8t54.5 26v221h81v-486h-80zM309 609v86h87v-86h-87zM136 609v86h87v-86h-87z" />
    <glyph glyph-name="uni04F6" unicode="&#x4f6;" horiz-adv-x="542" 
d="M87 0v705h441v-71h-359v-565h100v-226h-74v157h-108z" />
    <glyph glyph-name="uni04F7" unicode="&#x4f7;" horiz-adv-x="435" 
d="M80 0v486h341v-65h-260v-357h77v-194h-71v130h-87z" />
    <glyph glyph-name="uni04F8" unicode="&#x4f8;" horiz-adv-x="854" 
d="M87 0v705h82v-311h182q111 0 172 -49t61 -147t-61 -148t-172 -50h-264zM685 0v705h82v-705h-82zM169 69h174q160 0 160 129q0 127 -160 127h-174v-256zM471 806v86h87v-86h-87zM298 806v86h87v-86h-87z" />
    <glyph glyph-name="uni04F9" unicode="&#x4f9;" horiz-adv-x="730" 
d="M80 0v486h81v-173h147q93 0 141 -40.5t48 -114.5q0 -73 -49.5 -115.5t-139.5 -42.5h-228zM569 0v486h81v-486h-81zM161 58h139q56 0 87.5 24t31.5 75q0 50 -31 74t-88 24h-139v-197zM408 609v86h87v-86h-87zM235 609v86h87v-86h-87z" />
    <glyph glyph-name="uni04FA" unicode="&#x4fa;" horiz-adv-x="578" 
d="M92 -182l-6 61l42 3q56 5 79 33.5t23 84.5h-107v321h-97v63h97v321h441v-71h-358v-250h185v-63h-185v-252h100v-58q0 -92 -41 -138.5t-127 -51.5z" />
    <glyph glyph-name="uni04FB" unicode="&#x4fb;" horiz-adv-x="455" 
d="M71 -182l-6 60l45 4q40 4 57.5 33t17.5 85h-85v207h-95v60h95v219h341v-65h-260v-154h146v-60h-146v-142h77v-54q0 -92 -37.5 -138t-102.5 -51z" />
    <glyph glyph-name="uni04FC" unicode="&#x4fc;" horiz-adv-x="650" 
d="M412 -185l-15 67q65 7 92.5 32.5t27.5 74.5q0 46 -62 132l-130 177l-217 -298h-98l268 360l-255 345h96l207 -283l205 283h97l-256 -345l157 -211q38 -52 54.5 -93t16.5 -74q0 -146 -188 -167z" />
    <glyph glyph-name="uni04FD" unicode="&#x4fd;" horiz-adv-x="535" 
d="M330 -185l-14 60q53 6 79 26t26 58q0 26 -16.5 53.5t-53.5 74.5l-84 105l-153 -192h-95l202 251l-191 235h96l142 -179l142 179h95l-190 -235l101 -126q45 -55 65 -91.5t20 -76.5q0 -61 -43 -97.5t-128 -44.5z" />
    <glyph glyph-name="uni04FE" unicode="&#x4fe;" horiz-adv-x="650" 
d="M10 0l268 360l-255 345h96l207 -283l205 283h97l-256 -345l268 -360h-97l-218 298l-217 -298h-98zM120 333v61h411v-61h-411z" />
    <glyph glyph-name="uni04FF" unicode="&#x4ff;" horiz-adv-x="535" 
d="M19 0l202 251l-190 235h96l141 -179l142 179h95l-190 -235l202 -251h-96l-154 193l-152 -193h-96zM63 218v61h411v-61h-411z" />
    <glyph glyph-name="uni0510" unicode="&#x510;" horiz-adv-x="640" 
d="M328 -9q-136 0 -201 54.5t-65 148.5q0 66 34.5 109t95.5 59q-53 19 -83 60t-30 99q0 87 64.5 140t187.5 53q75 0 140.5 -22.5t112.5 -65.5l-30 -65q-46 41 -102.5 60.5t-119.5 19.5q-85 0 -127.5 -34t-42.5 -94q0 -122 159 -122h156v-69h-172q-160 0 -160 -125
q0 -66 45.5 -99.5t142.5 -33.5q75 0 132.5 20.5t104.5 62.5l30 -65q-44 -42 -113.5 -66.5t-158.5 -24.5z" />
    <glyph glyph-name="uni0511" unicode="&#x511;" horiz-adv-x="497" 
d="M256 -9q-104 0 -157 39t-53 104q0 45 26 75.5t70 41.5q-36 13 -57.5 41.5t-21.5 65.5q0 65 53 101t144 36q53 0 104 -15t92 -44l-26 -57q-75 53 -165 53q-62 0 -94 -22t-32 -58t25.5 -55.5t69.5 -19.5h105v-61h-115q-101 0 -101 -78q0 -41 31.5 -62.5t102.5 -21.5
q52 0 99 14t81 43l27 -57q-35 -30 -90 -46.5t-118 -16.5z" />
    <glyph glyph-name="uni0512" unicode="&#x512;" horiz-adv-x="741" 
d="M437 -193l-5 63l44 4q95 8 95 111v649h-308v-162q0 -147 -24 -242.5t-70.5 -153.5t-112.5 -91l-39 65q40 21 71 51t53 79t34 124.5t12 188.5v212h467v-712q0 -87 -42 -132t-131 -51z" />
    <glyph glyph-name="uni0513" unicode="&#x513;" horiz-adv-x="574" 
d="M284 -193l-6 63l43 4q92 8 92 111v436h-196v-62q0 -114 -16.5 -188t-52.5 -117t-95 -65l-30 64q45 19 71 53.5t36.5 95.5t10.5 160v124h353v-499q0 -84 -43 -127.5t-124 -49.5z" />
    <glyph glyph-name="uni051A" unicode="&#x51a;" horiz-adv-x="767" 
d="M578 -201l-84 135q-34 57 -111 57v0q-98 0 -170.5 44.5t-112 125.5t-39.5 192t39 192t111.5 125t171.5 44q100 0 172.5 -44t112 -124.5t39.5 -191.5q0 -129 -53 -217.5t-147 -124.5q40 -13 73 -69l67 -108zM383 64q113 0 175 76t62 213t-62 212.5t-175 75.5
q-111 0 -173 -75.5t-62 -212.5q0 -136 62 -212.5t173 -76.5z" />
    <glyph glyph-name="uni051B" unicode="&#x51b;" horiz-adv-x="593" 
d="M431 -180v265q-21 -43 -64.5 -68.5t-100.5 -25.5q-65 0 -113.5 31t-75 87.5t-26.5 133.5q0 78 26.5 134.5t75 87t113.5 30.5q58 0 102 -26t65 -71v88h79v-666h-81zM283 56q68 0 109 48.5t41 138.5q0 91 -41 139t-109 48q-69 0 -109.5 -48t-40.5 -139q0 -90 40.5 -138.5
t109.5 -48.5z" />
    <glyph glyph-name="uni051C" unicode="&#x51c;" horiz-adv-x="1101" 
d="M277 0l-247 705h86l199 -585l204 585h66l202 -590l203 590h82l-247 -705h-73l-201 580l-203 -580h-71z" />
    <glyph glyph-name="uni051D" unicode="&#x51d;" horiz-adv-x="851" 
d="M210 0l-181 486h85l137 -391l142 391h69l140 -392l139 392h81l-182 -486h-77l-137 377l-138 -377h-78z" />
    <glyph glyph-name="uni0524" unicode="&#x524;" horiz-adv-x="795" 
d="M694 -157v157h-108v634h-417v-634h-82v705h582v-636h100v-226h-75z" />
    <glyph glyph-name="uni0525" unicode="&#x525;" horiz-adv-x="608" 
d="M510 -130v130h-87v421h-262v-421h-81v486h424v-422h77v-194h-71z" />
    <glyph glyph-name="uni0526" unicode="&#x526;" horiz-adv-x="714" 
d="M643 -157v157h-107v148q0 115 -50.5 168.5t-149.5 53.5q-45 0 -87.5 -9t-79.5 -30v-331h-82v705h82v-298q31 18 78.5 27t94.5 9q134 0 205 -72.5t71 -216.5v-85h100v-226h-75z" />
    <glyph glyph-name="uni0527" unicode="&#x527;" horiz-adv-x="588" 
d="M80 0v705h81v-299q25 44 68.5 66.5t97.5 22.5q173 0 173 -192v-239h77v-194h-71v130h-87v298q0 68 -26.5 99.5t-84.5 31.5q-67 0 -107 -41.5t-40 -110.5v-277h-81z" />
    <glyph glyph-name="uni0528" unicode="&#x528;" horiz-adv-x="761" 
d="M-43 -193l-6 63l44 4q92 8 92 111v720h82v-312h423v312h82v-705h-82v322h-423v-331q0 -170 -168 -181z" />
    <glyph glyph-name="uni0529" unicode="&#x529;" horiz-adv-x="587" 
d="M-49 -193l-6 63l43 4q92 8 92 111v501h81v-202h265v202h81v-486h-81v218h-265v-225q0 -87 -41 -132t-126 -51z" />
    <glyph glyph-name="uni052E" unicode="&#x52e;" horiz-adv-x="780" 
d="M679 -157v157h-108v634h-308v-162q0 -147 -24 -242.5t-70.5 -153.5t-112.5 -91l-39 65q40 21 71 51t53 79t34 124.5t12 188.5v212h467v-636h100v-226h-75z" />
    <glyph glyph-name="uni052F" unicode="&#x52f;" horiz-adv-x="599" 
d="M53 -11l-30 64q45 19 71 53.5t36.5 95.5t10.5 160v124h353v-422h77v-194h-71v130h-87v421h-196v-62q0 -114 -16.5 -188t-52.5 -117t-95 -65z" />
    <glyph glyph-name="uni1E08" unicode="&#x1e08;" horiz-adv-x="673" 
d="M392 -9q-104 0 -178 44t-113.5 125t-39.5 193q0 111 39.5 192t113.5 125t178 44q73 0 134.5 -23t104.5 -67l-32 -67q-46 43 -95.5 62.5t-109.5 19.5q-119 0 -182 -75t-63 -211q0 -137 63 -212t182 -75q60 0 109.5 19.5t95.5 62.5l32 -67q-43 -43 -104.5 -66.5
t-134.5 -23.5zM388 -192q-56 0 -89 19l13 44q18 -8 34.5 -12t39.5 -4q26 0 42 9.5t16 27.5q0 28 -38 28q-11 0 -21.5 -2t-25.5 -7l-16 16l14 93h51l-11 -63q10 1 19 1q37 0 60.5 -18t23.5 -50q0 -37 -31 -59.5t-81 -22.5zM356 765l118 172h91l-147 -172h-62z" />
    <glyph glyph-name="uni1E09" unicode="&#x1e09;" horiz-adv-x="463" 
d="M282 -9q-73 0 -126 31.5t-81.5 89t-28.5 134.5q0 116 63 182.5t173 66.5q45 0 89 -16t73 -45l-28 -59q-29 28 -63.5 41t-65.5 13q-76 0 -117 -47.5t-41 -136.5q0 -87 41 -137.5t117 -50.5q31 0 65.5 13t63.5 42l28 -59q-29 -29 -73.5 -45.5t-88.5 -16.5zM281 -192
q-56 0 -89 19l13 44q18 -8 34.5 -12t39.5 -4q26 0 42 9.5t16 27.5q0 28 -38 28q-11 0 -21.5 -2t-25.5 -7l-16 16l14 93h51l-11 -63q10 1 19 1q37 0 60.5 -18t23.5 -50q0 -37 -31 -59.5t-81 -22.5zM249 551l103 202h87l-132 -202h-58z" />
    <glyph glyph-name="uni1E0C" unicode="&#x1e0c;" horiz-adv-x="742" 
d="M87 0v705h238q171 0 264 -90.5t93 -261.5t-93 -262t-264 -91h-238zM169 70h150q276 0 276 283q0 282 -276 282h-150v-565zM325 -187v88h92v-88h-92z" />
    <glyph glyph-name="uni1E0D" unicode="&#x1e0d;" horiz-adv-x="583" 
d="M261 -9q-65 0 -113.5 31t-75 87.5t-26.5 133.5q0 78 26.5 134.5t75 87t113.5 30.5q57 0 100.5 -25t64.5 -69v304h81v-705h-79v89q-21 -46 -65 -72t-102 -26zM278 56q68 0 109 48.5t41 138.5q0 91 -41 139t-109 48q-69 0 -109.5 -48t-40.5 -139q0 -90 40.5 -138.5
t109.5 -48.5zM247 -187v88h92v-88h-92z" />
    <glyph glyph-name="uni1E0E" unicode="&#x1e0e;" horiz-adv-x="742" 
d="M87 0v705h238q171 0 264 -90.5t93 -261.5t-93 -262t-264 -91h-238zM169 70h150q276 0 276 283q0 282 -276 282h-150v-565zM223 -156v55h296v-55h-296z" />
    <glyph glyph-name="uni1E0F" unicode="&#x1e0f;" horiz-adv-x="583" 
d="M261 -9q-65 0 -113.5 31t-75 87.5t-26.5 133.5q0 78 26.5 134.5t75 87t113.5 30.5q57 0 100.5 -25t64.5 -69v304h81v-705h-79v89q-21 -46 -65 -72t-102 -26zM278 56q68 0 109 48.5t41 138.5q0 91 -41 139t-109 48q-69 0 -109.5 -48t-40.5 -139q0 -90 40.5 -138.5
t109.5 -48.5zM145 -156v55h296v-55h-296z" />
    <glyph glyph-name="uni1E14" unicode="&#x1e14;" horiz-adv-x="583" 
d="M87 0v705h445v-69h-365v-244h344v-69h-344v-254h365v-69h-445zM296 882l-115 141h85l86 -141h-56zM176 790v55h296v-55h-296z" />
    <glyph glyph-name="uni1E15" unicode="&#x1e15;" horiz-adv-x="532" 
d="M295 -9q-115 0 -182 67.5t-67 183.5q0 75 30 132.5t82.5 89t121.5 31.5q99 0 155 -63.5t56 -174.5v-31h-366q4 -83 48 -126.5t122 -43.5q44 0 84 13.5t76 44.5l28 -57q-33 -31 -84 -48.5t-104 -17.5zM282 435q-69 0 -109 -43t-47 -113h295q-3 74 -38.5 115t-100.5 41z
M252 663l-115 142h85l86 -142h-56zM132 571v55h296v-55h-296z" />
    <glyph glyph-name="uni1E16" unicode="&#x1e16;" horiz-adv-x="583" 
d="M87 0v705h445v-69h-365v-244h344v-69h-344v-254h365v-69h-445zM296 882l86 141h85l-115 -141h-56zM176 790v55h296v-55h-296z" />
    <glyph glyph-name="uni1E17" unicode="&#x1e17;" horiz-adv-x="532" 
d="M295 -9q-115 0 -182 67.5t-67 183.5q0 75 30 132.5t82.5 89t121.5 31.5q99 0 155 -63.5t56 -174.5v-31h-366q4 -83 48 -126.5t122 -43.5q44 0 84 13.5t76 44.5l28 -57q-33 -31 -84 -48.5t-104 -17.5zM282 435q-69 0 -109 -43t-47 -113h295q-3 74 -38.5 115t-100.5 41z
M252 663l86 142h85l-115 -142h-56zM132 571v55h296v-55h-296z" />
    <glyph glyph-name="uni1E1C" unicode="&#x1e1c;" horiz-adv-x="583" 
d="M87 0v705h445v-69h-365v-244h344v-69h-344v-254h365v-69h-445zM327 -192q-56 0 -89 19l13 44q18 -8 34.5 -12t39.5 -4q26 0 42 9.5t16 27.5q0 28 -38 28q-11 0 -21.5 -2t-25.5 -7l-16 16l14 93h51l-11 -63q10 1 19 1q37 0 60.5 -18t23.5 -50q0 -37 -31 -59.5t-81 -22.5z
M324 760q-70 0 -116.5 45t-52.5 123l51 7q5 -58 36 -89.5t82 -31.5t82.5 31.5t35.5 89.5l51 -7q-6 -78 -52.5 -123t-116.5 -45z" />
    <glyph glyph-name="uni1E1D" unicode="&#x1e1d;" horiz-adv-x="532" 
d="M295 -9q-115 0 -182 67.5t-67 183.5q0 75 30 132.5t82.5 89t121.5 31.5q99 0 155 -63.5t56 -174.5v-31h-366q4 -83 48 -126.5t122 -43.5q44 0 84 13.5t76 44.5l28 -57q-33 -31 -84 -48.5t-104 -17.5zM282 435q-69 0 -109 -43t-47 -113h295q-3 74 -38.5 115t-100.5 41z
M283 -192q-56 0 -89 19l13 44q18 -8 34.5 -12t39.5 -4q26 0 42 9.5t16 27.5q0 28 -38 28q-11 0 -21.5 -2t-25.5 -7l-16 16l14 93h51l-11 -63q10 1 19 1q37 0 60.5 -18t23.5 -50q0 -37 -31 -59.5t-81 -22.5zM280 549q-67 0 -108.5 50.5t-45.5 139.5l51 5q3 -67 30 -103.5
t73 -36.5t73 36.5t30 103.5l51 -5q-4 -89 -45 -139.5t-109 -50.5z" />
    <glyph glyph-name="uni1E20" unicode="&#x1e20;" horiz-adv-x="726" 
d="M409 -9q-170 0 -259 96t-89 265q0 112 40 193t115 125t181 44q75 0 138 -22.5t107 -65.5l-32 -66q-48 42 -99 61t-115 19q-120 0 -184 -75.5t-64 -212.5q0 -140 66 -214t197 -74q85 0 163 29v209h-179v65h250v-326q-28 -15 -67.5 -26t-83.5 -17.5t-85 -6.5zM228 814v55
h326v-55h-326z" />
    <glyph glyph-name="uni1E21" unicode="&#x1e21;" horiz-adv-x="586" 
d="M291 -189q-63 0 -118.5 16.5t-98.5 49.5l27 59q45 -32 89.5 -46t96.5 -14q144 0 144 148v86q-21 -46 -65.5 -72.5t-101.5 -26.5q-67 0 -116 31t-75.5 85.5t-26.5 126.5t26.5 126.5t75.5 84.5t116 30q57 0 101.5 -26t65.5 -71v88h79v-451q0 -112 -55.5 -168t-163.5 -56z
M279 77q70 0 111 48t41 129t-41 128.5t-111 47.5q-69 0 -110 -47.5t-41 -128.5t41 -129t110 -48zM147 625v55h296v-55h-296z" />
    <glyph glyph-name="uni1E24" unicode="&#x1e24;" horiz-adv-x="761" 
d="M87 0v705h82v-312h423v312h82v-705h-82v322h-423v-322h-82zM335 -187v88h92v-88h-92z" />
    <glyph glyph-name="uni1E25" unicode="&#x1e25;" horiz-adv-x="568" 
d="M76 0v705h81v-299q24 44 67.5 66.5t97.5 22.5q173 0 173 -192v-303h-81v298q0 68 -26.5 99.5t-84.5 31.5q-67 0 -106.5 -41.5t-39.5 -110.5v-277h-81zM239 -187v88h92v-88h-92z" />
    <glyph glyph-name="uni1E2A" unicode="&#x1e2a;" horiz-adv-x="761" 
d="M87 0v705h82v-312h423v312h82v-705h-82v322h-423v-322h-82zM381 -215q-67 0 -108.5 40t-45.5 110l51 5q3 -48 30 -74.5t73 -26.5t73 26.5t30 74.5l51 -5q-4 -70 -45 -110t-109 -40z" />
    <glyph glyph-name="uni1E2B" unicode="&#x1e2b;" horiz-adv-x="568" 
d="M76 0v705h81v-299q24 44 67.5 66.5t97.5 22.5q173 0 173 -192v-303h-81v298q0 68 -26.5 99.5t-84.5 31.5q-67 0 -106.5 -41.5t-39.5 -110.5v-277h-81zM285 -215q-67 0 -108.5 40t-45.5 110l51 5q3 -48 30 -74.5t73 -26.5t73 26.5t30 74.5l51 -5q-4 -70 -45 -110t-109 -40
z" />
    <glyph glyph-name="uni1E2E" unicode="&#x1e2e;" horiz-adv-x="256" 
d="M87 0v705h82v-705h-82zM100 882l86 141h85l-115 -141h-56zM-2 771v73h87v-73h-87zM171 771v73h87v-73h-87z" />
    <glyph glyph-name="uni1E2F" unicode="&#x1e2f;" horiz-adv-x="232" 
d="M76 0v486h81v-486h-81zM88 663l86 142h85l-115 -142h-56zM-14 552v73h87v-73h-87zM159 552v73h87v-73h-87z" />
    <glyph glyph-name="uni1E36" unicode="&#x1e36;" horiz-adv-x="543" 
d="M87 0v705h82v-633h359v-72h-441zM261 -187v88h92v-88h-92z" />
    <glyph glyph-name="uni1E37" unicode="&#x1e37;" horiz-adv-x="296" 
d="M225 -9q-74 0 -111.5 43.5t-37.5 126.5v544h81v-538q0 -107 85 -107q25 0 45 6l-2 -68q-31 -7 -60 -7zM140 -187v88h92v-88h-92z" />
    <glyph glyph-name="uni1E3A" unicode="&#x1e3a;" horiz-adv-x="543" 
d="M87 0v705h82v-633h359v-72h-441zM159 -156v55h296v-55h-296z" />
    <glyph glyph-name="uni1E3B" unicode="&#x1e3b;" horiz-adv-x="296" 
d="M225 -9q-74 0 -111.5 43.5t-37.5 126.5v544h81v-538q0 -107 85 -107q25 0 45 6l-2 -68q-31 -7 -60 -7zM38 -156v55h296v-55h-296z" />
    <glyph glyph-name="uni1E42" unicode="&#x1e42;" horiz-adv-x="855" 
d="M89 0v705h69l271 -509l269 509h69v-705h-76v551l-235 -442h-54l-238 441v-550h-75zM382 -187v88h92v-88h-92z" />
    <glyph glyph-name="uni1E43" unicode="&#x1e43;" horiz-adv-x="856" 
d="M78 0v486h79v-82q22 44 61 67.5t91 23.5q114 0 146 -99q22 46 65 72.5t99 26.5q162 0 162 -192v-303h-81v299q0 67 -23.5 98.5t-77.5 31.5q-59 0 -94 -42t-35 -112v-275h-81v299q0 67 -23.5 98.5t-77.5 31.5q-60 0 -94.5 -42t-34.5 -112v-275h-81zM383 -187v88h92v-88
h-92z" />
    <glyph glyph-name="uni1E44" unicode="&#x1e44;" horiz-adv-x="740" 
d="M87 0v705h64l425 -567v567h76v-705h-62l-426 569v-569h-77zM325 807v88h90v-88h-90z" />
    <glyph glyph-name="uni1E45" unicode="&#x1e45;" horiz-adv-x="568" 
d="M76 0v486h79v-83q24 46 68 69t99 23q173 0 173 -192v-303h-81v298q0 68 -26.5 99.5t-84.5 31.5q-67 0 -106.5 -41.5t-39.5 -110.5v-277h-81zM239 609v88h92v-88h-92z" />
    <glyph glyph-name="uni1E46" unicode="&#x1e46;" horiz-adv-x="740" 
d="M87 0v705h64l425 -567v567h76v-705h-62l-426 569v-569h-77zM324 -187v88h92v-88h-92z" />
    <glyph glyph-name="uni1E47" unicode="&#x1e47;" horiz-adv-x="568" 
d="M76 0v486h79v-83q24 46 68 69t99 23q173 0 173 -192v-303h-81v298q0 68 -26.5 99.5t-84.5 31.5q-67 0 -106.5 -41.5t-39.5 -110.5v-277h-81zM239 -187v88h92v-88h-92z" />
    <glyph glyph-name="uni1E48" unicode="&#x1e48;" horiz-adv-x="740" 
d="M87 0v705h64l425 -567v567h76v-705h-62l-426 569v-569h-77zM222 -156v55h296v-55h-296z" />
    <glyph glyph-name="uni1E49" unicode="&#x1e49;" horiz-adv-x="568" 
d="M76 0v486h79v-83q24 46 68 69t99 23q173 0 173 -192v-303h-81v298q0 68 -26.5 99.5t-84.5 31.5q-67 0 -106.5 -41.5t-39.5 -110.5v-277h-81zM137 -156v55h296v-55h-296z" />
    <glyph glyph-name="uni1E4C" unicode="&#x1e4c;" horiz-adv-x="767" 
d="M383 -9q-98 0 -170.5 44.5t-112 125.5t-39.5 192t39 192t111.5 125t171.5 44q100 0 172.5 -44t112 -124.5t39.5 -191.5t-40 -192.5t-112.5 -126t-171.5 -44.5zM383 64q113 0 175 76t62 213t-62 212.5t-175 75.5q-111 0 -173 -75.5t-62 -212.5q0 -136 62 -212.5t173 -76.5
zM355 882l86 141h85l-115 -141h-56zM448 768q-18 0 -35 7t-40 22q-20 14 -31.5 18.5t-21.5 4.5q-22 0 -33.5 -13t-16.5 -41l-45 2q4 51 29.5 76.5t64.5 25.5q16 0 32 -6t40 -22q20 -14 32 -19t23 -5q23 0 34.5 12.5t15.5 41.5l45 -3q-4 -51 -29 -76t-64 -25z" />
    <glyph glyph-name="uni1E4D" unicode="&#x1e4d;" horiz-adv-x="556" 
d="M278 -9q-71 0 -123 31t-80.5 87.5t-28.5 133.5t28.5 133.5t80.5 87.5t123 31q70 0 122.5 -31t81 -87.5t28.5 -133.5t-28.5 -133.5t-81 -87.5t-122.5 -31zM278 56q68 0 109 48.5t41 138.5q0 91 -41 139t-109 48q-69 0 -109.5 -48t-40.5 -139q0 -90 40.5 -138.5
t109.5 -48.5zM250 663l86 142h85l-115 -142h-56zM165 547l-45 3q4 51 29.5 76t64.5 25q16 0 33 -6.5t40 -22.5q33 -23 54 -23q23 0 34.5 13t15.5 41l45 -2q-4 -51 -29 -76.5t-64 -25.5q-32 0 -74 29q-35 23 -54 23q-22 0 -33.5 -12.5t-16.5 -41.5z" />
    <glyph glyph-name="uni1E4E" unicode="&#x1e4e;" horiz-adv-x="767" 
d="M383 -9q-98 0 -170.5 44.5t-112 125.5t-39.5 192t39 192t111.5 125t171.5 44q100 0 172.5 -44t112 -124.5t39.5 -191.5t-40 -192.5t-112.5 -126t-171.5 -44.5zM383 64q113 0 175 76t62 213t-62 212.5t-175 75.5q-111 0 -173 -75.5t-62 -212.5q0 -136 62 -212.5t173 -76.5
zM253 911v74h87v-74h-87zM426 911v74h87v-74h-87zM448 768q-18 0 -35 7t-40 22q-20 14 -31.5 18.5t-21.5 4.5q-22 0 -33.5 -13t-16.5 -41l-45 2q4 51 29.5 76.5t64.5 25.5q16 0 32 -6t40 -22q20 -14 32 -19t23 -5q23 0 34.5 12.5t15.5 41.5l45 -3q-4 -51 -29 -76t-64 -25z
" />
    <glyph glyph-name="uni1E4F" unicode="&#x1e4f;" horiz-adv-x="556" 
d="M278 -9q-71 0 -123 31t-80.5 87.5t-28.5 133.5t28.5 133.5t80.5 87.5t123 31q70 0 122.5 -31t81 -87.5t28.5 -133.5t-28.5 -133.5t-81 -87.5t-122.5 -31zM278 56q68 0 109 48.5t41 138.5q0 91 -41 139t-109 48q-69 0 -109.5 -48t-40.5 -139q0 -90 40.5 -138.5
t109.5 -48.5zM148 693v73h86v-73h-86zM322 693v73h86v-73h-86zM165 547l-45 3q4 51 29.5 76t64.5 25q16 0 33 -6.5t40 -22.5q33 -23 54 -23q23 0 34.5 13t15.5 41l45 -2q-4 -51 -29 -76.5t-64 -25.5q-32 0 -74 29q-35 23 -54 23q-22 0 -33.5 -12.5t-16.5 -41.5z" />
    <glyph glyph-name="uni1E50" unicode="&#x1e50;" horiz-adv-x="767" 
d="M383 -9q-98 0 -170.5 44.5t-112 125.5t-39.5 192t39 192t111.5 125t171.5 44q100 0 172.5 -44t112 -124.5t39.5 -191.5t-40 -192.5t-112.5 -126t-171.5 -44.5zM383 64q113 0 175 76t62 213t-62 212.5t-175 75.5q-111 0 -173 -75.5t-62 -212.5q0 -136 62 -212.5t173 -76.5
zM355 882l-115 141h85l86 -141h-56zM235 790v55h296v-55h-296z" />
    <glyph glyph-name="uni1E51" unicode="&#x1e51;" horiz-adv-x="556" 
d="M278 -9q-71 0 -123 31t-80.5 87.5t-28.5 133.5t28.5 133.5t80.5 87.5t123 31q70 0 122.5 -31t81 -87.5t28.5 -133.5t-28.5 -133.5t-81 -87.5t-122.5 -31zM278 56q68 0 109 48.5t41 138.5q0 91 -41 139t-109 48q-69 0 -109.5 -48t-40.5 -139q0 -90 40.5 -138.5
t109.5 -48.5zM250 663l-115 142h85l86 -142h-56zM130 571v55h296v-55h-296z" />
    <glyph glyph-name="uni1E52" unicode="&#x1e52;" horiz-adv-x="767" 
d="M383 -9q-98 0 -170.5 44.5t-112 125.5t-39.5 192t39 192t111.5 125t171.5 44q100 0 172.5 -44t112 -124.5t39.5 -191.5t-40 -192.5t-112.5 -126t-171.5 -44.5zM383 64q113 0 175 76t62 213t-62 212.5t-175 75.5q-111 0 -173 -75.5t-62 -212.5q0 -136 62 -212.5t173 -76.5
zM355 882l86 141h85l-115 -141h-56zM235 790v55h296v-55h-296z" />
    <glyph glyph-name="uni1E53" unicode="&#x1e53;" horiz-adv-x="556" 
d="M278 -9q-71 0 -123 31t-80.5 87.5t-28.5 133.5t28.5 133.5t80.5 87.5t123 31q70 0 122.5 -31t81 -87.5t28.5 -133.5t-28.5 -133.5t-81 -87.5t-122.5 -31zM278 56q68 0 109 48.5t41 138.5q0 91 -41 139t-109 48q-69 0 -109.5 -48t-40.5 -139q0 -90 40.5 -138.5
t109.5 -48.5zM250 663l86 142h85l-115 -142h-56zM130 571v55h296v-55h-296z" />
    <glyph glyph-name="uni1E5A" unicode="&#x1e5a;" horiz-adv-x="669" 
d="M87 0v705h279q114 0 174.5 -53t60.5 -151q0 -78 -42.5 -128t-120.5 -65q46 -16 79 -78l124 -230h-90l-122 226q-23 42 -53 57t-79 15h-128v-298h-82zM169 363h185q166 0 166 138q0 136 -166 136h-185v-274zM295 -187v88h92v-88h-92z" />
    <glyph glyph-name="uni1E5B" unicode="&#x1e5b;" horiz-adv-x="358" 
d="M76 0v486h79v-87q39 88 160 97l29 3l6 -70l-51 -6q-69 -6 -105 -43.5t-36 -102.5v-277h-82zM70 -187v88h92v-88h-92z" />
    <glyph glyph-name="uni1E5E" unicode="&#x1e5e;" horiz-adv-x="669" 
d="M87 0v705h279q114 0 174.5 -53t60.5 -151q0 -78 -42.5 -128t-120.5 -65q46 -16 79 -78l124 -230h-90l-122 226q-23 42 -53 57t-79 15h-128v-298h-82zM169 363h185q166 0 166 138q0 136 -166 136h-185v-274zM193 -156v55h296v-55h-296z" />
    <glyph glyph-name="uni1E5F" unicode="&#x1e5f;" horiz-adv-x="358" 
d="M76 0v486h79v-87q39 88 160 97l29 3l6 -70l-51 -6q-69 -6 -105 -43.5t-36 -102.5v-277h-82zM-32 -156v55h296v-55h-296z" />
    <glyph glyph-name="uni1E60" unicode="&#x1e60;" horiz-adv-x="615" 
d="M315 -9q-83 0 -150 21.5t-116 62.5l29 66q51 -39 107 -58t130 -19q90 0 133.5 33.5t43.5 88.5q0 44 -31.5 70t-105.5 41l-104 21q-94 20 -140.5 65.5t-46.5 121.5q0 63 32.5 110t90.5 73t134 26q71 0 132 -22.5t103 -64.5l-29 -64q-45 41 -95 59.5t-112 18.5
q-79 0 -126 -36.5t-47 -96.5q0 -48 29.5 -76t96.5 -41l104 -22q101 -21 149.5 -63.5t48.5 -115.5q0 -59 -31.5 -104t-90 -70t-138.5 -25zM269 807v88h90v-88h-90z" />
    <glyph glyph-name="uni1E61" unicode="&#x1e61;" horiz-adv-x="481" 
d="M240 -9q-57 0 -108 16t-84 45l26 57q36 -29 79.5 -42.5t88.5 -13.5q57 0 86 21t29 57q0 28 -19 44.5t-60 25.5l-91 20q-124 27 -124 128q0 66 52.5 106t137.5 40q50 0 95.5 -15.5t75.5 -45.5l-27 -57q-29 27 -67.5 41.5t-76.5 14.5q-56 0 -85 -22t-29 -58q0 -56 74 -72
l91 -19q64 -14 97 -44.5t33 -82.5q0 -67 -53 -105.5t-141 -38.5zM203 609v88h92v-88h-92z" />
    <glyph glyph-name="uni1E62" unicode="&#x1e62;" horiz-adv-x="615" 
d="M315 -9q-83 0 -150 21.5t-116 62.5l29 66q51 -39 107 -58t130 -19q90 0 133.5 33.5t43.5 88.5q0 44 -31.5 70t-105.5 41l-104 21q-94 20 -140.5 65.5t-46.5 121.5q0 63 32.5 110t90.5 73t134 26q71 0 132 -22.5t103 -64.5l-29 -64q-45 41 -95 59.5t-112 18.5
q-79 0 -126 -36.5t-47 -96.5q0 -48 29.5 -76t96.5 -41l104 -22q101 -21 149.5 -63.5t48.5 -115.5q0 -59 -31.5 -104t-90 -70t-138.5 -25zM270 -187v88h92v-88h-92z" />
    <glyph glyph-name="uni1E63" unicode="&#x1e63;" horiz-adv-x="481" 
d="M240 -9q-57 0 -108 16t-84 45l26 57q36 -29 79.5 -42.5t88.5 -13.5q57 0 86 21t29 57q0 28 -19 44.5t-60 25.5l-91 20q-124 27 -124 128q0 66 52.5 106t137.5 40q50 0 95.5 -15.5t75.5 -45.5l-27 -57q-29 27 -67.5 41.5t-76.5 14.5q-56 0 -85 -22t-29 -58q0 -56 74 -72
l91 -19q64 -14 97 -44.5t33 -82.5q0 -67 -53 -105.5t-141 -38.5zM194 -187v88h92v-88h-92z" />
    <glyph glyph-name="uni1E64" unicode="&#x1e64;" horiz-adv-x="615" 
d="M315 -9q-83 0 -150 21.5t-116 62.5l29 66q51 -39 107 -58t130 -19q90 0 133.5 33.5t43.5 88.5q0 44 -31.5 70t-105.5 41l-104 21q-94 20 -140.5 65.5t-46.5 121.5q0 63 32.5 110t90.5 73t134 26q71 0 132 -22.5t103 -64.5l-29 -64q-45 41 -95 59.5t-112 18.5
q-79 0 -126 -36.5t-47 -96.5q0 -48 29.5 -76t96.5 -41l104 -22q101 -21 149.5 -63.5t48.5 -115.5q0 -59 -31.5 -104t-90 -70t-138.5 -25zM227 940v73h87v-73h-87zM283 765l118 172h91l-147 -172h-62z" />
    <glyph glyph-name="uni1E65" unicode="&#x1e65;" horiz-adv-x="481" 
d="M240 -9q-57 0 -108 16t-84 45l26 57q36 -29 79.5 -42.5t88.5 -13.5q57 0 86 21t29 57q0 28 -19 44.5t-60 25.5l-91 20q-124 27 -124 128q0 66 52.5 106t137.5 40q50 0 95.5 -15.5t75.5 -45.5l-27 -57q-29 27 -67.5 41.5t-76.5 14.5q-56 0 -85 -22t-29 -58q0 -56 74 -72
l91 -19q64 -14 97 -44.5t33 -82.5q0 -67 -53 -105.5t-141 -38.5zM163 756v73h87v-73h-87zM220 551l106 202h86l-134 -202h-58z" />
    <glyph glyph-name="uni1E66" unicode="&#x1e66;" horiz-adv-x="615" 
d="M315 -9q-83 0 -150 21.5t-116 62.5l29 66q51 -39 107 -58t130 -19q90 0 133.5 33.5t43.5 88.5q0 44 -31.5 70t-105.5 41l-104 21q-94 20 -140.5 65.5t-46.5 121.5q0 63 32.5 110t90.5 73t134 26q71 0 132 -22.5t103 -64.5l-29 -64q-45 41 -95 59.5t-112 18.5
q-79 0 -126 -36.5t-47 -96.5q0 -48 29.5 -76t96.5 -41l104 -22q101 -21 149.5 -63.5t48.5 -115.5q0 -59 -31.5 -104t-90 -70t-138.5 -25zM271 970v73h87v-73h-87zM275 765l-109 160h56l92 -107l92 107h56l-109 -160h-78z" />
    <glyph glyph-name="uni1E67" unicode="&#x1e67;" horiz-adv-x="481" 
d="M240 -9q-57 0 -108 16t-84 45l26 57q36 -29 79.5 -42.5t88.5 -13.5q57 0 86 21t29 57q0 28 -19 44.5t-60 25.5l-91 20q-124 27 -124 128q0 66 52.5 106t137.5 40q50 0 95.5 -15.5t75.5 -45.5l-27 -57q-29 27 -67.5 41.5t-76.5 14.5q-56 0 -85 -22t-29 -58q0 -56 74 -72
l91 -19q64 -14 97 -44.5t33 -82.5q0 -67 -53 -105.5t-141 -38.5zM206 756v73h87v-73h-87zM210 551l-109 160h56l92 -107l92 107h56l-109 -160h-78z" />
    <glyph glyph-name="uni1E68" unicode="&#x1e68;" horiz-adv-x="615" 
d="M315 -9q-83 0 -150 21.5t-116 62.5l29 66q51 -39 107 -58t130 -19q90 0 133.5 33.5t43.5 88.5q0 44 -31.5 70t-105.5 41l-104 21q-94 20 -140.5 65.5t-46.5 121.5q0 63 32.5 110t90.5 73t134 26q71 0 132 -22.5t103 -64.5l-29 -64q-45 41 -95 59.5t-112 18.5
q-79 0 -126 -36.5t-47 -96.5q0 -48 29.5 -76t96.5 -41l104 -22q101 -21 149.5 -63.5t48.5 -115.5q0 -59 -31.5 -104t-90 -70t-138.5 -25zM270 -187v88h92v-88h-92zM269 807v88h90v-88h-90z" />
    <glyph glyph-name="uni1E69" unicode="&#x1e69;" horiz-adv-x="481" 
d="M240 -9q-57 0 -108 16t-84 45l26 57q36 -29 79.5 -42.5t88.5 -13.5q57 0 86 21t29 57q0 28 -19 44.5t-60 25.5l-91 20q-124 27 -124 128q0 66 52.5 106t137.5 40q50 0 95.5 -15.5t75.5 -45.5l-27 -57q-29 27 -67.5 41.5t-76.5 14.5q-56 0 -85 -22t-29 -58q0 -56 74 -72
l91 -19q64 -14 97 -44.5t33 -82.5q0 -67 -53 -105.5t-141 -38.5zM194 -187v88h92v-88h-92zM203 609v88h92v-88h-92z" />
    </font>
</defs>
</svg>
