<?xml version="1.0" standalone="no"?>
<!DOCTYPE svg PUBLIC "-//W3C//DTD SVG 1.1//EN" "http://www.w3.org/Graphics/SVG/1.1/DTD/svg11.dtd" >
<svg xmlns="http://www.w3.org/2000/svg" xmlns:xlink="http://www.w3.org/1999/xlink" version="1.1">
<metadata>
Created by FontForge 20170731 at Mon Jun 29 15:02:25 2020
 By Aleksey,,,
Copyright 2016 The Nunito Sans Project Authors (https://github.com/Fonthausen/NunitoSans)
</metadata>
<defs>
<font id="NunitoSans-SemiBoldItalic" horiz-adv-x="0" >
  <font-face 
    font-family="Nunito Sans SemiBold"
    font-weight="600"
    font-style="italic"
    font-stretch="normal"
    units-per-em="1000"
    panose-1="0 0 0 0 0 0 0 0 0 0"
    ascent="800"
    descent="-200"
    x-height="488"
    cap-height="705"
    bbox="-309 -273 1369 1047"
    underline-thickness="39"
    underline-position="-141"
    slope="-9"
    unicode-range="U+000D-FB02"
  />
<missing-glyph horiz-adv-x="500" 
d="M50 -180v885h400v-885h-400zM100 -130h300v785h-300v-785z" />
    <glyph glyph-name="fi" unicode="fi" horiz-adv-x="582" 
d="M62 0l65 410h-94l12 78h94l5 31q13 84 67.5 133.5t158.5 53.5l51 3l-1 -76l-47 -3q-59 -4 -89.5 -31t-38.5 -80l-5 -31h310l-78 -488h-101l65 410h-208l-65 -410h-101zM460 601l17 105h116l-17 -105h-116z" />
    <glyph glyph-name="fl" unicode="fl" horiz-adv-x="654" 
d="M62 0l65 410h-94l12 78h94l5 31q13 84 67.5 133.5t158.5 53.5l54 3l-1 -76l-50 -3q-59 -4 -89.5 -31t-38.5 -80l-5 -31h136l-13 -78h-135l-65 -410h-101zM540 -9q-79 0 -113.5 44.5t-21.5 130.5l86 539h101l-86 -538q-7 -49 9 -71t57 -22q11 0 22.5 1.5t23.5 3.5l-15 -80
q-14 -4 -31 -6t-32 -2z" />
    <glyph glyph-name=".notdef" horiz-adv-x="500" 
d="M50 -180v885h400v-885h-400zM100 -130h300v785h-300v-785z" />
    <glyph glyph-name=".null" 
 />
    <glyph glyph-name="nonmarkingreturn" horiz-adv-x="333" 
 />
    <glyph glyph-name="NULL" 
 />
    <glyph glyph-name="NULL" 
 />
    <glyph glyph-name="CR" unicode="&#xd;" horiz-adv-x="263" 
 />
    <glyph glyph-name="space" unicode=" " horiz-adv-x="263" 
 />
    <glyph glyph-name="exclam" unicode="!" horiz-adv-x="237" 
d="M81 198l49 507h124l-111 -507h-62zM21 0l19 119h119l-19 -119h-119z" />
    <glyph glyph-name="quotedbl" unicode="&#x22;" horiz-adv-x="417" 
d="M110 422l20 283h118l-70 -283h-68zM296 422l20 283h118l-70 -283h-68z" />
    <glyph glyph-name="numbersign" unicode="#" horiz-adv-x="600" 
d="M46 0l63 177h-80l10 69h94l79 221h-117l11 69h129l60 169h74l-60 -169h145l59 169h75l-60 -169h79l-10 -69h-94l-78 -221h116l-11 -69h-129l-64 -177h-73l63 177h-144l-63 -177h-74zM207 246h144l79 221h-145z" />
    <glyph glyph-name="dollar" unicode="$" horiz-adv-x="600" 
d="M212 -115l17 112q-61 6 -115 25.5t-97 56.5l38 81q55 -43 111.5 -60t122.5 -17q68 0 113 28t45 80q0 41 -25.5 65t-91.5 42l-93 24q-70 18 -112 61t-42 118q0 66 35 112t93.5 71t130.5 26l18 110h82l-19 -116q46 -9 89 -29.5t77 -53.5l-39 -76q-45 42 -96 59.5t-103 17.5
q-76 0 -120.5 -29.5t-44.5 -82.5q0 -46 23.5 -68.5t68.5 -34.5l93 -24q92 -25 135.5 -69t43.5 -112q0 -63 -32.5 -107.5t-86.5 -69t-119 -29.5l-18 -111h-82z" />
    <glyph glyph-name="percent" unicode="%" horiz-adv-x="937" 
d="M256 -28l-62 44l521 715l61 -44zM240 281q-73 0 -113.5 44t-40.5 120q0 74 23.5 134.5t68.5 96.5t111 36q72 0 112.5 -44t40.5 -120q0 -74 -23.5 -134.5t-68.5 -96.5t-110 -36zM240 349q38 0 64 27.5t39.5 72.5t14.5 97q2 52 -17.5 75t-51.5 23q-39 0 -65 -27.5
t-39 -72.5t-15 -97q-1 -52 18.5 -75t51.5 -23zM682 -9q-73 0 -113 44t-40 119q0 74 23 134.5t68 97t110 36.5q73 0 113.5 -44.5t40.5 -119.5t-23 -135.5t-68 -96t-111 -35.5zM682 59q39 0 65 27.5t39 72t15 97.5q1 52 -18.5 75t-51.5 23q-39 0 -65 -27.5t-39.5 -72.5
t-14.5 -97t18 -75t52 -23z" />
    <glyph glyph-name="ampersand" unicode="&#x26;" horiz-adv-x="708" 
d="M258 -9q-97 0 -154 43.5t-57 116.5q0 54 25.5 98t67 78t88.5 60l13 7q-29 37 -41.5 71.5t-12.5 65.5q0 54 25.5 95.5t71 64.5t105.5 23q68 0 109.5 -37t41.5 -96q0 -46 -22.5 -82.5t-60.5 -66t-85 -55.5l126 -167q27 41 47.5 94.5t32.5 113.5h86q-14 -78 -43 -147
t-69 -122l118 -149h-118l-63 83q-46 -44 -104 -68t-127 -24zM384 640q-47 0 -75 -28t-28 -72q0 -26 9.5 -48t34.5 -56q68 36 98.5 68t30.5 73q0 30 -19 46.5t-51 16.5zM271 72q51 0 92 17.5t76 51.5l-150 193l-8 -5q-37 -20 -67 -43.5t-48 -53t-18 -67.5q0 -45 31 -69
t92 -24z" />
    <glyph glyph-name="quotesingle" unicode="'" horiz-adv-x="230" 
d="M110 422l20 283h118l-70 -283h-68z" />
    <glyph glyph-name="parenleft" unicode="(" horiz-adv-x="335" 
d="M159 -194q-30 79 -45.5 161t-15.5 161q0 114 26 221.5t71.5 201.5t105.5 169l70 -34q-76 -131 -120.5 -274t-44.5 -313q0 -63 6.5 -127.5t19.5 -137.5z" />
    <glyph glyph-name="parenright" unicode=")" horiz-adv-x="335" 
d="M40 -194l-70 34q77 132 121.5 274.5t44.5 312.5q0 64 -7 128t-20 137l73 28q31 -79 46.5 -161t15.5 -161q0 -114 -26 -221.5t-72 -201.5t-106 -169z" />
    <glyph glyph-name="asterisk" unicode="*" horiz-adv-x="451" 
d="M205 346l-63 37l75 118l-139 -6v73l140 -7l-76 119l64 37l65 -131l66 131l63 -38l-76 -118l141 7v-73l-140 6l75 -118l-63 -36l-66 131z" />
    <glyph glyph-name="plus" unicode="+" horiz-adv-x="600" 
d="M230 40l33 210h-206l12 74h205l33 204h76l-32 -204h206l-12 -74h-206l-33 -210h-76z" />
    <glyph glyph-name="comma" unicode="," horiz-adv-x="237" 
d="M56 -123l-38 41q26 23 38.5 42t18.5 40h-55l19 119h119l-14 -91q-7 -45 -25 -80t-63 -71z" />
    <glyph glyph-name="hyphen" unicode="-" horiz-adv-x="429" 
d="M68 226l13 81h288l-13 -81h-288z" />
    <glyph glyph-name="period" unicode="." horiz-adv-x="237" 
d="M20 0l19 119h119l-18 -119h-120z" />
    <glyph glyph-name="slash" unicode="/" horiz-adv-x="297" 
d="M8 -69l-71 34l381 792l72 -34z" />
    <glyph glyph-name="zero" unicode="0" horiz-adv-x="600" 
d="M288 -9q-111 0 -168.5 67.5t-57.5 194.5q0 143 35 246.5t99 159t151 55.5q111 0 168.5 -67t57.5 -193q0 -144 -35 -248t-98.5 -159.5t-151.5 -55.5zM293 77q81 0 129.5 100.5t49.5 294.5q1 156 -130 156q-80 0 -129.5 -100t-49.5 -295q0 -156 130 -156z" />
    <glyph glyph-name="one" unicode="1" horiz-adv-x="600" 
d="M79 0l13 87h160l78 491l-131 -74l-34 80l215 121h74l-99 -618h150l-13 -87h-413z" />
    <glyph glyph-name="two" unicode="2" horiz-adv-x="600" 
d="M51 0l12 77l269 249q55 52 89.5 101t34.5 103q0 46 -30.5 71t-85.5 25q-49 0 -96 -20t-93 -57l-33 79q50 41 111 63.5t129 22.5q61 0 106 -21.5t70 -59.5t25 -88q0 -57 -21.5 -104.5t-59 -90.5t-84.5 -85l-197 -178h321l-14 -87h-453z" />
    <glyph glyph-name="three" unicode="3" horiz-adv-x="600" 
d="M277 -9q-66 0 -133 19t-115 66l43 75q49 -42 98.5 -57t106.5 -15q62 0 104 34.5t42 96.5q0 48 -32 75.5t-93 27.5h-105l13 87h98q65 0 109 33.5t44 94.5q0 45 -32 71.5t-85 26.5q-50 0 -100.5 -18.5t-94.5 -57.5l-34 79q49 42 113 63.5t129 21.5q66 0 112 -23.5
t69.5 -62.5t23.5 -87q1 -66 -39.5 -114.5t-104.5 -66.5q54 -18 82 -59.5t28 -95.5q0 -61 -31 -109.5t-87 -76.5t-129 -28z" />
    <glyph glyph-name="four" unicode="4" horiz-adv-x="600" 
d="M326 0l23 143h-318l11 77l412 485h86l-76 -475h101l-12 -87h-101l-23 -143h-103zM362 230l50 315l-266 -315h216z" />
    <glyph glyph-name="five" unicode="5" horiz-adv-x="600" 
d="M285 -9q-60 0 -122.5 19t-108.5 66l43 75q47 -42 91.5 -57t96.5 -15q47 0 84 20t58.5 55t21.5 81q0 55 -33.5 89t-89.5 34q-47 0 -86 -20.5t-72 -56.5h-72l68 424h419l-13 -87h-319l-35 -222q30 23 67 35.5t75 12.5q55 0 98 -23.5t68.5 -68t25.5 -108.5q0 -77 -36.5 -134
t-96.5 -88t-132 -31z" />
    <glyph glyph-name="six" unicode="6" horiz-adv-x="600" 
d="M308 -9q-111 0 -174.5 71t-63.5 193q0 133 38.5 237t112.5 163t180 59q57 0 110 -22t93 -65l-44 -74q-36 37 -78 55t-87 18q-95 0 -154 -78.5t-71 -217.5q25 55 78 86t111 31q56 0 99 -27t67.5 -72t24.5 -101q0 -73 -31 -131t-86 -91.5t-125 -33.5zM304 75
q44 0 77.5 21.5t52.5 59t19 83.5q0 54 -35.5 88.5t-89.5 34.5q-44 0 -78 -21.5t-52.5 -58.5t-18.5 -84q0 -54 35 -88.5t90 -34.5z" />
    <glyph glyph-name="seven" unicode="7" horiz-adv-x="600" 
d="M61 0l417 618h-358l14 87h477l-12 -77l-420 -628h-118z" />
    <glyph glyph-name="eight" unicode="8" horiz-adv-x="600" 
d="M269 -9q-71 0 -124 21t-83 60.5t-30 93.5q0 48 20 89t55 69.5t80 38.5q-41 19 -63.5 56.5t-22.5 87.5q0 67 34.5 113t93.5 70t134 24q65 0 114.5 -21t77 -59t27.5 -89q0 -65 -37.5 -116t-97.5 -70q46 -16 74 -55t28 -95q0 -71 -36.5 -119.5t-99.5 -73.5t-144 -25z
M324 398q71 0 116 36.5t45 97.5q0 48 -34 73.5t-92 25.5q-75 0 -118 -34.5t-43 -97.5q0 -49 34 -75t92 -26zM274 73q82 0 129.5 36t47.5 105q0 51 -39 76.5t-103 25.5q-82 0 -130.5 -35.5t-48.5 -103.5q0 -52 39.5 -78t104.5 -26z" />
    <glyph glyph-name="nine" unicode="9" horiz-adv-x="600" 
d="M240 -9q-57 0 -113.5 22.5t-95.5 64.5l43 75q38 -38 80.5 -56t87.5 -18q92 0 151.5 79t71.5 217q-25 -55 -78 -86t-111 -31q-57 0 -100 27t-67.5 72.5t-24.5 101.5q0 73 31.5 130.5t86.5 91t125 33.5q111 0 174 -70.5t63 -192.5q0 -95 -20 -178t-60.5 -146.5
t-101.5 -99.5t-142 -36zM306 343q45 0 78.5 22t52 59t18.5 83q0 55 -35 89.5t-89 34.5q-44 0 -77.5 -22t-52.5 -59t-19 -83q0 -55 35 -89.5t89 -34.5z" />
    <glyph glyph-name="colon" unicode=":" horiz-adv-x="237" 
d="M79 369l19 119h119l-18 -119h-120zM21 0l19 119h119l-19 -119h-119z" />
    <glyph glyph-name="semicolon" unicode=";" horiz-adv-x="237" 
d="M79 369l19 119h119l-19 -119h-119zM56 -123l-38 41q25 23 38 42t19 40h-55l19 119h119l-14 -91q-7 -45 -25 -80t-63 -71z" />
    <glyph glyph-name="less" unicode="&#x3c;" horiz-adv-x="600" 
d="M510 34l-454 214l13 78l522 215l-14 -86l-422 -173l368 -171z" />
    <glyph glyph-name="equal" unicode="=" horiz-adv-x="600" 
d="M72 350l12 74h488l-12 -74h-488zM41 151l12 73h488l-12 -73h-488z" />
    <glyph glyph-name="greater" unicode="&#x3e;" horiz-adv-x="600" 
d="M22 34l14 85l422 172l-368 172l13 78l454 -215l-13 -78z" />
    <glyph glyph-name="question" unicode="?" horiz-adv-x="450" 
d="M175 195l5 36q4 33 14 61t31.5 56.5t61.5 64.5q17 15 38 34.5t35.5 44t14.5 56.5q0 34 -22 56t-70 22q-49 0 -96.5 -19.5t-89.5 -56.5l-34 77q49 44 112 65.5t125 21.5q57 0 96.5 -20.5t60.5 -55t21 -75.5q0 -43 -18 -79t-47 -65t-59 -51q-39 -29 -60.5 -53.5t-32 -47
t-17.5 -46.5l-7 -26h-62zM115 0l19 119h119l-19 -119h-119z" />
    <glyph glyph-name="at" unicode="@" horiz-adv-x="948" 
d="M496 -164q-128 0 -224.5 53.5t-150 151.5t-53.5 230q0 99 32 180.5t91 140.5t140 90.5t180 31.5q116 0 204 -46t137 -129.5t49 -195.5q0 -86 -24.5 -150t-67.5 -99t-101 -35q-49 0 -79.5 23t-39.5 65q-27 -44 -66 -66t-82 -22q-79 0 -122 49t-43 135q0 73 28 130.5
t76.5 90.5t110.5 33q93 0 125 -75l11 66h79l-44 -251q-5 -29 -5 -51q0 -64 56 -64q54 0 87.5 61t33.5 160q0 94 -40 162.5t-113 105.5t-171 37q-111 0 -193.5 -46.5t-128.5 -131.5t-46 -199q0 -115 43.5 -198t122.5 -127t188 -44q78 0 141.5 23.5t107.5 66.5l36 -56
q-48 -48 -122 -74t-163 -26zM454 126q41 0 73.5 25.5t51 70t18.5 101.5q0 106 -95 106q-41 0 -74 -24t-51.5 -65.5t-18.5 -95.5q0 -57 25 -87.5t71 -30.5z" />
    <glyph glyph-name="A" unicode="A" horiz-adv-x="736" 
d="M-28 0l427 705h86l202 -705h-100l-45 172h-358l-101 -172h-111zM429 590l-196 -334h286l-88 334h-2z" />
    <glyph glyph-name="B" unicode="B" horiz-adv-x="682" 
d="M44 0l112 705h277q113 0 165.5 -46t52.5 -120q0 -69 -38.5 -116t-104.5 -65q51 -17 79.5 -56t28.5 -93q0 -103 -66 -156t-186 -53h-320zM207 397h187q73 0 114.5 34t41.5 97q0 47 -32 72t-100 25h-175zM156 80h205q77 0 116 34.5t39 99.5q0 51 -34.5 77t-98.5 26h-189z
" />
    <glyph glyph-name="C" unicode="C" horiz-adv-x="676" 
d="M386 -9q-91 0 -161.5 34.5t-110.5 105t-40 178.5q0 85 25.5 159t73.5 129.5t117 86t156 30.5q73 0 134 -23.5t99 -63.5l-45 -82q-79 77 -191 77q-82 0 -140 -40.5t-88.5 -111t-30.5 -159.5q0 -121 55.5 -174.5t156.5 -53.5q52 0 97.5 17.5t93.5 56.5l33 -81
q-45 -42 -106.5 -63.5t-127.5 -21.5z" />
    <glyph glyph-name="D" unicode="D" horiz-adv-x="751" 
d="M44 0l112 705h215q164 0 253 -78t89 -220q0 -85 -24.5 -158.5t-74 -129.5t-125 -87.5t-177.5 -31.5h-268zM161 87h153q103 0 167 42.5t94 115t30 161.5q0 103 -58.5 157.5t-175.5 54.5h-126z" />
    <glyph glyph-name="E" unicode="E" horiz-adv-x="589" 
d="M44 0l112 705h456l-13 -84h-357l-35 -221h336l-13 -84h-336l-38 -232h357l-13 -84h-456z" />
    <glyph glyph-name="F" unicode="F" horiz-adv-x="554" 
d="M44 0l112 705h448l-13 -84h-344l-37 -225h324l-13 -84h-324l-49 -312h-104z" />
    <glyph glyph-name="G" unicode="G" horiz-adv-x="731" 
d="M394 -9q-98 0 -170 35t-111.5 104t-39.5 169q0 122 45.5 215.5t130 146.5t203.5 53q78 0 139 -23t99 -62l-44 -82q-83 76 -200 76q-83 0 -142 -41t-90.5 -113t-31.5 -166q0 -114 58 -168t167 -54q38 0 72.5 6t65.5 16l32 192h-172l12 78h259l-53 -338q-45 -21 -107 -32.5
t-122 -11.5z" />
    <glyph glyph-name="H" unicode="H" horiz-adv-x="767" 
d="M44 0l112 705h103l-49 -304h396l48 304h103l-112 -705h-103l50 314h-395l-50 -314h-103z" />
    <glyph glyph-name="I" unicode="I" horiz-adv-x="268" 
d="M44 0l112 705h103l-112 -705h-103z" />
    <glyph glyph-name="J" unicode="J" horiz-adv-x="338" 
d="M-39 -8l1 85l65 4q100 7 118 120l80 504h103l-82 -514q-14 -91 -63.5 -140t-149.5 -55z" />
    <glyph glyph-name="K" unicode="K" horiz-adv-x="643" 
d="M44 0l112 705h103l-51 -317h2l374 317h134l-410 -348l317 -357h-122l-302 332h-2l-52 -332h-103z" />
    <glyph glyph-name="L" unicode="L" horiz-adv-x="552" 
d="M44 0l112 705h103l-98 -616h349l-14 -89h-452z" />
    <glyph glyph-name="M" unicode="M" horiz-adv-x="861" 
d="M46 0l112 705h83l181 -489l339 489h89l-112 -705h-94l82 517l-284 -409h-63l-157 411l-82 -519h-94z" />
    <glyph glyph-name="N" unicode="N" horiz-adv-x="743" 
d="M44 0l112 705h78l317 -544l86 544h96l-112 -705h-77l-318 544l-86 -544h-96z" />
    <glyph glyph-name="O" unicode="O" horiz-adv-x="775" 
d="M374 -9q-91 0 -158.5 35.5t-105 103.5t-37.5 166q0 120 43 214.5t124.5 149t195.5 54.5q92 0 159.5 -35.5t104.5 -103.5t37 -165q0 -121 -43 -215.5t-124.5 -149t-195.5 -54.5zM376 81q81 0 137.5 42.5t85.5 116.5t29 168q0 110 -52 163t-143 53q-81 0 -137 -42t-85 -116
t-29 -168q0 -110 51.5 -163.5t142.5 -53.5z" />
    <glyph glyph-name="P" unicode="P" horiz-adv-x="642" 
d="M44 0l112 705h263q112 0 172 -49t60 -144q0 -111 -69 -174.5t-201 -63.5h-191l-43 -274h-103zM204 357h183q80 0 121.5 38t41.5 110q0 60 -35.5 88.5t-106.5 28.5h-162z" />
    <glyph glyph-name="Q" unicode="Q" horiz-adv-x="775" 
d="M533 -206l-66 140q-14 29 -39 43t-67 14h1q-88 2 -152.5 38.5t-100.5 103.5t-36 163q0 120 43 214.5t124.5 149t195.5 54.5q92 0 159.5 -35.5t104.5 -103.5t37 -165q0 -95 -27 -175t-79 -137t-126 -85q37 -16 60 -65l56 -121zM376 81q81 0 137.5 42.5t85.5 116.5t29 168
q0 110 -52 163t-143 53q-81 0 -137 -42t-85 -116t-29 -168q0 -110 51.5 -163.5t142.5 -53.5z" />
    <glyph glyph-name="R" unicode="R" horiz-adv-x="677" 
d="M44 0l112 705h262q115 0 174 -51.5t59 -140.5q0 -94 -53.5 -147.5t-139.5 -67.5q25 -10 42.5 -32.5t30.5 -55.5l80 -210h-105l-82 217q-16 41 -40 57.5t-69 16.5h-122l-45 -291h-104zM206 369h186q75 0 116.5 35.5t41.5 100.5q0 58 -35 87.5t-110 29.5h-159z" />
    <glyph glyph-name="S" unicode="S" horiz-adv-x="622" 
d="M299 -9q-78 0 -149 20t-124 65l39 79q56 -43 116 -59.5t127 -16.5q75 0 120.5 30.5t45.5 82.5q0 37 -27 63t-93 40l-106 26q-71 17 -113.5 59.5t-42.5 117.5q0 67 37 115.5t98.5 74.5t135.5 26q67 0 133 -20.5t114 -65.5l-40 -77q-45 41 -99.5 58t-109.5 17
q-72 0 -119 -33t-47 -87q0 -45 24 -67.5t71 -33.5l106 -26q92 -20 136.5 -65.5t44.5 -109.5q0 -70 -38 -117.5t-101.5 -71.5t-138.5 -24z" />
    <glyph glyph-name="T" unicode="T" horiz-adv-x="611" 
d="M215 0l98 618h-249l13 87h603l-14 -87h-249l-99 -618h-103z" />
    <glyph glyph-name="U" unicode="U" horiz-adv-x="732" 
d="M339 -9q-90 0 -152.5 34t-89.5 103t-10 174l63 403h104l-65 -412q-34 -212 156 -212q91 0 143 46t68 148l68 430h103l-68 -431q-22 -140 -99 -211.5t-221 -71.5z" />
    <glyph glyph-name="V" unicode="V" horiz-adv-x="700" 
d="M266 0l-199 705h104l155 -573l337 573h115l-423 -705h-89z" />
    <glyph glyph-name="W" unicode="W" horiz-adv-x="1107" 
d="M235 0l-136 705h101l101 -555l282 555h79l103 -561l282 561h107l-361 -705h-87l-104 547l-280 -547h-87z" />
    <glyph glyph-name="X" unicode="X" horiz-adv-x="660" 
d="M-36 0l324 364l-200 341h113l157 -275l236 275h127l-310 -350l208 -355h-114l-166 287l-248 -287h-127z" />
    <glyph glyph-name="Y" unicode="Y" horiz-adv-x="606" 
d="M212 0l53 328l-211 377h113l158 -285l248 285h124l-329 -375l-53 -330h-103z" />
    <glyph glyph-name="Z" unicode="Z" horiz-adv-x="596" 
d="M9 0l12 76l469 542h-383l14 87h512l-12 -76l-469 -542h399l-14 -87h-528z" />
    <glyph glyph-name="bracketleft" unicode="[" horiz-adv-x="333" 
d="M41 -180l140 885h215l-12 -78h-115l-115 -729h115l-13 -78h-215z" />
    <glyph glyph-name="backslash" unicode="\" horiz-adv-x="297" 
d="M191 -69l-132 810l77 16l134 -809z" />
    <glyph glyph-name="bracketright" unicode="]" horiz-adv-x="333" 
d="M-58 -180l12 78h116l115 729h-115l13 78h215l-140 -885h-216z" />
    <glyph glyph-name="asciicircum" unicode="^" horiz-adv-x="600" 
d="M31 140l291 488h78l137 -488h-77l-110 395l-234 -395h-85z" />
    <glyph glyph-name="underscore" unicode="_" horiz-adv-x="500" 
d="M-28 -63l10 63h459l-10 -63h-459z" />
    <glyph glyph-name="grave" unicode="`" horiz-adv-x="500" 
d="M262 553l-140 202h101l109 -202h-70z" />
    <glyph glyph-name="a" unicode="a" horiz-adv-x="537" 
d="M196 -9q-43 0 -80 19.5t-59 53t-22 75.5q0 77 66 112t209 35h69l4 24q9 53 -15 81t-83 28q-89 0 -167 -51l-25 72q37 26 92.5 41.5t111.5 15.5q109 0 151.5 -59.5t27.5 -153.5l-45 -284h-95l11 75q-25 -44 -65.5 -64t-85.5 -20zM225 63q51 0 90.5 33.5t48.5 93.5l5 34
h-50q-104 0 -144 -17t-40 -62q0 -40 26.5 -61t63.5 -21z" />
    <glyph glyph-name="b" unicode="b" horiz-adv-x="591" 
d="M306 -9q-55 0 -98 25t-63 77l-14 -93h-99l112 705h101l-46 -292q27 40 69.5 62t95.5 22q84 0 135 -56.5t51 -153.5q0 -81 -29 -148.5t-83.5 -107.5t-131.5 -40zM290 69q51 0 86 29t53.5 77.5t18.5 107.5q0 66 -31.5 100.5t-88.5 34.5q-51 0 -86.5 -28.5t-54 -77
t-18.5 -108.5q0 -66 32 -100.5t89 -34.5z" />
    <glyph glyph-name="c" unicode="c" horiz-adv-x="467" 
d="M264 -9q-113 0 -168 60.5t-55 158.5q0 54 16 105t49 92t83.5 65.5t119.5 24.5q49 0 93 -15.5t71 -41.5l-33 -71q-49 48 -126 48q-61 0 -98 -30.5t-54 -78t-17 -97.5q0 -64 30.5 -102t101.5 -38q29 0 62 11.5t61 35.5l26 -73q-29 -26 -74.5 -40t-87.5 -14z" />
    <glyph glyph-name="d" unicode="d" horiz-adv-x="591" 
d="M226 -9q-84 0 -135 56.5t-51 152.5q0 82 29 149.5t84 107.5t131 40q54 0 97 -25t63 -75l48 308h101l-112 -705h-99l13 80q-27 -42 -70.5 -65.5t-98.5 -23.5zM263 69q50 0 85.5 29t54 77.5t18.5 107.5q0 66 -32 100.5t-88 34.5q-51 0 -86.5 -28.5t-54 -77t-18.5 -108.5
q0 -66 32 -100.5t89 -34.5z" />
    <glyph glyph-name="e" unicode="e" horiz-adv-x="537" 
d="M275 -9q-108 0 -171 58.5t-63 159.5q0 80 33 145.5t92.5 104t138.5 38.5q78 0 123.5 -35.5t62.5 -93t8 -123.5l-3 -24h-359q-5 -70 33.5 -111t111.5 -41q45 0 84.5 13t71.5 41l28 -68q-34 -31 -85.5 -47.5t-105.5 -16.5zM304 426q-47 0 -79.5 -20.5t-51.5 -53t-27 -69.5
h274q5 60 -22 101.5t-94 41.5z" />
    <glyph glyph-name="f" unicode="f" horiz-adv-x="347" 
d="M62 0l65 410h-94l12 78h94l5 31q13 84 67.5 133.5t158.5 53.5l54 3l-1 -76l-50 -3q-59 -4 -89.5 -31t-38.5 -80l-5 -31h136l-13 -78h-135l-65 -410h-101z" />
    <glyph glyph-name="g" unicode="g" horiz-adv-x="594" 
d="M252 -189q-70 0 -126.5 18.5t-100.5 50.5l32 72q44 -29 86 -46t95 -17q63 0 101.5 30t49.5 95l13 83q-27 -41 -70 -63t-96 -22q-88 0 -141.5 53.5t-53.5 146.5q0 75 29.5 140t85 105t132.5 40q55 0 98 -24.5t63 -73.5l14 89h98l-74 -469q-33 -208 -235 -208zM264 91
q52 0 88 28t55 74t19 100q1 59 -31.5 92t-91.5 33q-51 0 -87 -28t-54.5 -74t-18.5 -99q0 -60 32 -93t89 -33z" />
    <glyph glyph-name="h" unicode="h" horiz-adv-x="576" 
d="M32 0l112 705h101l-46 -294q26 42 69.5 64t99.5 22q80 0 121.5 -49.5t25.5 -153.5l-46 -294h-101l46 292q20 124 -82 124q-67 0 -106.5 -41.5t-50.5 -111.5l-42 -263h-101z" />
    <glyph glyph-name="i" unicode="i" horiz-adv-x="243" 
d="M120 601l17 105h117l-17 -105h-117zM32 0l77 488h101l-77 -488h-101z" />
    <glyph glyph-name="j" unicode="j" horiz-adv-x="246" 
d="M122 601l17 105h117l-17 -105h-117zM-106 -193l-6 76l45 4q86 6 101 102l79 499h101l-78 -491q-14 -92 -60.5 -136.5t-137.5 -50.5z" />
    <glyph glyph-name="k" unicode="k" horiz-adv-x="516" 
d="M33 0l111 705h101l-68 -430h2l243 213h124l-269 -240l214 -248h-119l-201 227h-2l-35 -227h-101z" />
    <glyph glyph-name="l" unicode="l" horiz-adv-x="306" 
d="M193 -9q-79 0 -113.5 44.5t-21.5 130.5l86 539h101l-86 -538q-7 -49 9 -71t57 -22q11 0 22.5 1.5t23.5 3.5l-15 -80q-14 -4 -31 -6t-32 -2z" />
    <glyph glyph-name="m" unicode="m" horiz-adv-x="866" 
d="M34 0l78 488h98l-13 -81q28 45 69 67.5t89 22.5q107 0 135 -100q26 48 70 74t103 26q77 0 116.5 -49t23.5 -154l-46 -294h-101l46 296q19 120 -74 120q-56 0 -92.5 -40.5t-48.5 -112.5l-42 -263h-101l48 296q18 120 -74 120q-56 0 -92.5 -40.5t-48.5 -112.5l-42 -263
h-101z" />
    <glyph glyph-name="n" unicode="n" horiz-adv-x="576" 
d="M32 0l78 488h98l-13 -82q27 44 71 67.5t102 23.5q80 0 121.5 -49.5t25.5 -153.5l-46 -294h-101l46 292q20 124 -82 124q-67 0 -106.5 -41.5t-50.5 -111.5l-42 -263h-101z" />
    <glyph glyph-name="o" unicode="o" horiz-adv-x="565" 
d="M261 -9q-103 0 -161.5 58.5t-58.5 158.5q0 85 34 150t93.5 102t135.5 37q103 0 161.5 -58.5t58.5 -158.5q0 -85 -34 -150.5t-93.5 -102t-135.5 -36.5zM263 69q51 0 86.5 29t54 77.5t18.5 107.5q0 66 -32 100.5t-88 34.5q-51 0 -86.5 -28.5t-54 -77t-18.5 -108.5
q0 -66 32 -100.5t88 -34.5z" />
    <glyph glyph-name="p" unicode="p" horiz-adv-x="591" 
d="M4 -180l105 668h99l-12 -79q28 42 71 65t97 23q85 0 135.5 -56.5t50.5 -153.5q0 -81 -29 -148.5t-83.5 -107.5t-131.5 -40q-54 0 -96.5 24t-62.5 73l-42 -268h-101zM290 69q51 0 86 29t53.5 77.5t18.5 107.5q0 66 -31.5 100.5t-88.5 34.5q-51 0 -86.5 -28.5t-54 -77
t-18.5 -108.5q0 -66 32 -100.5t89 -34.5z" />
    <glyph glyph-name="q" unicode="q" horiz-adv-x="591" 
d="M352 -180l40 256q-27 -40 -69.5 -62.5t-96.5 -22.5q-84 0 -135 56.5t-51 152.5q0 82 29 149.5t84 107.5t131 40q55 0 98.5 -25.5t62.5 -77.5l15 94h99l-106 -668h-101zM263 69q50 0 85.5 29t54 77.5t18.5 107.5q0 66 -32 100.5t-88 34.5q-51 0 -86.5 -28.5t-54 -77
t-18.5 -108.5q0 -66 32 -100.5t89 -34.5z" />
    <glyph glyph-name="r" unicode="r" horiz-adv-x="373" 
d="M32 0l78 488h98l-13 -82q23 39 62.5 63t96.5 28l40 3l-1 -86l-67 -7q-74 -6 -107 -43t-43 -102l-42 -262h-102z" />
    <glyph glyph-name="s" unicode="s" horiz-adv-x="484" 
d="M224 -9q-60 0 -112.5 15.5t-87.5 43.5l35 67q36 -27 78.5 -40t87.5 -13q51 0 79 19.5t28 54.5q0 45 -60 59l-93 21q-53 11 -82.5 43.5t-29.5 79.5q0 44 25 79t71.5 56t112.5 21q49 0 96 -15.5t77 -44.5l-32 -66q-30 27 -67.5 39.5t-78.5 12.5q-52 0 -81.5 -21t-29.5 -56
q0 -21 13 -36.5t42 -21.5l93 -21q56 -13 86.5 -43.5t30.5 -78.5q0 -73 -55.5 -113.5t-145.5 -40.5z" />
    <glyph glyph-name="t" unicode="t" horiz-adv-x="365" 
d="M247 -9q-91 0 -132.5 50t-28.5 133l38 236h-95l12 78h95l23 147h101l-23 -147h151l-12 -78h-151l-37 -228q-9 -57 12.5 -82t67.5 -25q17 0 31 3t27 8l8 -77q-15 -8 -39.5 -13t-47.5 -5z" />
    <glyph glyph-name="u" unicode="u" horiz-adv-x="569" 
d="M205 -9q-78 0 -119.5 49.5t-24.5 154.5l46 293h101l-46 -293q-20 -123 79 -123q64 0 103 41.5t50 111.5l41 263h101l-77 -488h-98l12 80q-26 -43 -69.5 -66t-98.5 -23z" />
    <glyph glyph-name="v" unicode="v" horiz-adv-x="520" 
d="M175 0l-132 488h104l90 -371l212 371h107l-289 -488h-92z" />
    <glyph glyph-name="w" unicode="w" horiz-adv-x="846" 
d="M164 0l-109 488h98l73 -368l193 368h77l75 -374l193 374h105l-264 -488h-92l-74 349l-184 -349h-91z" />
    <glyph glyph-name="x" unicode="x" horiz-adv-x="534" 
d="M-32 0l243 253l-153 235h113l108 -172l156 172h121l-227 -241l162 -247h-113l-116 181l-173 -181h-121z" />
    <glyph glyph-name="y" unicode="y" horiz-adv-x="520" 
d="M55 -180l116 193l-129 475h103l91 -371l212 371h108l-397 -668h-104z" />
    <glyph glyph-name="z" unicode="z" horiz-adv-x="468" 
d="M14 0l11 66l313 345h-259l12 77h377l-11 -66l-315 -345h272l-13 -77h-387z" />
    <glyph glyph-name="braceleft" unicode="{" horiz-adv-x="370" 
d="M211 -180q-67 0 -95.5 30.5t-20.5 80.5l34 212q6 40 -4.5 58t-48.5 21l-32 3l12 75l32 3q38 3 55 21t24 58l33 212q18 111 121 111h112l-13 -78h-70q-20 0 -33.5 -10t-17.5 -34l-33 -212q-7 -48 -35 -74.5t-57 -33.5q27 -6 45.5 -34t11.5 -75l-33 -212q-3 -24 5.5 -34
t29.5 -10h72l-13 -78h-81z" />
    <glyph glyph-name="bar" unicode="|" horiz-adv-x="276" 
d="M20 -180l140 885h101l-140 -885h-101z" />
    <glyph glyph-name="braceright" unicode="}" horiz-adv-x="370" 
d="M-57 -180l12 78h71q20 0 33.5 10t17.5 34l33 212q7 48 35 75t57 33q-27 7 -46 34.5t-11 74.5l32 212q4 24 -4.5 34t-29.5 10h-73l13 78h82q67 0 95 -30.5t21 -80.5l-34 -212q-6 -39 4.5 -57.5t48.5 -21.5l32 -2l-12 -76l-33 -3q-37 -2 -54 -20.5t-24 -58.5l-34 -212
q-17 -111 -120 -111h-112z" />
    <glyph glyph-name="asciitilde" unicode="~" horiz-adv-x="600" 
d="M420 213q-34 0 -66.5 13.5t-59.5 28.5q-27 14 -49.5 24.5t-43.5 10.5q-31 0 -52 -18t-37 -46l-53 36q25 48 57.5 73.5t77.5 25.5q33 0 66.5 -13.5t61.5 -28.5q26 -14 47.5 -24.5t42.5 -10.5q31 0 52.5 18t37.5 46l53 -36q-26 -47 -58 -73t-77 -26z" />
    <glyph glyph-name="uni00A0" unicode="&#xa0;" horiz-adv-x="263" 
 />
    <glyph glyph-name="exclamdown" unicode="&#xa1;" horiz-adv-x="237" 
d="M79 369l19 119h119l-19 -119h-119zM-11 -180l106 470h62l-43 -470h-125z" />
    <glyph glyph-name="cent" unicode="&#xa2;" horiz-adv-x="600" 
d="M214 -115l19 121q-75 18 -110.5 72.5t-35.5 131.5q0 64 23 124t72.5 102t127.5 53l19 119h82l-19 -116q41 -4 76.5 -19t57.5 -37l-33 -71q-49 48 -129 48q-63 0 -101.5 -30t-55.5 -77t-17 -95q0 -60 31.5 -97.5t105.5 -37.5q32 0 64.5 11.5t61.5 35.5l26 -73
q-29 -27 -76.5 -41t-88.5 -13l-18 -111h-82z" />
    <glyph glyph-name="sterling" unicode="&#xa3;" horiz-adv-x="600" 
d="M8 0l13 86h91l37 231h-92l12 73h92l18 114q17 104 76 157t169 53q61 0 115.5 -22t87.5 -56l-45 -74q-32 35 -70 51t-85 16q-126 0 -145 -121l-18 -118h174l-12 -73h-174l-37 -231h317l-13 -86h-511z" />
    <glyph glyph-name="currency" unicode="&#xa4;" horiz-adv-x="600" 
d="M81 -28l-47 48l74 75q-23 31 -36 69.5t-13 80.5t12.5 80.5t36.5 70.5l-74 75l47 47l74 -76q30 24 67.5 37.5t78.5 13.5q40 0 77 -13t67 -36l73 75l48 -49l-73 -75q48 -66 48 -150q0 -42 -12.5 -80.5t-36.5 -70.5l74 -74l-47 -47l-73 75q-30 -24 -67 -37.5t-78 -13.5
q-42 0 -79.5 13.5t-67.5 36.5zM300 81q43 0 77.5 22t55.5 59.5t21 82.5q0 46 -21 83t-55.5 59.5t-77.5 21.5q-42 0 -77 -22t-56 -59t-21 -83q0 -45 20.5 -82.5t55.5 -59.5t78 -22z" />
    <glyph glyph-name="yen" unicode="&#xa5;" horiz-adv-x="600" 
d="M209 0l27 168h-178l11 73h179l13 81h-179l12 73h140l-171 310h108l152 -284l241 284h119l-267 -310h138l-12 -73h-178l-13 -81h178l-12 -73h-178l-26 -168h-104z" />
    <glyph glyph-name="brokenbar" unicode="&#xa6;" horiz-adv-x="276" 
d="M108 372l53 333h101l-53 -333h-101zM21 -180l53 334h101l-53 -334h-101z" />
    <glyph glyph-name="section" unicode="&#xa7;" horiz-adv-x="556" 
d="M212 -189q-130 0 -215 66l37 67q32 -28 78 -44t97 -16q60 0 95.5 31.5t35.5 78.5q0 35 -16 56t-53 44l-107 61q-112 67 -112 157q0 92 84 149q-12 28 -12 62q0 59 31 102t82.5 66t113.5 23q56 0 106.5 -15.5t89.5 -48.5l-32 -67q-30 27 -74.5 42.5t-87.5 15.5
q-60 0 -95.5 -31.5t-35.5 -79.5q0 -35 16 -57t54 -44l104 -60q114 -67 114 -157q0 -44 -21.5 -82t-62.5 -66q12 -27 12 -61q0 -60 -31 -103t-82 -66t-113 -23zM143 329q0 -31 20.5 -56t59.5 -49l95 -54q22 -14 38.5 -27t27.5 -27q18 19 27 40t9 40q0 31 -21.5 55.5
t-61.5 49.5l-92 52q-22 14 -39 27.5t-29 28.5q-18 -19 -26 -40t-8 -40z" />
    <glyph glyph-name="dieresis" unicode="&#xa8;" horiz-adv-x="500" 
d="M349 604l14 99h100l-16 -99h-98zM168 604l15 99h99l-15 -99h-99z" />
    <glyph glyph-name="copyright" unicode="&#xa9;" horiz-adv-x="815" 
d="M425 -9q-77 0 -143 27.5t-115.5 76.5t-76.5 115t-27 143t27 142.5t76.5 115t115.5 76.5t143 27t142.5 -27t115 -76.5t76.5 -115t27 -142.5t-27 -143t-76.5 -115t-115 -76.5t-142.5 -27.5zM425 39q67 0 123.5 23.5t98.5 66.5t65.5 100t23.5 124q0 89 -40.5 160t-111 112
t-159.5 41q-67 0 -123.5 -23.5t-99 -66t-66 -99.5t-23.5 -124t23.5 -124t66 -100t99 -66.5t123.5 -23.5zM440 137q-98 0 -155 59.5t-57 158.5t57 156t155 57q40 0 79 -13.5t65 -37.5l-28 -62q-24 22 -53 32.5t-57 10.5q-61 0 -95.5 -37.5t-34.5 -106.5q0 -68 34.5 -107
t95.5 -39q28 0 57 10.5t53 32.5l28 -63q-26 -23 -65.5 -37t-78.5 -14z" />
    <glyph glyph-name="ordfeminine" unicode="&#xaa;" horiz-adv-x="332" 
d="M167 409q-43 0 -72 27t-29 64q0 88 173 88h47l2 13q5 31 -12.5 46t-51.5 15q-27 0 -52 -6.5t-50 -22.5l-18 48q22 16 56.5 24.5t71.5 8.5q65 0 97 -36t23 -94l-27 -169h-64l9 55h-3q-36 -61 -100 -61zM186 458q31 0 58.5 21t32.5 53l2 16h-35q-59 0 -84.5 -10.5
t-25.5 -33.5q0 -21 14.5 -33.5t37.5 -12.5z" />
    <glyph glyph-name="guillemotleft" unicode="&#xab;" horiz-adv-x="465" 
d="M127 81l-69 160l7 50l125 160l68 -32l-109 -157l50 -153zM320 81l-69 160l7 50l125 160l68 -32l-109 -157l50 -153z" />
    <glyph glyph-name="logicalnot" unicode="&#xac;" horiz-adv-x="600" 
d="M452 145l33 207h-412l12 73h487l-44 -280h-76z" />
    <glyph glyph-name="uni00AD" unicode="&#xad;" horiz-adv-x="429" 
d="M68 226l13 81h288l-13 -81h-288z" />
    <glyph glyph-name="registered" unicode="&#xae;" horiz-adv-x="815" 
d="M425 -9q-77 0 -143 27.5t-115.5 76.5t-76.5 115t-27 143t27 142.5t76.5 115t115.5 76.5t143 27t142.5 -27t115 -76.5t76.5 -115t27 -142.5t-27 -143t-76.5 -115t-115 -76.5t-142.5 -27.5zM425 39q67 0 123.5 23.5t98.5 66.5t65.5 100t23.5 124q0 89 -40.5 160t-111 112
t-159.5 41q-67 0 -123.5 -23.5t-99 -66t-66 -99.5t-23.5 -124t23.5 -124t66 -100t99 -66.5t123.5 -23.5zM276 142v422h177q69 0 106 -33.5t37 -89.5q0 -46 -23.5 -74.5t-66.5 -38.5q18 -6 30.5 -21.5t20.5 -42.5l44 -122h-82l-44 128q-9 23 -25.5 31t-40.5 8h-53v-167h-80z
M355 371h87q77 0 77 66t-77 66h-87v-132z" />
    <glyph glyph-name="macron" unicode="&#xaf;" horiz-adv-x="500" 
d="M158 621l10 64h305l-10 -64h-305z" />
    <glyph glyph-name="degree" unicode="&#xb0;" horiz-adv-x="375" 
d="M238 409q-44 0 -78.5 20t-54.5 54t-20 76q0 43 20 77t54.5 54t78.5 20q43 0 77 -19.5t54.5 -54t20.5 -77.5t-20 -77t-54.5 -53.5t-77.5 -19.5zM238 471q37 0 61 25t24 63q0 39 -24 64t-61 25q-38 0 -61.5 -25t-23.5 -64q0 -38 23.5 -63t61.5 -25z" />
    <glyph glyph-name="plusminus" unicode="&#xb1;" horiz-adv-x="600" 
d="M245 133l25 161h-205l11 74h207l25 162h76l-25 -162h205l-11 -74h-207l-25 -161h-76zM18 0l11 74h488l-11 -74h-488z" />
    <glyph glyph-name="uni00B2" unicode="&#xb2;" horiz-adv-x="380" 
d="M57 282l10 61l158 141q30 27 48.5 53t18.5 54q0 22 -16 35t-45 13t-56.5 -11t-52.5 -31l-22 63q66 49 151 49q62 0 96.5 -31.5t33.5 -76.5q-1 -46 -28.5 -83t-75.5 -77l-100 -89h182l-11 -70h-291z" />
    <glyph glyph-name="uni00B3" unicode="&#xb3;" horiz-adv-x="380" 
d="M202 278q-44 0 -86 12t-70 40l32 58q28 -25 57 -33t66 -8q33 0 55.5 16t22.5 48q2 49 -67 49h-81l11 71h76q35 0 58.5 15t24.5 46q0 23 -17 35t-48 12q-30 0 -59 -9.5t-55 -30.5l-22 61q32 24 71 36.5t78 12.5q62 0 98 -29t36 -73q0 -39 -25 -68t-65 -41
q33 -11 50.5 -35.5t17.5 -56.5q0 -38 -21.5 -66.5t-57.5 -45t-80 -16.5z" />
    <glyph glyph-name="acute" unicode="&#xb4;" horiz-adv-x="500" 
d="M264 553l133 202h105l-168 -202h-70z" />
    <glyph glyph-name="uni00B5" unicode="&#xb5;" horiz-adv-x="600" 
d="M18 -180l107 668h101l-47 -293q-20 -123 80 -123q63 0 102 41.5t51 111.5l41 263h101l-77 -488h-99l14 86q-21 -46 -57.5 -70.5t-83.5 -24.5q-75 0 -104 52l-28 -223h-101z" />
    <glyph glyph-name="paragraph" unicode="&#xb6;" horiz-adv-x="604" 
d="M178 -180l76 477q-55 0 -94 23.5t-60.5 63.5t-21.5 90q0 69 29.5 121t82 81t121.5 29h284l-140 -885h-77l128 811h-122l-129 -811h-77z" />
    <glyph glyph-name="periodcentered" unicode="&#xb7;" horiz-adv-x="237" 
d="M53 207l19 119h120l-19 -119h-120z" />
    <glyph glyph-name="cedilla" unicode="&#xb8;" horiz-adv-x="500" 
d="M190 -194q-27 0 -52 5.5t-41 15.5l20 49q17 -8 33.5 -12t38.5 -4q28 0 44 9t16 26q0 24 -35 24q-10 0 -20 -1.5t-25 -5.5l-16 16l29 92h58l-20 -60h14q36 0 57.5 -16.5t21.5 -47.5q0 -41 -35 -65.5t-88 -24.5z" />
    <glyph glyph-name="uni00B9" unicode="&#xb9;" horiz-adv-x="380" 
d="M83 282l11 70h98l40 253l-81 -44l-30 65l147 79h62l-56 -353h79l-11 -70h-259z" />
    <glyph glyph-name="ordmasculine" unicode="&#xba;" horiz-adv-x="345" 
d="M217 411q-63 0 -104 38t-41 102q0 51 21 87.5t56.5 56t79.5 19.5q63 0 103.5 -38t40.5 -102q0 -50 -21 -87t-56.5 -56.5t-78.5 -19.5zM218 464q38 0 62 28t24 83q0 42 -21 64t-55 22q-38 0 -62 -28t-24 -83q0 -41 21 -63.5t55 -22.5z" />
    <glyph glyph-name="guillemotright" unicode="&#xbb;" horiz-adv-x="465" 
d="M88 81l-68 32l110 158l-50 152l72 28l69 -160l-8 -50zM281 81l-68 32l110 158l-50 152l72 28l69 -160l-8 -50z" />
    <glyph glyph-name="onequarter" unicode="&#xbc;" horiz-adv-x="901" 
d="M83 282l11 70h98l40 253l-81 -44l-30 65l147 79h62l-56 -353h79l-11 -70h-259zM260 -26l-60 40l528 717l60 -39zM703 0l12 78h-190l9 58l242 287h75l-43 -275h56l-11 -70h-56l-12 -78h-82zM726 148l25 153l-129 -153h104z" />
    <glyph glyph-name="onehalf" unicode="&#xbd;" horiz-adv-x="947" 
d="M83 282l11 70h98l40 253l-81 -44l-30 65l147 79h62l-56 -353h79l-11 -70h-259zM260 -26l-60 40l528 717l60 -39zM579 0l10 61l158 141q30 27 48.5 53t18.5 54q0 22 -16 35t-45 13t-56.5 -11t-52.5 -31l-22 63q66 49 151 49q62 0 96.5 -31.5t33.5 -76.5q-1 -46 -28.5 -83
t-75.5 -77l-100 -89h182l-11 -70h-291z" />
    <glyph glyph-name="threequarters" unicode="&#xbe;" horiz-adv-x="901" 
d="M202 278q-44 0 -86 12t-70 40l32 58q28 -25 57 -33t66 -8q33 0 55.5 16t22.5 48q2 49 -67 49h-81l11 71h76q35 0 58.5 15t24.5 46q0 23 -17 35t-48 12q-30 0 -59 -9.5t-55 -30.5l-22 61q32 24 71 36.5t78 12.5q62 0 98 -29t36 -73q0 -39 -25 -68t-65 -41
q33 -11 50.5 -35.5t17.5 -56.5q0 -38 -21.5 -66.5t-57.5 -45t-80 -16.5zM260 -26l-60 40l528 717l60 -39zM703 0l12 78h-190l9 58l242 287h75l-43 -275h56l-11 -70h-56l-12 -78h-82zM726 148l25 153l-129 -153h104z" />
    <glyph glyph-name="questiondown" unicode="&#xbf;" horiz-adv-x="450" 
d="M195 369l19 119h119l-18 -119h-120zM154 -189q-55 0 -95 19t-62 52t-22 73q0 55 32 97t84 78q54 39 78 70t35 68l8 24h62l-5 -31q-8 -51 -31 -89t-78 -80q-37 -30 -59 -57t-22 -62q0 -32 23 -53t67 -21q50 0 97.5 15.5t91.5 51.5l33 -78q-47 -40 -109 -58.5t-128 -18.5z
" />
    <glyph glyph-name="Agrave" unicode="&#xc0;" horiz-adv-x="736" 
d="M-28 0l427 705h86l202 -705h-100l-45 172h-358l-101 -172h-111zM429 590l-196 -334h286l-88 334h-2zM415 765l-138 173h107l105 -173h-74z" />
    <glyph glyph-name="Aacute" unicode="&#xc1;" horiz-adv-x="736" 
d="M-28 0l427 705h86l202 -705h-100l-45 172h-358l-101 -172h-111zM429 590l-196 -334h286l-88 334h-2zM415 765l131 173h111l-168 -173h-74z" />
    <glyph glyph-name="Acircumflex" unicode="&#xc2;" horiz-adv-x="736" 
d="M-28 0l427 705h86l202 -705h-100l-45 172h-358l-101 -172h-111zM429 590l-196 -334h286l-88 334h-2zM277 765l140 173h90l107 -173h-74l-82 112l-109 -112h-72z" />
    <glyph glyph-name="Atilde" unicode="&#xc3;" horiz-adv-x="736" 
d="M-28 0l427 705h86l202 -705h-100l-45 172h-358l-101 -172h-111zM429 590l-196 -334h286l-88 334h-2zM288 778l-53 3q12 68 46.5 104t86.5 36q29 0 54.5 -12.5t49.5 -26.5q20 -13 38.5 -22.5t36.5 -9.5q57 0 76 75l53 -4q-11 -67 -46 -103.5t-86 -36.5q-30 0 -55 13
t-49 27q-20 12 -38.5 22t-36.5 10q-58 0 -77 -75z" />
    <glyph glyph-name="Adieresis" unicode="&#xc4;" horiz-adv-x="736" 
d="M-28 0l427 705h86l202 -705h-100l-45 172h-358l-101 -172h-111zM429 590l-196 -334h286l-88 334h-2zM497 799l17 99h98l-15 -99h-100zM317 799l16 99h99l-16 -99h-99z" />
    <glyph glyph-name="Aring" unicode="&#xc5;" horiz-adv-x="736" 
d="M-28 0l427 705h86l202 -705h-100l-45 172h-358l-101 -172h-111zM429 590l-196 -334h286l-88 334h-2zM466 756q-51 0 -86.5 35t-35.5 85t35.5 84t86.5 34q52 0 87 -34t35 -84t-35 -85t-87 -35zM466 806q30 0 49.5 20t19.5 50q0 29 -19.5 48.5t-49.5 19.5t-49.5 -19.5
t-19.5 -48.5q0 -30 19.5 -50t49.5 -20z" />
    <glyph glyph-name="AE" unicode="&#xc6;" horiz-adv-x="987" 
d="M-64 0l545 705h528l-14 -84h-413l13 -221h344l-13 -84h-327l12 -232h300l-14 -84h-372l-9 172h-336l-130 -172h-114zM491 587l-249 -331h270l-19 331h-2z" />
    <glyph glyph-name="Ccedilla" unicode="&#xc7;" horiz-adv-x="676" 
d="M386 -9q-91 0 -161.5 34.5t-110.5 105t-40 178.5q0 85 25.5 159t73.5 129.5t117 86t156 30.5q73 0 134 -23.5t99 -63.5l-45 -82q-79 77 -191 77q-82 0 -140 -40.5t-88.5 -111t-30.5 -159.5q0 -121 55.5 -174.5t156.5 -53.5q52 0 97.5 17.5t93.5 56.5l33 -81
q-45 -42 -106.5 -63.5t-127.5 -21.5zM348 -194q-27 0 -52 5.5t-41 15.5l20 49q17 -8 33.5 -12t38.5 -4q28 0 44 9t16 26q0 24 -35 24q-10 0 -20 -1.5t-25 -5.5l-16 16l29 92h58l-20 -60h14q36 0 57.5 -16.5t21.5 -47.5q0 -41 -35 -65.5t-88 -24.5z" />
    <glyph glyph-name="Egrave" unicode="&#xc8;" horiz-adv-x="589" 
d="M44 0l112 705h456l-13 -84h-357l-35 -221h336l-13 -84h-336l-38 -232h357l-13 -84h-456zM373 765l-138 173h107l105 -173h-74z" />
    <glyph glyph-name="Eacute" unicode="&#xc9;" horiz-adv-x="589" 
d="M44 0l112 705h456l-13 -84h-357l-35 -221h336l-13 -84h-336l-38 -232h357l-13 -84h-456zM373 765l131 173h111l-168 -173h-74z" />
    <glyph glyph-name="Ecircumflex" unicode="&#xca;" horiz-adv-x="589" 
d="M44 0l112 705h456l-13 -84h-357l-35 -221h336l-13 -84h-336l-38 -232h357l-13 -84h-456zM235 765l140 173h90l107 -173h-74l-82 112l-109 -112h-72z" />
    <glyph glyph-name="Edieresis" unicode="&#xcb;" horiz-adv-x="589" 
d="M44 0l112 705h456l-13 -84h-357l-35 -221h336l-13 -84h-336l-38 -232h357l-13 -84h-456zM455 799l17 99h98l-15 -99h-100zM275 799l16 99h99l-16 -99h-99z" />
    <glyph glyph-name="Igrave" unicode="&#xcc;" horiz-adv-x="268" 
d="M44 0l112 705h103l-112 -705h-103zM180 765l-138 173h107l105 -173h-74z" />
    <glyph glyph-name="Iacute" unicode="&#xcd;" horiz-adv-x="268" 
d="M44 0l112 705h103l-112 -705h-103zM180 765l131 173h111l-168 -173h-74z" />
    <glyph glyph-name="Icircumflex" unicode="&#xce;" horiz-adv-x="268" 
d="M44 0l112 705h103l-112 -705h-103zM42 765l140 173h90l107 -173h-74l-82 112l-109 -112h-72z" />
    <glyph glyph-name="Idieresis" unicode="&#xcf;" horiz-adv-x="268" 
d="M44 0l112 705h103l-112 -705h-103zM262 799l17 99h98l-15 -99h-100zM82 799l16 99h99l-16 -99h-99z" />
    <glyph glyph-name="Eth" unicode="&#xd0;" horiz-adv-x="751" 
d="M44 0l112 705h215q164 0 253 -78t89 -220q0 -85 -24.5 -158.5t-74 -129.5t-125 -87.5t-177.5 -31.5h-268zM161 87h153q103 0 167 42.5t94 115t30 161.5q0 103 -58.5 157.5t-175.5 54.5h-126zM8 319l12 77h384l-13 -77h-383z" />
    <glyph glyph-name="Ntilde" unicode="&#xd1;" horiz-adv-x="743" 
d="M44 0l112 705h78l317 -544l86 544h96l-112 -705h-77l-318 544l-86 -544h-96zM290 778l-53 3q12 68 46.5 104t86.5 36q29 0 54.5 -12.5t49.5 -26.5q20 -13 38.5 -22.5t36.5 -9.5q57 0 76 75l53 -4q-11 -67 -46 -103.5t-86 -36.5q-30 0 -55 13t-49 27q-20 12 -38.5 22
t-36.5 10q-58 0 -77 -75z" />
    <glyph glyph-name="Ograve" unicode="&#xd2;" horiz-adv-x="775" 
d="M374 -9q-91 0 -158.5 35.5t-105 103.5t-37.5 166q0 120 43 214.5t124.5 149t195.5 54.5q92 0 159.5 -35.5t104.5 -103.5t37 -165q0 -121 -43 -215.5t-124.5 -149t-195.5 -54.5zM376 81q81 0 137.5 42.5t85.5 116.5t29 168q0 110 -52 163t-143 53q-81 0 -137 -42t-85 -116
t-29 -168q0 -110 51.5 -163.5t142.5 -53.5zM422 765l-138 173h107l105 -173h-74z" />
    <glyph glyph-name="Oacute" unicode="&#xd3;" horiz-adv-x="775" 
d="M374 -9q-91 0 -158.5 35.5t-105 103.5t-37.5 166q0 120 43 214.5t124.5 149t195.5 54.5q92 0 159.5 -35.5t104.5 -103.5t37 -165q0 -121 -43 -215.5t-124.5 -149t-195.5 -54.5zM376 81q81 0 137.5 42.5t85.5 116.5t29 168q0 110 -52 163t-143 53q-81 0 -137 -42t-85 -116
t-29 -168q0 -110 51.5 -163.5t142.5 -53.5zM422 765l131 173h111l-168 -173h-74z" />
    <glyph glyph-name="Ocircumflex" unicode="&#xd4;" horiz-adv-x="775" 
d="M374 -9q-91 0 -158.5 35.5t-105 103.5t-37.5 166q0 120 43 214.5t124.5 149t195.5 54.5q92 0 159.5 -35.5t104.5 -103.5t37 -165q0 -121 -43 -215.5t-124.5 -149t-195.5 -54.5zM376 81q81 0 137.5 42.5t85.5 116.5t29 168q0 110 -52 163t-143 53q-81 0 -137 -42t-85 -116
t-29 -168q0 -110 51.5 -163.5t142.5 -53.5zM284 765l140 173h90l107 -173h-74l-82 112l-109 -112h-72z" />
    <glyph glyph-name="Otilde" unicode="&#xd5;" horiz-adv-x="775" 
d="M374 -9q-91 0 -158.5 35.5t-105 103.5t-37.5 166q0 120 43 214.5t124.5 149t195.5 54.5q92 0 159.5 -35.5t104.5 -103.5t37 -165q0 -121 -43 -215.5t-124.5 -149t-195.5 -54.5zM376 81q81 0 137.5 42.5t85.5 116.5t29 168q0 110 -52 163t-143 53q-81 0 -137 -42t-85 -116
t-29 -168q0 -110 51.5 -163.5t142.5 -53.5zM295 778l-53 3q12 68 46.5 104t86.5 36q29 0 54.5 -12.5t49.5 -26.5q20 -13 38.5 -22.5t36.5 -9.5q57 0 76 75l53 -4q-11 -67 -46 -103.5t-86 -36.5q-30 0 -55 13t-49 27q-20 12 -38.5 22t-36.5 10q-58 0 -77 -75z" />
    <glyph glyph-name="Odieresis" unicode="&#xd6;" horiz-adv-x="775" 
d="M374 -9q-91 0 -158.5 35.5t-105 103.5t-37.5 166q0 120 43 214.5t124.5 149t195.5 54.5q92 0 159.5 -35.5t104.5 -103.5t37 -165q0 -121 -43 -215.5t-124.5 -149t-195.5 -54.5zM376 81q81 0 137.5 42.5t85.5 116.5t29 168q0 110 -52 163t-143 53q-81 0 -137 -42t-85 -116
t-29 -168q0 -110 51.5 -163.5t142.5 -53.5zM504 799l17 99h98l-15 -99h-100zM324 799l16 99h99l-16 -99h-99z" />
    <glyph glyph-name="multiply" unicode="&#xd7;" horiz-adv-x="600" 
d="M108 50l-52 53l199 184l-165 180l54 52l166 -181l198 181l50 -52l-199 -183l165 -181l-53 -53l-166 182z" />
    <glyph glyph-name="Oslash" unicode="&#xd8;" horiz-adv-x="775" 
d="M374 -9q-91 0 -158.5 35.5t-105 103.5t-37.5 166q0 120 43 214.5t124.5 149t195.5 54.5q92 0 159.5 -35.5t104.5 -103.5t37 -165q0 -121 -43 -215.5t-124.5 -149t-195.5 -54.5zM376 81q81 0 137.5 42.5t85.5 116.5t29 168q0 110 -52 163t-143 53q-81 0 -137 -42t-85 -116
t-29 -168q0 -110 51.5 -163.5t142.5 -53.5zM155 -45l-59 43l75 100l32 44l344 464l33 45l75 99l59 -42l-75 -101l-32 -44l-344 -464l-33 -44z" />
    <glyph glyph-name="Ugrave" unicode="&#xd9;" horiz-adv-x="732" 
d="M339 -9q-90 0 -152.5 34t-89.5 103t-10 174l63 403h104l-65 -412q-34 -212 156 -212q91 0 143 46t68 148l68 430h103l-68 -431q-22 -140 -99 -211.5t-221 -71.5zM412 765l-138 173h107l105 -173h-74z" />
    <glyph glyph-name="Uacute" unicode="&#xda;" horiz-adv-x="732" 
d="M339 -9q-90 0 -152.5 34t-89.5 103t-10 174l63 403h104l-65 -412q-34 -212 156 -212q91 0 143 46t68 148l68 430h103l-68 -431q-22 -140 -99 -211.5t-221 -71.5zM412 765l131 173h111l-168 -173h-74z" />
    <glyph glyph-name="Ucircumflex" unicode="&#xdb;" horiz-adv-x="732" 
d="M339 -9q-90 0 -152.5 34t-89.5 103t-10 174l63 403h104l-65 -412q-34 -212 156 -212q91 0 143 46t68 148l68 430h103l-68 -431q-22 -140 -99 -211.5t-221 -71.5zM274 765l140 173h90l107 -173h-74l-82 112l-109 -112h-72z" />
    <glyph glyph-name="Udieresis" unicode="&#xdc;" horiz-adv-x="732" 
d="M339 -9q-90 0 -152.5 34t-89.5 103t-10 174l63 403h104l-65 -412q-34 -212 156 -212q91 0 143 46t68 148l68 430h103l-68 -431q-22 -140 -99 -211.5t-221 -71.5zM494 799l17 99h98l-15 -99h-100zM314 799l16 99h99l-16 -99h-99z" />
    <glyph glyph-name="Yacute" unicode="&#xdd;" horiz-adv-x="606" 
d="M212 0l53 328l-211 377h113l158 -285l248 285h124l-329 -375l-53 -330h-103zM340 765l131 173h111l-168 -173h-74z" />
    <glyph glyph-name="Thorn" unicode="&#xde;" horiz-adv-x="643" 
d="M44 0l112 705h103l-20 -123h162q112 0 171.5 -49t59.5 -143q0 -111 -69 -175t-200 -64h-192l-24 -151h-103zM184 234h184q80 0 122 38t42 110q0 61 -36 89t-106 28h-164z" />
    <glyph glyph-name="germandbls" unicode="&#xdf;" horiz-adv-x="632" 
d="M393 -9q-59 0 -110 17.5t-83 45.5l37 67q70 -53 156 -53q49 0 75.5 18t26.5 53q0 23 -19 42t-72 37q-65 22 -92.5 51.5t-27.5 71.5q0 41 21.5 71t74.5 71q29 23 46 43.5t17 51.5q0 24 -18.5 42t-55.5 18q-134 0 -158 -152l-77 -486h-101l75 474q17 115 80 177.5t184 62.5
q78 0 122.5 -37t44.5 -88q0 -47 -23.5 -78.5t-64.5 -64.5q-37 -30 -54.5 -48.5t-17.5 -43.5q0 -22 20 -38.5t67 -32.5q59 -21 91 -52t32 -84q0 -75 -55 -115.5t-141 -40.5z" />
    <glyph glyph-name="agrave" unicode="&#xe0;" horiz-adv-x="537" 
d="M196 -9q-43 0 -80 19.5t-59 53t-22 75.5q0 77 66 112t209 35h69l4 24q9 53 -15 81t-83 28q-89 0 -167 -51l-25 72q37 26 92.5 41.5t111.5 15.5q109 0 151.5 -59.5t27.5 -153.5l-45 -284h-95l11 75q-25 -44 -65.5 -64t-85.5 -20zM225 63q51 0 90.5 33.5t48.5 93.5l5 34
h-50q-104 0 -144 -17t-40 -62q0 -40 26.5 -61t63.5 -21zM281 553l-140 202h101l109 -202h-70z" />
    <glyph glyph-name="aacute" unicode="&#xe1;" horiz-adv-x="537" 
d="M196 -9q-43 0 -80 19.5t-59 53t-22 75.5q0 77 66 112t209 35h69l4 24q9 53 -15 81t-83 28q-89 0 -167 -51l-25 72q37 26 92.5 41.5t111.5 15.5q109 0 151.5 -59.5t27.5 -153.5l-45 -284h-95l11 75q-25 -44 -65.5 -64t-85.5 -20zM225 63q51 0 90.5 33.5t48.5 93.5l5 34
h-50q-104 0 -144 -17t-40 -62q0 -40 26.5 -61t63.5 -21zM283 553l133 202h105l-168 -202h-70z" />
    <glyph glyph-name="acircumflex" unicode="&#xe2;" horiz-adv-x="537" 
d="M196 -9q-43 0 -80 19.5t-59 53t-22 75.5q0 77 66 112t209 35h69l4 24q9 53 -15 81t-83 28q-89 0 -167 -51l-25 72q37 26 92.5 41.5t111.5 15.5q109 0 151.5 -59.5t27.5 -153.5l-45 -284h-95l11 75q-25 -44 -65.5 -64t-85.5 -20zM225 63q51 0 90.5 33.5t48.5 93.5l5 34
h-50q-104 0 -144 -17t-40 -62q0 -40 26.5 -61t63.5 -21zM159 553l131 202h91l89 -202h-66l-73 140l-105 -140h-67z" />
    <glyph glyph-name="atilde" unicode="&#xe3;" horiz-adv-x="537" 
d="M196 -9q-43 0 -80 19.5t-59 53t-22 75.5q0 77 66 112t209 35h69l4 24q9 53 -15 81t-83 28q-89 0 -167 -51l-25 72q37 26 92.5 41.5t111.5 15.5q109 0 151.5 -59.5t27.5 -153.5l-45 -284h-95l11 75q-25 -44 -65.5 -64t-85.5 -20zM225 63q51 0 90.5 33.5t48.5 93.5l5 34
h-50q-104 0 -144 -17t-40 -62q0 -40 26.5 -61t63.5 -21zM190 587l-53 4q9 67 41.5 103.5t79.5 36.5q28 0 47 -14t36 -29q13 -11 26 -20t29 -9q51 0 68 75l54 -3q-10 -68 -42 -104t-79 -36q-28 0 -47.5 13.5t-35.5 28.5q-14 11 -27 20t-29 9q-51 0 -68 -75z" />
    <glyph glyph-name="adieresis" unicode="&#xe4;" horiz-adv-x="537" 
d="M196 -9q-43 0 -80 19.5t-59 53t-22 75.5q0 77 66 112t209 35h69l4 24q9 53 -15 81t-83 28q-89 0 -167 -51l-25 72q37 26 92.5 41.5t111.5 15.5q109 0 151.5 -59.5t27.5 -153.5l-45 -284h-95l11 75q-25 -44 -65.5 -64t-85.5 -20zM225 63q51 0 90.5 33.5t48.5 93.5l5 34
h-50q-104 0 -144 -17t-40 -62q0 -40 26.5 -61t63.5 -21zM368 604l14 99h100l-16 -99h-98zM187 604l15 99h99l-15 -99h-99z" />
    <glyph glyph-name="aring" unicode="&#xe5;" horiz-adv-x="537" 
d="M196 -9q-43 0 -80 19.5t-59 53t-22 75.5q0 77 66 112t209 35h69l4 24q9 53 -15 81t-83 28q-89 0 -167 -51l-25 72q37 26 92.5 41.5t111.5 15.5q109 0 151.5 -59.5t27.5 -153.5l-45 -284h-95l11 75q-25 -44 -65.5 -64t-85.5 -20zM225 63q51 0 90.5 33.5t48.5 93.5l5 34
h-50q-104 0 -144 -17t-40 -62q0 -40 26.5 -61t63.5 -21zM336 546q-51 0 -86.5 34.5t-35.5 84.5t35.5 84.5t86.5 34.5q52 0 87 -34.5t35 -84.5t-35 -84.5t-87 -34.5zM336 596q30 0 49.5 20t19.5 49q0 30 -19.5 49.5t-49.5 19.5t-49 -19.5t-19 -49.5q0 -29 19 -49t49 -20z" />
    <glyph glyph-name="ae" unicode="&#xe6;" horiz-adv-x="863" 
d="M212 -9q-46 0 -86.5 17t-65.5 50t-25 81q0 77 66 111.5t209 34.5h70l3 19q18 113 -98 113q-91 0 -166 -50l-26 73q37 26 92.5 41.5t111.5 15.5q118 0 154 -83q33 39 79 61t103 22q77 0 123 -35t63 -91.5t7 -121.5l-4 -26h-357q-5 -71 32.5 -112.5t111.5 -41.5q46 0 85 13
t71 41l28 -68q-34 -31 -85.5 -47.5t-106.5 -16.5q-73 0 -124.5 29t-75.5 82q-28 -57 -78.5 -84t-110.5 -27zM631 426q-46 0 -78 -20.5t-51 -52.5t-27 -68h271q4 59 -22.5 100t-92.5 41zM225 64q51 0 90 30.5t49 89.5l6 39h-51q-103 0 -143.5 -17t-40.5 -61q0 -39 26.5 -60
t63.5 -21z" />
    <glyph glyph-name="ccedilla" unicode="&#xe7;" horiz-adv-x="467" 
d="M264 -9q-113 0 -168 60.5t-55 158.5q0 54 16 105t49 92t83.5 65.5t119.5 24.5q49 0 93 -15.5t71 -41.5l-33 -71q-49 48 -126 48q-61 0 -98 -30.5t-54 -78t-17 -97.5q0 -64 30.5 -102t101.5 -38q29 0 62 11.5t61 35.5l26 -73q-29 -26 -74.5 -40t-87.5 -14zM221 -194
q-27 0 -52 5.5t-41 15.5l20 49q17 -8 33.5 -12t38.5 -4q28 0 44 9t16 26q0 24 -35 24q-10 0 -20 -1.5t-25 -5.5l-16 16l29 92h58l-20 -60h14q36 0 57.5 -16.5t21.5 -47.5q0 -41 -35 -65.5t-88 -24.5z" />
    <glyph glyph-name="egrave" unicode="&#xe8;" horiz-adv-x="537" 
d="M275 -9q-108 0 -171 58.5t-63 159.5q0 80 33 145.5t92.5 104t138.5 38.5q78 0 123.5 -35.5t62.5 -93t8 -123.5l-3 -24h-359q-5 -70 33.5 -111t111.5 -41q45 0 84.5 13t71.5 41l28 -68q-34 -31 -85.5 -47.5t-105.5 -16.5zM304 426q-47 0 -79.5 -20.5t-51.5 -53t-27 -69.5
h274q5 60 -22 101.5t-94 41.5zM290 553l-140 202h101l109 -202h-70z" />
    <glyph glyph-name="eacute" unicode="&#xe9;" horiz-adv-x="537" 
d="M275 -9q-108 0 -171 58.5t-63 159.5q0 80 33 145.5t92.5 104t138.5 38.5q78 0 123.5 -35.5t62.5 -93t8 -123.5l-3 -24h-359q-5 -70 33.5 -111t111.5 -41q45 0 84.5 13t71.5 41l28 -68q-34 -31 -85.5 -47.5t-105.5 -16.5zM304 426q-47 0 -79.5 -20.5t-51.5 -53t-27 -69.5
h274q5 60 -22 101.5t-94 41.5zM292 553l133 202h105l-168 -202h-70z" />
    <glyph glyph-name="ecircumflex" unicode="&#xea;" horiz-adv-x="537" 
d="M275 -9q-108 0 -171 58.5t-63 159.5q0 80 33 145.5t92.5 104t138.5 38.5q78 0 123.5 -35.5t62.5 -93t8 -123.5l-3 -24h-359q-5 -70 33.5 -111t111.5 -41q45 0 84.5 13t71.5 41l28 -68q-34 -31 -85.5 -47.5t-105.5 -16.5zM304 426q-47 0 -79.5 -20.5t-51.5 -53t-27 -69.5
h274q5 60 -22 101.5t-94 41.5zM168 553l131 202h91l89 -202h-66l-73 140l-105 -140h-67z" />
    <glyph glyph-name="edieresis" unicode="&#xeb;" horiz-adv-x="537" 
d="M275 -9q-108 0 -171 58.5t-63 159.5q0 80 33 145.5t92.5 104t138.5 38.5q78 0 123.5 -35.5t62.5 -93t8 -123.5l-3 -24h-359q-5 -70 33.5 -111t111.5 -41q45 0 84.5 13t71.5 41l28 -68q-34 -31 -85.5 -47.5t-105.5 -16.5zM304 426q-47 0 -79.5 -20.5t-51.5 -53t-27 -69.5
h274q5 60 -22 101.5t-94 41.5zM377 604l14 99h100l-16 -99h-98zM196 604l15 99h99l-15 -99h-99z" />
    <glyph glyph-name="igrave" unicode="&#xec;" horiz-adv-x="243" 
d="M32 0l77 488h101l-77 -488h-101zM134 553l-140 202h101l109 -202h-70z" />
    <glyph glyph-name="iacute" unicode="&#xed;" horiz-adv-x="243" 
d="M32 0l77 488h101l-77 -488h-101zM136 553l133 202h105l-168 -202h-70z" />
    <glyph glyph-name="icircumflex" unicode="&#xee;" horiz-adv-x="243" 
d="M32 0l77 488h101l-77 -488h-101zM12 553l131 202h91l89 -202h-66l-73 140l-105 -140h-67z" />
    <glyph glyph-name="idieresis" unicode="&#xef;" horiz-adv-x="243" 
d="M32 0l77 488h101l-77 -488h-101zM221 604l14 99h100l-16 -99h-98zM40 604l15 99h99l-15 -99h-99z" />
    <glyph glyph-name="eth" unicode="&#xf0;" horiz-adv-x="569" 
d="M257 -9q-63 0 -112.5 24.5t-78 69.5t-28.5 105q0 77 33 136t89.5 92t127.5 33q50 0 90.5 -18t63.5 -57q-14 129 -106 205l-154 -67l-23 51l122 52q-42 22 -90 32l24 65q87 -20 150 -60l136 60l23 -51l-108 -47q62 -57 90 -134t28 -166q-1 -66 -17.5 -124.5t-50.5 -104
t-86 -71t-123 -25.5zM265 71q66 0 111 47t45 132q0 58 -33.5 90.5t-91.5 32.5q-66 0 -111 -47t-45 -133q0 -58 33.5 -90t91.5 -32z" />
    <glyph glyph-name="ntilde" unicode="&#xf1;" horiz-adv-x="576" 
d="M32 0l78 488h98l-13 -82q27 44 71 67.5t102 23.5q80 0 121.5 -49.5t25.5 -153.5l-46 -294h-101l46 292q20 124 -82 124q-67 0 -106.5 -41.5t-50.5 -111.5l-42 -263h-101zM208 587l-53 4q9 67 41.5 103.5t79.5 36.5q28 0 47 -14t36 -29q13 -11 26 -20t29 -9q51 0 68 75
l54 -3q-10 -68 -42 -104t-79 -36q-28 0 -47.5 13.5t-35.5 28.5q-14 11 -27 20t-29 9q-51 0 -68 -75z" />
    <glyph glyph-name="ograve" unicode="&#xf2;" horiz-adv-x="565" 
d="M261 -9q-103 0 -161.5 58.5t-58.5 158.5q0 85 34 150t93.5 102t135.5 37q103 0 161.5 -58.5t58.5 -158.5q0 -85 -34 -150.5t-93.5 -102t-135.5 -36.5zM263 69q51 0 86.5 29t54 77.5t18.5 107.5q0 66 -32 100.5t-88 34.5q-51 0 -86.5 -28.5t-54 -77t-18.5 -108.5
q0 -66 32 -100.5t88 -34.5zM297 553l-140 202h101l109 -202h-70z" />
    <glyph glyph-name="oacute" unicode="&#xf3;" horiz-adv-x="565" 
d="M261 -9q-103 0 -161.5 58.5t-58.5 158.5q0 85 34 150t93.5 102t135.5 37q103 0 161.5 -58.5t58.5 -158.5q0 -85 -34 -150.5t-93.5 -102t-135.5 -36.5zM263 69q51 0 86.5 29t54 77.5t18.5 107.5q0 66 -32 100.5t-88 34.5q-51 0 -86.5 -28.5t-54 -77t-18.5 -108.5
q0 -66 32 -100.5t88 -34.5zM299 553l133 202h105l-168 -202h-70z" />
    <glyph glyph-name="ocircumflex" unicode="&#xf4;" horiz-adv-x="565" 
d="M261 -9q-103 0 -161.5 58.5t-58.5 158.5q0 85 34 150t93.5 102t135.5 37q103 0 161.5 -58.5t58.5 -158.5q0 -85 -34 -150.5t-93.5 -102t-135.5 -36.5zM263 69q51 0 86.5 29t54 77.5t18.5 107.5q0 66 -32 100.5t-88 34.5q-51 0 -86.5 -28.5t-54 -77t-18.5 -108.5
q0 -66 32 -100.5t88 -34.5zM175 553l131 202h91l89 -202h-66l-73 140l-105 -140h-67z" />
    <glyph glyph-name="otilde" unicode="&#xf5;" horiz-adv-x="565" 
d="M261 -9q-103 0 -161.5 58.5t-58.5 158.5q0 85 34 150t93.5 102t135.5 37q103 0 161.5 -58.5t58.5 -158.5q0 -85 -34 -150.5t-93.5 -102t-135.5 -36.5zM263 69q51 0 86.5 29t54 77.5t18.5 107.5q0 66 -32 100.5t-88 34.5q-51 0 -86.5 -28.5t-54 -77t-18.5 -108.5
q0 -66 32 -100.5t88 -34.5zM206 587l-53 4q9 67 41.5 103.5t79.5 36.5q28 0 47 -14t36 -29q13 -11 26 -20t29 -9q51 0 68 75l54 -3q-10 -68 -42 -104t-79 -36q-28 0 -47.5 13.5t-35.5 28.5q-14 11 -27 20t-29 9q-51 0 -68 -75z" />
    <glyph glyph-name="odieresis" unicode="&#xf6;" horiz-adv-x="565" 
d="M261 -9q-103 0 -161.5 58.5t-58.5 158.5q0 85 34 150t93.5 102t135.5 37q103 0 161.5 -58.5t58.5 -158.5q0 -85 -34 -150.5t-93.5 -102t-135.5 -36.5zM263 69q51 0 86.5 29t54 77.5t18.5 107.5q0 66 -32 100.5t-88 34.5q-51 0 -86.5 -28.5t-54 -77t-18.5 -108.5
q0 -66 32 -100.5t88 -34.5zM384 604l14 99h100l-16 -99h-98zM203 604l15 99h99l-15 -99h-99z" />
    <glyph glyph-name="divide" unicode="&#xf7;" horiz-adv-x="600" 
d="M278 438l14 94h95l-15 -94h-94zM57 250l12 74h488l-12 -74h-488zM214 42l16 94h94l-15 -94h-95z" />
    <glyph glyph-name="oslash" unicode="&#xf8;" horiz-adv-x="565" 
d="M109 -45l-48 35l41 57q-61 58 -61 162q0 84 34 149t93.5 102t135.5 37q64 0 112 -24l42 58l48 -34l-42 -57q60 -59 60 -160q0 -85 -34 -150.5t-93.5 -102t-135.5 -36.5q-62 0 -110 22zM135 204q0 -53 20 -86l213 290q-28 15 -68 15q-53 0 -90 -28.5t-56 -78.5t-19 -112z
M265 64q52 0 89 29t56.5 79t19.5 113q0 49 -19 82l-212 -289q27 -14 66 -14z" />
    <glyph glyph-name="ugrave" unicode="&#xf9;" horiz-adv-x="569" 
d="M205 -9q-78 0 -119.5 49.5t-24.5 154.5l46 293h101l-46 -293q-20 -123 79 -123q64 0 103 41.5t50 111.5l41 263h101l-77 -488h-98l12 80q-26 -43 -69.5 -66t-98.5 -23zM293 554l-140 202h101l109 -202h-70z" />
    <glyph glyph-name="uacute" unicode="&#xfa;" horiz-adv-x="569" 
d="M205 -9q-78 0 -119.5 49.5t-24.5 154.5l46 293h101l-46 -293q-20 -123 79 -123q64 0 103 41.5t50 111.5l41 263h101l-77 -488h-98l12 80q-26 -43 -69.5 -66t-98.5 -23zM295 554l133 202h105l-168 -202h-70z" />
    <glyph glyph-name="ucircumflex" unicode="&#xfb;" horiz-adv-x="569" 
d="M205 -9q-78 0 -119.5 49.5t-24.5 154.5l46 293h101l-46 -293q-20 -123 79 -123q64 0 103 41.5t50 111.5l41 263h101l-77 -488h-98l12 80q-26 -43 -69.5 -66t-98.5 -23zM171 554l131 202h91l89 -202h-66l-73 140l-105 -140h-67z" />
    <glyph glyph-name="udieresis" unicode="&#xfc;" horiz-adv-x="569" 
d="M205 -9q-78 0 -119.5 49.5t-24.5 154.5l46 293h101l-46 -293q-20 -123 79 -123q64 0 103 41.5t50 111.5l41 263h101l-77 -488h-98l12 80q-26 -43 -69.5 -66t-98.5 -23zM380 605l14 99h100l-16 -99h-98zM199 605l15 99h99l-15 -99h-99z" />
    <glyph glyph-name="yacute" unicode="&#xfd;" horiz-adv-x="520" 
d="M55 -180l116 193l-129 475h103l91 -371l212 371h108l-397 -668h-104zM262 553l133 202h105l-168 -202h-70z" />
    <glyph glyph-name="thorn" unicode="&#xfe;" horiz-adv-x="591" 
d="M4 -180l140 885h101l-46 -292q28 40 70 62t95 22q84 0 135 -56.5t51 -153.5q0 -81 -29 -148.5t-83.5 -107.5t-131.5 -40q-54 0 -96.5 24t-62.5 73l-42 -268h-101zM290 69q51 0 86 29t53.5 77.5t18.5 107.5q0 66 -31.5 100.5t-88.5 34.5q-51 0 -86.5 -28.5t-54 -77
t-18.5 -108.5q0 -66 32 -100.5t89 -34.5z" />
    <glyph glyph-name="ydieresis" unicode="&#xff;" horiz-adv-x="520" 
d="M55 -180l116 193l-129 475h103l91 -371l212 371h108l-397 -668h-104zM347 604l14 99h100l-16 -99h-98zM166 604l15 99h99l-15 -99h-99z" />
    <glyph glyph-name="Amacron" unicode="&#x100;" horiz-adv-x="736" 
d="M-28 0l427 705h86l202 -705h-100l-45 172h-358l-101 -172h-111zM429 590l-196 -334h286l-88 334h-2zM292 811l9 63h335l-9 -63h-335z" />
    <glyph glyph-name="amacron" unicode="&#x101;" horiz-adv-x="537" 
d="M196 -9q-43 0 -80 19.5t-59 53t-22 75.5q0 77 66 112t209 35h69l4 24q9 53 -15 81t-83 28q-89 0 -167 -51l-25 72q37 26 92.5 41.5t111.5 15.5q109 0 151.5 -59.5t27.5 -153.5l-45 -284h-95l11 75q-25 -44 -65.5 -64t-85.5 -20zM225 63q51 0 90.5 33.5t48.5 93.5l5 34
h-50q-104 0 -144 -17t-40 -62q0 -40 26.5 -61t63.5 -21zM177 621l10 64h305l-10 -64h-305z" />
    <glyph glyph-name="Abreve" unicode="&#x102;" horiz-adv-x="736" 
d="M-28 0l427 705h86l202 -705h-100l-45 172h-358l-101 -172h-111zM429 590l-196 -334h286l-88 334h-2zM455 760q-73 0 -118 46.5t-43 122.5l60 8q-2 -54 26.5 -83.5t78.5 -29.5t83 29.5t42 83.5l60 -8q-12 -78 -64 -123.5t-125 -45.5z" />
    <glyph glyph-name="abreve" unicode="&#x103;" horiz-adv-x="537" 
d="M196 -9q-43 0 -80 19.5t-59 53t-22 75.5q0 77 66 112t209 35h69l4 24q9 53 -15 81t-83 28q-89 0 -167 -51l-25 72q37 26 92.5 41.5t111.5 15.5q109 0 151.5 -59.5t27.5 -153.5l-45 -284h-95l11 75q-25 -44 -65.5 -64t-85.5 -20zM225 63q51 0 90.5 33.5t48.5 93.5l5 34
h-50q-104 0 -144 -17t-40 -62q0 -40 26.5 -61t63.5 -21zM326 550q-69 0 -109.5 51.5t-35.5 139.5l60 6q-3 -64 21 -98.5t68 -34.5t73 34.5t37 98.5l60 -6q-11 -89 -57.5 -140t-116.5 -51z" />
    <glyph glyph-name="Aogonek" unicode="&#x104;" horiz-adv-x="736" 
d="M-28 0l427 705h86l202 -705h-100l-45 172h-358l-101 -172h-111zM429 590l-196 -334h286l-88 334h-2zM621 -194q-49 0 -75 25.5t-26 66.5q0 47 31 84.5t78 56.5l29 -39q-37 -15 -54 -38.5t-17 -47.5q0 -22 14 -36t38 -14t54 12l11 -54q-20 -7 -40 -11.5t-43 -4.5z" />
    <glyph glyph-name="aogonek" unicode="&#x105;" horiz-adv-x="537" 
d="M196 -9q-43 0 -80 19.5t-59 53t-22 75.5q0 77 66 112t209 35h69l4 24q9 53 -15 81t-83 28q-89 0 -167 -51l-25 72q37 26 92.5 41.5t111.5 15.5q109 0 151.5 -59.5t27.5 -153.5l-45 -284h-95l11 75q-25 -44 -65.5 -64t-85.5 -20zM225 63q51 0 90.5 33.5t48.5 93.5l5 34
h-50q-104 0 -144 -17t-40 -62q0 -40 26.5 -61t63.5 -21zM369 -194q-49 0 -75 25.5t-26 66.5q0 47 31 84.5t78 56.5l29 -39q-37 -15 -54 -38.5t-17 -47.5q0 -22 14 -36t38 -14t54 12l11 -54q-20 -7 -40 -11.5t-43 -4.5z" />
    <glyph glyph-name="Cacute" unicode="&#x106;" horiz-adv-x="676" 
d="M386 -9q-91 0 -161.5 34.5t-110.5 105t-40 178.5q0 85 25.5 159t73.5 129.5t117 86t156 30.5q73 0 134 -23.5t99 -63.5l-45 -82q-79 77 -191 77q-82 0 -140 -40.5t-88.5 -111t-30.5 -159.5q0 -121 55.5 -174.5t156.5 -53.5q52 0 97.5 17.5t93.5 56.5l33 -81
q-45 -42 -106.5 -63.5t-127.5 -21.5zM412 765l131 173h111l-168 -173h-74z" />
    <glyph glyph-name="cacute" unicode="&#x107;" horiz-adv-x="467" 
d="M264 -9q-113 0 -168 60.5t-55 158.5q0 54 16 105t49 92t83.5 65.5t119.5 24.5q49 0 93 -15.5t71 -41.5l-33 -71q-49 48 -126 48q-61 0 -98 -30.5t-54 -78t-17 -97.5q0 -64 30.5 -102t101.5 -38q29 0 62 11.5t61 35.5l26 -73q-29 -26 -74.5 -40t-87.5 -14zM283 553
l133 202h105l-168 -202h-70z" />
    <glyph glyph-name="Ccircumflex" unicode="&#x108;" horiz-adv-x="676" 
d="M386 -9q-91 0 -161.5 34.5t-110.5 105t-40 178.5q0 85 25.5 159t73.5 129.5t117 86t156 30.5q73 0 134 -23.5t99 -63.5l-45 -82q-79 77 -191 77q-82 0 -140 -40.5t-88.5 -111t-30.5 -159.5q0 -121 55.5 -174.5t156.5 -53.5q52 0 97.5 17.5t93.5 56.5l33 -81
q-45 -42 -106.5 -63.5t-127.5 -21.5zM274 765l140 173h90l107 -173h-74l-82 112l-109 -112h-72z" />
    <glyph glyph-name="ccircumflex" unicode="&#x109;" horiz-adv-x="467" 
d="M264 -9q-113 0 -168 60.5t-55 158.5q0 54 16 105t49 92t83.5 65.5t119.5 24.5q49 0 93 -15.5t71 -41.5l-33 -71q-49 48 -126 48q-61 0 -98 -30.5t-54 -78t-17 -97.5q0 -64 30.5 -102t101.5 -38q29 0 62 11.5t61 35.5l26 -73q-29 -26 -74.5 -40t-87.5 -14zM159 553
l131 202h91l89 -202h-66l-73 140l-105 -140h-67z" />
    <glyph glyph-name="Cdotaccent" unicode="&#x10a;" horiz-adv-x="676" 
d="M386 -9q-91 0 -161.5 34.5t-110.5 105t-40 178.5q0 85 25.5 159t73.5 129.5t117 86t156 30.5q73 0 134 -23.5t99 -63.5l-45 -82q-79 77 -191 77q-82 0 -140 -40.5t-88.5 -111t-30.5 -159.5q0 -121 55.5 -174.5t156.5 -53.5q52 0 97.5 17.5t93.5 56.5l33 -81
q-45 -42 -106.5 -63.5t-127.5 -21.5zM403 801l15 101h104l-16 -101h-103z" />
    <glyph glyph-name="cdotaccent" unicode="&#x10b;" horiz-adv-x="467" 
d="M264 -9q-113 0 -168 60.5t-55 158.5q0 54 16 105t49 92t83.5 65.5t119.5 24.5q49 0 93 -15.5t71 -41.5l-33 -71q-49 48 -126 48q-61 0 -98 -30.5t-54 -78t-17 -97.5q0 -64 30.5 -102t101.5 -38q29 0 62 11.5t61 35.5l26 -73q-29 -26 -74.5 -40t-87.5 -14zM273 603l16 101
h105l-16 -101h-105z" />
    <glyph glyph-name="Ccaron" unicode="&#x10c;" horiz-adv-x="676" 
d="M386 -9q-91 0 -161.5 34.5t-110.5 105t-40 178.5q0 85 25.5 159t73.5 129.5t117 86t156 30.5q73 0 134 -23.5t99 -63.5l-45 -82q-79 77 -191 77q-82 0 -140 -40.5t-88.5 -111t-30.5 -159.5q0 -121 55.5 -174.5t156.5 -53.5q52 0 97.5 17.5t93.5 56.5l33 -81
q-45 -42 -106.5 -63.5t-127.5 -21.5zM404 765l-106 173h70l84 -112l107 112h76l-141 -173h-90z" />
    <glyph glyph-name="ccaron" unicode="&#x10d;" horiz-adv-x="467" 
d="M264 -9q-113 0 -168 60.5t-55 158.5q0 54 16 105t49 92t83.5 65.5t119.5 24.5q49 0 93 -15.5t71 -41.5l-33 -71q-49 48 -126 48q-61 0 -98 -30.5t-54 -78t-17 -97.5q0 -64 30.5 -102t101.5 -38q29 0 62 11.5t61 35.5l26 -73q-29 -26 -74.5 -40t-87.5 -14zM272 553
l-89 202h66l73 -141l105 141h68l-131 -202h-92z" />
    <glyph glyph-name="Dcaron" unicode="&#x10e;" horiz-adv-x="751" 
d="M44 0l112 705h215q164 0 253 -78t89 -220q0 -85 -24.5 -158.5t-74 -129.5t-125 -87.5t-177.5 -31.5h-268zM161 87h153q103 0 167 42.5t94 115t30 161.5q0 103 -58.5 157.5t-175.5 54.5h-126zM403 765l-106 173h70l84 -112l107 112h76l-141 -173h-90z" />
    <glyph glyph-name="dcaron" unicode="&#x10f;" horiz-adv-x="591" 
d="M226 -9q-84 0 -135 56.5t-51 152.5q0 82 29 149.5t84 107.5t131 40q54 0 97 -25t63 -75l48 308h101l-112 -705h-99l13 80q-27 -42 -70.5 -65.5t-98.5 -23.5zM263 69q50 0 85.5 29t54 77.5t18.5 107.5q0 66 -32 100.5t-88 34.5q-51 0 -86.5 -28.5t-54 -77t-18.5 -108.5
q0 -66 32 -100.5t89 -34.5zM606 514l31 191h74l-56 -191h-49z" />
    <glyph glyph-name="Dcroat" unicode="&#x110;" horiz-adv-x="751" 
d="M44 0l112 705h215q164 0 253 -78t89 -220q0 -85 -24.5 -158.5t-74 -129.5t-125 -87.5t-177.5 -31.5h-268zM161 87h153q103 0 167 42.5t94 115t30 161.5q0 103 -58.5 157.5t-175.5 54.5h-126zM8 319l12 77h384l-13 -77h-383z" />
    <glyph glyph-name="dcroat" unicode="&#x111;" horiz-adv-x="591" 
d="M226 -9q-84 0 -135 56.5t-51 152.5q0 82 29 149.5t84 107.5t131 40q54 0 97 -24.5t62 -74.5l25 151h-192l12 73h191l13 83h101l-13 -83h90l-12 -73h-90l-87 -549h-99l13 80q-27 -42 -70.5 -65.5t-98.5 -23.5zM263 69q50 0 85.5 29t54 77.5t18.5 107.5q0 66 -32 100.5
t-88 34.5q-51 0 -86.5 -28.5t-54 -77t-18.5 -108.5q0 -66 32 -100.5t89 -34.5z" />
    <glyph glyph-name="Emacron" unicode="&#x112;" horiz-adv-x="589" 
d="M44 0l112 705h456l-13 -84h-357l-35 -221h336l-13 -84h-336l-38 -232h357l-13 -84h-456zM250 811l9 63h335l-9 -63h-335z" />
    <glyph glyph-name="emacron" unicode="&#x113;" horiz-adv-x="537" 
d="M275 -9q-108 0 -171 58.5t-63 159.5q0 80 33 145.5t92.5 104t138.5 38.5q78 0 123.5 -35.5t62.5 -93t8 -123.5l-3 -24h-359q-5 -70 33.5 -111t111.5 -41q45 0 84.5 13t71.5 41l28 -68q-34 -31 -85.5 -47.5t-105.5 -16.5zM304 426q-47 0 -79.5 -20.5t-51.5 -53t-27 -69.5
h274q5 60 -22 101.5t-94 41.5zM186 621l10 64h305l-10 -64h-305z" />
    <glyph glyph-name="Ebreve" unicode="&#x114;" horiz-adv-x="589" 
d="M44 0l112 705h456l-13 -84h-357l-35 -221h336l-13 -84h-336l-38 -232h357l-13 -84h-456zM413 760q-73 0 -118 46.5t-43 122.5l60 8q-2 -54 26.5 -83.5t78.5 -29.5t83 29.5t42 83.5l60 -8q-12 -78 -64 -123.5t-125 -45.5z" />
    <glyph glyph-name="ebreve" unicode="&#x115;" horiz-adv-x="537" 
d="M275 -9q-108 0 -171 58.5t-63 159.5q0 80 33 145.5t92.5 104t138.5 38.5q78 0 123.5 -35.5t62.5 -93t8 -123.5l-3 -24h-359q-5 -70 33.5 -111t111.5 -41q45 0 84.5 13t71.5 41l28 -68q-34 -31 -85.5 -47.5t-105.5 -16.5zM304 426q-47 0 -79.5 -20.5t-51.5 -53t-27 -69.5
h274q5 60 -22 101.5t-94 41.5zM335 550q-69 0 -109.5 51.5t-35.5 139.5l60 6q-3 -64 21 -98.5t68 -34.5t73 34.5t37 98.5l60 -6q-11 -89 -57.5 -140t-116.5 -51z" />
    <glyph glyph-name="Edotaccent" unicode="&#x116;" horiz-adv-x="589" 
d="M44 0l112 705h456l-13 -84h-357l-35 -221h336l-13 -84h-336l-38 -232h357l-13 -84h-456zM364 801l15 101h104l-16 -101h-103z" />
    <glyph glyph-name="edotaccent" unicode="&#x117;" horiz-adv-x="537" 
d="M275 -9q-108 0 -171 58.5t-63 159.5q0 80 33 145.5t92.5 104t138.5 38.5q78 0 123.5 -35.5t62.5 -93t8 -123.5l-3 -24h-359q-5 -70 33.5 -111t111.5 -41q45 0 84.5 13t71.5 41l28 -68q-34 -31 -85.5 -47.5t-105.5 -16.5zM304 426q-47 0 -79.5 -20.5t-51.5 -53t-27 -69.5
h274q5 60 -22 101.5t-94 41.5zM282 603l16 101h105l-16 -101h-105z" />
    <glyph glyph-name="Eogonek" unicode="&#x118;" horiz-adv-x="589" 
d="M44 0l112 705h456l-13 -84h-357l-35 -221h336l-13 -84h-336l-38 -232h357l-13 -84h-456zM417 -194q-49 0 -75 25.5t-26 66.5q0 47 31 84.5t78 56.5l29 -39q-37 -15 -54 -38.5t-17 -47.5q0 -22 14 -36t38 -14t54 12l11 -54q-20 -7 -40 -11.5t-43 -4.5z" />
    <glyph glyph-name="eogonek" unicode="&#x119;" horiz-adv-x="537" 
d="M275 -9q-108 0 -171 58.5t-63 159.5q0 80 33 145.5t92.5 104t138.5 38.5q78 0 123.5 -35.5t62.5 -93t8 -123.5l-3 -24h-359q-5 -70 33.5 -111t111.5 -41q45 0 84.5 13t71.5 41l28 -68q-34 -31 -85.5 -47.5t-105.5 -16.5zM304 426q-47 0 -79.5 -20.5t-51.5 -53t-27 -69.5
h274q5 60 -22 101.5t-94 41.5zM292 -194q-49 0 -75 25.5t-26 66.5q0 47 31 84.5t78 56.5l29 -39q-37 -15 -54 -38.5t-17 -47.5q0 -22 14 -36t38 -14t54 12l11 -54q-20 -7 -40 -11.5t-43 -4.5z" />
    <glyph glyph-name="Ecaron" unicode="&#x11a;" horiz-adv-x="589" 
d="M44 0l112 705h456l-13 -84h-357l-35 -221h336l-13 -84h-336l-38 -232h357l-13 -84h-456zM365 765l-106 173h70l84 -112l107 112h76l-141 -173h-90z" />
    <glyph glyph-name="ecaron" unicode="&#x11b;" horiz-adv-x="537" 
d="M275 -9q-108 0 -171 58.5t-63 159.5q0 80 33 145.5t92.5 104t138.5 38.5q78 0 123.5 -35.5t62.5 -93t8 -123.5l-3 -24h-359q-5 -70 33.5 -111t111.5 -41q45 0 84.5 13t71.5 41l28 -68q-34 -31 -85.5 -47.5t-105.5 -16.5zM304 426q-47 0 -79.5 -20.5t-51.5 -53t-27 -69.5
h274q5 60 -22 101.5t-94 41.5zM281 553l-89 202h66l73 -141l105 141h68l-131 -202h-92z" />
    <glyph glyph-name="Gcircumflex" unicode="&#x11c;" horiz-adv-x="731" 
d="M394 -9q-98 0 -170 35t-111.5 104t-39.5 169q0 122 45.5 215.5t130 146.5t203.5 53q78 0 139 -23t99 -62l-44 -82q-83 76 -200 76q-83 0 -142 -41t-90.5 -113t-31.5 -166q0 -114 58 -168t167 -54q38 0 72.5 6t65.5 16l32 192h-172l12 78h259l-53 -338q-45 -21 -107 -32.5
t-122 -11.5zM278 765l140 173h90l107 -173h-74l-82 112l-109 -112h-72z" />
    <glyph glyph-name="gcircumflex" unicode="&#x11d;" horiz-adv-x="594" 
d="M252 -189q-70 0 -126.5 18.5t-100.5 50.5l32 72q44 -29 86 -46t95 -17q63 0 101.5 30t49.5 95l13 83q-27 -41 -70 -63t-96 -22q-88 0 -141.5 53.5t-53.5 146.5q0 75 29.5 140t85 105t132.5 40q55 0 98 -24.5t63 -73.5l14 89h98l-74 -469q-33 -208 -235 -208zM264 91
q52 0 88 28t55 74t19 100q1 59 -31.5 92t-91.5 33q-51 0 -87 -28t-54.5 -74t-18.5 -99q0 -60 32 -93t89 -33zM184 553l131 202h91l89 -202h-66l-73 140l-105 -140h-67z" />
    <glyph glyph-name="Gbreve" unicode="&#x11e;" horiz-adv-x="731" 
d="M394 -9q-98 0 -170 35t-111.5 104t-39.5 169q0 122 45.5 215.5t130 146.5t203.5 53q78 0 139 -23t99 -62l-44 -82q-83 76 -200 76q-83 0 -142 -41t-90.5 -113t-31.5 -166q0 -114 58 -168t167 -54q38 0 72.5 6t65.5 16l32 192h-172l12 78h259l-53 -338q-45 -21 -107 -32.5
t-122 -11.5zM456 760q-73 0 -118 46.5t-43 122.5l60 8q-2 -54 26.5 -83.5t78.5 -29.5t83 29.5t42 83.5l60 -8q-12 -78 -64 -123.5t-125 -45.5z" />
    <glyph glyph-name="gbreve" unicode="&#x11f;" horiz-adv-x="594" 
d="M252 -189q-70 0 -126.5 18.5t-100.5 50.5l32 72q44 -29 86 -46t95 -17q63 0 101.5 30t49.5 95l13 83q-27 -41 -70 -63t-96 -22q-88 0 -141.5 53.5t-53.5 146.5q0 75 29.5 140t85 105t132.5 40q55 0 98 -24.5t63 -73.5l14 89h98l-74 -469q-33 -208 -235 -208zM264 91
q52 0 88 28t55 74t19 100q1 59 -31.5 92t-91.5 33q-51 0 -87 -28t-54.5 -74t-18.5 -99q0 -60 32 -93t89 -33zM351 550q-69 0 -109.5 51.5t-35.5 139.5l60 6q-3 -64 21 -98.5t68 -34.5t73 34.5t37 98.5l60 -6q-11 -89 -57.5 -140t-116.5 -51z" />
    <glyph glyph-name="Gdotaccent" unicode="&#x120;" horiz-adv-x="731" 
d="M394 -9q-98 0 -170 35t-111.5 104t-39.5 169q0 122 45.5 215.5t130 146.5t203.5 53q78 0 139 -23t99 -62l-44 -82q-83 76 -200 76q-83 0 -142 -41t-90.5 -113t-31.5 -166q0 -114 58 -168t167 -54q38 0 72.5 6t65.5 16l32 192h-172l12 78h259l-53 -338q-45 -21 -107 -32.5
t-122 -11.5zM407 801l15 101h104l-16 -101h-103z" />
    <glyph glyph-name="gdotaccent" unicode="&#x121;" horiz-adv-x="594" 
d="M252 -189q-70 0 -126.5 18.5t-100.5 50.5l32 72q44 -29 86 -46t95 -17q63 0 101.5 30t49.5 95l13 83q-27 -41 -70 -63t-96 -22q-88 0 -141.5 53.5t-53.5 146.5q0 75 29.5 140t85 105t132.5 40q55 0 98 -24.5t63 -73.5l14 89h98l-74 -469q-33 -208 -235 -208zM264 91
q52 0 88 28t55 74t19 100q1 59 -31.5 92t-91.5 33q-51 0 -87 -28t-54.5 -74t-18.5 -99q0 -60 32 -93t89 -33zM298 603l16 101h105l-16 -101h-105z" />
    <glyph glyph-name="uni0122" unicode="&#x122;" horiz-adv-x="731" 
d="M394 -9q-98 0 -170 35t-111.5 104t-39.5 169q0 122 45.5 215.5t130 146.5t203.5 53q78 0 139 -23t99 -62l-44 -82q-83 76 -200 76q-83 0 -142 -41t-90.5 -113t-31.5 -166q0 -114 58 -168t167 -54q38 0 72.5 6t65.5 16l32 192h-172l12 78h259l-53 -338q-45 -21 -107 -32.5
t-122 -11.5zM345 -273l-33 32q22 18 31.5 35t14.5 38h-56l14 91h114l-12 -71q-6 -41 -22 -71t-51 -54z" />
    <glyph glyph-name="uni0123" unicode="&#x123;" horiz-adv-x="594" 
d="M252 -189q-70 0 -126.5 18.5t-100.5 50.5l32 72q44 -29 86 -46t95 -17q63 0 101.5 30t49.5 95l13 83q-27 -41 -70 -63t-96 -22q-88 0 -141.5 53.5t-53.5 146.5q0 75 29.5 140t85 105t132.5 40q55 0 98 -24.5t63 -73.5l14 89h98l-74 -469q-33 -208 -235 -208zM264 91
q52 0 88 28t55 74t19 100q1 59 -31.5 92t-91.5 33q-51 0 -87 -28t-54.5 -74t-18.5 -99q0 -60 32 -93t89 -33zM289 566l11 71q7 41 22.5 71t51.5 53l33 -31q-23 -18 -32 -35t-14 -38h56l-15 -91h-113z" />
    <glyph glyph-name="Hcircumflex" unicode="&#x124;" horiz-adv-x="767" 
d="M44 0l112 705h103l-49 -304h396l48 304h103l-112 -705h-103l50 314h-395l-50 -314h-103zM290 765l140 173h90l107 -173h-74l-82 112l-109 -112h-72z" />
    <glyph glyph-name="hcircumflex" unicode="&#x125;" horiz-adv-x="576" 
d="M32 0l112 705h101l-46 -294q26 42 69.5 64t99.5 22q80 0 121.5 -49.5t25.5 -153.5l-46 -294h-101l46 292q20 124 -82 124q-67 0 -106.5 -41.5t-50.5 -111.5l-42 -263h-101zM196 765l140 173h90l107 -173h-74l-82 112l-109 -112h-72z" />
    <glyph glyph-name="Hbar" unicode="&#x126;" horiz-adv-x="807" 
d="M63 0l82 516h-87l12 77h88l17 112h104l-18 -112h394l18 112h103l-18 -112h90l-13 -77h-88l-83 -516h-103l49 307h-394l-49 -307h-104zM229 394h395l20 122h-396z" />
    <glyph glyph-name="hbar" unicode="&#x127;" horiz-adv-x="576" 
d="M32 0l87 549h-89l11 73h90l13 83h101l-13 -83h191l-12 -73h-191l-22 -138q27 42 70.5 64t99.5 22q80 0 121.5 -49.5t25.5 -153.5l-46 -294h-101l46 292q20 124 -82 124q-67 0 -106.5 -41.5t-50.5 -111.5l-42 -263h-101z" />
    <glyph glyph-name="Itilde" unicode="&#x128;" horiz-adv-x="268" 
d="M44 0l112 705h103l-112 -705h-103zM53 778l-53 3q12 68 46.5 104t86.5 36q29 0 54.5 -12.5t49.5 -26.5q20 -13 38.5 -22.5t36.5 -9.5q57 0 76 75l53 -4q-11 -67 -46 -103.5t-86 -36.5q-30 0 -55 13t-49 27q-20 12 -38.5 22t-36.5 10q-58 0 -77 -75z" />
    <glyph glyph-name="itilde" unicode="&#x129;" horiz-adv-x="243" 
d="M32 0l77 488h101l-77 -488h-101zM43 587l-53 4q9 67 41.5 103.5t79.5 36.5q28 0 47 -14t36 -29q13 -11 26 -20t29 -9q51 0 68 75l54 -3q-10 -68 -42 -104t-79 -36q-28 0 -47.5 13.5t-35.5 28.5q-14 11 -27 20t-29 9q-51 0 -68 -75z" />
    <glyph glyph-name="Imacron" unicode="&#x12a;" horiz-adv-x="268" 
d="M44 0l112 705h103l-112 -705h-103zM57 811l9 63h335l-9 -63h-335z" />
    <glyph glyph-name="imacron" unicode="&#x12b;" horiz-adv-x="243" 
d="M32 0l77 488h101l-77 -488h-101zM30 621l10 64h305l-10 -64h-305z" />
    <glyph glyph-name="Ibreve" unicode="&#x12c;" horiz-adv-x="268" 
d="M44 0l112 705h103l-112 -705h-103zM220 760q-73 0 -118 46.5t-43 122.5l60 8q-2 -54 26.5 -83.5t78.5 -29.5t83 29.5t42 83.5l60 -8q-12 -78 -64 -123.5t-125 -45.5z" />
    <glyph glyph-name="ibreve" unicode="&#x12d;" horiz-adv-x="243" 
d="M32 0l77 488h101l-77 -488h-101zM179 550q-69 0 -109.5 51.5t-35.5 139.5l60 6q-3 -64 21 -98.5t68 -34.5t73 34.5t37 98.5l60 -6q-11 -89 -57.5 -140t-116.5 -51z" />
    <glyph glyph-name="Iogonek" unicode="&#x12e;" horiz-adv-x="268" 
d="M44 0l112 705h103l-112 -705h-103zM90 -194q-49 0 -75 25.5t-26 66.5q0 47 31 84.5t78 56.5l29 -39q-37 -15 -54 -38.5t-17 -47.5q0 -22 14 -36t38 -14t54 12l11 -54q-20 -7 -40 -11.5t-43 -4.5z" />
    <glyph glyph-name="iogonek" unicode="&#x12f;" horiz-adv-x="243" 
d="M32 0l77 488h101l-77 -488h-101zM120 601l17 105h117l-17 -105h-117zM78 -194q-49 0 -75 25.5t-26 66.5q0 47 31 84.5t78 56.5l29 -39q-37 -15 -54 -38.5t-17 -47.5q0 -22 14 -36t38 -14t54 12l11 -54q-20 -7 -40 -11.5t-43 -4.5z" />
    <glyph glyph-name="Idotaccent" unicode="&#x130;" horiz-adv-x="268" 
d="M44 0l112 705h103l-112 -705h-103zM171 801l15 101h104l-16 -101h-103z" />
    <glyph glyph-name="dotlessi" unicode="&#x131;" horiz-adv-x="243" 
d="M32 0l77 488h101l-77 -488h-101z" />
    <glyph glyph-name="IJ" unicode="&#x132;" horiz-adv-x="606" 
d="M44 0l112 705h103l-112 -705h-103zM229 -8l1 85l65 4q100 7 118 120l80 504h103l-82 -514q-14 -91 -63.5 -140t-149.5 -55z" />
    <glyph glyph-name="Jcircumflex" unicode="&#x134;" horiz-adv-x="338" 
d="M-39 -8l1 85l65 4q100 7 118 120l80 504h103l-82 -514q-14 -91 -63.5 -140t-149.5 -55zM112 765l140 173h90l107 -173h-74l-82 112l-109 -112h-72z" />
    <glyph glyph-name="jcircumflex" unicode="&#x135;" horiz-adv-x="246" 
d="M-106 -193l-6 76l45 4q86 6 101 102l79 499h101l-78 -491q-14 -92 -60.5 -136.5t-137.5 -50.5zM14 553l131 202h91l89 -202h-66l-73 140l-105 -140h-67z" />
    <glyph glyph-name="uni0136" unicode="&#x136;" horiz-adv-x="643" 
d="M44 0l112 705h103l-51 -317h2l374 317h134l-410 -348l317 -357h-122l-302 332h-2l-52 -332h-103zM254 -273l-33 32q22 18 31.5 35t14.5 38h-56l14 91h114l-12 -71q-6 -41 -22 -71t-51 -54z" />
    <glyph glyph-name="uni0137" unicode="&#x137;" horiz-adv-x="516" 
d="M33 0l111 705h101l-68 -430h2l243 213h124l-269 -240l214 -248h-119l-201 227h-2l-35 -227h-101zM189 -273l-33 32q22 18 31.5 35t14.5 38h-56l14 91h114l-12 -71q-6 -41 -22 -71t-51 -54z" />
    <glyph glyph-name="kgreenlandic" unicode="&#x138;" horiz-adv-x="516" 
d="M32 0l77 488h101l-33 -213h2l243 213h124l-269 -240l214 -248h-120l-200 227h-2l-36 -227h-101z" />
    <glyph glyph-name="Lacute" unicode="&#x139;" horiz-adv-x="552" 
d="M44 0l112 705h103l-98 -616h349l-14 -89h-452zM180 765l131 173h111l-168 -173h-74z" />
    <glyph glyph-name="lacute" unicode="&#x13a;" horiz-adv-x="306" 
d="M193 -9q-79 0 -113.5 44.5t-21.5 130.5l86 539h101l-86 -538q-7 -49 9 -71t57 -22q11 0 22.5 1.5t23.5 3.5l-15 -80q-14 -4 -31 -6t-32 -2zM167 765l131 173h111l-168 -173h-74z" />
    <glyph glyph-name="uni013B" unicode="&#x13b;" horiz-adv-x="552" 
d="M44 0l112 705h103l-98 -616h349l-14 -89h-452zM231 -273l-33 32q22 18 31.5 35t14.5 38h-56l14 91h114l-12 -71q-6 -41 -22 -71t-51 -54z" />
    <glyph glyph-name="uni013C" unicode="&#x13c;" horiz-adv-x="306" 
d="M193 -9q-79 0 -113.5 44.5t-21.5 130.5l86 539h101l-86 -538q-7 -49 9 -71t57 -22q11 0 22.5 1.5t23.5 3.5l-15 -80q-14 -4 -31 -6t-32 -2zM112 -273l-33 32q22 18 31.5 35t14.5 38h-56l14 91h114l-12 -71q-6 -41 -22 -71t-51 -54z" />
    <glyph glyph-name="Lcaron" unicode="&#x13d;" horiz-adv-x="552" 
d="M44 0l112 705h103l-98 -616h349l-14 -89h-452zM334 475l36 230h83l-58 -230h-61z" />
    <glyph glyph-name="lcaron" unicode="&#x13e;" horiz-adv-x="306" 
d="M193 -9q-79 0 -113.5 44.5t-21.5 130.5l86 539h101l-86 -538q-7 -49 9 -71t57 -22q11 0 22.5 1.5t23.5 3.5l-15 -80q-14 -4 -31 -6t-32 -2zM257 514l31 191h74l-56 -191h-49z" />
    <glyph glyph-name="Ldot" unicode="&#x13f;" horiz-adv-x="552" 
d="M44 0l112 705h103l-98 -616h349l-14 -89h-452zM369 337l17 107h119l-17 -107h-119z" />
    <glyph glyph-name="ldot" unicode="&#x140;" horiz-adv-x="343" 
d="M193 -9q-79 0 -113.5 44.5t-21.5 130.5l86 539h101l-86 -538q-7 -49 9 -71t57 -22q11 0 22.5 1.5t23.5 3.5l-15 -80q-14 -4 -31 -6t-32 -2zM241 303l17 107h119l-17 -107h-119z" />
    <glyph glyph-name="Lslash" unicode="&#x141;" horiz-adv-x="552" 
d="M44 0l112 705h103l-98 -616h349l-14 -89h-452zM13 260l-33 72l395 184l34 -72z" />
    <glyph glyph-name="lslash" unicode="&#x142;" horiz-adv-x="306" 
d="M193 -9q-79 0 -113.5 44.5t-21.5 130.5l86 539h101l-86 -538q-7 -49 9 -71t57 -22q11 0 22.5 1.5t23.5 3.5l-15 -80q-14 -4 -31 -6t-32 -2zM15 247l-34 74l304 145l34 -73z" />
    <glyph glyph-name="Nacute" unicode="&#x143;" horiz-adv-x="743" 
d="M44 0l112 705h78l317 -544l86 544h96l-112 -705h-77l-318 544l-86 -544h-96zM417 765l131 173h111l-168 -173h-74z" />
    <glyph glyph-name="nacute" unicode="&#x144;" horiz-adv-x="576" 
d="M32 0l78 488h98l-13 -82q27 44 71 67.5t102 23.5q80 0 121.5 -49.5t25.5 -153.5l-46 -294h-101l46 292q20 124 -82 124q-67 0 -106.5 -41.5t-50.5 -111.5l-42 -263h-101zM301 553l133 202h105l-168 -202h-70z" />
    <glyph glyph-name="uni0145" unicode="&#x145;" horiz-adv-x="743" 
d="M44 0l112 705h78l317 -544l86 544h96l-112 -705h-77l-318 544l-86 -544h-96zM304 -273l-33 32q22 18 31.5 35t14.5 38h-56l14 91h114l-12 -71q-6 -41 -22 -71t-51 -54z" />
    <glyph glyph-name="uni0146" unicode="&#x146;" horiz-adv-x="576" 
d="M32 0l78 488h98l-13 -82q27 44 71 67.5t102 23.5q80 0 121.5 -49.5t25.5 -153.5l-46 -294h-101l46 292q20 124 -82 124q-67 0 -106.5 -41.5t-50.5 -111.5l-42 -263h-101zM214 -273l-33 32q22 18 31.5 35t14.5 38h-56l14 91h114l-12 -71q-6 -41 -22 -71t-51 -54z" />
    <glyph glyph-name="Ncaron" unicode="&#x147;" horiz-adv-x="743" 
d="M44 0l112 705h78l317 -544l86 544h96l-112 -705h-77l-318 544l-86 -544h-96zM409 765l-106 173h70l84 -112l107 112h76l-141 -173h-90z" />
    <glyph glyph-name="ncaron" unicode="&#x148;" horiz-adv-x="576" 
d="M32 0l78 488h98l-13 -82q27 44 71 67.5t102 23.5q80 0 121.5 -49.5t25.5 -153.5l-46 -294h-101l46 292q20 124 -82 124q-67 0 -106.5 -41.5t-50.5 -111.5l-42 -263h-101zM290 553l-89 202h66l73 -141l105 141h68l-131 -202h-92z" />
    <glyph glyph-name="napostrophe" unicode="&#x149;" horiz-adv-x="576" 
d="M98 569l-38 29q20 18 29.5 35t12.5 34h-53l15 94h112l-10 -67q-7 -38 -21 -67.5t-47 -57.5zM32 0l78 488h98l-13 -82q27 44 71 67.5t102 23.5q80 0 121.5 -49.5t25.5 -153.5l-46 -294h-101l46 292q20 124 -82 124q-67 0 -106.5 -41.5t-50.5 -111.5l-42 -263h-101z" />
    <glyph glyph-name="Eng" unicode="&#x14a;" horiz-adv-x="743" 
d="M378 -193l-6 76l45 4q48 4 73.5 29t33.5 73l5 36l-303 519l-86 -544h-96l112 705h78l317 -545l86 545h96l-112 -708q-15 -92 -61 -136.5t-137 -50.5z" />
    <glyph glyph-name="eng" unicode="&#x14b;" horiz-adv-x="576" 
d="M223 -193l-6 76l45 4q89 7 104 102l48 303q20 124 -82 124q-67 0 -106.5 -41.5t-50.5 -111.5l-42 -263h-101l78 488h98l-13 -82q27 44 71 67.5t102 23.5q80 0 121.5 -49.5t25.5 -153.5l-47 -297q-14 -92 -62 -136.5t-139 -50.5z" />
    <glyph glyph-name="Omacron" unicode="&#x14c;" horiz-adv-x="775" 
d="M374 -9q-91 0 -158.5 35.5t-105 103.5t-37.5 166q0 120 43 214.5t124.5 149t195.5 54.5q92 0 159.5 -35.5t104.5 -103.5t37 -165q0 -121 -43 -215.5t-124.5 -149t-195.5 -54.5zM376 81q81 0 137.5 42.5t85.5 116.5t29 168q0 110 -52 163t-143 53q-81 0 -137 -42t-85 -116
t-29 -168q0 -110 51.5 -163.5t142.5 -53.5zM299 811l9 63h335l-9 -63h-335z" />
    <glyph glyph-name="omacron" unicode="&#x14d;" horiz-adv-x="565" 
d="M261 -9q-103 0 -161.5 58.5t-58.5 158.5q0 85 34 150t93.5 102t135.5 37q103 0 161.5 -58.5t58.5 -158.5q0 -85 -34 -150.5t-93.5 -102t-135.5 -36.5zM263 69q51 0 86.5 29t54 77.5t18.5 107.5q0 66 -32 100.5t-88 34.5q-51 0 -86.5 -28.5t-54 -77t-18.5 -108.5
q0 -66 32 -100.5t88 -34.5zM193 621l10 64h305l-10 -64h-305z" />
    <glyph glyph-name="Obreve" unicode="&#x14e;" horiz-adv-x="775" 
d="M374 -9q-91 0 -158.5 35.5t-105 103.5t-37.5 166q0 120 43 214.5t124.5 149t195.5 54.5q92 0 159.5 -35.5t104.5 -103.5t37 -165q0 -121 -43 -215.5t-124.5 -149t-195.5 -54.5zM376 81q81 0 137.5 42.5t85.5 116.5t29 168q0 110 -52 163t-143 53q-81 0 -137 -42t-85 -116
t-29 -168q0 -110 51.5 -163.5t142.5 -53.5zM462 760q-73 0 -118 46.5t-43 122.5l60 8q-2 -54 26.5 -83.5t78.5 -29.5t83 29.5t42 83.5l60 -8q-12 -78 -64 -123.5t-125 -45.5z" />
    <glyph glyph-name="obreve" unicode="&#x14f;" horiz-adv-x="565" 
d="M261 -9q-103 0 -161.5 58.5t-58.5 158.5q0 85 34 150t93.5 102t135.5 37q103 0 161.5 -58.5t58.5 -158.5q0 -85 -34 -150.5t-93.5 -102t-135.5 -36.5zM263 69q51 0 86.5 29t54 77.5t18.5 107.5q0 66 -32 100.5t-88 34.5q-51 0 -86.5 -28.5t-54 -77t-18.5 -108.5
q0 -66 32 -100.5t88 -34.5zM342 550q-69 0 -109.5 51.5t-35.5 139.5l60 6q-3 -64 21 -98.5t68 -34.5t73 34.5t37 98.5l60 -6q-11 -89 -57.5 -140t-116.5 -51z" />
    <glyph glyph-name="Ohungarumlaut" unicode="&#x150;" horiz-adv-x="775" 
d="M374 -9q-91 0 -158.5 35.5t-105 103.5t-37.5 166q0 120 43 214.5t124.5 149t195.5 54.5q92 0 159.5 -35.5t104.5 -103.5t37 -165q0 -121 -43 -215.5t-124.5 -149t-195.5 -54.5zM376 81q81 0 137.5 42.5t85.5 116.5t29 168q0 110 -52 163t-143 53q-81 0 -137 -42t-85 -116
t-29 -168q0 -110 51.5 -163.5t142.5 -53.5zM363 765l100 173h94l-137 -173h-57zM498 765l107 173h94l-143 -173h-58z" />
    <glyph glyph-name="ohungarumlaut" unicode="&#x151;" horiz-adv-x="565" 
d="M261 -9q-103 0 -161.5 58.5t-58.5 158.5q0 85 34 150t93.5 102t135.5 37q103 0 161.5 -58.5t58.5 -158.5q0 -85 -34 -150.5t-93.5 -102t-135.5 -36.5zM263 69q51 0 86.5 29t54 77.5t18.5 107.5q0 66 -32 100.5t-88 34.5q-51 0 -86.5 -28.5t-54 -77t-18.5 -108.5
q0 -66 32 -100.5t88 -34.5zM374 553l70 202h88l-103 -202h-55zM237 553l70 202h88l-104 -202h-54z" />
    <glyph glyph-name="OE" unicode="&#x152;" horiz-adv-x="1051" 
d="M415 0q-164 0 -252.5 78.5t-88.5 219.5q0 116 43 208t133 145.5t228 53.5h594l-13 -84h-355l-35 -221h335l-13 -84h-335l-37 -232h356l-13 -84h-547zM416 87h104l85 531h-129q-105 0 -169.5 -42.5t-94.5 -115t-30 -161.5q0 -103 58.5 -157.5t175.5 -54.5z" />
    <glyph glyph-name="oe" unicode="&#x153;" horiz-adv-x="912" 
d="M261 -9q-103 0 -161.5 58.5t-58.5 159.5q0 84 34 149t93.5 102t135.5 37q65 0 111 -27.5t69 -77.5q33 47 83 76t115 29q77 0 123 -35t62.5 -92t6.5 -124l-3 -25h-353q-5 -70 32 -110.5t108 -40.5q45 0 84 13t71 40l29 -68q-35 -31 -85.5 -47.5t-104.5 -16.5
q-69 0 -118.5 27t-75.5 76q-33 -47 -83.5 -75t-113.5 -28zM681 426q-46 0 -77.5 -20.5t-50.5 -53t-26 -69.5h268q6 60 -20.5 101.5t-93.5 41.5zM263 70q51 0 86.5 28.5t54 77t18.5 107.5q0 66 -32 100.5t-88 34.5q-51 0 -86.5 -28.5t-54 -77t-18.5 -108.5q0 -66 32 -100
t88 -34z" />
    <glyph glyph-name="Racute" unicode="&#x154;" horiz-adv-x="677" 
d="M44 0l112 705h262q115 0 174 -51.5t59 -140.5q0 -94 -53.5 -147.5t-139.5 -67.5q25 -10 42.5 -32.5t30.5 -55.5l80 -210h-105l-82 217q-16 41 -40 57.5t-69 16.5h-122l-45 -291h-104zM206 369h186q75 0 116.5 35.5t41.5 100.5q0 58 -35 87.5t-110 29.5h-159zM377 765
l131 173h111l-168 -173h-74z" />
    <glyph glyph-name="racute" unicode="&#x155;" horiz-adv-x="373" 
d="M32 0l78 488h98l-13 -82q23 39 62.5 63t96.5 28l40 3l-1 -86l-67 -7q-74 -6 -107 -43t-43 -102l-42 -262h-102zM232 555l133 202h105l-168 -202h-70z" />
    <glyph glyph-name="uni0156" unicode="&#x156;" horiz-adv-x="677" 
d="M44 0l112 705h262q115 0 174 -51.5t59 -140.5q0 -94 -53.5 -147.5t-139.5 -67.5q25 -10 42.5 -32.5t30.5 -55.5l80 -210h-105l-82 217q-16 41 -40 57.5t-69 16.5h-122l-45 -291h-104zM206 369h186q75 0 116.5 35.5t41.5 100.5q0 58 -35 87.5t-110 29.5h-159zM273 -273
l-33 32q22 18 31.5 35t14.5 38h-56l14 91h114l-12 -71q-6 -41 -22 -71t-51 -54z" />
    <glyph glyph-name="uni0157" unicode="&#x157;" horiz-adv-x="373" 
d="M32 0l78 488h98l-13 -82q23 39 62.5 63t96.5 28l40 3l-1 -86l-67 -7q-74 -6 -107 -43t-43 -102l-42 -262h-102zM44 -273l-33 32q22 18 31.5 35t14.5 38h-56l14 91h114l-12 -71q-6 -41 -22 -71t-51 -54z" />
    <glyph glyph-name="Rcaron" unicode="&#x158;" horiz-adv-x="677" 
d="M44 0l112 705h262q115 0 174 -51.5t59 -140.5q0 -94 -53.5 -147.5t-139.5 -67.5q25 -10 42.5 -32.5t30.5 -55.5l80 -210h-105l-82 217q-16 41 -40 57.5t-69 16.5h-122l-45 -291h-104zM206 369h186q75 0 116.5 35.5t41.5 100.5q0 58 -35 87.5t-110 29.5h-159zM369 765
l-106 173h70l84 -112l107 112h76l-141 -173h-90z" />
    <glyph glyph-name="rcaron" unicode="&#x159;" horiz-adv-x="373" 
d="M32 0l78 488h98l-13 -82q23 39 62.5 63t96.5 28l40 3l-1 -86l-67 -7q-74 -6 -107 -43t-43 -102l-42 -262h-102zM221 555l-89 202h66l73 -141l105 141h68l-131 -202h-92z" />
    <glyph glyph-name="Sacute" unicode="&#x15a;" horiz-adv-x="622" 
d="M299 -9q-78 0 -149 20t-124 65l39 79q56 -43 116 -59.5t127 -16.5q75 0 120.5 30.5t45.5 82.5q0 37 -27 63t-93 40l-106 26q-71 17 -113.5 59.5t-42.5 117.5q0 67 37 115.5t98.5 74.5t135.5 26q67 0 133 -20.5t114 -65.5l-40 -77q-45 41 -99.5 58t-109.5 17
q-72 0 -119 -33t-47 -87q0 -45 24 -67.5t71 -33.5l106 -26q92 -20 136.5 -65.5t44.5 -109.5q0 -70 -38 -117.5t-101.5 -71.5t-138.5 -24zM347 765l131 173h111l-168 -173h-74z" />
    <glyph glyph-name="sacute" unicode="&#x15b;" horiz-adv-x="484" 
d="M224 -9q-60 0 -112.5 15.5t-87.5 43.5l35 67q36 -27 78.5 -40t87.5 -13q51 0 79 19.5t28 54.5q0 45 -60 59l-93 21q-53 11 -82.5 43.5t-29.5 79.5q0 44 25 79t71.5 56t112.5 21q49 0 96 -15.5t77 -44.5l-32 -66q-30 27 -67.5 39.5t-78.5 12.5q-52 0 -81.5 -21t-29.5 -56
q0 -21 13 -36.5t42 -21.5l93 -21q56 -13 86.5 -43.5t30.5 -78.5q0 -73 -55.5 -113.5t-145.5 -40.5zM250 553l133 202h105l-168 -202h-70z" />
    <glyph glyph-name="Scircumflex" unicode="&#x15c;" horiz-adv-x="622" 
d="M299 -9q-78 0 -149 20t-124 65l39 79q56 -43 116 -59.5t127 -16.5q75 0 120.5 30.5t45.5 82.5q0 37 -27 63t-93 40l-106 26q-71 17 -113.5 59.5t-42.5 117.5q0 67 37 115.5t98.5 74.5t135.5 26q67 0 133 -20.5t114 -65.5l-40 -77q-45 41 -99.5 58t-109.5 17
q-72 0 -119 -33t-47 -87q0 -45 24 -67.5t71 -33.5l106 -26q92 -20 136.5 -65.5t44.5 -109.5q0 -70 -38 -117.5t-101.5 -71.5t-138.5 -24zM209 765l140 173h90l107 -173h-74l-82 112l-109 -112h-72z" />
    <glyph glyph-name="scircumflex" unicode="&#x15d;" horiz-adv-x="484" 
d="M224 -9q-60 0 -112.5 15.5t-87.5 43.5l35 67q36 -27 78.5 -40t87.5 -13q51 0 79 19.5t28 54.5q0 45 -60 59l-93 21q-53 11 -82.5 43.5t-29.5 79.5q0 44 25 79t71.5 56t112.5 21q49 0 96 -15.5t77 -44.5l-32 -66q-30 27 -67.5 39.5t-78.5 12.5q-52 0 -81.5 -21t-29.5 -56
q0 -21 13 -36.5t42 -21.5l93 -21q56 -13 86.5 -43.5t30.5 -78.5q0 -73 -55.5 -113.5t-145.5 -40.5zM126 553l131 202h91l89 -202h-66l-73 140l-105 -140h-67z" />
    <glyph glyph-name="Scedilla" unicode="&#x15e;" horiz-adv-x="622" 
d="M299 -9q-78 0 -149 20t-124 65l39 79q56 -43 116 -59.5t127 -16.5q75 0 120.5 30.5t45.5 82.5q0 37 -27 63t-93 40l-106 26q-71 17 -113.5 59.5t-42.5 117.5q0 67 37 115.5t98.5 74.5t135.5 26q67 0 133 -20.5t114 -65.5l-40 -77q-45 41 -99.5 58t-109.5 17
q-72 0 -119 -33t-47 -87q0 -45 24 -67.5t71 -33.5l106 -26q92 -20 136.5 -65.5t44.5 -109.5q0 -70 -38 -117.5t-101.5 -71.5t-138.5 -24zM276 -194q-27 0 -52 5.5t-41 15.5l20 49q17 -8 33.5 -12t38.5 -4q28 0 44 9t16 26q0 24 -35 24q-10 0 -20 -1.5t-25 -5.5l-16 16l29 92
h58l-20 -60h14q36 0 57.5 -16.5t21.5 -47.5q0 -41 -35 -65.5t-88 -24.5z" />
    <glyph glyph-name="scedilla" unicode="&#x15f;" horiz-adv-x="484" 
d="M224 -9q-60 0 -112.5 15.5t-87.5 43.5l35 67q36 -27 78.5 -40t87.5 -13q51 0 79 19.5t28 54.5q0 45 -60 59l-93 21q-53 11 -82.5 43.5t-29.5 79.5q0 44 25 79t71.5 56t112.5 21q49 0 96 -15.5t77 -44.5l-32 -66q-30 27 -67.5 39.5t-78.5 12.5q-52 0 -81.5 -21t-29.5 -56
q0 -21 13 -36.5t42 -21.5l93 -21q56 -13 86.5 -43.5t30.5 -78.5q0 -73 -55.5 -113.5t-145.5 -40.5zM194 -194q-27 0 -52 5.5t-41 15.5l20 49q17 -8 33.5 -12t38.5 -4q28 0 44 9t16 26q0 24 -35 24q-10 0 -20 -1.5t-25 -5.5l-16 16l29 92h58l-20 -60h14q36 0 57.5 -16.5
t21.5 -47.5q0 -41 -35 -65.5t-88 -24.5z" />
    <glyph glyph-name="Scaron" unicode="&#x160;" horiz-adv-x="622" 
d="M299 -9q-78 0 -149 20t-124 65l39 79q56 -43 116 -59.5t127 -16.5q75 0 120.5 30.5t45.5 82.5q0 37 -27 63t-93 40l-106 26q-71 17 -113.5 59.5t-42.5 117.5q0 67 37 115.5t98.5 74.5t135.5 26q67 0 133 -20.5t114 -65.5l-40 -77q-45 41 -99.5 58t-109.5 17
q-72 0 -119 -33t-47 -87q0 -45 24 -67.5t71 -33.5l106 -26q92 -20 136.5 -65.5t44.5 -109.5q0 -70 -38 -117.5t-101.5 -71.5t-138.5 -24zM339 765l-106 173h70l84 -112l107 112h76l-141 -173h-90z" />
    <glyph glyph-name="scaron" unicode="&#x161;" horiz-adv-x="484" 
d="M224 -9q-60 0 -112.5 15.5t-87.5 43.5l35 67q36 -27 78.5 -40t87.5 -13q51 0 79 19.5t28 54.5q0 45 -60 59l-93 21q-53 11 -82.5 43.5t-29.5 79.5q0 44 25 79t71.5 56t112.5 21q49 0 96 -15.5t77 -44.5l-32 -66q-30 27 -67.5 39.5t-78.5 12.5q-52 0 -81.5 -21t-29.5 -56
q0 -21 13 -36.5t42 -21.5l93 -21q56 -13 86.5 -43.5t30.5 -78.5q0 -73 -55.5 -113.5t-145.5 -40.5zM239 553l-89 202h66l73 -141l105 141h68l-131 -202h-92z" />
    <glyph glyph-name="uni0162" unicode="&#x162;" horiz-adv-x="611" 
d="M215 0l98 618h-249l13 87h603l-14 -87h-249l-99 -618h-103zM247 -194q-27 0 -52 5.5t-41 15.5l20 49q17 -8 33.5 -12t38.5 -4q28 0 44 9t16 26q0 24 -35 24q-10 0 -20 -1.5t-25 -5.5l-16 16l29 92h58l-20 -60h14q36 0 57.5 -16.5t21.5 -47.5q0 -41 -35 -65.5t-88 -24.5z
" />
    <glyph glyph-name="uni0163" unicode="&#x163;" horiz-adv-x="365" 
d="M247 -9q-91 0 -132.5 50t-28.5 133l38 236h-95l12 78h95l23 147h101l-23 -147h151l-12 -78h-151l-37 -228q-9 -57 12.5 -82t67.5 -25q17 0 31 3t27 8l8 -77q-15 -8 -39.5 -13t-47.5 -5zM171 -194q-27 0 -52 5.5t-41 15.5l20 49q17 -8 33.5 -12t38.5 -4q28 0 44 9t16 26
q0 24 -35 24q-10 0 -20 -1.5t-25 -5.5l-16 16l29 92h58l-20 -60h14q36 0 57.5 -16.5t21.5 -47.5q0 -41 -35 -65.5t-88 -24.5z" />
    <glyph glyph-name="Tcaron" unicode="&#x164;" horiz-adv-x="611" 
d="M215 0l98 618h-249l13 87h603l-14 -87h-249l-99 -618h-103zM342 765l-106 173h70l84 -112l107 112h76l-141 -173h-90z" />
    <glyph glyph-name="tcaron" unicode="&#x165;" horiz-adv-x="365" 
d="M247 -9q-91 0 -132.5 50t-28.5 133l38 236h-95l12 78h95l23 147h101l-23 -147h151l-12 -78h-151l-37 -228q-9 -57 12.5 -82t67.5 -25q17 0 31 3t27 8l8 -77q-15 -8 -39.5 -13t-47.5 -5zM306.44 538.033l28.5596 166.527h72.875l-53.1787 -166.527h-48.2559z" />
    <glyph glyph-name="Tbar" unicode="&#x166;" horiz-adv-x="611" 
d="M215 0l98 618h-249l13 87h603l-14 -87h-249l-99 -618h-103zM126 319l12 77h384l-13 -77h-383z" />
    <glyph glyph-name="tbar" unicode="&#x167;" horiz-adv-x="365" 
d="M247 -9q-91 0 -132.5 50t-28.5 133l38 236h-95l12 78h95l23 147h101l-23 -147h151l-12 -78h-151l-37 -228q-9 -57 12.5 -82t67.5 -25q17 0 31 3t27 8l8 -77q-15 -8 -39.5 -13t-47.5 -5zM24 232l11 64h289l-11 -64h-289z" />
    <glyph glyph-name="Utilde" unicode="&#x168;" horiz-adv-x="732" 
d="M339 -9q-90 0 -152.5 34t-89.5 103t-10 174l63 403h104l-65 -412q-34 -212 156 -212q91 0 143 46t68 148l68 430h103l-68 -431q-22 -140 -99 -211.5t-221 -71.5zM285 778l-53 3q12 68 46.5 104t86.5 36q29 0 54.5 -12.5t49.5 -26.5q20 -13 38.5 -22.5t36.5 -9.5
q57 0 76 75l53 -4q-11 -67 -46 -103.5t-86 -36.5q-30 0 -55 13t-49 27q-20 12 -38.5 22t-36.5 10q-58 0 -77 -75z" />
    <glyph glyph-name="utilde" unicode="&#x169;" horiz-adv-x="569" 
d="M205 -9q-78 0 -119.5 49.5t-24.5 154.5l46 293h101l-46 -293q-20 -123 79 -123q64 0 103 41.5t50 111.5l41 263h101l-77 -488h-98l12 80q-26 -43 -69.5 -66t-98.5 -23zM202 588l-53 4q9 67 41.5 103.5t79.5 36.5q28 0 47 -14t36 -29q13 -11 26 -20t29 -9q51 0 68 75
l54 -3q-10 -68 -42 -104t-79 -36q-28 0 -47.5 13.5t-35.5 28.5q-14 11 -27 20t-29 9q-51 0 -68 -75z" />
    <glyph glyph-name="Umacron" unicode="&#x16a;" horiz-adv-x="732" 
d="M339 -9q-90 0 -152.5 34t-89.5 103t-10 174l63 403h104l-65 -412q-34 -212 156 -212q91 0 143 46t68 148l68 430h103l-68 -431q-22 -140 -99 -211.5t-221 -71.5zM289 811l9 63h335l-9 -63h-335z" />
    <glyph glyph-name="umacron" unicode="&#x16b;" horiz-adv-x="569" 
d="M205 -9q-78 0 -119.5 49.5t-24.5 154.5l46 293h101l-46 -293q-20 -123 79 -123q64 0 103 41.5t50 111.5l41 263h101l-77 -488h-98l12 80q-26 -43 -69.5 -66t-98.5 -23zM189 622l10 64h305l-10 -64h-305z" />
    <glyph glyph-name="Ubreve" unicode="&#x16c;" horiz-adv-x="732" 
d="M339 -9q-90 0 -152.5 34t-89.5 103t-10 174l63 403h104l-65 -412q-34 -212 156 -212q91 0 143 46t68 148l68 430h103l-68 -431q-22 -140 -99 -211.5t-221 -71.5zM452 760q-73 0 -118 46.5t-43 122.5l60 8q-2 -54 26.5 -83.5t78.5 -29.5t83 29.5t42 83.5l60 -8
q-12 -78 -64 -123.5t-125 -45.5z" />
    <glyph glyph-name="ubreve" unicode="&#x16d;" horiz-adv-x="569" 
d="M205 -9q-78 0 -119.5 49.5t-24.5 154.5l46 293h101l-46 -293q-20 -123 79 -123q64 0 103 41.5t50 111.5l41 263h101l-77 -488h-98l12 80q-26 -43 -69.5 -66t-98.5 -23zM338 551q-69 0 -109.5 51.5t-35.5 139.5l60 6q-3 -64 21 -98.5t68 -34.5t73 34.5t37 98.5l60 -6
q-11 -89 -57.5 -140t-116.5 -51z" />
    <glyph glyph-name="Uring" unicode="&#x16e;" horiz-adv-x="732" 
d="M339 -9q-90 0 -152.5 34t-89.5 103t-10 174l63 403h104l-65 -412q-34 -212 156 -212q91 0 143 46t68 148l68 430h103l-68 -431q-22 -140 -99 -211.5t-221 -71.5zM463 756q-51 0 -86.5 35t-35.5 85t35.5 84t86.5 34q52 0 87 -34t35 -84t-35 -85t-87 -35zM463 806
q30 0 49.5 20t19.5 50q0 29 -19.5 48.5t-49.5 19.5t-49.5 -19.5t-19.5 -48.5q0 -30 19.5 -50t49.5 -20z" />
    <glyph glyph-name="uring" unicode="&#x16f;" horiz-adv-x="569" 
d="M205 -9q-78 0 -119.5 49.5t-24.5 154.5l46 293h101l-46 -293q-20 -123 79 -123q64 0 103 41.5t50 111.5l41 263h101l-77 -488h-98l12 80q-26 -43 -69.5 -66t-98.5 -23zM348 547q-51 0 -86.5 34.5t-35.5 84.5t35.5 84.5t86.5 34.5q52 0 87 -34.5t35 -84.5t-35 -84.5
t-87 -34.5zM348 597q30 0 49.5 20t19.5 49q0 30 -19.5 49.5t-49.5 19.5t-49 -19.5t-19 -49.5q0 -29 19 -49t49 -20z" />
    <glyph glyph-name="Uhungarumlaut" unicode="&#x170;" horiz-adv-x="732" 
d="M339 -9q-90 0 -152.5 34t-89.5 103t-10 174l63 403h104l-65 -412q-34 -212 156 -212q91 0 143 46t68 148l68 430h103l-68 -431q-22 -140 -99 -211.5t-221 -71.5zM353 765l100 173h94l-137 -173h-57zM488 765l107 173h94l-143 -173h-58z" />
    <glyph glyph-name="uhungarumlaut" unicode="&#x171;" horiz-adv-x="569" 
d="M205 -9q-78 0 -119.5 49.5t-24.5 154.5l46 293h101l-46 -293q-20 -123 79 -123q64 0 103 41.5t50 111.5l41 263h101l-77 -488h-98l12 80q-26 -43 -69.5 -66t-98.5 -23zM370 554l70 202h88l-103 -202h-55zM233 554l70 202h88l-104 -202h-54z" />
    <glyph glyph-name="Uogonek" unicode="&#x172;" horiz-adv-x="732" 
d="M339 -9q-90 0 -152.5 34t-89.5 103t-10 174l63 403h104l-65 -412q-34 -212 156 -212q91 0 143 46t68 148l68 430h103l-68 -431q-22 -140 -99 -211.5t-221 -71.5zM359 -194q-49 0 -75 25.5t-26 66.5q0 47 31 84.5t78 56.5l29 -39q-37 -15 -54 -38.5t-17 -47.5
q0 -22 14 -36t38 -14t54 12l11 -54q-20 -7 -40 -11.5t-43 -4.5z" />
    <glyph glyph-name="uogonek" unicode="&#x173;" horiz-adv-x="569" 
d="M205 -9q-78 0 -119.5 49.5t-24.5 154.5l46 293h101l-46 -293q-20 -123 79 -123q64 0 103 41.5t50 111.5l41 263h101l-77 -488h-98l12 80q-26 -43 -69.5 -66t-98.5 -23zM397 -194q-49 0 -75 25.5t-26 66.5q0 47 31 84.5t78 56.5l29 -39q-37 -15 -54 -38.5t-17 -47.5
q0 -22 14 -36t38 -14t54 12l11 -54q-20 -7 -40 -11.5t-43 -4.5z" />
    <glyph glyph-name="Wcircumflex" unicode="&#x174;" horiz-adv-x="1107" 
d="M235 0l-136 705h101l101 -555l282 555h79l103 -561l282 561h107l-361 -705h-87l-104 547l-280 -547h-87zM459 765l140 173h90l107 -173h-74l-82 112l-109 -112h-72z" />
    <glyph glyph-name="wcircumflex" unicode="&#x175;" horiz-adv-x="846" 
d="M164 0l-109 488h98l73 -368l193 368h77l75 -374l193 374h105l-264 -488h-92l-74 349l-184 -349h-91zM306 553l131 202h91l89 -202h-66l-73 140l-105 -140h-67z" />
    <glyph glyph-name="Ycircumflex" unicode="&#x176;" horiz-adv-x="606" 
d="M212 0l53 328l-211 377h113l158 -285l248 285h124l-329 -375l-53 -330h-103zM202 765l140 173h90l107 -173h-74l-82 112l-109 -112h-72z" />
    <glyph glyph-name="ycircumflex" unicode="&#x177;" horiz-adv-x="520" 
d="M55 -180l116 193l-129 475h103l91 -371l212 371h108l-397 -668h-104zM138 553l131 202h91l89 -202h-66l-73 140l-105 -140h-67z" />
    <glyph glyph-name="Ydieresis" unicode="&#x178;" horiz-adv-x="606" 
d="M212 0l53 328l-211 377h113l158 -285l248 285h124l-329 -375l-53 -330h-103zM422 799l17 99h98l-15 -99h-100zM242 799l16 99h99l-16 -99h-99z" />
    <glyph glyph-name="Zacute" unicode="&#x179;" horiz-adv-x="596" 
d="M9 0l12 76l469 542h-383l14 87h512l-12 -76l-469 -542h399l-14 -87h-528zM345 765l131 173h111l-168 -173h-74z" />
    <glyph glyph-name="zacute" unicode="&#x17a;" horiz-adv-x="468" 
d="M14 0l11 66l313 345h-259l12 77h377l-11 -66l-315 -345h272l-13 -77h-387zM251 553l133 202h105l-168 -202h-70z" />
    <glyph glyph-name="Zdotaccent" unicode="&#x17b;" horiz-adv-x="596" 
d="M9 0l12 76l469 542h-383l14 87h512l-12 -76l-469 -542h399l-14 -87h-528zM336 801l15 101h104l-16 -101h-103z" />
    <glyph glyph-name="zdotaccent" unicode="&#x17c;" horiz-adv-x="468" 
d="M14 0l11 66l313 345h-259l12 77h377l-11 -66l-315 -345h272l-13 -77h-387zM241 603l16 101h105l-16 -101h-105z" />
    <glyph glyph-name="Zcaron" unicode="&#x17d;" horiz-adv-x="596" 
d="M9 0l12 76l469 542h-383l14 87h512l-12 -76l-469 -542h399l-14 -87h-528zM337 765l-106 173h70l84 -112l107 112h76l-141 -173h-90z" />
    <glyph glyph-name="zcaron" unicode="&#x17e;" horiz-adv-x="468" 
d="M14 0l11 66l313 345h-259l12 77h377l-11 -66l-315 -345h272l-13 -77h-387zM240 553l-89 202h66l73 -141l105 141h68l-131 -202h-92z" />
    <glyph glyph-name="uni0181" unicode="&#x181;" horiz-adv-x="817" 
d="M180 0l100 629h-31q-52 0 -80.5 -24t-37.5 -82l-7 -43h-86l8 55q14 86 63 128t150 42h310q113 0 165.5 -46t52.5 -120q0 -69 -38.5 -116t-104.5 -65q51 -17 79.5 -56t28.5 -93q0 -103 -66 -156t-186 -53h-320zM342 397h188q73 0 114.5 34t41.5 97q0 47 -32 72t-100 25
h-176zM292 80h205q77 0 115.5 34.5t38.5 99.5q0 51 -34 77t-98 26h-189z" />
    <glyph glyph-name="uni018A" unicode="&#x18a;" horiz-adv-x="887" 
d="M180 0l100 629h-31q-52 0 -80.5 -24t-37.5 -82l-7 -43h-86l8 55q14 86 63 128t150 42h248q164 0 252.5 -78t89.5 -220q0 -85 -24.5 -158.5t-74 -129.5t-125 -87.5t-177.5 -31.5h-268zM297 87h153q103 0 167 42.5t94 115t30 161.5q0 103 -59 157.5t-175 54.5h-126z" />
    <glyph glyph-name="uni018F" unicode="&#x18f;" horiz-adv-x="775" 
d="M369 -9q-83 0 -143.5 29.5t-97.5 81t-50.5 119t-0.5 143.5l5 33h546v11q0 100 -60 158t-166 58q-74 0 -132 -18.5t-110 -58.5l-35 82q111 85 293 85q94 0 166 -39t112 -108.5t40 -161.5q0 -87 -23.5 -162t-69.5 -132t-114.5 -88.5t-159.5 -31.5zM375 78q69 0 119.5 30
t81.5 83t43 121h-443q-4 -69 15.5 -122t65 -82.5t118.5 -29.5z" />
    <glyph glyph-name="florin" unicode="&#x192;" horiz-adv-x="600" 
d="M-33 -189l13 81h59q40 0 66 21.5t46 76.5l156 420h-115l12 78h132l20 53q30 89 81.5 131t144.5 42h54l-13 -82h-50q-46 0 -73 -21t-47 -77l-17 -46h120l-13 -78h-136l-160 -431q-24 -65 -53.5 -101.5t-71 -51.5t-100.5 -15h-55z" />
    <glyph glyph-name="Ohorn" unicode="&#x1a0;" horiz-adv-x="775" 
d="M374 -9q-91 0 -158.5 35.5t-105 103.5t-37.5 166q0 120 43 214.5t124.5 149t195.5 54.5q92 0 159.5 -35.5t104.5 -103.5t37 -165q0 -121 -43 -215.5t-124.5 -149t-195.5 -54.5zM376 81q81 0 137.5 42.5t85.5 116.5t29 168q0 110 -52 163t-143 53q-81 0 -137 -42t-85 -116
t-29 -168q0 -110 51.5 -163.5t142.5 -53.5zM531 649l-40 60q24 -2 42 -3t35 -1q59 0 84.5 25t35.5 85l3 18h89l-5 -32q-11 -68 -52 -110t-111 -42h-81z" />
    <glyph glyph-name="ohorn" unicode="&#x1a1;" horiz-adv-x="565" 
d="M261 -9q-103 0 -161.5 58.5t-58.5 158.5q0 85 34 150t93.5 102t135.5 37q103 0 161.5 -58.5t58.5 -158.5q0 -85 -34 -150.5t-93.5 -102t-135.5 -36.5zM263 69q51 0 86.5 29t54 77.5t18.5 107.5q0 66 -32 100.5t-88 34.5q-51 0 -86.5 -28.5t-54 -77t-18.5 -108.5
q0 -66 32 -100.5t88 -34.5zM421 431l-53 36l4 21q59 0 84 25t36 85l2 18h90l-6 -36q-10 -66 -50.5 -105t-106.5 -44z" />
    <glyph glyph-name="Uhorn" unicode="&#x1af;" horiz-adv-x="732" 
d="M339 -9q-90 0 -152.5 34t-89.5 103t-10 174l63 403h104l-65 -412q-34 -212 156 -212q91 0 143 46t68 148l68 430h103l-68 -431q-22 -140 -99 -211.5t-221 -71.5zM694 649l-51 35l3 21q59 1 84.5 25t35.5 84l3 19h89l-5 -33q-10 -66 -51.5 -106t-107.5 -45z" />
    <glyph glyph-name="uhorn" unicode="&#x1b0;" horiz-adv-x="569" 
d="M205 -9q-78 0 -119.5 49.5t-24.5 154.5l46 293h101l-46 -293q-20 -123 79 -123q64 0 103 41.5t50 111.5l41 263h101l-77 -488h-98l12 80q-26 -43 -69.5 -66t-98.5 -23zM507 431l-53 36l4 21q59 0 84 25t36 85l2 18h90l-6 -36q-10 -66 -50.5 -105t-106.5 -44z" />
    <glyph glyph-name="uni01B3" unicode="&#x1b3;" horiz-adv-x="616" 
d="M212 0l53 328l-211 377h113l158 -285l185 210q41 48 78 66t88 18q19 0 37 -2.5t31 -7.5l-13 -74q-18 7 -47 7q-25 0 -46 -12t-45 -39l-225 -256l-53 -330h-103z" />
    <glyph glyph-name="uni01B4" unicode="&#x1b4;" horiz-adv-x="560" 
d="M390 386q34 60 73 85.5t101 25.5q44 0 67 -10l-26 -77q-8 4 -18 5t-18 1q-30 0 -52.5 -16t-47.5 -58l-310 -522h-104l116 193l-129 475h103l91 -371z" />
    <glyph glyph-name="uni01C4" unicode="&#x1c4;" horiz-adv-x="1333" 
d="M44 0l112 705h215q164 0 253 -78t89 -220q0 -85 -24.5 -158.5t-74 -129.5t-125 -87.5t-177.5 -31.5h-268zM161 87h153q103 0 167 42.5t94 115t30 161.5q0 103 -58.5 157.5t-175.5 54.5h-126zM745 0l12 76l469 542h-383l14 87h512l-12 -76l-469 -542h399l-14 -87h-528z
M1073 765l-106 173h70l84 -112l107 112h76l-141 -173h-90z" />
    <glyph glyph-name="uni01C5" unicode="&#x1c5;" horiz-adv-x="1220" 
d="M44 0l112 705h215q164 0 253 -78t89 -220q0 -85 -24.5 -158.5t-74 -129.5t-125 -87.5t-177.5 -31.5h-268zM161 87h153q103 0 167 42.5t94 115t30 161.5q0 103 -58.5 157.5t-175.5 54.5h-126zM765 0l11 66l313 345h-259l12 77h377l-11 -66l-315 -345h272l-13 -77h-387z
M991 553l-89 202h66l73 -141l105 141h68l-131 -202h-92z" />
    <glyph glyph-name="uni01C6" unicode="&#x1c6;" horiz-adv-x="1059" 
d="M226 -9q-84 0 -135 56.5t-51 152.5q0 82 29 149.5t84 107.5t131 40q54 0 97 -25t63 -75l48 308h101l-112 -705h-99l13 80q-27 -42 -70.5 -65.5t-98.5 -23.5zM263 69q50 0 85.5 29t54 77.5t18.5 107.5q0 66 -32 100.5t-88 34.5q-51 0 -86.5 -28.5t-54 -77t-18.5 -108.5
q0 -66 32 -100.5t89 -34.5zM605 0l11 66l313 345h-259l12 77h377l-11 -66l-315 -345h272l-13 -77h-387zM831 553l-89 202h66l73 -141l105 141h68l-131 -202h-92z" />
    <glyph glyph-name="uni01C7" unicode="&#x1c7;" horiz-adv-x="929" 
d="M44 0l112 705h103l-98 -616h349l-14 -89h-452zM553 -8l1 85l65 4q100 7 118 120l80 504h103l-82 -514q-14 -91 -63.5 -140t-149.5 -55z" />
    <glyph glyph-name="uni01C8" unicode="&#x1c8;" horiz-adv-x="798" 
d="M44 0l112 705h103l-98 -616h349l-14 -89h-452zM674 601l17 105h117l-17 -105h-117zM446 -193l-6 76l45 4q86 6 101 102l79 499h101l-78 -491q-14 -92 -60.5 -136.5t-137.5 -50.5z" />
    <glyph glyph-name="uni01C9" unicode="&#x1c9;" horiz-adv-x="553" 
d="M193 -9q-79 0 -113.5 44.5t-21.5 130.5l86 539h101l-86 -538q-7 -49 9 -71t57 -22q11 0 22.5 1.5t23.5 3.5l-15 -80q-14 -4 -31 -6t-32 -2zM428 601l17 105h117l-17 -105h-117zM200 -193l-6 76l45 4q86 6 101 102l79 499h101l-78 -491q-14 -92 -60.5 -136.5t-137.5 -50.5
z" />
    <glyph glyph-name="uni01CA" unicode="&#x1ca;" horiz-adv-x="1080" 
d="M44 0l112 705h78l317 -544l86 544h96l-112 -705h-77l-318 544l-86 -544h-96zM704 -8l1 85l65 4q100 7 118 120l80 504h103l-82 -514q-14 -91 -63.5 -140t-149.5 -55z" />
    <glyph glyph-name="uni01CB" unicode="&#x1cb;" horiz-adv-x="989" 
d="M44 0l112 705h78l317 -544l86 544h96l-112 -705h-77l-318 544l-86 -544h-96zM865 601l17 105h117l-17 -105h-117zM637 -193l-6 76l45 4q86 6 101 102l79 499h101l-78 -491q-14 -92 -60.5 -136.5t-137.5 -50.5z" />
    <glyph glyph-name="uni01CC" unicode="&#x1cc;" horiz-adv-x="822" 
d="M32 0l78 488h98l-13 -82q27 44 71 67.5t102 23.5q80 0 121.5 -49.5t25.5 -153.5l-46 -294h-101l46 292q20 124 -82 124q-67 0 -106.5 -41.5t-50.5 -111.5l-42 -263h-101zM698 601l17 105h117l-17 -105h-117zM470 -193l-6 76l45 4q86 6 101 102l79 499h101l-78 -491
q-14 -92 -60.5 -136.5t-137.5 -50.5z" />
    <glyph glyph-name="uni01CD" unicode="&#x1cd;" horiz-adv-x="736" 
d="M-28 0l427 705h86l202 -705h-100l-45 172h-358l-101 -172h-111zM429 590l-196 -334h286l-88 334h-2zM407 765l-106 173h70l84 -112l107 112h76l-141 -173h-90z" />
    <glyph glyph-name="uni01CE" unicode="&#x1ce;" horiz-adv-x="537" 
d="M196 -9q-43 0 -80 19.5t-59 53t-22 75.5q0 77 66 112t209 35h69l4 24q9 53 -15 81t-83 28q-89 0 -167 -51l-25 72q37 26 92.5 41.5t111.5 15.5q109 0 151.5 -59.5t27.5 -153.5l-45 -284h-95l11 75q-25 -44 -65.5 -64t-85.5 -20zM225 63q51 0 90.5 33.5t48.5 93.5l5 34
h-50q-104 0 -144 -17t-40 -62q0 -40 26.5 -61t63.5 -21zM272 553l-89 202h66l73 -141l105 141h68l-131 -202h-92z" />
    <glyph glyph-name="uni01D4" unicode="&#x1d4;" horiz-adv-x="569" 
d="M205 -9q-78 0 -119.5 49.5t-24.5 154.5l46 293h101l-46 -293q-20 -123 79 -123q64 0 103 41.5t50 111.5l41 263h101l-77 -488h-98l12 80q-26 -43 -69.5 -66t-98.5 -23zM284 554l-89 202h66l73 -141l105 141h68l-131 -202h-92z" />
    <glyph glyph-name="uni01E5" unicode="&#x1e5;" horiz-adv-x="594" 
d="M240 -189q-137 0 -223 65l38 71q42 -30 85 -44t95 -14q84 0 123 52h-108l10 66h127q1 4 2 11l18 114q-26 -43 -72 -67.5t-102 -24.5q-59 0 -101.5 25t-65.5 68t-23 98q0 72 31.5 132.5t87.5 97t130 36.5q56 0 98 -24.5t59 -72.5l15 88h98l-73 -461q-1 -7 -4 -20h64
l-10 -66h-75q-58 -130 -224 -130zM267 118q49 0 85.5 25t57 66.5t20.5 91.5q0 54 -32 85.5t-90 31.5q-49 0 -85.5 -24.5t-57 -66t-20.5 -91.5q0 -54 32.5 -86t89.5 -32z" />
    <glyph glyph-name="Gcaron" unicode="&#x1e6;" horiz-adv-x="731" 
d="M394 -9q-98 0 -170 35t-111.5 104t-39.5 169q0 122 45.5 215.5t130 146.5t203.5 53q78 0 139 -23t99 -62l-44 -82q-83 76 -200 76q-83 0 -142 -41t-90.5 -113t-31.5 -166q0 -114 58 -168t167 -54q38 0 72.5 6t65.5 16l32 192h-172l12 78h259l-53 -338q-45 -21 -107 -32.5
t-122 -11.5zM408 765l-106 173h70l84 -112l107 112h76l-141 -173h-90z" />
    <glyph glyph-name="gcaron" unicode="&#x1e7;" horiz-adv-x="594" 
d="M252 -189q-70 0 -126.5 18.5t-100.5 50.5l32 72q44 -29 86 -46t95 -17q63 0 101.5 30t49.5 95l13 83q-27 -41 -70 -63t-96 -22q-88 0 -141.5 53.5t-53.5 146.5q0 75 29.5 140t85 105t132.5 40q55 0 98 -24.5t63 -73.5l14 89h98l-74 -469q-33 -208 -235 -208zM264 91
q52 0 88 28t55 74t19 100q1 59 -31.5 92t-91.5 33q-51 0 -87 -28t-54.5 -74t-18.5 -99q0 -60 32 -93t89 -33zM297 553l-89 202h66l73 -141l105 141h68l-131 -202h-92z" />
    <glyph glyph-name="uni01E9" unicode="&#x1e9;" horiz-adv-x="516" 
d="M33 0l111 705h101l-68 -430h2l243 213h124l-269 -240l214 -248h-119l-201 227h-2l-35 -227h-101zM325 765l-106 173h70l84 -112l107 112h76l-141 -173h-90z" />
    <glyph glyph-name="uni01EA" unicode="&#x1ea;" horiz-adv-x="775" 
d="M374 -9q-91 0 -158.5 35.5t-105 103.5t-37.5 166q0 120 43 214.5t124.5 149t195.5 54.5q92 0 159.5 -35.5t104.5 -103.5t37 -165q0 -121 -43 -215.5t-124.5 -149t-195.5 -54.5zM376 81q81 0 137.5 42.5t85.5 116.5t29 168q0 110 -52 163t-143 53q-81 0 -137 -42t-85 -116
t-29 -168q0 -110 51.5 -163.5t142.5 -53.5zM383 -194q-49 0 -75 25.5t-26 66.5q0 47 31 84.5t78 56.5l29 -39q-37 -15 -54 -38.5t-17 -47.5q0 -22 14 -36t38 -14t54 12l11 -54q-20 -7 -40 -11.5t-43 -4.5z" />
    <glyph glyph-name="uni01EB" unicode="&#x1eb;" horiz-adv-x="565" 
d="M261 -9q-103 0 -161.5 58.5t-58.5 158.5q0 85 34 150t93.5 102t135.5 37q103 0 161.5 -58.5t58.5 -158.5q0 -85 -34 -150.5t-93.5 -102t-135.5 -36.5zM263 69q51 0 86.5 29t54 77.5t18.5 107.5q0 66 -32 100.5t-88 34.5q-51 0 -86.5 -28.5t-54 -77t-18.5 -108.5
q0 -66 32 -100.5t88 -34.5zM278 -194q-49 0 -75 25.5t-26 66.5q0 47 31 84.5t78 56.5l29 -39q-37 -15 -54 -38.5t-17 -47.5q0 -22 14 -36t38 -14t54 12l11 -54q-20 -7 -40 -11.5t-43 -4.5z" />
    <glyph glyph-name="uni01EF" unicode="&#x1ef;" horiz-adv-x="504" 
d="M189 -189q-66 0 -126 17t-108 54l40 67q40 -32 85 -46t100 -14q76 0 116.5 39t40.5 108q0 47 -33 77t-98 30h-100l8 49l233 215h-292l13 81h410l-12 -69l-223 -204h7q60 0 102 -24t63.5 -63.5t21.5 -87.5q0 -66 -29 -118t-84.5 -81.5t-134.5 -29.5zM245 553l-89 202h66
l73 -141l105 141h68l-131 -202h-92z" />
    <glyph glyph-name="Aringacute" unicode="&#x1fa;" horiz-adv-x="736" 
d="M-28 0l427 705h86l202 -705h-100l-45 172h-358l-101 -172h-111zM429 590l-196 -334h286l-88 334h-2zM452 756q-49 0 -83.5 34t-34.5 82q0 49 34.5 82t83.5 33q36 0 65 -18l68 63h89l-120 -102q17 -25 17 -58q0 -48 -34.5 -82t-84.5 -34zM452 803q30 0 49.5 19.5
t19.5 49.5q0 29 -19.5 49t-49.5 20t-49 -20t-19 -49q0 -30 19 -49.5t49 -19.5z" />
    <glyph glyph-name="aringacute" unicode="&#x1fb;" horiz-adv-x="537" 
d="M196 -9q-43 0 -80 19.5t-59 53t-22 75.5q0 77 66 112t209 35h69l4 24q9 53 -15 81t-83 28q-89 0 -167 -51l-25 72q37 26 92.5 41.5t111.5 15.5q109 0 151.5 -59.5t27.5 -153.5l-45 -284h-95l11 75q-25 -44 -65.5 -64t-85.5 -20zM225 63q51 0 90.5 33.5t48.5 93.5l5 34
h-50q-104 0 -144 -17t-40 -62q0 -40 26.5 -61t63.5 -21zM333 543q-50 0 -84 33t-34 82q0 48 34 81.5t84 33.5q18 0 34.5 -5t30.5 -14l68 63h89l-119 -101q15 -27 15 -58q0 -49 -34 -82t-84 -33zM333 589q30 0 49.5 19.5t19.5 49.5t-19.5 49t-49.5 19t-49.5 -19t-19.5 -49
t19.5 -49.5t49.5 -19.5z" />
    <glyph glyph-name="AEacute" unicode="&#x1fc;" horiz-adv-x="987" 
d="M-64 0l545 705h528l-14 -84h-413l13 -221h344l-13 -84h-327l12 -232h300l-14 -84h-372l-9 172h-336l-130 -172h-114zM491 587l-249 -331h270l-19 331h-2zM520 765l131 173h111l-168 -173h-74z" />
    <glyph glyph-name="aeacute" unicode="&#x1fd;" horiz-adv-x="863" 
d="M212 -9q-46 0 -86.5 17t-65.5 50t-25 81q0 77 66 111.5t209 34.5h70l3 19q18 113 -98 113q-91 0 -166 -50l-26 73q37 26 92.5 41.5t111.5 15.5q118 0 154 -83q33 39 79 61t103 22q77 0 123 -35t63 -91.5t7 -121.5l-4 -26h-357q-5 -71 32.5 -112.5t111.5 -41.5q46 0 85 13
t71 41l28 -68q-34 -31 -85.5 -47.5t-106.5 -16.5q-73 0 -124.5 29t-75.5 82q-28 -57 -78.5 -84t-110.5 -27zM631 426q-46 0 -78 -20.5t-51 -52.5t-27 -68h271q4 59 -22.5 100t-92.5 41zM225 64q51 0 90 30.5t49 89.5l6 39h-51q-103 0 -143.5 -17t-40.5 -61q0 -39 26.5 -60
t63.5 -21zM416 553l133 202h105l-168 -202h-70z" />
    <glyph glyph-name="Oslashacute" unicode="&#x1fe;" horiz-adv-x="775" 
d="M374 -9q-91 0 -158.5 35.5t-105 103.5t-37.5 166q0 120 43 214.5t124.5 149t195.5 54.5q92 0 159.5 -35.5t104.5 -103.5t37 -165q0 -121 -43 -215.5t-124.5 -149t-195.5 -54.5zM376 81q81 0 137.5 42.5t85.5 116.5t29 168q0 110 -52 163t-143 53q-81 0 -137 -42t-85 -116
t-29 -168q0 -110 51.5 -163.5t142.5 -53.5zM155 -45l-59 43l75 100l32 44l344 464l33 45l75 99l59 -42l-75 -101l-32 -44l-344 -464l-33 -44zM422 765l131 173h111l-168 -173h-74z" />
    <glyph glyph-name="oslashacute" unicode="&#x1ff;" horiz-adv-x="565" 
d="M109 -45l-48 35l41 57q-61 58 -61 162q0 84 34 149t93.5 102t135.5 37q64 0 112 -24l42 58l48 -34l-42 -57q60 -59 60 -160q0 -85 -34 -150.5t-93.5 -102t-135.5 -36.5q-62 0 -110 22zM135 204q0 -53 20 -86l213 290q-28 15 -68 15q-53 0 -90 -28.5t-56 -78.5t-19 -112z
M265 64q52 0 89 29t56.5 79t19.5 113q0 49 -19 82l-212 -289q27 -14 66 -14zM299 553l133 202h105l-168 -202h-70z" />
    <glyph glyph-name="uni0200" unicode="&#x200;" horiz-adv-x="736" 
d="M-28 0l427 705h86l202 -705h-100l-45 172h-358l-101 -172h-111zM429 590l-196 -334h286l-88 334h-2zM491 765l-107 173h94l71 -173h-58zM356 765l-114 173h93l78 -173h-57z" />
    <glyph glyph-name="uni0201" unicode="&#x201;" horiz-adv-x="537" 
d="M196 -9q-43 0 -80 19.5t-59 53t-22 75.5q0 77 66 112t209 35h69l4 24q9 53 -15 81t-83 28q-89 0 -167 -51l-25 72q37 26 92.5 41.5t111.5 15.5q109 0 151.5 -59.5t27.5 -153.5l-45 -284h-95l11 75q-25 -44 -65.5 -64t-85.5 -20zM225 63q51 0 90.5 33.5t48.5 93.5l5 34
h-50q-104 0 -144 -17t-40 -62q0 -40 26.5 -61t63.5 -21zM360 553l-67 202h87l35 -202h-55zM223 553l-68 202h89l34 -202h-55z" />
    <glyph glyph-name="uni0202" unicode="&#x202;" horiz-adv-x="736" 
d="M-28 0l427 705h86l202 -705h-100l-45 172h-358l-101 -172h-111zM429 590l-196 -334h286l-88 334h-2zM332 760l-59 8q12 78 63.5 123.5t125.5 45.5q73 0 117.5 -46.5t43.5 -122.5l-60 -8q1 54 -27.5 84t-78.5 30q-49 0 -82 -30t-43 -84z" />
    <glyph glyph-name="uni0203" unicode="&#x203;" horiz-adv-x="537" 
d="M196 -9q-43 0 -80 19.5t-59 53t-22 75.5q0 77 66 112t209 35h69l4 24q9 53 -15 81t-83 28q-89 0 -167 -51l-25 72q37 26 92.5 41.5t111.5 15.5q109 0 151.5 -59.5t27.5 -153.5l-45 -284h-95l11 75q-25 -44 -65.5 -64t-85.5 -20zM225 63q51 0 90.5 33.5t48.5 93.5l5 34
h-50q-104 0 -144 -17t-40 -62q0 -40 26.5 -61t63.5 -21zM213 550l-61 5q12 89 58.5 140.5t116.5 51.5q69 0 109.5 -51.5t35.5 -140.5l-60 -5q3 63 -21 98t-68 35t-73 -35t-37 -98z" />
    <glyph glyph-name="uni0204" unicode="&#x204;" horiz-adv-x="589" 
d="M44 0l112 705h456l-13 -84h-357l-35 -221h336l-13 -84h-336l-38 -232h357l-13 -84h-456zM449 765l-107 173h94l71 -173h-58zM314 765l-114 173h93l78 -173h-57z" />
    <glyph glyph-name="uni0205" unicode="&#x205;" horiz-adv-x="537" 
d="M275 -9q-108 0 -171 58.5t-63 159.5q0 80 33 145.5t92.5 104t138.5 38.5q78 0 123.5 -35.5t62.5 -93t8 -123.5l-3 -24h-359q-5 -70 33.5 -111t111.5 -41q45 0 84.5 13t71.5 41l28 -68q-34 -31 -85.5 -47.5t-105.5 -16.5zM304 426q-47 0 -79.5 -20.5t-51.5 -53t-27 -69.5
h274q5 60 -22 101.5t-94 41.5zM369 553l-67 202h87l35 -202h-55zM232 553l-68 202h89l34 -202h-55z" />
    <glyph glyph-name="uni0206" unicode="&#x206;" horiz-adv-x="589" 
d="M44 0l112 705h456l-13 -84h-357l-35 -221h336l-13 -84h-336l-38 -232h357l-13 -84h-456zM290 760l-59 8q12 78 63.5 123.5t125.5 45.5q73 0 117.5 -46.5t43.5 -122.5l-60 -8q1 54 -27.5 84t-78.5 30q-49 0 -82 -30t-43 -84z" />
    <glyph glyph-name="uni0207" unicode="&#x207;" horiz-adv-x="537" 
d="M275 -9q-108 0 -171 58.5t-63 159.5q0 80 33 145.5t92.5 104t138.5 38.5q78 0 123.5 -35.5t62.5 -93t8 -123.5l-3 -24h-359q-5 -70 33.5 -111t111.5 -41q45 0 84.5 13t71.5 41l28 -68q-34 -31 -85.5 -47.5t-105.5 -16.5zM304 426q-47 0 -79.5 -20.5t-51.5 -53t-27 -69.5
h274q5 60 -22 101.5t-94 41.5zM222 550l-61 5q12 89 58.5 140.5t116.5 51.5q69 0 109.5 -51.5t35.5 -140.5l-60 -5q3 63 -21 98t-68 35t-73 -35t-37 -98z" />
    <glyph glyph-name="uni0208" unicode="&#x208;" horiz-adv-x="268" 
d="M44 0l112 705h103l-112 -705h-103zM256 765l-107 173h94l71 -173h-58zM121 765l-114 173h93l78 -173h-57z" />
    <glyph glyph-name="uni0209" unicode="&#x209;" horiz-adv-x="243" 
d="M32 0l77 488h101l-77 -488h-101zM213 553l-67 202h87l35 -202h-55zM76 553l-68 202h89l34 -202h-55z" />
    <glyph glyph-name="uni020A" unicode="&#x20a;" horiz-adv-x="268" 
d="M44 0l112 705h103l-112 -705h-103zM97 760l-59 8q12 78 63.5 123.5t125.5 45.5q73 0 117.5 -46.5t43.5 -122.5l-60 -8q1 54 -27.5 84t-78.5 30q-49 0 -82 -30t-43 -84z" />
    <glyph glyph-name="uni020B" unicode="&#x20b;" horiz-adv-x="243" 
d="M32 0l77 488h101l-77 -488h-101zM66 550l-61 5q12 89 58.5 140.5t116.5 51.5q69 0 109.5 -51.5t35.5 -140.5l-60 -5q3 63 -21 98t-68 35t-73 -35t-37 -98z" />
    <glyph glyph-name="uni020C" unicode="&#x20c;" horiz-adv-x="775" 
d="M374 -9q-91 0 -158.5 35.5t-105 103.5t-37.5 166q0 120 43 214.5t124.5 149t195.5 54.5q92 0 159.5 -35.5t104.5 -103.5t37 -165q0 -121 -43 -215.5t-124.5 -149t-195.5 -54.5zM376 81q81 0 137.5 42.5t85.5 116.5t29 168q0 110 -52 163t-143 53q-81 0 -137 -42t-85 -116
t-29 -168q0 -110 51.5 -163.5t142.5 -53.5zM498 765l-107 173h94l71 -173h-58zM363 765l-114 173h93l78 -173h-57z" />
    <glyph glyph-name="uni020D" unicode="&#x20d;" horiz-adv-x="565" 
d="M261 -9q-103 0 -161.5 58.5t-58.5 158.5q0 85 34 150t93.5 102t135.5 37q103 0 161.5 -58.5t58.5 -158.5q0 -85 -34 -150.5t-93.5 -102t-135.5 -36.5zM263 69q51 0 86.5 29t54 77.5t18.5 107.5q0 66 -32 100.5t-88 34.5q-51 0 -86.5 -28.5t-54 -77t-18.5 -108.5
q0 -66 32 -100.5t88 -34.5zM376 553l-67 202h87l35 -202h-55zM239 553l-68 202h89l34 -202h-55z" />
    <glyph glyph-name="uni020E" unicode="&#x20e;" horiz-adv-x="775" 
d="M374 -9q-91 0 -158.5 35.5t-105 103.5t-37.5 166q0 120 43 214.5t124.5 149t195.5 54.5q92 0 159.5 -35.5t104.5 -103.5t37 -165q0 -121 -43 -215.5t-124.5 -149t-195.5 -54.5zM376 81q81 0 137.5 42.5t85.5 116.5t29 168q0 110 -52 163t-143 53q-81 0 -137 -42t-85 -116
t-29 -168q0 -110 51.5 -163.5t142.5 -53.5zM339 760l-59 8q12 78 63.5 123.5t125.5 45.5q73 0 117.5 -46.5t43.5 -122.5l-60 -8q1 54 -27.5 84t-78.5 30q-49 0 -82 -30t-43 -84z" />
    <glyph glyph-name="uni020F" unicode="&#x20f;" horiz-adv-x="565" 
d="M261 -9q-103 0 -161.5 58.5t-58.5 158.5q0 85 34 150t93.5 102t135.5 37q103 0 161.5 -58.5t58.5 -158.5q0 -85 -34 -150.5t-93.5 -102t-135.5 -36.5zM263 69q51 0 86.5 29t54 77.5t18.5 107.5q0 66 -32 100.5t-88 34.5q-51 0 -86.5 -28.5t-54 -77t-18.5 -108.5
q0 -66 32 -100.5t88 -34.5zM229 550l-61 5q12 89 58.5 140.5t116.5 51.5q69 0 109.5 -51.5t35.5 -140.5l-60 -5q3 63 -21 98t-68 35t-73 -35t-37 -98z" />
    <glyph glyph-name="uni0210" unicode="&#x210;" horiz-adv-x="677" 
d="M44 0l112 705h262q115 0 174 -51.5t59 -140.5q0 -94 -53.5 -147.5t-139.5 -67.5q25 -10 42.5 -32.5t30.5 -55.5l80 -210h-105l-82 217q-16 41 -40 57.5t-69 16.5h-122l-45 -291h-104zM206 369h186q75 0 116.5 35.5t41.5 100.5q0 58 -35 87.5t-110 29.5h-159zM453 765
l-107 173h94l71 -173h-58zM318 765l-114 173h93l78 -173h-57z" />
    <glyph glyph-name="uni0211" unicode="&#x211;" horiz-adv-x="373" 
d="M32 0l78 488h98l-13 -82q23 39 62.5 63t96.5 28l40 3l-1 -86l-67 -7q-74 -6 -107 -43t-43 -102l-42 -262h-102zM309 555l-67 202h87l35 -202h-55zM172 555l-68 202h89l34 -202h-55z" />
    <glyph glyph-name="uni0212" unicode="&#x212;" horiz-adv-x="677" 
d="M44 0l112 705h262q115 0 174 -51.5t59 -140.5q0 -94 -53.5 -147.5t-139.5 -67.5q25 -10 42.5 -32.5t30.5 -55.5l80 -210h-105l-82 217q-16 41 -40 57.5t-69 16.5h-122l-45 -291h-104zM206 369h186q75 0 116.5 35.5t41.5 100.5q0 58 -35 87.5t-110 29.5h-159zM294 760
l-59 8q12 78 63.5 123.5t125.5 45.5q73 0 117.5 -46.5t43.5 -122.5l-60 -8q1 54 -27.5 84t-78.5 30q-49 0 -82 -30t-43 -84z" />
    <glyph glyph-name="uni0213" unicode="&#x213;" horiz-adv-x="373" 
d="M32 0l78 488h98l-13 -82q23 39 62.5 63t96.5 28l40 3l-1 -86l-67 -7q-74 -6 -107 -43t-43 -102l-42 -262h-102zM162 552l-61 5q12 89 58.5 140.5t116.5 51.5q69 0 109.5 -51.5t35.5 -140.5l-60 -5q3 63 -21 98t-68 35t-73 -35t-37 -98z" />
    <glyph glyph-name="uni0214" unicode="&#x214;" horiz-adv-x="732" 
d="M339 -9q-90 0 -152.5 34t-89.5 103t-10 174l63 403h104l-65 -412q-34 -212 156 -212q91 0 143 46t68 148l68 430h103l-68 -431q-22 -140 -99 -211.5t-221 -71.5zM488 765l-107 173h94l71 -173h-58zM353 765l-114 173h93l78 -173h-57z" />
    <glyph glyph-name="uni0215" unicode="&#x215;" horiz-adv-x="569" 
d="M205 -9q-78 0 -119.5 49.5t-24.5 154.5l46 293h101l-46 -293q-20 -123 79 -123q64 0 103 41.5t50 111.5l41 263h101l-77 -488h-98l12 80q-26 -43 -69.5 -66t-98.5 -23zM372 554l-67 202h87l35 -202h-55zM235 554l-68 202h89l34 -202h-55z" />
    <glyph glyph-name="uni0216" unicode="&#x216;" horiz-adv-x="732" 
d="M339 -9q-90 0 -152.5 34t-89.5 103t-10 174l63 403h104l-65 -412q-34 -212 156 -212q91 0 143 46t68 148l68 430h103l-68 -431q-22 -140 -99 -211.5t-221 -71.5zM329 760l-59 8q12 78 63.5 123.5t125.5 45.5q73 0 117.5 -46.5t43.5 -122.5l-60 -8q1 54 -27.5 84t-78.5 30
q-49 0 -82 -30t-43 -84z" />
    <glyph glyph-name="uni0217" unicode="&#x217;" horiz-adv-x="569" 
d="M205 -9q-78 0 -119.5 49.5t-24.5 154.5l46 293h101l-46 -293q-20 -123 79 -123q64 0 103 41.5t50 111.5l41 263h101l-77 -488h-98l12 80q-26 -43 -69.5 -66t-98.5 -23zM225 551l-61 5q12 89 58.5 140.5t116.5 51.5q69 0 109.5 -51.5t35.5 -140.5l-60 -5q3 63 -21 98
t-68 35t-73 -35t-37 -98z" />
    <glyph glyph-name="uni0218" unicode="&#x218;" horiz-adv-x="622" 
d="M299 -9q-78 0 -149 20t-124 65l39 79q56 -43 116 -59.5t127 -16.5q75 0 120.5 30.5t45.5 82.5q0 37 -27 63t-93 40l-106 26q-71 17 -113.5 59.5t-42.5 117.5q0 67 37 115.5t98.5 74.5t135.5 26q67 0 133 -20.5t114 -65.5l-40 -77q-45 41 -99.5 58t-109.5 17
q-72 0 -119 -33t-47 -87q0 -45 24 -67.5t71 -33.5l106 -26q92 -20 136.5 -65.5t44.5 -109.5q0 -70 -38 -117.5t-101.5 -71.5t-138.5 -24zM257 -273l-33 32q22 18 31.5 35t14.5 38h-56l14 91h114l-12 -71q-6 -41 -22 -71t-51 -54z" />
    <glyph glyph-name="uni0219" unicode="&#x219;" horiz-adv-x="484" 
d="M224 -9q-60 0 -112.5 15.5t-87.5 43.5l35 67q36 -27 78.5 -40t87.5 -13q51 0 79 19.5t28 54.5q0 45 -60 59l-93 21q-53 11 -82.5 43.5t-29.5 79.5q0 44 25 79t71.5 56t112.5 21q49 0 96 -15.5t77 -44.5l-32 -66q-30 27 -67.5 39.5t-78.5 12.5q-52 0 -81.5 -21t-29.5 -56
q0 -21 13 -36.5t42 -21.5l93 -21q56 -13 86.5 -43.5t30.5 -78.5q0 -73 -55.5 -113.5t-145.5 -40.5zM175 -273l-33 32q22 18 31.5 35t14.5 38h-56l14 91h114l-12 -71q-6 -41 -22 -71t-51 -54z" />
    <glyph glyph-name="uni021A" unicode="&#x21a;" horiz-adv-x="611" 
d="M215 0l98 618h-249l13 87h603l-14 -87h-249l-99 -618h-103zM228 -273l-33 32q22 18 31.5 35t14.5 38h-56l14 91h114l-12 -71q-6 -41 -22 -71t-51 -54z" />
    <glyph glyph-name="uni021B" unicode="&#x21b;" horiz-adv-x="365" 
d="M247 -9q-91 0 -132.5 50t-28.5 133l38 236h-95l12 78h95l23 147h101l-23 -147h151l-12 -78h-151l-37 -228q-9 -57 12.5 -82t67.5 -25q17 0 31 3t27 8l8 -77q-15 -8 -39.5 -13t-47.5 -5zM152 -273l-33 32q22 18 31.5 35t14.5 38h-56l14 91h114l-12 -71q-6 -41 -22 -71
t-51 -54z" />
    <glyph glyph-name="uni021F" unicode="&#x21f;" horiz-adv-x="576" 
d="M32 0l112 705h101l-46 -294q26 42 69.5 64t99.5 22q80 0 121.5 -49.5t25.5 -153.5l-46 -294h-101l46 292q20 124 -82 124q-67 0 -106.5 -41.5t-50.5 -111.5l-42 -263h-101zM326 765l-106 173h70l84 -112l107 112h76l-141 -173h-90z" />
    <glyph glyph-name="uni0226" unicode="&#x226;" horiz-adv-x="736" 
d="M-28 0l427 705h86l202 -705h-100l-45 172h-358l-101 -172h-111zM429 590l-196 -334h286l-88 334h-2zM406 801l15 101h104l-16 -101h-103z" />
    <glyph glyph-name="uni0227" unicode="&#x227;" horiz-adv-x="537" 
d="M196 -9q-43 0 -80 19.5t-59 53t-22 75.5q0 77 66 112t209 35h69l4 24q9 53 -15 81t-83 28q-89 0 -167 -51l-25 72q37 26 92.5 41.5t111.5 15.5q109 0 151.5 -59.5t27.5 -153.5l-45 -284h-95l11 75q-25 -44 -65.5 -64t-85.5 -20zM225 63q51 0 90.5 33.5t48.5 93.5l5 34
h-50q-104 0 -144 -17t-40 -62q0 -40 26.5 -61t63.5 -21zM273 603l16 101h105l-16 -101h-105z" />
    <glyph glyph-name="uni0228" unicode="&#x228;" horiz-adv-x="589" 
d="M44 0l112 705h456l-13 -84h-357l-35 -221h336l-13 -84h-336l-38 -232h357l-13 -84h-456zM272 -194q-27 0 -52 5.5t-41 15.5l20 49q17 -8 33.5 -12t38.5 -4q28 0 44 9t16 26q0 24 -35 24q-10 0 -20 -1.5t-25 -5.5l-16 16l29 92h58l-20 -60h14q36 0 57.5 -16.5t21.5 -47.5
q0 -41 -35 -65.5t-88 -24.5z" />
    <glyph glyph-name="uni022A" unicode="&#x22a;" horiz-adv-x="775" 
d="M374 -9q-91 0 -158.5 35.5t-105 103.5t-37.5 166q0 120 43 214.5t124.5 149t195.5 54.5q92 0 159.5 -35.5t104.5 -103.5t37 -165q0 -121 -43 -215.5t-124.5 -149t-195.5 -54.5zM376 81q81 0 137.5 42.5t85.5 116.5t29 168q0 110 -52 163t-143 53q-81 0 -137 -42t-85 -116
t-29 -168q0 -110 51.5 -163.5t142.5 -53.5zM331 925l10 63h305l-10 -63h-305zM323 793l13 79h99l-13 -79h-99zM504 793l12 79h100l-13 -79h-99z" />
    <glyph glyph-name="uni022B" unicode="&#x22b;" horiz-adv-x="565" 
d="M261 -9q-103 0 -161.5 58.5t-58.5 158.5q0 85 34 150t93.5 102t135.5 37q103 0 161.5 -58.5t58.5 -158.5q0 -85 -34 -150.5t-93.5 -102t-135.5 -36.5zM263 69q51 0 86.5 29t54 77.5t18.5 107.5q0 66 -32 100.5t-88 34.5q-51 0 -86.5 -28.5t-54 -77t-18.5 -108.5
q0 -66 32 -100.5t88 -34.5zM206 707l10 64h305l-10 -64h-305zM197 576l13 79h99l-12 -79h-100zM378 576l12 79h100l-13 -79h-99z" />
    <glyph glyph-name="uni022C" unicode="&#x22c;" horiz-adv-x="775" 
d="M374 -9q-91 0 -158.5 35.5t-105 103.5t-37.5 166q0 120 43 214.5t124.5 149t195.5 54.5q92 0 159.5 -35.5t104.5 -103.5t37 -165q0 -121 -43 -215.5t-124.5 -149t-195.5 -54.5zM376 81q81 0 137.5 42.5t85.5 116.5t29 168q0 110 -52 163t-143 53q-81 0 -137 -42t-85 -116
t-29 -168q0 -110 51.5 -163.5t142.5 -53.5zM332 925l9 63h305l-9 -63h-305zM533 767q-21 0 -39.5 8.5t-35.5 18.5q-15 9 -28.5 15.5t-27.5 6.5q-42 0 -55 -50l-51 3q8 52 36.5 78t70.5 26q21 0 39 -8.5t35 -17.5q15 -8 29 -15t28 -7q42 0 55 50l51 -3q-9 -52 -37.5 -78.5
t-69.5 -26.5z" />
    <glyph glyph-name="uni022D" unicode="&#x22d;" horiz-adv-x="565" 
d="M261 -9q-103 0 -161.5 58.5t-58.5 158.5q0 85 34 150t93.5 102t135.5 37q103 0 161.5 -58.5t58.5 -158.5q0 -85 -34 -150.5t-93.5 -102t-135.5 -36.5zM263 69q51 0 86.5 29t54 77.5t18.5 107.5q0 66 -32 100.5t-88 34.5q-51 0 -86.5 -28.5t-54 -77t-18.5 -108.5
q0 -66 32 -100.5t88 -34.5zM205 707l10 64h305l-10 -64h-305zM221 549l-51 2q8 53 35 79t69 26q22 0 41.5 -9t37.5 -19q14 -8 27.5 -14.5t26.5 -6.5q43 0 55 50l51 -3q-8 -52 -35 -78t-69 -26q-21 0 -40 8t-36 18q-15 9 -29.5 15.5t-27.5 6.5q-43 0 -55 -49z" />
    <glyph glyph-name="uni0230" unicode="&#x230;" horiz-adv-x="775" 
d="M374 -9q-91 0 -158.5 35.5t-105 103.5t-37.5 166q0 120 43 214.5t124.5 149t195.5 54.5q92 0 159.5 -35.5t104.5 -103.5t37 -165q0 -121 -43 -215.5t-124.5 -149t-195.5 -54.5zM376 81q81 0 137.5 42.5t85.5 116.5t29 168q0 110 -52 163t-143 53q-81 0 -137 -42t-85 -116
t-29 -168q0 -110 51.5 -163.5t142.5 -53.5zM331 925l10 63h305l-10 -63h-305zM414 793l13 79h99l-13 -79h-99z" />
    <glyph glyph-name="uni0231" unicode="&#x231;" horiz-adv-x="565" 
d="M261 -9q-103 0 -161.5 58.5t-58.5 158.5q0 85 34 150t93.5 102t135.5 37q103 0 161.5 -58.5t58.5 -158.5q0 -85 -34 -150.5t-93.5 -102t-135.5 -36.5zM263 69q51 0 86.5 29t54 77.5t18.5 107.5q0 66 -32 100.5t-88 34.5q-51 0 -86.5 -28.5t-54 -77t-18.5 -108.5
q0 -66 32 -100.5t88 -34.5zM202 707l11 64h305l-11 -64h-305zM285 576l12 79h99l-12 -79h-99z" />
    <glyph glyph-name="uni0232" unicode="&#x232;" horiz-adv-x="606" 
d="M212 0l53 328l-211 377h113l158 -285l248 285h124l-329 -375l-53 -330h-103zM217 811l9 63h335l-9 -63h-335z" />
    <glyph glyph-name="uni0233" unicode="&#x233;" horiz-adv-x="520" 
d="M55 -180l116 193l-129 475h103l91 -371l212 371h108l-397 -668h-104zM156 621l10 64h305l-10 -64h-305z" />
    <glyph glyph-name="uni0237" unicode="&#x237;" horiz-adv-x="246" 
d="M-106 -193l-6 76l45 4q86 6 101 102l79 499h101l-78 -491q-14 -92 -60.5 -136.5t-137.5 -50.5z" />
    <glyph glyph-name="uni0253" unicode="&#x253;" horiz-adv-x="591" 
d="M306 -9q-55 0 -98 25t-63 77l-14 -93h-99l85 537q15 91 63.5 134t141.5 43q18 0 34.5 -3t28.5 -7l-24 -76q-12 4 -20 5t-18 1q-90 0 -105 -100l-19 -121q27 40 69.5 62t95.5 22q84 0 135 -56.5t51 -153.5q0 -81 -29 -148.5t-83.5 -107.5t-131.5 -40zM290 69q51 0 86 29
t53.5 77.5t18.5 107.5q0 66 -31.5 100.5t-88.5 34.5q-51 0 -86.5 -28.5t-54 -77t-18.5 -108.5q0 -66 32 -100.5t89 -34.5z" />
    <glyph glyph-name="uni0257" unicode="&#x257;" horiz-adv-x="591" 
d="M226 -9q-84 0 -135 56.5t-51 152.5q0 82 29 149.5t84 107.5t131 40q54 0 97 -25t63 -75l22 140q14 91 62.5 134t141.5 43q18 0 34.5 -3t28.5 -7l-24 -76q-12 4 -20 5t-18 1q-89 0 -105 -100l-85 -534h-99l13 80q-27 -42 -70.5 -65.5t-98.5 -23.5zM263 69q50 0 85.5 29
t54 77.5t18.5 107.5q0 66 -32 100.5t-88 34.5q-51 0 -86.5 -28.5t-54 -77t-18.5 -108.5q0 -66 32 -100.5t89 -34.5z" />
    <glyph glyph-name="uni0259" unicode="&#x259;" horiz-adv-x="537" 
d="M232 -9q-78 0 -124 35t-63.5 92t-7.5 123l4 25h359q5 70 -32 111t-110 41q-95 0 -158 -55l-29 70q35 31 87.5 47.5t106.5 16.5q107 0 169 -58.5t62 -158.5q0 -81 -33 -146.5t-92 -104t-139 -38.5zM234 62q47 0 79 20t50.5 53t26.5 69h-268q-5 -60 22 -101t90 -41z" />
    <glyph glyph-name="uni0292" unicode="&#x292;" horiz-adv-x="504" 
d="M189 -189q-66 0 -126 17t-108 54l40 67q40 -32 85 -46t100 -14q76 0 116.5 39t40.5 108q0 47 -33 77t-98 30h-100l8 49l233 215h-292l13 81h410l-12 -69l-223 -204h7q60 0 102 -24t63.5 -63.5t21.5 -87.5q0 -66 -29 -118t-84.5 -81.5t-134.5 -29.5z" />
    <glyph glyph-name="uni02B9" unicode="&#x2b9;" horiz-adv-x="231" 
d="M111 422l20 283h117l-69 -283h-68z" />
    <glyph glyph-name="uni02BA" unicode="&#x2ba;" horiz-adv-x="417" 
d="M110 422l20 283h118l-70 -283h-68zM296 422l20 283h118l-70 -283h-68z" />
    <glyph glyph-name="uni02BB" unicode="&#x2bb;" horiz-adv-x="500" 
d="M244 566l10 67q6 39 23.5 70.5t52.5 57.5l34 -30q-22 -20 -32.5 -37.5t-15.5 -36.5h55l-14 -91h-113z" />
    <glyph glyph-name="uni02BC" unicode="&#x2bc;" horiz-adv-x="336" 
d="M229 569l-38 29q20 18 29.5 35t12.5 34h-53l15 94h112l-10 -67q-7 -38 -21 -67.5t-47 -57.5z" />
    <glyph glyph-name="uni02BE" unicode="&#x2be;" horiz-adv-x="500" 
d="M298 553l8 49q26 -1 43 16.5t17 42.5q0 20 -11.5 33t-31.5 14l8 48q41 -3 65 -29t24 -63q0 -33 -17 -58.5t-45 -40t-60 -12.5z" />
    <glyph glyph-name="uni02BF" unicode="&#x2bf;" horiz-adv-x="500" 
d="M299 553q-40 3 -64 29t-24 64q0 32 16.5 57.5t44.5 40t60 12.5l-8 -48q-25 0 -42.5 -17.5t-17.5 -42.5q0 -20 11.5 -33t31.5 -14z" />
    <glyph glyph-name="circumflex" unicode="&#x2c6;" horiz-adv-x="500" 
d="M140 553l131 202h91l89 -202h-66l-73 140l-105 -140h-67z" />
    <glyph glyph-name="caron" unicode="&#x2c7;" horiz-adv-x="500" 
d="M253 553l-89 202h66l73 -141l105 141h68l-131 -202h-92z" />
    <glyph glyph-name="uni02C8" unicode="&#x2c8;" horiz-adv-x="500" 
d="M271 595l31 201h70l-31 -201h-70z" />
    <glyph glyph-name="uni02C9" unicode="&#x2c9;" horiz-adv-x="500" 
d="M158 621l9 64h305l-9 -64h-305z" />
    <glyph glyph-name="uni02CA" unicode="&#x2ca;" horiz-adv-x="500" 
d="M264 553l124 202h105l-159 -202h-70z" />
    <glyph glyph-name="fourthtofinechinese" unicode="&#x2cb;" horiz-adv-x="500" 
d="M262 553l-141 202h103l108 -202h-70z" />
    <glyph glyph-name="uni02CC" unicode="&#x2cc;" horiz-adv-x="500" 
d="M134 -270l31 202h70l-31 -202h-70z" />
    <glyph glyph-name="breve" unicode="&#x2d8;" horiz-adv-x="500" 
d="M307 550q-69 0 -109.5 51.5t-35.5 139.5l60 6q-3 -64 21 -98.5t68 -34.5t73 34.5t37 98.5l60 -6q-11 -89 -57.5 -140t-116.5 -51z" />
    <glyph glyph-name="dotaccent" unicode="&#x2d9;" horiz-adv-x="500" 
d="M254 603l16 101h105l-16 -101h-105z" />
    <glyph glyph-name="ring" unicode="&#x2da;" horiz-adv-x="500" 
d="M317 546q-51 0 -86.5 34.5t-35.5 84.5t35.5 84.5t86.5 34.5q52 0 87 -34.5t35 -84.5t-35 -84.5t-87 -34.5zM317 596q30 0 49.5 20t19.5 49q0 30 -19.5 49.5t-49.5 19.5t-49 -19.5t-19 -49.5q0 -29 19 -49t49 -20z" />
    <glyph glyph-name="ogonek" unicode="&#x2db;" horiz-adv-x="500" 
d="M174 -194q-49 0 -75 25.5t-26 66.5q0 47 31 84.5t78 56.5l29 -39q-37 -15 -54 -38.5t-17 -47.5q0 -22 14 -36t38 -14t54 12l11 -54q-20 -7 -40 -11.5t-43 -4.5z" />
    <glyph glyph-name="tilde" unicode="&#x2dc;" horiz-adv-x="500" 
d="M171 587l-53 4q9 67 41.5 103.5t79.5 36.5q28 0 47 -14t36 -29q13 -11 26 -20t29 -9q51 0 68 75l54 -3q-10 -68 -42 -104t-79 -36q-28 0 -47.5 13.5t-35.5 28.5q-14 11 -27 20t-29 9q-51 0 -68 -75z" />
    <glyph glyph-name="hungarumlaut" unicode="&#x2dd;" horiz-adv-x="500" 
d="M339 553l70 202h88l-103 -202h-55zM202 553l70 202h88l-104 -202h-54z" />
    <glyph glyph-name="gravecomb" unicode="&#x300;" 
d="M-26 553l-140 202h101l109 -202h-70z" />
    <glyph glyph-name="acutecomb" unicode="&#x301;" 
d="M-24 553l133 202h105l-168 -202h-70z" />
    <glyph glyph-name="uni0302" unicode="&#x302;" 
d="M-148 553l131 202h91l89 -202h-66l-73 140l-105 -140h-67z" />
    <glyph glyph-name="tildecomb" unicode="&#x303;" 
d="M-117 587l-53 4q9 67 41.5 103.5t79.5 36.5q28 0 47 -14t36 -29q13 -11 26 -20t29 -9q51 0 68 75l54 -3q-10 -68 -42 -104t-79 -36q-28 0 -47.5 13.5t-35.5 28.5q-14 11 -27 20t-29 9q-51 0 -68 -75z" />
    <glyph glyph-name="uni0304" unicode="&#x304;" 
d="M-130 621l10 64h305l-10 -64h-305z" />
    <glyph glyph-name="uni0306" unicode="&#x306;" 
d="M19 550q-69 0 -109.5 51.5t-35.5 139.5l60 6q-3 -64 21 -98.5t68 -34.5t73 34.5t37 98.5l60 -6q-11 -89 -57.5 -140t-116.5 -51z" />
    <glyph glyph-name="uni0307" unicode="&#x307;" 
d="M-34 603l16 101h105l-16 -101h-105z" />
    <glyph glyph-name="uni0308" unicode="&#x308;" 
d="M61 604l14 99h100l-16 -99h-98zM-120 604l15 99h99l-15 -99h-99z" />
    <glyph glyph-name="hookabovecomb" unicode="&#x309;" 
d="M-27 553l4 21q3 22 14 36.5t24 25.5t22.5 21.5t9.5 24.5q0 25 -42 25q-16 0 -31 -3.5t-33 -12.5l-12 48q41 23 101 23q45 0 70 -17t25 -47q0 -28 -11 -43.5t-26.5 -27t-29 -24.5t-17.5 -35l-3 -15h-65z" />
    <glyph glyph-name="uni030A" unicode="&#x30a;" 
d="M29 546q-51 0 -86.5 34.5t-35.5 84.5t35.5 84.5t86.5 34.5q52 0 87 -34.5t35 -84.5t-35 -84.5t-87 -34.5zM29 596q30 0 49.5 20t19.5 49q0 30 -19.5 49.5t-49.5 19.5t-49 -19.5t-19 -49.5q0 -29 19 -49t49 -20z" />
    <glyph glyph-name="uni030B" unicode="&#x30b;" 
d="M51 553l70 202h88l-103 -202h-55zM-86 553l70 202h88l-104 -202h-54z" />
    <glyph glyph-name="uni030C" unicode="&#x30c;" 
d="M-35 553l-89 202h66l73 -141l105 141h68l-131 -202h-92z" />
    <glyph glyph-name="uni030F" unicode="&#x30f;" 
d="M53 553l-67 202h87l35 -202h-55zM-84 553l-68 202h89l34 -202h-55z" />
    <glyph glyph-name="uni0311" unicode="&#x311;" 
d="M-94 550l-61 5q12 89 58.5 140.5t116.5 51.5q69 0 109.5 -51.5t35.5 -140.5l-60 -5q3 63 -21 98t-68 35t-73 -35t-37 -98z" />
    <glyph glyph-name="uni0312" unicode="&#x312;" 
d="M-43 566l11 71q7 41 22.5 71t51.5 53l33 -31q-23 -18 -32 -35t-14 -38h56l-15 -91h-113z" />
    <glyph glyph-name="uni031B" unicode="&#x31b;" 
d="M50 431l-53 36l4 21q59 0 84 25t36 85l2 18h90l-6 -36q-10 -66 -50.5 -105t-106.5 -44z" />
    <glyph glyph-name="dotbelowcomb" unicode="&#x323;" 
d="M-83 -195l16 101h105l-16 -101h-105z" />
    <glyph glyph-name="uni0324" unicode="&#x324;" 
d="M12 -186l15 98h100l-17 -98h-98zM-169 -186l16 98h99l-16 -98h-99z" />
    <glyph glyph-name="uni0326" unicode="&#x326;" 
d="M-40 -273l-33 32q22 18 31.5 35t14.5 38h-56l14 91h114l-12 -71q-6 -41 -22 -71t-51 -54z" />
    <glyph glyph-name="uni0327" unicode="&#x327;" 
d="M-21 -194q-27 0 -52 5.5t-41 15.5l20 49q17 -8 33.5 -12t38.5 -4q28 0 44 9t16 26q0 24 -35 24q-10 0 -20 -1.5t-25 -5.5l-16 16l29 92h58l-20 -60h14q36 0 57.5 -16.5t21.5 -47.5q0 -41 -35 -65.5t-88 -24.5z" />
    <glyph glyph-name="uni0328" unicode="&#x328;" 
d="M-37 -194q-49 0 -75 25.5t-26 66.5q0 47 31 84.5t78 56.5l29 -39q-37 -15 -54 -38.5t-17 -47.5q0 -22 14 -36t38 -14t54 12l11 -54q-20 -7 -40 -11.5t-43 -4.5z" />
    <glyph glyph-name="uni032E" unicode="&#x32e;" 
d="M-20 -215q-71 0 -112.5 40.5t-36.5 110.5l60 6q-2 -44 22.5 -69t68.5 -25t72 25t36 69l60 -6q-9 -70 -55 -110.5t-115 -40.5z" />
    <glyph glyph-name="uni0331" unicode="&#x331;" 
d="M-177 -160l10 64h305l-10 -64h-305z" />
    <glyph glyph-name="uni0335" unicode="&#x335;" 
d="M-196 528l11 73h382l-12 -73h-381z" />
    <glyph glyph-name="uni0337" unicode="&#x337;" 
d="M-135 248l-34 74l304 145l34 -73z" />
    <glyph glyph-name="uni0338" unicode="&#x338;" 
d="M-174 -42l-48 35l398 541l47 -34z" />
    <glyph glyph-name="uni0394" unicode="&#x394;" horiz-adv-x="736" 
d="M3 0l10 60l385 645h86l181 -645l-8 -60h-654zM426 589l-296 -505h433l-135 505h-2z" />
    <glyph glyph-name="Sigma" unicode="&#x3a3;" horiz-adv-x="600" 
d="M-26 -180l11 73l328 379l-211 360l12 73h518l-14 -87h-397l192 -326l-10 -59l-284 -326h387l-14 -87h-518z" />
    <glyph glyph-name="uni03A9" unicode="&#x3a9;" horiz-adv-x="788" 
d="M0 0l14 86h200q-72 60 -107.5 129.5t-35.5 142.5q0 109 46.5 189t131 123.5t199.5 43.5q90 0 161 -35t112 -97.5t41 -143.5q0 -121 -59.5 -209t-161.5 -143h182l-14 -86h-298l13 82q104 57 167 141t63 195q0 93 -56 149.5t-155 56.5q-85 0 -144 -34.5t-89.5 -95.5
t-30.5 -139q0 -72 33 -141t100 -132l-13 -82h-299z" />
    <glyph glyph-name="uni03BC" unicode="&#x3bc;" horiz-adv-x="569" 
d="M1 -180l106 668h101l-46 -293q-20 -123 79 -123q64 0 103 41.5t50 111.5l41 263h101l-77 -488h-98l13 86q-21 -46 -57.5 -70.5t-83.5 -24.5q-75 0 -104 52l-27 -223h-101z" />
    <glyph glyph-name="pi" unicode="&#x3c0;" horiz-adv-x="601" 
d="M478 -7q-78 0 -116.5 51.5t-24.5 136.5l36 229h-145q-22 -125 -53 -224t-76 -186h-105q50 102 82.5 201.5t51.5 208.5h-97l12 78h557l-12 -78h-114l-34 -216q-10 -61 7 -89.5t71 -28.5q10 0 22 1t26 3l-17 -81q-20 -3 -36.5 -4.5t-34.5 -1.5z" />
    <glyph glyph-name="uni0400" unicode="&#x400;" horiz-adv-x="589" 
d="M44 0l112 705h456l-13 -84h-357l-35 -221h336l-13 -84h-336l-38 -232h357l-13 -84h-456zM373 765l-138 173h107l105 -173h-74z" />
    <glyph glyph-name="uni0401" unicode="&#x401;" horiz-adv-x="589" 
d="M44 0l112 705h456l-13 -84h-357l-35 -221h336l-13 -84h-336l-38 -232h357l-13 -84h-456zM455 799l17 99h98l-15 -99h-100zM275 799l16 99h99l-16 -99h-99z" />
    <glyph glyph-name="uni0402" unicode="&#x402;" horiz-adv-x="855" 
d="M530 -189q-37 0 -68 5.5t-51 15.5l19 78q36 -16 87 -16q59 0 97.5 40t50.5 117l14 85q18 109 -23 160.5t-131 51.5q-40 0 -80 -7.5t-77 -27.5l-50 -313h-103l98 618h-249l13 87h603l-14 -87h-249l-34 -213q66 33 160 33q86 0 145 -34t84.5 -100.5t10.5 -161.5l-14 -87
q-19 -119 -80 -181.5t-159 -62.5z" />
    <glyph glyph-name="uni0403" unicode="&#x403;" horiz-adv-x="550" 
d="M44 0l112 705h452l-14 -87h-349l-98 -618h-103zM325 765l131 173h111l-168 -173h-74z" />
    <glyph glyph-name="uni0404" unicode="&#x404;" horiz-adv-x="676" 
d="M386 -9q-91 0 -161.5 34.5t-110.5 105t-40 178.5q0 85 25.5 159t73.5 129.5t117 86t156 30.5q73 0 134 -23.5t99 -63.5l-45 -82q-79 77 -191 77q-100 0 -165.5 -61.5t-85.5 -160.5h339l-14 -83h-333q-1 -109 48.5 -171.5t163.5 -62.5q52 0 97.5 17.5t93.5 56.5l33 -81
q-45 -42 -106.5 -63.5t-127.5 -21.5z" />
    <glyph glyph-name="uni0405" unicode="&#x405;" horiz-adv-x="622" 
d="M299 -9q-78 0 -149 20t-124 65l39 79q56 -43 116 -59.5t127 -16.5q75 0 120.5 30.5t45.5 82.5q0 37 -27 63t-93 40l-106 26q-71 17 -113.5 59.5t-42.5 117.5q0 67 37 115.5t98.5 74.5t135.5 26q67 0 133 -20.5t114 -65.5l-40 -77q-45 41 -99.5 58t-109.5 17
q-72 0 -119 -33t-47 -87q0 -45 24 -67.5t71 -33.5l106 -26q92 -20 136.5 -65.5t44.5 -109.5q0 -70 -38 -117.5t-101.5 -71.5t-138.5 -24z" />
    <glyph glyph-name="uni0406" unicode="&#x406;" horiz-adv-x="268" 
d="M44 0l112 705h103l-112 -705h-103z" />
    <glyph glyph-name="uni0407" unicode="&#x407;" horiz-adv-x="268" 
d="M44 0l112 705h103l-112 -705h-103zM262 799l17 99h98l-15 -99h-100zM82 799l16 99h99l-16 -99h-99z" />
    <glyph glyph-name="uni0408" unicode="&#x408;" horiz-adv-x="338" 
d="M-39 -8l1 85l65 4q100 7 118 120l80 504h103l-82 -514q-14 -91 -63.5 -140t-149.5 -55z" />
    <glyph glyph-name="uni0409" unicode="&#x409;" horiz-adv-x="1131" 
d="M32 -16l-43 79q41 21 76 48.5t63 72t51 115t40 177.5l36 229h469l-49 -303h180q113 0 170 -50.5t57 -131.5q0 -108 -66.5 -164t-194.5 -56h-312l98 618h-270l-27 -169q-23 -143 -60 -233.5t-90.5 -144.5t-127.5 -87zM625 84h198q158 0 158 131q0 103 -139 103h-180z" />
    <glyph glyph-name="uni040A" unicode="&#x40a;" horiz-adv-x="1165" 
d="M44 0l112 705h103l-49 -304h396l48 304h103l-48 -303h179q114 0 170.5 -50.5t56.5 -131.5q0 -108 -66 -164t-195 -56h-312l50 314h-395l-50 -314h-103zM658 84h199q158 0 158 131q0 103 -139 103h-180z" />
    <glyph glyph-name="uni040B" unicode="&#x40b;" horiz-adv-x="856" 
d="M215 0l98 618h-249l13 87h603l-14 -87h-249l-34 -213q32 16 77 24.5t89 8.5q131 0 194.5 -76t41.5 -220l-22 -142h-104l23 140q18 109 -20 158.5t-130 49.5q-41 0 -83.5 -7.5t-80.5 -27.5l-50 -313h-103z" />
    <glyph glyph-name="uni040C" unicode="&#x40c;" horiz-adv-x="656" 
d="M44 0l112 705h103l-49 -307h111l247 307h117l-265 -327q71 -33 105 -130l86 -248h-106l-69 205q-18 57 -50.5 81.5t-84.5 24.5h-104l-50 -311h-103zM370 765l131 173h111l-168 -173h-74z" />
    <glyph glyph-name="uni040D" unicode="&#x40d;" horiz-adv-x="743" 
d="M44 0l112 705h96l-84 -528l488 528h78l-112 -705h-96l84 530l-489 -530h-77zM416 765l-138 173h107l105 -173h-74z" />
    <glyph glyph-name="uni040E" unicode="&#x40e;" horiz-adv-x="651" 
d="M146 0l145 218l-225 487h105l182 -397l266 397h113l-473 -705h-113zM394 760q-71 0 -119.5 35t-64.5 100l57 20q16 -50 47.5 -72.5t82.5 -22.5q52 0 87 22t64 72l52 -19q-31 -70 -85.5 -102.5t-120.5 -32.5z" />
    <glyph glyph-name="uni040F" unicode="&#x40f;" horiz-adv-x="761" 
d="M270 -161l25 161h-251l112 705h103l-98 -618h389l98 618h103l-112 -705h-251l-26 -161h-92z" />
    <glyph glyph-name="uni0410" unicode="&#x410;" horiz-adv-x="736" 
d="M-28 0l427 705h86l202 -705h-100l-45 172h-358l-101 -172h-111zM429 590l-196 -334h286l-88 334h-2z" />
    <glyph glyph-name="uni0411" unicode="&#x411;" horiz-adv-x="666" 
d="M44 0l112 705h462l-13 -84h-362l-35 -219h182q113 0 170 -50.5t57 -131.5q0 -108 -67 -164t-196 -56h-310zM157 84h201q158 0 158 131q0 103 -139 103h-182z" />
    <glyph glyph-name="uni0412" unicode="&#x412;" horiz-adv-x="682" 
d="M44 0l112 705h277q113 0 165.5 -46t52.5 -120q0 -69 -38.5 -116t-104.5 -65q51 -17 79.5 -56t28.5 -93q0 -103 -66 -156t-186 -53h-320zM207 397h187q73 0 114.5 34t41.5 97q0 47 -32 72t-100 25h-175zM156 80h205q77 0 116 34.5t39 99.5q0 51 -34.5 77t-98.5 26h-189z
" />
    <glyph glyph-name="uni0413" unicode="&#x413;" horiz-adv-x="550" 
d="M44 0l112 705h452l-14 -87h-349l-98 -618h-103z" />
    <glyph glyph-name="uni0414" unicode="&#x414;" horiz-adv-x="788" 
d="M-49 -161l39 245h70q60 60 100.5 166t66.5 269l29 186h482l-98 -621h100l-39 -245h-92l25 161h-565l-25 -161h-93zM172 84h365l85 537h-282l-17 -107q-25 -157 -60.5 -263t-90.5 -167z" />
    <glyph glyph-name="uni0415" unicode="&#x415;" horiz-adv-x="589" 
d="M44 0l112 705h456l-13 -84h-357l-35 -221h336l-13 -84h-336l-38 -232h357l-13 -84h-456z" />
    <glyph glyph-name="uni0416" unicode="&#x416;" horiz-adv-x="989" 
d="M-32 0l158 248q67 106 159 135l-162 322h108l150 -307h88l49 307h100l-49 -307h84l248 307h118l-269 -327q73 -32 107 -130l86 -248h-105l-69 205q-19 57 -51 81.5t-85 24.5h-78l-49 -311h-100l50 311h-77q-54 0 -93 -25t-75 -81l-130 -205h-113z" />
    <glyph glyph-name="uni0417" unicode="&#x417;" horiz-adv-x="637" 
d="M297 -9q-82 0 -150.5 21t-126.5 69l41 76q52 -44 110.5 -60.5t125.5 -16.5q45 0 84.5 12.5t63.5 41.5t24 78q0 104 -129 104h-171l13 83h167q71 0 113 32t42 94q0 54 -39.5 77.5t-102.5 23.5q-61 0 -119.5 -18.5t-106.5 -55.5l-36 79q57 41 129 62t144 21
q69 0 121.5 -20.5t82.5 -59.5t30 -93q0 -70 -39.5 -117t-104.5 -66q51 -16 80 -56.5t29 -94.5q0 -74 -35.5 -121.5t-97.5 -71t-142 -23.5z" />
    <glyph glyph-name="uni0418" unicode="&#x418;" horiz-adv-x="743" 
d="M44 0l112 705h96l-84 -528l488 528h78l-112 -705h-96l84 530l-489 -530h-77z" />
    <glyph glyph-name="uni0419" unicode="&#x419;" horiz-adv-x="743" 
d="M44 0l112 705h96l-84 -528l488 528h78l-112 -705h-96l84 530l-489 -530h-77zM448 760q-71 0 -119.5 35t-64.5 100l57 20q16 -50 47.5 -72.5t82.5 -22.5q52 0 87 22t64 72l52 -19q-31 -70 -85.5 -102.5t-120.5 -32.5z" />
    <glyph glyph-name="uni041A" unicode="&#x41a;" horiz-adv-x="656" 
d="M44 0l112 705h103l-49 -307h111l247 307h117l-265 -327q71 -33 105 -130l86 -248h-106l-69 205q-18 57 -50.5 81.5t-84.5 24.5h-104l-50 -311h-103z" />
    <glyph glyph-name="uni041B" unicode="&#x41b;" horiz-adv-x="746" 
d="M31 -16l-42 80q41 20 76 47.5t63 72t50.5 115t39.5 177.5l37 229h481l-112 -705h-103l98 618h-282l-27 -169q-17 -107 -42 -184.5t-58.5 -131t-77.5 -89t-101 -60.5z" />
    <glyph glyph-name="uni041C" unicode="&#x41c;" horiz-adv-x="861" 
d="M46 0l112 705h83l181 -489l339 489h89l-112 -705h-94l82 517l-284 -409h-63l-157 411l-82 -519h-94z" />
    <glyph glyph-name="uni041D" unicode="&#x41d;" horiz-adv-x="767" 
d="M44 0l112 705h103l-49 -304h396l48 304h103l-112 -705h-103l50 314h-395l-50 -314h-103z" />
    <glyph glyph-name="uni041E" unicode="&#x41e;" horiz-adv-x="775" 
d="M374 -9q-91 0 -158.5 35.5t-105 103.5t-37.5 166q0 120 43 214.5t124.5 149t195.5 54.5q92 0 159.5 -35.5t104.5 -103.5t37 -165q0 -121 -43 -215.5t-124.5 -149t-195.5 -54.5zM376 81q81 0 137.5 42.5t85.5 116.5t29 168q0 110 -52 163t-143 53q-81 0 -137 -42t-85 -116
t-29 -168q0 -110 51.5 -163.5t142.5 -53.5z" />
    <glyph glyph-name="uni041F" unicode="&#x41f;" horiz-adv-x="761" 
d="M44 0l112 705h595l-112 -705h-103l98 618h-389l-98 -618h-103z" />
    <glyph glyph-name="uni0420" unicode="&#x420;" horiz-adv-x="642" 
d="M44 0l112 705h263q112 0 172 -49t60 -144q0 -111 -69 -174.5t-201 -63.5h-191l-43 -274h-103zM204 357h183q80 0 121.5 38t41.5 110q0 60 -35.5 88.5t-106.5 28.5h-162z" />
    <glyph glyph-name="uni0421" unicode="&#x421;" horiz-adv-x="676" 
d="M386 -9q-91 0 -161.5 34.5t-110.5 105t-40 178.5q0 85 25.5 159t73.5 129.5t117 86t156 30.5q73 0 134 -23.5t99 -63.5l-45 -82q-79 77 -191 77q-82 0 -140 -40.5t-88.5 -111t-30.5 -159.5q0 -121 55.5 -174.5t156.5 -53.5q52 0 97.5 17.5t93.5 56.5l33 -81
q-45 -42 -106.5 -63.5t-127.5 -21.5z" />
    <glyph glyph-name="uni0422" unicode="&#x422;" horiz-adv-x="611" 
d="M215 0l98 618h-249l13 87h603l-14 -87h-249l-99 -618h-103z" />
    <glyph glyph-name="uni0423" unicode="&#x423;" horiz-adv-x="651" 
d="M146 0l145 218l-225 487h105l182 -397l266 397h113l-473 -705h-113z" />
    <glyph glyph-name="uni0424" unicode="&#x424;" horiz-adv-x="863" 
d="M338 -24l13 80q-83 5 -145.5 38t-97 90.5t-34.5 136.5q0 66 24 127t70.5 108.5t114 75.5t153.5 28h9l12 74h104l-13 -77q83 -4 145.5 -37t97 -90.5t34.5 -136.5q0 -66 -23.5 -127t-70 -109t-114 -76t-154.5 -28h-10l-12 -77h-103zM180 322q0 -84 46.5 -131.5t136.5 -53.5
l70 442h-3q-81 0 -136.5 -36.5t-84.5 -95t-29 -125.5zM719 391q0 85 -46.5 133t-137.5 53l-70 -443h5q81 0 136.5 37t84 95.5t28.5 124.5z" />
    <glyph glyph-name="uni0425" unicode="&#x425;" horiz-adv-x="660" 
d="M-36 0l324 364l-200 341h113l157 -275l236 275h127l-310 -350l208 -355h-114l-166 287l-248 -287h-127z" />
    <glyph glyph-name="uni0426" unicode="&#x426;" horiz-adv-x="801" 
d="M622 -161l25 161h-603l112 705h103l-98 -618h389l98 618h103l-97 -618h100l-40 -248h-92z" />
    <glyph glyph-name="uni0427" unicode="&#x427;" horiz-adv-x="685" 
d="M461 0l45 287q-32 -15 -76.5 -23.5t-89.5 -8.5q-130 0 -193.5 77t-40.5 218l24 155h103l-24 -152q-18 -108 19 -158t129 -50q41 0 84 8t80 27l52 325h103l-112 -705h-103z" />
    <glyph glyph-name="uni0428" unicode="&#x428;" horiz-adv-x="1061" 
d="M44 0l112 705h101l-97 -618h295l98 618h102l-98 -618h295l98 618h101l-112 -705h-895z" />
    <glyph glyph-name="uni0429" unicode="&#x429;" horiz-adv-x="1100" 
d="M921 -161l26 161h-903l112 705h101l-97 -618h294l98 618h102l-98 -618h295l97 618h102l-98 -618h101l-39 -248h-93z" />
    <glyph glyph-name="uni042A" unicode="&#x42a;" horiz-adv-x="797" 
d="M176 0l98 618h-210l13 87h314l-49 -303h179q113 0 170 -50.5t57 -131.5q0 -108 -66.5 -164t-194.5 -56h-311zM292 84h198q157 0 157 131q0 103 -138 103h-180z" />
    <glyph glyph-name="uni042B" unicode="&#x42b;" horiz-adv-x="876" 
d="M44 0l112 705h103l-49 -303h153q113 0 170 -50.5t57 -131.5q0 -108 -66.5 -164t-194.5 -56h-285zM651 0l112 705h103l-112 -705h-103zM160 84h172q157 0 157 131q0 103 -138 103h-154z" />
    <glyph glyph-name="uni042C" unicode="&#x42c;" horiz-adv-x="666" 
d="M44 0l112 705h103l-49 -303h180q113 0 170 -50.5t57 -131.5q0 -108 -66.5 -164t-194.5 -56h-312zM160 84h198q158 0 158 131q0 103 -139 103h-180z" />
    <glyph glyph-name="uni042D" unicode="&#x42d;" horiz-adv-x="676" 
d="M264 -9q-73 0 -133.5 23.5t-98.5 63.5l44 82q80 -77 191 -77q71 0 123.5 30t85.5 82.5t45 121.5h-339l13 83h331q-1 103 -47.5 162.5t-159.5 59.5q-52 0 -100 -17.5t-96 -56.5l-33 82q46 41 109.5 62.5t130.5 21.5q91 0 159.5 -34.5t107 -105t38.5 -178.5q0 -85 -25 -159
t-72.5 -129.5t-116.5 -86t-157 -30.5z" />
    <glyph glyph-name="uni042E" unicode="&#x42e;" horiz-adv-x="1028" 
d="M627 -9q-98 0 -166 39t-102.5 111.5t-31.5 172.5h-130l-50 -314h-103l112 705h103l-49 -304h126q17 93 63.5 163.5t119.5 110t170 39.5q91 0 159 -35.5t105 -103.5t37 -165q0 -121 -43 -215.5t-124.5 -149t-195.5 -54.5zM629 81q81 0 137.5 42.5t85.5 116.5t29 168
q0 110 -52 163t-143 53q-81 0 -137 -42t-85 -116t-29 -168q0 -110 51.5 -163.5t142.5 -53.5z" />
    <glyph glyph-name="uni042F" unicode="&#x42f;" horiz-adv-x="679" 
d="M-4 0l156 224q23 34 45.5 53.5t49.5 26.5q-71 18 -107 65t-36 117q0 74 34 122.5t93.5 72.5t134.5 24h303l-112 -705h-103l47 291h-105q-43 0 -72 -13.5t-55 -52.5l-156 -225h-117zM350 369h163l40 253h-190q-75 0 -116.5 -35t-41.5 -101q0 -58 35 -87.5t110 -29.5z" />
    <glyph glyph-name="uni0430" unicode="&#x430;" horiz-adv-x="549" 
d="M202 -9q-43 0 -80 19.5t-59 53t-22 75.5q0 77 66 112t209 35h69l4 24q9 53 -15 81t-83 28q-89 0 -167 -51l-25 72q37 26 92.5 41.5t111.5 15.5q109 0 151.5 -59.5t27.5 -153.5l-45 -284h-95l11 75q-25 -44 -65.5 -64t-85.5 -20zM231 63q51 0 90.5 33.5t48.5 93.5l5 34
h-50q-104 0 -144 -17t-40 -62q0 -40 26.5 -61t63.5 -21z" />
    <glyph glyph-name="uni0431" unicode="&#x431;" horiz-adv-x="577" 
d="M268 -9q-83 0 -134.5 38t-71.5 104t-7 148l11 74q15 100 48 162.5t89.5 100t143.5 61.5l154 42l24 -81l-183 -49q-81 -21 -121 -72t-53 -128q27 42 71 68.5t103 26.5q54 0 96.5 -25t67 -71t24.5 -107q0 -83 -31 -149.5t-89.5 -104.5t-141.5 -38zM268 69q51 0 87 27.5
t54.5 74t18.5 103.5q0 64 -32 99t-88 35q-51 0 -86.5 -27.5t-54 -71.5t-18.5 -95q0 -74 31.5 -109.5t87.5 -35.5z" />
    <glyph glyph-name="uni0432" unicode="&#x432;" horiz-adv-x="556" 
d="M38 0l77 488h240q81 0 120 -31.5t39 -80.5q0 -48 -25.5 -80t-69.5 -45q36 -10 57.5 -36.5t21.5 -66.5q0 -70 -50.5 -109t-153.5 -39h-256zM177 281h148q43 0 69 22t26 62q0 28 -20 42.5t-56 14.5h-145zM143 65h152q57 0 83 21.5t26 63.5q0 66 -83 66h-155z" />
    <glyph glyph-name="uni0433" unicode="&#x433;" horiz-adv-x="445" 
d="M38 0l77 488h354l-13 -81h-252l-65 -407h-101z" />
    <glyph glyph-name="uni0434" unicode="&#x434;" horiz-adv-x="604" 
d="M-33 -130l33 210h54q39 43 63 106.5t39 159.5l22 142h361l-65 -408h78l-33 -210h-86l21 130h-380l-21 -130h-86zM150 80h229l52 329h-178l-12 -85q-12 -75 -35 -140.5t-56 -103.5z" />
    <glyph glyph-name="uni0435" unicode="&#x435;" horiz-adv-x="549" 
d="M281 -9q-108 0 -171 58.5t-63 159.5q0 80 33 145.5t92.5 104t138.5 38.5q78 0 123.5 -35.5t62.5 -93t8 -123.5l-3 -24h-359q-5 -70 33.5 -111t111.5 -41q45 0 84.5 13t71.5 41l28 -68q-34 -31 -85.5 -47.5t-105.5 -16.5zM310 426q-47 0 -79.5 -20.5t-51.5 -53t-27 -69.5
h274q5 60 -22 101.5t-94 41.5z" />
    <glyph glyph-name="uni0436" unicode="&#x436;" horiz-adv-x="803" 
d="M-41 0l126 174q31 41 56 63.5t51 32.5l-129 218h104l120 -198h71l32 198h101l-32 -198h68l183 198h111l-204 -226q25 -12 42 -35.5t32 -55.5l76 -171h-103l-65 146q-17 38 -38 51.5t-54 13.5h-60l-33 -211h-101l33 211h-55q-38 0 -61 -13.5t-53 -51.5l-108 -146h-110z
" />
    <glyph glyph-name="uni0437" unicode="&#x437;" horiz-adv-x="507" 
d="M208 -9q-65 0 -117.5 17t-82.5 46l35 66q30 -27 75 -40.5t96 -13.5q65 0 102.5 18t37.5 64q0 28 -21 45t-62 17h-121l12 74h110q44 0 71 20t27 57q0 28 -26 44.5t-81 16.5q-48 0 -91.5 -12.5t-86.5 -39.5l-26 69q94 58 223 58q86 0 133.5 -33t47.5 -86q0 -48 -26.5 -80.5
t-68.5 -46.5q38 -10 59 -38t21 -66q0 -81 -65.5 -118.5t-174.5 -37.5z" />
    <glyph glyph-name="uni0438" unicode="&#x438;" horiz-adv-x="593" 
d="M38 0l77 488h92l-56 -350l320 350h85l-78 -488h-92l56 350l-319 -350h-85z" />
    <glyph glyph-name="uni0439" unicode="&#x439;" horiz-adv-x="593" 
d="M38 0l77 488h92l-56 -350l320 350h85l-78 -488h-92l56 350l-319 -350h-85zM345 550q-65 0 -109.5 35.5t-57.5 99.5l54 19q14 -49 43 -72t74 -23t75 22t55 72l54 -18q-28 -71 -77.5 -103t-110.5 -32z" />
    <glyph glyph-name="uni043A" unicode="&#x43a;" horiz-adv-x="541" 
d="M38 0l77 488h101l-31 -198h80l182 198h112l-204 -226q42 -23 73 -91l77 -171h-103l-66 146q-17 38 -38 51.5t-55 13.5h-71l-33 -211h-101z" />
    <glyph glyph-name="uni043B" unicode="&#x43b;" horiz-adv-x="585" 
d="M17 -13l-24 82q47 15 77.5 46t50 87.5t33.5 148.5l22 137h371l-77 -488h-101l64 407h-177l-10 -63q-19 -118 -45.5 -190t-70 -110.5t-113.5 -56.5z" />
    <glyph glyph-name="uni043C" unicode="&#x43c;" horiz-adv-x="671" 
d="M38 0l77 488h79l128 -309l224 309h88l-78 -488h-89l52 328l-181 -249h-50l-108 255l-53 -334h-89z" />
    <glyph glyph-name="uni043D" unicode="&#x43d;" horiz-adv-x="596" 
d="M38 0l77 488h101l-31 -197h241l32 197h101l-77 -488h-101l33 211h-242l-33 -211h-101z" />
    <glyph glyph-name="uni043E" unicode="&#x43e;" horiz-adv-x="577" 
d="M267 -9q-103 0 -161.5 58.5t-58.5 158.5q0 85 34 150t93.5 102t135.5 37q103 0 161.5 -58.5t58.5 -158.5q0 -85 -34 -150.5t-93.5 -102t-135.5 -36.5zM269 69q51 0 86.5 29t54 77.5t18.5 107.5q0 66 -32 100.5t-88 34.5q-51 0 -86.5 -28.5t-54 -77t-18.5 -108.5
q0 -66 32 -100.5t88 -34.5z" />
    <glyph glyph-name="uni043F" unicode="&#x43f;" horiz-adv-x="593" 
d="M38 0l77 488h441l-77 -488h-101l64 407h-238l-65 -407h-101z" />
    <glyph glyph-name="uni0440" unicode="&#x440;" horiz-adv-x="602" 
d="M10 -180l105 668h99l-12 -79q28 42 71 65t97 23q85 0 135.5 -56.5t50.5 -153.5q0 -81 -29 -148.5t-83.5 -107.5t-131.5 -40q-54 0 -96.5 24t-62.5 73l-42 -268h-101zM296 69q51 0 86 29t53.5 77.5t18.5 107.5q0 66 -31.5 100.5t-88.5 34.5q-51 0 -86.5 -28.5t-54 -77
t-18.5 -108.5q0 -66 32 -100.5t89 -34.5z" />
    <glyph glyph-name="uni0441" unicode="&#x441;" horiz-adv-x="479" 
d="M270 -9q-113 0 -168 60.5t-55 158.5q0 54 16 105t49 92t83.5 65.5t119.5 24.5q49 0 93 -15.5t71 -41.5l-33 -71q-49 48 -126 48q-61 0 -98 -30.5t-54 -78t-17 -97.5q0 -64 30.5 -102t101.5 -38q29 0 62 11.5t61 35.5l26 -73q-29 -26 -74.5 -40t-87.5 -14z" />
    <glyph glyph-name="uni0442" unicode="&#x442;" horiz-adv-x="457" 
d="M140 0l64 407h-173l14 81h446l-13 -81h-173l-64 -407h-101z" />
    <glyph glyph-name="uni0443" unicode="&#x443;" horiz-adv-x="531" 
d="M61 -180l116 193l-129 475h103l91 -371l212 371h108l-397 -668h-104z" />
    <glyph glyph-name="uni0444" unicode="&#x444;" horiz-adv-x="814" 
d="M303 -180l40 251q-23 -43 -56 -61.5t-74 -18.5q-49 0 -86 26t-58.5 73t-21.5 111q0 82 25.5 149t71.5 107t108 40q44 0 75.5 -20.5t46.5 -58.5l46 287h101l-45 -279q23 38 54.5 54.5t70.5 16.5q73 0 119.5 -57t46.5 -153q0 -82 -25.5 -149t-71.5 -107t-108 -40
q-86 0 -119 72l-39 -243h-101zM541 69q39 0 67 28.5t43 78t15 111.5q0 56 -24.5 94t-66.5 38q-45 1 -72 -28t-39.5 -78t-12.5 -110q0 -65 24.5 -99t65.5 -35zM239 68q45 0 72 28.5t39.5 78t12.5 110.5q0 65 -24.5 99.5t-65.5 34.5q-39 1 -67 -28t-43 -78.5t-15 -110.5
q0 -57 24.5 -95t66.5 -39z" />
    <glyph glyph-name="uni0445" unicode="&#x445;" horiz-adv-x="546" 
d="M-26 0l243 253l-153 235h113l108 -172l156 172h121l-227 -241l162 -247h-113l-116 181l-173 -181h-121z" />
    <glyph glyph-name="uni0446" unicode="&#x446;" horiz-adv-x="609" 
d="M438 -130l21 130h-421l77 488h101l-65 -408h227l65 408h101l-65 -408h79l-33 -210h-87z" />
    <glyph glyph-name="uni0447" unicode="&#x447;" horiz-adv-x="562" 
d="M347 0l30 188q-29 -16 -58 -23.5t-62 -7.5q-104 0 -151.5 52t-31.5 154l20 125h101l-19 -117q-11 -69 13.5 -100t89.5 -31q32 0 58 7t52 24l34 217h101l-77 -488h-100z" />
    <glyph glyph-name="uni0448" unicode="&#x448;" horiz-adv-x="814" 
d="M37 0l78 488h96l-65 -408h187l65 408h96l-65 -408h187l64 408h96l-77 -488h-662z" />
    <glyph glyph-name="uni0449" unicode="&#x449;" horiz-adv-x="841" 
d="M670 -130l21 130h-654l78 488h96l-65 -408h187l65 408h96l-65 -408h187l65 408h96l-65 -408h78l-33 -210h-87z" />
    <glyph glyph-name="uni044A" unicode="&#x44a;" horiz-adv-x="623" 
d="M116 0l65 407h-149l13 81h249l-27 -169h136q84 0 127.5 -39.5t43.5 -106.5q0 -82 -56.5 -127.5t-149.5 -45.5h-252zM228 69h131q120 0 120 98q0 43 -26 63t-74 20h-122z" />
    <glyph glyph-name="uni044B" unicode="&#x44b;" horiz-adv-x="751" 
d="M38 0l77 488h101l-27 -169h136q83 0 126.5 -39.5t43.5 -106.5q0 -82 -56.5 -127.5t-149.5 -45.5h-251zM535 0l77 488h101l-77 -488h-101zM150 69h130q120 0 120 98q0 43 -26 63t-74 20h-121z" />
    <glyph glyph-name="uni044C" unicode="&#x44c;" horiz-adv-x="544" 
d="M38 0l77 488h101l-27 -169h136q83 0 126.5 -39.5t43.5 -106.5q0 -82 -56.5 -127.5t-149.5 -45.5h-251zM150 69h130q120 0 120 98q0 43 -26 63t-74 20h-121z" />
    <glyph glyph-name="uni044D" unicode="&#x44d;" horiz-adv-x="500" 
d="M176 -9q-52 0 -98 16.5t-74 43.5l33 65q54 -50 142 -50q51 0 86 19.5t56 52.5t30 72h-240l11 74h237q-2 62 -35.5 100t-107.5 38q-34 0 -71 -12t-68 -36l-26 67q30 25 77.5 40.5t92.5 15.5q117 0 174.5 -60.5t57.5 -158.5q0 -54 -16.5 -105.5t-50.5 -92.5t-86 -65
t-124 -24z" />
    <glyph glyph-name="uni044E" unicode="&#x44e;" horiz-adv-x="790" 
d="M480 -9q-105 0 -162.5 60.5t-56.5 159.5h-89l-33 -211h-101l77 488h101l-32 -197h86q23 93 91 149.5t163 56.5q102 0 160.5 -58.5t58.5 -158.5q0 -85 -34 -150.5t-93.5 -102t-135.5 -36.5zM483 69q51 0 86 29t53.5 77.5t18.5 107.5q0 66 -31.5 100.5t-88.5 34.5
q-51 0 -86.5 -28.5t-54 -77t-18.5 -108.5q0 -66 32 -100.5t89 -34.5z" />
    <glyph glyph-name="uni044F" unicode="&#x44f;" horiz-adv-x="549" 
d="M-4 0l92 128q38 54 89 70q-51 11 -79 44t-28 84q0 75 53.5 118.5t145.5 43.5h243l-78 -488h-94l28 178h-65q-35 0 -63 -18.5t-47 -45.5l-81 -114h-116zM261 247h118l27 172h-126q-56 0 -84.5 -24.5t-28.5 -68.5q0 -79 94 -79z" />
    <glyph glyph-name="uni0450" unicode="&#x450;" horiz-adv-x="549" 
d="M281 -9q-108 0 -171 58.5t-63 159.5q0 80 33 145.5t92.5 104t138.5 38.5q78 0 123.5 -35.5t62.5 -93t8 -123.5l-3 -24h-359q-5 -70 33.5 -111t111.5 -41q45 0 84.5 13t71.5 41l28 -68q-34 -31 -85.5 -47.5t-105.5 -16.5zM310 426q-47 0 -79.5 -20.5t-51.5 -53t-27 -69.5
h274q5 60 -22 101.5t-94 41.5zM303 553l-140 202h101l109 -202h-70z" />
    <glyph glyph-name="uni0451" unicode="&#x451;" horiz-adv-x="549" 
d="M281 -9q-108 0 -171 58.5t-63 159.5q0 80 33 145.5t92.5 104t138.5 38.5q78 0 123.5 -35.5t62.5 -93t8 -123.5l-3 -24h-359q-5 -70 33.5 -111t111.5 -41q45 0 84.5 13t71.5 41l28 -68q-34 -31 -85.5 -47.5t-105.5 -16.5zM310 426q-47 0 -79.5 -20.5t-51.5 -53t-27 -69.5
h274q5 60 -22 101.5t-94 41.5zM390 604l14 99h100l-16 -99h-98zM209 604l15 99h99l-15 -99h-99z" />
    <glyph glyph-name="uni0452" unicode="&#x452;" horiz-adv-x="588" 
d="M266 -186l-29 76q51 12 80 32.5t44 52t22 77.5l38 240q19 124 -82 124q-67 0 -106.5 -41.5t-50.5 -111.5l-42 -263h-101l86 549h-90l12 73h90l14 83h101l-14 -83h191l-12 -73h-191l-21 -138q27 42 70 64t100 22q80 0 121.5 -49.5t25.5 -153.5l-38 -240
q-10 -61 -31.5 -108.5t-65 -80.5t-121.5 -51z" />
    <glyph glyph-name="uni0453" unicode="&#x453;" horiz-adv-x="445" 
d="M38 0l77 488h354l-13 -81h-252l-65 -407h-101zM251 553l133 202h105l-168 -202h-70z" />
    <glyph glyph-name="uni0454" unicode="&#x454;" horiz-adv-x="501" 
d="M279 -9q-117 0 -174.5 60.5t-57.5 158.5q0 54 16.5 105t50.5 92t86.5 65.5t123.5 24.5q55 0 101 -16.5t74 -43.5l-33 -64q-26 23 -62.5 36t-82.5 13q-73 0 -114.5 -40.5t-56.5 -97.5h240l-11 -74h-238q1 -66 35 -105.5t108 -39.5q37 0 74 12t67 37l26 -67
q-30 -25 -77 -40.5t-95 -15.5z" />
    <glyph glyph-name="uni0455" unicode="&#x455;" horiz-adv-x="496" 
d="M230 -9q-60 0 -112.5 15.5t-87.5 43.5l35 67q36 -27 78.5 -40t87.5 -13q51 0 79 19.5t28 54.5q0 45 -60 59l-93 21q-53 11 -82.5 43.5t-29.5 79.5q0 44 25 79t71.5 56t112.5 21q49 0 96 -15.5t77 -44.5l-32 -66q-30 27 -67.5 39.5t-78.5 12.5q-52 0 -81.5 -21t-29.5 -56
q0 -21 13 -36.5t42 -21.5l93 -21q56 -13 86.5 -43.5t30.5 -78.5q0 -73 -55.5 -113.5t-145.5 -40.5z" />
    <glyph glyph-name="uni0456" unicode="&#x456;" horiz-adv-x="254" 
d="M126 601l17 105h117l-17 -105h-117zM38 0l77 488h101l-77 -488h-101z" />
    <glyph glyph-name="uni0457" unicode="&#x457;" horiz-adv-x="254" 
d="M38 0l77 488h101l-77 -488h-101zM227 604l14 99h100l-16 -99h-98zM46 604l15 99h99l-15 -99h-99z" />
    <glyph glyph-name="uni0458" unicode="&#x458;" horiz-adv-x="258" 
d="M128 601l17 105h117l-17 -105h-117zM-100 -193l-6 76l45 4q86 6 101 102l79 499h101l-78 -491q-14 -92 -60.5 -136.5t-137.5 -50.5z" />
    <glyph glyph-name="uni0459" unicode="&#x459;" horiz-adv-x="874" 
d="M17 -13l-24 82q47 15 77.5 46t50 87.5t33.5 148.5l22 137h369l-27 -169h136q84 0 127.5 -39.5t43.5 -106.5q0 -82 -56.5 -127.5t-149.5 -45.5h-250l64 407h-177l-10 -63q-19 -118 -45.5 -190t-70 -110.5t-113.5 -56.5zM478 69h132q120 0 120 98q0 43 -26 63t-74 20h-123z
" />
    <glyph glyph-name="uni045A" unicode="&#x45a;" horiz-adv-x="887" 
d="M38 0l77 488h101l-31 -197h241l32 197h101l-27 -169h135q84 0 127.5 -39.5t43.5 -106.5q0 -82 -56.5 -127.5t-149.5 -45.5h-251l33 211h-242l-33 -211h-101zM492 69h131q120 0 120 98q0 43 -26 63t-74 20h-122z" />
    <glyph glyph-name="uni045B" unicode="&#x45b;" horiz-adv-x="587" 
d="M38 0l87 549h-89l11 73h90l13 83h101l-13 -83h191l-12 -73h-191l-22 -138q27 42 70.5 64t99.5 22q80 0 121.5 -49.5t25.5 -153.5l-46 -294h-101l46 292q20 124 -82 124q-67 0 -106.5 -41.5t-50.5 -111.5l-42 -263h-101z" />
    <glyph glyph-name="uni045C" unicode="&#x45c;" horiz-adv-x="541" 
d="M38 0l77 488h101l-31 -198h80l182 198h112l-204 -226q42 -23 73 -91l77 -171h-103l-66 146q-17 38 -38 51.5t-55 13.5h-71l-33 -211h-101zM298 553l133 202h105l-168 -202h-70z" />
    <glyph glyph-name="uni045D" unicode="&#x45d;" horiz-adv-x="593" 
d="M38 0l77 488h92l-56 -350l320 350h85l-78 -488h-92l56 350l-319 -350h-85zM305 553l-140 202h101l109 -202h-70z" />
    <glyph glyph-name="uni045E" unicode="&#x45e;" horiz-adv-x="531" 
d="M61 -180l116 193l-129 475h103l91 -371l212 371h108l-397 -668h-104zM306 550q-65 0 -109.5 35.5t-57.5 99.5l54 19q14 -49 43 -72t74 -23t75 22t55 72l54 -18q-28 -71 -77.5 -103t-110.5 -32z" />
    <glyph glyph-name="uni045F" unicode="&#x45f;" horiz-adv-x="593" 
d="M195 -130l20 130h-177l77 488h101l-65 -408h239l65 408h101l-77 -488h-177l-21 -130h-86z" />
    <glyph glyph-name="uni0462" unicode="&#x462;" horiz-adv-x="733" 
d="M110 0l84 530h-168l13 78h168l15 97h103l-15 -97h238l-13 -78h-237l-21 -128h179q114 0 170.5 -50.5t56.5 -131.5q0 -108 -66 -164t-195 -56h-312zM227 84h198q158 0 158 131q0 103 -139 103h-180z" />
    <glyph glyph-name="uni0463" unicode="&#x463;" horiz-adv-x="624" 
d="M118 0l66 415h-151l12 73h151l35 217h101l-35 -217h163l-12 -73h-163l-15 -96h135q84 0 127.5 -36.5t43.5 -101.5q0 -83 -57 -132t-154 -49h-247zM230 69h130q58 0 89.5 26.5t31.5 76.5q0 40 -26 59t-73 19h-123z" />
    <glyph glyph-name="uni046A" unicode="&#x46a;" horiz-adv-x="979" 
d="M-32 0l159 250q47 75 109.5 110.5t138.5 35.5h38l-215 309h729l-313 -309h30q77 -2 128.5 -42.5t74.5 -105.5l86 -248h-105l-69 205q-19 57 -51 81.5t-85 24.5h-70l-50 -311h-103l49 311h-70q-54 0 -93 -25t-75 -81l-130 -205h-113zM509 398h2l233 232h-398z" />
    <glyph glyph-name="uni046B" unicode="&#x46b;" horiz-adv-x="803" 
d="M-41 0l123 166q33 43 58.5 68.5t56 36.5t78.5 11h30l-145 206h560l-210 -206h21q61 0 95 -26.5t63 -89.5l78 -166h-103l-64 137q-17 39 -39 52t-59 13h-57l-32 -202h-101l32 202h-58q-38 0 -61 -13t-52 -52l-104 -137h-110zM403 277h2l145 143h-246z" />
    <glyph glyph-name="uni0472" unicode="&#x472;" horiz-adv-x="775" 
d="M374 -9q-91 0 -158.5 35.5t-105 103.5t-37.5 166q0 120 43 214.5t124.5 149t195.5 54.5q92 0 159.5 -35.5t104.5 -103.5t37 -165q0 -121 -43 -215.5t-124.5 -149t-195.5 -54.5zM433 624q-98 0 -160 -62.5t-82 -163.5h437v10q0 110 -52 163t-143 53zM376 81
q101 0 164 65.5t81 171.5h-439v-20q0 -110 51.5 -163.5t142.5 -53.5z" />
    <glyph glyph-name="uni0473" unicode="&#x473;" horiz-adv-x="577" 
d="M266 -9q-103 0 -161 58.5t-58 159.5q0 84 34 149t93.5 102t135.5 37q103 0 161.5 -58.5t58.5 -158.5q0 -85 -34 -150.5t-93.5 -102t-136.5 -36.5zM305 423q-61 0 -101.5 -40t-55.5 -105h288v7q0 68 -34 103t-97 35zM271 64q62 0 102 40.5t55 105.5h-288v-6
q0 -69 34 -104.5t97 -35.5z" />
    <glyph glyph-name="uni0474" unicode="&#x474;" horiz-adv-x="755" 
d="M266 0l-199 705h104l155 -572l221 386q42 75 81 117.5t87 60t119 17.5l4 -85q-47 0 -79.5 -12.5t-60.5 -44t-61 -88.5l-282 -484h-89z" />
    <glyph glyph-name="uni0475" unicode="&#x475;" horiz-adv-x="561" 
d="M181 0l-133 488h103l91 -371l146 256q27 47 55 74t64 38.5t90 11.5l2 -81q-47 -1 -76 -20t-57 -66l-195 -330h-90z" />
    <glyph glyph-name="uni048A" unicode="&#x48a;" horiz-adv-x="764" 
d="M447 760q-70 0 -118.5 35t-64.5 100l57 20q15 -50 47 -72.5t83 -22.5q52 0 86.5 22t64.5 72l52 -19q-32 -70 -86 -102.5t-121 -32.5zM531 -161l80 161h-85l84 530l-489 -530h-77l112 705h96l-84 -528l488 528h78l-99 -621h107l-121 -245h-90z" />
    <glyph glyph-name="uni048B" unicode="&#x48b;" horiz-adv-x="620" 
d="M346 550q-65 0 -110 35.5t-58 99.5l55 19q13 -49 42.5 -72t74.5 -23t74.5 22t55.5 72l53 -18q-28 -71 -77.5 -103t-109.5 -32zM38 0l77 488h92l-56 -350l320 350h85l-65 -410h87l-104 -208h-86l66 130h-68l56 350l-319 -350h-85z" />
    <glyph glyph-name="uni048C" unicode="&#x48c;" horiz-adv-x="723" 
d="M103 0l84 530h-142l13 78h142l15 97h100l-16 -97h144l-13 -78h-143l-21 -128h179q114 0 171 -50.5t57 -131.5q0 -108 -67 -164t-195 -56h-308zM216 84h199q158 0 158 131q0 103 -138 103h-182z" />
    <glyph glyph-name="uni048D" unicode="&#x48d;" horiz-adv-x="624" 
d="M118 0l66 415h-151l12 73h151l35 217h101l-35 -217h163l-12 -73h-163l-15 -96h135q84 0 127.5 -36.5t43.5 -101.5q0 -83 -57 -132t-154 -49h-247zM230 69h130q58 0 89.5 26.5t31.5 76.5q0 40 -26 59t-73 19h-123z" />
    <glyph glyph-name="uni048E" unicode="&#x48e;" horiz-adv-x="642" 
d="M44 0l112 705h263q112 0 172 -49t60 -144q0 -83 -39 -140t-115 -81l42 -69l-50 -31l-52 86q-13 -1 -27 -2t-29 -1h-191l-43 -274h-103zM204 357h183h4l-43 72l50 30l56 -93q96 27 96 139q0 60 -35.5 88.5t-106.5 28.5h-162z" />
    <glyph glyph-name="uni048F" unicode="&#x48f;" horiz-adv-x="602" 
d="M9 -180l106 668h98l-11 -78q27 41 70 64t97 23q84 0 135 -56.5t51 -153.5q0 -77 -26.5 -142.5t-75.5 -105.5l36 -55l-55 -37l-40 61q-19 -8 -39.5 -12.5t-44.5 -4.5q-53 0 -95.5 24t-62.5 73l-42 -268h-101zM295 69q29 0 52 11l-44 68l56 37l43 -66q25 30 38 73.5
t13 92.5q0 66 -32 99.5t-88 33.5q-51 0 -86.5 -28.5t-54 -77t-18.5 -108.5q0 -66 32 -100.5t89 -34.5z" />
    <glyph glyph-name="uni0490" unicode="&#x490;" horiz-adv-x="550" 
d="M44 0l112 705h358l26 157h92l-39 -244h-348l-98 -618h-103z" />
    <glyph glyph-name="uni0491" unicode="&#x491;" horiz-adv-x="445" 
d="M38 0l77 488h268l18 114h87l-32 -195h-252l-65 -407h-101z" />
    <glyph glyph-name="uni0492" unicode="&#x492;" horiz-adv-x="589" 
d="M82 0l50 312h-97l12 77h97l50 316h452l-13 -87h-349l-36 -229h182l-12 -77h-183l-50 -312h-103z" />
    <glyph glyph-name="uni0493" unicode="&#x493;" horiz-adv-x="467" 
d="M60 0l30 194h-93l12 73h93l35 221h354l-13 -81h-253l-22 -140h142l-11 -73h-143l-30 -194h-101z" />
    <glyph glyph-name="uni0494" unicode="&#x494;" horiz-adv-x="683" 
d="M358 -189q-37 0 -68 5.5t-51 15.5l19 78q36 -16 87 -16q59 0 97.5 40t50.5 117l14 85q18 109 -23 160.5t-130 51.5q-41 0 -81 -7.5t-76 -27.5l-50 -313h-103l112 705h466l-13 -87h-364l-33 -213q66 33 159 33q86 0 145 -34t84.5 -100.5t10.5 -161.5l-14 -87
q-19 -119 -80 -181.5t-159 -62.5z" />
    <glyph glyph-name="uni0495" unicode="&#x495;" horiz-adv-x="562" 
d="M273 -186l-31 76q51 12 80.5 32.5t44 52t21.5 77.5l11 64q9 62 -11.5 92.5t-74.5 30.5q-67 0 -108.5 -41t-52.5 -112l-13 -86h-101l77 488h346l-13 -81h-245l-27 -173q27 42 71.5 64t101.5 22q82 0 125 -49.5t26 -153.5l-11 -63q-10 -61 -31 -108.5t-64.5 -80.5
t-120.5 -51z" />
    <glyph glyph-name="uni0496" unicode="&#x496;" horiz-adv-x="1001" 
d="M-32 0l158 248q67 106 159 135l-162 322h108l150 -307h88l49 307h100l-49 -307h84l248 307h118l-269 -327q73 -32 107 -130l57 -164h96l-38 -245h-93l25 161h-66l-69 205q-19 57 -51 81.5t-85 24.5h-78l-49 -311h-100l50 311h-77q-54 0 -93 -25t-75 -81l-130 -205h-113z
" />
    <glyph glyph-name="uni0497" unicode="&#x497;" horiz-adv-x="848" 
d="M-41 0l126 174q31 41 56 63.5t51 32.5l-129 218h104l120 -198h71l32 198h101l-32 -198h68l183 198h111l-204 -226q25 -12 42 -35.5t32 -55.5l41 -93h72l-32 -208h-86l21 130h-43l-65 146q-17 38 -38 51.5t-54 13.5h-60l-33 -211h-101l33 211h-55q-38 0 -61 -13.5
t-53 -51.5l-108 -146h-110z" />
    <glyph glyph-name="uni0498" unicode="&#x498;" horiz-adv-x="637" 
d="M216 -161l24 155q-64 5 -118 26t-102 61l41 76q52 -44 110.5 -60.5t125.5 -16.5q45 0 84.5 12.5t63.5 41.5t24 78q0 104 -129 104h-171l13 83h167q71 0 113 32t42 94q0 54 -39.5 77.5t-102.5 23.5q-61 0 -119.5 -18.5t-106.5 -55.5l-36 79q57 41 129 62t144 21
q69 0 121.5 -20.5t82.5 -59.5t30 -93q0 -70 -39.5 -117.5t-104.5 -64.5q51 -18 80 -57.5t29 -94.5q0 -68 -31 -114t-85 -71t-124 -30l-24 -153h-92z" />
    <glyph glyph-name="uni0499" unicode="&#x499;" horiz-adv-x="507" 
d="M163 -130l19 121q-56 3 -101.5 19.5t-72.5 43.5l35 66q30 -27 75 -40.5t96 -13.5q65 0 102.5 18t37.5 64q0 28 -21 45t-62 17h-121l12 74h110q44 0 71 20t27 57q0 28 -26 44.5t-81 16.5q-48 0 -91.5 -12.5t-86.5 -39.5l-26 69q94 58 223 58q86 0 133.5 -33t47.5 -86
q0 -49 -27 -81.5t-70 -45.5q39 -10 60.5 -38t21.5 -66q0 -70 -49.5 -107.5t-134.5 -45.5l-19 -124h-82z" />
    <glyph glyph-name="uni049A" unicode="&#x49a;" horiz-adv-x="690" 
d="M44 0l112 705h103l-49 -307h111l247 307h117l-265 -327q71 -33 105 -130l56 -164h97l-38 -245h-93l25 161h-67l-69 205q-18 57 -50.5 81.5t-84.5 24.5h-104l-50 -311h-103z" />
    <glyph glyph-name="uni049B" unicode="&#x49b;" horiz-adv-x="582" 
d="M38 0l77 488h101l-31 -198h80l182 198h112l-204 -226q42 -23 73 -91l42 -93h72l-32 -208h-86l20 130h-42l-66 146q-17 38 -38 51.5t-55 13.5h-71l-33 -211h-101z" />
    <glyph glyph-name="uni049C" unicode="&#x49c;" horiz-adv-x="697" 
d="M44 0l112 705h103l-49 -308h64l26 167h76l-26 -167h10l249 308h116l-265 -327q72 -33 105 -130l86 -248h-105l-69 206q-19 57 -51 81.5t-85 24.5h-5l-26 -164h-76l27 164h-64l-50 -312h-103z" />
    <glyph glyph-name="uni049D" unicode="&#x49d;" horiz-adv-x="587" 
d="M38 0l77 488h101l-31 -198h49l18 112h72l-18 -112h5l183 198h111l-204 -225q43 -24 74 -92l76 -171h-103l-65 146q-18 38 -38.5 51.5t-52.5 13.5l-18 -120h-72l19 120h-49l-33 -211h-101z" />
    <glyph glyph-name="uni049E" unicode="&#x49e;" horiz-adv-x="696" 
d="M90 0l85 533h-140l11 77h140l16 95h103l-16 -95h126l-12 -77h-125l-22 -135h104l248 307h116l-265 -327q72 -33 105 -130l86 -248h-105l-69 205q-19 57 -51 81.5t-85 24.5h-97l-50 -311h-103z" />
    <glyph glyph-name="uni049F" unicode="&#x49f;" horiz-adv-x="542" 
d="M39 0l86 549h-90l12 73h91l13 83h101l-13 -83h190l-11 -73h-192l-40 -259h80l182 198h112l-204 -226q43 -23 74 -91l76 -171h-103l-65 146q-17 38 -38 51.5t-55 13.5h-72l-33 -211h-101z" />
    <glyph glyph-name="uni04A0" unicode="&#x4a0;" horiz-adv-x="788" 
d="M176 0l98 619h-210l13 86h314l-49 -307h111l247 307h117l-265 -327q71 -33 105 -130l86 -248h-106l-69 205q-18 57 -50.5 81.5t-85.5 24.5h-103l-50 -311h-103z" />
    <glyph glyph-name="uni04A1" unicode="&#x4a1;" horiz-adv-x="620" 
d="M118 0l64 407h-150l13 81h252l-32 -198h79l182 198h111l-203 -226q42 -23 73 -91l76 -171h-103l-65 146q-17 38 -37.5 51.5t-54.5 13.5h-71l-33 -211h-101z" />
    <glyph glyph-name="uni04A2" unicode="&#x4a2;" horiz-adv-x="808" 
d="M44 0l112 705h103l-49 -304h396l48 304h103l-98 -621h100l-40 -245h-93l26 161h-110l50 314h-395l-50 -314h-103z" />
    <glyph glyph-name="uni04A3" unicode="&#x4a3;" horiz-adv-x="624" 
d="M452 -130l21 130h-92l33 211h-242l-33 -211h-101l77 488h101l-31 -197h241l32 197h101l-65 -410h78l-34 -208h-86z" />
    <glyph glyph-name="uni04A4" unicode="&#x4a4;" horiz-adv-x="938" 
d="M44 0l112 705h103l-49 -304h396l48 304h353l-14 -87h-250l-98 -618h-103l50 314h-395l-50 -314h-103z" />
    <glyph glyph-name="uni04A5" unicode="&#x4a5;" horiz-adv-x="751" 
d="M37 0l78 488h101l-31 -197h242l31 197h317l-12 -81h-217l-64 -407h-101l33 211h-242l-34 -211h-101z" />
    <glyph glyph-name="uni04A8" unicode="&#x4a8;" horiz-adv-x="824" 
d="M365 -9q-88 0 -154 34t-102.5 100t-36.5 161q0 128 47 224.5t131.5 150t197.5 53.5q19 0 43 -2t36 -6l-18 -86q-15 3 -33 5t-30 2q-81 0 -141 -41.5t-92.5 -117t-32.5 -178.5q0 -111 53.5 -163.5t146.5 -52.5q25 0 48 3q-37 38 -57.5 87.5t-20.5 106.5q0 81 29 145.5
t82 102t124 37.5q81 0 128 -49t47 -134q0 -89 -39 -166.5t-105 -129.5q19 -3 40 -3q70 0 135 30l17 -77q-32 -18 -71.5 -27t-89.5 -9q-72 0 -133 27q-71 -27 -149 -27zM449 267q0 -111 75 -160q66 35 101.5 102t35.5 155q0 51 -22 79t-61 28q-41 0 -70 -27t-44 -73.5
t-15 -103.5z" />
    <glyph glyph-name="uni04A9" unicode="&#x4a9;" horiz-adv-x="666" 
d="M279 -9q-113 0 -173 58t-60 156q0 81 33.5 147t93.5 105.5t143 39.5q26 0 53.5 -6t43.5 -14l-24 -73q-12 8 -31 12t-42 4q-53 0 -91.5 -28.5t-59 -76t-20.5 -104.5q0 -71 38.5 -109t114.5 -38q16 0 32 2q-25 27 -39 60t-14 70q0 53 21.5 93.5t60.5 63.5t91 23
q62 0 99.5 -37.5t37.5 -95.5q0 -52 -25 -98t-67 -80q9 -1 18 -1q65 0 119 27l11 -72q-29 -15 -63 -21.5t-70 -6.5q-57 0 -106 22q-60 -22 -125 -22zM360 190q0 -71 51 -103q45 22 69 60.5t24 89.5q0 30 -17 48.5t-45 18.5q-39 0 -60.5 -32.5t-21.5 -81.5z" />
    <glyph glyph-name="uni04AA" unicode="&#x4aa;" horiz-adv-x="676" 
d="M270 -161l25 161q-100 23 -160.5 99.5t-60.5 209.5q0 85 25.5 159t73.5 129.5t117 86t156 30.5q73 0 134 -23.5t99 -63.5l-45 -82q-79 77 -191 77q-82 0 -140 -40.5t-88.5 -111t-30.5 -159.5q0 -121 55.5 -174.5t156.5 -53.5q52 0 97.5 17.5t93.5 56.5l33 -81
q-45 -42 -106.5 -63.5t-127.5 -21.5l-24 -152h-92z" />
    <glyph glyph-name="uni04AB" unicode="&#x4ab;" horiz-adv-x="479" 
d="M186 -130l20 127q-80 16 -119.5 73t-39.5 140q0 54 16 105t48.5 92t83.5 65.5t120 24.5q48 0 92.5 -15.5t71.5 -41.5l-33 -71q-50 48 -126 48q-61 0 -98.5 -30.5t-54 -78t-16.5 -97.5q0 -64 30.5 -102t101.5 -38q29 0 62 11.5t60 35.5l26 -73q-25 -23 -64.5 -37
t-78.5 -17l-19 -121h-83z" />
    <glyph glyph-name="uni04AC" unicode="&#x4ac;" horiz-adv-x="588" 
d="M288 -161l26 161h-110l98 618h-238l13 87h580l-13 -87h-239l-85 -534h100l-39 -245h-93z" />
    <glyph glyph-name="uni04AD" unicode="&#x4ad;" horiz-adv-x="457" 
d="M210 -130l21 130h-91l64 407h-173l14 81h446l-13 -81h-173l-52 -329h76l-33 -208h-86z" />
    <glyph glyph-name="uni04AE" unicode="&#x4ae;" horiz-adv-x="606" 
d="M212 0l53 328l-211 377h113l158 -285l248 285h124l-329 -375l-53 -330h-103z" />
    <glyph glyph-name="uni04AF" unicode="&#x4af;" horiz-adv-x="521" 
d="M144 -180l29 190l-129 478h103l91 -371l211 371h107l-281 -475l-30 -193h-101z" />
    <glyph glyph-name="uni04B0" unicode="&#x4b0;" horiz-adv-x="606" 
d="M212 0l53 328l-211 377h113l158 -285l248 285h124l-329 -375l-53 -330h-103zM91 278l12 73h431l-12 -73h-431z" />
    <glyph glyph-name="uni04B1" unicode="&#x4b1;" horiz-adv-x="521" 
d="M144 -180l20 129h-124l13 81h115l-124 458h103l91 -371l211 371h107l-271 -458h116l-13 -81h-123l-20 -129h-101z" />
    <glyph glyph-name="uni04B2" unicode="&#x4b2;" horiz-adv-x="694" 
d="M-36 0l324 364l-200 341h113l157 -275l236 275h127l-310 -350l159 -271h92l-38 -245h-93l25 161h-51l-166 287l-248 -287h-127z" />
    <glyph glyph-name="uni04B3" unicode="&#x4b3;" horiz-adv-x="569" 
d="M-27 0l243 253l-152 235h113l108 -172l155 172h122l-227 -241l110 -169h78l-31 -208h-87l21 130h-42l-117 181l-172 -181h-122z" />
    <glyph glyph-name="uni04B4" unicode="&#x4b4;" horiz-adv-x="933" 
d="M754 -161l25 161h-604l99 618h-210l13 87h509l-14 -87h-195l-84 -531h389l98 618h103l-97 -618h100l-40 -248h-92z" />
    <glyph glyph-name="uni04B5" unicode="&#x4b5;" horiz-adv-x="709" 
d="M539 -130l20 130h-442l64 407h-150l14 81h387l-13 -81h-137l-52 -327h249l64 408h101l-64 -408h78l-33 -210h-86z" />
    <glyph glyph-name="uni04B6" unicode="&#x4b6;" horiz-adv-x="727" 
d="M546 -161l25 161h-110l45 287q-32 -15 -76.5 -23.5t-89.5 -8.5q-130 0 -193.5 77t-40.5 218l24 155h103l-24 -152q-18 -108 19 -158t129 -50q41 0 84 8t80 27l52 325h103l-99 -621h101l-40 -245h-92z" />
    <glyph glyph-name="uni04B7" unicode="&#x4b7;" horiz-adv-x="589" 
d="M347 0l30 188q-29 -16 -58 -23.5t-62 -7.5q-104 0 -151.5 52t-31.5 154l20 125h101l-19 -117q-11 -69 13.5 -100t89.5 -31q32 0 58 7t52 24l34 217h101l-65 -410h78l-33 -208h-86l21 130h-92z" />
    <glyph glyph-name="uni04B8" unicode="&#x4b8;" horiz-adv-x="685" 
d="M461 0l45 287q-26 -12 -60 -20t-71 -11l-23 -147h-76l24 148q-111 12 -163 87.5t-31 205.5l24 155h103l-24 -152q-15 -94 11 -144t94 -60l27 166h75l-26 -169q34 3 67.5 11t63.5 23l52 325h103l-112 -705h-103z" />
    <glyph glyph-name="uni04B9" unicode="&#x4b9;" horiz-adv-x="585" 
d="M369 0l31 189q-43 -22 -89 -28l-16 -97h-71l15 96q-95 8 -137.5 59t-27.5 144l20 125h101l-19 -119q-10 -61 9.5 -90.5t66.5 -36.5l20 120h71l-20 -122q23 3 45.5 9.5t44.5 19.5l34 219h101l-78 -488h-101z" />
    <glyph glyph-name="uni04BA" unicode="&#x4ba;" horiz-adv-x="685" 
d="M44 0l112 705h103l-46 -287q32 15 77.5 23.5t90.5 8.5q131 0 194 -76t41 -219l-25 -155h-103l24 152q18 109 -19.5 158.5t-129.5 49.5q-41 0 -84 -7.5t-80 -27.5l-52 -325h-103z" />
    <glyph glyph-name="uni04BB" unicode="&#x4bb;" horiz-adv-x="587" 
d="M38 0l112 705h101l-46 -294q26 42 69.5 64t99.5 22q80 0 121.5 -49.5t25.5 -153.5l-46 -294h-101l46 292q20 124 -82 124q-67 0 -106.5 -41.5t-50.5 -111.5l-42 -263h-101z" />
    <glyph glyph-name="uni04BC" unicode="&#x4bc;" horiz-adv-x="941" 
d="M559 -9q-95 0 -167 39.5t-112.5 111t-38.5 166.5h-14q-91 0 -137.5 45.5t-32.5 133.5l9 56h101l-8 -53q-8 -54 10.5 -75.5t65.5 -21.5h12q15 93 60.5 165.5t120.5 114t179 41.5q82 0 142.5 -29.5t98 -81t50.5 -119t1 -142.5l-5 -34h-545q-3 -104 57 -165.5t168 -61.5
q73 0 128.5 18.5t106.5 53.5l36 -82q-56 -39 -128.5 -59.5t-157.5 -20.5zM601 628q-70 0 -120 -30.5t-81 -83.5t-43 -121h446q4 69 -16.5 122t-66.5 83t-119 30z" />
    <glyph glyph-name="uni04BD" unicode="&#x4bd;" horiz-adv-x="643" 
d="M400 -9q-75 0 -129 28.5t-81.5 81t-22.5 123.5h-14q-72 0 -101.5 33t-18.5 96l6 34h81l-5 -35q-6 -35 6.5 -53.5t47.5 -18.5h5q13 63 48 112t88 77t120 28q78 0 123.5 -35.5t62.5 -93t8 -123.5l-3 -24h-358q-6 -69 32.5 -110.5t111.5 -41.5q45 0 84.5 13t71.5 41l29 -68
q-35 -31 -86.5 -47.5t-105.5 -16.5zM429 426q-47 0 -79.5 -20.5t-51.5 -53t-27 -69.5h274q5 60 -22 101.5t-94 41.5z" />
    <glyph glyph-name="uni04BE" unicode="&#x4be;" horiz-adv-x="941" 
d="M559 -9q-95 0 -167 39.5t-112.5 111t-38.5 166.5h-14q-91 0 -137.5 45.5t-32.5 133.5l9 56h101l-8 -53q-8 -54 10.5 -75.5t65.5 -21.5h12q15 93 60.5 165.5t120.5 114t179 41.5q82 0 142.5 -29.5t98 -81t50.5 -119t1 -142.5l-5 -34h-545q-3 -104 57 -165.5t168 -61.5
q73 0 128.5 18.5t106.5 53.5l36 -82q-56 -39 -128.5 -59.5t-157.5 -20.5zM601 628q-70 0 -120 -30.5t-81 -83.5t-43 -121h446q4 69 -16.5 122t-66.5 83t-119 30zM563 -194q-49 0 -75 25.5t-26 66.5q0 47 31 84.5t78 56.5l29 -39q-37 -15 -54 -38.5t-17 -47.5q0 -22 14 -36
t38 -14t54 12l11 -54q-20 -7 -40 -11.5t-43 -4.5z" />
    <glyph glyph-name="uni04BF" unicode="&#x4bf;" horiz-adv-x="643" 
d="M400 -9q-75 0 -129 28.5t-81.5 81t-22.5 123.5h-14q-72 0 -101.5 33t-18.5 96l6 34h81l-5 -35q-6 -35 6.5 -53.5t47.5 -18.5h5q13 63 48 112t88 77t120 28q78 0 123.5 -35.5t62.5 -93t8 -123.5l-3 -24h-358q-6 -69 32.5 -110.5t111.5 -41.5q45 0 84.5 13t71.5 41l29 -68
q-35 -31 -86.5 -47.5t-105.5 -16.5zM429 426q-47 0 -79.5 -20.5t-51.5 -53t-27 -69.5h274q5 60 -22 101.5t-94 41.5zM417 -194q-49 0 -75 25.5t-26 66.5q0 47 31 84.5t78 56.5l29 -39q-37 -15 -54 -38.5t-17 -47.5q0 -22 14 -36t38 -14t54 12l11 -54q-20 -7 -40 -11.5
t-43 -4.5z" />
    <glyph glyph-name="uni04C0" unicode="&#x4c0;" horiz-adv-x="268" 
d="M44 0l112 705h103l-112 -705h-103z" />
    <glyph glyph-name="uni04C1" unicode="&#x4c1;" horiz-adv-x="989" 
d="M-32 0l158 248q67 106 159 135l-162 322h108l150 -307h88l49 307h100l-49 -307h84l248 307h118l-269 -327q73 -32 107 -130l86 -248h-105l-69 205q-19 57 -51 81.5t-85 24.5h-78l-49 -311h-100l50 311h-77q-54 0 -93 -25t-75 -81l-130 -205h-113zM573 760
q-71 0 -119.5 35t-64.5 100l57 20q16 -50 47.5 -72.5t82.5 -22.5q52 0 87 22t64 72l52 -19q-31 -70 -85.5 -102.5t-120.5 -32.5z" />
    <glyph glyph-name="uni04C2" unicode="&#x4c2;" horiz-adv-x="803" 
d="M-41 0l126 174q31 41 56 63.5t51 32.5l-129 218h104l120 -198h71l32 198h101l-32 -198h68l183 198h111l-204 -226q25 -12 42 -35.5t32 -55.5l76 -171h-103l-65 146q-17 38 -38 51.5t-54 13.5h-60l-33 -211h-101l33 211h-55q-38 0 -61 -13.5t-53 -51.5l-108 -146h-110z
M454 550q-65 0 -109.5 35.5t-57.5 99.5l54 19q14 -49 43 -72t74 -23t75 22t55 72l54 -18q-28 -71 -77.5 -103t-110.5 -32z" />
    <glyph glyph-name="uni04C3" unicode="&#x4c3;" horiz-adv-x="683" 
d="M359 -189q-37 0 -69.5 5.5t-48.5 15.5l18 78q37 -16 87 -16q59 0 97.5 40t51.5 117l8 53q19 110 -25 160.5t-146 50.5h-135l-50 -315h-103l112 705h103l-49 -303h120l244 303h116l-254 -313q98 -20 144.5 -89.5t25.5 -192.5l-9 -58q-41 -241 -238 -241z" />
    <glyph glyph-name="uni04C4" unicode="&#x4c4;" horiz-adv-x="554" 
d="M262 -186l-30 76q51 12 80.5 32.5t44 52t21.5 77.5l4 25q11 70 -17.5 102t-97.5 32h-95l-33 -211h-101l77 488h101l-31 -198h79l183 198h111l-191 -211q61 -14 95.5 -62.5t21.5 -131.5l-5 -29q-10 -61 -31 -108.5t-64.5 -80.5t-121.5 -51z" />
    <glyph glyph-name="uni04C5" unicode="&#x4c5;" horiz-adv-x="767" 
d="M531 -161l81 161h-91l98 618h-282l-27 -169q-17 -107 -42 -184.5t-58.5 -131t-77.5 -89t-101 -60.5l-42 80q41 20 76 47.5t63 72t50.5 115t39.5 177.5l37 229h481l-98 -621h105l-122 -245h-90z" />
    <glyph glyph-name="uni04C6" unicode="&#x4c6;" horiz-adv-x="612" 
d="M17 -13l-24 82q47 15 77.5 46t50 87.5t33.5 148.5l22 137h371l-65 -410h85l-104 -208h-86l65 130h-73l64 407h-177l-10 -63q-19 -118 -45.5 -190t-70 -110.5t-113.5 -56.5z" />
    <glyph glyph-name="uni04C7" unicode="&#x4c7;" horiz-adv-x="767" 
d="M400 -193l-6 76l45 4q86 8 101 102l52 325h-395l-50 -314h-103l112 705h103l-49 -304h396l48 304h103l-112 -708q-15 -92 -61.5 -136.5t-138.5 -50.5z" />
    <glyph glyph-name="uni04C8" unicode="&#x4c8;" horiz-adv-x="596" 
d="M239 -193l-6 76l45 4q86 6 101 102l35 222h-242l-33 -211h-101l77 488h101l-31 -197h241l32 197h101l-78 -491q-15 -92 -61 -136.5t-137 -50.5z" />
    <glyph glyph-name="uni04C9" unicode="&#x4c9;" horiz-adv-x="787" 
d="M44 0l112 705h103l-49 -304h396l48 304h103l-98 -621h104l-122 -245h-90l81 161h-90l50 314h-395l-50 -314h-103z" />
    <glyph glyph-name="uni04CA" unicode="&#x4ca;" horiz-adv-x="624" 
d="M38 0l77 488h101l-31 -197h241l32 197h101l-65 -410h85l-105 -208h-86l66 130h-73l33 211h-242l-33 -211h-101z" />
    <glyph glyph-name="uni04CB" unicode="&#x4cb;" horiz-adv-x="697" 
d="M430 -161h-93l38 245h99l32 203q-32 -15 -76.5 -23.5t-89.5 -8.5q-130 0 -193.5 77t-40.5 218l24 155h103l-24 -152q-18 -108 19 -158t129 -50q41 0 84 8t80 27l52 325h103l-112 -705h-108z" />
    <glyph glyph-name="uni04CC" unicode="&#x4cc;" horiz-adv-x="586" 
d="M336 -130h-86l29 188h78l20 130q-29 -16 -58 -23.5t-62 -7.5q-104 0 -151.5 52t-31.5 154l20 125h101l-19 -117q-11 -69 13.5 -100t89.5 -31q32 0 58 7t52 24l34 217h101l-77 -488h-91z" />
    <glyph glyph-name="uni04CD" unicode="&#x4cd;" horiz-adv-x="882" 
d="M650 -161l80 161h-86l82 517l-284 -409h-63l-157 410l-82 -518h-94l112 705h83l182 -489l338 489h89l-99 -621h110l-122 -245h-89z" />
    <glyph glyph-name="uni04CE" unicode="&#x4ce;" horiz-adv-x="698" 
d="M38 0l77 488h79l128 -309l224 309h88l-66 -410h91l-105 -208h-86l66 130h-67l52 328l-181 -249h-50l-108 255l-53 -334h-89z" />
    <glyph glyph-name="uni04CF" unicode="&#x4cf;" horiz-adv-x="254" 
d="M38 0l112 705h101l-112 -705h-101z" />
    <glyph glyph-name="uni04D0" unicode="&#x4d0;" horiz-adv-x="736" 
d="M-28 0l427 705h86l202 -705h-100l-45 172h-358l-101 -172h-111zM429 590l-196 -334h286l-88 334h-2zM447 760q-71 0 -119.5 35t-64.5 100l57 20q16 -50 47.5 -72.5t82.5 -22.5q52 0 87 22t64 72l52 -19q-31 -70 -85.5 -102.5t-120.5 -32.5z" />
    <glyph glyph-name="uni04D1" unicode="&#x4d1;" horiz-adv-x="549" 
d="M202 -9q-43 0 -80 19.5t-59 53t-22 75.5q0 77 66 112t209 35h69l4 24q9 53 -15 81t-83 28q-89 0 -167 -51l-25 72q37 26 92.5 41.5t111.5 15.5q109 0 151.5 -59.5t27.5 -153.5l-45 -284h-95l11 75q-25 -44 -65.5 -64t-85.5 -20zM231 63q51 0 90.5 33.5t48.5 93.5l5 34
h-50q-104 0 -144 -17t-40 -62q0 -40 26.5 -61t63.5 -21zM327 550q-65 0 -109.5 35.5t-57.5 99.5l54 19q14 -49 43 -72t74 -23t75 22t55 72l54 -18q-28 -71 -77.5 -103t-110.5 -32z" />
    <glyph glyph-name="uni04D2" unicode="&#x4d2;" horiz-adv-x="736" 
d="M-28 0l427 705h86l202 -705h-100l-45 172h-358l-101 -172h-111zM429 590l-196 -334h286l-88 334h-2zM497 799l17 99h98l-15 -99h-100zM317 799l16 99h99l-16 -99h-99z" />
    <glyph glyph-name="uni04D3" unicode="&#x4d3;" horiz-adv-x="549" 
d="M202 -9q-43 0 -80 19.5t-59 53t-22 75.5q0 77 66 112t209 35h69l4 24q9 53 -15 81t-83 28q-89 0 -167 -51l-25 72q37 26 92.5 41.5t111.5 15.5q109 0 151.5 -59.5t27.5 -153.5l-45 -284h-95l11 75q-25 -44 -65.5 -64t-85.5 -20zM231 63q51 0 90.5 33.5t48.5 93.5l5 34
h-50q-104 0 -144 -17t-40 -62q0 -40 26.5 -61t63.5 -21zM374 604l14 99h100l-16 -99h-98zM193 604l15 99h99l-15 -99h-99z" />
    <glyph glyph-name="uni04D4" unicode="&#x4d4;" horiz-adv-x="987" 
d="M-64 0l545 705h528l-14 -84h-413l13 -221h344l-13 -84h-327l12 -232h300l-14 -84h-372l-9 172h-336l-130 -172h-114zM491 587l-249 -331h270l-19 331h-2z" />
    <glyph glyph-name="uni04D5" unicode="&#x4d5;" horiz-adv-x="874" 
d="M218 -9q-46 0 -86.5 17t-65.5 50t-25 81q0 77 66 111.5t209 34.5h70l3 19q18 113 -98 113q-91 0 -166 -50l-26 73q37 26 92.5 41.5t111.5 15.5q118 0 154 -83q33 39 79 61t103 22q77 0 123 -35t63 -91.5t7 -121.5l-4 -26h-357q-5 -71 32.5 -112.5t111.5 -41.5q46 0 85 13
t71 41l28 -68q-34 -31 -85.5 -47.5t-106.5 -16.5q-73 0 -124.5 29t-75.5 82q-28 -57 -78.5 -84t-110.5 -27zM637 426q-46 0 -78 -20.5t-51 -52.5t-27 -68h271q4 59 -22.5 100t-92.5 41zM231 64q51 0 90 30.5t49 89.5l6 39h-51q-103 0 -143.5 -17t-40.5 -61q0 -39 26.5 -60
t63.5 -21z" />
    <glyph glyph-name="uni04D6" unicode="&#x4d6;" horiz-adv-x="589" 
d="M44 0l112 705h456l-13 -84h-357l-35 -221h336l-13 -84h-336l-38 -232h357l-13 -84h-456zM405 760q-71 0 -119.5 35t-64.5 100l57 20q16 -50 47.5 -72.5t82.5 -22.5q52 0 87 22t64 72l52 -19q-31 -70 -85.5 -102.5t-120.5 -32.5z" />
    <glyph glyph-name="uni04D7" unicode="&#x4d7;" horiz-adv-x="549" 
d="M281 -9q-108 0 -171 58.5t-63 159.5q0 80 33 145.5t92.5 104t138.5 38.5q78 0 123.5 -35.5t62.5 -93t8 -123.5l-3 -24h-359q-5 -70 33.5 -111t111.5 -41q45 0 84.5 13t71.5 41l28 -68q-34 -31 -85.5 -47.5t-105.5 -16.5zM310 426q-47 0 -79.5 -20.5t-51.5 -53t-27 -69.5
h274q5 60 -22 101.5t-94 41.5zM343 550q-65 0 -109.5 35.5t-57.5 99.5l54 19q14 -49 43 -72t74 -23t75 22t55 72l54 -18q-28 -71 -77.5 -103t-110.5 -32z" />
    <glyph glyph-name="uni04D8" unicode="&#x4d8;" horiz-adv-x="775" 
d="M369 -9q-83 0 -143.5 29.5t-97.5 81t-50.5 119t-0.5 143.5l5 33h546v11q0 100 -60 158t-166 58q-74 0 -132 -18.5t-110 -58.5l-35 82q111 85 293 85q94 0 166 -39t112 -108.5t40 -161.5q0 -87 -23.5 -162t-69.5 -132t-114.5 -88.5t-159.5 -31.5zM375 78q69 0 119.5 30
t81.5 83t43 121h-443q-4 -69 15.5 -122t65 -82.5t118.5 -29.5z" />
    <glyph glyph-name="uni04D9" unicode="&#x4d9;" horiz-adv-x="549" 
d="M238 -9q-78 0 -124 35t-63.5 92t-7.5 123l4 25h359q5 70 -32 111t-110 41q-95 0 -158 -55l-29 70q35 31 87.5 47.5t106.5 16.5q107 0 169 -58.5t62 -158.5q0 -81 -33 -146.5t-92 -104t-139 -38.5zM240 62q47 0 79 20t50.5 53t26.5 69h-268q-5 -60 22 -101t90 -41z" />
    <glyph glyph-name="uni04DA" unicode="&#x4da;" horiz-adv-x="775" 
d="M369 -9q-83 0 -143.5 29.5t-97.5 81t-50.5 119t-0.5 143.5l5 33h546v11q0 100 -60 158t-166 58q-74 0 -132 -18.5t-110 -58.5l-35 82q111 85 293 85q94 0 166 -39t112 -108.5t40 -161.5q0 -87 -23.5 -162t-69.5 -132t-114.5 -88.5t-159.5 -31.5zM375 78q69 0 119.5 30
t81.5 83t43 121h-443q-4 -69 15.5 -122t65 -82.5t118.5 -29.5zM468 799l17 99h98l-15 -99h-100zM288 799l16 99h99l-16 -99h-99z" />
    <glyph glyph-name="uni04DB" unicode="&#x4db;" horiz-adv-x="549" 
d="M238 -9q-78 0 -124 35t-63.5 92t-7.5 123l4 25h359q5 70 -32 111t-110 41q-95 0 -158 -55l-29 70q35 31 87.5 47.5t106.5 16.5q107 0 169 -58.5t62 -158.5q0 -81 -33 -146.5t-92 -104t-139 -38.5zM240 62q47 0 79 20t50.5 53t26.5 69h-268q-5 -60 22 -101t90 -41z
M354 604l14 99h100l-16 -99h-98zM173 604l15 99h99l-15 -99h-99z" />
    <glyph glyph-name="uni04DC" unicode="&#x4dc;" horiz-adv-x="989" 
d="M-32 0l158 248q67 106 159 135l-162 322h108l150 -307h88l49 307h100l-49 -307h84l248 307h118l-269 -327q73 -32 107 -130l86 -248h-105l-69 205q-19 57 -51 81.5t-85 24.5h-78l-49 -311h-100l50 311h-77q-54 0 -93 -25t-75 -81l-130 -205h-113zM623 799l17 99h98
l-15 -99h-100zM443 799l16 99h99l-16 -99h-99z" />
    <glyph glyph-name="uni04DD" unicode="&#x4dd;" horiz-adv-x="803" 
d="M-41 0l126 174q31 41 56 63.5t51 32.5l-129 218h104l120 -198h71l32 198h101l-32 -198h68l183 198h111l-204 -226q25 -12 42 -35.5t32 -55.5l76 -171h-103l-65 146q-17 38 -38 51.5t-54 13.5h-60l-33 -211h-101l33 211h-55q-38 0 -61 -13.5t-53 -51.5l-108 -146h-110z
M501 604l14 99h100l-16 -99h-98zM320 604l15 99h99l-15 -99h-99z" />
    <glyph glyph-name="uni04DE" unicode="&#x4de;" horiz-adv-x="637" 
d="M297 -9q-82 0 -150.5 21t-126.5 69l41 76q52 -44 110.5 -60.5t125.5 -16.5q45 0 84.5 12.5t63.5 41.5t24 78q0 104 -129 104h-171l13 83h167q71 0 113 32t42 94q0 54 -39.5 77.5t-102.5 23.5q-61 0 -119.5 -18.5t-106.5 -55.5l-36 79q57 41 129 62t144 21
q69 0 121.5 -20.5t82.5 -59.5t30 -93q0 -70 -39.5 -117t-104.5 -66q51 -16 80 -56.5t29 -94.5q0 -74 -35.5 -121.5t-97.5 -71t-142 -23.5zM439 799l17 99h98l-15 -99h-100zM259 799l16 99h99l-16 -99h-99z" />
    <glyph glyph-name="uni04DF" unicode="&#x4df;" horiz-adv-x="507" 
d="M208 -9q-65 0 -117.5 17t-82.5 46l35 66q30 -27 75 -40.5t96 -13.5q65 0 102.5 18t37.5 64q0 28 -21 45t-62 17h-121l12 74h110q44 0 71 20t27 57q0 28 -26 44.5t-81 16.5q-48 0 -91.5 -12.5t-86.5 -39.5l-26 69q94 58 223 58q86 0 133.5 -33t47.5 -86q0 -48 -26.5 -80.5
t-68.5 -46.5q38 -10 59 -38t21 -66q0 -81 -65.5 -118.5t-174.5 -37.5zM331 604l14 99h100l-16 -99h-98zM150 604l15 99h99l-15 -99h-99z" />
    <glyph glyph-name="uni04E0" unicode="&#x4e0;" horiz-adv-x="637" 
d="M300 -9q-84 0 -152.5 21t-126.5 69l41 75q51 -43 110 -60t128 -17q45 0 84 12.5t63.5 42t24.5 78.5q0 51 -34.5 77.5t-107.5 26.5h-131l11 67l264 235h-374l14 87h508l-12 -72l-264 -236h13q75 0 122.5 -24.5t69.5 -65t22 -90.5q0 -73 -35 -123.5t-96.5 -76.5t-141.5 -26
z" />
    <glyph glyph-name="uni04E1" unicode="&#x4e1;" horiz-adv-x="504" 
d="M189 -189q-66 0 -126 17t-108 54l40 67q40 -32 85 -46t100 -14q76 0 116.5 39t40.5 108q0 47 -33 77t-98 30h-100l8 49l233 215h-292l13 81h410l-12 -69l-223 -204h7q60 0 102 -24t63.5 -63.5t21.5 -87.5q0 -66 -29 -118t-84.5 -81.5t-134.5 -29.5z" />
    <glyph glyph-name="uni04E2" unicode="&#x4e2;" horiz-adv-x="743" 
d="M44 0l112 705h96l-84 -528l488 528h78l-112 -705h-96l84 530l-489 -530h-77zM293 811l9 63h335l-9 -63h-335z" />
    <glyph glyph-name="uni04E3" unicode="&#x4e3;" horiz-adv-x="593" 
d="M38 0l77 488h92l-56 -350l320 350h85l-78 -488h-92l56 350l-319 -350h-85zM201 621l10 64h305l-10 -64h-305z" />
    <glyph glyph-name="uni04E4" unicode="&#x4e4;" horiz-adv-x="743" 
d="M44 0l112 705h96l-84 -528l488 528h78l-112 -705h-96l84 530l-489 -530h-77zM498 799l17 99h98l-15 -99h-100zM318 799l16 99h99l-16 -99h-99z" />
    <glyph glyph-name="uni04E5" unicode="&#x4e5;" horiz-adv-x="593" 
d="M38 0l77 488h92l-56 -350l320 350h85l-78 -488h-92l56 350l-319 -350h-85zM392 604l14 99h100l-16 -99h-98zM211 604l15 99h99l-15 -99h-99z" />
    <glyph glyph-name="uni04E6" unicode="&#x4e6;" horiz-adv-x="775" 
d="M374 -9q-91 0 -158.5 35.5t-105 103.5t-37.5 166q0 120 43 214.5t124.5 149t195.5 54.5q92 0 159.5 -35.5t104.5 -103.5t37 -165q0 -121 -43 -215.5t-124.5 -149t-195.5 -54.5zM376 81q81 0 137.5 42.5t85.5 116.5t29 168q0 110 -52 163t-143 53q-81 0 -137 -42t-85 -116
t-29 -168q0 -110 51.5 -163.5t142.5 -53.5zM504 799l17 99h98l-15 -99h-100zM324 799l16 99h99l-16 -99h-99z" />
    <glyph glyph-name="uni04E7" unicode="&#x4e7;" horiz-adv-x="577" 
d="M267 -9q-103 0 -161.5 58.5t-58.5 158.5q0 85 34 150t93.5 102t135.5 37q103 0 161.5 -58.5t58.5 -158.5q0 -85 -34 -150.5t-93.5 -102t-135.5 -36.5zM269 69q51 0 86.5 29t54 77.5t18.5 107.5q0 66 -32 100.5t-88 34.5q-51 0 -86.5 -28.5t-54 -77t-18.5 -108.5
q0 -66 32 -100.5t88 -34.5zM390 604l14 99h100l-16 -99h-98zM209 604l15 99h99l-15 -99h-99z" />
    <glyph glyph-name="uni04E8" unicode="&#x4e8;" horiz-adv-x="775" 
d="M374 -9q-91 0 -158.5 35.5t-105 103.5t-37.5 166q0 120 43 214.5t124.5 149t195.5 54.5q92 0 159.5 -35.5t104.5 -103.5t37 -165q0 -121 -43 -215.5t-124.5 -149t-195.5 -54.5zM433 624q-98 0 -160 -62.5t-82 -163.5h437v10q0 110 -52 163t-143 53zM376 81
q101 0 164 65.5t81 171.5h-439v-20q0 -110 51.5 -163.5t142.5 -53.5z" />
    <glyph glyph-name="uni04E9" unicode="&#x4e9;" horiz-adv-x="577" 
d="M266 -9q-103 0 -161 58.5t-58 159.5q0 84 34 149t93.5 102t135.5 37q103 0 161.5 -58.5t58.5 -158.5q0 -85 -34 -150.5t-93.5 -102t-136.5 -36.5zM305 423q-61 0 -101.5 -40t-55.5 -105h288v7q0 68 -34 103t-97 35zM271 64q62 0 102 40.5t55 105.5h-288v-6
q0 -69 34 -104.5t97 -35.5z" />
    <glyph glyph-name="uni04EA" unicode="&#x4ea;" horiz-adv-x="775" 
d="M374 -9q-91 0 -158.5 35.5t-105 103.5t-37.5 166q0 120 43 214.5t124.5 149t195.5 54.5q92 0 159.5 -35.5t104.5 -103.5t37 -165q0 -121 -43 -215.5t-124.5 -149t-195.5 -54.5zM433 624q-98 0 -160 -62.5t-82 -163.5h437v10q0 110 -52 163t-143 53zM376 81
q101 0 164 65.5t81 171.5h-439v-20q0 -110 51.5 -163.5t142.5 -53.5zM504 799l17 99h98l-15 -99h-100zM324 799l16 99h99l-16 -99h-99z" />
    <glyph glyph-name="uni04EB" unicode="&#x4eb;" horiz-adv-x="577" 
d="M266 -9q-103 0 -161 58.5t-58 159.5q0 84 34 149t93.5 102t135.5 37q103 0 161.5 -58.5t58.5 -158.5q0 -85 -34 -150.5t-93.5 -102t-136.5 -36.5zM305 423q-61 0 -101.5 -40t-55.5 -105h288v7q0 68 -34 103t-97 35zM271 64q62 0 102 40.5t55 105.5h-288v-6
q0 -69 34 -104.5t97 -35.5zM390 604l14 99h100l-16 -99h-98zM209 604l15 99h99l-15 -99h-99z" />
    <glyph glyph-name="uni04EC" unicode="&#x4ec;" horiz-adv-x="676" 
d="M264 -9q-73 0 -133.5 23.5t-98.5 63.5l44 82q80 -77 191 -77q71 0 123.5 30t85.5 82.5t45 121.5h-339l13 83h331q-1 103 -47.5 162.5t-159.5 59.5q-52 0 -100 -17.5t-96 -56.5l-33 82q46 41 109.5 62.5t130.5 21.5q91 0 159.5 -34.5t107 -105t38.5 -178.5q0 -85 -25 -159
t-72.5 -129.5t-116.5 -86t-157 -30.5zM429 799l17 99h98l-15 -99h-100zM249 799l16 99h99l-16 -99h-99z" />
    <glyph glyph-name="uni04ED" unicode="&#x4ed;" horiz-adv-x="500" 
d="M176 -9q-52 0 -98 16.5t-74 43.5l33 65q54 -50 142 -50q51 0 86 19.5t56 52.5t30 72h-240l11 74h237q-2 62 -35.5 100t-107.5 38q-34 0 -71 -12t-68 -36l-26 67q30 25 77.5 40.5t92.5 15.5q117 0 174.5 -60.5t57.5 -158.5q0 -54 -16.5 -105.5t-50.5 -92.5t-86 -65
t-124 -24zM313 604l14 99h100l-16 -99h-98zM132 604l15 99h99l-15 -99h-99z" />
    <glyph glyph-name="uni04EE" unicode="&#x4ee;" horiz-adv-x="651" 
d="M146 0l145 218l-225 487h105l182 -397l266 397h113l-473 -705h-113zM239 811l9 63h335l-9 -63h-335z" />
    <glyph glyph-name="uni04EF" unicode="&#x4ef;" horiz-adv-x="531" 
d="M61 -180l116 193l-129 475h103l91 -371l212 371h108l-397 -668h-104zM162 621l10 64h305l-10 -64h-305z" />
    <glyph glyph-name="uni04F0" unicode="&#x4f0;" horiz-adv-x="651" 
d="M146 0l145 218l-225 487h105l182 -397l266 397h113l-473 -705h-113zM444 799l17 99h98l-15 -99h-100zM264 799l16 99h99l-16 -99h-99z" />
    <glyph glyph-name="uni04F1" unicode="&#x4f1;" horiz-adv-x="531" 
d="M61 -180l116 193l-129 475h103l91 -371l212 371h108l-397 -668h-104zM353 604l14 99h100l-16 -99h-98zM172 604l15 99h99l-15 -99h-99z" />
    <glyph glyph-name="uni04F2" unicode="&#x4f2;" horiz-adv-x="651" 
d="M146 0l145 218l-225 487h105l182 -397l266 397h113l-473 -705h-113zM303 765l100 173h94l-137 -173h-57zM438 765l107 173h94l-143 -173h-58z" />
    <glyph glyph-name="uni04F3" unicode="&#x4f3;" horiz-adv-x="531" 
d="M61 -180l116 193l-129 475h103l91 -371l212 371h108l-397 -668h-104zM343 553l70 202h88l-103 -202h-55zM206 553l70 202h88l-104 -202h-54z" />
    <glyph glyph-name="uni04F4" unicode="&#x4f4;" horiz-adv-x="685" 
d="M461 0l45 287q-32 -15 -76.5 -23.5t-89.5 -8.5q-130 0 -193.5 77t-40.5 218l24 155h103l-24 -152q-18 -108 19 -158t129 -50q41 0 84 8t80 27l52 325h103l-112 -705h-103zM452 799l17 99h98l-15 -99h-100zM272 799l16 99h99l-16 -99h-99z" />
    <glyph glyph-name="uni04F5" unicode="&#x4f5;" horiz-adv-x="562" 
d="M347 0l30 188q-29 -16 -58 -23.5t-62 -7.5q-104 0 -151.5 52t-31.5 154l20 125h101l-19 -117q-11 -69 13.5 -100t89.5 -31q32 0 58 7t52 24l34 217h101l-77 -488h-100zM370 604l14 99h100l-16 -99h-98zM189 604l15 99h99l-15 -99h-99z" />
    <glyph glyph-name="uni04F6" unicode="&#x4f6;" horiz-adv-x="550" 
d="M44 0l112 705h452l-14 -87h-349l-85 -534h101l-40 -245h-92l25 161h-110z" />
    <glyph glyph-name="uni04F7" unicode="&#x4f7;" horiz-adv-x="445" 
d="M38 0l77 488h354l-13 -81h-252l-53 -329h78l-33 -208h-87l21 130h-92z" />
    <glyph glyph-name="uni04F8" unicode="&#x4f8;" horiz-adv-x="876" 
d="M44 0l112 705h103l-49 -303h153q113 0 170 -50.5t57 -131.5q0 -108 -66.5 -164t-194.5 -56h-285zM651 0l112 705h103l-112 -705h-103zM160 84h172q157 0 157 131q0 103 -138 103h-154zM559 799l17 99h98l-15 -99h-100zM379 799l16 99h99l-16 -99h-99z" />
    <glyph glyph-name="uni04F9" unicode="&#x4f9;" horiz-adv-x="751" 
d="M38 0l77 488h101l-27 -169h136q83 0 126.5 -39.5t43.5 -106.5q0 -82 -56.5 -127.5t-149.5 -45.5h-251zM535 0l77 488h101l-77 -488h-101zM150 69h130q120 0 120 98q0 43 -26 63t-74 20h-121zM472 604l14 99h100l-16 -99h-98zM291 604l15 99h99l-15 -99h-99z" />
    <glyph glyph-name="uni04FA" unicode="&#x4fa;" horiz-adv-x="589" 
d="M35 -184l-6 73l49 4q100 9 114 107h-110l50 312h-96l13 77h95l50 316h452l-13 -87h-349l-37 -229h183l-11 -77h-184l-35 -228h100l-10 -68q-15 -94 -61.5 -141.5t-134.5 -53.5z" />
    <glyph glyph-name="uni04FB" unicode="&#x4fb;" horiz-adv-x="467" 
d="M20 -184l-1 73l52 5q38 3 58 31.5t27 74.5h-96l31 197h-93l11 73h94l34 218h354l-13 -81h-253l-21 -137h143l-12 -73h-143l-18 -117h85l-10 -64q-15 -95 -58 -142.5t-113 -52.5z" />
    <glyph glyph-name="uni04FC" unicode="&#x4fc;" horiz-adv-x="660" 
d="M371 -186l-19 83q64 8 93.5 33.5t29.5 75.5q0 20 -8.5 47.5t-27.5 61.5l-100 172l-248 -287h-127l324 364l-200 341h113l157 -275l236 275h127l-310 -350l118 -202q25 -43 35.5 -81.5t10.5 -67.5q0 -90 -52.5 -134t-151.5 -56z" />
    <glyph glyph-name="uni04FD" unicode="&#x4fd;" horiz-adv-x="546" 
d="M289 -186l-16 73q50 5 76 25.5t26 65.5q0 20 -11 44.5t-34 60.5l-63 99l-172 -182h-122l243 253l-153 235h114l107 -171l156 171h121l-226 -241l80 -121q29 -46 43 -81.5t14 -71.5q0 -74 -47 -112.5t-136 -46.5z" />
    <glyph glyph-name="uni04FE" unicode="&#x4fe;" horiz-adv-x="660" 
d="M-36 0l324 364l-200 341h113l157 -275l236 275h127l-310 -350l208 -355h-114l-166 287l-248 -287h-127zM127 327l12 73h431l-12 -73h-431z" />
    <glyph glyph-name="uni04FF" unicode="&#x4ff;" horiz-adv-x="546" 
d="M-26 0l243 253l-153 235h113l108 -172l156 172h121l-227 -241l162 -247h-113l-116 181l-173 -181h-121zM51 209l12 73h431l-12 -73h-431z" />
    <glyph glyph-name="uni0510" unicode="&#x510;" horiz-adv-x="637" 
d="M300 -9q-129 0 -193 49t-60 136q3 70 44.5 120t111.5 68q-44 18 -67 54.5t-20 90.5q3 62 39 108t99 71.5t146 25.5q79 0 140.5 -23t101.5 -64l-46 -77q-38 38 -87.5 57t-115.5 19q-81 0 -128 -34.5t-48 -93.5q-3 -99 129 -99h156l-14 -84h-171q-79 0 -122.5 -33
t-44.5 -94q-2 -56 40 -82.5t125 -26.5q74 0 133 19t109 56l27 -79q-51 -39 -124 -61.5t-160 -22.5z" />
    <glyph glyph-name="uni0511" unicode="&#x511;" horiz-adv-x="507" 
d="M221 -9q-99 0 -148 33.5t-49 91.5q0 57 32 92t84 45q-31 13 -48.5 39.5t-17.5 59.5q0 50 30.5 82.5t81.5 47.5t113 15q59 0 111.5 -15t82.5 -40l-36 -67q-60 47 -157 47q-63 0 -98 -18.5t-35 -59.5q0 -27 21 -43.5t61 -16.5h105l-11 -74h-115q-52 0 -81.5 -21t-29.5 -61
q0 -31 26.5 -46.5t86.5 -15.5q53 0 103.5 12.5t92.5 39.5l22 -69q-48 -30 -105.5 -44t-121.5 -14z" />
    <glyph glyph-name="uni0512" unicode="&#x512;" horiz-adv-x="746" 
d="M377 -193l-6 76l45 4q89 9 104 102l99 629h-282l-27 -169q-23 -143 -60 -233.5t-90.5 -144.5t-127.5 -87l-43 79q41 21 76 48.5t63 72t50.5 115t39.5 177.5l37 229h481l-112 -708q-15 -92 -63.5 -136.5t-138.5 -50.5z" />
    <glyph glyph-name="uni0513" unicode="&#x513;" horiz-adv-x="585" 
d="M228 -193l-7 76l46 4q86 8 101 102l66 418h-178l-10 -63q-19 -118 -45.5 -190t-70 -110.5t-113.5 -56.5l-24 82q47 15 77.5 46t50 87.5t33.5 148.5l22 137h371l-79 -497q-14 -88 -60 -131.5t-136 -49.5z" />
    <glyph glyph-name="uni051A" unicode="&#x51a;" horiz-adv-x="775" 
d="M533 -206l-66 140q-14 29 -39 43t-67 14h1q-88 2 -152.5 38.5t-100.5 103.5t-36 163q0 120 43 214.5t124.5 149t195.5 54.5q92 0 159.5 -35.5t104.5 -103.5t37 -165q0 -95 -27 -175t-79 -137t-126 -85q37 -16 60 -65l56 -121zM376 81q81 0 137.5 42.5t85.5 116.5t29 168
q0 110 -52 163t-143 53q-81 0 -137 -42t-85 -116t-29 -168q0 -110 51.5 -163.5t142.5 -53.5z" />
    <glyph glyph-name="uni051B" unicode="&#x51b;" horiz-adv-x="602" 
d="M358 -180l40 256q-27 -40 -69.5 -62.5t-96.5 -22.5q-84 0 -135 56.5t-51 152.5q0 82 29 149.5t84 107.5t131 40q55 0 98.5 -25.5t62.5 -77.5l15 94h99l-106 -668h-101zM269 69q50 0 85.5 29t54 77.5t18.5 107.5q0 66 -32 100.5t-88 34.5q-51 0 -86.5 -28.5t-54 -77
t-18.5 -108.5q0 -66 32 -100.5t89 -34.5z" />
    <glyph glyph-name="uni051C" unicode="&#x51c;" horiz-adv-x="1107" 
d="M235 0l-136 705h101l101 -555l282 555h79l103 -561l282 561h107l-361 -705h-87l-104 547l-280 -547h-87z" />
    <glyph glyph-name="uni051D" unicode="&#x51d;" horiz-adv-x="858" 
d="M170 0l-109 488h98l73 -368l193 368h77l75 -374l193 374h105l-264 -488h-92l-74 349l-184 -349h-91z" />
    <glyph glyph-name="uni0524" unicode="&#x524;" horiz-adv-x="803" 
d="M621 -161l26 161h-111l98 618h-389l-98 -618h-103l112 705h595l-98 -621h100l-39 -245h-93z" />
    <glyph glyph-name="uni0525" unicode="&#x525;" horiz-adv-x="621" 
d="M451 -130l21 130h-94l64 407h-238l-65 -407h-101l77 488h441l-65 -410h80l-34 -208h-86z" />
    <glyph glyph-name="uni0526" unicode="&#x526;" horiz-adv-x="727" 
d="M573 -161l25 161h-110l24 152q18 109 -19.5 158.5t-129.5 49.5q-41 0 -84 -7.5t-80 -27.5l-52 -325h-103l112 705h103l-46 -287q32 15 77.5 23.5t90.5 8.5q131 0 194 -76t41 -219l-12 -71h101l-40 -245h-92z" />
    <glyph glyph-name="uni0527" unicode="&#x527;" horiz-adv-x="602" 
d="M38 0l112 705h101l-47 -294q27 42 70.5 64t99.5 22q80 0 121.5 -49.5t25.5 -153.5l-34 -216h79l-34 -208h-86l21 130h-93l46 292q20 124 -82 124q-67 0 -106.5 -41.5t-50.5 -111.5l-42 -263h-101z" />
    <glyph glyph-name="uni0528" unicode="&#x528;" horiz-adv-x="767" 
d="M-99 -193l-7 76l46 4q86 8 101 102l115 716h103l-49 -304h396l48 304h103l-112 -705h-103l50 314h-395l-51 -317q-14 -92 -61 -136.5t-140 -50.5z" />
    <glyph glyph-name="uni0529" unicode="&#x529;" horiz-adv-x="596" 
d="M-104 -193l-6 76l45 4q86 8 101 102l79 499h101l-32 -197h242l32 197h101l-77 -488h-101l33 211h-242l-34 -214q-14 -92 -60.5 -136.5t-137.5 -50.5z" />
    <glyph glyph-name="uni052E" unicode="&#x52e;" horiz-adv-x="788" 
d="M606 -161l26 161h-111l98 618h-282l-27 -169q-17 -107 -42 -184.5t-58.5 -131t-77.5 -89t-101 -60.5l-42 80q41 20 76 47.5t63 72t50.5 115t39.5 177.5l37 229h481l-98 -621h101l-40 -245h-93z" />
    <glyph glyph-name="uni052F" unicode="&#x52f;" horiz-adv-x="612" 
d="M17 -13l-24 82q47 15 77.5 46t50 87.5t33.5 148.5l22 137h371l-65 -410h78l-34 -208h-86l21 130h-92l64 407h-177l-10 -63q-19 -118 -45.5 -190t-70 -110.5t-113.5 -56.5z" />
    <glyph glyph-name="uni1E08" unicode="&#x1e08;" horiz-adv-x="676" 
d="M386 -9q-91 0 -161.5 34.5t-110.5 105t-40 178.5q0 85 25.5 159t73.5 129.5t117 86t156 30.5q73 0 134 -23.5t99 -63.5l-45 -82q-79 77 -191 77q-82 0 -140 -40.5t-88.5 -111t-30.5 -159.5q0 -121 55.5 -174.5t156.5 -53.5q52 0 97.5 17.5t93.5 56.5l33 -81
q-45 -42 -106.5 -63.5t-127.5 -21.5zM348 -194q-27 0 -52 5.5t-41 15.5l20 49q17 -8 33.5 -12t38.5 -4q28 0 44 9t16 26q0 24 -35 24q-10 0 -20 -1.5t-25 -5.5l-16 16l29 92h58l-20 -60h14q36 0 57.5 -16.5t21.5 -47.5q0 -41 -35 -65.5t-88 -24.5zM412 765l131 173h111
l-168 -173h-74z" />
    <glyph glyph-name="uni1E09" unicode="&#x1e09;" horiz-adv-x="467" 
d="M264 -9q-113 0 -168 60.5t-55 158.5q0 54 16 105t49 92t83.5 65.5t119.5 24.5q49 0 93 -15.5t71 -41.5l-33 -71q-49 48 -126 48q-61 0 -98 -30.5t-54 -78t-17 -97.5q0 -64 30.5 -102t101.5 -38q29 0 62 11.5t61 35.5l26 -73q-29 -26 -74.5 -40t-87.5 -14zM221 -194
q-27 0 -52 5.5t-41 15.5l20 49q17 -8 33.5 -12t38.5 -4q28 0 44 9t16 26q0 24 -35 24q-10 0 -20 -1.5t-25 -5.5l-16 16l29 92h58l-20 -60h14q36 0 57.5 -16.5t21.5 -47.5q0 -41 -35 -65.5t-88 -24.5zM283 553l133 202h105l-168 -202h-70z" />
    <glyph glyph-name="uni1E0C" unicode="&#x1e0c;" horiz-adv-x="751" 
d="M44 0l112 705h215q164 0 253 -78t89 -220q0 -85 -24.5 -158.5t-74 -129.5t-125 -87.5t-177.5 -31.5h-268zM161 87h153q103 0 167 42.5t94 115t30 161.5q0 103 -58.5 157.5t-175.5 54.5h-126zM256 -195l16 101h105l-16 -101h-105z" />
    <glyph glyph-name="uni1E0D" unicode="&#x1e0d;" horiz-adv-x="591" 
d="M226 -9q-84 0 -135 56.5t-51 152.5q0 82 29 149.5t84 107.5t131 40q54 0 97 -25t63 -75l48 308h101l-112 -705h-99l13 80q-27 -42 -70.5 -65.5t-98.5 -23.5zM263 69q50 0 85.5 29t54 77.5t18.5 107.5q0 66 -32 100.5t-88 34.5q-51 0 -86.5 -28.5t-54 -77t-18.5 -108.5
q0 -66 32 -100.5t89 -34.5zM180 -195l16 101h105l-16 -101h-105z" />
    <glyph glyph-name="uni1E0E" unicode="&#x1e0e;" horiz-adv-x="751" 
d="M44 0l112 705h215q164 0 253 -78t89 -220q0 -85 -24.5 -158.5t-74 -129.5t-125 -87.5t-177.5 -31.5h-268zM161 87h153q103 0 167 42.5t94 115t30 161.5q0 103 -58.5 157.5t-175.5 54.5h-126zM162 -160l10 64h305l-10 -64h-305z" />
    <glyph glyph-name="uni1E0F" unicode="&#x1e0f;" horiz-adv-x="591" 
d="M226 -9q-84 0 -135 56.5t-51 152.5q0 82 29 149.5t84 107.5t131 40q54 0 97 -25t63 -75l48 308h101l-112 -705h-99l13 80q-27 -42 -70.5 -65.5t-98.5 -23.5zM263 69q50 0 85.5 29t54 77.5t18.5 107.5q0 66 -32 100.5t-88 34.5q-51 0 -86.5 -28.5t-54 -77t-18.5 -108.5
q0 -66 32 -100.5t89 -34.5zM86 -160l10 64h305l-10 -64h-305z" />
    <glyph glyph-name="uni1E14" unicode="&#x1e14;" horiz-adv-x="589" 
d="M44 0l112 705h456l-13 -84h-357l-35 -221h336l-13 -84h-336l-38 -232h357l-13 -84h-456zM396 887l-102 138h100l68 -138h-66zM260 787l11 63h305l-11 -63h-305z" />
    <glyph glyph-name="uni1E15" unicode="&#x1e15;" horiz-adv-x="537" 
d="M275 -9q-108 0 -171 58.5t-63 159.5q0 80 33 145.5t92.5 104t138.5 38.5q78 0 123.5 -35.5t62.5 -93t8 -123.5l-3 -24h-359q-5 -70 33.5 -111t111.5 -41q45 0 84.5 13t71.5 41l28 -68q-34 -31 -85.5 -47.5t-105.5 -16.5zM304 426q-47 0 -79.5 -20.5t-51.5 -53t-27 -69.5
h274q5 60 -22 101.5t-94 41.5zM310 670l-103 137h100l68 -137h-65zM174 569l10 64h305l-10 -64h-305z" />
    <glyph glyph-name="uni1E16" unicode="&#x1e16;" horiz-adv-x="589" 
d="M44 0l112 705h456l-13 -84h-357l-35 -221h336l-13 -84h-336l-38 -232h357l-13 -84h-456zM396 887l92 138h102l-128 -138h-66zM260 787l11 63h305l-11 -63h-305z" />
    <glyph glyph-name="uni1E17" unicode="&#x1e17;" horiz-adv-x="537" 
d="M275 -9q-108 0 -171 58.5t-63 159.5q0 80 33 145.5t92.5 104t138.5 38.5q78 0 123.5 -35.5t62.5 -93t8 -123.5l-3 -24h-359q-5 -70 33.5 -111t111.5 -41q45 0 84.5 13t71.5 41l28 -68q-34 -31 -85.5 -47.5t-105.5 -16.5zM304 426q-47 0 -79.5 -20.5t-51.5 -53t-27 -69.5
h274q5 60 -22 101.5t-94 41.5zM310 670l92 137h101l-128 -137h-65zM174 569l10 64h305l-10 -64h-305z" />
    <glyph glyph-name="uni1E1C" unicode="&#x1e1c;" horiz-adv-x="589" 
d="M44 0l112 705h456l-13 -84h-357l-35 -221h336l-13 -84h-336l-38 -232h357l-13 -84h-456zM272 -194q-27 0 -52 5.5t-41 15.5l20 49q17 -8 33.5 -12t38.5 -4q28 0 44 9t16 26q0 24 -35 24q-10 0 -20 -1.5t-25 -5.5l-16 16l29 92h58l-20 -60h14q36 0 57.5 -16.5t21.5 -47.5
q0 -41 -35 -65.5t-88 -24.5zM413 760q-73 0 -118 46.5t-43 122.5l60 8q-2 -54 26.5 -83.5t78.5 -29.5t83 29.5t42 83.5l60 -8q-12 -78 -64 -123.5t-125 -45.5z" />
    </font>
</defs>
</svg>
