<?xml version="1.0" standalone="no"?>
<!DOCTYPE svg PUBLIC "-//W3C//DTD SVG 1.1//EN" "http://www.w3.org/Graphics/SVG/1.1/DTD/svg11.dtd" >
<svg xmlns="http://www.w3.org/2000/svg" xmlns:xlink="http://www.w3.org/1999/xlink" version="1.1">
<metadata>
Created by FontForge 20170731 at Mon Jun 29 15:02:12 2020
 By Aleksey,,,
Copyright 2016 The Nunito Sans Project Authors (https://github.com/Fonthausen/NunitoSans)
</metadata>
<defs>
<font id="NunitoSans-BoldItalic" horiz-adv-x="600" >
  <font-face 
    font-family="Nunito Sans"
    font-weight="700"
    font-style="italic"
    font-stretch="normal"
    units-per-em="1000"
    panose-1="0 0 0 0 0 0 0 0 0 0"
    ascent="800"
    descent="-200"
    x-height="489"
    cap-height="705"
    bbox="-319 -278 1389 1051"
    underline-thickness="44"
    underline-position="-151"
    slope="-9"
    unicode-range="U+000D-FB02"
  />
<missing-glyph horiz-adv-x="500" 
d="M50 -180v885h400v-885h-400zM100 -130h300v785h-300v-785z" />
    <glyph glyph-name="fi" unicode="fi" horiz-adv-x="610" 
d="M470 594l20 122h138l-20 -122h-138zM60 0l63 395h-94l15 94h93l4 24q14 87 70.5 138t170.5 56l54 3l-2 -92l-47 -3q-56 -4 -84.5 -27.5t-36.5 -72.5l-4 -26h322l-78 -489h-125l63 395h-196l-63 -395h-125z" />
    <glyph glyph-name="fl" unicode="fl" horiz-adv-x="683" 
d="M60 0l63 395h-94l15 94h93l4 24q14 87 70.5 138.5t170.5 55.5l59 3l-2 -92l-52 -3q-56 -4 -84.5 -27.5t-36.5 -72.5l-4 -26h131l-15 -94h-130l-63 -395h-125zM563 -10q-85 0 -122 47.5t-23 138.5l84 529h125l-84 -528q-7 -44 8.5 -64.5t53.5 -20.5q11 0 22 1.5t22 2.5
l-17 -97q-30 -9 -69 -9z" />
    <glyph glyph-name=".notdef" horiz-adv-x="500" 
d="M50 -180v885h400v-885h-400zM100 -130h300v785h-300v-785z" />
    <glyph glyph-name=".null" horiz-adv-x="0" 
 />
    <glyph glyph-name="nonmarkingreturn" horiz-adv-x="333" 
 />
    <glyph glyph-name="NULL" horiz-adv-x="0" 
 />
    <glyph glyph-name="NULL" horiz-adv-x="0" 
 />
    <glyph glyph-name="CR" unicode="&#xd;" horiz-adv-x="270" 
 />
    <glyph glyph-name="space" unicode=" " horiz-adv-x="270" 
 />
    <glyph glyph-name="exclam" unicode="!" horiz-adv-x="248" 
d="M81 213l39 492h154l-117 -492h-76zM16 0l22 139h140l-22 -139h-140z" />
    <glyph glyph-name="quotedbl" unicode="&#x22;" horiz-adv-x="447" 
d="M107 415l15 290h145l-76 -290h-84zM312 415l15 290h145l-76 -290h-84z" />
    <glyph glyph-name="numbersign" unicode="#" 
d="M42 0l61 172h-70l12 80h87l74 209h-106l12 81h122l58 163h86l-58 -163h127l58 163h87l-58 -163h69l-12 -81h-86l-74 -209h105l-12 -80h-121l-62 -172h-86l61 172h-126l-61 -172h-87zM218 252h127l74 209h-127z" />
    <glyph glyph-name="dollar" unicode="$" 
d="M203 -115l17 112q-60 6 -113.5 25.5t-96.5 55.5l45 99q56 -41 114.5 -58t120.5 -17t102 24.5t40 69.5q0 35 -23 56.5t-79 35.5l-98 25q-72 19 -114 63.5t-42 118.5q0 67 34.5 114t93 73t129.5 29l18 109h100l-20 -117q44 -9 86 -28.5t76 -50.5l-46 -93q-44 40 -95.5 56
t-100.5 16q-68 0 -108 -25.5t-40 -70.5q0 -39 21 -59t62 -31l98 -25q175 -46 175 -183q0 -65 -32.5 -110t-87 -71t-119.5 -32l-17 -111h-100z" />
    <glyph glyph-name="percent" unicode="%" horiz-adv-x="945" 
d="M269 -31l-74 53l515 711l74 -53zM240 281q-76 0 -118 44.5t-42 120.5q0 74 23.5 134.5t68.5 96t110 35.5q77 0 118.5 -45t41.5 -121q0 -75 -23.5 -135t-68.5 -95t-110 -35zM240 361q33 0 55 26.5t33.5 68.5t12.5 89q2 47 -14.5 66.5t-44.5 19.5q-33 0 -55 -26t-33.5 -68
t-12.5 -90q-1 -46 15 -66t44 -20zM697 -10q-77 0 -118.5 45t-41.5 120q0 74 23.5 134.5t68.5 96t109 35.5q77 0 118.5 -45t41.5 -121q0 -75 -23 -135t-68 -95t-110 -35zM696 71q34 0 56 26t33.5 68.5t12.5 89.5t-15 66.5t-44 19.5q-33 0 -55.5 -26.5t-34 -68.5t-12.5 -89
q-1 -46 15 -66t44 -20z" />
    <glyph glyph-name="ampersand" unicode="&#x26;" horiz-adv-x="726" 
d="M265 -10q-102 0 -161 45.5t-59 119.5q0 53 24 95.5t64.5 77t89.5 61.5l6 3q-26 34 -38 67t-12 64q0 56 28 99.5t76.5 68t111.5 24.5q72 0 116.5 -38.5t44.5 -100.5q0 -46 -23 -82.5t-60 -66t-81 -54.5l113 -145q27 40 46 90t31 105h104q-13 -76 -43 -145t-72 -123
l129 -155h-146l-61 77q-47 -41 -104.5 -64t-123.5 -23zM388 626q-43 0 -68 -25.5t-25 -67.5q0 -22 8.5 -41.5t30.5 -48.5q59 28 88 59t29 70q0 54 -63 54zM284 89q44 0 80 14.5t67 42.5l-141 176l-1 -1q-30 -17 -57.5 -37.5t-44.5 -47t-17 -63.5q0 -40 29 -62t85 -22z" />
    <glyph glyph-name="quotesingle" unicode="'" horiz-adv-x="242" 
d="M107 415l15 290h145l-76 -290h-84z" />
    <glyph glyph-name="parenleft" unicode="(" horiz-adv-x="357" 
d="M166 -195q-35 81 -52.5 166.5t-17.5 167.5q0 112 27 218t75 199t110 165l85 -40q-76 -133 -119.5 -273t-43.5 -310q0 -61 6.5 -123t17.5 -136z" />
    <glyph glyph-name="parenright" unicode=")" horiz-adv-x="357" 
d="M55 -195l-85 40q77 134 120.5 274t43.5 309q0 62 -6.5 123.5t-18.5 135.5l88 34q36 -81 53.5 -166t17.5 -168q0 -112 -27 -218t-75 -198.5t-111 -165.5z" />
    <glyph glyph-name="asterisk" unicode="*" horiz-adv-x="452" 
d="M210 338l-76 44l72 110l-130 -7v87l131 -8l-72 111l76 44l61 -126l60 126l76 -45l-72 -110l131 8v-87l-131 7l72 -110l-76 -44l-61 127z" />
    <glyph glyph-name="plus" unicode="+" 
d="M222 40l32 203h-198l14 88h198l31 197h91l-31 -197h199l-14 -88h-199l-32 -203h-91z" />
    <glyph glyph-name="comma" unicode="," horiz-adv-x="248" 
d="M60 -133l-44 48q26 24 40.5 43.5t22.5 41.5h-64l22 139h140l-16 -103q-8 -51 -29 -89.5t-72 -79.5z" />
    <glyph glyph-name="hyphen" unicode="-" horiz-adv-x="434" 
d="M64 218l16 99h298l-16 -99h-298z" />
    <glyph glyph-name="period" unicode="." horiz-adv-x="248" 
d="M15 0l22 139h140l-22 -139h-140z" />
    <glyph glyph-name="slash" unicode="/" horiz-adv-x="313" 
d="M23 -73l-86 40l382 794l87 -40z" />
    <glyph glyph-name="zero" unicode="0" 
d="M288 -10q-113 0 -172.5 68.5t-59.5 197.5q0 142 35.5 244.5t101 158.5t154.5 56q113 0 172.5 -68t59.5 -196q0 -142 -35.5 -245.5t-101 -159.5t-154.5 -56zM294 95q71 0 115.5 94t45.5 281q1 140 -114 140q-70 0 -115.5 -94t-45.5 -280q0 -141 114 -141z" />
    <glyph glyph-name="one" unicode="1" 
d="M70 0l17 106h159l71 445l-128 -70l-40 98l229 126h91l-95 -599h149l-17 -106h-436z" />
    <glyph glyph-name="two" unicode="2" 
d="M45 0l15 95l260 241q53 49 84.5 92.5t31.5 92.5q0 41 -28 63.5t-78 22.5q-46 0 -91 -18.5t-90 -53.5l-39 97q52 40 114.5 61.5t130.5 21.5q63 0 110 -22.5t72.5 -61.5t25.5 -90q0 -58 -21 -105t-58 -89t-85 -84l-175 -157h302l-17 -106h-464z" />
    <glyph glyph-name="three" unicode="3" 
d="M276 -10q-67 0 -136 19t-116 65l51 92q47 -39 96 -53.5t105 -14.5t94 30t38 85q0 42 -28.5 66t-84.5 24h-109l16 106h101q59 0 98.5 29t39.5 82q0 41 -29.5 64t-77.5 23q-49 0 -98 -17.5t-93 -53.5l-40 96q51 41 117 62t131 21q71 0 118.5 -24.5t71.5 -64.5t24 -87
q1 -66 -39 -113t-103 -65q53 -18 81 -59.5t28 -96.5q0 -59 -31.5 -108t-88.5 -78t-136 -29z" />
    <glyph glyph-name="four" unicode="4" 
d="M311 0l21 134h-308l14 94l405 477h106l-74 -465h97l-15 -106h-97l-21 -134h-128zM348 240l44 274l-230 -274h186z" />
    <glyph glyph-name="five" unicode="5" 
d="M282 -10q-61 0 -125 19t-110 65l51 92q46 -39 90.5 -53.5t93.5 -14.5q65 0 107.5 38t42.5 99q0 50 -31 79t-82 29q-42 0 -78.5 -17.5t-67.5 -49.5h-86l69 429h432l-16 -106h-308l-31 -191q59 40 130 40q57 0 100.5 -24.5t68 -69.5t24.5 -107q0 -79 -37.5 -136.5t-100 -89
t-136.5 -31.5z" />
    <glyph glyph-name="six" unicode="6" 
d="M310 -10q-115 0 -180.5 72t-65.5 196q0 138 40 240.5t116 159.5t183 57q59 0 112 -21.5t94 -63.5l-52 -91q-36 35 -76.5 51.5t-84.5 16.5q-87 0 -141 -67.5t-66 -189.5q25 48 74.5 75t103.5 27q56 0 98.5 -27t66.5 -72.5t24 -101.5q0 -74 -31.5 -133.5t-87 -93.5
t-127.5 -34zM305 92q59 0 95.5 42t36.5 106q0 49 -31 79.5t-80 30.5q-59 0 -95.5 -42t-36.5 -106q0 -49 31 -79.5t80 -30.5z" />
    <glyph glyph-name="seven" unicode="7" 
d="M47 0l408 598h-345l17 107h491l-15 -96l-411 -609h-145z" />
    <glyph glyph-name="eight" unicode="8" 
d="M270 -10q-111 0 -177 48.5t-66 131.5q0 71 41.5 124t106.5 70q-38 19 -59 56t-21 87q0 67 35 113t95.5 70t135.5 24q102 0 163.5 -46.5t61.5 -124.5q0 -62 -36 -112t-92 -71q44 -17 70 -56t26 -95q0 -71 -37 -120t-101 -74t-146 -25zM325 407q64 0 103 32.5t39 86.5
q0 43 -29.5 65.5t-81.5 22.5q-67 0 -104.5 -31t-37.5 -87q0 -43 29.5 -66t81.5 -23zM276 90q73 0 116 32t43 93q0 46 -35.5 69t-93.5 23q-73 0 -116.5 -31.5t-43.5 -91.5q0 -46 35.5 -70t94.5 -24z" />
    <glyph glyph-name="nine" unicode="9" 
d="M241 -10q-58 0 -116 22t-99 63l51 92q75 -69 165 -69q83 0 137.5 68t66.5 190q-25 -49 -75 -76t-104 -27q-56 0 -98.5 27t-66.5 73t-24 102q0 75 32 133.5t87.5 92.5t127.5 34q116 0 180.5 -71.5t64.5 -195.5q0 -96 -20.5 -179t-62 -145.5t-103 -98t-143.5 -35.5z
M308 355q59 0 95.5 42.5t36.5 105.5q0 50 -31 80.5t-79 30.5q-59 0 -95.5 -42.5t-36.5 -105.5q0 -49 31 -80t79 -31z" />
    <glyph glyph-name="colon" unicode=":" horiz-adv-x="248" 
d="M71 351l22 138h140l-22 -138h-140zM16 0l22 139h140l-22 -139h-140z" />
    <glyph glyph-name="semicolon" unicode=";" horiz-adv-x="248" 
d="M71 351l22 138h140l-22 -138h-140zM60 -133l-44 48q26 24 40.5 43.5t22.5 41.5h-64l22 139h140l-16 -103q-8 -51 -29 -89.5t-72 -79.5z" />
    <glyph glyph-name="less" unicode="&#x3c;" 
d="M510 33l-455 207l15 95l521 207l-16 -102l-402 -158l352 -158z" />
    <glyph glyph-name="equal" unicode="=" 
d="M71 343l14 88h488l-14 -88h-488zM40 144l14 87h488l-14 -87h-488z" />
    <glyph glyph-name="greater" unicode="&#x3e;" 
d="M22 33l16 101l401 158l-351 158l15 92l455 -207l-15 -95z" />
    <glyph glyph-name="question" unicode="?" horiz-adv-x="459" 
d="M178 209l6 41q5 33 14 59.5t29.5 53t57.5 58.5q16 14 34.5 31t31.5 38.5t13 49.5q0 29 -19.5 48t-62.5 19q-93 0 -179 -71l-40 94q52 44 116 64.5t128 20.5q58 0 99 -21t63 -56t22 -78q0 -64 -37 -110.5t-85 -78.5q-37 -27 -58 -49t-31.5 -42.5t-17.5 -43.5l-9 -27h-75z
M113 0l22 139h139l-22 -139h-139z" />
    <glyph glyph-name="at" unicode="@" horiz-adv-x="950" 
d="M496 -165q-128 0 -225.5 54t-152 151.5t-54.5 227.5q0 101 32 183t92 141t142.5 91t182.5 32q118 0 206.5 -46.5t137.5 -130t49 -196.5q0 -87 -24.5 -150.5t-68 -98t-101.5 -34.5q-49 0 -81 22.5t-43 63.5q-27 -43 -65 -64.5t-81 -21.5q-80 0 -124 50t-44 137
q0 73 27.5 130t76 90t110.5 33q89 0 122 -71l11 61h93l-42 -241q-6 -33 -6 -54q0 -61 52 -61q49 0 79.5 57.5t30.5 151.5q0 93 -38.5 159t-109 101.5t-168.5 35.5q-109 0 -190 -45.5t-126 -128.5t-45 -196q0 -111 42.5 -191t120 -122.5t182.5 -42.5q152 0 243 83l40 -66
q-48 -45 -121 -69.5t-162 -24.5zM460 138q57 0 93.5 51t36.5 133q0 97 -86 97q-58 0 -95 -48t-37 -124q0 -53 23 -81t65 -28z" />
    <glyph glyph-name="A" unicode="A" horiz-adv-x="744" 
d="M-38 0l432 705h105l206 -705h-123l-43 163h-345l-96 -163h-136zM430 566l-177 -301h258l-79 301h-2z" />
    <glyph glyph-name="B" unicode="B" horiz-adv-x="688" 
d="M38 0l112 705h290q117 0 169.5 -46.5t52.5 -120.5q0 -68 -38.5 -114.5t-102.5 -64.5q51 -18 79 -57t28 -92q0 -103 -68 -156.5t-188 -53.5h-334zM226 406h171q67 0 104 30t37 87q0 41 -28.5 63t-89.5 22h-162zM176 97h190q69 0 103.5 31t34.5 89q0 46 -30.5 69t-88.5 23
h-175z" />
    <glyph glyph-name="C" unicode="C" horiz-adv-x="679" 
d="M392 -10q-93 0 -165.5 35.5t-114 106.5t-41.5 178q0 86 25.5 159.5t74 128.5t119.5 86t161 31q73 0 135 -23t99 -61l-52 -102q-79 72 -185 72q-77 0 -131 -37.5t-82 -102.5t-28 -147q0 -111 51 -160.5t148 -49.5q47 0 92 16t92 52l37 -101q-44 -39 -107 -60t-128 -21z
" />
    <glyph glyph-name="D" unicode="D" horiz-adv-x="762" 
d="M38 0l112 705h226q168 0 259 -79t92 -222q0 -113 -44.5 -205t-134 -145.5t-225.5 -53.5h-285zM183 106h142q94 0 153 39t87 106t28 151q0 96 -54.5 146.5t-162.5 50.5h-115z" />
    <glyph glyph-name="E" unicode="E" horiz-adv-x="597" 
d="M39 0l111 705h469l-16 -102h-346l-31 -194h325l-16 -102h-325l-33 -205h346l-16 -102h-468z" />
    <glyph glyph-name="F" unicode="F" horiz-adv-x="562" 
d="M39 0l111 705h462l-16 -102h-333l-32 -199h312l-16 -102h-312l-48 -302h-128z" />
    <glyph glyph-name="G" unicode="G" horiz-adv-x="736" 
d="M398 -10q-98 0 -172 36t-115 106t-41 171q0 120 46 213t133.5 146t210.5 53q79 0 141 -22.5t98 -58.5l-52 -101q-82 70 -194 70q-79 0 -134.5 -38.5t-85 -105t-29.5 -151.5q0 -106 55 -157t157 -51q33 0 63.5 5t60.5 14l27 167h-162l14 95h269l-54 -345
q-48 -22 -111.5 -34t-124.5 -12z" />
    <glyph glyph-name="H" unicode="H" horiz-adv-x="773" 
d="M38 0l112 705h128l-47 -294h363l47 294h128l-112 -705h-128l48 304h-363l-48 -304h-128z" />
    <glyph glyph-name="I" unicode="I" horiz-adv-x="282" 
d="M38 0l112 705h128l-112 -705h-128z" />
    <glyph glyph-name="J" unicode="J" horiz-adv-x="354" 
d="M-38 -9l2 105l72 4q47 3 73 29t34 78l79 498h128l-81 -509q-15 -94 -65.5 -144t-159.5 -57z" />
    <glyph glyph-name="K" unicode="K" horiz-adv-x="664" 
d="M38 0l112 705h128l-50 -312h2l355 312h163l-396 -348l301 -357h-148l-285 329h-2l-52 -329h-128z" />
    <glyph glyph-name="L" unicode="L" horiz-adv-x="562" 
d="M38 0l112 705h128l-94 -596h337l-17 -109h-466z" />
    <glyph glyph-name="M" unicode="M" horiz-adv-x="868" 
d="M40 0l112 705h102l175 -464l323 464h110l-112 -705h-116l75 476l-258 -369h-74l-145 368l-76 -475h-116z" />
    <glyph glyph-name="N" unicode="N" horiz-adv-x="747" 
d="M38 0l112 705h96l298 -506l80 506h119l-112 -705h-95l-299 506l-80 -506h-119z" />
    <glyph glyph-name="O" unicode="O" horiz-adv-x="785" 
d="M381 -10q-94 0 -164 36t-108.5 105.5t-38.5 167.5q0 121 44.5 214.5t127.5 147.5t197 54q95 0 164.5 -36t108 -105t38.5 -167q0 -121 -44.5 -215t-127 -148t-197.5 -54zM383 100q75 0 127 39.5t79 108.5t27 157q0 101 -48 150.5t-132 49.5q-74 0 -126 -39t-79 -107.5
t-27 -157.5q0 -102 48 -151.5t131 -49.5z" />
    <glyph glyph-name="P" unicode="P" horiz-adv-x="652" 
d="M38 0l112 705h274q117 0 178 -50.5t61 -145.5q0 -115 -71 -180t-206 -65h-178l-42 -264h-128zM224 365h168q72 0 109.5 34.5t37.5 99.5q0 105 -130 105h-147z" />
    <glyph glyph-name="Q" unicode="Q" horiz-adv-x="785" 
d="M538 -213l-70 150q-13 28 -36 40.5t-65 12.5h1q-91 3 -157.5 40t-103.5 105t-37 164q0 121 44.5 214.5t127.5 147.5t197 54q95 0 164.5 -36t108 -105t38.5 -167q0 -138 -58 -241t-163 -148q38 -16 60 -63l59 -127zM383 100q75 0 127 39.5t79 108.5t27 157
q0 101 -48 150.5t-132 49.5q-74 0 -126 -39t-79 -107.5t-27 -157.5q0 -102 48 -151.5t131 -49.5z" />
    <glyph glyph-name="R" unicode="R" horiz-adv-x="686" 
d="M38 0l112 705h275q117 0 177.5 -52t60.5 -143q0 -96 -53 -150t-139 -69q26 -11 44.5 -34.5t31.5 -56.5l77 -200h-131l-82 216q-13 36 -35 51t-62 15h-103l-44 -282h-129zM226 377h170q68 0 105.5 31.5t37.5 91.5q0 52 -32 78t-101 26h-144z" />
    <glyph glyph-name="S" unicode="S" horiz-adv-x="631" 
d="M300 -10q-77 0 -149.5 20.5t-127.5 64.5l46 97q58 -41 119 -57.5t124 -16.5q70 0 110.5 27t40.5 71q0 33 -24 55.5t-82 35.5l-109 26q-73 17 -116 61.5t-43 118.5q0 70 38.5 119.5t102.5 76t139 26.5q66 0 133 -20t118 -64l-48 -94q-45 38 -99 54t-106 16q-67 0 -109 -28
t-42 -75q0 -38 22 -58t65 -31l109 -26q89 -20 133.5 -66.5t44.5 -111.5q0 -73 -40 -122.5t-106 -74t-144 -24.5z" />
    <glyph glyph-name="T" unicode="T" horiz-adv-x="621" 
d="M208 0l95 598h-242l17 107h612l-17 -107h-242l-95 -598h-128z" />
    <glyph glyph-name="U" unicode="U" horiz-adv-x="737" 
d="M342 -10q-90 0 -155 35t-93.5 105.5t-11.5 176.5l63 398h128l-64 -407q-15 -97 20.5 -147.5t121.5 -50.5q82 0 129 42.5t62 134.5l68 428h127l-67 -426q-22 -142 -100 -215.5t-228 -73.5z" />
    <glyph glyph-name="V" unicode="V" horiz-adv-x="713" 
d="M264 0l-202 705h128l146 -541l319 541h142l-426 -705h-107z" />
    <glyph glyph-name="W" unicode="W" horiz-adv-x="1113" 
d="M232 0l-138 705h125l94 -520l265 520h96l95 -525l264 525h132l-362 -705h-106l-98 508l-261 -508h-106z" />
    <glyph glyph-name="X" unicode="X" horiz-adv-x="672" 
d="M-45 0l324 364l-202 341h140l148 -260l221 260h157l-312 -352l209 -353h-142l-156 270l-230 -270h-157z" />
    <glyph glyph-name="Y" unicode="Y" horiz-adv-x="618" 
d="M206 0l52 323l-211 382h140l145 -268l231 268h153l-330 -380l-52 -325h-128z" />
    <glyph glyph-name="Z" unicode="Z" horiz-adv-x="605" 
d="M8 0l15 95l444 503h-364l17 107h522l-15 -94l-444 -504h380l-17 -107h-538z" />
    <glyph glyph-name="bracketleft" unicode="[" horiz-adv-x="354" 
d="M39 -180l140 885h236l-15 -94h-111l-110 -697h111l-15 -94h-236z" />
    <glyph glyph-name="backslash" unicode="\" horiz-adv-x="313" 
d="M192 -73l-134 815l94 19l135 -814z" />
    <glyph glyph-name="bracketright" unicode="]" horiz-adv-x="354" 
d="M-56 -180l15 94h112l110 697h-111l15 94h236l-140 -885h-237z" />
    <glyph glyph-name="asciicircum" unicode="^" 
d="M30 140l284 488h94l130 -488h-92l-99 377l-217 -377h-100z" />
    <glyph glyph-name="underscore" unicode="_" horiz-adv-x="500" 
d="M-30 -75l12 75h459l-12 -75h-459z" />
    <glyph glyph-name="grave" unicode="`" horiz-adv-x="500" 
d="M256 554l-141 203h121l104 -203h-84z" />
    <glyph glyph-name="a" unicode="a" horiz-adv-x="547" 
d="M193 -10q-45 0 -82 20.5t-59.5 54.5t-22.5 76q0 77 66.5 113t208.5 36h69l3 18q8 47 -14.5 72t-78.5 25q-89 0 -168 -50l-28 86q38 26 96 42t116 16q79 0 124 -29t61 -79t6 -114l-44 -277h-117l11 72q-25 -42 -64 -62t-83 -20zM232 76q47 0 82 30.5t43 82.5l5 29h-52
q-88 0 -123.5 -14.5t-35.5 -54.5q0 -35 23.5 -54t57.5 -19z" />
    <glyph glyph-name="b" unicode="b" 
d="M318 -10q-54 0 -95.5 24.5t-61.5 72.5l-13 -87h-122l112 705h125l-46 -287q28 38 69.5 59.5t92.5 21.5q84 0 134.5 -56.5t50.5 -154.5q0 -83 -29.5 -150.5t-84.5 -107.5t-132 -40zM295 85q46 0 77.5 26t48.5 71t17 100q0 59 -28.5 90.5t-78.5 31.5q-45 0 -77 -26
t-49 -70.5t-17 -100.5q0 -59 28.5 -90.5t78.5 -31.5z" />
    <glyph glyph-name="c" unicode="c" horiz-adv-x="472" 
d="M270 -10q-117 0 -175 61.5t-58 161.5q0 54 16.5 105.5t50.5 92t86.5 64.5t123.5 24q49 0 94 -14.5t73 -39.5l-39 -87q-47 44 -120 44q-57 0 -91.5 -28t-50 -71t-15.5 -89q0 -57 28.5 -92t94.5 -35q28 0 59.5 11t57.5 33l29 -89q-28 -25 -74.5 -38.5t-89.5 -13.5z" />
    <glyph glyph-name="d" unicode="d" 
d="M220 -10q-83 0 -133.5 57t-50.5 154q0 84 29.5 151.5t84.5 107t131 39.5q53 0 94 -23.5t61 -70.5l47 300h125l-112 -705h-122l13 79q-28 -42 -70.5 -65.5t-96.5 -23.5zM269 85q46 0 77.5 26t48.5 71t17 100q0 59 -28.5 90.5t-78.5 31.5q-45 0 -77 -26t-49 -70.5
t-17 -100.5q0 -59 28.5 -90.5t78.5 -31.5z" />
    <glyph glyph-name="e" unicode="e" horiz-adv-x="543" 
d="M280 -10q-74 0 -128.5 27.5t-84.5 77.5t-30 117q0 82 34.5 146.5t95.5 102.5t140 38q80 0 127 -35.5t64.5 -94t9.5 -127.5l-3 -26h-351q-2 -61 34 -96t103 -35q44 0 83.5 12.5t70.5 37.5l31 -82q-35 -30 -87.5 -46.5t-108.5 -16.5zM306 414q-42 0 -71 -17.5t-46 -46.5
t-25 -62h248q4 54 -21 90t-85 36z" />
    <glyph glyph-name="f" unicode="f" horiz-adv-x="364" 
d="M60 0l63 395h-94l15 94h93l4 24q14 87 70.5 138.5t170.5 55.5l59 3l-2 -92l-52 -3q-56 -4 -84.5 -27.5t-36.5 -72.5l-4 -26h131l-15 -94h-130l-63 -395h-125z" />
    <glyph glyph-name="g" unicode="g" horiz-adv-x="604" 
d="M256 -190q-72 0 -131 18t-106 50l38 87q44 -28 87 -44t94 -16q60 0 97 27t47 87l11 72q-26 -38 -68 -58.5t-92 -20.5q-88 0 -142 53.5t-54 147.5q0 77 30.5 142t86.5 104.5t132 39.5q53 0 94.5 -23t61.5 -69l13 82h122l-73 -463q-16 -105 -78 -160.5t-170 -55.5zM271 107
q47 0 79.5 25.5t50 68t17.5 91.5q1 52 -28 82t-82 30q-46 0 -78.5 -25.5t-49 -67.5t-17.5 -91q-1 -53 27.5 -83t80.5 -30z" />
    <glyph glyph-name="h" unicode="h" horiz-adv-x="585" 
d="M26 0l112 705h125l-46 -288q55 82 166 82q80 0 122 -49.5t25 -156.5l-46 -293h-125l46 291q18 110 -72 110q-59 0 -94.5 -37t-45.5 -101l-42 -263h-125z" />
    <glyph glyph-name="i" unicode="i" horiz-adv-x="255" 
d="M114 594l20 122h139l-20 -122h-139zM26 0l78 489h125l-78 -489h-125z" />
    <glyph glyph-name="j" unicode="j" horiz-adv-x="259" 
d="M116 594l20 122h139l-20 -122h-139zM-101 -193l-8 91l47 5q41 3 62.5 25.5t28.5 64.5l79 496h125l-77 -482q-15 -99 -63 -144.5t-149 -52.5z" />
    <glyph glyph-name="k" unicode="k" horiz-adv-x="536" 
d="M27 0l111 705h125l-67 -424h2l227 208h149l-255 -240l197 -249h-145l-182 223h-2l-35 -223h-125z" />
    <glyph glyph-name="l" unicode="l" horiz-adv-x="319" 
d="M199 -10q-85 0 -122 47.5t-23 138.5l84 529h125l-84 -528q-7 -44 8.5 -64.5t53.5 -20.5q11 0 22 1.5t22 2.5l-17 -97q-30 -9 -69 -9z" />
    <glyph glyph-name="m" unicode="m" horiz-adv-x="877" 
d="M28 0l78 489h122l-13 -77q29 44 70 65.5t87 21.5q104 0 135 -96q54 96 172 96q77 0 117.5 -49.5t23.5 -156.5l-46 -293h-125l46 294q17 107 -65 107q-50 0 -82 -36.5t-43 -101.5l-42 -263h-125l47 294q17 107 -65 107q-49 0 -81.5 -36.5t-43.5 -101.5l-42 -263h-125z" />
    <glyph glyph-name="n" unicode="n" horiz-adv-x="585" 
d="M26 0l78 489h122l-13 -78q55 88 170 88q80 0 122 -49.5t25 -156.5l-46 -293h-125l46 291q18 110 -72 110q-59 0 -94.5 -37t-45.5 -101l-42 -263h-125z" />
    <glyph glyph-name="o" unicode="o" horiz-adv-x="576" 
d="M267 -10q-108 0 -169 60t-61 161q0 88 36.5 152.5t98.5 100t137 35.5q108 0 169 -60t61 -161q0 -88 -36.5 -152.5t-98 -100t-137.5 -35.5zM270 85q46 0 77.5 26t48.5 71t17 100q0 59 -28.5 90.5t-78.5 31.5q-45 0 -77 -26t-49 -70.5t-17 -100.5q0 -59 28.5 -90.5
t78.5 -31.5z" />
    <glyph glyph-name="p" unicode="p" 
d="M-2 -180l106 669h122l-11 -75q27 40 69.5 62.5t94.5 22.5q84 0 134.5 -56.5t50.5 -154.5q0 -83 -29.5 -150.5t-84.5 -107.5t-132 -40q-52 0 -93 22.5t-61 67.5l-41 -260h-125zM295 85q46 0 77.5 26t48.5 71t17 100q0 59 -28.5 90.5t-78.5 31.5q-45 0 -77 -26t-49 -70.5
t-17 -100.5q0 -59 28.5 -90.5t78.5 -31.5z" />
    <glyph glyph-name="q" unicode="q" 
d="M343 -180l40 253q-28 -39 -69.5 -61t-93.5 -22q-83 0 -133.5 57t-50.5 154q0 84 29.5 151.5t84.5 107t131 39.5q54 0 96 -25t61 -74l14 89h122l-106 -669h-125zM269 85q46 0 77.5 26t48.5 71t17 100q0 59 -28.5 90.5t-78.5 31.5q-45 0 -77 -26t-49 -70.5t-17 -100.5
q0 -59 28.5 -90.5t78.5 -31.5z" />
    <glyph glyph-name="r" unicode="r" horiz-adv-x="392" 
d="M26 0l78 489h122l-13 -82q22 40 62 64t96 28l43 3l-3 -106l-81 -8q-67 -6 -97 -39t-40 -95l-40 -254h-127z" />
    <glyph glyph-name="s" unicode="s" horiz-adv-x="488" 
d="M226 -10q-62 0 -116.5 15.5t-91.5 43.5l39 81q36 -25 80.5 -38.5t88.5 -13.5q47 0 72 17.5t25 46.5q0 39 -54 51l-92 19q-55 11 -86 43.5t-31 81.5q0 45 25.5 81.5t75 58.5t119.5 22q48 0 96.5 -14.5t81.5 -42.5l-37 -80q-31 25 -69 37t-78 12q-49 0 -75 -18.5t-26 -48.5
q0 -18 11.5 -31t36.5 -18l92 -19q123 -26 123 -125q0 -77 -57.5 -119t-152.5 -42z" />
    <glyph glyph-name="t" unicode="t" horiz-adv-x="384" 
d="M258 -10q-98 0 -142 53.5t-31 138.5l34 213h-94l15 94h94l23 146h125l-23 -146h148l-15 -94h-148l-33 -205q-8 -52 12.5 -74.5t63.5 -22.5q15 0 29 3t27 7l7 -94q-16 -9 -42 -14t-50 -5z" />
    <glyph glyph-name="u" unicode="u" horiz-adv-x="579" 
d="M200 -10q-79 0 -120.5 50t-24.5 157l46 292h125l-46 -291q-18 -109 70 -109q56 0 91 37t45 101l41 262h125l-77 -489h-122l12 77q-27 -42 -69.5 -64.5t-95.5 -22.5z" />
    <glyph glyph-name="v" unicode="v" horiz-adv-x="527" 
d="M170 0l-134 489h127l82 -342l195 342h130l-291 -489h-109z" />
    <glyph glyph-name="w" unicode="w" horiz-adv-x="853" 
d="M161 0l-115 489h120l70 -341l180 341h88l71 -348l182 348h128l-270 -489h-109l-69 315l-168 -315h-108z" />
    <glyph glyph-name="x" unicode="x" horiz-adv-x="546" 
d="M-42 0l245 254l-154 235h140l98 -157l141 157h149l-228 -242l163 -247h-140l-107 166l-158 -166h-149z" />
    <glyph glyph-name="y" unicode="y" horiz-adv-x="526" 
d="M42 -180l122 200l-129 469h126l83 -342l195 342h131l-400 -669h-128z" />
    <glyph glyph-name="z" unicode="z" horiz-adv-x="474" 
d="M11 0l13 81l293 314h-244l15 94h388l-13 -80l-295 -315h256l-15 -94h-398z" />
    <glyph glyph-name="braceleft" unicode="{" horiz-adv-x="391" 
d="M221 -180q-71 0 -102.5 34t-23.5 87l31 194q6 40 -3.5 57.5t-46.5 20.5l-36 4l14 91l37 4q36 3 52.5 20.5t22.5 56.5l31 195q10 62 43.5 91.5t87.5 29.5h124l-16 -94h-67q-19 0 -32.5 -9.5t-17.5 -34.5l-30 -192q-7 -48 -36.5 -76.5t-59.5 -34.5q28 -8 47.5 -37.5
t12.5 -76.5l-30 -192q-4 -25 5 -34.5t29 -9.5h69l-15 -94h-90z" />
    <glyph glyph-name="bar" unicode="|" horiz-adv-x="289" 
d="M15 -180l140 885h125l-140 -885h-125z" />
    <glyph glyph-name="braceright" unicode="}" horiz-adv-x="391" 
d="M-55 -180l15 94h68q20 0 33 9.5t17 34.5l30 192q7 48 36.5 77t59.5 35q-28 7 -47.5 36.5t-12.5 77.5l30 191q4 25 -5 34.5t-29 9.5h-70l15 94h91q71 0 102.5 -34t23.5 -87l-31 -194q-6 -39 3.5 -57t46.5 -21l36 -3l-14 -92l-37 -3q-36 -3 -52.5 -21t-22.5 -57l-31 -195
q-10 -61 -43.5 -91t-87.5 -30h-124z" />
    <glyph glyph-name="asciitilde" unicode="~" 
d="M418 209q-33 0 -65 13t-60 27q-25 14 -47 23.5t-42 9.5q-28 0 -48 -16.5t-36 -45.5l-61 43q25 49 58 76t78 27q33 0 66 -13.5t61 -27.5q25 -13 46.5 -22.5t40.5 -9.5q28 0 48.5 16.5t36.5 45.5l61 -44q-25 -48 -58.5 -75t-78.5 -27z" />
    <glyph glyph-name="uni00A0" unicode="&#xa0;" horiz-adv-x="270" 
 />
    <glyph glyph-name="exclamdown" unicode="&#xa1;" horiz-adv-x="248" 
d="M71 351l22 138h140l-22 -138h-140zM-21 -180l112 457h76l-33 -457h-155z" />
    <glyph glyph-name="cent" unicode="&#xa2;" 
d="M206 -115l19 124q-72 20 -107.5 74.5t-35.5 129.5q0 63 23.5 121.5t72 100t124.5 54.5l19 120h100l-19 -116q83 -9 132 -53l-38 -87q-48 45 -126 45q-58 0 -93.5 -27.5t-51 -70t-15.5 -86.5q0 -52 29 -86.5t98 -34.5q31 0 62.5 11t58.5 33l29 -89q-27 -24 -74 -38
t-90 -14l-17 -111h-100z" />
    <glyph glyph-name="sterling" unicode="&#xa3;" 
d="M6 0l16 105h83l33 205h-84l14 88h84l16 99q17 109 78.5 163.5t176.5 54.5q62 0 118.5 -22t90.5 -55l-53 -89q-34 34 -71 48.5t-79 14.5q-58 0 -91.5 -28.5t-41.5 -81.5l-16 -104h166l-14 -88h-166l-33 -205h307l-17 -105h-517z" />
    <glyph glyph-name="currency" unicode="&#xa4;" 
d="M83 -30l-51 52l73 75q-22 31 -34.5 69t-12.5 79q0 42 12.5 80t34.5 69l-73 75l51 51l74 -75q30 23 66.5 35.5t76.5 12.5t76 -12t66 -35l73 76l54 -55l-74 -75q46 -64 46 -147q0 -41 -12 -78.5t-35 -69.5l74 -75l-51 -51l-73 75q-30 -23 -66.5 -36t-77.5 -13q-40 0 -77 13
t-67 35zM300 98q38 0 69.5 20t50 53.5t18.5 73.5q0 41 -18.5 74.5t-50 53.5t-69.5 20t-70 -20t-50.5 -53.5t-18.5 -74.5q0 -40 18.5 -73.5t50 -53.5t70.5 -20z" />
    <glyph glyph-name="yen" unicode="&#xa5;" 
d="M197 0l25 159h-168l14 88h169l10 68h-168l14 88h126l-162 302h133l135 -263l218 263h146l-256 -302h124l-14 -88h-168l-10 -68h167l-14 -88h-168l-25 -159h-128z" />
    <glyph glyph-name="brokenbar" unicode="&#xa6;" horiz-adv-x="289" 
d="M102 372l53 333h125l-53 -333h-125zM15 -180l53 334h125l-53 -334h-125z" />
    <glyph glyph-name="section" unicode="&#xa7;" horiz-adv-x="569" 
d="M222 -190q-130 0 -223 67l43 81q33 -28 80 -44t96 -16q53 0 85 26.5t32 68.5q0 32 -14.5 51t-48.5 38l-114 64q-111 64 -111 156q0 96 87 153q-13 29 -13 65q0 61 32 104.5t85 67t116 23.5q56 0 108.5 -15.5t94.5 -48.5l-37 -80q-32 26 -77 41t-86 15q-53 0 -84.5 -26.5
t-31.5 -69.5q0 -31 14.5 -50.5t48.5 -39.5l112 -63q113 -65 113 -156q0 -48 -22.5 -86.5t-64.5 -66.5q13 -28 13 -62q0 -62 -32 -106.5t-84.5 -67.5t-116.5 -23zM158 324q0 -28 19 -51t54 -44l103 -57q18 -11 31.5 -21t23.5 -22q15 18 22 36.5t7 35.5q0 28 -19.5 50.5
t-55.5 44.5l-101 55q-18 11 -32 22t-25 23q-14 -18 -20.5 -36.5t-6.5 -35.5z" />
    <glyph glyph-name="dieresis" unicode="&#xa8;" horiz-adv-x="500" 
d="M344 597l17 115h115l-18 -115h-114zM155 597l18 115h114l-17 -115h-115z" />
    <glyph glyph-name="copyright" unicode="&#xa9;" horiz-adv-x="815" 
d="M425 -10q-77 0 -143 27.5t-115.5 77t-77 115.5t-27.5 143t27.5 143t77 115t115.5 76.5t143 27.5t143 -27.5t115 -76.5t76.5 -115t27.5 -143t-27.5 -143t-76.5 -115.5t-115 -77t-143 -27.5zM425 43q88 0 157 41t109 111t40 158t-40 158t-109 110.5t-157 40.5t-157.5 -40.5
t-109.5 -110.5t-40 -158t40 -158t109.5 -111t157.5 -41zM443 137q-100 0 -158.5 59t-58.5 158q0 100 58.5 157t158.5 57q40 0 79.5 -12.5t64.5 -35.5l-31 -75q-46 40 -105 40q-55 0 -87 -34.5t-32 -96.5t32 -97.5t87 -35.5q28 0 55.5 10t49.5 30l31 -75q-25 -22 -65 -35.5
t-79 -13.5z" />
    <glyph glyph-name="ordfeminine" unicode="&#xaa;" horiz-adv-x="339" 
d="M165 408q-43 0 -72.5 27.5t-29.5 64.5q0 89 175 89h44l2 10q5 28 -10.5 41.5t-47.5 13.5q-27 0 -52.5 -6t-51.5 -21l-19 55q23 17 59.5 25t73.5 8q71 0 102.5 -38.5t22.5 -97.5l-26 -165h-77l9 55h-3q-35 -61 -99 -61zM191 463q29 0 53.5 19.5t28.5 47.5l2 15h-33
q-51 0 -74.5 -9.5t-23.5 -30.5q0 -19 13 -30.5t34 -11.5z" />
    <glyph glyph-name="guillemotleft" unicode="&#xab;" horiz-adv-x="494" 
d="M127 75l-71 161l9 61l128 161l82 -40l-109 -157l48 -151zM334 75l-71 161l9 61l128 161l82 -40l-109 -157l48 -151z" />
    <glyph glyph-name="logicalnot" unicode="&#xac;" 
d="M436 140l33 204h-397l14 88h487l-46 -292h-91z" />
    <glyph glyph-name="uni00AD" unicode="&#xad;" horiz-adv-x="434" 
d="M64 218l16 99h298l-16 -99h-298z" />
    <glyph glyph-name="registered" unicode="&#xae;" horiz-adv-x="815" 
d="M425 -10q-77 0 -143 27.5t-115.5 77t-77 115.5t-27.5 143t27.5 143t77 115t115.5 76.5t143 27.5t143 -27.5t115 -76.5t76.5 -115t27.5 -143t-27.5 -143t-76.5 -115.5t-115 -77t-143 -27.5zM425 43q88 0 157 41t109 111t40 158t-40 158t-109 110.5t-157 40.5t-157.5 -40.5
t-109.5 -110.5t-40 -158t40 -158t109.5 -111t157.5 -41zM270 142v423h183q71 0 108.5 -34.5t37.5 -90.5q0 -45 -22.5 -73.5t-63.5 -39.5q18 -6 31 -22.5t22 -47.5l38 -115h-98l-39 125q-7 22 -22 29.5t-35 7.5h-44v-162h-96zM365 376h75q68 0 68 59q0 58 -68 58h-75v-117z
" />
    <glyph glyph-name="macron" unicode="&#xaf;" horiz-adv-x="500" 
d="M152 616l12 74h315l-12 -74h-315z" />
    <glyph glyph-name="degree" unicode="&#xb0;" horiz-adv-x="379" 
d="M239 402q-45 0 -80.5 20t-56 55t-20.5 79t20.5 79t56.5 55t80 20q45 0 80.5 -20t56 -55t20.5 -79t-20.5 -79t-56 -55t-80.5 -20zM239 473q35 0 57.5 23.5t22.5 59.5t-22.5 59.5t-57.5 23.5q-34 0 -56.5 -23.5t-22.5 -59.5t22.5 -59.5t56.5 -23.5z" />
    <glyph glyph-name="plusminus" unicode="&#xb1;" 
d="M238 139l24 152h-198l14 88h199l23 152h91l-23 -152h198l-14 -88h-199l-24 -152h-91zM18 0l13 88h488l-13 -88h-488z" />
    <glyph glyph-name="uni00B2" unicode="&#xb2;" horiz-adv-x="380" 
d="M54 282l12 74l153 135q26 24 42 47t16 46q1 20 -13.5 31t-40.5 11t-52 -10.5t-49 -28.5l-26 75q68 47 154 47q65 0 100.5 -33t34.5 -79q-1 -45 -27 -80.5t-76 -76.5l-86 -74h170l-13 -84h-299z" />
    <glyph glyph-name="uni00B3" unicode="&#xb3;" horiz-adv-x="380" 
d="M201 277q-46 0 -89 13t-70 39l37 69q26 -22 54.5 -30t66.5 -8q30 0 49.5 12.5t19.5 40.5q1 40 -59 40h-83l14 84h75q32 0 52 12t21 38q0 39 -59 39q-29 0 -57 -8.5t-54 -28.5l-25 73q34 23 73 35t79 12q65 0 102.5 -28.5t38.5 -74.5q0 -38 -25 -67t-64 -40
q32 -11 50.5 -36t18.5 -57q0 -37 -22 -66.5t-59.5 -46t-84.5 -16.5z" />
    <glyph glyph-name="acute" unicode="&#xb4;" horiz-adv-x="500" 
d="M257 554l133 203h125l-174 -203h-84z" />
    <glyph glyph-name="uni00B5" unicode="&#xb5;" 
d="M7 -180l107 669h125l-46 -291q-18 -109 70 -109q56 0 91 37t45 101l41 262h125l-77 -489h-122l14 87q-19 -46 -52.5 -71.5t-75.5 -25.5q-69 0 -95 49l-25 -219h-125z" />
    <glyph glyph-name="paragraph" unicode="&#xb6;" horiz-adv-x="624" 
d="M181 -180l73 462q-56 0 -97 24.5t-63 66t-22 93.5q0 72 30 125.5t84.5 83.5t126.5 30h307l-140 -885h-91l126 796h-117l-126 -796h-91z" />
    <glyph glyph-name="periodcentered" unicode="&#xb7;" horiz-adv-x="248" 
d="M47 198l22 139h140l-22 -139h-140z" />
    <glyph glyph-name="cedilla" unicode="&#xb8;" horiz-adv-x="500" 
d="M189 -195q-29 0 -55.5 5.5t-44.5 15.5l23 56q17 -8 34.5 -12.5t38.5 -4.5q57 0 57 32q0 21 -35 21q-9 0 -18.5 -1t-23.5 -5l-17 18l28 90h66l-18 -57h9q38 0 60.5 -17t22.5 -49q0 -42 -36 -67t-91 -25z" />
    <glyph glyph-name="uni00B9" unicode="&#xb9;" horiz-adv-x="380" 
d="M72 282l13 84h101l35 220l-80 -41l-34 78l159 82h74l-54 -339h79l-13 -84h-280z" />
    <glyph glyph-name="ordmasculine" unicode="&#xba;" horiz-adv-x="353" 
d="M221 410q-66 0 -108.5 38.5t-42.5 103.5q0 51 22 87.5t58.5 56t81.5 19.5q66 0 108.5 -38.5t42.5 -103.5q0 -50 -21.5 -87t-58.5 -56.5t-82 -19.5zM222 472q35 0 56.5 25.5t21.5 76.5q0 38 -19 58.5t-50 20.5q-34 0 -56 -25.5t-22 -76.5q0 -38 19 -58.5t50 -20.5z" />
    <glyph glyph-name="guillemotright" unicode="&#xbb;" horiz-adv-x="494" 
d="M100 75l-82 40l110 157l-48 151l87 35l71 -161l-10 -61zM307 75l-82 40l110 157l-48 151l87 35l71 -161l-10 -61z" />
    <glyph glyph-name="onequarter" unicode="&#xbc;" horiz-adv-x="911" 
d="M72 282l13 84h101l35 220l-80 -41l-34 78l159 82h74l-54 -339h79l-13 -84h-280zM275 -28l-73 48l526 713l73 -47zM704 0l11 71h-188l11 69l239 283h93l-42 -268h51l-13 -84h-51l-11 -71h-100zM728 155l20 126l-106 -126h86z" />
    <glyph glyph-name="onehalf" unicode="&#xbd;" horiz-adv-x="959" 
d="M72 282l13 84h101l35 220l-80 -41l-34 78l159 82h74l-54 -339h79l-13 -84h-280zM275 -28l-73 48l526 713l73 -47zM588 0l12 74l153 135q26 24 42 47t16 46q1 20 -13.5 31t-40.5 11t-52 -10.5t-49 -28.5l-26 75q68 47 154 47q65 0 100.5 -33t34.5 -79q-1 -45 -27 -80.5
t-76 -76.5l-86 -74h170l-13 -84h-299z" />
    <glyph glyph-name="threequarters" unicode="&#xbe;" horiz-adv-x="911" 
d="M201 277q-46 0 -89 13t-70 39l37 69q26 -22 54.5 -30t66.5 -8q30 0 49.5 12.5t19.5 40.5q1 40 -59 40h-83l14 84h75q32 0 52 12t21 38q0 39 -59 39q-29 0 -57 -8.5t-54 -28.5l-25 73q34 23 73 35t79 12q65 0 102.5 -28.5t38.5 -74.5q0 -38 -25 -67t-64 -40
q32 -11 50.5 -36t18.5 -57q0 -37 -22 -66.5t-59.5 -46t-84.5 -16.5zM275 -28l-73 48l526 713l73 -47zM704 0l11 71h-188l11 69l239 283h93l-42 -268h51l-13 -84h-51l-11 -71h-100zM728 155l20 126l-106 -126h86z" />
    <glyph glyph-name="questiondown" unicode="&#xbf;" horiz-adv-x="459" 
d="M183 350l22 139h140l-22 -139h-140zM159 -190q-57 0 -99.5 19.5t-65.5 53t-23 74.5q0 55 31.5 96.5t83.5 75.5q54 35 76.5 63t32.5 62l9 26h76l-6 -36q-7 -48 -28.5 -84t-73.5 -74q-34 -26 -53.5 -49.5t-19.5 -54.5q0 -28 20.5 -46t59.5 -18q47 0 93 14.5t89 48.5l39 -95
q-50 -40 -113 -58t-128 -18z" />
    <glyph glyph-name="Agrave" unicode="&#xc0;" horiz-adv-x="744" 
d="M-38 0l432 705h105l206 -705h-123l-43 163h-345l-96 -163h-136zM430 566l-177 -301h258l-79 301h-2zM411 765l-145 174h128l106 -174h-89z" />
    <glyph glyph-name="Aacute" unicode="&#xc1;" horiz-adv-x="744" 
d="M-38 0l432 705h105l206 -705h-123l-43 163h-345l-96 -163h-136zM430 566l-177 -301h258l-79 301h-2zM411 765l130 174h133l-174 -174h-89z" />
    <glyph glyph-name="Acircumflex" unicode="&#xc2;" horiz-adv-x="744" 
d="M-38 0l432 705h105l206 -705h-123l-43 163h-345l-96 -163h-136zM430 566l-177 -301h258l-79 301h-2zM271 765l141 174h107l108 -174h-88l-79 104l-102 -104h-87z" />
    <glyph glyph-name="Atilde" unicode="&#xc3;" horiz-adv-x="744" 
d="M-38 0l432 705h105l206 -705h-123l-43 163h-345l-96 -163h-136zM430 566l-177 -301h258l-79 301h-2zM292 772l-62 4q12 71 49 109.5t92 38.5q29 0 55 -11.5t49 -24.5q20 -12 38.5 -21t37.5 -9q56 0 74 70l62 -4q-11 -71 -48 -109.5t-92 -38.5q-30 0 -55.5 12t-48.5 25
q-20 11 -38.5 20t-37.5 9q-57 0 -75 -70z" />
    <glyph glyph-name="Adieresis" unicode="&#xc4;" horiz-adv-x="744" 
d="M-38 0l432 705h105l206 -705h-123l-43 163h-345l-96 -163h-136zM430 566l-177 -301h258l-79 301h-2zM495 790l19 115h114l-18 -115h-115zM307 790l18 115h115l-19 -115h-114z" />
    <glyph glyph-name="Aring" unicode="&#xc5;" horiz-adv-x="744" 
d="M-38 0l432 705h105l206 -705h-123l-43 163h-345l-96 -163h-136zM430 566l-177 -301h258l-79 301h-2zM468 755q-35 0 -64 16.5t-45.5 44.5t-16.5 62q0 52 36.5 87t89.5 35t89.5 -35t36.5 -87q0 -34 -16.5 -62t-45 -44.5t-64.5 -16.5zM468 812q29 0 47 19t18 47t-18 46.5
t-47 18.5q-28 0 -46.5 -18.5t-18.5 -46.5t18.5 -47t46.5 -19z" />
    <glyph glyph-name="AE" unicode="&#xc6;" horiz-adv-x="993" 
d="M-75 0l550 705h539l-16 -102h-399l12 -194h335l-16 -102h-314l12 -205h291l-16 -102h-381l-9 163h-325l-122 -163h-141zM488 562l-224 -297h243l-17 297h-2z" />
    <glyph glyph-name="Ccedilla" unicode="&#xc7;" horiz-adv-x="679" 
d="M392 -10q-93 0 -165.5 35.5t-114 106.5t-41.5 178q0 86 25.5 159.5t74 128.5t119.5 86t161 31q73 0 135 -23t99 -61l-52 -102q-79 72 -185 72q-77 0 -131 -37.5t-82 -102.5t-28 -147q0 -111 51 -160.5t148 -49.5q47 0 92 16t92 52l37 -101q-44 -39 -107 -60t-128 -21z
M349 -195q-29 0 -55.5 5.5t-44.5 15.5l23 56q17 -8 34.5 -12.5t38.5 -4.5q57 0 57 32q0 21 -35 21q-9 0 -18.5 -1t-23.5 -5l-17 18l28 90h66l-18 -57h9q38 0 60.5 -17t22.5 -49q0 -42 -36 -67t-91 -25z" />
    <glyph glyph-name="Egrave" unicode="&#xc8;" horiz-adv-x="597" 
d="M39 0l111 705h469l-16 -102h-346l-31 -194h325l-16 -102h-325l-33 -205h346l-16 -102h-468zM367 765l-145 174h128l106 -174h-89z" />
    <glyph glyph-name="Eacute" unicode="&#xc9;" horiz-adv-x="597" 
d="M39 0l111 705h469l-16 -102h-346l-31 -194h325l-16 -102h-325l-33 -205h346l-16 -102h-468zM367 765l130 174h133l-174 -174h-89z" />
    <glyph glyph-name="Ecircumflex" unicode="&#xca;" horiz-adv-x="597" 
d="M39 0l111 705h469l-16 -102h-346l-31 -194h325l-16 -102h-325l-33 -205h346l-16 -102h-468zM227 765l141 174h107l108 -174h-88l-79 104l-102 -104h-87z" />
    <glyph glyph-name="Edieresis" unicode="&#xcb;" horiz-adv-x="597" 
d="M39 0l111 705h469l-16 -102h-346l-31 -194h325l-16 -102h-325l-33 -205h346l-16 -102h-468zM451 790l19 115h114l-18 -115h-115zM263 790l18 115h115l-19 -115h-114z" />
    <glyph glyph-name="Igrave" unicode="&#xcc;" horiz-adv-x="282" 
d="M38 0l112 705h128l-112 -705h-128zM180 765l-145 174h128l106 -174h-89z" />
    <glyph glyph-name="Iacute" unicode="&#xcd;" horiz-adv-x="282" 
d="M38 0l112 705h128l-112 -705h-128zM180 765l130 174h133l-174 -174h-89z" />
    <glyph glyph-name="Icircumflex" unicode="&#xce;" horiz-adv-x="282" 
d="M38 0l112 705h128l-112 -705h-128zM40 765l141 174h107l108 -174h-88l-79 104l-102 -104h-87z" />
    <glyph glyph-name="Idieresis" unicode="&#xcf;" horiz-adv-x="282" 
d="M38 0l112 705h128l-112 -705h-128zM264 790l19 115h114l-18 -115h-115zM76 790l18 115h115l-19 -115h-114z" />
    <glyph glyph-name="Eth" unicode="&#xd0;" horiz-adv-x="762" 
d="M38 0l112 705h226q168 0 259 -79t92 -222q0 -113 -44.5 -205t-134 -145.5t-225.5 -53.5h-285zM183 106h142q94 0 153 39t87 106t28 151q0 96 -54.5 146.5t-162.5 50.5h-115zM1 310l15 94h404l-15 -94h-404z" />
    <glyph glyph-name="Ntilde" unicode="&#xd1;" horiz-adv-x="747" 
d="M38 0l112 705h96l298 -506l80 506h119l-112 -705h-95l-299 506l-80 -506h-119zM292 772l-62 4q12 71 49 109.5t92 38.5q29 0 55 -11.5t49 -24.5q20 -12 38.5 -21t37.5 -9q56 0 74 70l62 -4q-11 -71 -48 -109.5t-92 -38.5q-30 0 -55.5 12t-48.5 25q-20 11 -38.5 20
t-37.5 9q-57 0 -75 -70z" />
    <glyph glyph-name="Ograve" unicode="&#xd2;" horiz-adv-x="785" 
d="M381 -10q-94 0 -164 36t-108.5 105.5t-38.5 167.5q0 121 44.5 214.5t127.5 147.5t197 54q95 0 164.5 -36t108 -105t38.5 -167q0 -121 -44.5 -215t-127 -148t-197.5 -54zM383 100q75 0 127 39.5t79 108.5t27 157q0 101 -48 150.5t-132 49.5q-74 0 -126 -39t-79 -107.5
t-27 -157.5q0 -102 48 -151.5t131 -49.5zM419 765l-145 174h128l106 -174h-89z" />
    <glyph glyph-name="Oacute" unicode="&#xd3;" horiz-adv-x="785" 
d="M381 -10q-94 0 -164 36t-108.5 105.5t-38.5 167.5q0 121 44.5 214.5t127.5 147.5t197 54q95 0 164.5 -36t108 -105t38.5 -167q0 -121 -44.5 -215t-127 -148t-197.5 -54zM383 100q75 0 127 39.5t79 108.5t27 157q0 101 -48 150.5t-132 49.5q-74 0 -126 -39t-79 -107.5
t-27 -157.5q0 -102 48 -151.5t131 -49.5zM419 765l130 174h133l-174 -174h-89z" />
    <glyph glyph-name="Ocircumflex" unicode="&#xd4;" horiz-adv-x="785" 
d="M381 -10q-94 0 -164 36t-108.5 105.5t-38.5 167.5q0 121 44.5 214.5t127.5 147.5t197 54q95 0 164.5 -36t108 -105t38.5 -167q0 -121 -44.5 -215t-127 -148t-197.5 -54zM383 100q75 0 127 39.5t79 108.5t27 157q0 101 -48 150.5t-132 49.5q-74 0 -126 -39t-79 -107.5
t-27 -157.5q0 -102 48 -151.5t131 -49.5zM279 765l141 174h107l108 -174h-88l-79 104l-102 -104h-87z" />
    <glyph glyph-name="Otilde" unicode="&#xd5;" horiz-adv-x="785" 
d="M381 -10q-94 0 -164 36t-108.5 105.5t-38.5 167.5q0 121 44.5 214.5t127.5 147.5t197 54q95 0 164.5 -36t108 -105t38.5 -167q0 -121 -44.5 -215t-127 -148t-197.5 -54zM383 100q75 0 127 39.5t79 108.5t27 157q0 101 -48 150.5t-132 49.5q-74 0 -126 -39t-79 -107.5
t-27 -157.5q0 -102 48 -151.5t131 -49.5zM300 772l-62 4q12 71 49 109.5t92 38.5q29 0 55 -11.5t49 -24.5q20 -12 38.5 -21t37.5 -9q56 0 74 70l62 -4q-11 -71 -48 -109.5t-92 -38.5q-30 0 -55.5 12t-48.5 25q-20 11 -38.5 20t-37.5 9q-57 0 -75 -70z" />
    <glyph glyph-name="Odieresis" unicode="&#xd6;" horiz-adv-x="785" 
d="M381 -10q-94 0 -164 36t-108.5 105.5t-38.5 167.5q0 121 44.5 214.5t127.5 147.5t197 54q95 0 164.5 -36t108 -105t38.5 -167q0 -121 -44.5 -215t-127 -148t-197.5 -54zM383 100q75 0 127 39.5t79 108.5t27 157q0 101 -48 150.5t-132 49.5q-74 0 -126 -39t-79 -107.5
t-27 -157.5q0 -102 48 -151.5t131 -49.5zM503 790l19 115h114l-18 -115h-115zM315 790l18 115h115l-19 -115h-114z" />
    <glyph glyph-name="multiply" unicode="&#xd7;" 
d="M118 51l-61 62l188 174l-156 170l64 63l157 -172l187 172l60 -63l-188 -172l156 -172l-63 -62l-157 172z" />
    <glyph glyph-name="Oslash" unicode="&#xd8;" horiz-adv-x="785" 
d="M381 -10q-94 0 -164 36t-108.5 105.5t-38.5 167.5q0 121 44.5 214.5t127.5 147.5t197 54q95 0 164.5 -36t108 -105t38.5 -167q0 -121 -44.5 -215t-127 -148t-197.5 -54zM383 100q75 0 127 39.5t79 108.5t27 157q0 101 -48 150.5t-132 49.5q-74 0 -126 -39t-79 -107.5
t-27 -157.5q0 -102 48 -151.5t131 -49.5zM163 -53l-72 51l82 109l39 53l324 437l40 54l81 108l72 -51l-82 -109l-39 -54l-324 -436l-40 -54z" />
    <glyph glyph-name="Ugrave" unicode="&#xd9;" horiz-adv-x="737" 
d="M342 -10q-90 0 -155 35t-93.5 105.5t-11.5 176.5l63 398h128l-64 -407q-15 -97 20.5 -147.5t121.5 -50.5q82 0 129 42.5t62 134.5l68 428h127l-67 -426q-22 -142 -100 -215.5t-228 -73.5zM407 765l-145 174h128l106 -174h-89z" />
    <glyph glyph-name="Uacute" unicode="&#xda;" horiz-adv-x="737" 
d="M342 -10q-90 0 -155 35t-93.5 105.5t-11.5 176.5l63 398h128l-64 -407q-15 -97 20.5 -147.5t121.5 -50.5q82 0 129 42.5t62 134.5l68 428h127l-67 -426q-22 -142 -100 -215.5t-228 -73.5zM407 765l130 174h133l-174 -174h-89z" />
    <glyph glyph-name="Ucircumflex" unicode="&#xdb;" horiz-adv-x="737" 
d="M342 -10q-90 0 -155 35t-93.5 105.5t-11.5 176.5l63 398h128l-64 -407q-15 -97 20.5 -147.5t121.5 -50.5q82 0 129 42.5t62 134.5l68 428h127l-67 -426q-22 -142 -100 -215.5t-228 -73.5zM267 765l141 174h107l108 -174h-88l-79 104l-102 -104h-87z" />
    <glyph glyph-name="Udieresis" unicode="&#xdc;" horiz-adv-x="737" 
d="M342 -10q-90 0 -155 35t-93.5 105.5t-11.5 176.5l63 398h128l-64 -407q-15 -97 20.5 -147.5t121.5 -50.5q82 0 129 42.5t62 134.5l68 428h127l-67 -426q-22 -142 -100 -215.5t-228 -73.5zM491 790l19 115h114l-18 -115h-115zM303 790l18 115h115l-19 -115h-114z" />
    <glyph glyph-name="Yacute" unicode="&#xdd;" horiz-adv-x="618" 
d="M206 0l52 323l-211 382h140l145 -268l231 268h153l-330 -380l-52 -325h-128zM337 765l130 174h133l-174 -174h-89z" />
    <glyph glyph-name="Thorn" unicode="&#xde;" horiz-adv-x="654" 
d="M38 0l112 705h128l-19 -118h148q117 0 178 -50.5t61 -144.5q0 -115 -71 -180.5t-206 -65.5h-180l-23 -146h-128zM205 247h170q72 0 109.5 34.5t37.5 99.5q0 55 -32.5 80t-97.5 25h-149z" />
    <glyph glyph-name="germandbls" unicode="&#xdf;" horiz-adv-x="653" 
d="M411 -10q-60 0 -113 18t-86 46l43 81q72 -52 157 -52q42 0 65 15t23 45q0 20 -18 37t-68 34q-64 22 -91 51.5t-27 71.5q0 43 21.5 74t70.5 71q26 21 41 40t15 47q0 22 -16 38.5t-51 16.5q-127 0 -149 -143l-76 -481h-125l73 463q19 120 84 186t197 66q56 0 96.5 -18
t62.5 -48t22 -66q0 -45 -21.5 -76t-60.5 -64q-37 -31 -53 -48.5t-16 -38.5q0 -20 19.5 -35t63.5 -30q58 -21 89 -52.5t31 -85.5q0 -79 -57 -121t-146 -42z" />
    <glyph glyph-name="agrave" unicode="&#xe0;" horiz-adv-x="547" 
d="M193 -10q-45 0 -82 20.5t-59.5 54.5t-22.5 76q0 77 66.5 113t208.5 36h69l3 18q8 47 -14.5 72t-78.5 25q-89 0 -168 -50l-28 86q38 26 96 42t116 16q79 0 124 -29t61 -79t6 -114l-44 -277h-117l11 72q-25 -42 -64 -62t-83 -20zM232 76q47 0 82 30.5t43 82.5l5 29h-52
q-88 0 -123.5 -14.5t-35.5 -54.5q0 -35 23.5 -54t57.5 -19zM278 554l-141 203h121l104 -203h-84z" />
    <glyph glyph-name="aacute" unicode="&#xe1;" horiz-adv-x="547" 
d="M193 -10q-45 0 -82 20.5t-59.5 54.5t-22.5 76q0 77 66.5 113t208.5 36h69l3 18q8 47 -14.5 72t-78.5 25q-89 0 -168 -50l-28 86q38 26 96 42t116 16q79 0 124 -29t61 -79t6 -114l-44 -277h-117l11 72q-25 -42 -64 -62t-83 -20zM232 76q47 0 82 30.5t43 82.5l5 29h-52
q-88 0 -123.5 -14.5t-35.5 -54.5q0 -35 23.5 -54t57.5 -19zM279 554l133 203h125l-174 -203h-84z" />
    <glyph glyph-name="acircumflex" unicode="&#xe2;" horiz-adv-x="547" 
d="M193 -10q-45 0 -82 20.5t-59.5 54.5t-22.5 76q0 77 66.5 113t208.5 36h69l3 18q8 47 -14.5 72t-78.5 25q-89 0 -168 -50l-28 86q38 26 96 42t116 16q79 0 124 -29t61 -79t6 -114l-44 -277h-117l11 72q-25 -42 -64 -62t-83 -20zM232 76q47 0 82 30.5t43 82.5l5 29h-52
q-88 0 -123.5 -14.5t-35.5 -54.5q0 -35 23.5 -54t57.5 -19zM152 554l131 203h109l90 -203h-79l-71 132l-100 -132h-80z" />
    <glyph glyph-name="atilde" unicode="&#xe3;" horiz-adv-x="547" 
d="M193 -10q-45 0 -82 20.5t-59.5 54.5t-22.5 76q0 77 66.5 113t208.5 36h69l3 18q8 47 -14.5 72t-78.5 25q-89 0 -168 -50l-28 86q38 26 96 42t116 16q79 0 124 -29t61 -79t6 -114l-44 -277h-117l11 72q-25 -42 -64 -62t-83 -20zM232 76q47 0 82 30.5t43 82.5l5 29h-52
q-88 0 -123.5 -14.5t-35.5 -54.5q0 -35 23.5 -54t57.5 -19zM194 584l-62 4q10 71 44.5 109.5t84.5 38.5q29 0 48.5 -13.5t36.5 -27.5q13 -10 26 -17.5t29 -7.5q50 0 67 70l62 -4q-10 -71 -44 -109.5t-84 -38.5q-28 0 -48.5 13t-37.5 27q-13 11 -26 18.5t-29 7.5
q-50 0 -67 -70z" />
    <glyph glyph-name="adieresis" unicode="&#xe4;" horiz-adv-x="547" 
d="M193 -10q-45 0 -82 20.5t-59.5 54.5t-22.5 76q0 77 66.5 113t208.5 36h69l3 18q8 47 -14.5 72t-78.5 25q-89 0 -168 -50l-28 86q38 26 96 42t116 16q79 0 124 -29t61 -79t6 -114l-44 -277h-117l11 72q-25 -42 -64 -62t-83 -20zM232 76q47 0 82 30.5t43 82.5l5 29h-52
q-88 0 -123.5 -14.5t-35.5 -54.5q0 -35 23.5 -54t57.5 -19zM366 597l17 115h115l-18 -115h-114zM177 597l18 115h114l-17 -115h-115z" />
    <glyph glyph-name="aring" unicode="&#xe5;" horiz-adv-x="547" 
d="M193 -10q-45 0 -82 20.5t-59.5 54.5t-22.5 76q0 77 66.5 113t208.5 36h69l3 18q8 47 -14.5 72t-78.5 25q-89 0 -168 -50l-28 86q38 26 96 42t116 16q79 0 124 -29t61 -79t6 -114l-44 -277h-117l11 72q-25 -42 -64 -62t-83 -20zM232 76q47 0 82 30.5t43 82.5l5 29h-52
q-88 0 -123.5 -14.5t-35.5 -54.5q0 -35 23.5 -54t57.5 -19zM340 546q-53 0 -89.5 35t-36.5 87q0 35 16.5 62.5t45.5 44t64 16.5q36 0 64.5 -16.5t45 -44t16.5 -62.5q0 -52 -36.5 -87t-89.5 -35zM340 603q28 0 46.5 18.5t18.5 46.5q0 29 -18.5 47t-46.5 18t-46.5 -18
t-18.5 -47q0 -28 18.5 -46.5t46.5 -18.5z" />
    <glyph glyph-name="ae" unicode="&#xe6;" horiz-adv-x="865" 
d="M215 -10q-48 0 -90.5 17t-69 51t-26.5 83q0 77 66.5 113t208.5 36h69l2 13q8 50 -14 75t-78 25q-91 0 -167 -50l-29 88q38 26 95.5 42t116.5 16q116 0 156 -76q33 36 78 56t99 20q79 0 126 -35t65.5 -92.5t8.5 -125.5l-4 -28h-348q-3 -62 32.5 -97.5t102.5 -35.5
q92 0 154 50l31 -82q-35 -30 -87.5 -46.5t-109.5 -16.5q-73 0 -124.5 28t-76.5 78q-27 -54 -77.5 -80t-109.5 -26zM630 414q-61 0 -94.5 -37.5t-44.5 -86.5h243q3 52 -21.5 88t-82.5 36zM232 78q47 0 81 27.5t43 79.5l5 33h-50q-88 0 -124 -15.5t-36 -54.5q0 -33 23.5 -51.5
t57.5 -18.5z" />
    <glyph glyph-name="ccedilla" unicode="&#xe7;" horiz-adv-x="472" 
d="M270 -10q-117 0 -175 61.5t-58 161.5q0 54 16.5 105.5t50.5 92t86.5 64.5t123.5 24q49 0 94 -14.5t73 -39.5l-39 -87q-47 44 -120 44q-57 0 -91.5 -28t-50 -71t-15.5 -89q0 -57 28.5 -92t94.5 -35q28 0 59.5 11t57.5 33l29 -89q-28 -25 -74.5 -38.5t-89.5 -13.5z
M223 -195q-29 0 -55.5 5.5t-44.5 15.5l23 56q17 -8 34.5 -12.5t38.5 -4.5q57 0 57 32q0 21 -35 21q-9 0 -18.5 -1t-23.5 -5l-17 18l28 90h66l-18 -57h9q38 0 60.5 -17t22.5 -49q0 -42 -36 -67t-91 -25z" />
    <glyph glyph-name="egrave" unicode="&#xe8;" horiz-adv-x="543" 
d="M280 -10q-74 0 -128.5 27.5t-84.5 77.5t-30 117q0 82 34.5 146.5t95.5 102.5t140 38q80 0 127 -35.5t64.5 -94t9.5 -127.5l-3 -26h-351q-2 -61 34 -96t103 -35q44 0 83.5 12.5t70.5 37.5l31 -82q-35 -30 -87.5 -46.5t-108.5 -16.5zM306 414q-42 0 -71 -17.5t-46 -46.5
t-25 -62h248q4 54 -21 90t-85 36zM288 554l-141 203h121l104 -203h-84z" />
    <glyph glyph-name="eacute" unicode="&#xe9;" horiz-adv-x="543" 
d="M280 -10q-74 0 -128.5 27.5t-84.5 77.5t-30 117q0 82 34.5 146.5t95.5 102.5t140 38q80 0 127 -35.5t64.5 -94t9.5 -127.5l-3 -26h-351q-2 -61 34 -96t103 -35q44 0 83.5 12.5t70.5 37.5l31 -82q-35 -30 -87.5 -46.5t-108.5 -16.5zM306 414q-42 0 -71 -17.5t-46 -46.5
t-25 -62h248q4 54 -21 90t-85 36zM289 554l133 203h125l-174 -203h-84z" />
    <glyph glyph-name="ecircumflex" unicode="&#xea;" horiz-adv-x="543" 
d="M280 -10q-74 0 -128.5 27.5t-84.5 77.5t-30 117q0 82 34.5 146.5t95.5 102.5t140 38q80 0 127 -35.5t64.5 -94t9.5 -127.5l-3 -26h-351q-2 -61 34 -96t103 -35q44 0 83.5 12.5t70.5 37.5l31 -82q-35 -30 -87.5 -46.5t-108.5 -16.5zM306 414q-42 0 -71 -17.5t-46 -46.5
t-25 -62h248q4 54 -21 90t-85 36zM162 554l131 203h109l90 -203h-79l-71 132l-100 -132h-80z" />
    <glyph glyph-name="edieresis" unicode="&#xeb;" horiz-adv-x="543" 
d="M280 -10q-74 0 -128.5 27.5t-84.5 77.5t-30 117q0 82 34.5 146.5t95.5 102.5t140 38q80 0 127 -35.5t64.5 -94t9.5 -127.5l-3 -26h-351q-2 -61 34 -96t103 -35q44 0 83.5 12.5t70.5 37.5l31 -82q-35 -30 -87.5 -46.5t-108.5 -16.5zM306 414q-42 0 -71 -17.5t-46 -46.5
t-25 -62h248q4 54 -21 90t-85 36zM376 597l17 115h115l-18 -115h-114zM187 597l18 115h114l-17 -115h-115z" />
    <glyph glyph-name="igrave" unicode="&#xec;" horiz-adv-x="255" 
d="M26 0l78 489h125l-78 -489h-125zM134 554l-141 203h121l104 -203h-84z" />
    <glyph glyph-name="iacute" unicode="&#xed;" horiz-adv-x="255" 
d="M26 0l78 489h125l-78 -489h-125zM135 554l133 203h125l-174 -203h-84z" />
    <glyph glyph-name="icircumflex" unicode="&#xee;" horiz-adv-x="255" 
d="M26 0l78 489h125l-78 -489h-125zM8 554l131 203h109l90 -203h-79l-71 132l-100 -132h-80z" />
    <glyph glyph-name="idieresis" unicode="&#xef;" horiz-adv-x="255" 
d="M26 0l78 489h125l-78 -489h-125zM222 597l17 115h115l-18 -115h-114zM33 597l18 115h114l-17 -115h-115z" />
    <glyph glyph-name="eth" unicode="&#xf0;" horiz-adv-x="580" 
d="M262 -10q-65 0 -117 25.5t-81.5 71.5t-29.5 106q0 76 33 134t90.5 90.5t128.5 32.5q48 0 87.5 -16t62.5 -51q-8 57 -35 104t-68 81l-156 -68l-27 57l118 51q-41 21 -88 29l28 78q95 -19 163 -61l138 61l27 -57l-106 -47q63 -58 91.5 -134.5t28.5 -159.5q0 -90 -32 -164
t-95.5 -118.5t-160.5 -44.5zM273 87q59 0 99 42t40 118q0 51 -30 80t-83 29q-59 0 -99 -42t-40 -118q0 -51 30.5 -80t82.5 -29z" />
    <glyph glyph-name="ntilde" unicode="&#xf1;" horiz-adv-x="585" 
d="M26 0l78 489h122l-13 -78q55 88 170 88q80 0 122 -49.5t25 -156.5l-46 -293h-125l46 291q18 110 -72 110q-59 0 -94.5 -37t-45.5 -101l-42 -263h-125zM212 584l-62 4q10 71 44.5 109.5t84.5 38.5q29 0 48.5 -13.5t36.5 -27.5q13 -10 26 -17.5t29 -7.5q50 0 67 70l62 -4
q-10 -71 -44 -109.5t-84 -38.5q-28 0 -48.5 13t-37.5 27q-13 11 -26 18.5t-29 7.5q-50 0 -67 -70z" />
    <glyph glyph-name="ograve" unicode="&#xf2;" horiz-adv-x="576" 
d="M267 -10q-108 0 -169 60t-61 161q0 88 36.5 152.5t98.5 100t137 35.5q108 0 169 -60t61 -161q0 -88 -36.5 -152.5t-98 -100t-137.5 -35.5zM270 85q46 0 77.5 26t48.5 71t17 100q0 59 -28.5 90.5t-78.5 31.5q-45 0 -77 -26t-49 -70.5t-17 -100.5q0 -59 28.5 -90.5
t78.5 -31.5zM296 554l-141 203h121l104 -203h-84z" />
    <glyph glyph-name="oacute" unicode="&#xf3;" horiz-adv-x="576" 
d="M267 -10q-108 0 -169 60t-61 161q0 88 36.5 152.5t98.5 100t137 35.5q108 0 169 -60t61 -161q0 -88 -36.5 -152.5t-98 -100t-137.5 -35.5zM270 85q46 0 77.5 26t48.5 71t17 100q0 59 -28.5 90.5t-78.5 31.5q-45 0 -77 -26t-49 -70.5t-17 -100.5q0 -59 28.5 -90.5
t78.5 -31.5zM297 554l133 203h125l-174 -203h-84z" />
    <glyph glyph-name="ocircumflex" unicode="&#xf4;" horiz-adv-x="576" 
d="M267 -10q-108 0 -169 60t-61 161q0 88 36.5 152.5t98.5 100t137 35.5q108 0 169 -60t61 -161q0 -88 -36.5 -152.5t-98 -100t-137.5 -35.5zM270 85q46 0 77.5 26t48.5 71t17 100q0 59 -28.5 90.5t-78.5 31.5q-45 0 -77 -26t-49 -70.5t-17 -100.5q0 -59 28.5 -90.5
t78.5 -31.5zM170 554l131 203h109l90 -203h-79l-71 132l-100 -132h-80z" />
    <glyph glyph-name="otilde" unicode="&#xf5;" horiz-adv-x="576" 
d="M267 -10q-108 0 -169 60t-61 161q0 88 36.5 152.5t98.5 100t137 35.5q108 0 169 -60t61 -161q0 -88 -36.5 -152.5t-98 -100t-137.5 -35.5zM270 85q46 0 77.5 26t48.5 71t17 100q0 59 -28.5 90.5t-78.5 31.5q-45 0 -77 -26t-49 -70.5t-17 -100.5q0 -59 28.5 -90.5
t78.5 -31.5zM212 584l-62 4q10 71 44.5 109.5t84.5 38.5q29 0 48.5 -13.5t36.5 -27.5q13 -10 26 -17.5t29 -7.5q50 0 67 70l62 -4q-10 -71 -44 -109.5t-84 -38.5q-28 0 -48.5 13t-37.5 27q-13 11 -26 18.5t-29 7.5q-50 0 -67 -70z" />
    <glyph glyph-name="odieresis" unicode="&#xf6;" horiz-adv-x="576" 
d="M267 -10q-108 0 -169 60t-61 161q0 88 36.5 152.5t98.5 100t137 35.5q108 0 169 -60t61 -161q0 -88 -36.5 -152.5t-98 -100t-137.5 -35.5zM270 85q46 0 77.5 26t48.5 71t17 100q0 59 -28.5 90.5t-78.5 31.5q-45 0 -77 -26t-49 -70.5t-17 -100.5q0 -59 28.5 -90.5
t78.5 -31.5zM384 597l17 115h115l-18 -115h-114zM195 597l18 115h114l-17 -115h-115z" />
    <glyph glyph-name="divide" unicode="&#xf7;" 
d="M272 432l16 104h104l-16 -104h-104zM56 243l14 88h488l-14 -88h-488zM209 38l17 104h104l-17 -104h-104z" />
    <glyph glyph-name="oslash" unicode="&#xf8;" horiz-adv-x="576" 
d="M115 -50l-56 40l42 57q-64 60 -64 165q0 88 36.5 152.5t98 99.5t137.5 35q62 0 110 -21l44 59l56 -39l-42 -58q62 -59 62 -162q0 -88 -36.5 -152.5t-98 -100t-137.5 -35.5q-61 0 -108 20zM151 206q0 -43 15 -72l196 266q-25 11 -59 11q-71 0 -111.5 -57.5t-40.5 -147.5z
M272 78q48 0 82 26.5t52 73t18 106.5q0 40 -13 68l-195 -264q24 -10 56 -10z" />
    <glyph glyph-name="ugrave" unicode="&#xf9;" horiz-adv-x="579" 
d="M200 -10q-79 0 -120.5 50t-24.5 157l46 292h125l-46 -291q-18 -109 70 -109q56 0 91 37t45 101l41 262h125l-77 -489h-122l12 77q-27 -42 -69.5 -64.5t-95.5 -22.5zM292 555l-141 203h121l104 -203h-84z" />
    <glyph glyph-name="uacute" unicode="&#xfa;" horiz-adv-x="579" 
d="M200 -10q-79 0 -120.5 50t-24.5 157l46 292h125l-46 -291q-18 -109 70 -109q56 0 91 37t45 101l41 262h125l-77 -489h-122l12 77q-27 -42 -69.5 -64.5t-95.5 -22.5zM293 555l133 203h125l-174 -203h-84z" />
    <glyph glyph-name="ucircumflex" unicode="&#xfb;" horiz-adv-x="579" 
d="M200 -10q-79 0 -120.5 50t-24.5 157l46 292h125l-46 -291q-18 -109 70 -109q56 0 91 37t45 101l41 262h125l-77 -489h-122l12 77q-27 -42 -69.5 -64.5t-95.5 -22.5zM166 555l131 203h109l90 -203h-79l-71 132l-100 -132h-80z" />
    <glyph glyph-name="udieresis" unicode="&#xfc;" horiz-adv-x="579" 
d="M200 -10q-79 0 -120.5 50t-24.5 157l46 292h125l-46 -291q-18 -109 70 -109q56 0 91 37t45 101l41 262h125l-77 -489h-122l12 77q-27 -42 -69.5 -64.5t-95.5 -22.5zM380 598l17 115h115l-18 -115h-114zM191 598l18 115h114l-17 -115h-115z" />
    <glyph glyph-name="yacute" unicode="&#xfd;" horiz-adv-x="526" 
d="M42 -180l122 200l-129 469h126l83 -342l195 342h131l-400 -669h-128zM257 554l133 203h125l-174 -203h-84z" />
    <glyph glyph-name="thorn" unicode="&#xfe;" 
d="M-2 -180l140 885h125l-45 -286q28 38 69 59t92 21q84 0 134.5 -56.5t50.5 -154.5q0 -83 -29.5 -150.5t-84.5 -107.5t-132 -40q-52 0 -93 22.5t-61 67.5l-41 -260h-125zM295 85q46 0 77.5 26t48.5 71t17 100q0 59 -28.5 90.5t-78.5 31.5q-45 0 -77 -26t-49 -70.5
t-17 -100.5q0 -59 28.5 -90.5t78.5 -31.5z" />
    <glyph glyph-name="ydieresis" unicode="&#xff;" horiz-adv-x="526" 
d="M42 -180l122 200l-129 469h126l83 -342l195 342h131l-400 -669h-128zM344 597l17 115h115l-18 -115h-114zM155 597l18 115h114l-17 -115h-115z" />
    <glyph glyph-name="Amacron" unicode="&#x100;" horiz-adv-x="744" 
d="M-38 0l432 705h105l206 -705h-123l-43 163h-345l-96 -163h-136zM430 566l-177 -301h258l-79 301h-2zM289 806l11 74h345l-11 -74h-345z" />
    <glyph glyph-name="amacron" unicode="&#x101;" horiz-adv-x="547" 
d="M193 -10q-45 0 -82 20.5t-59.5 54.5t-22.5 76q0 77 66.5 113t208.5 36h69l3 18q8 47 -14.5 72t-78.5 25q-89 0 -168 -50l-28 86q38 26 96 42t116 16q79 0 124 -29t61 -79t6 -114l-44 -277h-117l11 72q-25 -42 -64 -62t-83 -20zM232 76q47 0 82 30.5t43 82.5l5 29h-52
q-88 0 -123.5 -14.5t-35.5 -54.5q0 -35 23.5 -54t57.5 -19zM174 616l12 74h315l-12 -74h-315z" />
    <glyph glyph-name="Abreve" unicode="&#x102;" horiz-adv-x="744" 
d="M-38 0l432 705h105l206 -705h-123l-43 163h-345l-96 -163h-136zM430 566l-177 -301h258l-79 301h-2zM458 760q-76 0 -123 47t-46 123l71 9q-1 -49 26.5 -76.5t76.5 -27.5q48 0 80 27.5t40 76.5l71 -9q-12 -78 -65.5 -124t-130.5 -46z" />
    <glyph glyph-name="abreve" unicode="&#x103;" horiz-adv-x="547" 
d="M193 -10q-45 0 -82 20.5t-59.5 54.5t-22.5 76q0 77 66.5 113t208.5 36h69l3 18q8 47 -14.5 72t-78.5 25q-89 0 -168 -50l-28 86q38 26 96 42t116 16q79 0 124 -29t61 -79t6 -114l-44 -277h-117l11 72q-25 -42 -64 -62t-83 -20zM232 76q47 0 82 30.5t43 82.5l5 29h-52
q-88 0 -123.5 -14.5t-35.5 -54.5q0 -35 23.5 -54t57.5 -19zM329 551q-72 0 -114 52.5t-37 140.5l71 7q-2 -60 20.5 -92t64.5 -32t69.5 32t35.5 92l71 -7q-10 -89 -58.5 -141t-122.5 -52z" />
    <glyph glyph-name="Aogonek" unicode="&#x104;" horiz-adv-x="744" 
d="M-38 0l432 705h105l206 -705h-123l-43 163h-345l-96 -163h-136zM430 566l-177 -301h258l-79 301h-2zM624 -195q-51 0 -78.5 25.5t-27.5 68.5q0 48 32 86t81 57l33 -42q-35 -14 -51 -36t-16 -45q0 -21 14 -34t37 -13q14 0 26.5 3t27.5 8l11 -62q-23 -7 -44 -11.5t-45 -4.5
z" />
    <glyph glyph-name="aogonek" unicode="&#x105;" horiz-adv-x="547" 
d="M193 -10q-45 0 -82 20.5t-59.5 54.5t-22.5 76q0 77 66.5 113t208.5 36h69l3 18q8 47 -14.5 72t-78.5 25q-89 0 -168 -50l-28 86q38 26 96 42t116 16q79 0 124 -29t61 -79t6 -114l-44 -277h-117l11 72q-25 -42 -64 -62t-83 -20zM232 76q47 0 82 30.5t43 82.5l5 29h-52
q-88 0 -123.5 -14.5t-35.5 -54.5q0 -35 23.5 -54t57.5 -19zM371 -195q-51 0 -78.5 25.5t-27.5 68.5q0 48 32 86t81 57l33 -42q-35 -14 -51 -36t-16 -45q0 -21 14 -34t37 -13q14 0 26.5 3t27.5 8l11 -62q-23 -7 -44 -11.5t-45 -4.5z" />
    <glyph glyph-name="Cacute" unicode="&#x106;" horiz-adv-x="679" 
d="M392 -10q-93 0 -165.5 35.5t-114 106.5t-41.5 178q0 86 25.5 159.5t74 128.5t119.5 86t161 31q73 0 135 -23t99 -61l-52 -102q-79 72 -185 72q-77 0 -131 -37.5t-82 -102.5t-28 -147q0 -111 51 -160.5t148 -49.5q47 0 92 16t92 52l37 -101q-44 -39 -107 -60t-128 -21z
M408 765l130 174h133l-174 -174h-89z" />
    <glyph glyph-name="cacute" unicode="&#x107;" horiz-adv-x="472" 
d="M270 -10q-117 0 -175 61.5t-58 161.5q0 54 16.5 105.5t50.5 92t86.5 64.5t123.5 24q49 0 94 -14.5t73 -39.5l-39 -87q-47 44 -120 44q-57 0 -91.5 -28t-50 -71t-15.5 -89q0 -57 28.5 -92t94.5 -35q28 0 59.5 11t57.5 33l29 -89q-28 -25 -74.5 -38.5t-89.5 -13.5zM281 554
l133 203h125l-174 -203h-84z" />
    <glyph glyph-name="Ccircumflex" unicode="&#x108;" horiz-adv-x="679" 
d="M392 -10q-93 0 -165.5 35.5t-114 106.5t-41.5 178q0 86 25.5 159.5t74 128.5t119.5 86t161 31q73 0 135 -23t99 -61l-52 -102q-79 72 -185 72q-77 0 -131 -37.5t-82 -102.5t-28 -147q0 -111 51 -160.5t148 -49.5q47 0 92 16t92 52l37 -101q-44 -39 -107 -60t-128 -21z
M268 765l141 174h107l108 -174h-88l-79 104l-102 -104h-87z" />
    <glyph glyph-name="ccircumflex" unicode="&#x109;" horiz-adv-x="472" 
d="M270 -10q-117 0 -175 61.5t-58 161.5q0 54 16.5 105.5t50.5 92t86.5 64.5t123.5 24q49 0 94 -14.5t73 -39.5l-39 -87q-47 44 -120 44q-57 0 -91.5 -28t-50 -71t-15.5 -89q0 -57 28.5 -92t94.5 -35q28 0 59.5 11t57.5 33l29 -89q-28 -25 -74.5 -38.5t-89.5 -13.5zM154 554
l131 203h109l90 -203h-79l-71 132l-100 -132h-80z" />
    <glyph glyph-name="Cdotaccent" unicode="&#x10a;" horiz-adv-x="679" 
d="M392 -10q-93 0 -165.5 35.5t-114 106.5t-41.5 178q0 86 25.5 159.5t74 128.5t119.5 86t161 31q73 0 135 -23t99 -61l-52 -102q-79 72 -185 72q-77 0 -131 -37.5t-82 -102.5t-28 -147q0 -111 51 -160.5t148 -49.5q47 0 92 16t92 52l37 -101q-44 -39 -107 -60t-128 -21z
M396 794l18 116h121l-18 -116h-121z" />
    <glyph glyph-name="cdotaccent" unicode="&#x10b;" horiz-adv-x="472" 
d="M270 -10q-117 0 -175 61.5t-58 161.5q0 54 16.5 105.5t50.5 92t86.5 64.5t123.5 24q49 0 94 -14.5t73 -39.5l-39 -87q-47 44 -120 44q-57 0 -91.5 -28t-50 -71t-15.5 -89q0 -57 28.5 -92t94.5 -35q28 0 59.5 11t57.5 33l29 -89q-28 -25 -74.5 -38.5t-89.5 -13.5zM269 597
l18 116h122l-18 -116h-122z" />
    <glyph glyph-name="Ccaron" unicode="&#x10c;" horiz-adv-x="679" 
d="M392 -10q-93 0 -165.5 35.5t-114 106.5t-41.5 178q0 86 25.5 159.5t74 128.5t119.5 86t161 31q73 0 135 -23t99 -61l-52 -102q-79 72 -185 72q-77 0 -131 -37.5t-82 -102.5t-28 -147q0 -111 51 -160.5t148 -49.5q47 0 92 16t92 52l37 -101q-44 -39 -107 -60t-128 -21z
M399 765l-108 174h84l81 -104l100 104h91l-141 -174h-107z" />
    <glyph glyph-name="ccaron" unicode="&#x10d;" horiz-adv-x="472" 
d="M270 -10q-117 0 -175 61.5t-58 161.5q0 54 16.5 105.5t50.5 92t86.5 64.5t123.5 24q49 0 94 -14.5t73 -39.5l-39 -87q-47 44 -120 44q-57 0 -91.5 -28t-50 -71t-15.5 -89q0 -57 28.5 -92t94.5 -35q28 0 59.5 11t57.5 33l29 -89q-28 -25 -74.5 -38.5t-89.5 -13.5zM269 554
l-90 203h79l70 -132l101 132h80l-131 -203h-109z" />
    <glyph glyph-name="Dcaron" unicode="&#x10e;" horiz-adv-x="762" 
d="M38 0l112 705h226q168 0 259 -79t92 -222q0 -113 -44.5 -205t-134 -145.5t-225.5 -53.5h-285zM183 106h142q94 0 153 39t87 106t28 151q0 96 -54.5 146.5t-162.5 50.5h-115zM400 765l-108 174h84l81 -104l100 104h91l-141 -174h-107z" />
    <glyph glyph-name="dcaron" unicode="&#x10f;" 
d="M220 -10q-83 0 -133.5 57t-50.5 154q0 84 29.5 151.5t84.5 107t131 39.5q53 0 94 -23.5t61 -70.5l47 300h125l-112 -705h-122l13 79q-28 -42 -70.5 -65.5t-96.5 -23.5zM269 85q46 0 77.5 26t48.5 71t17 100q0 59 -28.5 90.5t-78.5 31.5q-45 0 -77 -26t-49 -70.5
t-17 -100.5q0 -59 28.5 -90.5t78.5 -31.5zM618 513l31 192h84l-57 -192h-58z" />
    <glyph glyph-name="Dcroat" unicode="&#x110;" horiz-adv-x="762" 
d="M38 0l112 705h226q168 0 259 -79t92 -222q0 -113 -44.5 -205t-134 -145.5t-225.5 -53.5h-285zM183 106h142q94 0 153 39t87 106t28 151q0 96 -54.5 146.5t-162.5 50.5h-115zM1 310l15 94h404l-15 -94h-404z" />
    <glyph glyph-name="dcroat" unicode="&#x111;" 
d="M220 -10q-83 0 -133.5 57t-50.5 154q0 84 29.5 151.5t84.5 107t131 39.5q53 0 94 -23.5t61 -70.5l22 139h-189l14 88h189l11 73h125l-12 -73h88l-14 -88h-88l-86 -544h-122l13 79q-28 -42 -70.5 -65.5t-96.5 -23.5zM269 85q46 0 77.5 26t48.5 71t17 100q0 59 -28.5 90.5
t-78.5 31.5q-45 0 -77 -26t-49 -70.5t-17 -100.5q0 -59 28.5 -90.5t78.5 -31.5z" />
    <glyph glyph-name="Emacron" unicode="&#x112;" horiz-adv-x="597" 
d="M39 0l111 705h469l-16 -102h-346l-31 -194h325l-16 -102h-325l-33 -205h346l-16 -102h-468zM245 806l11 74h345l-11 -74h-345z" />
    <glyph glyph-name="emacron" unicode="&#x113;" horiz-adv-x="543" 
d="M280 -10q-74 0 -128.5 27.5t-84.5 77.5t-30 117q0 82 34.5 146.5t95.5 102.5t140 38q80 0 127 -35.5t64.5 -94t9.5 -127.5l-3 -26h-351q-2 -61 34 -96t103 -35q44 0 83.5 12.5t70.5 37.5l31 -82q-35 -30 -87.5 -46.5t-108.5 -16.5zM306 414q-42 0 -71 -17.5t-46 -46.5
t-25 -62h248q4 54 -21 90t-85 36zM184 616l12 74h315l-12 -74h-315z" />
    <glyph glyph-name="Ebreve" unicode="&#x114;" horiz-adv-x="597" 
d="M39 0l111 705h469l-16 -102h-346l-31 -194h325l-16 -102h-325l-33 -205h346l-16 -102h-468zM414 760q-76 0 -123 47t-46 123l71 9q-1 -49 26.5 -76.5t76.5 -27.5q48 0 80 27.5t40 76.5l71 -9q-12 -78 -65.5 -124t-130.5 -46z" />
    <glyph glyph-name="ebreve" unicode="&#x115;" horiz-adv-x="543" 
d="M280 -10q-74 0 -128.5 27.5t-84.5 77.5t-30 117q0 82 34.5 146.5t95.5 102.5t140 38q80 0 127 -35.5t64.5 -94t9.5 -127.5l-3 -26h-351q-2 -61 34 -96t103 -35q44 0 83.5 12.5t70.5 37.5l31 -82q-35 -30 -87.5 -46.5t-108.5 -16.5zM306 414q-42 0 -71 -17.5t-46 -46.5
t-25 -62h248q4 54 -21 90t-85 36zM339 551q-72 0 -114 52.5t-37 140.5l71 7q-2 -60 20.5 -92t64.5 -32t69.5 32t35.5 92l71 -7q-10 -89 -58.5 -141t-122.5 -52z" />
    <glyph glyph-name="Edotaccent" unicode="&#x116;" horiz-adv-x="597" 
d="M39 0l111 705h469l-16 -102h-346l-31 -194h325l-16 -102h-325l-33 -205h346l-16 -102h-468zM355 794l18 116h121l-18 -116h-121z" />
    <glyph glyph-name="edotaccent" unicode="&#x117;" horiz-adv-x="543" 
d="M280 -10q-74 0 -128.5 27.5t-84.5 77.5t-30 117q0 82 34.5 146.5t95.5 102.5t140 38q80 0 127 -35.5t64.5 -94t9.5 -127.5l-3 -26h-351q-2 -61 34 -96t103 -35q44 0 83.5 12.5t70.5 37.5l31 -82q-35 -30 -87.5 -46.5t-108.5 -16.5zM306 414q-42 0 -71 -17.5t-46 -46.5
t-25 -62h248q4 54 -21 90t-85 36zM277 597l18 116h122l-18 -116h-122z" />
    <glyph glyph-name="Eogonek" unicode="&#x118;" horiz-adv-x="597" 
d="M39 0l111 705h469l-16 -102h-346l-31 -194h325l-16 -102h-325l-33 -205h346l-16 -102h-468zM416 -195q-51 0 -78.5 25.5t-27.5 68.5q0 48 32 86t81 57l33 -42q-35 -14 -51 -36t-16 -45q0 -21 14 -34t37 -13q14 0 26.5 3t27.5 8l11 -62q-23 -7 -44 -11.5t-45 -4.5z" />
    <glyph glyph-name="eogonek" unicode="&#x119;" horiz-adv-x="543" 
d="M280 -10q-74 0 -128.5 27.5t-84.5 77.5t-30 117q0 82 34.5 146.5t95.5 102.5t140 38q80 0 127 -35.5t64.5 -94t9.5 -127.5l-3 -26h-351q-2 -61 34 -96t103 -35q44 0 83.5 12.5t70.5 37.5l31 -82q-35 -30 -87.5 -46.5t-108.5 -16.5zM306 414q-42 0 -71 -17.5t-46 -46.5
t-25 -62h248q4 54 -21 90t-85 36zM300 -195q-51 0 -78.5 25.5t-27.5 68.5q0 48 32 86t81 57l33 -42q-35 -14 -51 -36t-16 -45q0 -21 14 -34t37 -13q14 0 26.5 3t27.5 8l11 -62q-23 -7 -44 -11.5t-45 -4.5z" />
    <glyph glyph-name="Ecaron" unicode="&#x11a;" horiz-adv-x="597" 
d="M39 0l111 705h469l-16 -102h-346l-31 -194h325l-16 -102h-325l-33 -205h346l-16 -102h-468zM358 765l-108 174h84l81 -104l100 104h91l-141 -174h-107z" />
    <glyph glyph-name="ecaron" unicode="&#x11b;" horiz-adv-x="543" 
d="M280 -10q-74 0 -128.5 27.5t-84.5 77.5t-30 117q0 82 34.5 146.5t95.5 102.5t140 38q80 0 127 -35.5t64.5 -94t9.5 -127.5l-3 -26h-351q-2 -61 34 -96t103 -35q44 0 83.5 12.5t70.5 37.5l31 -82q-35 -30 -87.5 -46.5t-108.5 -16.5zM306 414q-42 0 -71 -17.5t-46 -46.5
t-25 -62h248q4 54 -21 90t-85 36zM277 554l-90 203h79l70 -132l101 132h80l-131 -203h-109z" />
    <glyph glyph-name="Gcircumflex" unicode="&#x11c;" horiz-adv-x="736" 
d="M398 -10q-98 0 -172 36t-115 106t-41 171q0 120 46 213t133.5 146t210.5 53q79 0 141 -22.5t98 -58.5l-52 -101q-82 70 -194 70q-79 0 -134.5 -38.5t-85 -105t-29.5 -151.5q0 -106 55 -157t157 -51q33 0 63.5 5t60.5 14l27 167h-162l14 95h269l-54 -345
q-48 -22 -111.5 -34t-124.5 -12zM273 765l141 174h107l108 -174h-88l-79 104l-102 -104h-87z" />
    <glyph glyph-name="gcircumflex" unicode="&#x11d;" horiz-adv-x="604" 
d="M256 -190q-72 0 -131 18t-106 50l38 87q44 -28 87 -44t94 -16q60 0 97 27t47 87l11 72q-26 -38 -68 -58.5t-92 -20.5q-88 0 -142 53.5t-54 147.5q0 77 30.5 142t86.5 104.5t132 39.5q53 0 94.5 -23t61.5 -69l13 82h122l-73 -463q-16 -105 -78 -160.5t-170 -55.5zM271 107
q47 0 79.5 25.5t50 68t17.5 91.5q1 52 -28 82t-82 30q-46 0 -78.5 -25.5t-49 -67.5t-17.5 -91q-1 -53 27.5 -83t80.5 -30zM177 554l131 203h109l90 -203h-79l-71 132l-100 -132h-80z" />
    <glyph glyph-name="Gbreve" unicode="&#x11e;" horiz-adv-x="736" 
d="M398 -10q-98 0 -172 36t-115 106t-41 171q0 120 46 213t133.5 146t210.5 53q79 0 141 -22.5t98 -58.5l-52 -101q-82 70 -194 70q-79 0 -134.5 -38.5t-85 -105t-29.5 -151.5q0 -106 55 -157t157 -51q33 0 63.5 5t60.5 14l27 167h-162l14 95h269l-54 -345
q-48 -22 -111.5 -34t-124.5 -12zM460 760q-76 0 -123 47t-46 123l71 9q-1 -49 26.5 -76.5t76.5 -27.5q48 0 80 27.5t40 76.5l71 -9q-12 -78 -65.5 -124t-130.5 -46z" />
    <glyph glyph-name="gbreve" unicode="&#x11f;" horiz-adv-x="604" 
d="M256 -190q-72 0 -131 18t-106 50l38 87q44 -28 87 -44t94 -16q60 0 97 27t47 87l11 72q-26 -38 -68 -58.5t-92 -20.5q-88 0 -142 53.5t-54 147.5q0 77 30.5 142t86.5 104.5t132 39.5q53 0 94.5 -23t61.5 -69l13 82h122l-73 -463q-16 -105 -78 -160.5t-170 -55.5zM271 107
q47 0 79.5 25.5t50 68t17.5 91.5q1 52 -28 82t-82 30q-46 0 -78.5 -25.5t-49 -67.5t-17.5 -91q-1 -53 27.5 -83t80.5 -30zM354 551q-72 0 -114 52.5t-37 140.5l71 7q-2 -60 20.5 -92t64.5 -32t69.5 32t35.5 92l71 -7q-10 -89 -58.5 -141t-122.5 -52z" />
    <glyph glyph-name="Gdotaccent" unicode="&#x120;" horiz-adv-x="736" 
d="M398 -10q-98 0 -172 36t-115 106t-41 171q0 120 46 213t133.5 146t210.5 53q79 0 141 -22.5t98 -58.5l-52 -101q-82 70 -194 70q-79 0 -134.5 -38.5t-85 -105t-29.5 -151.5q0 -106 55 -157t157 -51q33 0 63.5 5t60.5 14l27 167h-162l14 95h269l-54 -345
q-48 -22 -111.5 -34t-124.5 -12zM401 794l18 116h121l-18 -116h-121z" />
    <glyph glyph-name="gdotaccent" unicode="&#x121;" horiz-adv-x="604" 
d="M256 -190q-72 0 -131 18t-106 50l38 87q44 -28 87 -44t94 -16q60 0 97 27t47 87l11 72q-26 -38 -68 -58.5t-92 -20.5q-88 0 -142 53.5t-54 147.5q0 77 30.5 142t86.5 104.5t132 39.5q53 0 94.5 -23t61.5 -69l13 82h122l-73 -463q-16 -105 -78 -160.5t-170 -55.5zM271 107
q47 0 79.5 25.5t50 68t17.5 91.5q1 52 -28 82t-82 30q-46 0 -78.5 -25.5t-49 -67.5t-17.5 -91q-1 -53 27.5 -83t80.5 -30zM292 597l18 116h122l-18 -116h-122z" />
    <glyph glyph-name="uni0122" unicode="&#x122;" horiz-adv-x="736" 
d="M398 -10q-98 0 -172 36t-115 106t-41 171q0 120 46 213t133.5 146t210.5 53q79 0 141 -22.5t98 -58.5l-52 -101q-82 70 -194 70q-79 0 -134.5 -38.5t-85 -105t-29.5 -151.5q0 -106 55 -157t157 -51q33 0 63.5 5t60.5 14l27 167h-162l14 95h269l-54 -345
q-48 -22 -111.5 -34t-124.5 -12zM354 -278l-38 36q21 16 30.5 32t14.5 35h-64l16 102h131l-12 -76q-7 -43 -23 -73.5t-55 -55.5z" />
    <glyph glyph-name="uni0123" unicode="&#x123;" horiz-adv-x="604" 
d="M256 -190q-72 0 -131 18t-106 50l38 87q44 -28 87 -44t94 -16q60 0 97 27t47 87l11 72q-26 -38 -68 -58.5t-92 -20.5q-88 0 -142 53.5t-54 147.5q0 77 30.5 142t86.5 104.5t132 39.5q53 0 94.5 -23t61.5 -69l13 82h122l-73 -463q-16 -105 -78 -160.5t-170 -55.5zM271 107
q47 0 79.5 25.5t50 68t17.5 91.5q1 52 -28 82t-82 30q-46 0 -78.5 -25.5t-49 -67.5t-17.5 -91q-1 -53 27.5 -83t80.5 -30zM283 564l12 76q7 43 23 73.5t55 55.5l38 -36q-21 -16 -30.5 -32t-14.5 -35h64l-17 -102h-130z" />
    <glyph glyph-name="Hcircumflex" unicode="&#x124;" horiz-adv-x="773" 
d="M38 0l112 705h128l-47 -294h363l47 294h128l-112 -705h-128l48 304h-363l-48 -304h-128zM284 765l141 174h107l108 -174h-88l-79 104l-102 -104h-87z" />
    <glyph glyph-name="hcircumflex" unicode="&#x125;" horiz-adv-x="585" 
d="M26 0l112 705h125l-46 -288q55 82 166 82q80 0 122 -49.5t25 -156.5l-46 -293h-125l46 291q18 110 -72 110q-59 0 -94.5 -37t-45.5 -101l-42 -263h-125zM191 765l141 174h107l108 -174h-88l-79 104l-102 -104h-87z" />
    <glyph glyph-name="Hbar" unicode="&#x126;" horiz-adv-x="817" 
d="M60 0l81 511h-84l15 94h84l16 100h128l-16 -100h362l16 100h128l-16 -100h86l-15 -94h-85l-82 -511h-128l47 294h-362l-47 -294h-128zM252 401h362l18 110h-363z" />
    <glyph glyph-name="hbar" unicode="&#x127;" horiz-adv-x="585" 
d="M26 0l86 544h-87l14 88h87l12 73h125l-12 -73h189l-14 -88h-189l-20 -127q55 82 166 82q80 0 122 -49.5t25 -156.5l-46 -293h-125l46 291q18 110 -72 110q-59 0 -94.5 -37t-45.5 -101l-42 -263h-125z" />
    <glyph glyph-name="Itilde" unicode="&#x128;" horiz-adv-x="282" 
d="M38 0l112 705h128l-112 -705h-128zM61 772l-62 4q12 71 49 109.5t92 38.5q29 0 55 -11.5t49 -24.5q20 -12 38.5 -21t37.5 -9q56 0 74 70l62 -4q-11 -71 -48 -109.5t-92 -38.5q-30 0 -55.5 12t-48.5 25q-20 11 -38.5 20t-37.5 9q-57 0 -75 -70z" />
    <glyph glyph-name="itilde" unicode="&#x129;" horiz-adv-x="255" 
d="M26 0l78 489h125l-78 -489h-125zM50 584l-62 4q10 71 44.5 109.5t84.5 38.5q29 0 48.5 -13.5t36.5 -27.5q13 -10 26 -17.5t29 -7.5q50 0 67 70l62 -4q-10 -71 -44 -109.5t-84 -38.5q-28 0 -48.5 13t-37.5 27q-13 11 -26 18.5t-29 7.5q-50 0 -67 -70z" />
    <glyph glyph-name="Imacron" unicode="&#x12a;" horiz-adv-x="282" 
d="M38 0l112 705h128l-112 -705h-128zM58 806l11 74h345l-11 -74h-345z" />
    <glyph glyph-name="imacron" unicode="&#x12b;" horiz-adv-x="255" 
d="M26 0l78 489h125l-78 -489h-125zM30 616l12 74h315l-12 -74h-315z" />
    <glyph glyph-name="Ibreve" unicode="&#x12c;" horiz-adv-x="282" 
d="M38 0l112 705h128l-112 -705h-128zM227 760q-76 0 -123 47t-46 123l71 9q-1 -49 26.5 -76.5t76.5 -27.5q48 0 80 27.5t40 76.5l71 -9q-12 -78 -65.5 -124t-130.5 -46z" />
    <glyph glyph-name="ibreve" unicode="&#x12d;" horiz-adv-x="255" 
d="M26 0l78 489h125l-78 -489h-125zM185 551q-72 0 -114 52.5t-37 140.5l71 7q-2 -60 20.5 -92t64.5 -32t69.5 32t35.5 92l71 -7q-10 -89 -58.5 -141t-122.5 -52z" />
    <glyph glyph-name="Iogonek" unicode="&#x12e;" horiz-adv-x="282" 
d="M38 0l112 705h128l-112 -705h-128zM98 -195q-51 0 -78.5 25.5t-27.5 68.5q0 48 32 86t81 57l33 -42q-35 -14 -51 -36t-16 -45q0 -21 14 -34t37 -13q14 0 26.5 3t27.5 8l11 -62q-23 -7 -44 -11.5t-45 -4.5z" />
    <glyph glyph-name="iogonek" unicode="&#x12f;" horiz-adv-x="255" 
d="M26 0l78 489h125l-78 -489h-125zM114 594l20 122h139l-20 -122h-139zM85 -195q-51 0 -78.5 25.5t-27.5 68.5q0 48 32 86t81 57l33 -42q-35 -14 -51 -36t-16 -45q0 -21 14 -34t37 -13q14 0 26.5 3t27.5 8l11 -62q-23 -7 -44 -11.5t-45 -4.5z" />
    <glyph glyph-name="Idotaccent" unicode="&#x130;" horiz-adv-x="282" 
d="M38 0l112 705h128l-112 -705h-128zM168 794l18 116h121l-18 -116h-121z" />
    <glyph glyph-name="dotlessi" unicode="&#x131;" horiz-adv-x="255" 
d="M26 0l78 489h125l-78 -489h-125z" />
    <glyph glyph-name="IJ" unicode="&#x132;" horiz-adv-x="636" 
d="M38 0l112 705h128l-112 -705h-128zM244 -9l2 105l72 4q47 3 73 29t34 78l79 498h128l-81 -509q-15 -94 -65.5 -144t-159.5 -57z" />
    <glyph glyph-name="Jcircumflex" unicode="&#x134;" horiz-adv-x="354" 
d="M-38 -9l2 105l72 4q47 3 73 29t34 78l79 498h128l-81 -509q-15 -94 -65.5 -144t-159.5 -57zM112 765l141 174h107l108 -174h-88l-79 104l-102 -104h-87z" />
    <glyph glyph-name="jcircumflex" unicode="&#x135;" horiz-adv-x="259" 
d="M-101 -193l-8 91l47 5q41 3 62.5 25.5t28.5 64.5l79 496h125l-77 -482q-15 -99 -63 -144.5t-149 -52.5zM10 554l131 203h109l90 -203h-79l-71 132l-100 -132h-80z" />
    <glyph glyph-name="uni0136" unicode="&#x136;" horiz-adv-x="664" 
d="M38 0l112 705h128l-50 -312h2l355 312h163l-396 -348l301 -357h-148l-285 329h-2l-52 -329h-128zM265 -278l-38 36q21 16 30.5 32t14.5 35h-64l16 102h131l-12 -76q-7 -43 -23 -73.5t-55 -55.5z" />
    <glyph glyph-name="uni0137" unicode="&#x137;" horiz-adv-x="536" 
d="M27 0l111 705h125l-67 -424h2l227 208h149l-255 -240l197 -249h-145l-182 223h-2l-35 -223h-125zM205 -278l-38 36q21 16 30.5 32t14.5 35h-64l16 102h131l-12 -76q-7 -43 -23 -73.5t-55 -55.5z" />
    <glyph glyph-name="kgreenlandic" unicode="&#x138;" horiz-adv-x="536" 
d="M26 0l78 489h125l-33 -208h2l227 208h149l-255 -240l197 -249h-145l-182 223h-2l-36 -223h-125z" />
    <glyph glyph-name="Lacute" unicode="&#x139;" horiz-adv-x="562" 
d="M38 0l112 705h128l-94 -596h337l-17 -109h-466zM179 765l130 174h133l-174 -174h-89z" />
    <glyph glyph-name="lacute" unicode="&#x13a;" horiz-adv-x="319" 
d="M199 -10q-85 0 -122 47.5t-23 138.5l84 529h125l-84 -528q-7 -44 8.5 -64.5t53.5 -20.5q11 0 22 1.5t22 2.5l-17 -97q-30 -9 -69 -9zM166 765l130 174h133l-174 -174h-89z" />
    <glyph glyph-name="uni013B" unicode="&#x13b;" horiz-adv-x="562" 
d="M38 0l112 705h128l-94 -596h337l-17 -109h-466zM237 -278l-38 36q21 16 30.5 32t14.5 35h-64l16 102h131l-12 -76q-7 -43 -23 -73.5t-55 -55.5z" />
    <glyph glyph-name="uni013C" unicode="&#x13c;" horiz-adv-x="319" 
d="M199 -10q-85 0 -122 47.5t-23 138.5l84 529h125l-84 -528q-7 -44 8.5 -64.5t53.5 -20.5q11 0 22 1.5t22 2.5l-17 -97q-30 -9 -69 -9zM120 -278l-38 36q21 16 30.5 32t14.5 35h-64l16 102h131l-12 -76q-7 -43 -23 -73.5t-55 -55.5z" />
    <glyph glyph-name="Lcaron" unicode="&#x13d;" horiz-adv-x="562" 
d="M38 0l112 705h128l-94 -596h337l-17 -109h-466zM348 469l37 236h97l-60 -236h-74z" />
    <glyph glyph-name="lcaron" unicode="&#x13e;" horiz-adv-x="319" 
d="M199 -10q-85 0 -122 47.5t-23 138.5l84 529h125l-84 -528q-7 -44 8.5 -64.5t53.5 -20.5q11 0 22 1.5t22 2.5l-17 -97q-30 -9 -69 -9zM272 513l31 192h84l-57 -192h-58z" />
    <glyph glyph-name="Ldot" unicode="&#x13f;" horiz-adv-x="562" 
d="M38 0l112 705h128l-94 -596h337l-17 -109h-466zM369 332l20 123h140l-20 -123h-140z" />
    <glyph glyph-name="ldot" unicode="&#x140;" horiz-adv-x="371" 
d="M199 -10q-85 0 -122 47.5t-23 138.5l84 529h125l-84 -528q-7 -44 8.5 -64.5t53.5 -20.5q11 0 22 1.5t22 2.5l-17 -97q-30 -9 -69 -9zM252 295l20 123h140l-20 -123h-140z" />
    <glyph glyph-name="Lslash" unicode="&#x141;" horiz-adv-x="562" 
d="M38 0l112 705h128l-94 -596h337l-17 -109h-466zM12 246l-40 88l418 195l41 -88z" />
    <glyph glyph-name="lslash" unicode="&#x142;" horiz-adv-x="319" 
d="M199 -10q-85 0 -122 47.5t-23 138.5l84 529h125l-84 -528q-7 -44 8.5 -64.5t53.5 -20.5q11 0 22 1.5t22 2.5l-17 -97q-30 -9 -69 -9zM12 233l-41 89l330 159l40 -89z" />
    <glyph glyph-name="Nacute" unicode="&#x143;" horiz-adv-x="747" 
d="M38 0l112 705h96l298 -506l80 506h119l-112 -705h-95l-299 506l-80 -506h-119zM411 765l130 174h133l-174 -174h-89z" />
    <glyph glyph-name="nacute" unicode="&#x144;" horiz-adv-x="585" 
d="M26 0l78 489h122l-13 -78q55 88 170 88q80 0 122 -49.5t25 -156.5l-46 -293h-125l46 291q18 110 -72 110q-59 0 -94.5 -37t-45.5 -101l-42 -263h-125zM297 554l133 203h125l-174 -203h-84z" />
    <glyph glyph-name="uni0145" unicode="&#x145;" horiz-adv-x="747" 
d="M38 0l112 705h96l298 -506l80 506h119l-112 -705h-95l-299 506l-80 -506h-119zM310 -278l-38 36q21 16 30.5 32t14.5 35h-64l16 102h131l-12 -76q-7 -43 -23 -73.5t-55 -55.5z" />
    <glyph glyph-name="uni0146" unicode="&#x146;" horiz-adv-x="585" 
d="M26 0l78 489h122l-13 -78q55 88 170 88q80 0 122 -49.5t25 -156.5l-46 -293h-125l46 291q18 110 -72 110q-59 0 -94.5 -37t-45.5 -101l-42 -263h-125zM222 -278l-38 36q21 16 30.5 32t14.5 35h-64l16 102h131l-12 -76q-7 -43 -23 -73.5t-55 -55.5z" />
    <glyph glyph-name="Ncaron" unicode="&#x147;" horiz-adv-x="747" 
d="M38 0l112 705h96l298 -506l80 506h119l-112 -705h-95l-299 506l-80 -506h-119zM402 765l-108 174h84l81 -104l100 104h91l-141 -174h-107z" />
    <glyph glyph-name="ncaron" unicode="&#x148;" horiz-adv-x="585" 
d="M26 0l78 489h122l-13 -78q55 88 170 88q80 0 122 -49.5t25 -156.5l-46 -293h-125l46 291q18 110 -72 110q-59 0 -94.5 -37t-45.5 -101l-42 -263h-125zM285 554l-90 203h79l70 -132l101 132h80l-131 -203h-109z" />
    <glyph glyph-name="napostrophe" unicode="&#x149;" horiz-adv-x="585" 
d="M106 567l-44 32q19 17 28.5 33t13.5 33h-62l16 104h130l-11 -70q-7 -40 -21.5 -71.5t-49.5 -60.5zM26 0l78 489h122l-13 -78q55 88 170 88q80 0 122 -49.5t25 -156.5l-46 -293h-125l46 291q18 110 -72 110q-59 0 -94.5 -37t-45.5 -101l-42 -263h-125z" />
    <glyph glyph-name="Eng" unicode="&#x14a;" horiz-adv-x="747" 
d="M375 -193l-8 91l47 5q45 5 67.5 26.5t29.5 63.5l6 39l-280 474l-80 -506h-119l112 705h96l298 -507l80 507h119l-111 -698q-16 -99 -63.5 -144.5t-148.5 -52.5z" />
    <glyph glyph-name="eng" unicode="&#x14b;" horiz-adv-x="585" 
d="M224 -193l-8 91l47 5q82 6 95 90l47 298q18 110 -72 110q-59 0 -94.5 -37t-45.5 -101l-42 -263h-125l78 489h122l-13 -78q55 88 170 88q80 0 122 -49.5t25 -156.5l-45 -286q-16 -99 -65.5 -144.5t-150.5 -52.5z" />
    <glyph glyph-name="Omacron" unicode="&#x14c;" horiz-adv-x="785" 
d="M381 -10q-94 0 -164 36t-108.5 105.5t-38.5 167.5q0 121 44.5 214.5t127.5 147.5t197 54q95 0 164.5 -36t108 -105t38.5 -167q0 -121 -44.5 -215t-127 -148t-197.5 -54zM383 100q75 0 127 39.5t79 108.5t27 157q0 101 -48 150.5t-132 49.5q-74 0 -126 -39t-79 -107.5
t-27 -157.5q0 -102 48 -151.5t131 -49.5zM297 806l11 74h345l-11 -74h-345z" />
    <glyph glyph-name="omacron" unicode="&#x14d;" horiz-adv-x="576" 
d="M267 -10q-108 0 -169 60t-61 161q0 88 36.5 152.5t98.5 100t137 35.5q108 0 169 -60t61 -161q0 -88 -36.5 -152.5t-98 -100t-137.5 -35.5zM270 85q46 0 77.5 26t48.5 71t17 100q0 59 -28.5 90.5t-78.5 31.5q-45 0 -77 -26t-49 -70.5t-17 -100.5q0 -59 28.5 -90.5
t78.5 -31.5zM192 616l12 74h315l-12 -74h-315z" />
    <glyph glyph-name="Obreve" unicode="&#x14e;" horiz-adv-x="785" 
d="M381 -10q-94 0 -164 36t-108.5 105.5t-38.5 167.5q0 121 44.5 214.5t127.5 147.5t197 54q95 0 164.5 -36t108 -105t38.5 -167q0 -121 -44.5 -215t-127 -148t-197.5 -54zM383 100q75 0 127 39.5t79 108.5t27 157q0 101 -48 150.5t-132 49.5q-74 0 -126 -39t-79 -107.5
t-27 -157.5q0 -102 48 -151.5t131 -49.5zM466 760q-76 0 -123 47t-46 123l71 9q-1 -49 26.5 -76.5t76.5 -27.5q48 0 80 27.5t40 76.5l71 -9q-12 -78 -65.5 -124t-130.5 -46z" />
    <glyph glyph-name="obreve" unicode="&#x14f;" horiz-adv-x="576" 
d="M267 -10q-108 0 -169 60t-61 161q0 88 36.5 152.5t98.5 100t137 35.5q108 0 169 -60t61 -161q0 -88 -36.5 -152.5t-98 -100t-137.5 -35.5zM270 85q46 0 77.5 26t48.5 71t17 100q0 59 -28.5 90.5t-78.5 31.5q-45 0 -77 -26t-49 -70.5t-17 -100.5q0 -59 28.5 -90.5
t78.5 -31.5zM347 551q-72 0 -114 52.5t-37 140.5l71 7q-2 -60 20.5 -92t64.5 -32t69.5 32t35.5 92l71 -7q-10 -89 -58.5 -141t-122.5 -52z" />
    <glyph glyph-name="Ohungarumlaut" unicode="&#x150;" horiz-adv-x="785" 
d="M381 -10q-94 0 -164 36t-108.5 105.5t-38.5 167.5q0 121 44.5 214.5t127.5 147.5t197 54q95 0 164.5 -36t108 -105t38.5 -167q0 -121 -44.5 -215t-127 -148t-197.5 -54zM383 100q75 0 127 39.5t79 108.5t27 157q0 101 -48 150.5t-132 49.5q-74 0 -126 -39t-79 -107.5
t-27 -157.5q0 -102 48 -151.5t131 -49.5zM355 765l100 174h112l-142 -174h-70zM501 765l110 174h112l-151 -174h-71z" />
    <glyph glyph-name="ohungarumlaut" unicode="&#x151;" horiz-adv-x="576" 
d="M267 -10q-108 0 -169 60t-61 161q0 88 36.5 152.5t98.5 100t137 35.5q108 0 169 -60t61 -161q0 -88 -36.5 -152.5t-98 -100t-137.5 -35.5zM270 85q46 0 77.5 26t48.5 71t17 100q0 59 -28.5 90.5t-78.5 31.5q-45 0 -77 -26t-49 -70.5t-17 -100.5q0 -59 28.5 -90.5
t78.5 -31.5zM379 554l67 203h105l-106 -203h-66zM230 554l68 203h105l-107 -203h-66z" />
    <glyph glyph-name="OE" unicode="&#x152;" horiz-adv-x="1056" 
d="M421 0q-168 0 -259 79.5t-91 221.5q0 118 44.5 209t135 143t228.5 52h598l-16 -102h-345l-31 -194h324l-16 -102h-323l-33 -205h345l-16 -102h-545zM422 106h93l78 493h-116q-95 0 -155.5 -38.5t-88.5 -105.5t-28 -152q0 -95 54.5 -146t162.5 -51z" />
    <glyph glyph-name="oe" unicode="&#x153;" horiz-adv-x="914" 
d="M267 -10q-109 0 -169.5 60.5t-60.5 161.5q0 88 36.5 152.5t98.5 99.5t137 35q63 0 108.5 -24.5t70.5 -69.5q33 43 82.5 68.5t110.5 25.5q79 0 126.5 -35t65 -93t7.5 -127l-4 -28h-344q-2 -61 32.5 -95.5t99.5 -34.5q44 0 83 12.5t70 37.5l31 -83q-35 -30 -86 -46.5
t-107 -16.5q-66 0 -116 24.5t-78 68.5q-35 -43 -84.5 -68t-109.5 -25zM680 414q-61 0 -94 -38t-44 -88h242q4 54 -20 90t-84 36zM270 86q46 0 77.5 26t48.5 70.5t17 99.5q0 59 -28.5 90.5t-78.5 31.5q-45 0 -77 -26t-49 -70.5t-17 -100.5q0 -59 28.5 -90t78.5 -31z" />
    <glyph glyph-name="Racute" unicode="&#x154;" horiz-adv-x="686" 
d="M38 0l112 705h275q117 0 177.5 -52t60.5 -143q0 -96 -53 -150t-139 -69q26 -11 44.5 -34.5t31.5 -56.5l77 -200h-131l-82 216q-13 36 -35 51t-62 15h-103l-44 -282h-129zM226 377h170q68 0 105.5 31.5t37.5 91.5q0 52 -32 78t-101 26h-144zM374 765l130 174h133
l-174 -174h-89z" />
    <glyph glyph-name="racute" unicode="&#x155;" horiz-adv-x="392" 
d="M26 0l78 489h122l-13 -82q22 40 62 64t96 28l43 3l-3 -106l-81 -8q-67 -6 -97 -39t-40 -95l-40 -254h-127zM232 556l133 203h125l-174 -203h-84z" />
    <glyph glyph-name="uni0156" unicode="&#x156;" horiz-adv-x="686" 
d="M38 0l112 705h275q117 0 177.5 -52t60.5 -143q0 -96 -53 -150t-139 -69q26 -11 44.5 -34.5t31.5 -56.5l77 -200h-131l-82 216q-13 36 -35 51t-62 15h-103l-44 -282h-129zM226 377h170q68 0 105.5 31.5t37.5 91.5q0 52 -32 78t-101 26h-144zM280 -278l-38 36
q21 16 30.5 32t14.5 35h-64l16 102h131l-12 -76q-7 -43 -23 -73.5t-55 -55.5z" />
    <glyph glyph-name="uni0157" unicode="&#x157;" horiz-adv-x="392" 
d="M26 0l78 489h122l-13 -82q22 40 62 64t96 28l43 3l-3 -106l-81 -8q-67 -6 -97 -39t-40 -95l-40 -254h-127zM54 -278l-38 36q21 16 30.5 32t14.5 35h-64l16 102h131l-12 -76q-7 -43 -23 -73.5t-55 -55.5z" />
    <glyph glyph-name="Rcaron" unicode="&#x158;" horiz-adv-x="686" 
d="M38 0l112 705h275q117 0 177.5 -52t60.5 -143q0 -96 -53 -150t-139 -69q26 -11 44.5 -34.5t31.5 -56.5l77 -200h-131l-82 216q-13 36 -35 51t-62 15h-103l-44 -282h-129zM226 377h170q68 0 105.5 31.5t37.5 91.5q0 52 -32 78t-101 26h-144zM365 765l-108 174h84l81 -104
l100 104h91l-141 -174h-107z" />
    <glyph glyph-name="rcaron" unicode="&#x159;" horiz-adv-x="392" 
d="M26 0l78 489h122l-13 -82q22 40 62 64t96 28l43 3l-3 -106l-81 -8q-67 -6 -97 -39t-40 -95l-40 -254h-127zM220 556l-90 203h79l70 -132l101 132h80l-131 -203h-109z" />
    <glyph glyph-name="Sacute" unicode="&#x15a;" horiz-adv-x="631" 
d="M300 -10q-77 0 -149.5 20.5t-127.5 64.5l46 97q58 -41 119 -57.5t124 -16.5q70 0 110.5 27t40.5 71q0 33 -24 55.5t-82 35.5l-109 26q-73 17 -116 61.5t-43 118.5q0 70 38.5 119.5t102.5 76t139 26.5q66 0 133 -20t118 -64l-48 -94q-45 38 -99 54t-106 16q-67 0 -109 -28
t-42 -75q0 -38 22 -58t65 -31l109 -26q89 -20 133.5 -66.5t44.5 -111.5q0 -73 -40 -122.5t-106 -74t-144 -24.5zM345 765l130 174h133l-174 -174h-89z" />
    <glyph glyph-name="sacute" unicode="&#x15b;" horiz-adv-x="488" 
d="M226 -10q-62 0 -116.5 15.5t-91.5 43.5l39 81q36 -25 80.5 -38.5t88.5 -13.5q47 0 72 17.5t25 46.5q0 39 -54 51l-92 19q-55 11 -86 43.5t-31 81.5q0 45 25.5 81.5t75 58.5t119.5 22q48 0 96.5 -14.5t81.5 -42.5l-37 -80q-31 25 -69 37t-78 12q-49 0 -75 -18.5t-26 -48.5
q0 -18 11.5 -31t36.5 -18l92 -19q123 -26 123 -125q0 -77 -57.5 -119t-152.5 -42zM245 554l133 203h125l-174 -203h-84z" />
    <glyph glyph-name="Scircumflex" unicode="&#x15c;" horiz-adv-x="631" 
d="M300 -10q-77 0 -149.5 20.5t-127.5 64.5l46 97q58 -41 119 -57.5t124 -16.5q70 0 110.5 27t40.5 71q0 33 -24 55.5t-82 35.5l-109 26q-73 17 -116 61.5t-43 118.5q0 70 38.5 119.5t102.5 76t139 26.5q66 0 133 -20t118 -64l-48 -94q-45 38 -99 54t-106 16q-67 0 -109 -28
t-42 -75q0 -38 22 -58t65 -31l109 -26q89 -20 133.5 -66.5t44.5 -111.5q0 -73 -40 -122.5t-106 -74t-144 -24.5zM205 765l141 174h107l108 -174h-88l-79 104l-102 -104h-87z" />
    <glyph glyph-name="scircumflex" unicode="&#x15d;" horiz-adv-x="488" 
d="M226 -10q-62 0 -116.5 15.5t-91.5 43.5l39 81q36 -25 80.5 -38.5t88.5 -13.5q47 0 72 17.5t25 46.5q0 39 -54 51l-92 19q-55 11 -86 43.5t-31 81.5q0 45 25.5 81.5t75 58.5t119.5 22q48 0 96.5 -14.5t81.5 -42.5l-37 -80q-31 25 -69 37t-78 12q-49 0 -75 -18.5t-26 -48.5
q0 -18 11.5 -31t36.5 -18l92 -19q123 -26 123 -125q0 -77 -57.5 -119t-152.5 -42zM118 554l131 203h109l90 -203h-79l-71 132l-100 -132h-80z" />
    <glyph glyph-name="Scedilla" unicode="&#x15e;" horiz-adv-x="631" 
d="M300 -10q-77 0 -149.5 20.5t-127.5 64.5l46 97q58 -41 119 -57.5t124 -16.5q70 0 110.5 27t40.5 71q0 33 -24 55.5t-82 35.5l-109 26q-73 17 -116 61.5t-43 118.5q0 70 38.5 119.5t102.5 76t139 26.5q66 0 133 -20t118 -64l-48 -94q-45 38 -99 54t-106 16q-67 0 -109 -28
t-42 -75q0 -38 22 -58t65 -31l109 -26q89 -20 133.5 -66.5t44.5 -111.5q0 -73 -40 -122.5t-106 -74t-144 -24.5zM279 -195q-29 0 -55.5 5.5t-44.5 15.5l23 56q17 -8 34.5 -12.5t38.5 -4.5q57 0 57 32q0 21 -35 21q-9 0 -18.5 -1t-23.5 -5l-17 18l28 90h66l-18 -57h9
q38 0 60.5 -17t22.5 -49q0 -42 -36 -67t-91 -25z" />
    <glyph glyph-name="scedilla" unicode="&#x15f;" horiz-adv-x="488" 
d="M226 -10q-62 0 -116.5 15.5t-91.5 43.5l39 81q36 -25 80.5 -38.5t88.5 -13.5q47 0 72 17.5t25 46.5q0 39 -54 51l-92 19q-55 11 -86 43.5t-31 81.5q0 45 25.5 81.5t75 58.5t119.5 22q48 0 96.5 -14.5t81.5 -42.5l-37 -80q-31 25 -69 37t-78 12q-49 0 -75 -18.5t-26 -48.5
q0 -18 11.5 -31t36.5 -18l92 -19q123 -26 123 -125q0 -77 -57.5 -119t-152.5 -42zM196 -195q-29 0 -55.5 5.5t-44.5 15.5l23 56q17 -8 34.5 -12.5t38.5 -4.5q57 0 57 32q0 21 -35 21q-9 0 -18.5 -1t-23.5 -5l-17 18l28 90h66l-18 -57h9q38 0 60.5 -17t22.5 -49
q0 -42 -36 -67t-91 -25z" />
    <glyph glyph-name="Scaron" unicode="&#x160;" horiz-adv-x="631" 
d="M300 -10q-77 0 -149.5 20.5t-127.5 64.5l46 97q58 -41 119 -57.5t124 -16.5q70 0 110.5 27t40.5 71q0 33 -24 55.5t-82 35.5l-109 26q-73 17 -116 61.5t-43 118.5q0 70 38.5 119.5t102.5 76t139 26.5q66 0 133 -20t118 -64l-48 -94q-45 38 -99 54t-106 16q-67 0 -109 -28
t-42 -75q0 -38 22 -58t65 -31l109 -26q89 -20 133.5 -66.5t44.5 -111.5q0 -73 -40 -122.5t-106 -74t-144 -24.5zM336 765l-108 174h84l81 -104l100 104h91l-141 -174h-107z" />
    <glyph glyph-name="scaron" unicode="&#x161;" horiz-adv-x="488" 
d="M226 -10q-62 0 -116.5 15.5t-91.5 43.5l39 81q36 -25 80.5 -38.5t88.5 -13.5q47 0 72 17.5t25 46.5q0 39 -54 51l-92 19q-55 11 -86 43.5t-31 81.5q0 45 25.5 81.5t75 58.5t119.5 22q48 0 96.5 -14.5t81.5 -42.5l-37 -80q-31 25 -69 37t-78 12q-49 0 -75 -18.5t-26 -48.5
q0 -18 11.5 -31t36.5 -18l92 -19q123 -26 123 -125q0 -77 -57.5 -119t-152.5 -42zM233 554l-90 203h79l70 -132l101 132h80l-131 -203h-109z" />
    <glyph glyph-name="uni0162" unicode="&#x162;" horiz-adv-x="621" 
d="M208 0l95 598h-242l17 107h612l-17 -107h-242l-95 -598h-128zM251 -195q-29 0 -55.5 5.5t-44.5 15.5l23 56q17 -8 34.5 -12.5t38.5 -4.5q57 0 57 32q0 21 -35 21q-9 0 -18.5 -1t-23.5 -5l-17 18l28 90h66l-18 -57h9q38 0 60.5 -17t22.5 -49q0 -42 -36 -67t-91 -25z" />
    <glyph glyph-name="uni0163" unicode="&#x163;" horiz-adv-x="384" 
d="M258 -10q-98 0 -142 53.5t-31 138.5l34 213h-94l15 94h94l23 146h125l-23 -146h148l-15 -94h-148l-33 -205q-8 -52 12.5 -74.5t63.5 -22.5q15 0 29 3t27 7l7 -94q-16 -9 -42 -14t-50 -5zM178 -195q-29 0 -55.5 5.5t-44.5 15.5l23 56q17 -8 34.5 -12.5t38.5 -4.5
q57 0 57 32q0 21 -35 21q-9 0 -18.5 -1t-23.5 -5l-17 18l28 90h66l-18 -57h9q38 0 60.5 -17t22.5 -49q0 -42 -36 -67t-91 -25z" />
    <glyph glyph-name="Tcaron" unicode="&#x164;" horiz-adv-x="621" 
d="M208 0l95 598h-242l17 107h612l-17 -107h-242l-95 -598h-128zM339 765l-108 174h84l81 -104l100 104h91l-141 -174h-107z" />
    <glyph glyph-name="tcaron" unicode="&#x165;" horiz-adv-x="384" 
d="M258 -10q-98 0 -142 53.5t-31 138.5l34 213h-94l15 94h94l23 146h125l-23 -146h148l-15 -94h-148l-33 -205q-8 -52 12.5 -74.5t63.5 -22.5q15 0 29 3t27 7l7 -94q-16 -9 -42 -14t-50 -5zM321.33 539.456l27.6699 165.303h83.0107l-53.3643 -165.303h-57.3164z" />
    <glyph glyph-name="Tbar" unicode="&#x166;" horiz-adv-x="621" 
d="M208 0l95 598h-242l17 107h612l-17 -107h-242l-95 -598h-128zM119 310l15 94h404l-15 -94h-404z" />
    <glyph glyph-name="tbar" unicode="&#x167;" horiz-adv-x="384" 
d="M258 -10q-98 0 -142 53.5t-31 138.5l34 213h-94l15 94h94l23 146h125l-23 -146h148l-15 -94h-148l-33 -205q-8 -52 12.5 -74.5t63.5 -22.5q15 0 29 3t27 7l7 -94q-16 -9 -42 -14t-50 -5zM22 223l13 76h307l-13 -76h-307z" />
    <glyph glyph-name="Utilde" unicode="&#x168;" horiz-adv-x="737" 
d="M342 -10q-90 0 -155 35t-93.5 105.5t-11.5 176.5l63 398h128l-64 -407q-15 -97 20.5 -147.5t121.5 -50.5q82 0 129 42.5t62 134.5l68 428h127l-67 -426q-22 -142 -100 -215.5t-228 -73.5zM288 772l-62 4q12 71 49 109.5t92 38.5q29 0 55 -11.5t49 -24.5q20 -12 38.5 -21
t37.5 -9q56 0 74 70l62 -4q-11 -71 -48 -109.5t-92 -38.5q-30 0 -55.5 12t-48.5 25q-20 11 -38.5 20t-37.5 9q-57 0 -75 -70z" />
    <glyph glyph-name="utilde" unicode="&#x169;" horiz-adv-x="579" 
d="M200 -10q-79 0 -120.5 50t-24.5 157l46 292h125l-46 -291q-18 -109 70 -109q56 0 91 37t45 101l41 262h125l-77 -489h-122l12 77q-27 -42 -69.5 -64.5t-95.5 -22.5zM208 585l-62 4q10 71 44.5 109.5t84.5 38.5q29 0 48.5 -13.5t36.5 -27.5q13 -10 26 -17.5t29 -7.5
q50 0 67 70l62 -4q-10 -71 -44 -109.5t-84 -38.5q-28 0 -48.5 13t-37.5 27q-13 11 -26 18.5t-29 7.5q-50 0 -67 -70z" />
    <glyph glyph-name="Umacron" unicode="&#x16a;" horiz-adv-x="737" 
d="M342 -10q-90 0 -155 35t-93.5 105.5t-11.5 176.5l63 398h128l-64 -407q-15 -97 20.5 -147.5t121.5 -50.5q82 0 129 42.5t62 134.5l68 428h127l-67 -426q-22 -142 -100 -215.5t-228 -73.5zM285 806l11 74h345l-11 -74h-345z" />
    <glyph glyph-name="umacron" unicode="&#x16b;" horiz-adv-x="579" 
d="M200 -10q-79 0 -120.5 50t-24.5 157l46 292h125l-46 -291q-18 -109 70 -109q56 0 91 37t45 101l41 262h125l-77 -489h-122l12 77q-27 -42 -69.5 -64.5t-95.5 -22.5zM188 617l12 74h315l-12 -74h-315z" />
    <glyph glyph-name="Ubreve" unicode="&#x16c;" horiz-adv-x="737" 
d="M342 -10q-90 0 -155 35t-93.5 105.5t-11.5 176.5l63 398h128l-64 -407q-15 -97 20.5 -147.5t121.5 -50.5q82 0 129 42.5t62 134.5l68 428h127l-67 -426q-22 -142 -100 -215.5t-228 -73.5zM454 760q-76 0 -123 47t-46 123l71 9q-1 -49 26.5 -76.5t76.5 -27.5q48 0 80 27.5
t40 76.5l71 -9q-12 -78 -65.5 -124t-130.5 -46z" />
    <glyph glyph-name="ubreve" unicode="&#x16d;" horiz-adv-x="579" 
d="M200 -10q-79 0 -120.5 50t-24.5 157l46 292h125l-46 -291q-18 -109 70 -109q56 0 91 37t45 101l41 262h125l-77 -489h-122l12 77q-27 -42 -69.5 -64.5t-95.5 -22.5zM343 552q-72 0 -114 52.5t-37 140.5l71 7q-2 -60 20.5 -92t64.5 -32t69.5 32t35.5 92l71 -7
q-10 -89 -58.5 -141t-122.5 -52z" />
    <glyph glyph-name="Uring" unicode="&#x16e;" horiz-adv-x="737" 
d="M342 -10q-90 0 -155 35t-93.5 105.5t-11.5 176.5l63 398h128l-64 -407q-15 -97 20.5 -147.5t121.5 -50.5q82 0 129 42.5t62 134.5l68 428h127l-67 -426q-22 -142 -100 -215.5t-228 -73.5zM464 755q-35 0 -64 16.5t-45.5 44.5t-16.5 62q0 52 36.5 87t89.5 35t89.5 -35
t36.5 -87q0 -34 -16.5 -62t-45 -44.5t-64.5 -16.5zM464 812q29 0 47 19t18 47t-18 46.5t-47 18.5q-28 0 -46.5 -18.5t-18.5 -46.5t18.5 -47t46.5 -19z" />
    <glyph glyph-name="uring" unicode="&#x16f;" horiz-adv-x="579" 
d="M200 -10q-79 0 -120.5 50t-24.5 157l46 292h125l-46 -291q-18 -109 70 -109q56 0 91 37t45 101l41 262h125l-77 -489h-122l12 77q-27 -42 -69.5 -64.5t-95.5 -22.5zM354 547q-53 0 -89.5 35t-36.5 87q0 35 16.5 62.5t45.5 44t64 16.5q36 0 64.5 -16.5t45 -44t16.5 -62.5
q0 -52 -36.5 -87t-89.5 -35zM354 604q28 0 46.5 18.5t18.5 46.5q0 29 -18.5 47t-46.5 18t-46.5 -18t-18.5 -47q0 -28 18.5 -46.5t46.5 -18.5z" />
    <glyph glyph-name="Uhungarumlaut" unicode="&#x170;" horiz-adv-x="737" 
d="M342 -10q-90 0 -155 35t-93.5 105.5t-11.5 176.5l63 398h128l-64 -407q-15 -97 20.5 -147.5t121.5 -50.5q82 0 129 42.5t62 134.5l68 428h127l-67 -426q-22 -142 -100 -215.5t-228 -73.5zM343 765l100 174h112l-142 -174h-70zM489 765l110 174h112l-151 -174h-71z" />
    <glyph glyph-name="uhungarumlaut" unicode="&#x171;" horiz-adv-x="579" 
d="M200 -10q-79 0 -120.5 50t-24.5 157l46 292h125l-46 -291q-18 -109 70 -109q56 0 91 37t45 101l41 262h125l-77 -489h-122l12 77q-27 -42 -69.5 -64.5t-95.5 -22.5zM375 555l67 203h105l-106 -203h-66zM226 555l68 203h105l-107 -203h-66z" />
    <glyph glyph-name="Uogonek" unicode="&#x172;" horiz-adv-x="737" 
d="M342 -10q-90 0 -155 35t-93.5 105.5t-11.5 176.5l63 398h128l-64 -407q-15 -97 20.5 -147.5t121.5 -50.5q82 0 129 42.5t62 134.5l68 428h127l-67 -426q-22 -142 -100 -215.5t-228 -73.5zM361 -195q-51 0 -78.5 25.5t-27.5 68.5q0 48 32 86t81 57l33 -42q-35 -14 -51 -36
t-16 -45q0 -21 14 -34t37 -13q14 0 26.5 3t27.5 8l11 -62q-23 -7 -44 -11.5t-45 -4.5z" />
    <glyph glyph-name="uogonek" unicode="&#x173;" horiz-adv-x="579" 
d="M200 -10q-79 0 -120.5 50t-24.5 157l46 292h125l-46 -291q-18 -109 70 -109q56 0 91 37t45 101l41 262h125l-77 -489h-122l12 77q-27 -42 -69.5 -64.5t-95.5 -22.5zM399 -195q-51 0 -78.5 25.5t-27.5 68.5q0 48 32 86t81 57l33 -42q-35 -14 -51 -36t-16 -45q0 -21 14 -34
t37 -13q14 0 26.5 3t27.5 8l11 -62q-23 -7 -44 -11.5t-45 -4.5z" />
    <glyph glyph-name="Wcircumflex" unicode="&#x174;" horiz-adv-x="1113" 
d="M232 0l-138 705h125l94 -520l265 520h96l95 -525l264 525h132l-362 -705h-106l-98 508l-261 -508h-106zM453 765l141 174h107l108 -174h-88l-79 104l-102 -104h-87z" />
    <glyph glyph-name="wcircumflex" unicode="&#x175;" horiz-adv-x="853" 
d="M161 0l-115 489h120l70 -341l180 341h88l71 -348l182 348h128l-270 -489h-109l-69 315l-168 -315h-108zM297 554l131 203h109l90 -203h-79l-71 132l-100 -132h-80z" />
    <glyph glyph-name="Ycircumflex" unicode="&#x176;" horiz-adv-x="618" 
d="M206 0l52 323l-211 382h140l145 -268l231 268h153l-330 -380l-52 -325h-128zM197 765l141 174h107l108 -174h-88l-79 104l-102 -104h-87z" />
    <glyph glyph-name="ycircumflex" unicode="&#x177;" horiz-adv-x="526" 
d="M42 -180l122 200l-129 469h126l83 -342l195 342h131l-400 -669h-128zM130 554l131 203h109l90 -203h-79l-71 132l-100 -132h-80z" />
    <glyph glyph-name="Ydieresis" unicode="&#x178;" horiz-adv-x="618" 
d="M206 0l52 323l-211 382h140l145 -268l231 268h153l-330 -380l-52 -325h-128zM421 790l19 115h114l-18 -115h-115zM233 790l18 115h115l-19 -115h-114z" />
    <glyph glyph-name="Zacute" unicode="&#x179;" horiz-adv-x="605" 
d="M8 0l15 95l444 503h-364l17 107h522l-15 -94l-444 -504h380l-17 -107h-538zM341 765l130 174h133l-174 -174h-89z" />
    <glyph glyph-name="zacute" unicode="&#x17a;" horiz-adv-x="474" 
d="M11 0l13 81l293 314h-244l15 94h388l-13 -80l-295 -315h256l-15 -94h-398zM247 554l133 203h125l-174 -203h-84z" />
    <glyph glyph-name="Zdotaccent" unicode="&#x17b;" horiz-adv-x="605" 
d="M8 0l15 95l444 503h-364l17 107h522l-15 -94l-444 -504h380l-17 -107h-538zM329 794l18 116h121l-18 -116h-121z" />
    <glyph glyph-name="zdotaccent" unicode="&#x17c;" horiz-adv-x="474" 
d="M11 0l13 81l293 314h-244l15 94h388l-13 -80l-295 -315h256l-15 -94h-398zM235 597l18 116h122l-18 -116h-122z" />
    <glyph glyph-name="Zcaron" unicode="&#x17d;" horiz-adv-x="605" 
d="M8 0l15 95l444 503h-364l17 107h522l-15 -94l-444 -504h380l-17 -107h-538zM332 765l-108 174h84l81 -104l100 104h91l-141 -174h-107z" />
    <glyph glyph-name="zcaron" unicode="&#x17e;" horiz-adv-x="474" 
d="M11 0l13 81l293 314h-244l15 94h388l-13 -80l-295 -315h256l-15 -94h-398zM235 554l-90 203h79l70 -132l101 132h80l-131 -203h-109z" />
    <glyph glyph-name="uni0181" unicode="&#x181;" horiz-adv-x="838" 
d="M188 0l98 614h-27q-49 0 -75.5 -23.5t-35.5 -77.5l-7 -44h-105l9 59q14 91 66.5 134t158.5 43h320q117 0 169.5 -46.5t52.5 -120.5q0 -68 -38.5 -114.5t-102.5 -64.5q51 -18 79 -57t28 -92q0 -103 -68 -156.5t-188 -53.5h-334zM375 406h172q67 0 104 30t37 87
q0 41 -28.5 63t-89.5 22h-163zM326 97h190q69 0 103.5 31t34.5 89q0 46 -30.5 69t-88.5 23h-175z" />
    <glyph glyph-name="uni018A" unicode="&#x18a;" horiz-adv-x="912" 
d="M188 0l98 614h-27q-49 0 -75.5 -23.5t-35.5 -77.5l-7 -44h-105l9 59q14 91 66.5 134t158.5 43h256q168 0 259 -79t92 -222q0 -113 -44.5 -205t-134 -145.5t-225.5 -53.5h-285zM333 106h142q94 0 153 39t87 106t28 151q0 96 -54.5 146.5t-162.5 50.5h-115z" />
    <glyph glyph-name="uni018F" unicode="&#x18f;" horiz-adv-x="785" 
d="M376 -10q-83 0 -145.5 29.5t-102 81.5t-53.5 121t-1 148l6 36h535q-1 93 -57 146t-157 53q-138 0 -238 -72l-41 100q56 40 131.5 61t166.5 21q98 0 172 -39t115.5 -110t41.5 -166q0 -83 -23 -157t-69.5 -131t-116.5 -89.5t-164 -32.5zM382 96q94 0 149 58t74 148h-408
q-3 -94 42.5 -150t142.5 -56z" />
    <glyph glyph-name="florin" unicode="&#x192;" 
d="M-38 -190l16 99h64q36 0 59 20.5t42 70.5l146 395h-108l15 94h129l15 42q32 94 87 139t154 45h60l-16 -100h-53q-43 0 -68 -20t-43 -71l-13 -35h115l-15 -94h-135l-151 -407q-25 -69 -57 -108t-75.5 -54.5t-106.5 -15.5h-61z" />
    <glyph glyph-name="Ohorn" unicode="&#x1a0;" horiz-adv-x="785" 
d="M381 -10q-94 0 -164 36t-108.5 105.5t-38.5 167.5q0 121 44.5 214.5t127.5 147.5t197 54q95 0 164.5 -36t108 -105t38.5 -167q0 -121 -44.5 -215t-127 -148t-197.5 -54zM383 100q75 0 127 39.5t79 108.5t27 157q0 101 -48 150.5t-132 49.5q-74 0 -126 -39t-79 -107.5
t-27 -157.5q0 -102 48 -151.5t131 -49.5zM536 641l-36 68q22 -1 38 -2.5t32 -1.5q53 0 77.5 22.5t34.5 83.5l4 21h109l-6 -37q-10 -66 -52 -110t-109 -44h-92z" />
    <glyph glyph-name="ohorn" unicode="&#x1a1;" horiz-adv-x="576" 
d="M267 -10q-108 0 -169 60t-61 161q0 88 36.5 152.5t98.5 100t137 35.5q108 0 169 -60t61 -161q0 -88 -36.5 -152.5t-98 -100t-137.5 -35.5zM270 85q46 0 77.5 26t48.5 71t17 100q0 59 -28.5 90.5t-78.5 31.5q-45 0 -77 -26t-49 -70.5t-17 -100.5q0 -59 28.5 -90.5
t78.5 -31.5zM443 425l-68 45l3 19q53 1 77.5 23.5t34.5 82.5l3 21h110l-7 -40q-10 -64 -49.5 -104.5t-103.5 -46.5z" />
    <glyph glyph-name="Uhorn" unicode="&#x1af;" horiz-adv-x="737" 
d="M342 -10q-90 0 -155 35t-93.5 105.5t-11.5 176.5l63 398h128l-64 -407q-15 -97 20.5 -147.5t121.5 -50.5q82 0 129 42.5t62 134.5l68 428h127l-67 -426q-22 -142 -100 -215.5t-228 -73.5zM704 641l-67 45l3 19q53 1 77.5 22t34.5 82l3 23h110l-6 -39q-10 -64 -50.5 -105
t-104.5 -47z" />
    <glyph glyph-name="uhorn" unicode="&#x1b0;" horiz-adv-x="579" 
d="M200 -10q-79 0 -120.5 50t-24.5 157l46 292h125l-46 -291q-18 -109 70 -109q56 0 91 37t45 101l41 262h125l-77 -489h-122l12 77q-27 -42 -69.5 -64.5t-95.5 -22.5zM522 425l-68 45l3 19q53 1 77.5 23.5t34.5 82.5l3 21h110l-7 -40q-10 -64 -49.5 -104.5t-103.5 -46.5z
" />
    <glyph glyph-name="uni01B3" unicode="&#x1b3;" horiz-adv-x="619" 
d="M206 0l52 323l-211 382h140l145 -268l164 188q44 51 84.5 70.5t98.5 19.5q20 0 41 -3t34 -9l-15 -89q-18 7 -48 7q-47 0 -91 -50l-214 -246l-52 -325h-128z" />
    <glyph glyph-name="uni01B4" unicode="&#x1b4;" horiz-adv-x="571" 
d="M376 379q38 66 79.5 93t111.5 27q49 0 73 -11l-31 -93q-9 4 -18.5 5t-18.5 1q-28 0 -50.5 -15.5t-47.5 -55.5l-304 -510h-128l122 200l-129 469h126l83 -342z" />
    <glyph glyph-name="uni01C4" unicode="&#x1c4;" horiz-adv-x="1352" 
d="M38 0l112 705h226q168 0 259 -79t92 -222q0 -113 -44.5 -205t-134 -145.5t-225.5 -53.5h-285zM183 106h142q94 0 153 39t87 106t28 151q0 96 -54.5 146.5t-162.5 50.5h-115zM755 0l15 95l444 503h-364l17 107h522l-15 -94l-444 -504h380l-17 -107h-538zM1079 765
l-108 174h84l81 -104l100 104h91l-141 -174h-107z" />
    <glyph glyph-name="uni01C5" unicode="&#x1c5;" horiz-adv-x="1236" 
d="M38 0l112 705h226q168 0 259 -79t92 -222q0 -113 -44.5 -205t-134 -145.5t-225.5 -53.5h-285zM183 106h142q94 0 153 39t87 106t28 151q0 96 -54.5 146.5t-162.5 50.5h-115zM773 0l13 81l293 314h-244l15 94h388l-13 -80l-295 -315h256l-15 -94h-398zM997 554l-90 203h79
l70 -132l101 132h80l-131 -203h-109z" />
    <glyph glyph-name="uni01C6" unicode="&#x1c6;" horiz-adv-x="1074" 
d="M220 -10q-83 0 -133.5 57t-50.5 154q0 84 29.5 151.5t84.5 107t131 39.5q53 0 94 -23.5t61 -70.5l47 300h125l-112 -705h-122l13 79q-28 -42 -70.5 -65.5t-96.5 -23.5zM269 85q46 0 77.5 26t48.5 71t17 100q0 59 -28.5 90.5t-78.5 31.5q-45 0 -77 -26t-49 -70.5
t-17 -100.5q0 -59 28.5 -90.5t78.5 -31.5zM611 0l13 81l293 314h-244l15 94h388l-13 -80l-295 -315h256l-15 -94h-398zM835 554l-90 203h79l70 -132l101 132h80l-131 -203h-109z" />
    <glyph glyph-name="uni01C7" unicode="&#x1c7;" horiz-adv-x="956" 
d="M38 0l112 705h128l-94 -596h337l-17 -109h-466zM564 -9l2 105l72 4q47 3 73 29t34 78l79 498h128l-81 -509q-15 -94 -65.5 -144t-159.5 -57z" />
    <glyph glyph-name="uni01C8" unicode="&#x1c8;" horiz-adv-x="821" 
d="M38 0l112 705h128l-94 -596h337l-17 -109h-466zM678 594l20 122h139l-20 -122h-139zM461 -193l-8 91l47 5q41 3 62.5 25.5t28.5 64.5l79 496h125l-77 -482q-15 -99 -63 -144.5t-149 -52.5z" />
    <glyph glyph-name="uni01C9" unicode="&#x1c9;" horiz-adv-x="578" 
d="M199 -10q-85 0 -122 47.5t-23 138.5l84 529h125l-84 -528q-7 -44 8.5 -64.5t53.5 -20.5q11 0 22 1.5t22 2.5l-17 -97q-30 -9 -69 -9zM435 594l20 122h139l-20 -122h-139zM218 -193l-8 91l47 5q41 3 62.5 25.5t28.5 64.5l79 496h125l-77 -482q-15 -99 -63 -144.5
t-149 -52.5z" />
    <glyph glyph-name="uni01CA" unicode="&#x1ca;" horiz-adv-x="1101" 
d="M38 0l112 705h96l298 -506l80 506h119l-112 -705h-95l-299 506l-80 -506h-119zM709 -9l2 105l72 4q47 3 73 29t34 78l79 498h128l-81 -509q-15 -94 -65.5 -144t-159.5 -57z" />
    <glyph glyph-name="uni01CB" unicode="&#x1cb;" horiz-adv-x="1006" 
d="M38 0l112 705h96l298 -506l80 506h119l-112 -705h-95l-299 506l-80 -506h-119zM863 594l20 122h139l-20 -122h-139zM646 -193l-8 91l47 5q41 3 62.5 25.5t28.5 64.5l79 496h125l-77 -482q-15 -99 -63 -144.5t-149 -52.5z" />
    <glyph glyph-name="uni01CC" unicode="&#x1cc;" horiz-adv-x="844" 
d="M26 0l78 489h122l-13 -78q55 88 170 88q80 0 122 -49.5t25 -156.5l-46 -293h-125l46 291q18 110 -72 110q-59 0 -94.5 -37t-45.5 -101l-42 -263h-125zM701 594l20 122h139l-20 -122h-139zM484 -193l-8 91l47 5q41 3 62.5 25.5t28.5 64.5l79 496h125l-77 -482
q-15 -99 -63 -144.5t-149 -52.5z" />
    <glyph glyph-name="uni01CD" unicode="&#x1cd;" horiz-adv-x="744" 
d="M-38 0l432 705h105l206 -705h-123l-43 163h-345l-96 -163h-136zM430 566l-177 -301h258l-79 301h-2zM402 765l-108 174h84l81 -104l100 104h91l-141 -174h-107z" />
    <glyph glyph-name="uni01CE" unicode="&#x1ce;" horiz-adv-x="547" 
d="M193 -10q-45 0 -82 20.5t-59.5 54.5t-22.5 76q0 77 66.5 113t208.5 36h69l3 18q8 47 -14.5 72t-78.5 25q-89 0 -168 -50l-28 86q38 26 96 42t116 16q79 0 124 -29t61 -79t6 -114l-44 -277h-117l11 72q-25 -42 -64 -62t-83 -20zM232 76q47 0 82 30.5t43 82.5l5 29h-52
q-88 0 -123.5 -14.5t-35.5 -54.5q0 -35 23.5 -54t57.5 -19zM267 554l-90 203h79l70 -132l101 132h80l-131 -203h-109z" />
    <glyph glyph-name="uni01D4" unicode="&#x1d4;" horiz-adv-x="579" 
d="M200 -10q-79 0 -120.5 50t-24.5 157l46 292h125l-46 -291q-18 -109 70 -109q56 0 91 37t45 101l41 262h125l-77 -489h-122l12 77q-27 -42 -69.5 -64.5t-95.5 -22.5zM281 555l-90 203h79l70 -132l101 132h80l-131 -203h-109z" />
    <glyph glyph-name="uni01E5" unicode="&#x1e5;" horiz-adv-x="604" 
d="M239 -190q-70 0 -128.5 15t-102.5 47l46 86q40 -29 85 -41t94 -12q73 0 111 38h-101l12 78h126q0 2 1 5l17 105q-26 -41 -71.5 -64.5t-98.5 -23.5q-59 0 -101.5 25.5t-65 69t-22.5 98.5q0 75 33 134.5t90 94t128 34.5q54 0 95 -23t57 -67l13 80h122l-72 -452
q-1 -5 -3 -16h59l-12 -78h-72q-64 -133 -239 -133zM275 138q43 0 76 21t52.5 57.5t19.5 82.5q0 49 -28.5 77t-80.5 28q-42 0 -75.5 -21t-53 -57.5t-19.5 -82.5q0 -48 28.5 -76.5t80.5 -28.5z" />
    <glyph glyph-name="Gcaron" unicode="&#x1e6;" horiz-adv-x="736" 
d="M398 -10q-98 0 -172 36t-115 106t-41 171q0 120 46 213t133.5 146t210.5 53q79 0 141 -22.5t98 -58.5l-52 -101q-82 70 -194 70q-79 0 -134.5 -38.5t-85 -105t-29.5 -151.5q0 -106 55 -157t157 -51q33 0 63.5 5t60.5 14l27 167h-162l14 95h269l-54 -345
q-48 -22 -111.5 -34t-124.5 -12zM404 765l-108 174h84l81 -104l100 104h91l-141 -174h-107z" />
    <glyph glyph-name="gcaron" unicode="&#x1e7;" horiz-adv-x="604" 
d="M256 -190q-72 0 -131 18t-106 50l38 87q44 -28 87 -44t94 -16q60 0 97 27t47 87l11 72q-26 -38 -68 -58.5t-92 -20.5q-88 0 -142 53.5t-54 147.5q0 77 30.5 142t86.5 104.5t132 39.5q53 0 94.5 -23t61.5 -69l13 82h122l-73 -463q-16 -105 -78 -160.5t-170 -55.5zM271 107
q47 0 79.5 25.5t50 68t17.5 91.5q1 52 -28 82t-82 30q-46 0 -78.5 -25.5t-49 -67.5t-17.5 -91q-1 -53 27.5 -83t80.5 -30zM292 554l-90 203h79l70 -132l101 132h80l-131 -203h-109z" />
    <glyph glyph-name="uni01E9" unicode="&#x1e9;" horiz-adv-x="536" 
d="M27 0l111 705h125l-67 -424h2l227 208h149l-255 -240l197 -249h-145l-182 223h-2l-35 -223h-125zM321 765l-108 174h84l81 -104l100 104h91l-141 -174h-107z" />
    <glyph glyph-name="uni01EA" unicode="&#x1ea;" horiz-adv-x="785" 
d="M381 -10q-94 0 -164 36t-108.5 105.5t-38.5 167.5q0 121 44.5 214.5t127.5 147.5t197 54q95 0 164.5 -36t108 -105t38.5 -167q0 -121 -44.5 -215t-127 -148t-197.5 -54zM383 100q75 0 127 39.5t79 108.5t27 157q0 101 -48 150.5t-132 49.5q-74 0 -126 -39t-79 -107.5
t-27 -157.5q0 -102 48 -151.5t131 -49.5zM388 -195q-51 0 -78.5 25.5t-27.5 68.5q0 48 32 86t81 57l33 -42q-35 -14 -51 -36t-16 -45q0 -21 14 -34t37 -13q14 0 26.5 3t27.5 8l11 -62q-23 -7 -44 -11.5t-45 -4.5z" />
    <glyph glyph-name="uni01EB" unicode="&#x1eb;" horiz-adv-x="576" 
d="M267 -10q-108 0 -169 60t-61 161q0 88 36.5 152.5t98.5 100t137 35.5q108 0 169 -60t61 -161q0 -88 -36.5 -152.5t-98 -100t-137.5 -35.5zM270 85q46 0 77.5 26t48.5 71t17 100q0 59 -28.5 90.5t-78.5 31.5q-45 0 -77 -26t-49 -70.5t-17 -100.5q0 -59 28.5 -90.5
t78.5 -31.5zM280 -195q-51 0 -78.5 25.5t-27.5 68.5q0 48 32 86t81 57l33 -42q-35 -14 -51 -36t-16 -45q0 -21 14 -34t37 -13q14 0 26.5 3t27.5 8l11 -62q-23 -7 -44 -11.5t-45 -4.5z" />
    <glyph glyph-name="uni01EF" unicode="&#x1ef;" horiz-adv-x="516" 
d="M193 -190q-69 0 -131.5 17.5t-110.5 53.5l47 82q38 -31 82.5 -44.5t100.5 -13.5q70 0 108 34.5t38 96.5q0 44 -31.5 71t-95.5 27h-97l10 59l220 198h-282l15 98h425l-14 -84l-210 -186q59 -2 100 -26.5t62.5 -63.5t21.5 -86q0 -66 -30 -118.5t-87.5 -83.5t-140.5 -31z
M245 554l-90 203h79l70 -132l101 132h80l-131 -203h-109z" />
    <glyph glyph-name="Aringacute" unicode="&#x1fa;" horiz-adv-x="744" 
d="M-38 0l432 705h105l206 -705h-123l-43 163h-345l-96 -163h-136zM430 566l-177 -301h258l-79 301h-2zM456 755q-51 0 -86 34.5t-35 83.5q0 50 35 83.5t86 33.5q35 0 63 -17l65 60h100l-122 -105q15 -24 15 -55q0 -49 -35 -83.5t-86 -34.5zM456 807q28 0 46.5 19t18.5 47
t-18.5 46.5t-46.5 18.5t-46.5 -18.5t-18.5 -46.5t18.5 -47t46.5 -19z" />
    <glyph glyph-name="aringacute" unicode="&#x1fb;" horiz-adv-x="547" 
d="M193 -10q-45 0 -82 20.5t-59.5 54.5t-22.5 76q0 77 66.5 113t208.5 36h69l3 18q8 47 -14.5 72t-78.5 25q-89 0 -168 -50l-28 86q38 26 96 42t116 16q79 0 124 -29t61 -79t6 -114l-44 -277h-117l11 72q-25 -42 -64 -62t-83 -20zM232 76q47 0 82 30.5t43 82.5l5 29h-52
q-88 0 -123.5 -14.5t-35.5 -54.5q0 -35 23.5 -54t57.5 -19zM336 541q-51 0 -86 34t-35 83q0 50 35 84t86 34q18 0 34 -5t30 -13l65 60h100l-122 -104q14 -26 14 -56q0 -49 -35 -83t-86 -34zM336 593q29 0 47 18.5t18 46.5q0 29 -18 47t-47 18q-28 0 -46.5 -18t-18.5 -47
q0 -28 18.5 -46.5t46.5 -18.5z" />
    <glyph glyph-name="AEacute" unicode="&#x1fc;" horiz-adv-x="993" 
d="M-75 0l550 705h539l-16 -102h-399l12 -194h335l-16 -102h-314l12 -205h291l-16 -102h-381l-9 163h-325l-122 -163h-141zM488 562l-224 -297h243l-17 297h-2zM514 765l130 174h133l-174 -174h-89z" />
    <glyph glyph-name="aeacute" unicode="&#x1fd;" horiz-adv-x="865" 
d="M215 -10q-48 0 -90.5 17t-69 51t-26.5 83q0 77 66.5 113t208.5 36h69l2 13q8 50 -14 75t-78 25q-91 0 -167 -50l-29 88q38 26 95.5 42t116.5 16q116 0 156 -76q33 36 78 56t99 20q79 0 126 -35t65.5 -92.5t8.5 -125.5l-4 -28h-348q-3 -62 32.5 -97.5t102.5 -35.5
q92 0 154 50l31 -82q-35 -30 -87.5 -46.5t-109.5 -16.5q-73 0 -124.5 28t-76.5 78q-27 -54 -77.5 -80t-109.5 -26zM630 414q-61 0 -94.5 -37.5t-44.5 -86.5h243q3 52 -21.5 88t-82.5 36zM232 78q47 0 81 27.5t43 79.5l5 33h-50q-88 0 -124 -15.5t-36 -54.5q0 -33 23.5 -51.5
t57.5 -18.5zM407 554l133 203h125l-174 -203h-84z" />
    <glyph glyph-name="Oslashacute" unicode="&#x1fe;" horiz-adv-x="785" 
d="M381 -10q-94 0 -164 36t-108.5 105.5t-38.5 167.5q0 121 44.5 214.5t127.5 147.5t197 54q95 0 164.5 -36t108 -105t38.5 -167q0 -121 -44.5 -215t-127 -148t-197.5 -54zM383 100q75 0 127 39.5t79 108.5t27 157q0 101 -48 150.5t-132 49.5q-74 0 -126 -39t-79 -107.5
t-27 -157.5q0 -102 48 -151.5t131 -49.5zM163 -53l-72 51l82 109l39 53l324 437l40 54l81 108l72 -51l-82 -109l-39 -54l-324 -436l-40 -54zM419 765l130 174h133l-174 -174h-89z" />
    <glyph glyph-name="oslashacute" unicode="&#x1ff;" horiz-adv-x="576" 
d="M115 -50l-56 40l42 57q-64 60 -64 165q0 88 36.5 152.5t98 99.5t137.5 35q62 0 110 -21l44 59l56 -39l-42 -58q62 -59 62 -162q0 -88 -36.5 -152.5t-98 -100t-137.5 -35.5q-61 0 -108 20zM151 206q0 -43 15 -72l196 266q-25 11 -59 11q-71 0 -111.5 -57.5t-40.5 -147.5z
M272 78q48 0 82 26.5t52 73t18 106.5q0 40 -13 68l-195 -264q24 -10 56 -10zM297 554l133 203h125l-174 -203h-84z" />
    <glyph glyph-name="uni0200" unicode="&#x200;" horiz-adv-x="744" 
d="M-38 0l432 705h105l206 -705h-123l-43 163h-345l-96 -163h-136zM430 566l-177 -301h258l-79 301h-2zM493 765l-111 174h111l71 -174h-71zM347 765l-121 174h111l80 -174h-70z" />
    <glyph glyph-name="uni0201" unicode="&#x201;" horiz-adv-x="547" 
d="M193 -10q-45 0 -82 20.5t-59.5 54.5t-22.5 76q0 77 66.5 113t208.5 36h69l3 18q8 47 -14.5 72t-78.5 25q-89 0 -168 -50l-28 86q38 26 96 42t116 16q79 0 124 -29t61 -79t6 -114l-44 -277h-117l11 72q-25 -42 -64 -62t-83 -20zM232 76q47 0 82 30.5t43 82.5l5 29h-52
q-88 0 -123.5 -14.5t-35.5 -54.5q0 -35 23.5 -54t57.5 -19zM364 554l-70 203h104l32 -203h-66zM216 554l-71 203h105l32 -203h-66z" />
    <glyph glyph-name="uni0202" unicode="&#x202;" horiz-adv-x="744" 
d="M-38 0l432 705h105l206 -705h-123l-43 163h-345l-96 -163h-136zM430 566l-177 -301h258l-79 301h-2zM340 760l-70 9q12 79 65 124.5t131 45.5q77 0 123 -46.5t46 -123.5l-72 -9q1 50 -26.5 77.5t-75.5 27.5t-80 -27.5t-41 -77.5z" />
    <glyph glyph-name="uni0203" unicode="&#x203;" horiz-adv-x="547" 
d="M193 -10q-45 0 -82 20.5t-59.5 54.5t-22.5 76q0 77 66.5 113t208.5 36h69l3 18q8 47 -14.5 72t-78.5 25q-89 0 -168 -50l-28 86q38 26 96 42t116 16q79 0 124 -29t61 -79t6 -114l-44 -277h-117l11 72q-25 -42 -64 -62t-83 -20zM232 76q47 0 82 30.5t43 82.5l5 29h-52
q-88 0 -123.5 -14.5t-35.5 -54.5q0 -35 23.5 -54t57.5 -19zM221 551l-71 6q11 89 59.5 141.5t121.5 52.5q72 0 114 -52.5t37 -141.5l-71 -6q2 59 -20.5 91.5t-64.5 32.5t-69.5 -32.5t-35.5 -91.5z" />
    <glyph glyph-name="uni0204" unicode="&#x204;" horiz-adv-x="597" 
d="M39 0l111 705h469l-16 -102h-346l-31 -194h325l-16 -102h-325l-33 -205h346l-16 -102h-468zM449 765l-111 174h111l71 -174h-71zM303 765l-121 174h111l80 -174h-70z" />
    <glyph glyph-name="uni0205" unicode="&#x205;" horiz-adv-x="543" 
d="M280 -10q-74 0 -128.5 27.5t-84.5 77.5t-30 117q0 82 34.5 146.5t95.5 102.5t140 38q80 0 127 -35.5t64.5 -94t9.5 -127.5l-3 -26h-351q-2 -61 34 -96t103 -35q44 0 83.5 12.5t70.5 37.5l31 -82q-35 -30 -87.5 -46.5t-108.5 -16.5zM306 414q-42 0 -71 -17.5t-46 -46.5
t-25 -62h248q4 54 -21 90t-85 36zM374 554l-70 203h104l32 -203h-66zM226 554l-71 203h105l32 -203h-66z" />
    <glyph glyph-name="uni0206" unicode="&#x206;" horiz-adv-x="597" 
d="M39 0l111 705h469l-16 -102h-346l-31 -194h325l-16 -102h-325l-33 -205h346l-16 -102h-468zM296 760l-70 9q12 79 65 124.5t131 45.5q77 0 123 -46.5t46 -123.5l-72 -9q1 50 -26.5 77.5t-75.5 27.5t-80 -27.5t-41 -77.5z" />
    <glyph glyph-name="uni0207" unicode="&#x207;" horiz-adv-x="543" 
d="M280 -10q-74 0 -128.5 27.5t-84.5 77.5t-30 117q0 82 34.5 146.5t95.5 102.5t140 38q80 0 127 -35.5t64.5 -94t9.5 -127.5l-3 -26h-351q-2 -61 34 -96t103 -35q44 0 83.5 12.5t70.5 37.5l31 -82q-35 -30 -87.5 -46.5t-108.5 -16.5zM306 414q-42 0 -71 -17.5t-46 -46.5
t-25 -62h248q4 54 -21 90t-85 36zM231 551l-71 6q11 89 59.5 141.5t121.5 52.5q72 0 114 -52.5t37 -141.5l-71 -6q2 59 -20.5 91.5t-64.5 32.5t-69.5 -32.5t-35.5 -91.5z" />
    <glyph glyph-name="uni0208" unicode="&#x208;" horiz-adv-x="282" 
d="M38 0l112 705h128l-112 -705h-128zM262 765l-111 174h111l71 -174h-71zM116 765l-121 174h111l80 -174h-70z" />
    <glyph glyph-name="uni0209" unicode="&#x209;" horiz-adv-x="255" 
d="M26 0l78 489h125l-78 -489h-125zM220 554l-70 203h104l32 -203h-66zM72 554l-71 203h105l32 -203h-66z" />
    <glyph glyph-name="uni020A" unicode="&#x20a;" horiz-adv-x="282" 
d="M38 0l112 705h128l-112 -705h-128zM109 760l-70 9q12 79 65 124.5t131 45.5q77 0 123 -46.5t46 -123.5l-72 -9q1 50 -26.5 77.5t-75.5 27.5t-80 -27.5t-41 -77.5z" />
    <glyph glyph-name="uni020B" unicode="&#x20b;" horiz-adv-x="255" 
d="M26 0l78 489h125l-78 -489h-125zM77 551l-71 6q11 89 59.5 141.5t121.5 52.5q72 0 114 -52.5t37 -141.5l-71 -6q2 59 -20.5 91.5t-64.5 32.5t-69.5 -32.5t-35.5 -91.5z" />
    <glyph glyph-name="uni020C" unicode="&#x20c;" horiz-adv-x="785" 
d="M381 -10q-94 0 -164 36t-108.5 105.5t-38.5 167.5q0 121 44.5 214.5t127.5 147.5t197 54q95 0 164.5 -36t108 -105t38.5 -167q0 -121 -44.5 -215t-127 -148t-197.5 -54zM383 100q75 0 127 39.5t79 108.5t27 157q0 101 -48 150.5t-132 49.5q-74 0 -126 -39t-79 -107.5
t-27 -157.5q0 -102 48 -151.5t131 -49.5zM501 765l-111 174h111l71 -174h-71zM355 765l-121 174h111l80 -174h-70z" />
    <glyph glyph-name="uni020D" unicode="&#x20d;" horiz-adv-x="576" 
d="M267 -10q-108 0 -169 60t-61 161q0 88 36.5 152.5t98.5 100t137 35.5q108 0 169 -60t61 -161q0 -88 -36.5 -152.5t-98 -100t-137.5 -35.5zM270 85q46 0 77.5 26t48.5 71t17 100q0 59 -28.5 90.5t-78.5 31.5q-45 0 -77 -26t-49 -70.5t-17 -100.5q0 -59 28.5 -90.5
t78.5 -31.5zM382 554l-70 203h104l32 -203h-66zM234 554l-71 203h105l32 -203h-66z" />
    <glyph glyph-name="uni020E" unicode="&#x20e;" horiz-adv-x="785" 
d="M381 -10q-94 0 -164 36t-108.5 105.5t-38.5 167.5q0 121 44.5 214.5t127.5 147.5t197 54q95 0 164.5 -36t108 -105t38.5 -167q0 -121 -44.5 -215t-127 -148t-197.5 -54zM383 100q75 0 127 39.5t79 108.5t27 157q0 101 -48 150.5t-132 49.5q-74 0 -126 -39t-79 -107.5
t-27 -157.5q0 -102 48 -151.5t131 -49.5zM348 760l-70 9q12 79 65 124.5t131 45.5q77 0 123 -46.5t46 -123.5l-72 -9q1 50 -26.5 77.5t-75.5 27.5t-80 -27.5t-41 -77.5z" />
    <glyph glyph-name="uni020F" unicode="&#x20f;" horiz-adv-x="576" 
d="M267 -10q-108 0 -169 60t-61 161q0 88 36.5 152.5t98.5 100t137 35.5q108 0 169 -60t61 -161q0 -88 -36.5 -152.5t-98 -100t-137.5 -35.5zM270 85q46 0 77.5 26t48.5 71t17 100q0 59 -28.5 90.5t-78.5 31.5q-45 0 -77 -26t-49 -70.5t-17 -100.5q0 -59 28.5 -90.5
t78.5 -31.5zM239 551l-71 6q11 89 59.5 141.5t121.5 52.5q72 0 114 -52.5t37 -141.5l-71 -6q2 59 -20.5 91.5t-64.5 32.5t-69.5 -32.5t-35.5 -91.5z" />
    <glyph glyph-name="uni0210" unicode="&#x210;" horiz-adv-x="686" 
d="M38 0l112 705h275q117 0 177.5 -52t60.5 -143q0 -96 -53 -150t-139 -69q26 -11 44.5 -34.5t31.5 -56.5l77 -200h-131l-82 216q-13 36 -35 51t-62 15h-103l-44 -282h-129zM226 377h170q68 0 105.5 31.5t37.5 91.5q0 52 -32 78t-101 26h-144zM456 765l-111 174h111l71 -174
h-71zM310 765l-121 174h111l80 -174h-70z" />
    <glyph glyph-name="uni0211" unicode="&#x211;" horiz-adv-x="392" 
d="M26 0l78 489h122l-13 -82q22 40 62 64t96 28l43 3l-3 -106l-81 -8q-67 -6 -97 -39t-40 -95l-40 -254h-127zM317 556l-70 203h104l32 -203h-66zM169 556l-71 203h105l32 -203h-66z" />
    <glyph glyph-name="uni0212" unicode="&#x212;" horiz-adv-x="686" 
d="M38 0l112 705h275q117 0 177.5 -52t60.5 -143q0 -96 -53 -150t-139 -69q26 -11 44.5 -34.5t31.5 -56.5l77 -200h-131l-82 216q-13 36 -35 51t-62 15h-103l-44 -282h-129zM226 377h170q68 0 105.5 31.5t37.5 91.5q0 52 -32 78t-101 26h-144zM303 760l-70 9q12 79 65 124.5
t131 45.5q77 0 123 -46.5t46 -123.5l-72 -9q1 50 -26.5 77.5t-75.5 27.5t-80 -27.5t-41 -77.5z" />
    <glyph glyph-name="uni0213" unicode="&#x213;" horiz-adv-x="392" 
d="M26 0l78 489h122l-13 -82q22 40 62 64t96 28l43 3l-3 -106l-81 -8q-67 -6 -97 -39t-40 -95l-40 -254h-127zM174 553l-71 6q11 89 59.5 141.5t121.5 52.5q72 0 114 -52.5t37 -141.5l-71 -6q2 59 -20.5 91.5t-64.5 32.5t-69.5 -32.5t-35.5 -91.5z" />
    <glyph glyph-name="uni0214" unicode="&#x214;" horiz-adv-x="737" 
d="M342 -10q-90 0 -155 35t-93.5 105.5t-11.5 176.5l63 398h128l-64 -407q-15 -97 20.5 -147.5t121.5 -50.5q82 0 129 42.5t62 134.5l68 428h127l-67 -426q-22 -142 -100 -215.5t-228 -73.5zM489 765l-111 174h111l71 -174h-71zM343 765l-121 174h111l80 -174h-70z" />
    <glyph glyph-name="uni0215" unicode="&#x215;" horiz-adv-x="579" 
d="M200 -10q-79 0 -120.5 50t-24.5 157l46 292h125l-46 -291q-18 -109 70 -109q56 0 91 37t45 101l41 262h125l-77 -489h-122l12 77q-27 -42 -69.5 -64.5t-95.5 -22.5zM378 555l-70 203h104l32 -203h-66zM230 555l-71 203h105l32 -203h-66z" />
    <glyph glyph-name="uni0216" unicode="&#x216;" horiz-adv-x="737" 
d="M342 -10q-90 0 -155 35t-93.5 105.5t-11.5 176.5l63 398h128l-64 -407q-15 -97 20.5 -147.5t121.5 -50.5q82 0 129 42.5t62 134.5l68 428h127l-67 -426q-22 -142 -100 -215.5t-228 -73.5zM336 760l-70 9q12 79 65 124.5t131 45.5q77 0 123 -46.5t46 -123.5l-72 -9
q1 50 -26.5 77.5t-75.5 27.5t-80 -27.5t-41 -77.5z" />
    <glyph glyph-name="uni0217" unicode="&#x217;" horiz-adv-x="579" 
d="M200 -10q-79 0 -120.5 50t-24.5 157l46 292h125l-46 -291q-18 -109 70 -109q56 0 91 37t45 101l41 262h125l-77 -489h-122l12 77q-27 -42 -69.5 -64.5t-95.5 -22.5zM235 552l-71 6q11 89 59.5 141.5t121.5 52.5q72 0 114 -52.5t37 -141.5l-71 -6q2 59 -20.5 91.5
t-64.5 32.5t-69.5 -32.5t-35.5 -91.5z" />
    <glyph glyph-name="uni0218" unicode="&#x218;" horiz-adv-x="631" 
d="M300 -10q-77 0 -149.5 20.5t-127.5 64.5l46 97q58 -41 119 -57.5t124 -16.5q70 0 110.5 27t40.5 71q0 33 -24 55.5t-82 35.5l-109 26q-73 17 -116 61.5t-43 118.5q0 70 38.5 119.5t102.5 76t139 26.5q66 0 133 -20t118 -64l-48 -94q-45 38 -99 54t-106 16q-67 0 -109 -28
t-42 -75q0 -38 22 -58t65 -31l109 -26q89 -20 133.5 -66.5t44.5 -111.5q0 -73 -40 -122.5t-106 -74t-144 -24.5zM265 -278l-38 36q21 16 30.5 32t14.5 35h-64l16 102h131l-12 -76q-7 -43 -23 -73.5t-55 -55.5z" />
    <glyph glyph-name="uni0219" unicode="&#x219;" horiz-adv-x="488" 
d="M226 -10q-62 0 -116.5 15.5t-91.5 43.5l39 81q36 -25 80.5 -38.5t88.5 -13.5q47 0 72 17.5t25 46.5q0 39 -54 51l-92 19q-55 11 -86 43.5t-31 81.5q0 45 25.5 81.5t75 58.5t119.5 22q48 0 96.5 -14.5t81.5 -42.5l-37 -80q-31 25 -69 37t-78 12q-49 0 -75 -18.5t-26 -48.5
q0 -18 11.5 -31t36.5 -18l92 -19q123 -26 123 -125q0 -77 -57.5 -119t-152.5 -42zM182 -278l-38 36q21 16 30.5 32t14.5 35h-64l16 102h131l-12 -76q-7 -43 -23 -73.5t-55 -55.5z" />
    <glyph glyph-name="uni021A" unicode="&#x21a;" horiz-adv-x="621" 
d="M208 0l95 598h-242l17 107h612l-17 -107h-242l-95 -598h-128zM237 -278l-38 36q21 16 30.5 32t14.5 35h-64l16 102h131l-12 -76q-7 -43 -23 -73.5t-55 -55.5z" />
    <glyph glyph-name="uni021B" unicode="&#x21b;" horiz-adv-x="384" 
d="M258 -10q-98 0 -142 53.5t-31 138.5l34 213h-94l15 94h94l23 146h125l-23 -146h148l-15 -94h-148l-33 -205q-8 -52 12.5 -74.5t63.5 -22.5q15 0 29 3t27 7l7 -94q-16 -9 -42 -14t-50 -5zM164 -278l-38 36q21 16 30.5 32t14.5 35h-64l16 102h131l-12 -76q-7 -43 -23 -73.5
t-55 -55.5z" />
    <glyph glyph-name="uni021F" unicode="&#x21f;" horiz-adv-x="585" 
d="M26 0l112 705h125l-46 -288q55 82 166 82q80 0 122 -49.5t25 -156.5l-46 -293h-125l46 291q18 110 -72 110q-59 0 -94.5 -37t-45.5 -101l-42 -263h-125zM322 765l-108 174h84l81 -104l100 104h91l-141 -174h-107z" />
    <glyph glyph-name="uni0226" unicode="&#x226;" horiz-adv-x="744" 
d="M-38 0l432 705h105l206 -705h-123l-43 163h-345l-96 -163h-136zM430 566l-177 -301h258l-79 301h-2zM399 794l18 116h121l-18 -116h-121z" />
    <glyph glyph-name="uni0227" unicode="&#x227;" horiz-adv-x="547" 
d="M193 -10q-45 0 -82 20.5t-59.5 54.5t-22.5 76q0 77 66.5 113t208.5 36h69l3 18q8 47 -14.5 72t-78.5 25q-89 0 -168 -50l-28 86q38 26 96 42t116 16q79 0 124 -29t61 -79t6 -114l-44 -277h-117l11 72q-25 -42 -64 -62t-83 -20zM232 76q47 0 82 30.5t43 82.5l5 29h-52
q-88 0 -123.5 -14.5t-35.5 -54.5q0 -35 23.5 -54t57.5 -19zM267 597l18 116h122l-18 -116h-122z" />
    <glyph glyph-name="uni0228" unicode="&#x228;" horiz-adv-x="597" 
d="M39 0l111 705h469l-16 -102h-346l-31 -194h325l-16 -102h-325l-33 -205h346l-16 -102h-468zM273 -195q-29 0 -55.5 5.5t-44.5 15.5l23 56q17 -8 34.5 -12.5t38.5 -4.5q57 0 57 32q0 21 -35 21q-9 0 -18.5 -1t-23.5 -5l-17 18l28 90h66l-18 -57h9q38 0 60.5 -17t22.5 -49
q0 -42 -36 -67t-91 -25z" />
    <glyph glyph-name="uni022A" unicode="&#x22a;" horiz-adv-x="785" 
d="M381 -10q-94 0 -164 36t-108.5 105.5t-38.5 167.5q0 121 44.5 214.5t127.5 147.5t197 54q95 0 164.5 -36t108 -105t38.5 -167q0 -121 -44.5 -215t-127 -148t-197.5 -54zM383 100q75 0 127 39.5t79 108.5t27 157q0 101 -48 150.5t-132 49.5q-74 0 -126 -39t-79 -107.5
t-27 -157.5q0 -102 48 -151.5t131 -49.5zM330 924l12 74h315l-12 -74h-315zM315 788l14 87h114l-14 -87h-114zM503 788l14 87h115l-14 -87h-115z" />
    <glyph glyph-name="uni022B" unicode="&#x22b;" horiz-adv-x="576" 
d="M267 -10q-108 0 -169 60t-61 161q0 88 36.5 152.5t98.5 100t137 35.5q108 0 169 -60t61 -161q0 -88 -36.5 -152.5t-98 -100t-137.5 -35.5zM270 85q46 0 77.5 26t48.5 71t17 100q0 59 -28.5 90.5t-78.5 31.5q-45 0 -77 -26t-49 -70.5t-17 -100.5q0 -59 28.5 -90.5
t78.5 -31.5zM206 708l12 74h315l-12 -74h-315zM190 572l14 87h114l-13 -87h-115zM379 572l13 87h115l-14 -87h-114z" />
    <glyph glyph-name="uni022C" unicode="&#x22c;" horiz-adv-x="785" 
d="M381 -10q-94 0 -164 36t-108.5 105.5t-38.5 167.5q0 121 44.5 214.5t127.5 147.5t197 54q95 0 164.5 -36t108 -105t38.5 -167q0 -121 -44.5 -215t-127 -148t-197.5 -54zM383 100q75 0 127 39.5t79 108.5t27 157q0 101 -48 150.5t-132 49.5q-74 0 -126 -39t-79 -107.5
t-27 -157.5q0 -102 48 -151.5t131 -49.5zM331 924l11 74h315l-11 -74h-315zM539 767q-21 0 -40.5 8t-37.5 16q-15 8 -28.5 14t-27.5 6q-42 0 -55 -45l-58 3q8 54 38.5 81t75.5 27q21 0 40 -8t36 -16q16 -7 30 -13.5t27 -6.5q42 0 55 45l58 -3q-8 -54 -38.5 -81t-74.5 -27z
" />
    <glyph glyph-name="uni022D" unicode="&#x22d;" horiz-adv-x="576" 
d="M267 -10q-108 0 -169 60t-61 161q0 88 36.5 152.5t98.5 100t137 35.5q108 0 169 -60t61 -161q0 -88 -36.5 -152.5t-98 -100t-137.5 -35.5zM270 85q46 0 77.5 26t48.5 71t17 100q0 59 -28.5 90.5t-78.5 31.5q-45 0 -77 -26t-49 -70.5t-17 -100.5q0 -59 28.5 -90.5
t78.5 -31.5zM205 708l12 74h315l-12 -74h-315zM225 550l-58 3q8 54 37 81t74 27q23 0 43 -8.5t38 -17.5q15 -7 28.5 -12.5t25.5 -5.5q43 0 55 45l58 -3q-8 -54 -37 -81t-74 -27q-21 0 -40 7.5t-36 15.5q-16 8 -30.5 14.5t-28.5 6.5q-43 0 -55 -45z" />
    <glyph glyph-name="uni0230" unicode="&#x230;" horiz-adv-x="785" 
d="M381 -10q-94 0 -164 36t-108.5 105.5t-38.5 167.5q0 121 44.5 214.5t127.5 147.5t197 54q95 0 164.5 -36t108 -105t38.5 -167q0 -121 -44.5 -215t-127 -148t-197.5 -54zM383 100q75 0 127 39.5t79 108.5t27 157q0 101 -48 150.5t-132 49.5q-74 0 -126 -39t-79 -107.5
t-27 -157.5q0 -102 48 -151.5t131 -49.5zM330 924l12 74h315l-12 -74h-315zM409 788l14 87h115l-14 -87h-115z" />
    <glyph glyph-name="uni0231" unicode="&#x231;" horiz-adv-x="576" 
d="M267 -10q-108 0 -169 60t-61 161q0 88 36.5 152.5t98.5 100t137 35.5q108 0 169 -60t61 -161q0 -88 -36.5 -152.5t-98 -100t-137.5 -35.5zM270 85q46 0 77.5 26t48.5 71t17 100q0 59 -28.5 90.5t-78.5 31.5q-45 0 -77 -26t-49 -70.5t-17 -100.5q0 -59 28.5 -90.5
t78.5 -31.5zM201 708l12 74h315l-12 -74h-315zM280 572l14 87h114l-13 -87h-115z" />
    <glyph glyph-name="uni0232" unicode="&#x232;" horiz-adv-x="618" 
d="M206 0l52 323l-211 382h140l145 -268l231 268h153l-330 -380l-52 -325h-128zM215 806l11 74h345l-11 -74h-345z" />
    <glyph glyph-name="uni0233" unicode="&#x233;" horiz-adv-x="526" 
d="M42 -180l122 200l-129 469h126l83 -342l195 342h131l-400 -669h-128zM152 616l12 74h315l-12 -74h-315z" />
    <glyph glyph-name="uni0237" unicode="&#x237;" horiz-adv-x="259" 
d="M-101 -193l-8 91l47 5q41 3 62.5 25.5t28.5 64.5l79 496h125l-77 -482q-15 -99 -63 -144.5t-149 -52.5z" />
    <glyph glyph-name="uni0253" unicode="&#x253;" 
d="M318 -10q-54 0 -95.5 24.5t-61.5 72.5l-13 -87h-122l83 525q16 98 68.5 144t153.5 46q20 0 38 -3.5t31 -8.5l-29 -92q-11 4 -19.5 5t-18.5 1q-85 0 -99 -96l-17 -103q28 38 69.5 59.5t92.5 21.5q84 0 134.5 -56.5t50.5 -154.5q0 -83 -29.5 -150.5t-84.5 -107.5t-132 -40z
M295 85q46 0 77.5 26t48.5 71t17 100q0 59 -28.5 90.5t-78.5 31.5q-45 0 -77 -26t-49 -70.5t-17 -100.5q0 -59 28.5 -90.5t78.5 -31.5z" />
    <glyph glyph-name="uni0257" unicode="&#x257;" 
d="M220 -10q-83 0 -133.5 57t-50.5 154q0 84 29.5 151.5t84.5 107t131 39.5q53 0 94 -23.5t61 -70.5l19 120q15 98 67.5 144t153.5 46q20 0 38 -3.5t31 -8.5l-29 -92q-11 4 -19.5 5t-18.5 1q-84 0 -99 -96l-83 -521h-122l13 79q-28 -42 -70.5 -65.5t-96.5 -23.5zM269 85
q46 0 77.5 26t48.5 71t17 100q0 59 -28.5 90.5t-78.5 31.5q-45 0 -77 -26t-49 -70.5t-17 -100.5q0 -59 28.5 -90.5t78.5 -31.5z" />
    <glyph glyph-name="uni0259" unicode="&#x259;" horiz-adv-x="543" 
d="M236 -10q-79 0 -127.5 35t-66.5 93t-8 127l4 28h350q3 61 -31.5 96t-101.5 35q-92 0 -156 -53l-31 86q35 30 88.5 46t109.5 16q110 0 175 -60t65 -161q0 -82 -34.5 -147.5t-95 -103t-140.5 -37.5zM239 75q62 0 94.5 37.5t43.5 88.5h-239q-3 -53 21.5 -89.5t79.5 -36.5z
" />
    <glyph glyph-name="uni0292" unicode="&#x292;" horiz-adv-x="516" 
d="M193 -190q-69 0 -131.5 17.5t-110.5 53.5l47 82q38 -31 82.5 -44.5t100.5 -13.5q70 0 108 34.5t38 96.5q0 44 -31.5 71t-95.5 27h-97l10 59l220 198h-282l15 98h425l-14 -84l-210 -186q59 -2 100 -26.5t62.5 -63.5t21.5 -86q0 -66 -30 -118.5t-87.5 -83.5t-140.5 -31z
" />
    <glyph glyph-name="uni02B9" unicode="&#x2b9;" horiz-adv-x="243" 
d="M108 415l15 290h144l-76 -290h-83z" />
    <glyph glyph-name="uni02BA" unicode="&#x2ba;" horiz-adv-x="447" 
d="M107 415l15 290h145l-76 -290h-84zM312 415l15 290h145l-76 -290h-84z" />
    <glyph glyph-name="uni02BB" unicode="&#x2bb;" horiz-adv-x="500" 
d="M235 564l11 72q6 42 23.5 74t56.5 59l39 -35q-21 -17 -31.5 -33.5t-15.5 -34.5h63l-16 -102h-130z" />
    <glyph glyph-name="uni02BC" unicode="&#x2bc;" horiz-adv-x="350" 
d="M242 567l-44 32q19 17 28.5 33t13.5 33h-62l16 104h130l-11 -70q-7 -40 -21.5 -71.5t-49.5 -60.5z" />
    <glyph glyph-name="uni02BE" unicode="&#x2be;" horiz-adv-x="500" 
d="M298 552l9 54q24 -1 40.5 16t16.5 41q0 19 -11 31t-30 13l9 54q41 -4 66 -30.5t25 -64.5q0 -33 -17.5 -60t-46 -41.5t-61.5 -12.5z" />
    <glyph glyph-name="uni02BF" unicode="&#x2bf;" horiz-adv-x="500" 
d="M299 552q-41 3 -66 30t-25 65q0 33 17.5 59.5t46 41.5t61.5 13l-9 -54q-24 0 -40.5 -16.5t-16.5 -41.5q0 -18 11 -30t30 -14z" />
    <glyph glyph-name="circumflex" unicode="&#x2c6;" horiz-adv-x="500" 
d="M130 554l131 203h109l90 -203h-79l-71 132l-100 -132h-80z" />
    <glyph glyph-name="caron" unicode="&#x2c7;" horiz-adv-x="500" 
d="M245 554l-90 203h79l70 -132l101 132h80l-131 -203h-109z" />
    <glyph glyph-name="uni02C8" unicode="&#x2c8;" horiz-adv-x="500" 
d="M265 594l32 203h81l-32 -203h-81z" />
    <glyph glyph-name="uni02C9" unicode="&#x2c9;" horiz-adv-x="500" 
d="M152 616l11 74h315l-11 -74h-315z" />
    <glyph glyph-name="uni02CA" unicode="&#x2ca;" horiz-adv-x="500" 
d="M257 554l126 203h125l-167 -203h-84z" />
    <glyph glyph-name="fourthtofinechinese" unicode="&#x2cb;" horiz-adv-x="500" 
d="M256 554l-142 203h123l103 -203h-84z" />
    <glyph glyph-name="uni02CC" unicode="&#x2cc;" horiz-adv-x="500" 
d="M128 -270l32 203h81l-32 -203h-81z" />
    <glyph glyph-name="breve" unicode="&#x2d8;" horiz-adv-x="500" 
d="M307 551q-72 0 -114 52.5t-37 140.5l71 7q-2 -60 20.5 -92t64.5 -32t69.5 32t35.5 92l71 -7q-10 -89 -58.5 -141t-122.5 -52z" />
    <glyph glyph-name="dotaccent" unicode="&#x2d9;" horiz-adv-x="500" 
d="M245 597l18 116h122l-18 -116h-122z" />
    <glyph glyph-name="ring" unicode="&#x2da;" horiz-adv-x="500" 
d="M318 546q-53 0 -89.5 35t-36.5 87q0 35 16.5 62.5t45.5 44t64 16.5q36 0 64.5 -16.5t45 -44t16.5 -62.5q0 -52 -36.5 -87t-89.5 -35zM318 603q28 0 46.5 18.5t18.5 46.5q0 29 -18.5 47t-46.5 18t-46.5 -18t-18.5 -47q0 -28 18.5 -46.5t46.5 -18.5z" />
    <glyph glyph-name="ogonek" unicode="&#x2db;" horiz-adv-x="500" 
d="M171 -195q-51 0 -78.5 25.5t-27.5 68.5q0 48 32 86t81 57l33 -42q-35 -14 -51 -36t-16 -45q0 -21 14 -34t37 -13q14 0 26.5 3t27.5 8l11 -62q-23 -7 -44 -11.5t-45 -4.5z" />
    <glyph glyph-name="tilde" unicode="&#x2dc;" horiz-adv-x="500" 
d="M172 584l-62 4q10 71 44.5 109.5t84.5 38.5q29 0 48.5 -13.5t36.5 -27.5q13 -10 26 -17.5t29 -7.5q50 0 67 70l62 -4q-10 -71 -44 -109.5t-84 -38.5q-28 0 -48.5 13t-37.5 27q-13 11 -26 18.5t-29 7.5q-50 0 -67 -70z" />
    <glyph glyph-name="hungarumlaut" unicode="&#x2dd;" horiz-adv-x="500" 
d="M339 554l67 203h105l-106 -203h-66zM190 554l68 203h105l-107 -203h-66z" />
    <glyph glyph-name="gravecomb" unicode="&#x300;" horiz-adv-x="0" 
d="M-32 554l-141 203h121l104 -203h-84z" />
    <glyph glyph-name="acutecomb" unicode="&#x301;" horiz-adv-x="0" 
d="M-31 554l133 203h125l-174 -203h-84z" />
    <glyph glyph-name="uni0302" unicode="&#x302;" horiz-adv-x="0" 
d="M-158 554l131 203h109l90 -203h-79l-71 132l-100 -132h-80z" />
    <glyph glyph-name="tildecomb" unicode="&#x303;" horiz-adv-x="0" 
d="M-116 584l-62 4q10 71 44.5 109.5t84.5 38.5q29 0 48.5 -13.5t36.5 -27.5q13 -10 26 -17.5t29 -7.5q50 0 67 70l62 -4q-10 -71 -44 -109.5t-84 -38.5q-28 0 -48.5 13t-37.5 27q-13 11 -26 18.5t-29 7.5q-50 0 -67 -70z" />
    <glyph glyph-name="uni0304" unicode="&#x304;" horiz-adv-x="0" 
d="M-136 616l12 74h315l-12 -74h-315z" />
    <glyph glyph-name="uni0306" unicode="&#x306;" horiz-adv-x="0" 
d="M19 551q-72 0 -114 52.5t-37 140.5l71 7q-2 -60 20.5 -92t64.5 -32t69.5 32t35.5 92l71 -7q-10 -89 -58.5 -141t-122.5 -52z" />
    <glyph glyph-name="uni0307" unicode="&#x307;" horiz-adv-x="0" 
d="M-43 597l18 116h122l-18 -116h-122z" />
    <glyph glyph-name="uni0308" unicode="&#x308;" horiz-adv-x="0" 
d="M56 597l17 115h115l-18 -115h-114zM-133 597l18 115h114l-17 -115h-115z" />
    <glyph glyph-name="hookabovecomb" unicode="&#x309;" horiz-adv-x="0" 
d="M-32 554l4 22q4 28 20 44t31 29t15 30q0 23 -39 23q-16 0 -31 -3.5t-32 -11.5l-14 54q45 24 109 24q48 0 74.5 -17.5t26.5 -48.5q0 -27 -11.5 -43.5t-27 -28t-29 -24t-17.5 -33.5l-3 -16h-76z" />
    <glyph glyph-name="uni030A" unicode="&#x30a;" horiz-adv-x="0" 
d="M30 546q-53 0 -89.5 35t-36.5 87q0 35 16.5 62.5t45.5 44t64 16.5q36 0 64.5 -16.5t45 -44t16.5 -62.5q0 -52 -36.5 -87t-89.5 -35zM30 603q28 0 46.5 18.5t18.5 46.5q0 29 -18.5 47t-46.5 18t-46.5 -18t-18.5 -47q0 -28 18.5 -46.5t46.5 -18.5z" />
    <glyph glyph-name="uni030B" unicode="&#x30b;" horiz-adv-x="0" 
d="M51 554l67 203h105l-106 -203h-66zM-98 554l68 203h105l-107 -203h-66z" />
    <glyph glyph-name="uni030C" unicode="&#x30c;" horiz-adv-x="0" 
d="M-43 554l-90 203h79l70 -132l101 132h80l-131 -203h-109z" />
    <glyph glyph-name="uni030F" unicode="&#x30f;" horiz-adv-x="0" 
d="M54 554l-70 203h104l32 -203h-66zM-94 554l-71 203h105l32 -203h-66z" />
    <glyph glyph-name="uni0311" unicode="&#x311;" horiz-adv-x="0" 
d="M-89 551l-71 6q11 89 59.5 141.5t121.5 52.5q72 0 114 -52.5t37 -141.5l-71 -6q2 59 -20.5 91.5t-64.5 32.5t-69.5 -32.5t-35.5 -91.5z" />
    <glyph glyph-name="uni0312" unicode="&#x312;" horiz-adv-x="0" 
d="M-52 564l12 76q7 43 23 73.5t55 55.5l38 -36q-21 -16 -30.5 -32t-14.5 -35h64l-17 -102h-130z" />
    <glyph glyph-name="uni031B" unicode="&#x31b;" horiz-adv-x="0" 
d="M66 425l-68 45l3 19q53 1 77.5 23.5t34.5 82.5l3 21h110l-7 -40q-10 -64 -49.5 -104.5t-103.5 -46.5z" />
    <glyph glyph-name="dotbelowcomb" unicode="&#x323;" horiz-adv-x="0" 
d="M-93 -204l18 116h122l-18 -116h-122z" />
    <glyph glyph-name="uni0324" unicode="&#x324;" horiz-adv-x="0" 
d="M7 -192l18 114h115l-19 -114h-114zM-182 -192l19 114h114l-18 -114h-115z" />
    <glyph glyph-name="uni0326" unicode="&#x326;" horiz-adv-x="0" 
d="M-36 -278l-38 36q21 16 30.5 32t14.5 35h-64l16 102h131l-12 -76q-7 -43 -23 -73.5t-55 -55.5z" />
    <glyph glyph-name="uni0327" unicode="&#x327;" horiz-adv-x="0" 
d="M-22 -195q-29 0 -55.5 5.5t-44.5 15.5l23 56q17 -8 34.5 -12.5t38.5 -4.5q57 0 57 32q0 21 -35 21q-9 0 -18.5 -1t-23.5 -5l-17 18l28 90h66l-18 -57h9q38 0 60.5 -17t22.5 -49q0 -42 -36 -67t-91 -25z" />
    <glyph glyph-name="uni0328" unicode="&#x328;" horiz-adv-x="0" 
d="M-40 -195q-51 0 -78.5 25.5t-27.5 68.5q0 48 32 86t81 57l33 -42q-35 -14 -51 -36t-16 -45q0 -21 14 -34t37 -13q14 0 26.5 3t27.5 8l11 -62q-23 -7 -44 -11.5t-45 -4.5z" />
    <glyph glyph-name="uni032E" unicode="&#x32e;" horiz-adv-x="0" 
d="M-20 -215q-73 0 -116.5 41.5t-38.5 111.5l71 7q-1 -40 22 -63t65 -23t69 23t34 63l71 -7q-9 -70 -56.5 -111.5t-120.5 -41.5z" />
    <glyph glyph-name="uni0331" unicode="&#x331;" horiz-adv-x="0" 
d="M-183 -165l12 74h315l-12 -74h-315z" />
    <glyph glyph-name="uni0335" unicode="&#x335;" horiz-adv-x="0" 
d="M-207 531l14 88h401l-14 -88h-401z" />
    <glyph glyph-name="uni0337" unicode="&#x337;" horiz-adv-x="0" 
d="M-144 234l-41 89l330 159l40 -89z" />
    <glyph glyph-name="uni0338" unicode="&#x338;" horiz-adv-x="0" 
d="M-173 -47l-56 40l404 547l56 -39z" />
    <glyph glyph-name="uni0394" unicode="&#x394;" horiz-adv-x="744" 
d="M1 0l11 72l381 633h104l181 -633l-9 -72h-668zM427 566l-272 -464h398l-124 464h-2z" />
    <glyph glyph-name="Sigma" unicode="&#x3a3;" 
d="M-32 -180l14 90l320 363l-208 342l14 90h530l-17 -106h-380l184 -302l-12 -69l-265 -302h367l-17 -106h-530z" />
    <glyph glyph-name="uni03A9" unicode="&#x3a9;" horiz-adv-x="799" 
d="M-2 0l17 106h189q-69 55 -102.5 120.5t-33.5 134.5q0 111 48 190t134 121.5t201 42.5q92 0 165.5 -35t116.5 -96.5t43 -142.5q0 -117 -55.5 -200t-150.5 -135h170l-17 -106h-309l16 101q95 53 153.5 131t58.5 181q0 87 -52 139.5t-144 52.5q-79 0 -133.5 -32t-82.5 -88
t-28 -129q0 -67 30 -131.5t91 -123.5l-16 -101h-309z" />
    <glyph glyph-name="uni03BC" unicode="&#x3bc;" horiz-adv-x="579" 
d="M-5 -180l106 669h125l-46 -291q-18 -109 70 -109q56 0 91 37t45 101l41 262h125l-77 -489h-122l14 87q-19 -46 -52.5 -71.5t-75.5 -25.5q-69 0 -95 49l-24 -219h-125z" />
    <glyph glyph-name="pi" unicode="&#x3c0;" horiz-adv-x="618" 
d="M490 -8q-82 0 -124 53.5t-28 143.5l32 206h-122q-21 -120 -51 -214.5t-74 -180.5h-129q50 107 81 201t49 194h-96l15 94h576l-15 -94h-109l-29 -187q-10 -61 6.5 -88t68.5 -28q10 0 21 1.5t24 2.5l-21 -99q-20 -2 -37.5 -3.5t-37.5 -1.5z" />
    <glyph glyph-name="uni0400" unicode="&#x400;" horiz-adv-x="597" 
d="M39 0l111 705h469l-16 -102h-346l-31 -194h325l-16 -102h-325l-33 -205h346l-16 -102h-468zM367 765l-145 174h128l106 -174h-89z" />
    <glyph glyph-name="uni0401" unicode="&#x401;" horiz-adv-x="597" 
d="M39 0l111 705h469l-16 -102h-346l-31 -194h325l-16 -102h-325l-33 -205h346l-16 -102h-468zM451 790l19 115h114l-18 -115h-115zM263 790l18 115h115l-19 -115h-114z" />
    <glyph glyph-name="uni0402" unicode="&#x402;" horiz-adv-x="870" 
d="M540 -190q-39 0 -70.5 5.5t-53.5 15.5l22 95q36 -14 84 -14q54 0 90 36.5t47 106.5l13 79q17 101 -22.5 149.5t-122.5 48.5q-36 0 -73 -6.5t-70 -23.5l-48 -302h-128l95 598h-242l17 107h612l-17 -107h-242l-29 -185q29 14 68.5 21.5t81.5 7.5q86 0 147.5 -35.5
t89.5 -102.5t12 -164l-13 -80q-19 -121 -83 -185.5t-165 -64.5z" />
    <glyph glyph-name="uni0403" unicode="&#x403;" horiz-adv-x="559" 
d="M38 0l112 705h466l-17 -107h-338l-95 -598h-128zM319 765l130 174h133l-174 -174h-89z" />
    <glyph glyph-name="uni0404" unicode="&#x404;" horiz-adv-x="679" 
d="M392 -10q-93 0 -165.5 35.5t-114 106.5t-41.5 178q0 86 25.5 159.5t74 128.5t119.5 86t161 31q73 0 135 -23t99 -61l-52 -102q-79 72 -185 72q-91 0 -150.5 -53t-80.5 -138h319l-16 -102h-314q2 -96 49 -150t151 -54q47 0 92 16t92 52l37 -101q-44 -39 -107 -60t-128 -21
z" />
    <glyph glyph-name="uni0405" unicode="&#x405;" horiz-adv-x="631" 
d="M300 -10q-77 0 -149.5 20.5t-127.5 64.5l46 97q58 -41 119 -57.5t124 -16.5q70 0 110.5 27t40.5 71q0 33 -24 55.5t-82 35.5l-109 26q-73 17 -116 61.5t-43 118.5q0 70 38.5 119.5t102.5 76t139 26.5q66 0 133 -20t118 -64l-48 -94q-45 38 -99 54t-106 16q-67 0 -109 -28
t-42 -75q0 -38 22 -58t65 -31l109 -26q89 -20 133.5 -66.5t44.5 -111.5q0 -73 -40 -122.5t-106 -74t-144 -24.5z" />
    <glyph glyph-name="uni0406" unicode="&#x406;" horiz-adv-x="282" 
d="M38 0l112 705h128l-112 -705h-128z" />
    <glyph glyph-name="uni0407" unicode="&#x407;" horiz-adv-x="282" 
d="M38 0l112 705h128l-112 -705h-128zM264 790l19 115h114l-18 -115h-115zM76 790l18 115h115l-19 -115h-114z" />
    <glyph glyph-name="uni0408" unicode="&#x408;" horiz-adv-x="354" 
d="M-38 -9l2 105l72 4q47 3 73 29t34 78l79 498h128l-81 -509q-15 -94 -65.5 -144t-159.5 -57z" />
    <glyph glyph-name="uni0409" unicode="&#x409;" horiz-adv-x="1133" 
d="M44 -17l-54 96q42 21 76.5 49t61.5 71.5t48 110.5t37 166l37 229h488l-47 -294h163q118 0 176.5 -52t58.5 -134q0 -110 -68 -167.5t-201 -57.5h-322l95 598h-242l-25 -155q-22 -136 -58.5 -226t-91.5 -145t-132 -89zM642 102h180q143 0 143 116q0 47 -30.5 69t-97.5 22
h-162z" />
    <glyph glyph-name="uni040A" unicode="&#x40a;" horiz-adv-x="1164" 
d="M38 0l112 705h128l-47 -294h363l47 294h128l-47 -294h163q118 0 176.5 -52t58.5 -134q0 -110 -68 -167.5t-201 -57.5h-322l48 304h-363l-48 -304h-128zM673 102h180q143 0 143 116q0 47 -30.5 69t-97.5 22h-162z" />
    <glyph glyph-name="uni040B" unicode="&#x40b;" horiz-adv-x="866" 
d="M208 0l95 598h-242l17 107h612l-17 -107h-242l-29 -185q29 14 70.5 21.5t83.5 7.5q131 0 197.5 -78t43.5 -223l-22 -141h-128l23 140q17 101 -18.5 146.5t-120.5 45.5q-36 0 -74.5 -6.5t-72.5 -23.5l-48 -302h-128z" />
    <glyph glyph-name="uni040C" unicode="&#x40c;" horiz-adv-x="675" 
d="M38 0l112 705h128l-48 -299h98l237 299h143l-260 -326q33 -18 56.5 -50t39.5 -78l89 -251h-131l-69 203q-17 52 -47 74t-80 22h-92l-48 -299h-128zM371 765l130 174h133l-174 -174h-89z" />
    <glyph glyph-name="uni040D" unicode="&#x40d;" horiz-adv-x="748" 
d="M38 0l112 705h119l-77 -487l456 487h96l-112 -705h-119l77 489l-457 -489h-95zM410 765l-145 174h128l106 -174h-89z" />
    <glyph glyph-name="uni040E" unicode="&#x40e;" horiz-adv-x="660" 
d="M136 0l146 220l-223 485h130l168 -374l250 374h139l-471 -705h-139zM398 760q-78 0 -126 38t-62 102l66 22q15 -49 45.5 -70.5t81.5 -21.5q52 0 85.5 22t59.5 69l60 -21q-28 -69 -83 -104.5t-127 -35.5z" />
    <glyph glyph-name="uni040F" unicode="&#x40f;" horiz-adv-x="767" 
d="M261 -165l26 165h-249l112 705h128l-95 -598h357l95 598h128l-112 -705h-250l-26 -165h-114z" />
    <glyph glyph-name="uni0410" unicode="&#x410;" horiz-adv-x="744" 
d="M-38 0l432 705h105l206 -705h-123l-43 163h-345l-96 -163h-136zM430 566l-177 -301h258l-79 301h-2z" />
    <glyph glyph-name="uni0411" unicode="&#x411;" horiz-adv-x="673" 
d="M38 0l112 705h479l-16 -102h-355l-31 -192h167q118 0 176.5 -52t58.5 -134q0 -110 -69 -167.5t-202 -57.5h-320zM178 102h184q143 0 143 116q0 47 -30.5 69t-97.5 22h-166z" />
    <glyph glyph-name="uni0412" unicode="&#x412;" horiz-adv-x="688" 
d="M38 0l112 705h290q117 0 169.5 -46.5t52.5 -120.5q0 -68 -38.5 -114.5t-102.5 -64.5q51 -18 79 -57t28 -92q0 -103 -68 -156.5t-188 -53.5h-334zM226 406h171q67 0 104 30t37 87q0 41 -28.5 63t-89.5 22h-162zM176 97h190q69 0 103.5 31t34.5 89q0 46 -30.5 69t-88.5 23
h-175z" />
    <glyph glyph-name="uni0413" unicode="&#x413;" horiz-adv-x="559" 
d="M38 0l112 705h466l-17 -107h-338l-95 -598h-128z" />
    <glyph glyph-name="uni0414" unicode="&#x414;" horiz-adv-x="799" 
d="M-51 -165l42 267h71q57 58 95.5 159t63.5 255l30 189h499l-96 -603h100l-43 -267h-113l26 165h-535l-26 -165h-114zM198 102h328l80 501h-252l-15 -94q-23 -147 -55.5 -247.5t-85.5 -159.5z" />
    <glyph glyph-name="uni0415" unicode="&#x415;" horiz-adv-x="597" 
d="M39 0l111 705h469l-16 -102h-346l-31 -194h325l-16 -102h-325l-33 -205h346l-16 -102h-468z" />
    <glyph glyph-name="uni0416" unicode="&#x416;" horiz-adv-x="1014" 
d="M-36 0l159 251q65 103 155 136l-158 318h134l142 -299h75l48 299h123l-48 -299h73l237 299h145l-265 -324q35 -19 58.5 -51t40.5 -79l89 -251h-131l-69 203q-17 52 -47 74t-80 22h-67l-48 -299h-123l48 299h-67q-51 0 -87.5 -22.5t-68.5 -73.5l-128 -203h-140z" />
    <glyph glyph-name="uni0417" unicode="&#x417;" horiz-adv-x="634" 
d="M294 -10q-79 0 -148.5 21t-128.5 68l48 93q49 -40 106.5 -56.5t120.5 -16.5q40 0 75.5 11t58 36.5t22.5 68.5q0 92 -116 92h-171l16 101h165q64 0 102 27.5t38 82.5q0 47 -34.5 68t-93.5 21t-115 -17t-103 -51l-41 96q57 39 129 59.5t145 20.5t126.5 -22t83 -61.5
t29.5 -91.5q0 -69 -39 -115.5t-103 -64.5q51 -18 79.5 -58t28.5 -94q0 -72 -35.5 -120.5t-98.5 -73t-146 -24.5z" />
    <glyph glyph-name="uni0418" unicode="&#x418;" horiz-adv-x="748" 
d="M38 0l112 705h119l-77 -487l456 487h96l-112 -705h-119l77 489l-457 -489h-95z" />
    <glyph glyph-name="uni0419" unicode="&#x419;" horiz-adv-x="748" 
d="M38 0l112 705h119l-77 -487l456 487h96l-112 -705h-119l77 489l-457 -489h-95zM449 760q-78 0 -126 38t-62 102l66 22q15 -49 45.5 -70.5t81.5 -21.5q52 0 85.5 22t59.5 69l60 -21q-28 -69 -83 -104.5t-127 -35.5z" />
    <glyph glyph-name="uni041A" unicode="&#x41a;" horiz-adv-x="675" 
d="M38 0l112 705h128l-48 -299h98l237 299h143l-260 -326q33 -18 56.5 -50t39.5 -78l89 -251h-131l-69 203q-17 52 -47 74t-80 22h-92l-48 -299h-128z" />
    <glyph glyph-name="uni041B" unicode="&#x41b;" horiz-adv-x="752" 
d="M44 -17l-54 96q42 21 76.5 49t61.5 71.5t48 110.5t37 166l37 229h498l-112 -705h-128l95 598h-252l-25 -155q-22 -136 -58.5 -226t-91.5 -145t-132 -89z" />
    <glyph glyph-name="uni041C" unicode="&#x41c;" horiz-adv-x="868" 
d="M40 0l112 705h102l175 -464l323 464h110l-112 -705h-116l75 476l-258 -369h-74l-145 368l-76 -475h-116z" />
    <glyph glyph-name="uni041D" unicode="&#x41d;" horiz-adv-x="773" 
d="M38 0l112 705h128l-47 -294h363l47 294h128l-112 -705h-128l48 304h-363l-48 -304h-128z" />
    <glyph glyph-name="uni041E" unicode="&#x41e;" horiz-adv-x="785" 
d="M381 -10q-94 0 -164 36t-108.5 105.5t-38.5 167.5q0 121 44.5 214.5t127.5 147.5t197 54q95 0 164.5 -36t108 -105t38.5 -167q0 -121 -44.5 -215t-127 -148t-197.5 -54zM383 100q75 0 127 39.5t79 108.5t27 157q0 101 -48 150.5t-132 49.5q-74 0 -126 -39t-79 -107.5
t-27 -157.5q0 -102 48 -151.5t131 -49.5z" />
    <glyph glyph-name="uni041F" unicode="&#x41f;" horiz-adv-x="767" 
d="M38 0l112 705h613l-112 -705h-128l95 598h-357l-95 -598h-128z" />
    <glyph glyph-name="uni0420" unicode="&#x420;" horiz-adv-x="652" 
d="M38 0l112 705h274q117 0 178 -50.5t61 -145.5q0 -115 -71 -180t-206 -65h-178l-42 -264h-128zM224 365h168q72 0 109.5 34.5t37.5 99.5q0 105 -130 105h-147z" />
    <glyph glyph-name="uni0421" unicode="&#x421;" horiz-adv-x="679" 
d="M392 -10q-93 0 -165.5 35.5t-114 106.5t-41.5 178q0 86 25.5 159.5t74 128.5t119.5 86t161 31q73 0 135 -23t99 -61l-52 -102q-79 72 -185 72q-77 0 -131 -37.5t-82 -102.5t-28 -147q0 -111 51 -160.5t148 -49.5q47 0 92 16t92 52l37 -101q-44 -39 -107 -60t-128 -21z
" />
    <glyph glyph-name="uni0422" unicode="&#x422;" horiz-adv-x="621" 
d="M208 0l95 598h-242l17 107h612l-17 -107h-242l-95 -598h-128z" />
    <glyph glyph-name="uni0423" unicode="&#x423;" horiz-adv-x="660" 
d="M136 0l146 220l-223 485h130l168 -374l250 374h139l-471 -705h-139z" />
    <glyph glyph-name="uni0424" unicode="&#x424;" horiz-adv-x="885" 
d="M336 -25l13 81q-83 5 -146 38.5t-97.5 91t-34.5 136.5q0 67 24 128t70.5 108.5t115 75t158.5 27.5h5l12 74h128l-12 -78q83 -5 146 -38.5t97.5 -91t34.5 -136.5q0 -67 -23.5 -128t-70.5 -108.5t-115.5 -75t-158.5 -27.5h-6l-12 -77h-128zM202 325q0 -77 40 -121t123 -50
l65 409q-76 0 -127 -34t-76 -88t-25 -116zM719 388q0 78 -40 122t-124 49l-65 -409h1q76 0 126.5 33.5t76 88t25.5 116.5z" />
    <glyph glyph-name="uni0425" unicode="&#x425;" horiz-adv-x="672" 
d="M-45 0l324 364l-202 341h140l148 -260l221 260h157l-312 -352l209 -353h-142l-156 270l-230 -270h-157z" />
    <glyph glyph-name="uni0426" unicode="&#x426;" horiz-adv-x="812" 
d="M611 -165l26 165h-599l112 705h128l-95 -598h357l95 598h128l-95 -598h100l-43 -272h-114z" />
    <glyph glyph-name="uni0427" unicode="&#x427;" horiz-adv-x="697" 
d="M453 0l43 275q-29 -13 -70.5 -21t-83.5 -8q-86 0 -145 35.5t-84 103t-10 162.5l25 158h128l-25 -157q-16 -100 17.5 -146t118.5 -46q36 0 75 7.5t72 23.5l51 318h128l-112 -705h-128z" />
    <glyph glyph-name="uni0428" unicode="&#x428;" horiz-adv-x="1070" 
d="M38 0l112 705h126l-95 -598h269l95 598h126l-95 -598h269l95 598h126l-112 -705h-916z" />
    <glyph glyph-name="uni0429" unicode="&#x429;" horiz-adv-x="1115" 
d="M914 -165l26 165h-902l112 705h126l-95 -598h268l95 598h126l-95 -598h268l95 598h126l-95 -598h102l-43 -272h-114z" />
    <glyph glyph-name="uni042A" unicode="&#x42a;" horiz-adv-x="806" 
d="M172 0l95 598h-206l17 107h334l-47 -294h162q118 0 176.5 -52t58.5 -134q0 -110 -68 -167.5t-201 -57.5h-321zM316 102h179q143 0 143 116q0 47 -30.5 69t-97.5 22h-161z" />
    <glyph glyph-name="uni042B" unicode="&#x42b;" horiz-adv-x="901" 
d="M38 0l112 705h128l-47 -294h137q118 0 176.5 -52t58.5 -134q0 -110 -68 -167.5t-201 -57.5h-296zM657 0l112 705h128l-112 -705h-128zM182 102h154q143 0 143 116q0 47 -30.5 69t-97.5 22h-136z" />
    <glyph glyph-name="uni042C" unicode="&#x42c;" horiz-adv-x="673" 
d="M38 0l112 705h128l-47 -294h163q118 0 176.5 -52t58.5 -134q0 -110 -68 -167.5t-201 -57.5h-322zM182 102h180q143 0 143 116q0 47 -30.5 69t-97.5 22h-162z" />
    <glyph glyph-name="uni042D" unicode="&#x42d;" horiz-adv-x="679" 
d="M263 -10q-73 0 -134.5 23.5t-99.5 60.5l52 102q80 -72 185 -72q97 0 156 56.5t78 147.5h-320l16 102h311q-4 90 -47.5 140.5t-146.5 50.5q-48 0 -95 -16t-94 -52l-37 102q44 38 109.5 59t130.5 21q93 0 164 -35t111 -106t40 -179q0 -85 -25 -159t-74 -129t-119.5 -86
t-160.5 -31z" />
    <glyph glyph-name="uni042E" unicode="&#x42e;" horiz-adv-x="1046" 
d="M642 -10q-146 0 -228.5 83t-82.5 231h-117l-48 -304h-128l112 705h128l-47 -294h111q19 91 66.5 159t121.5 106.5t170 38.5q95 0 164.5 -36t108 -105t38.5 -167q0 -121 -44.5 -215t-127 -148t-197.5 -54zM644 100q75 0 127 39.5t79 108.5t27 157q0 101 -48 150.5
t-132 49.5q-74 0 -126 -39t-79 -107.5t-27 -157.5q0 -102 48 -151.5t131 -49.5z" />
    <glyph glyph-name="uni042F" unicode="&#x42f;" horiz-adv-x="689" 
d="M-9 0l150 217q24 34 47 53.5t52 26.5q-69 19 -104.5 66t-35.5 117q0 77 35 127t95.5 74t136.5 24h318l-112 -705h-128l45 282h-87q-37 0 -63 -12t-49 -45l-155 -225h-145zM357 377h148l36 227h-174q-68 0 -105.5 -31.5t-37.5 -91.5q0 -52 32 -78t101 -26z" />
    <glyph glyph-name="uni0430" unicode="&#x430;" horiz-adv-x="561" 
d="M200 -10q-45 0 -82 20.5t-59.5 54.5t-22.5 76q0 77 66.5 113t208.5 36h69l3 18q8 47 -14.5 72t-78.5 25q-89 0 -168 -50l-28 86q38 26 96 42t116 16q79 0 124 -29t61 -79t6 -114l-44 -277h-117l11 72q-25 -42 -64 -62t-83 -20zM239 76q47 0 82 30.5t43 82.5l5 29h-52
q-88 0 -123.5 -14.5t-35.5 -54.5q0 -35 23.5 -54t57.5 -19z" />
    <glyph glyph-name="uni0431" unicode="&#x431;" horiz-adv-x="590" 
d="M276 -10q-87 0 -141 39.5t-74.5 107t-7.5 152.5l11 73q15 101 50.5 163.5t96.5 99t150 59.5l149 39l28 -99l-181 -45q-77 -19 -117.5 -65.5t-52.5 -120.5l-1 -4q27 41 69.5 68t103.5 27q53 0 95.5 -25.5t67 -71t24.5 -105.5q0 -85 -32.5 -151t-92.5 -103.5t-145 -37.5z
M276 85q46 0 78 24t49 66t17 94q0 57 -28.5 88.5t-78.5 31.5q-45 0 -77 -24t-49 -64t-17 -88q0 -64 28.5 -96t77.5 -32z" />
    <glyph glyph-name="uni0432" unicode="&#x432;" horiz-adv-x="568" 
d="M33 0l77 489h255q85 0 124.5 -32.5t39.5 -80.5q0 -46 -25 -78t-68 -45q37 -11 57.5 -37.5t20.5 -66.5q0 -70 -52 -109.5t-157 -39.5h-272zM194 288h137q38 0 61 19.5t23 54.5q0 25 -17.5 37.5t-49.5 12.5h-134zM161 77h142q50 0 73.5 19.5t23.5 56.5q0 58 -75 58h-143z
" />
    <glyph glyph-name="uni0433" unicode="&#x433;" horiz-adv-x="457" 
d="M33 0l77 489h370l-15 -98h-245l-62 -391h-125z" />
    <glyph glyph-name="uni0434" unicode="&#x434;" horiz-adv-x="618" 
d="M-34 -130l37 228h56q36 41 58 100.5t36 151.5l22 139h380l-62 -391h80l-36 -228h-106l21 130h-359l-21 -130h-106zM174 98h202l47 295h-157l-11 -74q-10 -67 -30.5 -126t-50.5 -95z" />
    <glyph glyph-name="uni0435" unicode="&#x435;" horiz-adv-x="557" 
d="M287 -10q-74 0 -128.5 27.5t-84.5 77.5t-30 117q0 82 34.5 146.5t95.5 102.5t140 38q80 0 127 -35.5t64.5 -94t9.5 -127.5l-3 -26h-351q-2 -61 34 -96t103 -35q44 0 83.5 12.5t70.5 37.5l31 -82q-35 -30 -87.5 -46.5t-108.5 -16.5zM313 414q-42 0 -71 -17.5t-46 -46.5
t-25 -62h248q4 54 -21 90t-85 36z" />
    <glyph glyph-name="uni0436" unicode="&#x436;" horiz-adv-x="826" 
d="M-45 0l127 182q52 70 100 91l-123 216h128l111 -190h61l30 190h125l-30 -190h58l172 190h135l-200 -227q22 -13 38 -35t28 -50l78 -177h-127l-64 144q-15 34 -33.5 46t-47.5 12h-52l-32 -202h-125l32 202h-49q-32 0 -53 -12t-47 -46l-105 -144h-135z" />
    <glyph glyph-name="uni0437" unicode="&#x437;" horiz-adv-x="519" 
d="M213 -10q-66 0 -120 17t-86 45l41 79q31 -25 77 -38t97 -13q61 0 95 15t34 55q0 52 -74 52h-129l14 90h118q39 0 62 16.5t23 47.5q0 25 -24 39t-78 14q-92 0 -176 -48l-28 82q46 27 104 41.5t127 14.5q89 0 139 -33t50 -87q0 -47 -26 -79.5t-68 -46.5q39 -11 59.5 -39
t20.5 -66q0 -80 -68.5 -119t-183.5 -39z" />
    <glyph glyph-name="uni0438" unicode="&#x438;" horiz-adv-x="604" 
d="M33 0l77 489h113l-51 -322l296 322h104l-78 -489h-113l52 322l-296 -322h-104z" />
    <glyph glyph-name="uni0439" unicode="&#x439;" horiz-adv-x="604" 
d="M33 0l77 489h113l-51 -322l296 322h104l-78 -489h-113l52 322l-296 -322h-104zM351 551q-73 0 -117.5 38.5t-55.5 100.5l63 22q14 -48 42 -70t73 -22t74 22.5t51 68.5l62 -21q-25 -69 -75.5 -104t-116.5 -35z" />
    <glyph glyph-name="uni043A" unicode="&#x43a;" horiz-adv-x="559" 
d="M33 0l77 489h125l-30 -190h70l171 190h136l-200 -227q38 -24 66 -85l78 -177h-127l-64 144q-16 34 -34 46t-48 12h-63l-32 -202h-125z" />
    <glyph glyph-name="uni043B" unicode="&#x43b;" horiz-adv-x="597" 
d="M22 -14l-28 100q45 13 74 41t48 79t31 132l24 151h393l-77 -489h-125l62 391h-154l-10 -62q-18 -113 -45.5 -183.5t-73 -107.5t-119.5 -52z" />
    <glyph glyph-name="uni043C" unicode="&#x43c;" horiz-adv-x="685" 
d="M33 0l77 489h97l124 -289l214 289h108l-78 -489h-110l48 302l-163 -222h-59l-100 227l-48 -307h-110z" />
    <glyph glyph-name="uni043D" unicode="&#x43d;" horiz-adv-x="608" 
d="M33 0l77 489h125l-30 -189h215l30 189h125l-77 -489h-125l32 202h-215l-32 -202h-125z" />
    <glyph glyph-name="uni043E" unicode="&#x43e;" horiz-adv-x="590" 
d="M274 -10q-108 0 -169 60t-61 161q0 88 36.5 152.5t98.5 100t137 35.5q108 0 169 -60t61 -161q0 -88 -36.5 -152.5t-98 -100t-137.5 -35.5zM277 85q46 0 77.5 26t48.5 71t17 100q0 59 -28.5 90.5t-78.5 31.5q-45 0 -77 -26t-49 -70.5t-17 -100.5q0 -59 28.5 -90.5
t78.5 -31.5z" />
    <glyph glyph-name="uni043F" unicode="&#x43f;" horiz-adv-x="605" 
d="M33 0l77 489h462l-77 -489h-125l62 391h-212l-62 -391h-125z" />
    <glyph glyph-name="uni0440" unicode="&#x440;" horiz-adv-x="614" 
d="M5 -180l106 669h122l-11 -75q27 40 69.5 62.5t94.5 22.5q84 0 134.5 -56.5t50.5 -154.5q0 -83 -29.5 -150.5t-84.5 -107.5t-132 -40q-52 0 -93 22.5t-61 67.5l-41 -260h-125zM302 85q46 0 77.5 26t48.5 71t17 100q0 59 -28.5 90.5t-78.5 31.5q-45 0 -77 -26t-49 -70.5
t-17 -100.5q0 -59 28.5 -90.5t78.5 -31.5z" />
    <glyph glyph-name="uni0441" unicode="&#x441;" horiz-adv-x="486" 
d="M277 -10q-117 0 -175 61.5t-58 161.5q0 54 16.5 105.5t50.5 92t86.5 64.5t123.5 24q49 0 94 -14.5t73 -39.5l-39 -87q-47 44 -120 44q-57 0 -91.5 -28t-50 -71t-15.5 -89q0 -57 28.5 -92t94.5 -35q28 0 59.5 11t57.5 33l29 -89q-28 -25 -74.5 -38.5t-89.5 -13.5z" />
    <glyph glyph-name="uni0442" unicode="&#x442;" horiz-adv-x="473" 
d="M136 0l62 391h-168l16 98h460l-16 -98h-167l-62 -391h-125z" />
    <glyph glyph-name="uni0443" unicode="&#x443;" horiz-adv-x="540" 
d="M49 -180l122 200l-129 469h126l83 -342l195 342h131l-400 -669h-128z" />
    <glyph glyph-name="uni0444" unicode="&#x444;" horiz-adv-x="838" 
d="M304 -180l39 247q-24 -41 -57.5 -59t-72.5 -18q-50 0 -88 26.5t-59.5 74.5t-21.5 111q0 83 26.5 150.5t73.5 107t109 39.5q91 0 122 -75l45 281h125l-43 -271q23 34 54.5 49.5t67.5 15.5q51 0 89 -26.5t59.5 -73.5t21.5 -111q0 -83 -26.5 -151t-73.5 -107.5t-110 -39.5
q-84 0 -118 66l-37 -236h-125zM555 85q35 0 60.5 26t39.5 72t14 103q0 51 -21.5 84.5t-59.5 34.5q-40 1 -65 -25.5t-37 -72t-12 -102.5q0 -58 22 -88.5t59 -31.5zM250 84q40 0 64.5 26t36.5 72t12 103q0 58 -22 88.5t-58 31.5t-61.5 -25.5t-39 -72t-13.5 -103.5
q0 -52 22 -85.5t59 -34.5z" />
    <glyph glyph-name="uni0445" unicode="&#x445;" horiz-adv-x="560" 
d="M-35 0l245 254l-154 235h140l98 -157l141 157h149l-228 -242l163 -247h-140l-107 166l-158 -166h-149z" />
    <glyph glyph-name="uni0446" unicode="&#x446;" horiz-adv-x="623" 
d="M436 -130l21 130h-424l77 489h125l-62 -391h200l62 391h125l-62 -391h80l-36 -228h-106z" />
    <glyph glyph-name="uni0447" unicode="&#x447;" horiz-adv-x="574" 
d="M341 0l28 177q-55 -26 -111 -26q-107 0 -156 53.5t-33 157.5l20 127h125l-18 -116q-10 -64 11.5 -92.5t81.5 -28.5q27 0 49.5 6t44.5 19l33 212h125l-77 -489h-123z" />
    <glyph glyph-name="uni0448" unicode="&#x448;" horiz-adv-x="832" 
d="M32 0l78 489h118l-63 -391h168l63 391h118l-63 -391h168l62 391h118l-77 -489h-690z" />
    <glyph glyph-name="uni0449" unicode="&#x449;" horiz-adv-x="862" 
d="M675 -130l21 130h-664l78 489h118l-63 -391h168l63 391h118l-63 -391h169l62 391h118l-62 -391h79l-36 -228h-106z" />
    <glyph glyph-name="uni044A" unicode="&#x44a;" horiz-adv-x="633" 
d="M113 0l62 391h-144l15 98h269l-26 -162h126q86 0 130 -40.5t44 -107.5q0 -86 -59.5 -132.5t-153.5 -46.5h-263zM251 82h113q53 0 81 22.5t28 66.5q0 74 -90 74h-106z" />
    <glyph glyph-name="uni044B" unicode="&#x44b;" horiz-adv-x="776" 
d="M33 0l77 489h125l-26 -162h126q86 0 130 -40.5t44 -107.5q0 -86 -59.5 -132.5t-153.5 -46.5h-263zM541 0l77 489h125l-77 -489h-125zM171 82h113q53 0 81 22.5t28 66.5q0 74 -90 74h-106z" />
    <glyph glyph-name="uni044C" unicode="&#x44c;" horiz-adv-x="553" 
d="M33 0l77 489h125l-26 -162h126q86 0 130 -40.5t44 -107.5q0 -86 -59.5 -132.5t-153.5 -46.5h-263zM171 82h113q53 0 81 22.5t28 66.5q0 74 -90 74h-106z" />
    <glyph glyph-name="uni044D" unicode="&#x44d;" horiz-adv-x="512" 
d="M178 -10q-52 0 -99.5 16.5t-76.5 42.5l38 78q26 -22 63.5 -34.5t77.5 -12.5q70 0 109 36t53 86h-232l14 90h228q-4 53 -36.5 85.5t-101.5 32.5q-33 0 -70 -11.5t-68 -34.5l-29 81q30 24 79 39t95 15q123 0 184.5 -61t61.5 -161q0 -55 -17.5 -106t-53 -92t-90.5 -65
t-129 -24z" />
    <glyph glyph-name="uni044E" unicode="&#x44e;" horiz-adv-x="816" 
d="M500 -10q-106 0 -166.5 57.5t-63.5 154.5h-80l-32 -202h-125l77 489h125l-30 -189h76q17 62 55 106.5t91 68.5t115 24q108 0 169 -60t61 -161q0 -88 -36.5 -152.5t-98 -100t-137.5 -35.5zM503 85q46 0 77.5 26t48.5 71t17 100q0 59 -28.5 90.5t-78.5 31.5q-45 0 -77 -26
t-49 -70.5t-17 -100.5q0 -59 28.5 -90.5t78.5 -31.5z" />
    <glyph glyph-name="uni044F" unicode="&#x44f;" horiz-adv-x="561" 
d="M-10 0l91 126q38 53 88 70q-51 11 -78 43.5t-27 82.5q0 80 57 123.5t151 43.5h257l-78 -489h-116l27 169h-54q-29 0 -54 -16t-42 -40l-80 -113h-142zM268 251h107l25 156h-114q-50 0 -76.5 -22.5t-26.5 -61.5q0 -72 85 -72z" />
    <glyph glyph-name="uni0450" unicode="&#x450;" horiz-adv-x="557" 
d="M287 -10q-74 0 -128.5 27.5t-84.5 77.5t-30 117q0 82 34.5 146.5t95.5 102.5t140 38q80 0 127 -35.5t64.5 -94t9.5 -127.5l-3 -26h-351q-2 -61 34 -96t103 -35q44 0 83.5 12.5t70.5 37.5l31 -82q-35 -30 -87.5 -46.5t-108.5 -16.5zM313 414q-42 0 -71 -17.5t-46 -46.5
t-25 -62h248q4 54 -21 90t-85 36zM305 554l-141 203h121l104 -203h-84z" />
    <glyph glyph-name="uni0451" unicode="&#x451;" horiz-adv-x="557" 
d="M287 -10q-74 0 -128.5 27.5t-84.5 77.5t-30 117q0 82 34.5 146.5t95.5 102.5t140 38q80 0 127 -35.5t64.5 -94t9.5 -127.5l-3 -26h-351q-2 -61 34 -96t103 -35q44 0 83.5 12.5t70.5 37.5l31 -82q-35 -30 -87.5 -46.5t-108.5 -16.5zM313 414q-42 0 -71 -17.5t-46 -46.5
t-25 -62h248q4 54 -21 90t-85 36zM393 597l17 115h115l-18 -115h-114zM204 597l18 115h114l-17 -115h-115z" />
    <glyph glyph-name="uni0452" unicode="&#x452;" 
d="M278 -187l-38 92q48 12 75 31t41 48t20 72l37 235q17 110 -72 110q-59 0 -94 -37t-46 -101l-42 -263h-125l86 544h-88l14 88h88l12 73h125l-12 -73h188l-14 -88h-188l-20 -127q55 82 166 82q80 0 122 -49.5t25 -156.5l-37 -235q-10 -61 -31 -109t-66 -82t-126 -54z" />
    <glyph glyph-name="uni0453" unicode="&#x453;" horiz-adv-x="457" 
d="M33 0l77 489h370l-15 -98h-245l-62 -391h-125zM246 554l133 203h125l-174 -203h-84z" />
    <glyph glyph-name="uni0454" unicode="&#x454;" horiz-adv-x="513" 
d="M290 -10q-123 0 -184.5 61.5t-61.5 161.5q0 54 17.5 105.5t53.5 92t90.5 64.5t128.5 24q55 0 101.5 -16t75.5 -43l-37 -77q-26 22 -63 34.5t-80 12.5q-68 0 -107 -34.5t-54 -83.5h232l-14 -90h-229q3 -56 36 -89.5t102 -33.5q35 0 71.5 11.5t67.5 34.5l29 -81
q-31 -23 -79 -38.5t-96 -15.5z" />
    <glyph glyph-name="uni0455" unicode="&#x455;" horiz-adv-x="502" 
d="M233 -10q-62 0 -116.5 15.5t-91.5 43.5l39 81q36 -25 80.5 -38.5t88.5 -13.5q47 0 72 17.5t25 46.5q0 39 -54 51l-92 19q-55 11 -86 43.5t-31 81.5q0 45 25.5 81.5t75 58.5t119.5 22q48 0 96.5 -14.5t81.5 -42.5l-37 -80q-31 25 -69 37t-78 12q-49 0 -75 -18.5t-26 -48.5
q0 -18 11.5 -31t36.5 -18l92 -19q123 -26 123 -125q0 -77 -57.5 -119t-152.5 -42z" />
    <glyph glyph-name="uni0456" unicode="&#x456;" horiz-adv-x="269" 
d="M121 594l20 122h139l-20 -122h-139zM33 0l78 489h125l-78 -489h-125z" />
    <glyph glyph-name="uni0457" unicode="&#x457;" horiz-adv-x="269" 
d="M33 0l78 489h125l-78 -489h-125zM229 597l17 115h115l-18 -115h-114zM40 597l18 115h114l-17 -115h-115z" />
    <glyph glyph-name="uni0458" unicode="&#x458;" horiz-adv-x="273" 
d="M123 594l20 122h139l-20 -122h-139zM-94 -193l-8 91l47 5q41 3 62.5 25.5t28.5 64.5l79 496h125l-77 -482q-15 -99 -63 -144.5t-149 -52.5z" />
    <glyph glyph-name="uni0459" unicode="&#x459;" horiz-adv-x="880" 
d="M22 -14l-28 100q45 13 74 41t48 79t31 132l24 151h391l-26 -162h126q86 0 130 -40.5t44 -107.5q0 -86 -59.5 -132.5t-153.5 -46.5h-261l62 391h-154l-10 -62q-18 -113 -45.5 -183.5t-73 -107.5t-119.5 -52zM497 82h114q53 0 81 22.5t28 66.5q0 74 -90 74h-107z" />
    <glyph glyph-name="uni045A" unicode="&#x45a;" horiz-adv-x="893" 
d="M33 0l77 489h125l-30 -189h215l30 189h125l-26 -162h126q86 0 130 -40.5t44 -107.5q0 -86 -59.5 -132.5t-153.5 -46.5h-263l32 202h-215l-32 -202h-125zM511 82h113q53 0 81 22.5t28 66.5q0 74 -90 74h-106z" />
    <glyph glyph-name="uni045B" unicode="&#x45b;" horiz-adv-x="599" 
d="M33 0l86 544h-87l14 88h87l12 73h125l-12 -73h189l-14 -88h-189l-20 -127q55 82 166 82q80 0 122 -49.5t25 -156.5l-46 -293h-125l46 291q18 110 -72 110q-59 0 -94.5 -37t-45.5 -101l-42 -263h-125z" />
    <glyph glyph-name="uni045C" unicode="&#x45c;" horiz-adv-x="559" 
d="M33 0l77 489h125l-30 -190h70l171 190h136l-200 -227q38 -24 66 -85l78 -177h-127l-64 144q-16 34 -34 46t-48 12h-63l-32 -202h-125zM301 554l133 203h125l-174 -203h-84z" />
    <glyph glyph-name="uni045D" unicode="&#x45d;" horiz-adv-x="604" 
d="M33 0l77 489h113l-51 -322l296 322h104l-78 -489h-113l52 322l-296 -322h-104zM304 554l-141 203h121l104 -203h-84z" />
    <glyph glyph-name="uni045E" unicode="&#x45e;" horiz-adv-x="540" 
d="M49 -180l122 200l-129 469h126l83 -342l195 342h131l-400 -669h-128zM310 551q-73 0 -117.5 38.5t-55.5 100.5l63 22q14 -48 42 -70t73 -22t74 22.5t51 68.5l62 -21q-25 -69 -75.5 -104t-116.5 -35z" />
    <glyph glyph-name="uni045F" unicode="&#x45f;" horiz-adv-x="605" 
d="M190 -130l21 130h-178l77 489h125l-62 -391h212l62 391h125l-77 -489h-178l-21 -130h-106z" />
    <glyph glyph-name="uni0462" unicode="&#x462;" horiz-adv-x="743" 
d="M108 0l83 523h-166l15 93h166l14 89h128l-14 -89h237l-15 -93h-237l-18 -112h163q118 0 176.5 -52t58.5 -134q0 -110 -68 -167.5t-201 -57.5h-322zM252 102h180q143 0 143 116q0 47 -30.5 69t-97.5 22h-162z" />
    <glyph glyph-name="uni0463" unicode="&#x463;" horiz-adv-x="634" 
d="M115 0l64 401h-147l14 88h147l35 216h125l-35 -216h165l-14 -88h-165l-12 -74h126q86 0 130 -36t44 -101q0 -57 -27.5 -100t-77 -66.5t-115.5 -23.5h-257zM253 82h112q53 0 82 24.5t29 70.5q0 35 -23.5 51.5t-65.5 16.5h-108z" />
    <glyph glyph-name="uni046A" unicode="&#x46a;" horiz-adv-x="1008" 
d="M-36 0l161 255q48 76 114.5 112.5t145.5 36.5h24l-210 301h756l-305 -301h13q81 -3 135.5 -44t78.5 -109l89 -251h-131l-69 203q-17 52 -47 74t-80 22h-61l-48 -299h-128l48 299h-62q-51 0 -87.5 -22.5t-68.5 -73.5l-128 -203h-140zM524 404h2l212 212h-362z" />
    <glyph glyph-name="uni046B" unicode="&#x46b;" horiz-adv-x="826" 
d="M-45 0l124 170q32 44 57.5 69.5t57.5 36.5t81 11h16l-142 202h604l-205 -202h2q44 0 72.5 -12t50 -37.5t40.5 -67.5l80 -170h-127l-62 132q-16 34 -35 46t-51 12h-52l-30 -190h-125l30 190h-53q-32 0 -52.5 -11.5t-46.5 -46.5l-99 -132h-135zM414 274h2l136 134h-231z
" />
    <glyph glyph-name="uni0472" unicode="&#x472;" horiz-adv-x="785" 
d="M381 -10q-94 0 -164 36t-108.5 105.5t-38.5 167.5q0 121 44.5 214.5t127.5 147.5t197 54q95 0 164.5 -36t108 -105t38.5 -167q0 -121 -44.5 -215t-127 -148t-197.5 -54zM436 605q-87 0 -143.5 -54.5t-77.5 -144.5h401q-1 101 -49 150t-131 49zM383 100q91 0 148 57.5
t76 152.5h-403v-9q0 -102 48 -151.5t131 -49.5z" />
    <glyph glyph-name="uni0473" unicode="&#x473;" horiz-adv-x="590" 
d="M274 -10q-109 0 -169.5 60.5t-60.5 161.5q0 88 36.5 152.5t98.5 99.5t137 35q108 0 169 -60t61 -161q0 -88 -36.5 -152.5t-98 -100t-137.5 -35.5zM310 411q-54 0 -90.5 -34t-51.5 -91h263q-1 62 -32 93.5t-89 31.5zM279 78q54 0 91 34.5t52 92.5h-264q1 -63 32 -95
t89 -32z" />
    <glyph glyph-name="uni0474" unicode="&#x474;" horiz-adv-x="769" 
d="M264 0l-202 705h128l147 -539l198 347q45 78 86 122t92 62t126 18l5 -105q-48 0 -80.5 -12.5t-59.5 -44.5t-61 -89l-272 -464h-107z" />
    <glyph glyph-name="uni0475" unicode="&#x475;" horiz-adv-x="573" 
d="M176 0l-134 489h126l83 -342l126 221q29 50 58.5 78.5t69 40.5t98.5 12l2 -100q-47 0 -76.5 -18.5t-56.5 -63.5l-188 -317h-108z" />
    <glyph glyph-name="uni048A" unicode="&#x48a;" horiz-adv-x="773" 
d="M449 760q-78 0 -126 38t-62 102l66 22q15 -49 45.5 -70.5t81.5 -21.5q52 0 85.5 22t59.5 69l60 -21q-28 -69 -83 -104.5t-127 -35.5zM514 -165l83 165h-84l77 490l-457 -490h-95l112 705h119l-77 -488l456 488h96l-96 -602h109l-133 -268h-110z" />
    <glyph glyph-name="uni048B" unicode="&#x48b;" horiz-adv-x="634" 
d="M351 551q-73 0 -117.5 38.5t-55.5 100.5l63 22q14 -48 42 -70t73 -22t74 22.5t51 68.5l62 -21q-25 -69 -75.5 -104t-116.5 -35zM33 0l77 489h113l-51 -322l296 322h104l-63 -394h92l-112 -225h-105l65 130h-68l52 322l-296 -322h-104z" />
    <glyph glyph-name="uni048C" unicode="&#x48c;" horiz-adv-x="733" 
d="M102 0l83 523h-141l15 93h141l14 89h123l-14 -89h143l-15 -93h-143l-18 -112h163q119 0 177.5 -52t58.5 -134q0 -110 -69 -167.5t-202 -57.5h-316zM241 102h182q143 0 143 116q0 47 -30 69t-97 22h-165z" />
    <glyph glyph-name="uni048D" unicode="&#x48d;" horiz-adv-x="634" 
d="M115 0l64 401h-147l14 88h147l35 216h125l-35 -216h165l-14 -88h-165l-12 -74h126q86 0 130 -36t44 -101q0 -57 -27.5 -100t-77 -66.5t-115.5 -23.5h-257zM253 82h112q53 0 82 24.5t29 70.5q0 35 -23.5 51.5t-65.5 16.5h-108z" />
    <glyph glyph-name="uni048E" unicode="&#x48e;" horiz-adv-x="652" 
d="M38 0l112 705h274q117 0 178 -50.5t61 -145.5q0 -86 -39.5 -143.5t-114.5 -83.5l38 -65l-58 -36l-50 86l-26 -2t-27 -1h-178l-42 -264h-128zM224 365h161l-39 67l57 34l54 -91q82 26 82 124q0 105 -130 105h-147z" />
    <glyph glyph-name="uni048F" unicode="&#x48f;" horiz-adv-x="613" 
d="M4 -180l106 669h122l-11 -75q27 40 69.5 62.5t94.5 22.5q84 0 134.5 -56.5t50.5 -154.5q0 -80 -27.5 -146t-79.5 -106l31 -51l-67 -45l-36 59q-16 -4 -32.5 -6.5t-34.5 -2.5q-52 0 -93 23t-61 68l-41 -261h-125zM301 85q19 0 34 5l-45 72l69 45l43 -71q21 27 31.5 66
t10.5 82q0 59 -28.5 89.5t-78.5 30.5q-45 0 -77 -26t-49 -70.5t-17 -100.5q0 -59 28.5 -90.5t78.5 -31.5z" />
    <glyph glyph-name="uni0490" unicode="&#x490;" horiz-adv-x="559" 
d="M38 0l112 705h351l26 160h114l-43 -267h-337l-95 -598h-128z" />
    <glyph glyph-name="uni0491" unicode="&#x491;" horiz-adv-x="457" 
d="M33 0l77 489h265l18 113h106l-34 -211h-245l-62 -391h-125z" />
    <glyph glyph-name="uni0492" unicode="&#x492;" horiz-adv-x="601" 
d="M80 0l48 301h-96l15 93h96l49 311h466l-17 -107h-338l-32 -204h180l-15 -93h-180l-48 -301h-128z" />
    <glyph glyph-name="uni0493" unicode="&#x493;" horiz-adv-x="481" 
d="M57 0l28 181h-90l14 88h91l34 220h370l-15 -98h-245l-19 -122h139l-14 -88h-140l-28 -181h-125z" />
    <glyph glyph-name="uni0494" unicode="&#x494;" horiz-adv-x="700" 
d="M370 -190q-39 0 -70.5 5.5t-53.5 15.5l22 95q36 -14 84 -14q54 0 90 36.5t47 106.5l13 79q17 101 -22.5 149.5t-122.5 48.5q-36 0 -73 -6.5t-70 -23.5l-48 -302h-128l112 705h481l-16 -107h-354l-29 -185q29 14 68.5 21.5t81.5 7.5q86 0 147.5 -35.5t89.5 -102.5t12 -164
l-13 -80q-19 -121 -83 -185.5t-165 -64.5z" />
    <glyph glyph-name="uni0495" unicode="&#x495;" horiz-adv-x="576" 
d="M285 -187l-39 92q48 12 75 31t41 48t20 72l9 55q8 55 -10 82.5t-66 27.5q-60 0 -97 -37t-47 -101l-13 -83h-125l77 489h362l-16 -98h-237l-24 -155q56 83 170 83q82 0 125.5 -49.5t25.5 -156.5l-9 -55q-10 -60 -31 -108t-65.5 -82.5t-125.5 -54.5z" />
    <glyph glyph-name="uni0496" unicode="&#x496;" horiz-adv-x="1030" 
d="M-36 0l159 251q65 103 155 136l-158 318h134l142 -299h75l48 299h123l-48 -299h73l237 299h145l-265 -324q35 -19 58.5 -51t40.5 -79l52 -148h106l-42 -268h-114l26 165h-70l-69 203q-17 52 -47 74t-80 22h-67l-48 -299h-123l48 299h-67q-51 0 -87.5 -22.5t-68.5 -73.5
l-128 -203h-140z" />
    <glyph glyph-name="uni0497" unicode="&#x497;" horiz-adv-x="873" 
d="M-45 0l127 182q52 70 100 91l-123 216h128l111 -190h61l30 190h125l-30 -190h58l172 190h135l-200 -227q22 -13 38 -35t28 -50l36 -82h80l-34 -225h-106l21 130h-46l-64 144q-15 34 -33.5 46t-47.5 12h-52l-32 -202h-125l32 202h-49q-32 0 -53 -12t-47 -46l-105 -144
h-135z" />
    <glyph glyph-name="uni0498" unicode="&#x498;" horiz-adv-x="634" 
d="M204 -165l25 159q-59 6 -112 27t-100 58l48 93q49 -40 106.5 -56.5t120.5 -16.5q40 0 75.5 11t58 36.5t22.5 68.5q0 92 -116 92h-171l16 101h165q64 0 102 27.5t38 82.5q0 47 -34.5 68t-93.5 21t-115 -17t-103 -51l-41 96q57 39 129 59.5t145 20.5t126.5 -22t83 -61.5
t29.5 -91.5q0 -69 -38.5 -115.5t-103.5 -64.5q51 -18 79.5 -58t28.5 -94q0 -97 -63.5 -151t-167.5 -65l-25 -157h-114z" />
    <glyph glyph-name="uni0499" unicode="&#x499;" horiz-adv-x="519" 
d="M161 -130l19 121q-55 4 -99.5 20t-73.5 41l41 79q31 -25 77 -38t97 -13q61 0 95 15t34 55q0 52 -74 52h-129l14 90h118q39 0 62 16.5t23 47.5q0 25 -24 39t-78 14q-92 0 -176 -48l-28 82q46 27 104 41.5t127 14.5q89 0 139 -33t50 -87q0 -47 -26 -79.5t-68 -46.5
q38 -11 59 -39t21 -66q0 -67 -49.5 -105.5t-135.5 -48.5l-19 -124h-100z" />
    <glyph glyph-name="uni049A" unicode="&#x49a;" horiz-adv-x="714" 
d="M38 0l112 705h128l-48 -299h98l237 299h143l-260 -326q33 -18 56.5 -50t39.5 -78l52 -148h107l-42 -268h-114l26 165h-71l-69 203q-17 52 -47 74t-80 22h-92l-48 -299h-128z" />
    <glyph glyph-name="uni049B" unicode="&#x49b;" horiz-adv-x="603" 
d="M33 0l77 489h125l-30 -190h70l171 190h136l-200 -227q38 -24 66 -85l36 -82h80l-34 -225h-106l21 130h-46l-64 144q-16 34 -34 46t-48 12h-63l-32 -202h-125z" />
    <glyph glyph-name="uni049C" unicode="&#x49c;" horiz-adv-x="728" 
d="M38 0l112 705h128l-48 -300h57l26 165h92l-26 -165h1l238 300h142l-260 -325q34 -19 57.5 -51t39.5 -78l89 -251h-131l-69 204q-17 52 -46.5 74.5t-77.5 22.5l-25 -161h-92l26 161h-57l-48 -301h-128z" />
    <glyph glyph-name="uni049D" unicode="&#x49d;" horiz-adv-x="624" 
d="M33 0l77 489h125l-30 -190h45l18 110h86l-18 -110h4l172 190h135l-200 -227q39 -24 66 -85l78 -177h-127l-64 144q-15 34 -33.5 46t-47.5 12l-18 -119h-86l19 119h-44l-32 -202h-125z" />
    <glyph glyph-name="uni049E" unicode="&#x49e;" horiz-adv-x="722" 
d="M90 0l84 527h-140l14 93h140l14 85h128l-14 -85h120l-14 -93h-120l-19 -121h92l237 299h143l-260 -326q33 -18 56.5 -50t39.5 -78l89 -251h-131l-69 203q-17 52 -47 74t-80 22h-87l-48 -299h-128z" />
    <glyph glyph-name="uni049F" unicode="&#x49f;" horiz-adv-x="561" 
d="M35 0l85 544h-88l14 88h89l11 73h125l-11 -73h188l-14 -88h-189l-38 -245h70l171 190h136l-200 -227q39 -25 66 -85l78 -177h-127l-64 144q-15 34 -33.5 46t-48.5 12h-63l-32 -202h-125z" />
    <glyph glyph-name="uni04A0" unicode="&#x4a0;" horiz-adv-x="809" 
d="M172 0l95 599h-205l16 106h334l-17 -104v-2v0l-31 -193h98l237 299h143l-260 -326q33 -18 56.5 -50t39.5 -78l89 -251h-131l-69 203q-17 52 -47 74t-80 22h-92l-48 -299h-128z" />
    <glyph glyph-name="uni04A1" unicode="&#x4a1;" horiz-adv-x="639" 
d="M115 0l62 391h-146l15 98h272l-30 -190h68l171 190h135l-199 -227q38 -24 65 -85l78 -177h-127l-64 144q-15 34 -33 46t-48 12h-62l-32 -202h-125z" />
    <glyph glyph-name="uni04A2" unicode="&#x4a2;" horiz-adv-x="818" 
d="M38 0l112 705h128l-47 -294h363l47 294h128l-96 -602h100l-43 -268h-114l26 165h-113l48 304h-363l-48 -304h-128z" />
    <glyph glyph-name="uni04A3" unicode="&#x4a3;" horiz-adv-x="638" 
d="M451 -130l21 130h-99l32 202h-215l-32 -202h-125l77 489h125l-30 -189h215l30 189h125l-62 -394h80l-36 -225h-106z" />
    <glyph glyph-name="uni04A4" unicode="&#x4a4;" horiz-adv-x="942" 
d="M38 0l112 705h128l-47 -294h363l47 294h370l-17 -107h-242l-95 -598h-128l48 304h-363l-48 -304h-128z" />
    <glyph glyph-name="uni04A5" unicode="&#x4a5;" horiz-adv-x="761" 
d="M32 0l78 489h125l-30 -189h216l30 189h333l-15 -98h-209l-62 -391h-125l32 202h-216l-32 -202h-125z" />
    <glyph glyph-name="uni04A8" unicode="&#x4a8;" horiz-adv-x="842" 
d="M366 -10q-90 0 -157 34.5t-104 100.5t-37 160q0 128 49 225t136 151t201 54q19 0 42.5 -2t35.5 -5l-21 -105q-15 2 -31.5 3.5t-27.5 1.5q-76 0 -132.5 -39.5t-87.5 -110.5t-31 -167q0 -103 48.5 -151.5t136.5 -48.5q15 0 30 1q-32 36 -49.5 82t-17.5 98q0 83 31.5 147.5
t86.5 101t126 36.5q86 0 135.5 -50.5t49.5 -138.5q0 -82 -35.5 -153.5t-95.5 -122.5q11 -1 23 -1q69 0 137 31l19 -94q-34 -19 -75.5 -28.5t-94.5 -9.5q-73 0 -136 27q-74 -27 -154 -27zM470 264q0 -97 64 -140q59 31 91 90.5t32 141.5q0 47 -19.5 72.5t-54.5 25.5
q-51 0 -82 -53t-31 -137z" />
    <glyph glyph-name="uni04A9" unicode="&#x4a9;" horiz-adv-x="697" 
d="M290 -10q-121 0 -184 59t-63 157q0 85 36.5 151t100 104t144.5 38q25 0 50 -4.5t41 -10.5l-28 -89q-10 6 -26 8.5t-35 2.5q-47 0 -84 -24.5t-57.5 -67.5t-20.5 -100q0 -66 37.5 -101t112.5 -35h16q-21 26 -32.5 56t-11.5 63q0 53 22.5 93.5t63 64t94.5 23.5
q66 0 106.5 -38t40.5 -97q0 -47 -22 -89t-59 -76h2q73 0 129 29l10 -88q-31 -15 -67 -22t-74 -7q-60 0 -112 23q-30 -11 -63 -17t-67 -6zM385 189q0 -63 44 -89q41 19 63 53t22 81q0 26 -15.5 42t-41.5 16q-34 0 -53 -29.5t-19 -73.5z" />
    <glyph glyph-name="uni04AA" unicode="&#x4aa;" horiz-adv-x="679" 
d="M262 -165l27 167q-99 25 -158.5 102t-59.5 206q0 86 25.5 159.5t74 128.5t119.5 86t161 31q73 0 135 -23t99 -61l-52 -102q-79 72 -185 72q-77 0 -131 -37.5t-82 -102.5t-28 -147q0 -111 51 -160.5t148 -49.5q47 0 92 16t92 52l37 -101q-43 -38 -103.5 -58.5
t-122.5 -22.5l-25 -155h-114z" />
    <glyph glyph-name="uni04AB" unicode="&#x4ab;" horiz-adv-x="486" 
d="M182 -130l20 128q-79 19 -118.5 76t-39.5 139q0 54 16.5 105.5t50.5 92t86.5 64.5t123.5 24q49 0 94 -14.5t73 -39.5l-39 -87q-47 44 -120 44q-57 0 -91.5 -28t-50 -71t-15.5 -89q0 -57 28.5 -92t94.5 -35q28 0 59.5 11t57.5 33l29 -89q-25 -21 -63.5 -34.5t-76.5 -16.5
l-19 -121h-100z" />
    <glyph glyph-name="uni04AC" unicode="&#x4ac;" horiz-adv-x="597" 
d="M283 -165l26 165h-113l95 598h-230l17 107h588l-17 -107h-230l-79 -495h100l-43 -268h-114z" />
    <glyph glyph-name="uni04AD" unicode="&#x4ad;" horiz-adv-x="473" 
d="M212 -130l21 130h-97l62 391h-168l16 98h460l-16 -98h-167l-47 -296h78l-36 -225h-106z" />
    <glyph glyph-name="uni04AE" unicode="&#x4ae;" horiz-adv-x="618" 
d="M206 0l52 323l-211 382h140l145 -268l231 268h153l-330 -380l-52 -325h-128z" />
    <glyph glyph-name="uni04AF" unicode="&#x4af;" horiz-adv-x="526" 
d="M134 -180l31 197l-129 472h126l83 -342l194 342h131l-279 -468l-32 -201h-125z" />
    <glyph glyph-name="uni04B0" unicode="&#x4b0;" horiz-adv-x="618" 
d="M206 0l52 323l-211 382h140l145 -268l231 268h153l-330 -380l-52 -325h-128zM83 266l14 88h455l-14 -88h-455z" />
    <glyph glyph-name="uni04B1" unicode="&#x4b1;" horiz-adv-x="526" 
d="M134 -180l19 123h-126l16 99h115l-122 447h126l83 -342l194 342h131l-266 -447h116l-16 -99h-126l-19 -123h-125z" />
    <glyph glyph-name="uni04B2" unicode="&#x4b2;" horiz-adv-x="711" 
d="M-45 0l324 364l-202 341h140l148 -260l221 260h157l-312 -352l148 -250h104l-42 -268h-114l26 165h-55l-156 270l-230 -270h-157z" />
    <glyph glyph-name="uni04B3" unicode="&#x4b3;" horiz-adv-x="589" 
d="M-35 0l245 254l-154 235h140l98 -157l141 157h149l-228 -242l100 -152h88l-34 -225h-106l21 130h-46l-107 166l-158 -166h-149z" />
    <glyph glyph-name="uni04B4" unicode="&#x4b4;" horiz-adv-x="946" 
d="M745 -165l26 165h-599l95 598h-205l16 107h519l-17 -107h-185l-78 -491h357l95 598h128l-95 -598h100l-43 -272h-114z" />
    <glyph glyph-name="uni04B5" unicode="&#x4b5;" horiz-adv-x="731" 
d="M544 -130l20 130h-450l61 391h-145l16 98h398l-16 -98h-128l-46 -293h227l62 391h125l-62 -391h80l-36 -228h-106z" />
    <glyph glyph-name="uni04B6" unicode="&#x4b6;" horiz-adv-x="742" 
d="M541 -165l26 165h-114l43 275q-29 -13 -70.5 -21t-83.5 -8q-86 0 -145 35.5t-84 103t-10 162.5l25 158h128l-25 -157q-16 -100 17.5 -146t118.5 -46q36 0 75 7.5t72 23.5l51 318h128l-96 -602h101l-43 -268h-114z" />
    <glyph glyph-name="uni04B7" unicode="&#x4b7;" horiz-adv-x="604" 
d="M341 0l28 177q-55 -26 -111 -26q-107 0 -156 53.5t-33 157.5l20 127h125l-18 -116q-10 -64 11.5 -92.5t81.5 -28.5q27 0 49.5 6t44.5 19l33 212h125l-62 -394h80l-36 -225h-106l21 130h-97z" />
    <glyph glyph-name="uni04B8" unicode="&#x4b8;" horiz-adv-x="697" 
d="M453 0l43 275q-43 -19 -108 -27l-22 -142h-92l23 143q-108 14 -161 91.5t-33 206.5l25 158h128l-25 -157q-13 -83 7.5 -128.5t75.5 -57.5l26 160h92l-26 -164q28 3 56 10t52 19l51 318h128l-112 -705h-128z" />
    <glyph glyph-name="uni04B9" unicode="&#x4b9;" horiz-adv-x="607" 
d="M372 0l29 179q-36 -16 -73 -22l-15 -96h-86l15 94q-99 8 -143.5 60.5t-29.5 146.5l20 127h125l-19 -119q-8 -53 8 -80t55 -35l19 116h86l-20 -119q19 2 37 7.5t36 14.5l34 215h125l-78 -489h-125z" />
    <glyph glyph-name="uni04BA" unicode="&#x4ba;" horiz-adv-x="696" 
d="M38 0l112 705h128l-44 -275q29 14 71.5 21.5t84.5 7.5q131 0 197 -78t43 -223l-25 -158h-128l25 157q17 101 -17.5 146.5t-119.5 45.5q-36 0 -75.5 -6.5t-72.5 -23.5l-51 -319h-128z" />
    <glyph glyph-name="uni04BB" unicode="&#x4bb;" horiz-adv-x="599" 
d="M33 0l112 705h125l-46 -288q55 82 166 82q80 0 122 -49.5t25 -156.5l-46 -293h-125l46 291q18 110 -72 110q-59 0 -94.5 -37t-45.5 -101l-42 -263h-125z" />
    <glyph glyph-name="uni04BC" unicode="&#x4bc;" horiz-adv-x="962" 
d="M580 -10q-96 0 -170 38.5t-116.5 108t-44.5 162.5h-14q-97 0 -147 49.5t-35 140.5l9 54h126l-8 -52q-7 -50 9 -69t57 -19h11q16 89 61.5 159.5t121 111.5t181.5 41q83 0 145.5 -29t101.5 -81t53.5 -121t1.5 -148l-6 -37h-534q1 -93 58.5 -146t157.5 -53q68 0 124 18
t106 50l42 -100q-57 -37 -130 -57.5t-161 -20.5zM615 610q-95 0 -149.5 -58t-72.5 -149h412q2 95 -45.5 151t-144.5 56z" />
    <glyph glyph-name="uni04BD" unicode="&#x4bd;" horiz-adv-x="661" 
d="M415 -10q-74 0 -129.5 28t-85.5 79.5t-28 122.5h-16q-76 0 -106.5 34t-18.5 99l6 33h98l-5 -34q-5 -34 6 -51t43 -17h1q13 63 49.5 111.5t91 76t121.5 27.5q80 0 127 -35.5t64.5 -94t9.5 -127.5l-3 -26h-350q-3 -61 33 -96t103 -35q44 0 83.5 12.5t70.5 37.5l31 -82
q-35 -30 -87.5 -46.5t-108.5 -16.5zM441 414q-43 0 -72 -18.5t-46 -47t-24 -60.5h248q4 54 -21 90t-85 36z" />
    <glyph glyph-name="uni04BE" unicode="&#x4be;" horiz-adv-x="962" 
d="M580 -10q-96 0 -170 38.5t-116.5 108t-44.5 162.5h-14q-97 0 -147 49.5t-35 140.5l9 54h126l-8 -52q-7 -50 9 -69t57 -19h11q16 89 61.5 159.5t121 111.5t181.5 41q83 0 145.5 -29t101.5 -81t53.5 -121t1.5 -148l-6 -37h-534q1 -93 58.5 -146t157.5 -53q68 0 124 18
t106 50l42 -100q-57 -37 -130 -57.5t-161 -20.5zM615 610q-95 0 -149.5 -58t-72.5 -149h412q2 95 -45.5 151t-144.5 56zM586 -195q-51 0 -78.5 25.5t-27.5 68.5q0 48 32 86t81 57l33 -42q-35 -14 -51 -36t-16 -45q0 -21 14 -34t37 -13q14 0 26.5 3t27.5 8l11 -62
q-23 -7 -44 -11.5t-45 -4.5z" />
    <glyph glyph-name="uni04BF" unicode="&#x4bf;" horiz-adv-x="661" 
d="M415 -10q-74 0 -129.5 28t-85.5 79.5t-28 122.5h-16q-76 0 -106.5 34t-18.5 99l6 33h98l-5 -34q-5 -34 6 -51t43 -17h1q13 63 49.5 111.5t91 76t121.5 27.5q80 0 127 -35.5t64.5 -94t9.5 -127.5l-3 -26h-350q-3 -61 33 -96t103 -35q44 0 83.5 12.5t70.5 37.5l31 -82
q-35 -30 -87.5 -46.5t-108.5 -16.5zM441 414q-43 0 -72 -18.5t-46 -47t-24 -60.5h248q4 54 -21 90t-85 36zM435 -195q-51 0 -78.5 25.5t-27.5 68.5q0 48 32 86t81 57l33 -42q-35 -14 -51 -36t-16 -45q0 -21 14 -34t37 -13q14 0 26.5 3t27.5 8l11 -62q-23 -7 -44 -11.5
t-45 -4.5z" />
    <glyph glyph-name="uni04C0" unicode="&#x4c0;" horiz-adv-x="282" 
d="M38 0l112 705h128l-112 -705h-128z" />
    <glyph glyph-name="uni04C1" unicode="&#x4c1;" horiz-adv-x="1014" 
d="M-36 0l159 251q65 103 155 136l-158 318h134l142 -299h75l48 299h123l-48 -299h73l237 299h145l-265 -324q35 -19 58.5 -51t40.5 -79l89 -251h-131l-69 203q-17 52 -47 74t-80 22h-67l-48 -299h-123l48 299h-67q-51 0 -87.5 -22.5t-68.5 -73.5l-128 -203h-140zM585 760
q-78 0 -126 38t-62 102l66 22q15 -49 45.5 -70.5t81.5 -21.5q52 0 85.5 22t59.5 69l60 -21q-28 -69 -83 -104.5t-127 -35.5z" />
    <glyph glyph-name="uni04C2" unicode="&#x4c2;" horiz-adv-x="826" 
d="M-45 0l127 182q52 70 100 91l-123 216h128l111 -190h61l30 190h125l-30 -190h58l172 190h135l-200 -227q22 -13 38 -35t28 -50l78 -177h-127l-64 144q-15 34 -33.5 46t-47.5 12h-52l-32 -202h-125l32 202h-49q-32 0 -53 -12t-47 -46l-105 -144h-135zM466 551
q-73 0 -117.5 38.5t-55.5 100.5l63 22q14 -48 42 -70t73 -22t74 22.5t51 68.5l62 -21q-25 -69 -75.5 -104t-116.5 -35z" />
    <glyph glyph-name="uni04C3" unicode="&#x4c3;" horiz-adv-x="700" 
d="M371 -190q-39 0 -72 5.5t-51 15.5l21 95q36 -14 84 -14q54 0 90 36.5t47 106.5l9 54q17 102 -25 149t-134 47h-126l-48 -305h-128l112 705h128l-47 -293h110l232 293h142l-246 -308q90 -24 134 -93.5t24 -188.5l-10 -60q-20 -121 -82.5 -183t-163.5 -62z" />
    <glyph glyph-name="uni04C4" unicode="&#x4c4;" horiz-adv-x="570" 
d="M277 -187l-39 92q48 12 75 31t41 48t20 72l4 24q10 64 -17 93t-89 29h-82l-32 -202h-125l77 489h125l-30 -190h69l172 190h135l-184 -208q56 -18 87.5 -66.5t19.5 -128.5l-5 -28q-9 -60 -30.5 -108t-66 -82.5t-125.5 -54.5z" />
    <glyph glyph-name="uni04C5" unicode="&#x4c5;" horiz-adv-x="777" 
d="M516 -165l83 165h-91l95 598h-252l-25 -155q-22 -136 -58.5 -226t-91.5 -145t-132 -89l-54 96q42 21 76.5 49t61.5 71.5t48 110.5t37 166l37 229h498l-96 -602h107l-133 -268h-110z" />
    <glyph glyph-name="uni04C6" unicode="&#x4c6;" horiz-adv-x="627" 
d="M22 -14l-28 100q45 13 74 41t48 79t31 132l24 151h393l-62 -394h89l-112 -225h-105l65 130h-77l62 391h-154l-10 -62q-18 -113 -45.5 -183.5t-73 -107.5t-119.5 -52z" />
    <glyph glyph-name="uni04C7" unicode="&#x4c7;" horiz-adv-x="773" 
d="M398 -193l-8 91l47 5q78 9 91 90l49 311h-363l-48 -304h-128l112 705h128l-47 -294h363l47 294h128l-111 -698q-10 -66 -34.5 -108t-68 -63t-112.5 -26z" />
    <glyph glyph-name="uni04C8" unicode="&#x4c8;" horiz-adv-x="608" 
d="M242 -193l-8 91l47 5q41 3 62.5 25.5t28.5 64.5l33 209h-215l-32 -202h-125l77 489h125l-30 -189h215l30 189h125l-76 -482q-16 -99 -63.5 -144.5t-148.5 -52.5z" />
    <glyph glyph-name="uni04C9" unicode="&#x4c9;" horiz-adv-x="798" 
d="M38 0l112 705h128l-47 -294h363l47 294h128l-96 -602h106l-133 -268h-110l83 165h-90l48 304h-363l-48 -304h-128z" />
    <glyph glyph-name="uni04CA" unicode="&#x4ca;" horiz-adv-x="638" 
d="M33 0l77 489h125l-30 -189h215l30 189h125l-62 -394h89l-112 -225h-105l65 130h-77l32 202h-215l-32 -202h-125z" />
    <glyph glyph-name="uni04CB" unicode="&#x4cb;" horiz-adv-x="713" 
d="M442 -165h-114l42 268h99l27 172q-29 -13 -70.5 -21t-83.5 -8q-86 0 -145 35.5t-84 103t-10 162.5l25 158h128l-25 -157q-16 -100 17.5 -146t118.5 -46q36 0 75 7.5t72 23.5l51 318h128l-112 -705h-113z" />
    <glyph glyph-name="uni04CC" unicode="&#x4cc;" horiz-adv-x="603" 
d="M347 -130h-106l31 197h80l17 110q-55 -26 -111 -26q-107 0 -156 53.5t-33 157.5l20 127h125l-18 -116q-10 -64 11.5 -92.5t81.5 -28.5q27 0 49.5 6t44.5 19l33 212h125l-77 -489h-97z" />
    <glyph glyph-name="uni04CD" unicode="&#x4cd;" horiz-adv-x="893" 
d="M636 -165l83 165h-85l75 477l-258 -370h-74l-145 367l-76 -474h-116l112 705h102l175 -464l323 464h110l-96 -602h113l-133 -268h-110z" />
    <glyph glyph-name="uni04CE" unicode="&#x4ce;" horiz-adv-x="715" 
d="M33 0l77 489h97l124 -289l214 289h108l-63 -394h95l-112 -225h-105l65 130h-68l48 302l-163 -222h-59l-100 227l-48 -307h-110z" />
    <glyph glyph-name="uni04CF" unicode="&#x4cf;" horiz-adv-x="268" 
d="M33 0l112 705h125l-112 -705h-125z" />
    <glyph glyph-name="uni04D0" unicode="&#x4d0;" horiz-adv-x="744" 
d="M-38 0l432 705h105l206 -705h-123l-43 163h-345l-96 -163h-136zM430 566l-177 -301h258l-79 301h-2zM450 760q-78 0 -126 38t-62 102l66 22q15 -49 45.5 -70.5t81.5 -21.5q52 0 85.5 22t59.5 69l60 -21q-28 -69 -83 -104.5t-127 -35.5z" />
    <glyph glyph-name="uni04D1" unicode="&#x4d1;" horiz-adv-x="561" 
d="M200 -10q-45 0 -82 20.5t-59.5 54.5t-22.5 76q0 77 66.5 113t208.5 36h69l3 18q8 47 -14.5 72t-78.5 25q-89 0 -168 -50l-28 86q38 26 96 42t116 16q79 0 124 -29t61 -79t6 -114l-44 -277h-117l11 72q-25 -42 -64 -62t-83 -20zM239 76q47 0 82 30.5t43 82.5l5 29h-52
q-88 0 -123.5 -14.5t-35.5 -54.5q0 -35 23.5 -54t57.5 -19zM332 551q-73 0 -117.5 38.5t-55.5 100.5l63 22q14 -48 42 -70t73 -22t74 22.5t51 68.5l62 -21q-25 -69 -75.5 -104t-116.5 -35z" />
    <glyph glyph-name="uni04D2" unicode="&#x4d2;" horiz-adv-x="744" 
d="M-38 0l432 705h105l206 -705h-123l-43 163h-345l-96 -163h-136zM430 566l-177 -301h258l-79 301h-2zM495 790l19 115h114l-18 -115h-115zM307 790l18 115h115l-19 -115h-114z" />
    <glyph glyph-name="uni04D3" unicode="&#x4d3;" horiz-adv-x="561" 
d="M200 -10q-45 0 -82 20.5t-59.5 54.5t-22.5 76q0 77 66.5 113t208.5 36h69l3 18q8 47 -14.5 72t-78.5 25q-89 0 -168 -50l-28 86q38 26 96 42t116 16q79 0 124 -29t61 -79t6 -114l-44 -277h-117l11 72q-25 -42 -64 -62t-83 -20zM239 76q47 0 82 30.5t43 82.5l5 29h-52
q-88 0 -123.5 -14.5t-35.5 -54.5q0 -35 23.5 -54t57.5 -19zM373 597l17 115h115l-18 -115h-114zM184 597l18 115h114l-17 -115h-115z" />
    <glyph glyph-name="uni04D4" unicode="&#x4d4;" horiz-adv-x="993" 
d="M-75 0l550 705h539l-16 -102h-399l12 -194h335l-16 -102h-314l12 -205h291l-16 -102h-381l-9 163h-325l-122 -163h-141zM488 562l-224 -297h243l-17 297h-2z" />
    <glyph glyph-name="uni04D5" unicode="&#x4d5;" horiz-adv-x="879" 
d="M222 -10q-48 0 -90.5 17t-69 51t-26.5 83q0 77 66.5 113t208.5 36h69l2 13q8 50 -14 75t-78 25q-91 0 -167 -50l-29 88q38 26 95.5 42t116.5 16q116 0 156 -76q33 36 78 56t99 20q79 0 126 -35t65.5 -92.5t8.5 -125.5l-4 -28h-348q-3 -62 32.5 -97.5t102.5 -35.5
q92 0 154 50l31 -82q-35 -30 -87.5 -46.5t-109.5 -16.5q-73 0 -124.5 28t-76.5 78q-27 -54 -77.5 -80t-109.5 -26zM637 414q-61 0 -94.5 -37.5t-44.5 -86.5h243q3 52 -21.5 88t-82.5 36zM239 78q47 0 81 27.5t43 79.5l5 33h-50q-88 0 -124 -15.5t-36 -54.5q0 -33 23.5 -51.5
t57.5 -18.5z" />
    <glyph glyph-name="uni04D6" unicode="&#x4d6;" horiz-adv-x="597" 
d="M39 0l111 705h469l-16 -102h-346l-31 -194h325l-16 -102h-325l-33 -205h346l-16 -102h-468zM406 760q-78 0 -126 38t-62 102l66 22q15 -49 45.5 -70.5t81.5 -21.5q52 0 85.5 22t59.5 69l60 -21q-28 -69 -83 -104.5t-127 -35.5z" />
    <glyph glyph-name="uni04D7" unicode="&#x4d7;" horiz-adv-x="557" 
d="M287 -10q-74 0 -128.5 27.5t-84.5 77.5t-30 117q0 82 34.5 146.5t95.5 102.5t140 38q80 0 127 -35.5t64.5 -94t9.5 -127.5l-3 -26h-351q-2 -61 34 -96t103 -35q44 0 83.5 12.5t70.5 37.5l31 -82q-35 -30 -87.5 -46.5t-108.5 -16.5zM313 414q-42 0 -71 -17.5t-46 -46.5
t-25 -62h248q4 54 -21 90t-85 36zM352 551q-73 0 -117.5 38.5t-55.5 100.5l63 22q14 -48 42 -70t73 -22t74 22.5t51 68.5l62 -21q-25 -69 -75.5 -104t-116.5 -35z" />
    <glyph glyph-name="uni04D8" unicode="&#x4d8;" horiz-adv-x="785" 
d="M376 -10q-83 0 -145.5 29.5t-102 81.5t-53.5 121t-1 148l6 36h535q-1 93 -57 146t-157 53q-138 0 -238 -72l-41 100q56 40 131.5 61t166.5 21q98 0 172 -39t115.5 -110t41.5 -166q0 -83 -23 -157t-69.5 -131t-116.5 -89.5t-164 -32.5zM382 96q94 0 149 58t74 148h-408
q-3 -94 42.5 -150t142.5 -56z" />
    <glyph glyph-name="uni04D9" unicode="&#x4d9;" horiz-adv-x="557" 
d="M243 -10q-79 0 -127.5 35t-66.5 93t-8 127l4 28h350q3 61 -31.5 96t-101.5 35q-92 0 -156 -53l-31 86q35 30 88.5 46t109.5 16q110 0 175 -60t65 -161q0 -82 -34.5 -147.5t-95 -103t-140.5 -37.5zM246 75q62 0 94.5 37.5t43.5 88.5h-239q-3 -53 21.5 -89.5t79.5 -36.5z
" />
    <glyph glyph-name="uni04DA" unicode="&#x4da;" horiz-adv-x="785" 
d="M376 -10q-83 0 -145.5 29.5t-102 81.5t-53.5 121t-1 148l6 36h535q-1 93 -57 146t-157 53q-138 0 -238 -72l-41 100q56 40 131.5 61t166.5 21q98 0 172 -39t115.5 -110t41.5 -166q0 -83 -23 -157t-69.5 -131t-116.5 -89.5t-164 -32.5zM382 96q94 0 149 58t74 148h-408
q-3 -94 42.5 -150t142.5 -56zM466 790l19 115h114l-18 -115h-115zM278 790l18 115h115l-19 -115h-114z" />
    <glyph glyph-name="uni04DB" unicode="&#x4db;" horiz-adv-x="557" 
d="M243 -10q-79 0 -127.5 35t-66.5 93t-8 127l4 28h350q3 61 -31.5 96t-101.5 35q-92 0 -156 -53l-31 86q35 30 88.5 46t109.5 16q110 0 175 -60t65 -161q0 -82 -34.5 -147.5t-95 -103t-140.5 -37.5zM246 75q62 0 94.5 37.5t43.5 88.5h-239q-3 -53 21.5 -89.5t79.5 -36.5z
M354 597l17 115h115l-18 -115h-114zM165 597l18 115h114l-17 -115h-115z" />
    <glyph glyph-name="uni04DC" unicode="&#x4dc;" horiz-adv-x="1014" 
d="M-36 0l159 251q65 103 155 136l-158 318h134l142 -299h75l48 299h123l-48 -299h73l237 299h145l-265 -324q35 -19 58.5 -51t40.5 -79l89 -251h-131l-69 203q-17 52 -47 74t-80 22h-67l-48 -299h-123l48 299h-67q-51 0 -87.5 -22.5t-68.5 -73.5l-128 -203h-140zM630 790
l19 115h114l-18 -115h-115zM442 790l18 115h115l-19 -115h-114z" />
    <glyph glyph-name="uni04DD" unicode="&#x4dd;" horiz-adv-x="826" 
d="M-45 0l127 182q52 70 100 91l-123 216h128l111 -190h61l30 190h125l-30 -190h58l172 190h135l-200 -227q22 -13 38 -35t28 -50l78 -177h-127l-64 144q-15 34 -33.5 46t-47.5 12h-52l-32 -202h-125l32 202h-49q-32 0 -53 -12t-47 -46l-105 -144h-135zM507 597l17 115h115
l-18 -115h-114zM318 597l18 115h114l-17 -115h-115z" />
    <glyph glyph-name="uni04DE" unicode="&#x4de;" horiz-adv-x="634" 
d="M294 -10q-79 0 -148.5 21t-128.5 68l48 93q49 -40 106.5 -56.5t120.5 -16.5q40 0 75.5 11t58 36.5t22.5 68.5q0 92 -116 92h-171l16 101h165q64 0 102 27.5t38 82.5q0 47 -34.5 68t-93.5 21t-115 -17t-103 -51l-41 96q57 39 129 59.5t145 20.5t126.5 -22t83 -61.5
t29.5 -91.5q0 -69 -39 -115.5t-103 -64.5q51 -18 79.5 -58t28.5 -94q0 -72 -35.5 -120.5t-98.5 -73t-146 -24.5zM430 790l19 115h114l-18 -115h-115zM242 790l18 115h115l-19 -115h-114z" />
    <glyph glyph-name="uni04DF" unicode="&#x4df;" horiz-adv-x="519" 
d="M213 -10q-66 0 -120 17t-86 45l41 79q31 -25 77 -38t97 -13q61 0 95 15t34 55q0 52 -74 52h-129l14 90h118q39 0 62 16.5t23 47.5q0 25 -24 39t-78 14q-92 0 -176 -48l-28 82q46 27 104 41.5t127 14.5q89 0 139 -33t50 -87q0 -47 -26 -79.5t-68 -46.5q39 -11 59.5 -39
t20.5 -66q0 -80 -68.5 -119t-183.5 -39zM333 597l17 115h115l-18 -115h-114zM144 597l18 115h114l-17 -115h-115z" />
    <glyph glyph-name="uni04E0" unicode="&#x4e0;" horiz-adv-x="634" 
d="M298 -10q-82 0 -151.5 21t-128.5 68l48 92q49 -40 107 -56.5t122 -16.5q41 0 76.5 11.5t57.5 37t22 68.5q0 46 -30 69t-95 23h-139l13 80l243 212h-354l17 106h516l-14 -89l-242 -210q73 0 119.5 -25.5t68.5 -67t22 -90.5q0 -72 -35 -124.5t-97.5 -80.5t-145.5 -28z" />
    <glyph glyph-name="uni04E1" unicode="&#x4e1;" horiz-adv-x="516" 
d="M193 -190q-69 0 -131.5 17.5t-110.5 53.5l47 82q38 -31 82.5 -44.5t100.5 -13.5q70 0 108 34.5t38 96.5q0 44 -31.5 71t-95.5 27h-97l10 59l220 198h-282l15 98h425l-14 -84l-210 -186q59 -2 100 -26.5t62.5 -63.5t21.5 -86q0 -66 -30 -118.5t-87.5 -83.5t-140.5 -31z
" />
    <glyph glyph-name="uni04E2" unicode="&#x4e2;" horiz-adv-x="748" 
d="M38 0l112 705h119l-77 -487l456 487h96l-112 -705h-119l77 489l-457 -489h-95zM288 806l11 74h345l-11 -74h-345z" />
    <glyph glyph-name="uni04E3" unicode="&#x4e3;" horiz-adv-x="604" 
d="M33 0l77 489h113l-51 -322l296 322h104l-78 -489h-113l52 322l-296 -322h-104zM200 616l12 74h315l-12 -74h-315z" />
    <glyph glyph-name="uni04E4" unicode="&#x4e4;" horiz-adv-x="748" 
d="M38 0l112 705h119l-77 -487l456 487h96l-112 -705h-119l77 489l-457 -489h-95zM494 790l19 115h114l-18 -115h-115zM306 790l18 115h115l-19 -115h-114z" />
    <glyph glyph-name="uni04E5" unicode="&#x4e5;" horiz-adv-x="604" 
d="M33 0l77 489h113l-51 -322l296 322h104l-78 -489h-113l52 322l-296 -322h-104zM392 597l17 115h115l-18 -115h-114zM203 597l18 115h114l-17 -115h-115z" />
    <glyph glyph-name="uni04E6" unicode="&#x4e6;" horiz-adv-x="785" 
d="M381 -10q-94 0 -164 36t-108.5 105.5t-38.5 167.5q0 121 44.5 214.5t127.5 147.5t197 54q95 0 164.5 -36t108 -105t38.5 -167q0 -121 -44.5 -215t-127 -148t-197.5 -54zM383 100q75 0 127 39.5t79 108.5t27 157q0 101 -48 150.5t-132 49.5q-74 0 -126 -39t-79 -107.5
t-27 -157.5q0 -102 48 -151.5t131 -49.5zM503 790l19 115h114l-18 -115h-115zM315 790l18 115h115l-19 -115h-114z" />
    <glyph glyph-name="uni04E7" unicode="&#x4e7;" horiz-adv-x="590" 
d="M274 -10q-108 0 -169 60t-61 161q0 88 36.5 152.5t98.5 100t137 35.5q108 0 169 -60t61 -161q0 -88 -36.5 -152.5t-98 -100t-137.5 -35.5zM277 85q46 0 77.5 26t48.5 71t17 100q0 59 -28.5 90.5t-78.5 31.5q-45 0 -77 -26t-49 -70.5t-17 -100.5q0 -59 28.5 -90.5
t78.5 -31.5zM391 597l17 115h115l-18 -115h-114zM202 597l18 115h114l-17 -115h-115z" />
    <glyph glyph-name="uni04E8" unicode="&#x4e8;" horiz-adv-x="785" 
d="M381 -10q-94 0 -164 36t-108.5 105.5t-38.5 167.5q0 121 44.5 214.5t127.5 147.5t197 54q95 0 164.5 -36t108 -105t38.5 -167q0 -121 -44.5 -215t-127 -148t-197.5 -54zM436 605q-87 0 -143.5 -54.5t-77.5 -144.5h401q-1 101 -49 150t-131 49zM383 100q91 0 148 57.5
t76 152.5h-403v-9q0 -102 48 -151.5t131 -49.5z" />
    <glyph glyph-name="uni04E9" unicode="&#x4e9;" horiz-adv-x="590" 
d="M274 -10q-109 0 -169.5 60.5t-60.5 161.5q0 88 36.5 152.5t98.5 99.5t137 35q108 0 169 -60t61 -161q0 -88 -36.5 -152.5t-98 -100t-137.5 -35.5zM310 411q-54 0 -90.5 -34t-51.5 -91h263q-1 62 -32 93.5t-89 31.5zM279 78q54 0 91 34.5t52 92.5h-264q1 -63 32 -95
t89 -32z" />
    <glyph glyph-name="uni04EA" unicode="&#x4ea;" horiz-adv-x="785" 
d="M381 -10q-94 0 -164 36t-108.5 105.5t-38.5 167.5q0 121 44.5 214.5t127.5 147.5t197 54q95 0 164.5 -36t108 -105t38.5 -167q0 -121 -44.5 -215t-127 -148t-197.5 -54zM436 605q-87 0 -143.5 -54.5t-77.5 -144.5h401q-1 101 -49 150t-131 49zM383 100q91 0 148 57.5
t76 152.5h-403v-9q0 -102 48 -151.5t131 -49.5zM503 790l19 115h114l-18 -115h-115zM315 790l18 115h115l-19 -115h-114z" />
    <glyph glyph-name="uni04EB" unicode="&#x4eb;" horiz-adv-x="590" 
d="M274 -10q-109 0 -169.5 60.5t-60.5 161.5q0 88 36.5 152.5t98.5 99.5t137 35q108 0 169 -60t61 -161q0 -88 -36.5 -152.5t-98 -100t-137.5 -35.5zM310 411q-54 0 -90.5 -34t-51.5 -91h263q-1 62 -32 93.5t-89 31.5zM279 78q54 0 91 34.5t52 92.5h-264q1 -63 32 -95
t89 -32zM391 597l17 115h115l-18 -115h-114zM202 597l18 115h114l-17 -115h-115z" />
    <glyph glyph-name="uni04EC" unicode="&#x4ec;" horiz-adv-x="679" 
d="M263 -10q-73 0 -134.5 23.5t-99.5 60.5l52 102q80 -72 185 -72q97 0 156 56.5t78 147.5h-320l16 102h311q-4 90 -47.5 140.5t-146.5 50.5q-48 0 -95 -16t-94 -52l-37 102q44 38 109.5 59t130.5 21q93 0 164 -35t111 -106t40 -179q0 -85 -25 -159t-74 -129t-119.5 -86
t-160.5 -31zM427 790l19 115h114l-18 -115h-115zM239 790l18 115h115l-19 -115h-114z" />
    <glyph glyph-name="uni04ED" unicode="&#x4ed;" horiz-adv-x="512" 
d="M178 -10q-52 0 -99.5 16.5t-76.5 42.5l38 78q26 -22 63.5 -34.5t77.5 -12.5q70 0 109 36t53 86h-232l14 90h228q-4 53 -36.5 85.5t-101.5 32.5q-33 0 -70 -11.5t-68 -34.5l-29 81q30 24 79 39t95 15q123 0 184.5 -61t61.5 -161q0 -55 -17.5 -106t-53 -92t-90.5 -65
t-129 -24zM313 597l17 115h115l-18 -115h-114zM124 597l18 115h114l-17 -115h-115z" />
    <glyph glyph-name="uni04EE" unicode="&#x4ee;" horiz-adv-x="660" 
d="M136 0l146 220l-223 485h130l168 -374l250 374h139l-471 -705h-139zM237 806l11 74h345l-11 -74h-345z" />
    <glyph glyph-name="uni04EF" unicode="&#x4ef;" horiz-adv-x="540" 
d="M49 -180l122 200l-129 469h126l83 -342l195 342h131l-400 -669h-128zM159 616l12 74h315l-12 -74h-315z" />
    <glyph glyph-name="uni04F0" unicode="&#x4f0;" horiz-adv-x="660" 
d="M136 0l146 220l-223 485h130l168 -374l250 374h139l-471 -705h-139zM443 790l19 115h114l-18 -115h-115zM255 790l18 115h115l-19 -115h-114z" />
    <glyph glyph-name="uni04F1" unicode="&#x4f1;" horiz-adv-x="540" 
d="M49 -180l122 200l-129 469h126l83 -342l195 342h131l-400 -669h-128zM351 597l17 115h115l-18 -115h-114zM162 597l18 115h114l-17 -115h-115z" />
    <glyph glyph-name="uni04F2" unicode="&#x4f2;" horiz-adv-x="660" 
d="M136 0l146 220l-223 485h130l168 -374l250 374h139l-471 -705h-139zM295 765l100 174h112l-142 -174h-70zM441 765l110 174h112l-151 -174h-71z" />
    <glyph glyph-name="uni04F3" unicode="&#x4f3;" horiz-adv-x="540" 
d="M49 -180l122 200l-129 469h126l83 -342l195 342h131l-400 -669h-128zM346 554l67 203h105l-106 -203h-66zM197 554l68 203h105l-107 -203h-66z" />
    <glyph glyph-name="uni04F4" unicode="&#x4f4;" horiz-adv-x="697" 
d="M453 0l43 275q-29 -13 -70.5 -21t-83.5 -8q-86 0 -145 35.5t-84 103t-10 162.5l25 158h128l-25 -157q-16 -100 17.5 -146t118.5 -46q36 0 75 7.5t72 23.5l51 318h128l-112 -705h-128zM454 790l19 115h114l-18 -115h-115zM266 790l18 115h115l-19 -115h-114z" />
    <glyph glyph-name="uni04F5" unicode="&#x4f5;" horiz-adv-x="574" 
d="M341 0l28 177q-55 -26 -111 -26q-107 0 -156 53.5t-33 157.5l20 127h125l-18 -116q-10 -64 11.5 -92.5t81.5 -28.5q27 0 49.5 6t44.5 19l33 212h125l-77 -489h-123zM371 597l17 115h115l-18 -115h-114zM182 597l18 115h114l-17 -115h-115z" />
    <glyph glyph-name="uni04F6" unicode="&#x4f6;" horiz-adv-x="559" 
d="M38 0l112 705h466l-17 -107h-338l-79 -495h101l-43 -268h-114l26 165h-114z" />
    <glyph glyph-name="uni04F7" unicode="&#x4f7;" horiz-adv-x="457" 
d="M33 0l77 489h370l-15 -98h-245l-47 -296h80l-36 -225h-106l21 130h-99z" />
    <glyph glyph-name="uni04F8" unicode="&#x4f8;" horiz-adv-x="901" 
d="M38 0l112 705h128l-47 -294h137q118 0 176.5 -52t58.5 -134q0 -110 -68 -167.5t-201 -57.5h-296zM657 0l112 705h128l-112 -705h-128zM182 102h154q143 0 143 116q0 47 -30.5 69t-97.5 22h-136zM567 790l19 115h114l-18 -115h-115zM379 790l18 115h115l-19 -115h-114z
" />
    <glyph glyph-name="uni04F9" unicode="&#x4f9;" horiz-adv-x="776" 
d="M33 0l77 489h125l-26 -162h126q86 0 130 -40.5t44 -107.5q0 -86 -59.5 -132.5t-153.5 -46.5h-263zM541 0l77 489h125l-77 -489h-125zM171 82h113q53 0 81 22.5t28 66.5q0 74 -90 74h-106zM480 597l17 115h115l-18 -115h-114zM291 597l18 115h114l-17 -115h-115z" />
    <glyph glyph-name="uni04FA" unicode="&#x4fa;" horiz-adv-x="601" 
d="M36 -185l-7 87l53 4q98 9 110 94h-112l48 301h-95l16 93h94l49 311h466l-17 -107h-338l-33 -204h181l-14 -93h-181l-31 -198h101l-12 -80q-15 -97 -64 -146.5t-147 -56.5z" />
    <glyph glyph-name="uni04FB" unicode="&#x4fb;" horiz-adv-x="481" 
d="M16 -185l-1 87l58 5q35 3 53 28t25 65h-94l30 186h-91l14 88h91l34 215h370l-16 -98h-245l-18 -117h140l-14 -88h-140l-14 -88h80l-12 -76q-16 -99 -63 -148t-121 -54z" />
    <glyph glyph-name="uni04FC" unicode="&#x4fc;" horiz-adv-x="672" 
d="M374 -187l-23 102q59 7 87.5 29.5t28.5 68.5q0 18 -7.5 41.5t-24.5 54.5l-93 161l-230 -270h-157l324 364l-202 341h140l148 -260l221 260h157l-312 -352l115 -195q26 -43 36 -80.5t10 -67.5q0 -94 -56 -139.5t-162 -57.5z" />
    <glyph glyph-name="uni04FD" unicode="&#x4fd;" horiz-adv-x="560" 
d="M293 -187l-19 88q46 5 71 23t25 58q0 18 -9.5 39.5t-29.5 53.5l-59 92l-158 -167h-149l245 254l-155 235h141l98 -156l140 156h149l-228 -241l81 -122q29 -43 42 -78t13 -70q0 -79 -51 -118t-147 -47z" />
    <glyph glyph-name="uni04FE" unicode="&#x4fe;" horiz-adv-x="672" 
d="M-45 0l324 364l-202 341h140l148 -260l221 260h157l-312 -352l209 -353h-142l-156 270l-230 -270h-157zM120 319l14 88h455l-14 -88h-455z" />
    <glyph glyph-name="uni04FF" unicode="&#x4ff;" horiz-adv-x="560" 
d="M-35 0l245 254l-154 235h140l98 -157l141 157h149l-228 -242l163 -247h-140l-107 166l-158 -166h-149zM45 202l14 88h455l-14 -88h-455z" />
    <glyph glyph-name="uni0510" unicode="&#x510;" horiz-adv-x="634" 
d="M298 -10q-134 0 -198 52t-58 140q5 68 45.5 116.5t108.5 66.5q-44 18 -66.5 55.5t-18.5 91.5q5 61 41.5 106.5t100 71t148.5 25.5q80 0 142 -22.5t102 -61.5l-54 -95q-74 71 -197 71q-74 0 -115.5 -30.5t-43.5 -80.5q-2 -46 26.5 -67t89.5 -21h154l-16 -102h-171
q-70 0 -108.5 -28t-40.5 -81q-4 -99 151 -99q73 0 130.5 18t103.5 52l28 -98q-52 -37 -124.5 -58.5t-159.5 -21.5z" />
    <glyph glyph-name="uni0511" unicode="&#x511;" horiz-adv-x="519" 
d="M226 -10q-103 0 -155 34.5t-52 92.5q0 57 31.5 92t83.5 46q-31 13 -48 39.5t-17 58.5q0 51 32 83t86 47.5t118 15.5q61 0 115.5 -14.5t86.5 -39.5l-42 -80q-30 21 -69.5 32.5t-88.5 11.5q-61 0 -92.5 -16t-31.5 -51q0 -23 18 -36.5t53 -13.5h114l-14 -90h-125
q-44 0 -70 -17t-26 -52q0 -27 25.5 -40t80.5 -13q53 0 105.5 12t92.5 37l23 -82q-49 -29 -108.5 -43t-125.5 -14z" />
    <glyph glyph-name="uni0512" unicode="&#x512;" horiz-adv-x="752" 
d="M374 -193l-8 91l47 5q81 9 94 90l96 605h-252l-25 -155q-22 -136 -58.5 -226t-91.5 -145t-132 -89l-54 96q42 21 76.5 49t61.5 71.5t48 110.5t37 166l37 229h498l-111 -698q-16 -99 -66.5 -144.5t-151.5 -52.5z" />
    <glyph glyph-name="uni0513" unicode="&#x513;" horiz-adv-x="597" 
d="M232 -193l-8 91l47 5q78 9 91 90l63 398h-155l-10 -62q-18 -113 -45.5 -183.5t-73 -107.5t-119.5 -52l-28 100q45 13 74 41t48 79t31 132l24 151h394l-78 -491q-15 -92 -62 -136.5t-148 -51.5z" />
    <glyph glyph-name="uni051A" unicode="&#x51a;" horiz-adv-x="785" 
d="M538 -213l-70 150q-13 28 -36 40.5t-65 12.5h1q-91 3 -157.5 40t-103.5 105t-37 164q0 121 44.5 214.5t127.5 147.5t197 54q95 0 164.5 -36t108 -105t38.5 -167q0 -138 -58 -241t-163 -148q38 -16 60 -63l59 -127zM383 100q75 0 127 39.5t79 108.5t27 157
q0 101 -48 150.5t-132 49.5q-74 0 -126 -39t-79 -107.5t-27 -157.5q0 -102 48 -151.5t131 -49.5z" />
    <glyph glyph-name="uni051B" unicode="&#x51b;" horiz-adv-x="614" 
d="M350 -180l40 253q-28 -39 -69.5 -61t-93.5 -22q-83 0 -133.5 57t-50.5 154q0 84 29.5 151.5t84.5 107t131 39.5q54 0 96 -25t61 -74l14 89h122l-106 -669h-125zM276 85q46 0 77.5 26t48.5 71t17 100q0 59 -28.5 90.5t-78.5 31.5q-45 0 -77 -26t-49 -70.5t-17 -100.5
q0 -59 28.5 -90.5t78.5 -31.5z" />
    <glyph glyph-name="uni051C" unicode="&#x51c;" horiz-adv-x="1113" 
d="M232 0l-138 705h125l94 -520l265 520h96l95 -525l264 525h132l-362 -705h-106l-98 508l-261 -508h-106z" />
    <glyph glyph-name="uni051D" unicode="&#x51d;" horiz-adv-x="867" 
d="M168 0l-115 489h120l70 -341l180 341h88l71 -348l182 348h128l-270 -489h-109l-69 315l-168 -315h-108z" />
    <glyph glyph-name="uni0524" unicode="&#x524;" horiz-adv-x="812" 
d="M611 -165l26 165h-114l95 598h-357l-95 -598h-128l112 705h613l-96 -602h101l-43 -268h-114z" />
    <glyph glyph-name="uni0525" unicode="&#x525;" horiz-adv-x="635" 
d="M451 -130l21 130h-102l62 391h-212l-62 -391h-125l77 489h462l-62 -394h83l-36 -225h-106z" />
    <glyph glyph-name="uni0526" unicode="&#x526;" horiz-adv-x="741" 
d="M565 -165l26 165h-114l25 157q17 101 -17.5 146.5t-119.5 45.5q-36 0 -75.5 -6.5t-72.5 -23.5l-51 -319h-128l112 705h128l-44 -275q29 14 71.5 21.5t84.5 7.5q131 0 197 -78t43 -223l-9 -55h101l-43 -268h-114z" />
    <glyph glyph-name="uni0527" unicode="&#x527;" horiz-adv-x="620" 
d="M33 0l112 705h125l-46 -288q55 82 166 82q80 0 122 -49.5t25 -156.5l-31 -198h81l-36 -225h-106l21 130h-100l46 291q18 110 -72 110q-59 0 -94.5 -37t-45.5 -101l-42 -263h-125z" />
    <glyph glyph-name="uni0528" unicode="&#x528;" horiz-adv-x="773" 
d="M-95 -193l-8 91l47 5q41 5 63 26.5t29 63.5l114 712h128l-47 -294h363l47 294h128l-112 -705h-128l48 304h-363l-47 -297q-16 -99 -64.5 -144.5t-152.5 -52.5z" />
    <glyph glyph-name="uni0529" unicode="&#x529;" horiz-adv-x="608" 
d="M-98 -193l-8 91l47 5q78 9 91 90l78 496h125l-30 -189h215l30 189h125l-77 -489h-125l32 202h-215l-31 -195q-15 -99 -63 -144.5t-149 -52.5z" />
    <glyph glyph-name="uni052E" unicode="&#x52e;" horiz-adv-x="797" 
d="M596 -165l26 165h-114l95 598h-252l-25 -155q-22 -136 -58.5 -226t-91.5 -145t-132 -89l-54 96q42 21 76.5 49t61.5 71.5t48 110.5t37 166l37 229h498l-96 -602h101l-43 -268h-114z" />
    <glyph glyph-name="uni052F" unicode="&#x52f;" horiz-adv-x="627" 
d="M22 -14l-28 100q45 13 74 41t48 79t31 132l24 151h393l-62 -394h80l-36 -225h-106l21 130h-99l62 391h-154l-10 -62q-18 -113 -45.5 -183.5t-73 -107.5t-119.5 -52z" />
    <glyph glyph-name="uni1E08" unicode="&#x1e08;" horiz-adv-x="679" 
d="M392 -10q-93 0 -165.5 35.5t-114 106.5t-41.5 178q0 86 25.5 159.5t74 128.5t119.5 86t161 31q73 0 135 -23t99 -61l-52 -102q-79 72 -185 72q-77 0 -131 -37.5t-82 -102.5t-28 -147q0 -111 51 -160.5t148 -49.5q47 0 92 16t92 52l37 -101q-44 -39 -107 -60t-128 -21z
M349 -195q-29 0 -55.5 5.5t-44.5 15.5l23 56q17 -8 34.5 -12.5t38.5 -4.5q57 0 57 32q0 21 -35 21q-9 0 -18.5 -1t-23.5 -5l-17 18l28 90h66l-18 -57h9q38 0 60.5 -17t22.5 -49q0 -42 -36 -67t-91 -25zM408 765l130 174h133l-174 -174h-89z" />
    <glyph glyph-name="uni1E09" unicode="&#x1e09;" horiz-adv-x="472" 
d="M270 -10q-117 0 -175 61.5t-58 161.5q0 54 16.5 105.5t50.5 92t86.5 64.5t123.5 24q49 0 94 -14.5t73 -39.5l-39 -87q-47 44 -120 44q-57 0 -91.5 -28t-50 -71t-15.5 -89q0 -57 28.5 -92t94.5 -35q28 0 59.5 11t57.5 33l29 -89q-28 -25 -74.5 -38.5t-89.5 -13.5z
M223 -195q-29 0 -55.5 5.5t-44.5 15.5l23 56q17 -8 34.5 -12.5t38.5 -4.5q57 0 57 32q0 21 -35 21q-9 0 -18.5 -1t-23.5 -5l-17 18l28 90h66l-18 -57h9q38 0 60.5 -17t22.5 -49q0 -42 -36 -67t-91 -25zM281 554l133 203h125l-174 -203h-84z" />
    <glyph glyph-name="uni1E0C" unicode="&#x1e0c;" horiz-adv-x="762" 
d="M38 0l112 705h226q168 0 259 -79t92 -222q0 -113 -44.5 -205t-134 -145.5t-225.5 -53.5h-285zM183 106h142q94 0 153 39t87 106t28 151q0 96 -54.5 146.5t-162.5 50.5h-115zM252 -204l18 116h122l-18 -116h-122z" />
    <glyph glyph-name="uni1E0D" unicode="&#x1e0d;" 
d="M220 -10q-83 0 -133.5 57t-50.5 154q0 84 29.5 151.5t84.5 107t131 39.5q53 0 94 -23.5t61 -70.5l47 300h125l-112 -705h-122l13 79q-28 -42 -70.5 -65.5t-96.5 -23.5zM269 85q46 0 77.5 26t48.5 71t17 100q0 59 -28.5 90.5t-78.5 31.5q-45 0 -77 -26t-49 -70.5
t-17 -100.5q0 -59 28.5 -90.5t78.5 -31.5zM175 -204l18 116h122l-18 -116h-122z" />
    <glyph glyph-name="uni1E0E" unicode="&#x1e0e;" horiz-adv-x="762" 
d="M38 0l112 705h226q168 0 259 -79t92 -222q0 -113 -44.5 -205t-134 -145.5t-225.5 -53.5h-285zM183 106h142q94 0 153 39t87 106t28 151q0 96 -54.5 146.5t-162.5 50.5h-115zM162 -165l12 74h315l-12 -74h-315z" />
    <glyph glyph-name="uni1E0F" unicode="&#x1e0f;" 
d="M220 -10q-83 0 -133.5 57t-50.5 154q0 84 29.5 151.5t84.5 107t131 39.5q53 0 94 -23.5t61 -70.5l47 300h125l-112 -705h-122l13 79q-28 -42 -70.5 -65.5t-96.5 -23.5zM269 85q46 0 77.5 26t48.5 71t17 100q0 59 -28.5 90.5t-78.5 31.5q-45 0 -77 -26t-49 -70.5
t-17 -100.5q0 -59 28.5 -90.5t78.5 -31.5zM85 -165l12 74h315l-12 -74h-315z" />
    <glyph glyph-name="uni1E14" unicode="&#x1e14;" horiz-adv-x="597" 
d="M39 0l111 705h469l-16 -102h-346l-31 -194h325l-16 -102h-325l-33 -205h346l-16 -102h-468zM392 894l-102 132h119l61 -132h-78zM256 783l12 74h315l-12 -74h-315z" />
    <glyph glyph-name="uni1E15" unicode="&#x1e15;" horiz-adv-x="543" 
d="M280 -10q-74 0 -128.5 27.5t-84.5 77.5t-30 117q0 82 34.5 146.5t95.5 102.5t140 38q80 0 127 -35.5t64.5 -94t9.5 -127.5l-3 -26h-351q-2 -61 34 -96t103 -35q44 0 83.5 12.5t70.5 37.5l31 -82q-35 -30 -87.5 -46.5t-108.5 -16.5zM306 414q-42 0 -71 -17.5t-46 -46.5
t-25 -62h248q4 54 -21 90t-85 36zM309 678l-103 132h119l62 -132h-78zM173 567l12 74h315l-12 -74h-315z" />
    <glyph glyph-name="uni1E16" unicode="&#x1e16;" horiz-adv-x="597" 
d="M39 0l111 705h469l-16 -102h-346l-31 -194h325l-16 -102h-325l-33 -205h346l-16 -102h-468zM392 894l85 132h120l-127 -132h-78zM256 783l12 74h315l-12 -74h-315z" />
    <glyph glyph-name="uni1E17" unicode="&#x1e17;" horiz-adv-x="543" 
d="M280 -10q-74 0 -128.5 27.5t-84.5 77.5t-30 117q0 82 34.5 146.5t95.5 102.5t140 38q80 0 127 -35.5t64.5 -94t9.5 -127.5l-3 -26h-351q-2 -61 34 -96t103 -35q44 0 83.5 12.5t70.5 37.5l31 -82q-35 -30 -87.5 -46.5t-108.5 -16.5zM306 414q-42 0 -71 -17.5t-46 -46.5
t-25 -62h248q4 54 -21 90t-85 36zM309 678l85 132h120l-127 -132h-78zM173 567l12 74h315l-12 -74h-315z" />
    <glyph glyph-name="uni1E1C" unicode="&#x1e1c;" horiz-adv-x="597" 
d="M39 0l111 705h469l-16 -102h-346l-31 -194h325l-16 -102h-325l-33 -205h346l-16 -102h-468zM273 -195q-29 0 -55.5 5.5t-44.5 15.5l23 56q17 -8 34.5 -12.5t38.5 -4.5q57 0 57 32q0 21 -35 21q-9 0 -18.5 -1t-23.5 -5l-17 18l28 90h66l-18 -57h9q38 0 60.5 -17t22.5 -49
q0 -42 -36 -67t-91 -25zM414 760q-76 0 -123 47t-46 123l71 9q-1 -49 26.5 -76.5t76.5 -27.5q48 0 80 27.5t40 76.5l71 -9q-12 -78 -65.5 -124t-130.5 -46z" />
    <glyph glyph-name="uni1E1D" unicode="&#x1e1d;" horiz-adv-x="543" 
d="M280 -10q-74 0 -128.5 27.5t-84.5 77.5t-30 117q0 82 34.5 146.5t95.5 102.5t140 38q80 0 127 -35.5t64.5 -94t9.5 -127.5l-3 -26h-351q-2 -61 34 -96t103 -35q44 0 83.5 12.5t70.5 37.5l31 -82q-35 -30 -87.5 -46.5t-108.5 -16.5zM306 414q-42 0 -71 -17.5t-46 -46.5
t-25 -62h248q4 54 -21 90t-85 36zM233 -195q-29 0 -55.5 5.5t-44.5 15.5l23 56q17 -8 34.5 -12.5t38.5 -4.5q57 0 57 32q0 21 -35 21q-9 0 -18.5 -1t-23.5 -5l-17 18l28 90h66l-18 -57h9q38 0 60.5 -17t22.5 -49q0 -42 -36 -67t-91 -25zM339 551q-72 0 -114 52.5t-37 140.5
l71 7q-2 -60 20.5 -92t64.5 -32t69.5 32t35.5 92l71 -7q-10 -89 -58.5 -141t-122.5 -52z" />
    </font>
</defs>
</svg>
