<?xml version="1.0" standalone="no"?>
<!DOCTYPE svg PUBLIC "-//W3C//DTD SVG 1.1//EN" "http://www.w3.org/Graphics/SVG/1.1/DTD/svg11.dtd" >
<svg xmlns="http://www.w3.org/2000/svg" xmlns:xlink="http://www.w3.org/1999/xlink" version="1.1">
<metadata>
Created by FontForge 20170731 at Mon Jun 29 15:02:13 2020
 By Aleksey,,,
Copyright 2016 The Nunito Sans Project Authors (https://github.com/Fonthausen/NunitoSans)
</metadata>
<defs>
<font id="NunitoSans-ExtraBold" horiz-adv-x="0" >
  <font-face 
    font-family="Nunito Sans ExtraBold"
    font-weight="800"
    font-stretch="normal"
    units-per-em="1000"
    panose-1="0 0 0 0 0 0 0 0 0 0"
    ascent="800"
    descent="-200"
    x-height="491"
    cap-height="705"
    bbox="-277 -284 1353 1055"
    underline-thickness="49"
    underline-position="-159"
    unicode-range="U+000D-FB02"
  />
<missing-glyph horiz-adv-x="500" 
d="M50 -180v885h400v-885h-400zM100 -130h300v785h-300v-785z" />
    <glyph glyph-name="fi" unicode="fi" horiz-adv-x="642" 
d="M427 586v141h162v-141h-162zM96 0v378h-93v113h93q2 104 60.5 156.5t178.5 59.5l48 3l6 -110l-37 -2q-58 -3 -81.5 -24.5t-23.5 -65.5v-17h336v-491h-151v378h-185v-378h-151z" />
    <glyph glyph-name="fl" unicode="fl" horiz-adv-x="716" 
d="M96 0v378h-93v113h93q2 104 60.5 156.5t178.5 59.5l55 4l9 -110l-47 -3q-58 -3 -81.5 -24.5t-23.5 -65.5v-17h128v-113h-128v-378h-151zM623 -11q-95 0 -139 49.5t-44 147.5v519h151v-513q0 -80 71 -80q11 0 21.5 1t20.5 4l-2 -117q-38 -11 -79 -11z" />
    <glyph glyph-name=".notdef" horiz-adv-x="500" 
d="M50 -180v885h400v-885h-400zM100 -130h300v785h-300v-785z" />
    <glyph glyph-name=".null" 
 />
    <glyph glyph-name="nonmarkingreturn" horiz-adv-x="333" 
 />
    <glyph glyph-name="NULL" 
 />
    <glyph glyph-name="NULL" 
 />
    <glyph glyph-name="CR" unicode="&#xd;" horiz-adv-x="278" 
 />
    <glyph glyph-name="space" unicode=" " horiz-adv-x="278" 
 />
    <glyph glyph-name="exclam" unicode="!" horiz-adv-x="260" 
d="M84 223l-47 482h186l-48 -482h-91zM49 0v160h162v-160h-162z" />
    <glyph glyph-name="quotedbl" unicode="&#x22;" horiz-adv-x="480" 
d="M77 407l-36 298h174l-36 -298h-102zM302 407l-36 298h174l-36 -298h-102z" />
    <glyph glyph-name="numbersign" unicode="#" horiz-adv-x="600" 
d="M77 0l32 166h-60v93h78l38 195h-94v93h111l32 158h101l-32 -158h107l31 158h101l-31 -158h60v-93h-78l-39 -195h95v-93h-111l-33 -166h-101l33 166h-107l-32 -166h-101zM228 259h106l38 195h-106z" />
    <glyph glyph-name="dollar" unicode="$" horiz-adv-x="600" 
d="M250 -115v110q-65 6 -123.5 25t-99.5 51l44 122q46 -33 104 -52t122 -19q68 0 97.5 22t29.5 54q0 28 -20 46t-72 29l-110 24q-182 40 -182 194q0 84 57 142t153 73v114h119v-112q53 -6 101 -25t81 -51l-44 -114q-75 65 -192 65q-57 0 -90.5 -24t-33.5 -62q0 -28 20 -45
t68 -28l109 -24q188 -41 188 -190q0 -85 -57.5 -140t-149.5 -71v-114h-119z" />
    <glyph glyph-name="percent" unicode="%" horiz-adv-x="954" 
d="M321 -30l-97 57l410 708l96 -57zM220 285q-87 0 -135 58.5t-48 157.5t48.5 157t134.5 58t134.5 -58.5t48.5 -156.5q0 -99 -48.5 -157.5t-134.5 -58.5zM220 381q29 0 45.5 28.5t16.5 91.5t-16.5 90.5t-45.5 27.5q-30 0 -46 -27t-16 -91q0 -65 16 -92.5t46 -27.5zM735 -11
q-87 0 -135 58.5t-48 158.5q0 99 48.5 156.5t134.5 57.5t134.5 -58t48.5 -156q0 -100 -48 -158.5t-135 -58.5zM735 86q30 0 46 28t16 92q0 62 -16.5 90t-45.5 28q-30 0 -46 -27t-16 -91q0 -65 16 -92.5t46 -27.5z" />
    <glyph glyph-name="ampersand" unicode="&#x26;" horiz-adv-x="745" 
d="M309 -11q-78 0 -135.5 25t-88.5 69t-31 103q0 68 38 117.5t102 85.5l1 1q-35 36 -52 73.5t-17 76.5q0 52 26 91.5t73 62t109 22.5q86 0 136 -44t50 -117q0 -55 -30 -100.5t-95 -83.5l119 -122q19 39 29.5 85t13.5 95h124q-6 -153 -78 -266l168 -163h-183l-67 69
q-45 -38 -99 -59t-113 -21zM334 613q-32 0 -51 -19t-19 -50q0 -24 11.5 -44.5t39.5 -50.5q46 25 65 48t19 52q0 32 -17.5 48t-47.5 16zM318 106q67 0 118 44l-160 160q-72 -44 -72 -112q0 -43 29.5 -67.5t84.5 -24.5z" />
    <glyph glyph-name="quotesingle" unicode="'" horiz-adv-x="255" 
d="M77 407l-36 298h174l-36 -298h-102z" />
    <glyph glyph-name="parenleft" unicode="(" horiz-adv-x="382" 
d="M246 -197q-80 109 -113.5 224.5t-33.5 235.5q0 121 33.5 235.5t113.5 224.5l101 -41q-31 -78 -50 -146t-27.5 -134t-8.5 -139q0 -72 8.5 -138.5t27.5 -134.5t50 -146z" />
    <glyph glyph-name="parenright" unicode=")" horiz-adv-x="382" 
d="M135 -197l-100 41q31 79 49.5 147.5t27.5 134t9 137.5t-9 137.5t-27.5 134t-49.5 147.5l100 41q81 -110 114.5 -225t33.5 -235t-33.5 -235.5t-114.5 -224.5z" />
    <glyph glyph-name="asterisk" unicode="*" horiz-adv-x="454" 
d="M171 329l-90 51l68 102l-120 -8v102l121 -9l-68 102l90 52l55 -122l55 122l90 -53l-68 -101l121 9v-102l-121 8l68 -102l-90 -52l-55 123z" />
    <glyph glyph-name="plus" unicode="+" horiz-adv-x="600" 
d="M246 40v195h-190v104h190v189h108v-189h190v-104h-190v-195h-108z" />
    <glyph glyph-name="comma" unicode="," horiz-adv-x="260" 
d="M121 -144l-59 47q50 50 61 97h-74v160h162v-103q0 -57 -20 -104t-70 -97z" />
    <glyph glyph-name="hyphen" unicode="-" horiz-adv-x="440" 
d="M65 209v119h309v-119h-309z" />
    <glyph glyph-name="period" unicode="." horiz-adv-x="260" 
d="M49 0v160h162v-160h-162z" />
    <glyph glyph-name="slash" unicode="/" horiz-adv-x="331" 
d="M91 -76l-111 33l260 808l111 -33z" />
    <glyph glyph-name="zero" unicode="0" horiz-adv-x="600" 
d="M300 -11q-128 0 -195.5 95t-67.5 271t67.5 268.5t195.5 92.5t195.5 -92.5t67.5 -268.5t-67.5 -271t-195.5 -95zM300 115q58 0 86 57.5t28 182.5t-28 180t-86 55t-86 -55t-28 -180t28 -182.5t86 -57.5z" />
    <glyph glyph-name="one" unicode="1" horiz-adv-x="600" 
d="M100 0v127h158v405l-121 -71l-59 113l225 131h110v-578h148v-127h-461z" />
    <glyph glyph-name="two" unicode="2" horiz-adv-x="600" 
d="M74 0v115l221 232q42 46 60.5 80.5t18.5 69.5q0 90 -111 90q-43 0 -86 -16.5t-84 -50.5l-50 114q44 38 108.5 60t132.5 22q118 0 180.5 -52.5t62.5 -149.5q0 -64 -29.5 -122.5t-96.5 -126.5l-136 -138h288v-127h-479z" />
    <glyph glyph-name="three" unicode="3" horiz-adv-x="600" 
d="M283 -11q-74 0 -141 21t-110 57l49 117q89 -66 196 -66q122 0 122 91q0 84 -114 84h-118v125h103q50 0 79 23t29 64q0 82 -107 82q-100 0 -178 -67l-49 114q44 39 108 60.5t133 21.5q114 0 178 -51t64 -140q0 -55 -28 -97t-78 -61q60 -17 93.5 -62.5t33.5 -109.5
q0 -96 -71 -151t-194 -55z" />
    <glyph glyph-name="four" unicode="4" horiz-adv-x="600" 
d="M333 0v126h-297v111l323 468h126v-457h96v-122h-96v-126h-152zM333 248v230l-156 -230h156z" />
    <glyph glyph-name="five" unicode="5" horiz-adv-x="600" 
d="M301 -11q-70 0 -136.5 21.5t-107.5 56.5l49 117q90 -66 192 -66q57 0 88.5 28t31.5 75q0 48 -30.5 77t-82.5 29q-75 0 -128 -57h-100v435h446v-127h-297v-158q49 32 118 32q67 0 117 -28.5t78 -79.5t28 -118q0 -71 -32 -124t-92 -83t-142 -30z" />
    <glyph glyph-name="six" unicode="6" horiz-adv-x="600" 
d="M327 -11q-135 0 -208.5 92.5t-73.5 261.5q0 177 83 275t230 98q57 0 112.5 -20t97.5 -56l-50 -115q-36 31 -77.5 46.5t-84.5 15.5q-164 0 -164 -215v-19q21 50 65 77.5t101 27.5q60 0 106.5 -29.5t73.5 -81t27 -117.5q0 -70 -30.5 -124.5t-84 -85.5t-123.5 -31zM319 110
q46 0 74.5 31.5t28.5 82.5q0 50 -28.5 82t-74.5 32q-47 0 -75.5 -32t-28.5 -82q0 -51 28.5 -82.5t75.5 -31.5z" />
    <glyph glyph-name="seven" unicode="7" horiz-adv-x="600" 
d="M70 0l312 577h-335v128h507v-116l-313 -589h-171z" />
    <glyph glyph-name="eight" unicode="8" horiz-adv-x="600" 
d="M300 -11q-126 0 -197 53.5t-71 149.5q0 62 31.5 107t83.5 64q-44 22 -70.5 64.5t-26.5 96.5q0 90 67.5 141t182.5 51t183 -51t68 -141q0 -55 -26.5 -98t-70.5 -63q52 -20 83 -65t31 -106q0 -96 -71 -149.5t-197 -53.5zM300 416q51 0 79.5 24.5t28.5 66.5t-28.5 66
t-79.5 24t-79 -24t-28 -66t28 -66.5t79 -24.5zM300 108q126 0 126 95q0 94 -126 94q-61 0 -93.5 -23.5t-32.5 -70.5t32.5 -71t93.5 -24z" />
    <glyph glyph-name="nine" unicode="9" horiz-adv-x="600" 
d="M242 -11q-57 0 -112.5 20t-97.5 57l50 115q36 -31 77.5 -47t84.5 -16q165 0 165 215v19q-21 -49 -65 -77t-102 -28q-59 0 -106 29.5t-74 81t-27 117.5q0 70 30.5 124.5t84 85.5t123.5 31q136 0 209 -92.5t73 -261.5q0 -118 -37.5 -201t-107.5 -127.5t-168 -44.5zM282 368
q46 0 75 31.5t29 81.5q0 51 -29 83t-75 32t-75 -32t-29 -83q0 -50 29 -81.5t75 -31.5z" />
    <glyph glyph-name="colon" unicode=":" horiz-adv-x="260" 
d="M49 331v160h162v-160h-162zM49 0v160h162v-160h-162z" />
    <glyph glyph-name="semicolon" unicode=";" horiz-adv-x="260" 
d="M49 331v160h162v-160h-162zM121 -144l-59 47q50 50 61 97h-74v160h162v-103q0 -57 -20 -104t-70 -97z" />
    <glyph glyph-name="less" unicode="&#x3c;" horiz-adv-x="600" 
d="M544 31l-488 200v113l488 199v-113l-355 -143l355 -143v-113z" />
    <glyph glyph-name="equal" unicode="=" horiz-adv-x="600" 
d="M56 335v104h488v-104h-488zM56 136v103h488v-103h-488z" />
    <glyph glyph-name="greater" unicode="&#x3e;" horiz-adv-x="600" 
d="M56 31v113l355 143l-355 143v113l488 -199v-113z" />
    <glyph glyph-name="question" unicode="?" horiz-adv-x="468" 
d="M184 223v47q0 44 16 81.5t55 79.5q28 30 39 51.5t11 44.5q0 28 -20.5 44t-58.5 16q-93 0 -175 -67l-49 114q44 38 107 60t128 22q66 0 116 -21.5t77.5 -60t27.5 -89.5q0 -46 -20.5 -85t-72.5 -82q-47 -39 -64.5 -68t-21.5 -56l-5 -31h-90zM148 0v160h162v-160h-162z" />
    <glyph glyph-name="at" unicode="@" horiz-adv-x="952" 
d="M487 -166q-97 0 -177.5 31t-138.5 88t-89.5 136t-31.5 176q0 136 57 237t159.5 157.5t239.5 56.5q119 0 208.5 -46.5t138.5 -131t49 -198.5q0 -86 -24.5 -149t-68.5 -97.5t-103 -34.5q-101 0 -129 83q-27 -42 -64 -62.5t-80 -20.5q-81 0 -126 51t-45 139q0 73 27.5 130
t75.5 89.5t110 32.5q85 0 119 -67l10 57h109l-40 -231q-7 -37 -7 -58q0 -57 47 -57q44 0 71.5 54t27.5 141q0 138 -81.5 212.5t-225.5 74.5q-108 0 -187.5 -44.5t-123 -125.5t-43.5 -192q0 -107 41 -183.5t116.5 -117.5t178.5 -41q144 0 236 75l43 -77q-47 -41 -119.5 -64
t-159.5 -23zM457 151q51 0 83 46.5t32 122.5q0 88 -76 88q-52 0 -85 -43.5t-33 -114.5q0 -49 20.5 -74t58.5 -25z" />
    <glyph glyph-name="A" unicode="A" horiz-adv-x="753" 
d="M-10 0l324 705h125l324 -705h-156l-66 153h-329l-65 -153h-157zM375 540l-111 -266h226l-113 266h-2z" />
    <glyph glyph-name="B" unicode="B" horiz-adv-x="695" 
d="M71 0v705h323q113 0 174.5 -49t61.5 -134q0 -56 -28 -96.5t-78 -60.5q60 -17 92.5 -60t32.5 -106q0 -94 -65.5 -146.5t-178.5 -52.5h-334zM219 415h148q114 0 114 88q0 87 -114 87h-148v-175zM219 115h165q60 0 88 23t28 70q0 46 -28 69t-88 23h-165v-185z" />
    <glyph glyph-name="C" unicode="C" horiz-adv-x="683" 
d="M413 -11q-114 0 -195 45t-124.5 126.5t-43.5 192.5q0 110 43.5 191.5t124.5 126.5t195 45q70 0 134 -22t105 -60l-48 -123q-45 35 -90.5 51.5t-95.5 16.5q-101 0 -152.5 -58.5t-51.5 -167.5t51.5 -168t152.5 -59q50 0 95.5 16.5t90.5 51.5l48 -123q-41 -37 -105 -59.5
t-134 -22.5z" />
    <glyph glyph-name="D" unicode="D" horiz-adv-x="774" 
d="M71 0v705h276q180 0 279 -91.5t99 -260.5t-99 -261t-279 -92h-276zM226 127h112q225 0 225 226q0 225 -225 225h-112v-451z" />
    <glyph glyph-name="E" unicode="E" horiz-adv-x="605" 
d="M71 0v705h483v-121h-335v-165h313v-122h-313v-176h335v-121h-483z" />
    <glyph glyph-name="F" unicode="F" horiz-adv-x="570" 
d="M71 0v705h476v-121h-321v-172h299v-121h-299v-291h-155z" />
    <glyph glyph-name="G" unicode="G" horiz-adv-x="742" 
d="M420 -11q-119 0 -201.5 45t-125.5 126t-43 190q0 112 44.5 194t128.5 127t202 45q74 0 140.5 -21t108.5 -56l-50 -121q-46 34 -94 48.5t-104 14.5q-107 0 -160.5 -59.5t-53.5 -171.5q0 -113 54.5 -171t161.5 -58q57 0 120 18v138h-152v112h280v-346q-52 -26 -120 -40
t-136 -14z" />
    <glyph glyph-name="H" unicode="H" horiz-adv-x="780" 
d="M71 0v705h155v-283h328v283h155v-705h-155v293h-328v-293h-155z" />
    <glyph glyph-name="I" unicode="I" horiz-adv-x="296" 
d="M71 0v705h155v-705h-155z" />
    <glyph glyph-name="J" unicode="J" horiz-adv-x="373" 
d="M1 -10l-11 126l77 4q80 5 80 84v501h155v-499q0 -198 -210 -212z" />
    <glyph glyph-name="K" unicode="K" horiz-adv-x="687" 
d="M71 0v705h155v-307h2l293 307h186l-328 -337l342 -368h-188l-305 322h-2v-322h-155z" />
    <glyph glyph-name="L" unicode="L" horiz-adv-x="573" 
d="M71 0v705h155v-574h326v-131h-481z" />
    <glyph glyph-name="M" unicode="M" horiz-adv-x="876" 
d="M73 0v705h129l238 -433l237 433h127v-705h-141v430l-182 -324h-87l-181 321v-427h-140z" />
    <glyph glyph-name="N" unicode="N" horiz-adv-x="753" 
d="M71 0v705h115l352 -449v449h144v-705h-114l-353 450v-450h-144z" />
    <glyph glyph-name="O" unicode="O" horiz-adv-x="796" 
d="M398 -11q-104 0 -182.5 45.5t-122 127t-43.5 191.5t43.5 191.5t121.5 126.5t183 45t183.5 -45t122 -126.5t43.5 -190.5q0 -110 -43.5 -192t-122 -127.5t-183.5 -45.5zM398 121q88 0 137.5 61.5t49.5 170.5q0 110 -49 170.5t-138 60.5q-87 0 -136.5 -60.5t-49.5 -170.5
q0 -109 49.5 -170.5t136.5 -61.5z" />
    <glyph glyph-name="P" unicode="P" horiz-adv-x="664" 
d="M71 0v705h322q118 0 182 -59.5t64 -165.5t-64 -166t-182 -60h-167v-254h-155zM226 374h141q123 0 123 106q0 104 -123 104h-141v-210z" />
    <glyph glyph-name="Q" unicode="Q" horiz-adv-x="796" 
d="M588 -220l-105 170q-26 39 -86 39v0q-104 1 -182 46t-121.5 127t-43.5 191q0 110 43.5 191.5t121.5 126.5t183 45t183.5 -45t122 -126.5t43.5 -190.5q0 -115 -47.5 -199.5t-131.5 -126.5q46 -14 76 -65l76 -122zM398 121q88 0 137.5 61.5t49.5 170.5q0 110 -49 170.5
t-138 60.5q-87 0 -136.5 -60.5t-49.5 -170.5q0 -109 49.5 -170.5t136.5 -61.5z" />
    <glyph glyph-name="R" unicode="R" horiz-adv-x="696" 
d="M71 0v705h322q118 0 182 -57t64 -159q0 -79 -40.5 -131.5t-115.5 -71.5q53 -16 87 -77l114 -209h-171l-122 225q-15 27 -37 37.5t-52 10.5h-76v-273h-155zM226 385h139q125 0 125 100q0 99 -125 99h-139v-199z" />
    <glyph glyph-name="S" unicode="S" horiz-adv-x="641" 
d="M323 -11q-83 0 -156.5 21t-122.5 57l45 122q47 -33 107.5 -52t126.5 -19q72 0 103.5 22.5t31.5 56.5q0 29 -22 46t-77 29l-113 24q-189 40 -189 196q0 67 36 117.5t100.5 78.5t149.5 28q73 0 137 -21t106 -59l-45 -114q-82 65 -199 65q-63 0 -97.5 -24.5t-34.5 -63.5
q0 -29 21 -47t73 -29l113 -24q194 -42 194 -190q0 -66 -35.5 -115.5t-100 -77t-152.5 -27.5z" />
    <glyph glyph-name="T" unicode="T" horiz-adv-x="632" 
d="M239 0v577h-233v128h621v-128h-233v-577h-155z" />
    <glyph glyph-name="U" unicode="U" horiz-adv-x="743" 
d="M373 -11q-150 0 -228.5 77t-78.5 229v410h155v-411q0 -86 39 -129.5t113 -43.5q151 0 151 173v411h153v-410q0 -152 -77 -229t-227 -77z" />
    <glyph glyph-name="V" unicode="V" horiz-adv-x="727" 
d="M300 0l-317 705h166l218 -506l218 506h159l-317 -705h-127z" />
    <glyph glyph-name="W" unicode="W" horiz-adv-x="1120" 
d="M268 0l-251 705h159l162 -482l171 482h112l166 -490l168 490h150l-253 -705h-126l-165 468l-167 -468h-126z" />
    <glyph glyph-name="X" unicode="X" horiz-adv-x="685" 
d="M-15 0l269 357l-261 348h180l170 -235l169 235h181l-262 -348l269 -357h-181l-177 243l-175 -243h-182z" />
    <glyph glyph-name="Y" unicode="Y" horiz-adv-x="631" 
d="M238 0v318l-272 387h180l172 -248l172 248h173l-270 -388v-317h-155z" />
    <glyph glyph-name="Z" unicode="Z" horiz-adv-x="615" 
d="M46 0v114l352 462h-352v129h533v-114l-353 -462h368v-129h-548z" />
    <glyph glyph-name="bracketleft" unicode="[" horiz-adv-x="377" 
d="M104 -180v885h258v-112h-107v-661h107v-112h-258z" />
    <glyph glyph-name="backslash" unicode="\" horiz-adv-x="331" 
d="M240 -76l-260 808l111 33l260 -808z" />
    <glyph glyph-name="bracketright" unicode="]" horiz-adv-x="377" 
d="M15 -180v112h106v661h-106v112h257v-885h-257z" />
    <glyph glyph-name="asciicircum" unicode="^" horiz-adv-x="600" 
d="M44 140l200 488h112l200 -488h-113l-143 356l-143 -356h-113z" />
    <glyph glyph-name="underscore" unicode="_" horiz-adv-x="500" 
d="M20 -88v88h460v-88h-460z" />
    <glyph glyph-name="grave" unicode="`" horiz-adv-x="500" 
d="M200 555l-147 205h145l102 -205h-100z" />
    <glyph glyph-name="a" unicode="a" horiz-adv-x="557" 
d="M224 -11q-55 0 -97 21t-66.5 57t-24.5 81q0 53 28 85t91 45.5t167 13.5h36v17q0 44 -20 62.5t-68 18.5q-40 0 -84.5 -12.5t-88.5 -37.5l-41 101q26 17 63.5 31t78.5 21.5t78 7.5q114 0 170 -51.5t56 -159.5v-290h-141v74q-15 -39 -50.5 -62t-86.5 -23zM258 90q42 0 71 29
t29 75v20h-35q-77 0 -109 -13.5t-32 -46.5q0 -28 19.5 -46t56.5 -18z" />
    <glyph glyph-name="b" unicode="b" horiz-adv-x="610" 
d="M361 -11q-52 0 -93.5 23t-61.5 61v-73h-148v705h151v-280q22 35 62.5 55.5t89.5 20.5q64 0 112.5 -31t75.5 -88t27 -136t-27 -136.5t-75.5 -89t-112.5 -31.5zM316 102q48 0 78 35t30 109q0 73 -30 107.5t-78 34.5q-49 0 -79 -34.5t-30 -107.5q0 -74 30 -109t79 -35z" />
    <glyph glyph-name="c" unicode="c" horiz-adv-x="478" 
d="M297 -11q-80 0 -139.5 31.5t-91.5 89.5t-32 137t32 136t91.5 87.5t139.5 30.5q47 0 95 -14t78 -40l-42 -104q-25 20 -56 31.5t-60 11.5q-59 0 -91.5 -36.5t-32.5 -103.5q0 -66 32.5 -103.5t91.5 -37.5q28 0 59.5 11t56.5 32l42 -104q-30 -26 -78 -40.5t-95 -14.5z" />
    <glyph glyph-name="d" unicode="d" horiz-adv-x="610" 
d="M249 -11q-64 0 -112.5 31.5t-75.5 89t-27 136.5t27 136t75.5 88t112.5 31q49 0 90 -21t62 -56v281h151v-705h-148v74q-20 -39 -61.5 -62t-93.5 -23zM294 102q48 0 78.5 35t30.5 109q0 73 -30.5 107.5t-78.5 34.5t-78 -34.5t-30 -107.5q0 -74 30 -109t78 -35z" />
    <glyph glyph-name="e" unicode="e" horiz-adv-x="549" 
d="M313 -11q-87 0 -149.5 31.5t-96 89t-33.5 135.5q0 76 32.5 133.5t89 90t130.5 32.5q107 0 170 -67.5t63 -182.5v-38h-341q8 -58 42.5 -84.5t95.5 -26.5q40 0 81 12t74 37l40 -101q-37 -28 -90.5 -44.5t-107.5 -16.5zM292 401q-48 0 -77.5 -29t-36.5 -81h216
q-6 110 -102 110z" />
    <glyph glyph-name="f" unicode="f" horiz-adv-x="382" 
d="M96 0v378h-93v113h93q2 104 60.5 156.5t178.5 59.5l55 4l9 -110l-47 -3q-58 -3 -81.5 -24.5t-23.5 -65.5v-17h128v-113h-128v-378h-151z" />
    <glyph glyph-name="g" unicode="g" horiz-adv-x="615" 
d="M294 -191q-71 0 -132.5 15t-107.5 47l41 103q40 -25 90.5 -38.5t95.5 -13.5q128 0 128 118v56q-20 -38 -63 -61t-94 -23q-66 0 -115 30.5t-76 85.5t-27 129q0 73 27 128t76 85.5t115 30.5q53 0 95 -23t62 -61v74h147v-434q0 -124 -67 -186t-195 -62zM297 125
q50 0 80.5 35t30.5 97t-30.5 96.5t-80.5 34.5q-51 0 -81 -34.5t-30 -96.5t30 -97t81 -35z" />
    <glyph glyph-name="h" unicode="h" horiz-adv-x="595" 
d="M58 0v705h151v-281q26 38 67 57.5t91 19.5q173 0 173 -206v-295h-151v288q0 51 -19 73.5t-56 22.5q-48 0 -76.5 -30t-28.5 -80v-274h-151z" />
    <glyph glyph-name="i" unicode="i" horiz-adv-x="268" 
d="M52 586v141h163v-141h-163zM58 0v491h151v-491h-151z" />
    <glyph glyph-name="j" unicode="j" horiz-adv-x="273" 
d="M56 586v141h163v-141h-163zM-42 -193l-10 108l47 5q68 8 68 78v493h151v-473q0 -69 -20.5 -113t-67 -67t-125.5 -28z" />
    <glyph glyph-name="k" unicode="k" horiz-adv-x="558" 
d="M58 0v705h151v-417h2l181 203h179l-208 -235l218 -256h-182l-188 212h-2v-212h-151z" />
    <glyph glyph-name="l" unicode="l" horiz-adv-x="333" 
d="M241 -11q-95 0 -139 49.5t-44 147.5v519h151v-513q0 -80 71 -80q11 0 21.5 1t20.5 4l-2 -117q-38 -11 -79 -11z" />
    <glyph glyph-name="m" unicode="m" horiz-adv-x="889" 
d="M60 0v491h148v-71q22 38 60.5 59.5t89.5 21.5q52 0 88.5 -23t55.5 -70q23 44 66.5 68.5t96.5 24.5q84 0 125 -50.5t41 -155.5v-295h-151v290q0 49 -15.5 71.5t-52.5 22.5q-43 0 -67 -30t-24 -85v-269h-151v290q0 49 -16 71.5t-52 22.5q-43 0 -67 -30t-24 -85v-269h-151z
" />
    <glyph glyph-name="n" unicode="n" horiz-adv-x="595" 
d="M58 0v491h148v-72q25 40 67 61t94 21q87 0 130 -50.5t43 -155.5v-295h-151v288q0 51 -19 73.5t-56 22.5q-48 0 -76.5 -30t-28.5 -80v-274h-151z" />
    <glyph glyph-name="o" unicode="o" horiz-adv-x="589" 
d="M294 -11q-79 0 -137.5 31.5t-90.5 89t-32 136.5q0 78 32 135.5t90.5 88.5t137.5 31t137.5 -31t91 -88.5t32.5 -135.5q0 -79 -32.5 -136.5t-91 -89t-137.5 -31.5zM294 102q48 0 78.5 35t30.5 109q0 73 -30.5 107.5t-78.5 34.5t-78 -34.5t-30 -107.5q0 -74 30 -109t78 -35z
" />
    <glyph glyph-name="p" unicode="p" horiz-adv-x="610" 
d="M58 -180v671h148v-73q20 38 61.5 60.5t93.5 22.5q64 0 112.5 -31t75.5 -88t27 -136t-27 -136.5t-75.5 -89t-112.5 -31.5q-49 0 -89.5 21t-62.5 56v-246h-151zM316 102q48 0 78 35t30 109q0 73 -30 107.5t-78 34.5q-49 0 -79 -34.5t-30 -107.5q0 -74 30 -109t79 -35z" />
    <glyph glyph-name="q" unicode="q" horiz-adv-x="610" 
d="M401 -180v247q-21 -35 -62 -56.5t-90 -21.5q-64 0 -112.5 31.5t-75.5 89t-27 136.5t27 136t75.5 88t112.5 31q52 0 93.5 -23t61.5 -61v74h148v-671h-151zM294 102q48 0 78.5 35t30.5 109q0 73 -30.5 107.5t-78.5 34.5t-78 -34.5t-30 -107.5q0 -74 30 -109t78 -35z" />
    <glyph glyph-name="r" unicode="r" horiz-adv-x="412" 
d="M58 0v491h148v-85q35 86 150 95l44 3l9 -127l-85 -9q-112 -11 -112 -114v-254h-154z" />
    <glyph glyph-name="s" unicode="s" horiz-adv-x="492" 
d="M246 -11q-65 0 -121 15t-93 41l36 98q37 -23 84.5 -36.5t94.5 -13.5q42 0 62 13.5t20 35.5q0 35 -51 44l-105 19q-63 11 -96 45t-33 89q0 50 28 86t77 56t113 20q53 0 103 -13.5t86 -42.5l-38 -97q-30 22 -71.5 36t-77.5 14q-45 0 -65 -14.5t-20 -36.5q0 -35 47 -44
l105 -19q65 -11 99 -43.5t34 -88.5q0 -77 -60 -120t-158 -43z" />
    <glyph glyph-name="t" unicode="t" horiz-adv-x="404" 
d="M299 -11q-207 0 -207 201v188h-93v113h93v144h151v-144h145v-113h-145v-182q0 -42 19.5 -63t62.5 -21q13 0 27.5 3t31.5 8l22 -110q-21 -11 -50 -17.5t-57 -6.5z" />
    <glyph glyph-name="u" unicode="u" horiz-adv-x="590" 
d="M239 -11q-94 0 -138.5 52t-44.5 156v294h151v-298q0 -87 75 -87q43 0 70.5 30.5t27.5 80.5v274h151v-491h-147v67q-49 -78 -145 -78z" />
    <glyph glyph-name="v" unicode="v" horiz-adv-x="534" 
d="M203 0l-214 491h159l123 -312l127 312h149l-217 -491h-127z" />
    <glyph glyph-name="w" unicode="w" horiz-adv-x="861" 
d="M197 0l-200 491h153l117 -315l117 315h100l117 -319l117 319h145l-198 -491h-128l-108 279l-105 -279h-127z" />
    <glyph glyph-name="x" unicode="x" horiz-adv-x="559" 
d="M-13 0l207 253l-194 238h176l104 -135l104 135h176l-194 -238l208 -253h-177l-117 148l-117 -148h-176z" />
    <glyph glyph-name="y" unicode="y" horiz-adv-x="533" 
d="M96 -180l94 207l-202 464h159l123 -312l127 312h150l-297 -671h-154z" />
    <glyph glyph-name="z" unicode="z" horiz-adv-x="480" 
d="M46 0v97l236 281h-236v113h399v-97l-236 -282h247v-112h-410z" />
    <glyph glyph-name="braceleft" unicode="{" horiz-adv-x="414" 
d="M274 -180q-63 0 -98 35t-35 98v174q0 40 -13.5 57t-46.5 20l-41 4v108l41 4q33 3 46.5 20.5t13.5 57.5v174q0 63 35 98t98 35h125v-112h-65q-42 0 -42 -44v-170q0 -42 -24 -75.5t-58 -41.5q34 -8 58 -41.5t24 -75.5v-169q0 -44 42 -44h65v-112h-125z" />
    <glyph glyph-name="bar" unicode="|" horiz-adv-x="302" 
d="M76 -180v885h151v-885h-151z" />
    <glyph glyph-name="braceright" unicode="}" horiz-adv-x="414" 
d="M15 -180v112h65q41 0 41 44v169q0 42 24.5 75.5t58.5 41.5q-34 8 -58.5 41.5t-24.5 75.5v170q0 44 -41 44h-65v112h125q62 0 97 -35t35 -98v-174q0 -40 14 -57.5t47 -20.5l41 -4v-108l-41 -4q-33 -3 -47 -20.5t-14 -56.5v-174q0 -63 -35 -98t-97 -35h-125z" />
    <glyph glyph-name="asciitilde" unicode="~" horiz-adv-x="600" 
d="M407 204q-23 0 -49 7.5t-65 27.5q-34 19 -56 26.5t-36 7.5q-48 0 -68 -58l-77 47q17 49 54 79t84 30q23 0 50 -8t64 -27q64 -34 91 -34q48 0 70 58l75 -48q-16 -49 -53.5 -78.5t-83.5 -29.5z" />
    <glyph glyph-name="uni00A0" unicode="&#xa0;" horiz-adv-x="278" 
 />
    <glyph glyph-name="exclamdown" unicode="&#xa1;" horiz-adv-x="260" 
d="M49 330v161h162v-161h-162zM37 -180l47 447h91l48 -447h-186z" />
    <glyph glyph-name="cent" unicode="&#xa2;" horiz-adv-x="600" 
d="M260 -115v116q-86 23 -134.5 87.5t-48.5 156.5q0 88 49.5 153.5t133.5 87.5v124h119v-115q45 -5 84 -20t64 -38l-40 -103q-27 21 -61.5 34t-68.5 13q-60 0 -93 -37t-33 -96t32.5 -97.5t92.5 -38.5q35 0 69.5 13t61.5 34l40 -103q-26 -22 -64.5 -38.5t-83.5 -22.5v-110
h-119z" />
    <glyph glyph-name="sterling" unicode="&#xa3;" horiz-adv-x="600" 
d="M41 0v125h76v180h-76v97h76v87q0 101 61 164t187 63q61 0 118.5 -18.5t96.5 -51.5l-51 -111q-37 32 -77 45t-77 13q-53 0 -78 -25.5t-25 -72.5v-93h158v-97h-158v-180h294v-125h-525z" />
    <glyph glyph-name="currency" unicode="&#xa4;" horiz-adv-x="600" 
d="M84 -32l-56 56l73 75q-21 31 -33.5 68t-12.5 78t12 78.5t34 68.5l-73 74l57 57l73 -75q30 21 65.5 33t74.5 12q78 0 139 -44l74 76l60 -61l-75 -75q44 -64 44 -144q0 -40 -12 -77t-33 -68l74 -76l-56 -55l-73 75q-30 -22 -66 -34.5t-76 -12.5q-39 0 -75 12t-66 33z
M298 116q34 0 61.5 17.5t43.5 47t16 64.5q0 36 -16 65t-43.5 46.5t-61.5 18.5q-33 0 -61 -17.5t-44.5 -47t-16.5 -65.5q0 -35 16 -64.5t44 -47t62 -17.5z" />
    <glyph glyph-name="yen" unicode="&#xa5;" horiz-adv-x="600" 
d="M222 0v154h-157v96h157v62h-157v95h114l-202 298h168l155 -241l155 241h168l-202 -298h114v-95h-158v-62h158v-96h-158v-154h-155z" />
    <glyph glyph-name="brokenbar" unicode="&#xa6;" horiz-adv-x="302" 
d="M76 372v333h151v-333h-151zM76 -180v334h151v-334h-151z" />
    <glyph glyph-name="section" unicode="&#xa7;" horiz-adv-x="584" 
d="M272 -191q-70 0 -128.5 16.5t-95.5 43.5l40 101q32 -24 83.5 -40t99.5 -16q45 0 71.5 18.5t26.5 53.5q0 24 -14.5 42.5t-52.5 35.5l-135 60q-72 33 -104 75t-32 98q0 85 69 141q-28 37 -28 89q0 88 65.5 138.5t173.5 50.5q66 0 120 -14.5t88 -41.5l-39 -97
q-35 22 -81.5 35t-87.5 13q-43 0 -69 -19t-26 -53q0 -24 14.5 -42.5t51.5 -35.5l135 -60q73 -33 104.5 -75t31.5 -98q0 -85 -69 -141q28 -38 28 -89q0 -88 -65.5 -138.5t-174.5 -50.5zM164 325q0 -28 18.5 -51.5t61.5 -43.5l118 -53q24 -11 45 -26q14 23 14 49
q0 28 -19 51.5t-62 43.5l-118 53q-12 6 -23.5 13t-21.5 13q-13 -23 -13 -49z" />
    <glyph glyph-name="dieresis" unicode="&#xa8;" horiz-adv-x="500" 
d="M282 590v132h133v-132h-133zM85 590v132h133v-132h-133z" />
    <glyph glyph-name="copyright" unicode="&#xa9;" horiz-adv-x="815" 
d="M408 -11q-77 0 -143.5 28t-116 77.5t-77 115.5t-27.5 143t27.5 143t77 115.5t116 77t143.5 27.5t143 -27.5t115.5 -77t77 -115.5t27.5 -143t-27.5 -143t-77 -115.5t-115.5 -77.5t-143 -28zM408 48q87 0 155 40t107 109t39 156t-39 155.5t-107 108.5t-155 40t-155 -40
t-107.5 -108.5t-39.5 -155.5t39.5 -156t107.5 -109t155 -40zM429 137q-102 0 -162.5 58.5t-60.5 157.5q0 100 60.5 157.5t162.5 57.5q39 0 79 -12t66 -33l-35 -90q-44 37 -99 37q-50 0 -78.5 -30.5t-28.5 -86.5q0 -55 28.5 -86.5t78.5 -31.5q57 0 99 37l35 -89
q-26 -21 -66 -33.5t-79 -12.5z" />
    <glyph glyph-name="ordfeminine" unicode="&#xaa;" horiz-adv-x="346" 
d="M134 406q-52 0 -83.5 27.5t-31.5 68.5q0 48 41 68t127 20h37v8q0 47 -62 47q-24 0 -53 -6.5t-53 -19.5l-23 66q25 14 64 22.5t73 8.5q148 0 148 -123v-180h-90v55h-2q-15 -30 -37 -46t-55 -16zM160 469q27 0 45.5 19t18.5 52v1h-34q-42 0 -59 -8.5t-17 -27.5
q0 -16 11 -26t35 -10z" />
    <glyph glyph-name="guillemotleft" unicode="&#xab;" horiz-adv-x="525" 
d="M166 67l-104 162v74l102 162l99 -46l-70 -153l70 -154zM388 67l-104 162v74l102 162l99 -46l-70 -153l70 -154z" />
    <glyph glyph-name="logicalnot" unicode="&#xac;" horiz-adv-x="600" 
d="M436 135v201h-380v103h488v-304h-108z" />
    <glyph glyph-name="uni00AD" unicode="&#xad;" horiz-adv-x="440" 
d="M65 209v119h309v-119h-309z" />
    <glyph glyph-name="registered" unicode="&#xae;" horiz-adv-x="815" 
d="M408 -11q-77 0 -143.5 28t-116 77.5t-77 115.5t-27.5 143t27.5 143t77 115.5t116 77t143.5 27.5t143 -27.5t115.5 -77t77 -115.5t27.5 -143t-27.5 -143t-77 -115.5t-115.5 -77.5t-143 -28zM408 48q87 0 155 40t107 109t39 156t-39 155.5t-107 108.5t-155 40t-155 -40
t-107.5 -108.5t-39.5 -155.5t39.5 -156t107.5 -109t155 -40zM246 142v423h190q72 0 111 -35.5t39 -90.5q0 -44 -22 -72.5t-62 -39.5q20 -6 33.5 -24t22.5 -54l32 -107h-115l-34 122q-6 20 -18 27t-30 7h-33v-156h-114zM359 381h61q59 0 59 51t-59 51h-61v-102z" />
    <glyph glyph-name="macron" unicode="&#xaf;" horiz-adv-x="500" 
d="M87 611v85h326v-85h-326z" />
    <glyph glyph-name="degree" unicode="&#xb0;" horiz-adv-x="384" 
d="M192 399q-46 0 -83 20.5t-58 56.5t-21 82q0 44 21.5 80t58 56.5t82.5 20.5t82.5 -20.5t58 -56t21.5 -80.5q0 -46 -21.5 -82t-58 -56.5t-82.5 -20.5zM192 480q32 0 53 22t21 56q0 32 -21 54.5t-53 22.5t-53 -22.5t-21 -54.5q0 -34 21 -56t53 -22z" />
    <glyph glyph-name="plusminus" unicode="&#xb1;" horiz-adv-x="600" 
d="M246 146v141h-190v104h190v141h108v-141h190v-104h-190v-141h-108zM56 0v103h488v-103h-488z" />
    <glyph glyph-name="uni00B2" unicode="&#xb2;" horiz-adv-x="380" 
d="M45 282v87l117 120q22 23 31.5 41.5t9.5 36.5q0 45 -51 45q-22 0 -46 -10t-43 -28l-37 85q26 23 68.5 36.5t87.5 13.5q69 0 109.5 -33.5t40.5 -90.5q0 -32 -15.5 -63t-50.5 -65l-76 -77h163v-98h-308z" />
    <glyph glyph-name="uni00B3" unicode="&#xb3;" horiz-adv-x="380" 
d="M184 277q-55 0 -96 13.5t-69 36.5l38 82q20 -18 48 -28t63 -10q65 0 65 44q0 33 -53 33h-86v93h74q52 0 52 36q0 17 -14.5 27.5t-44.5 10.5q-58 0 -98 -38l-37 82q26 23 68 36.5t90 13.5q71 0 111.5 -30t40.5 -82q0 -33 -18 -58.5t-47 -37.5q36 -10 56.5 -36t20.5 -66
q0 -56 -46 -89t-118 -33z" />
    <glyph glyph-name="acute" unicode="&#xb4;" horiz-adv-x="500" 
d="M200 555l103 205h144l-147 -205h-100z" />
    <glyph glyph-name="uni00B5" unicode="&#xb5;" horiz-adv-x="600" 
d="M63 -180v671h151v-297q0 -86 75 -86q43 0 71 30t28 80v273h151v-491h-148v89q-11 -48 -40.5 -74t-65.5 -26q-29 0 -49 10.5t-33 34.5l11 -214h-151z" />
    <glyph glyph-name="paragraph" unicode="&#xb6;" horiz-adv-x="646" 
d="M252 -180v445q-66 0 -116 28t-77.5 77.5t-27.5 115.5t27.5 115t78 76.5t117.5 27.5h321v-885h-106v780h-111v-780h-106z" />
    <glyph glyph-name="periodcentered" unicode="&#xb7;" horiz-adv-x="260" 
d="M49 188v160h162v-160h-162z" />
    <glyph glyph-name="cedilla" unicode="&#xb8;" horiz-adv-x="500" 
d="M249 -197q-31 0 -59.5 5.5t-49.5 16.5l21 64q18 -9 36 -13.5t38 -4.5q52 0 52 26q0 20 -37 20q-9 0 -17.5 -1t-20.5 -4l-20 20l13 88h76l-10 -54h6q45 0 70.5 -19.5t25.5 -54.5q0 -40 -34.5 -64.5t-89.5 -24.5z" />
    <glyph glyph-name="uni00B9" unicode="&#xb9;" horiz-adv-x="380" 
d="M54 282v98h103v193l-77 -41l-48 88l158 85h86v-325h80v-98h-302z" />
    <glyph glyph-name="ordmasculine" unicode="&#xba;" horiz-adv-x="361" 
d="M181 408q-71 0 -117.5 42t-46.5 113q0 70 46.5 111.5t117.5 41.5q70 0 117 -41.5t47 -111.5q0 -71 -47 -113t-117 -42zM181 480q30 0 48 21.5t18 61.5t-18 60.5t-48 20.5t-48 -20t-18 -61t18 -62t48 -21z" />
    <glyph glyph-name="guillemotright" unicode="&#xbb;" horiz-adv-x="525" 
d="M138 67l-99 45l72 154l-72 153l100 46l102 -162v-74zM360 67l-99 45l72 154l-72 153l100 46l102 -162v-74z" />
    <glyph glyph-name="onequarter" unicode="&#xbc;" horiz-adv-x="922" 
d="M54 282v98h103v193l-77 -41l-48 88l158 85h86v-325h80v-98h-302zM335 -30l-95 57l410 708l96 -57zM745 0v66h-185v81l192 276h107v-263h49v-94h-49v-66h-114zM747 160v121l-83 -121h83z" />
    <glyph glyph-name="onehalf" unicode="&#xbd;" horiz-adv-x="972" 
d="M54 282v98h103v193l-77 -41l-48 88l158 85h86v-325h80v-98h-302zM335 -30l-95 57l410 708l96 -57zM637 0v87l117 120q22 23 31.5 41.5t9.5 36.5q0 45 -51 45q-22 0 -46 -10t-43 -28l-37 85q26 23 68.5 36.5t87.5 13.5q69 0 109.5 -33.5t40.5 -90.5q0 -32 -15.5 -63
t-50.5 -65l-76 -77h163v-98h-308z" />
    <glyph glyph-name="threequarters" unicode="&#xbe;" horiz-adv-x="922" 
d="M184 277q-55 0 -96 13.5t-69 36.5l38 82q20 -18 48 -28t63 -10q65 0 65 44q0 33 -53 33h-86v93h74q52 0 52 36q0 17 -14.5 27.5t-44.5 10.5q-58 0 -98 -38l-37 82q26 23 68 36.5t90 13.5q71 0 111.5 -30t40.5 -82q0 -33 -18 -58.5t-47 -37.5q36 -10 56.5 -36t20.5 -66
q0 -56 -46 -89t-118 -33zM335 -30l-95 57l410 708l96 -57zM745 0v66h-185v81l192 276h107v-263h49v-94h-49v-66h-114zM747 160v121l-83 -121h83z" />
    <glyph glyph-name="questiondown" unicode="&#xbf;" horiz-adv-x="468" 
d="M159 330v161h162v-161h-162zM232 -191q-66 0 -116 20.5t-77.5 56.5t-27.5 84q0 42 20 79.5t73 76.5q47 35 64 61.5t22 51.5l5 28h90v-41q0 -40 -15.5 -75t-55.5 -72q-29 -26 -39.5 -44.5t-10.5 -39.5q0 -26 20 -41.5t58 -15.5q93 0 176 61l49 -114q-43 -35 -107 -55.5
t-128 -20.5z" />
    <glyph glyph-name="Agrave" unicode="&#xc0;" horiz-adv-x="753" 
d="M-10 0l324 705h125l324 -705h-156l-66 153h-329l-65 -153h-157zM375 540l-111 -266h226l-113 266h-2zM325 765l-167 175h154l118 -175h-105z" />
    <glyph glyph-name="Aacute" unicode="&#xc1;" horiz-adv-x="753" 
d="M-10 0l324 705h125l324 -705h-156l-66 153h-329l-65 -153h-157zM375 540l-111 -266h226l-113 266h-2zM325 765l118 175h153l-166 -175h-105z" />
    <glyph glyph-name="Acircumflex" unicode="&#xc2;" horiz-adv-x="753" 
d="M-10 0l324 705h125l324 -705h-156l-66 153h-329l-65 -153h-157zM375 540l-111 -266h226l-113 266h-2zM189 765l125 175h126l125 -175h-103l-85 95l-85 -95h-103z" />
    <glyph glyph-name="Atilde" unicode="&#xc3;" horiz-adv-x="753" 
d="M-10 0l324 705h125l324 -705h-156l-66 153h-329l-65 -153h-157zM375 540l-111 -266h226l-113 266h-2zM217 766l-71 4q5 76 44 116.5t98 40.5q25 0 49 -8t55 -25q31 -16 47.5 -21.5t29.5 -5.5q56 0 68 64l71 -4q-5 -76 -44 -116.5t-97 -40.5q-26 0 -51.5 9t-55.5 25
q-28 15 -44 20.5t-31 5.5q-55 0 -68 -64z" />
    <glyph glyph-name="Adieresis" unicode="&#xc4;" horiz-adv-x="753" 
d="M-10 0l324 705h125l324 -705h-156l-66 153h-329l-65 -153h-157zM375 540l-111 -266h226l-113 266h-2zM409 781v132h133v-132h-133zM212 781v132h133v-132h-133z" />
    <glyph glyph-name="Aring" unicode="&#xc5;" horiz-adv-x="753" 
d="M-10 0l324 705h125l324 -705h-156l-66 153h-329l-65 -153h-157zM375 540l-111 -266h226l-113 266h-2zM377 753q-37 0 -66.5 17t-46.5 45.5t-17 64.5t17 64.5t46.5 45t66.5 16.5t66.5 -16.5t46.5 -45t17 -64.5t-17 -64.5t-46.5 -45.5t-66.5 -17zM377 818q26 0 43.5 17.5
t17.5 44.5t-17.5 44t-43.5 17t-43.5 -17t-17.5 -44t17.5 -44.5t43.5 -17.5z" />
    <glyph glyph-name="AE" unicode="&#xc6;" horiz-adv-x="999" 
d="M-48 0l444 705h551v-121h-385l36 -165h328v-122h-302l39 -176h284v-121h-396l-33 153h-311l-91 -153h-164zM433 535l-155 -261h214l-57 261h-2z" />
    <glyph glyph-name="Ccedilla" unicode="&#xc7;" horiz-adv-x="683" 
d="M413 -11q-114 0 -195 45t-124.5 126.5t-43.5 192.5q0 110 43.5 191.5t124.5 126.5t195 45q70 0 134 -22t105 -60l-48 -123q-45 35 -90.5 51.5t-95.5 16.5q-101 0 -152.5 -58.5t-51.5 -167.5t51.5 -168t152.5 -59q50 0 95.5 16.5t90.5 51.5l48 -123q-41 -37 -105 -59.5
t-134 -22.5zM393 -197q-31 0 -59.5 5.5t-49.5 16.5l21 64q18 -9 36 -13.5t38 -4.5q52 0 52 26q0 20 -37 20q-9 0 -17.5 -1t-20.5 -4l-20 20l13 88h76l-10 -54h6q45 0 70.5 -19.5t25.5 -54.5q0 -40 -34.5 -64.5t-89.5 -24.5z" />
    <glyph glyph-name="Egrave" unicode="&#xc8;" horiz-adv-x="605" 
d="M71 0v705h483v-121h-335v-165h313v-122h-313v-176h335v-121h-483zM279 765l-167 175h154l118 -175h-105z" />
    <glyph glyph-name="Eacute" unicode="&#xc9;" horiz-adv-x="605" 
d="M71 0v705h483v-121h-335v-165h313v-122h-313v-176h335v-121h-483zM279 765l118 175h153l-166 -175h-105z" />
    <glyph glyph-name="Ecircumflex" unicode="&#xca;" horiz-adv-x="605" 
d="M71 0v705h483v-121h-335v-165h313v-122h-313v-176h335v-121h-483zM143 765l125 175h126l125 -175h-103l-85 95l-85 -95h-103z" />
    <glyph glyph-name="Edieresis" unicode="&#xcb;" horiz-adv-x="605" 
d="M71 0v705h483v-121h-335v-165h313v-122h-313v-176h335v-121h-483zM363 781v132h133v-132h-133zM166 781v132h133v-132h-133z" />
    <glyph glyph-name="Igrave" unicode="&#xcc;" horiz-adv-x="296" 
d="M71 0v705h155v-705h-155zM96 765l-167 175h154l118 -175h-105z" />
    <glyph glyph-name="Iacute" unicode="&#xcd;" horiz-adv-x="296" 
d="M71 0v705h155v-705h-155zM96 765l118 175h153l-166 -175h-105z" />
    <glyph glyph-name="Icircumflex" unicode="&#xce;" horiz-adv-x="296" 
d="M71 0v705h155v-705h-155zM-40 765l125 175h126l125 -175h-103l-85 95l-85 -95h-103z" />
    <glyph glyph-name="Idieresis" unicode="&#xcf;" horiz-adv-x="296" 
d="M71 0v705h155v-705h-155zM180 781v132h133v-132h-133zM-17 781v132h133v-132h-133z" />
    <glyph glyph-name="Eth" unicode="&#xd0;" horiz-adv-x="774" 
d="M71 0v705h276q180 0 279 -91.5t99 -260.5t-99 -261t-279 -92h-276zM226 127h112q225 0 225 226q0 225 -225 225h-112v-451zM-15 301v111h427v-111h-427z" />
    <glyph glyph-name="Ntilde" unicode="&#xd1;" horiz-adv-x="753" 
d="M71 0v705h115l352 -449v449h144v-705h-114l-353 450v-450h-144zM216 766l-71 4q5 76 44 116.5t98 40.5q25 0 49 -8t55 -25q31 -16 47.5 -21.5t29.5 -5.5q56 0 68 64l71 -4q-5 -76 -44 -116.5t-97 -40.5q-26 0 -51.5 9t-55.5 25q-28 15 -44 20.5t-31 5.5q-55 0 -68 -64z
" />
    <glyph glyph-name="Ograve" unicode="&#xd2;" horiz-adv-x="796" 
d="M398 -11q-104 0 -182.5 45.5t-122 127t-43.5 191.5t43.5 191.5t121.5 126.5t183 45t183.5 -45t122 -126.5t43.5 -190.5q0 -110 -43.5 -192t-122 -127.5t-183.5 -45.5zM398 121q88 0 137.5 61.5t49.5 170.5q0 110 -49 170.5t-138 60.5q-87 0 -136.5 -60.5t-49.5 -170.5
q0 -109 49.5 -170.5t136.5 -61.5zM345 765l-167 175h154l118 -175h-105z" />
    <glyph glyph-name="Oacute" unicode="&#xd3;" horiz-adv-x="796" 
d="M398 -11q-104 0 -182.5 45.5t-122 127t-43.5 191.5t43.5 191.5t121.5 126.5t183 45t183.5 -45t122 -126.5t43.5 -190.5q0 -110 -43.5 -192t-122 -127.5t-183.5 -45.5zM398 121q88 0 137.5 61.5t49.5 170.5q0 110 -49 170.5t-138 60.5q-87 0 -136.5 -60.5t-49.5 -170.5
q0 -109 49.5 -170.5t136.5 -61.5zM345 765l118 175h153l-166 -175h-105z" />
    <glyph glyph-name="Ocircumflex" unicode="&#xd4;" horiz-adv-x="796" 
d="M398 -11q-104 0 -182.5 45.5t-122 127t-43.5 191.5t43.5 191.5t121.5 126.5t183 45t183.5 -45t122 -126.5t43.5 -190.5q0 -110 -43.5 -192t-122 -127.5t-183.5 -45.5zM398 121q88 0 137.5 61.5t49.5 170.5q0 110 -49 170.5t-138 60.5q-87 0 -136.5 -60.5t-49.5 -170.5
q0 -109 49.5 -170.5t136.5 -61.5zM209 765l125 175h126l125 -175h-103l-85 95l-85 -95h-103z" />
    <glyph glyph-name="Otilde" unicode="&#xd5;" horiz-adv-x="796" 
d="M398 -11q-104 0 -182.5 45.5t-122 127t-43.5 191.5t43.5 191.5t121.5 126.5t183 45t183.5 -45t122 -126.5t43.5 -190.5q0 -110 -43.5 -192t-122 -127.5t-183.5 -45.5zM398 121q88 0 137.5 61.5t49.5 170.5q0 110 -49 170.5t-138 60.5q-87 0 -136.5 -60.5t-49.5 -170.5
q0 -109 49.5 -170.5t136.5 -61.5zM237 766l-71 4q5 76 44 116.5t98 40.5q25 0 49 -8t55 -25q31 -16 47.5 -21.5t29.5 -5.5q56 0 68 64l71 -4q-5 -76 -44 -116.5t-97 -40.5q-26 0 -51.5 9t-55.5 25q-28 15 -44 20.5t-31 5.5q-55 0 -68 -64z" />
    <glyph glyph-name="Odieresis" unicode="&#xd6;" horiz-adv-x="796" 
d="M398 -11q-104 0 -182.5 45.5t-122 127t-43.5 191.5t43.5 191.5t121.5 126.5t183 45t183.5 -45t122 -126.5t43.5 -190.5q0 -110 -43.5 -192t-122 -127.5t-183.5 -45.5zM398 121q88 0 137.5 61.5t49.5 170.5q0 110 -49 170.5t-138 60.5q-87 0 -136.5 -60.5t-49.5 -170.5
q0 -109 49.5 -170.5t136.5 -61.5zM429 781v132h133v-132h-133zM232 781v132h133v-132h-133z" />
    <glyph glyph-name="multiply" unicode="&#xd7;" horiz-adv-x="600" 
d="M139 52l-73 72l161 162l-161 161l73 73l161 -161l161 161l73 -73l-161 -161l161 -162l-73 -72l-161 161z" />
    <glyph glyph-name="Oslash" unicode="&#xd8;" horiz-adv-x="796" 
d="M398 -11q-104 0 -182.5 45.5t-122 127t-43.5 191.5t43.5 191.5t121.5 126.5t183 45t183.5 -45t122 -126.5t43.5 -190.5q0 -110 -43.5 -192t-122 -127.5t-183.5 -45.5zM398 121q88 0 137.5 61.5t49.5 170.5q0 110 -49 170.5t-138 60.5q-87 0 -136.5 -60.5t-49.5 -170.5
q0 -109 49.5 -170.5t136.5 -61.5zM220 -68l-99 59l69 118l46 68l244 419l27 59l69 118l99 -59l-69 -118l-47 -68l-243 -418l-27 -59z" />
    <glyph glyph-name="Ugrave" unicode="&#xd9;" horiz-adv-x="743" 
d="M373 -11q-150 0 -228.5 77t-78.5 229v410h155v-411q0 -86 39 -129.5t113 -43.5q151 0 151 173v411h153v-410q0 -152 -77 -229t-227 -77zM321 765l-167 175h154l118 -175h-105z" />
    <glyph glyph-name="Uacute" unicode="&#xda;" horiz-adv-x="743" 
d="M373 -11q-150 0 -228.5 77t-78.5 229v410h155v-411q0 -86 39 -129.5t113 -43.5q151 0 151 173v411h153v-410q0 -152 -77 -229t-227 -77zM321 765l118 175h153l-166 -175h-105z" />
    <glyph glyph-name="Ucircumflex" unicode="&#xdb;" horiz-adv-x="743" 
d="M373 -11q-150 0 -228.5 77t-78.5 229v410h155v-411q0 -86 39 -129.5t113 -43.5q151 0 151 173v411h153v-410q0 -152 -77 -229t-227 -77zM185 765l125 175h126l125 -175h-103l-85 95l-85 -95h-103z" />
    <glyph glyph-name="Udieresis" unicode="&#xdc;" horiz-adv-x="743" 
d="M373 -11q-150 0 -228.5 77t-78.5 229v410h155v-411q0 -86 39 -129.5t113 -43.5q151 0 151 173v411h153v-410q0 -152 -77 -229t-227 -77zM405 781v132h133v-132h-133zM208 781v132h133v-132h-133z" />
    <glyph glyph-name="Yacute" unicode="&#xdd;" horiz-adv-x="631" 
d="M238 0v318l-272 387h180l172 -248l172 248h173l-270 -388v-317h-155zM263 765l118 175h153l-166 -175h-105z" />
    <glyph glyph-name="Thorn" unicode="&#xde;" horiz-adv-x="666" 
d="M71 0v705h155v-112h170q118 0 182 -60t64 -166t-64 -166t-182 -60h-170v-141h-155zM226 262h143q124 0 124 105t-124 105h-143v-210z" />
    <glyph glyph-name="germandbls" unicode="&#xdf;" horiz-adv-x="676" 
d="M455 -11q-55 0 -109.5 16.5t-93.5 46.5l41 100q39 -25 83.5 -38.5t81.5 -13.5q30 0 47 12t17 35q0 20 -18.5 32.5t-69.5 27.5q-79 23 -111 57t-32 84q0 32 14 61.5t55 71.5q23 23 32 40t9 36q0 23 -17 37t-52 14q-60 0 -91.5 -36t-31.5 -101v-471h-151v446
q0 130 71.5 200t204.5 70q99 0 154 -39.5t55 -106.5q0 -34 -14 -64t-49 -63q-31 -30 -41.5 -45.5t-10.5 -30.5q0 -18 19 -31.5t74 -29.5q73 -21 105 -58t32 -91q0 -77 -55 -122.5t-148 -45.5z" />
    <glyph glyph-name="agrave" unicode="&#xe0;" horiz-adv-x="557" 
d="M224 -11q-55 0 -97 21t-66.5 57t-24.5 81q0 53 28 85t91 45.5t167 13.5h36v17q0 44 -20 62.5t-68 18.5q-40 0 -84.5 -12.5t-88.5 -37.5l-41 101q26 17 63.5 31t78.5 21.5t78 7.5q114 0 170 -51.5t56 -159.5v-290h-141v74q-15 -39 -50.5 -62t-86.5 -23zM258 90q42 0 71 29
t29 75v20h-35q-77 0 -109 -13.5t-32 -46.5q0 -28 19.5 -46t56.5 -18zM233 555l-147 205h145l102 -205h-100z" />
    <glyph glyph-name="aacute" unicode="&#xe1;" horiz-adv-x="557" 
d="M224 -11q-55 0 -97 21t-66.5 57t-24.5 81q0 53 28 85t91 45.5t167 13.5h36v17q0 44 -20 62.5t-68 18.5q-40 0 -84.5 -12.5t-88.5 -37.5l-41 101q26 17 63.5 31t78.5 21.5t78 7.5q114 0 170 -51.5t56 -159.5v-290h-141v74q-15 -39 -50.5 -62t-86.5 -23zM258 90q42 0 71 29
t29 75v20h-35q-77 0 -109 -13.5t-32 -46.5q0 -28 19.5 -46t56.5 -18zM233 555l103 205h144l-147 -205h-100z" />
    <glyph glyph-name="acircumflex" unicode="&#xe2;" horiz-adv-x="557" 
d="M224 -11q-55 0 -97 21t-66.5 57t-24.5 81q0 53 28 85t91 45.5t167 13.5h36v17q0 44 -20 62.5t-68 18.5q-40 0 -84.5 -12.5t-88.5 -37.5l-41 101q26 17 63.5 31t78.5 21.5t78 7.5q114 0 170 -51.5t56 -159.5v-290h-141v74q-15 -39 -50.5 -62t-86.5 -23zM258 90q42 0 71 29
t29 75v20h-35q-77 0 -109 -13.5t-32 -46.5q0 -28 19.5 -46t56.5 -18zM108 555l111 205h128l111 -205h-94l-81 123l-81 -123h-94z" />
    <glyph glyph-name="atilde" unicode="&#xe3;" horiz-adv-x="557" 
d="M224 -11q-55 0 -97 21t-66.5 57t-24.5 81q0 53 28 85t91 45.5t167 13.5h36v17q0 44 -20 62.5t-68 18.5q-40 0 -84.5 -12.5t-88.5 -37.5l-41 101q26 17 63.5 31t78.5 21.5t78 7.5q114 0 170 -51.5t56 -159.5v-290h-141v74q-15 -39 -50.5 -62t-86.5 -23zM258 90q42 0 71 29
t29 75v20h-35q-77 0 -109 -13.5t-32 -46.5q0 -28 19.5 -46t56.5 -18zM152 581l-71 4q5 74 39.5 115.5t87.5 41.5q24 0 42.5 -9t42.5 -25q21 -15 34 -20.5t26 -5.5q50 0 61 64l71 -4q-4 -74 -38.5 -115.5t-88.5 -41.5q-21 0 -40 7.5t-45 26.5q-37 26 -60 26q-50 0 -61 -64z
" />
    <glyph glyph-name="adieresis" unicode="&#xe4;" horiz-adv-x="557" 
d="M224 -11q-55 0 -97 21t-66.5 57t-24.5 81q0 53 28 85t91 45.5t167 13.5h36v17q0 44 -20 62.5t-68 18.5q-40 0 -84.5 -12.5t-88.5 -37.5l-41 101q26 17 63.5 31t78.5 21.5t78 7.5q114 0 170 -51.5t56 -159.5v-290h-141v74q-15 -39 -50.5 -62t-86.5 -23zM258 90q42 0 71 29
t29 75v20h-35q-77 0 -109 -13.5t-32 -46.5q0 -28 19.5 -46t56.5 -18zM315 590v132h133v-132h-133zM118 590v132h133v-132h-133z" />
    <glyph glyph-name="aring" unicode="&#xe5;" horiz-adv-x="557" 
d="M224 -11q-55 0 -97 21t-66.5 57t-24.5 81q0 53 28 85t91 45.5t167 13.5h36v17q0 44 -20 62.5t-68 18.5q-40 0 -84.5 -12.5t-88.5 -37.5l-41 101q26 17 63.5 31t78.5 21.5t78 7.5q114 0 170 -51.5t56 -159.5v-290h-141v74q-15 -39 -50.5 -62t-86.5 -23zM258 90q42 0 71 29
t29 75v20h-35q-77 0 -109 -13.5t-32 -46.5q0 -28 19.5 -46t56.5 -18zM283 545q-37 0 -66.5 17t-46.5 45.5t-17 64.5t17 64.5t46.5 45t66.5 16.5t66.5 -16.5t46.5 -45t17 -64.5t-17 -64.5t-46.5 -45.5t-66.5 -17zM283 610q26 0 43.5 17.5t17.5 44.5q0 26 -17.5 43.5
t-43.5 17.5t-43.5 -17.5t-17.5 -43.5q0 -27 17.5 -44.5t43.5 -17.5z" />
    <glyph glyph-name="ae" unicode="&#xe6;" horiz-adv-x="868" 
d="M237 -11q-62 0 -106.5 21t-69.5 57t-25 81q0 53 28.5 85t92 45.5t169.5 13.5h31v18q0 42 -20.5 61t-66.5 19q-40 0 -84.5 -12t-88.5 -38l-41 101q26 17 63.5 31t78.5 21.5t78 7.5q58 0 101 -16t68 -51q30 34 72.5 50.5t88.5 16.5q71 0 123 -30.5t80.5 -86.5t28.5 -133
v-37h-335q7 -58 39.5 -85t94.5 -27q85 0 153 49l40 -101q-37 -28 -90.5 -44.5t-106.5 -16.5q-73 0 -129.5 25.5t-86.5 76.5q-23 -49 -69 -75.5t-111 -26.5zM612 401q-96 0 -109 -109h210q-6 109 -101 109zM258 90q44 0 71.5 30t27.5 77v17h-34q-77 0 -109 -13.5t-32 -46.5
q0 -28 19.5 -46t56.5 -18z" />
    <glyph glyph-name="ccedilla" unicode="&#xe7;" horiz-adv-x="478" 
d="M297 -11q-80 0 -139.5 31.5t-91.5 89.5t-32 137t32 136t91.5 87.5t139.5 30.5q47 0 95 -14t78 -40l-42 -104q-25 20 -56 31.5t-60 11.5q-59 0 -91.5 -36.5t-32.5 -103.5q0 -66 32.5 -103.5t91.5 -37.5q28 0 59.5 11t56.5 32l42 -104q-30 -26 -78 -40.5t-95 -14.5z
M285 -197q-31 0 -59.5 5.5t-49.5 16.5l21 64q18 -9 36 -13.5t38 -4.5q52 0 52 26q0 20 -37 20q-9 0 -17.5 -1t-20.5 -4l-20 20l13 88h76l-10 -54h6q45 0 70.5 -19.5t25.5 -54.5q0 -40 -34.5 -64.5t-89.5 -24.5z" />
    <glyph glyph-name="egrave" unicode="&#xe8;" horiz-adv-x="549" 
d="M313 -11q-87 0 -149.5 31.5t-96 89t-33.5 135.5q0 76 32.5 133.5t89 90t130.5 32.5q107 0 170 -67.5t63 -182.5v-38h-341q8 -58 42.5 -84.5t95.5 -26.5q40 0 81 12t74 37l40 -101q-37 -28 -90.5 -44.5t-107.5 -16.5zM292 401q-48 0 -77.5 -29t-36.5 -81h216
q-6 110 -102 110zM237 555l-147 205h145l102 -205h-100z" />
    <glyph glyph-name="eacute" unicode="&#xe9;" horiz-adv-x="549" 
d="M313 -11q-87 0 -149.5 31.5t-96 89t-33.5 135.5q0 76 32.5 133.5t89 90t130.5 32.5q107 0 170 -67.5t63 -182.5v-38h-341q8 -58 42.5 -84.5t95.5 -26.5q40 0 81 12t74 37l40 -101q-37 -28 -90.5 -44.5t-107.5 -16.5zM292 401q-48 0 -77.5 -29t-36.5 -81h216
q-6 110 -102 110zM237 555l103 205h144l-147 -205h-100z" />
    <glyph glyph-name="ecircumflex" unicode="&#xea;" horiz-adv-x="549" 
d="M313 -11q-87 0 -149.5 31.5t-96 89t-33.5 135.5q0 76 32.5 133.5t89 90t130.5 32.5q107 0 170 -67.5t63 -182.5v-38h-341q8 -58 42.5 -84.5t95.5 -26.5q40 0 81 12t74 37l40 -101q-37 -28 -90.5 -44.5t-107.5 -16.5zM292 401q-48 0 -77.5 -29t-36.5 -81h216
q-6 110 -102 110zM112 555l111 205h128l111 -205h-94l-81 123l-81 -123h-94z" />
    <glyph glyph-name="edieresis" unicode="&#xeb;" horiz-adv-x="549" 
d="M313 -11q-87 0 -149.5 31.5t-96 89t-33.5 135.5q0 76 32.5 133.5t89 90t130.5 32.5q107 0 170 -67.5t63 -182.5v-38h-341q8 -58 42.5 -84.5t95.5 -26.5q40 0 81 12t74 37l40 -101q-37 -28 -90.5 -44.5t-107.5 -16.5zM292 401q-48 0 -77.5 -29t-36.5 -81h216
q-6 110 -102 110zM319 590v132h133v-132h-133zM122 590v132h133v-132h-133z" />
    <glyph glyph-name="igrave" unicode="&#xec;" horiz-adv-x="268" 
d="M58 0v491h151v-491h-151zM84 555l-147 205h145l102 -205h-100z" />
    <glyph glyph-name="iacute" unicode="&#xed;" horiz-adv-x="268" 
d="M58 0v491h151v-491h-151zM84 555l103 205h144l-147 -205h-100z" />
    <glyph glyph-name="icircumflex" unicode="&#xee;" horiz-adv-x="268" 
d="M58 0v491h151v-491h-151zM-41 555l111 205h128l111 -205h-94l-81 123l-81 -123h-94z" />
    <glyph glyph-name="idieresis" unicode="&#xef;" horiz-adv-x="268" 
d="M58 0v491h151v-491h-151zM166 590v132h133v-132h-133zM-31 590v132h133v-132h-133z" />
    <glyph glyph-name="eth" unicode="&#xf0;" horiz-adv-x="593" 
d="M288 -11q-75 0 -132.5 29.5t-89.5 82t-32 121.5q0 66 30.5 117.5t84.5 80t124 28.5q42 0 76.5 -11t59.5 -38q-14 47 -42 83.5t-63 62.5l-168 -78l-35 75l112 52q-19 8 -41 14.5t-48 11.5l27 96q57 -10 104 -27t84 -37l139 64l35 -75l-96 -43q70 -61 107 -141.5t37 -166.5
q0 -140 -71 -220.5t-202 -80.5zM294 104q51 0 79.5 32t28.5 85t-28 84.5t-81 31.5q-50 0 -78.5 -31.5t-28.5 -84.5q0 -55 28.5 -86t79.5 -31z" />
    <glyph glyph-name="ntilde" unicode="&#xf1;" horiz-adv-x="595" 
d="M58 0v491h148v-72q25 40 67 61t94 21q87 0 130 -50.5t43 -155.5v-295h-151v288q0 51 -19 73.5t-56 22.5q-48 0 -76.5 -30t-28.5 -80v-274h-151zM168 581l-71 4q5 74 39.5 115.5t87.5 41.5q24 0 42.5 -9t42.5 -25q21 -15 34 -20.5t26 -5.5q50 0 61 64l71 -4
q-4 -74 -38.5 -115.5t-88.5 -41.5q-21 0 -40 7.5t-45 26.5q-37 26 -60 26q-50 0 -61 -64z" />
    <glyph glyph-name="ograve" unicode="&#xf2;" horiz-adv-x="589" 
d="M294 -11q-79 0 -137.5 31.5t-90.5 89t-32 136.5q0 78 32 135.5t90.5 88.5t137.5 31t137.5 -31t91 -88.5t32.5 -135.5q0 -79 -32.5 -136.5t-91 -89t-137.5 -31.5zM294 102q48 0 78.5 35t30.5 109q0 73 -30.5 107.5t-78.5 34.5t-78 -34.5t-30 -107.5q0 -74 30 -109t78 -35z
M244 555l-147 205h145l102 -205h-100z" />
    <glyph glyph-name="oacute" unicode="&#xf3;" horiz-adv-x="589" 
d="M294 -11q-79 0 -137.5 31.5t-90.5 89t-32 136.5q0 78 32 135.5t90.5 88.5t137.5 31t137.5 -31t91 -88.5t32.5 -135.5q0 -79 -32.5 -136.5t-91 -89t-137.5 -31.5zM294 102q48 0 78.5 35t30.5 109q0 73 -30.5 107.5t-78.5 34.5t-78 -34.5t-30 -107.5q0 -74 30 -109t78 -35z
M244 555l103 205h144l-147 -205h-100z" />
    <glyph glyph-name="ocircumflex" unicode="&#xf4;" horiz-adv-x="589" 
d="M294 -11q-79 0 -137.5 31.5t-90.5 89t-32 136.5q0 78 32 135.5t90.5 88.5t137.5 31t137.5 -31t91 -88.5t32.5 -135.5q0 -79 -32.5 -136.5t-91 -89t-137.5 -31.5zM294 102q48 0 78.5 35t30.5 109q0 73 -30.5 107.5t-78.5 34.5t-78 -34.5t-30 -107.5q0 -74 30 -109t78 -35z
M119 555l111 205h128l111 -205h-94l-81 123l-81 -123h-94z" />
    <glyph glyph-name="otilde" unicode="&#xf5;" horiz-adv-x="589" 
d="M294 -11q-79 0 -137.5 31.5t-90.5 89t-32 136.5q0 78 32 135.5t90.5 88.5t137.5 31t137.5 -31t91 -88.5t32.5 -135.5q0 -79 -32.5 -136.5t-91 -89t-137.5 -31.5zM294 102q48 0 78.5 35t30.5 109q0 73 -30.5 107.5t-78.5 34.5t-78 -34.5t-30 -107.5q0 -74 30 -109t78 -35z
M163 581l-71 4q5 74 39.5 115.5t87.5 41.5q24 0 42.5 -9t42.5 -25q21 -15 34 -20.5t26 -5.5q50 0 61 64l71 -4q-4 -74 -38.5 -115.5t-88.5 -41.5q-21 0 -40 7.5t-45 26.5q-37 26 -60 26q-50 0 -61 -64z" />
    <glyph glyph-name="odieresis" unicode="&#xf6;" horiz-adv-x="589" 
d="M294 -11q-79 0 -137.5 31.5t-90.5 89t-32 136.5q0 78 32 135.5t90.5 88.5t137.5 31t137.5 -31t91 -88.5t32.5 -135.5q0 -79 -32.5 -136.5t-91 -89t-137.5 -31.5zM294 102q48 0 78.5 35t30.5 109q0 73 -30.5 107.5t-78.5 34.5t-78 -34.5t-30 -107.5q0 -74 30 -109t78 -35z
M326 590v132h133v-132h-133zM129 590v132h133v-132h-133z" />
    <glyph glyph-name="divide" unicode="&#xf7;" horiz-adv-x="600" 
d="M237 425v115h114v-115h-114zM56 235v104h488v-104h-488zM237 34v115h114v-115h-114z" />
    <glyph glyph-name="oslash" unicode="&#xf8;" horiz-adv-x="589" 
d="M163 -64l-75 44l36 61q-43 33 -66.5 85t-23.5 120q0 78 32 135.5t90.5 88.5t137.5 31q50 0 92 -13l40 68l75 -44l-36 -63q42 -33 66 -84.5t24 -118.5q0 -79 -32.5 -136.5t-91 -89t-137.5 -31.5q-49 0 -92 13zM178 246q0 -51 16 -85l134 228q-16 4 -34 4q-52 0 -84 -36.5
t-32 -110.5zM295 98q52 0 83.5 36.5t31.5 111.5q0 50 -15 84l-134 -228q15 -4 34 -4z" />
    <glyph glyph-name="ugrave" unicode="&#xf9;" horiz-adv-x="590" 
d="M239 -11q-94 0 -138.5 52t-44.5 156v294h151v-298q0 -87 75 -87q43 0 70.5 30.5t27.5 80.5v274h151v-491h-147v67q-49 -78 -145 -78zM244 556l-147 205h145l102 -205h-100z" />
    <glyph glyph-name="uacute" unicode="&#xfa;" horiz-adv-x="590" 
d="M239 -11q-94 0 -138.5 52t-44.5 156v294h151v-298q0 -87 75 -87q43 0 70.5 30.5t27.5 80.5v274h151v-491h-147v67q-49 -78 -145 -78zM244 556l103 205h144l-147 -205h-100z" />
    <glyph glyph-name="ucircumflex" unicode="&#xfb;" horiz-adv-x="590" 
d="M239 -11q-94 0 -138.5 52t-44.5 156v294h151v-298q0 -87 75 -87q43 0 70.5 30.5t27.5 80.5v274h151v-491h-147v67q-49 -78 -145 -78zM119 556l111 205h128l111 -205h-94l-81 123l-81 -123h-94z" />
    <glyph glyph-name="udieresis" unicode="&#xfc;" horiz-adv-x="590" 
d="M239 -11q-94 0 -138.5 52t-44.5 156v294h151v-298q0 -87 75 -87q43 0 70.5 30.5t27.5 80.5v274h151v-491h-147v67q-49 -78 -145 -78zM326 591v132h133v-132h-133zM129 591v132h133v-132h-133z" />
    <glyph glyph-name="yacute" unicode="&#xfd;" horiz-adv-x="533" 
d="M96 -180l94 207l-202 464h159l123 -312l127 312h150l-297 -671h-154zM217 555l103 205h144l-147 -205h-100z" />
    <glyph glyph-name="thorn" unicode="&#xfe;" horiz-adv-x="610" 
d="M58 -180v885h151v-281q22 36 62.5 56.5t89.5 20.5q64 0 112.5 -31t75.5 -88t27 -136t-27 -136.5t-75.5 -89t-112.5 -31.5q-49 0 -89.5 21t-62.5 56v-246h-151zM316 102q48 0 78 35t30 109q0 73 -30 107.5t-78 34.5q-49 0 -79 -34.5t-30 -107.5q0 -74 30 -109t79 -35z" />
    <glyph glyph-name="ydieresis" unicode="&#xff;" horiz-adv-x="533" 
d="M96 -180l94 207l-202 464h159l123 -312l127 312h150l-297 -671h-154zM299 590v132h133v-132h-133zM102 590v132h133v-132h-133z" />
    <glyph glyph-name="Amacron" unicode="&#x100;" horiz-adv-x="753" 
d="M-10 0l324 705h125l324 -705h-156l-66 153h-329l-65 -153h-157zM375 540l-111 -266h226l-113 266h-2zM199 801v85h356v-85h-356z" />
    <glyph glyph-name="amacron" unicode="&#x101;" horiz-adv-x="557" 
d="M224 -11q-55 0 -97 21t-66.5 57t-24.5 81q0 53 28 85t91 45.5t167 13.5h36v17q0 44 -20 62.5t-68 18.5q-40 0 -84.5 -12.5t-88.5 -37.5l-41 101q26 17 63.5 31t78.5 21.5t78 7.5q114 0 170 -51.5t56 -159.5v-290h-141v74q-15 -39 -50.5 -62t-86.5 -23zM258 90q42 0 71 29
t29 75v20h-35q-77 0 -109 -13.5t-32 -46.5q0 -28 19.5 -46t56.5 -18zM120 611v85h326v-85h-326z" />
    <glyph glyph-name="Abreve" unicode="&#x102;" horiz-adv-x="753" 
d="M-10 0l324 705h125l324 -705h-156l-66 153h-329l-65 -153h-157zM375 540l-111 -266h226l-113 266h-2zM377 760q-82 0 -133.5 46.5t-56.5 124.5l83 11q4 -45 32 -70t75 -25q46 0 74.5 25t33.5 70l83 -11q-6 -78 -57.5 -124.5t-133.5 -46.5z" />
    <glyph glyph-name="abreve" unicode="&#x103;" horiz-adv-x="557" 
d="M224 -11q-55 0 -97 21t-66.5 57t-24.5 81q0 53 28 85t91 45.5t167 13.5h36v17q0 44 -20 62.5t-68 18.5q-40 0 -84.5 -12.5t-88.5 -37.5l-41 101q26 17 63.5 31t78.5 21.5t78 7.5q114 0 170 -51.5t56 -159.5v-290h-141v74q-15 -39 -50.5 -62t-86.5 -23zM258 90q42 0 71 29
t29 75v20h-35q-77 0 -109 -13.5t-32 -46.5q0 -28 19.5 -46t56.5 -18zM283 552q-76 0 -123.5 52.5t-49.5 142.5l83 8q4 -56 27 -85.5t63 -29.5t63 29.5t27 85.5l83 -8q-2 -90 -49 -142.5t-124 -52.5z" />
    <glyph glyph-name="Aogonek" unicode="&#x104;" horiz-adv-x="753" 
d="M-10 0l324 705h125l324 -705h-156l-66 153h-329l-65 -153h-157zM375 540l-111 -266h226l-113 266h-2zM688 -197q-59 0 -92 29.5t-33 78.5q0 44 29 80t77 54l42 -45q-26 -10 -41.5 -29.5t-15.5 -42.5t16 -35.5t39 -12.5q15 0 27.5 3t27.5 8l15 -70q-41 -18 -91 -18z" />
    <glyph glyph-name="aogonek" unicode="&#x105;" horiz-adv-x="557" 
d="M224 -11q-55 0 -97 21t-66.5 57t-24.5 81q0 53 28 85t91 45.5t167 13.5h36v17q0 44 -20 62.5t-68 18.5q-40 0 -84.5 -12.5t-88.5 -37.5l-41 101q26 17 63.5 31t78.5 21.5t78 7.5q114 0 170 -51.5t56 -159.5v-290h-141v74q-15 -39 -50.5 -62t-86.5 -23zM258 90q42 0 71 29
t29 75v20h-35q-77 0 -109 -13.5t-32 -46.5q0 -28 19.5 -46t56.5 -18zM433 -197q-59 0 -92 29.5t-33 78.5q0 44 29 80t77 54l42 -45q-26 -10 -41.5 -29.5t-15.5 -42.5t16 -35.5t39 -12.5q15 0 27.5 3t27.5 8l15 -70q-41 -18 -91 -18z" />
    <glyph glyph-name="Cacute" unicode="&#x106;" horiz-adv-x="683" 
d="M413 -11q-114 0 -195 45t-124.5 126.5t-43.5 192.5q0 110 43.5 191.5t124.5 126.5t195 45q70 0 134 -22t105 -60l-48 -123q-45 35 -90.5 51.5t-95.5 16.5q-101 0 -152.5 -58.5t-51.5 -167.5t51.5 -168t152.5 -59q50 0 95.5 16.5t90.5 51.5l48 -123q-41 -37 -105 -59.5
t-134 -22.5zM343 765l118 175h153l-166 -175h-105z" />
    <glyph glyph-name="cacute" unicode="&#x107;" horiz-adv-x="478" 
d="M297 -11q-80 0 -139.5 31.5t-91.5 89.5t-32 137t32 136t91.5 87.5t139.5 30.5q47 0 95 -14t78 -40l-42 -104q-25 20 -56 31.5t-60 11.5q-59 0 -91.5 -36.5t-32.5 -103.5q0 -66 32.5 -103.5t91.5 -37.5q28 0 59.5 11t56.5 32l42 -104q-30 -26 -78 -40.5t-95 -14.5z
M236 555l103 205h144l-147 -205h-100z" />
    <glyph glyph-name="Ccircumflex" unicode="&#x108;" horiz-adv-x="683" 
d="M413 -11q-114 0 -195 45t-124.5 126.5t-43.5 192.5q0 110 43.5 191.5t124.5 126.5t195 45q70 0 134 -22t105 -60l-48 -123q-45 35 -90.5 51.5t-95.5 16.5q-101 0 -152.5 -58.5t-51.5 -167.5t51.5 -168t152.5 -59q50 0 95.5 16.5t90.5 51.5l48 -123q-41 -37 -105 -59.5
t-134 -22.5zM207 765l125 175h126l125 -175h-103l-85 95l-85 -95h-103z" />
    <glyph glyph-name="ccircumflex" unicode="&#x109;" horiz-adv-x="478" 
d="M297 -11q-80 0 -139.5 31.5t-91.5 89.5t-32 137t32 136t91.5 87.5t139.5 30.5q47 0 95 -14t78 -40l-42 -104q-25 20 -56 31.5t-60 11.5q-59 0 -91.5 -36.5t-32.5 -103.5q0 -66 32.5 -103.5t91.5 -37.5q28 0 59.5 11t56.5 32l42 -104q-30 -26 -78 -40.5t-95 -14.5z
M111 555l111 205h128l111 -205h-94l-81 123l-81 -123h-94z" />
    <glyph glyph-name="Cdotaccent" unicode="&#x10a;" horiz-adv-x="683" 
d="M413 -11q-114 0 -195 45t-124.5 126.5t-43.5 192.5q0 110 43.5 191.5t124.5 126.5t195 45q70 0 134 -22t105 -60l-48 -123q-45 35 -90.5 51.5t-95.5 16.5q-101 0 -152.5 -58.5t-51.5 -167.5t51.5 -168t152.5 -59q50 0 95.5 16.5t90.5 51.5l48 -123q-41 -37 -105 -59.5
t-134 -22.5zM325 786v133h140v-133h-140z" />
    <glyph glyph-name="cdotaccent" unicode="&#x10b;" horiz-adv-x="478" 
d="M297 -11q-80 0 -139.5 31.5t-91.5 89.5t-32 137t32 136t91.5 87.5t139.5 30.5q47 0 95 -14t78 -40l-42 -104q-25 20 -56 31.5t-60 11.5q-59 0 -91.5 -36.5t-32.5 -103.5q0 -66 32.5 -103.5t91.5 -37.5q28 0 59.5 11t56.5 32l42 -104q-30 -26 -78 -40.5t-95 -14.5z
M216 590v133h140v-133h-140z" />
    <glyph glyph-name="Ccaron" unicode="&#x10c;" horiz-adv-x="683" 
d="M413 -11q-114 0 -195 45t-124.5 126.5t-43.5 192.5q0 110 43.5 191.5t124.5 126.5t195 45q70 0 134 -22t105 -60l-48 -123q-45 35 -90.5 51.5t-95.5 16.5q-101 0 -152.5 -58.5t-51.5 -167.5t51.5 -168t152.5 -59q50 0 95.5 16.5t90.5 51.5l48 -123q-41 -37 -105 -59.5
t-134 -22.5zM332 765l-125 175h103l85 -95l85 95h103l-125 -175h-126z" />
    <glyph glyph-name="ccaron" unicode="&#x10d;" horiz-adv-x="478" 
d="M297 -11q-80 0 -139.5 31.5t-91.5 89.5t-32 137t32 136t91.5 87.5t139.5 30.5q47 0 95 -14t78 -40l-42 -104q-25 20 -56 31.5t-60 11.5q-59 0 -91.5 -36.5t-32.5 -103.5q0 -66 32.5 -103.5t91.5 -37.5q28 0 59.5 11t56.5 32l42 -104q-30 -26 -78 -40.5t-95 -14.5z
M222 555l-111 205h94l81 -123l81 123h94l-111 -205h-128z" />
    <glyph glyph-name="Dcaron" unicode="&#x10e;" horiz-adv-x="774" 
d="M71 0v705h276q180 0 279 -91.5t99 -260.5t-99 -261t-279 -92h-276zM226 127h112q225 0 225 226q0 225 -225 225h-112v-451zM321 765l-125 175h103l85 -95l85 95h103l-125 -175h-126z" />
    <glyph glyph-name="dcaron" unicode="&#x10f;" horiz-adv-x="610" 
d="M249 -11q-64 0 -112.5 31.5t-75.5 89t-27 136.5t27 136t75.5 88t112.5 31q49 0 90 -21t62 -56v281h151v-705h-148v74q-20 -39 -61.5 -62t-93.5 -23zM294 102q48 0 78.5 35t30.5 109q0 73 -30.5 107.5t-78.5 34.5t-78 -34.5t-30 -107.5q0 -74 30 -109t78 -35zM588 511v194
h95l-28 -194h-67z" />
    <glyph glyph-name="Dcroat" unicode="&#x110;" horiz-adv-x="774" 
d="M71 0v705h276q180 0 279 -91.5t99 -260.5t-99 -261t-279 -92h-276zM226 127h112q225 0 225 226q0 225 -225 225h-112v-451zM-15 301v111h427v-111h-427z" />
    <glyph glyph-name="dcroat" unicode="&#x111;" horiz-adv-x="610" 
d="M249 -11q-63 0 -111.5 31t-76 87.5t-27.5 134.5q0 79 27 135.5t75.5 87t112.5 30.5q50 0 91 -21.5t61 -56.5v121h-186v104h186v63h151v-63h85v-104h-85v-538h-148v72q-21 -38 -62 -60.5t-93 -22.5zM295 102q48 0 78.5 35t30.5 105q0 71 -30.5 105.5t-78.5 34.5
q-49 0 -79 -34.5t-30 -105.5q0 -70 30 -105t79 -35z" />
    <glyph glyph-name="Emacron" unicode="&#x112;" horiz-adv-x="605" 
d="M71 0v705h483v-121h-335v-165h313v-122h-313v-176h335v-121h-483zM153 801v85h356v-85h-356z" />
    <glyph glyph-name="emacron" unicode="&#x113;" horiz-adv-x="549" 
d="M313 -11q-87 0 -149.5 31.5t-96 89t-33.5 135.5q0 76 32.5 133.5t89 90t130.5 32.5q107 0 170 -67.5t63 -182.5v-38h-341q8 -58 42.5 -84.5t95.5 -26.5q40 0 81 12t74 37l40 -101q-37 -28 -90.5 -44.5t-107.5 -16.5zM292 401q-48 0 -77.5 -29t-36.5 -81h216
q-6 110 -102 110zM124 611v85h326v-85h-326z" />
    <glyph glyph-name="Ebreve" unicode="&#x114;" horiz-adv-x="605" 
d="M71 0v705h483v-121h-335v-165h313v-122h-313v-176h335v-121h-483zM331 760q-82 0 -133.5 46.5t-56.5 124.5l83 11q4 -45 32 -70t75 -25q46 0 74.5 25t33.5 70l83 -11q-6 -78 -57.5 -124.5t-133.5 -46.5z" />
    <glyph glyph-name="ebreve" unicode="&#x115;" horiz-adv-x="549" 
d="M313 -11q-87 0 -149.5 31.5t-96 89t-33.5 135.5q0 76 32.5 133.5t89 90t130.5 32.5q107 0 170 -67.5t63 -182.5v-38h-341q8 -58 42.5 -84.5t95.5 -26.5q40 0 81 12t74 37l40 -101q-37 -28 -90.5 -44.5t-107.5 -16.5zM292 401q-48 0 -77.5 -29t-36.5 -81h216
q-6 110 -102 110zM287 552q-76 0 -123.5 52.5t-49.5 142.5l83 8q4 -56 27 -85.5t63 -29.5t63 29.5t27 85.5l83 -8q-2 -90 -49 -142.5t-124 -52.5z" />
    <glyph glyph-name="Edotaccent" unicode="&#x116;" horiz-adv-x="605" 
d="M71 0v705h483v-121h-335v-165h313v-122h-313v-176h335v-121h-483zM261 786v133h140v-133h-140z" />
    <glyph glyph-name="edotaccent" unicode="&#x117;" horiz-adv-x="549" 
d="M313 -11q-87 0 -149.5 31.5t-96 89t-33.5 135.5q0 76 32.5 133.5t89 90t130.5 32.5q107 0 170 -67.5t63 -182.5v-38h-341q8 -58 42.5 -84.5t95.5 -26.5q40 0 81 12t74 37l40 -101q-37 -28 -90.5 -44.5t-107.5 -16.5zM292 401q-48 0 -77.5 -29t-36.5 -81h216
q-6 110 -102 110zM217 590v133h140v-133h-140z" />
    <glyph glyph-name="Eogonek" unicode="&#x118;" horiz-adv-x="605" 
d="M71 0v705h483v-121h-335v-165h313v-122h-313v-176h335v-121h-483zM478 -197q-59 0 -92 29.5t-33 78.5q0 44 29 80t77 54l42 -45q-26 -10 -41.5 -29.5t-15.5 -42.5t16 -35.5t39 -12.5q15 0 27.5 3t27.5 8l15 -70q-41 -18 -91 -18z" />
    <glyph glyph-name="eogonek" unicode="&#x119;" horiz-adv-x="549" 
d="M313 -11q-87 0 -149.5 31.5t-96 89t-33.5 135.5q0 76 32.5 133.5t89 90t130.5 32.5q107 0 170 -67.5t63 -182.5v-38h-341q8 -58 42.5 -84.5t95.5 -26.5q40 0 81 12t74 37l40 -101q-37 -28 -90.5 -44.5t-107.5 -16.5zM292 401q-48 0 -77.5 -29t-36.5 -81h216
q-6 110 -102 110zM357 -197q-59 0 -92 29.5t-33 78.5q0 44 29 80t77 54l42 -45q-26 -10 -41.5 -29.5t-15.5 -42.5t16 -35.5t39 -12.5q15 0 27.5 3t27.5 8l15 -70q-41 -18 -91 -18z" />
    <glyph glyph-name="Ecaron" unicode="&#x11a;" horiz-adv-x="605" 
d="M71 0v705h483v-121h-335v-165h313v-122h-313v-176h335v-121h-483zM268 765l-125 175h103l85 -95l85 95h103l-125 -175h-126z" />
    <glyph glyph-name="ecaron" unicode="&#x11b;" horiz-adv-x="549" 
d="M313 -11q-87 0 -149.5 31.5t-96 89t-33.5 135.5q0 76 32.5 133.5t89 90t130.5 32.5q107 0 170 -67.5t63 -182.5v-38h-341q8 -58 42.5 -84.5t95.5 -26.5q40 0 81 12t74 37l40 -101q-37 -28 -90.5 -44.5t-107.5 -16.5zM292 401q-48 0 -77.5 -29t-36.5 -81h216
q-6 110 -102 110zM223 555l-111 205h94l81 -123l81 123h94l-111 -205h-128z" />
    <glyph glyph-name="Gcircumflex" unicode="&#x11c;" horiz-adv-x="742" 
d="M420 -11q-119 0 -201.5 45t-125.5 126t-43 190q0 112 44.5 194t128.5 127t202 45q74 0 140.5 -21t108.5 -56l-50 -121q-46 34 -94 48.5t-104 14.5q-107 0 -160.5 -59.5t-53.5 -171.5q0 -113 54.5 -171t161.5 -58q57 0 120 18v138h-152v112h280v-346q-52 -26 -120 -40
t-136 -14zM219 765l125 175h126l125 -175h-103l-85 95l-85 -95h-103z" />
    <glyph glyph-name="gcircumflex" unicode="&#x11d;" horiz-adv-x="615" 
d="M294 -191q-71 0 -132.5 15t-107.5 47l41 103q40 -25 90.5 -38.5t95.5 -13.5q128 0 128 118v56q-20 -38 -63 -61t-94 -23q-66 0 -115 30.5t-76 85.5t-27 129q0 73 27 128t76 85.5t115 30.5q53 0 95 -23t62 -61v74h147v-434q0 -124 -67 -186t-195 -62zM297 125
q50 0 80.5 35t30.5 97t-30.5 96.5t-80.5 34.5q-51 0 -81 -34.5t-30 -96.5t30 -97t81 -35zM132 555l111 205h128l111 -205h-94l-81 123l-81 -123h-94z" />
    <glyph glyph-name="Gbreve" unicode="&#x11e;" horiz-adv-x="742" 
d="M420 -11q-119 0 -201.5 45t-125.5 126t-43 190q0 112 44.5 194t128.5 127t202 45q74 0 140.5 -21t108.5 -56l-50 -121q-46 34 -94 48.5t-104 14.5q-107 0 -160.5 -59.5t-53.5 -171.5q0 -113 54.5 -171t161.5 -58q57 0 120 18v138h-152v112h280v-346q-52 -26 -120 -40
t-136 -14zM407 760q-82 0 -133.5 46.5t-56.5 124.5l83 11q4 -45 32 -70t75 -25q46 0 74.5 25t33.5 70l83 -11q-6 -78 -57.5 -124.5t-133.5 -46.5z" />
    <glyph glyph-name="gbreve" unicode="&#x11f;" horiz-adv-x="615" 
d="M294 -191q-71 0 -132.5 15t-107.5 47l41 103q40 -25 90.5 -38.5t95.5 -13.5q128 0 128 118v56q-20 -38 -63 -61t-94 -23q-66 0 -115 30.5t-76 85.5t-27 129q0 73 27 128t76 85.5t115 30.5q53 0 95 -23t62 -61v74h147v-434q0 -124 -67 -186t-195 -62zM297 125
q50 0 80.5 35t30.5 97t-30.5 96.5t-80.5 34.5q-51 0 -81 -34.5t-30 -96.5t30 -97t81 -35zM307 552q-76 0 -123.5 52.5t-49.5 142.5l83 8q4 -56 27 -85.5t63 -29.5t63 29.5t27 85.5l83 -8q-2 -90 -49 -142.5t-124 -52.5z" />
    <glyph glyph-name="Gdotaccent" unicode="&#x120;" horiz-adv-x="742" 
d="M420 -11q-119 0 -201.5 45t-125.5 126t-43 190q0 112 44.5 194t128.5 127t202 45q74 0 140.5 -21t108.5 -56l-50 -121q-46 34 -94 48.5t-104 14.5q-107 0 -160.5 -59.5t-53.5 -171.5q0 -113 54.5 -171t161.5 -58q57 0 120 18v138h-152v112h280v-346q-52 -26 -120 -40
t-136 -14zM337 786v133h140v-133h-140z" />
    <glyph glyph-name="gdotaccent" unicode="&#x121;" horiz-adv-x="615" 
d="M294 -191q-71 0 -132.5 15t-107.5 47l41 103q40 -25 90.5 -38.5t95.5 -13.5q128 0 128 118v56q-20 -38 -63 -61t-94 -23q-66 0 -115 30.5t-76 85.5t-27 129q0 73 27 128t76 85.5t115 30.5q53 0 95 -23t62 -61v74h147v-434q0 -124 -67 -186t-195 -62zM297 125
q50 0 80.5 35t30.5 97t-30.5 96.5t-80.5 34.5q-51 0 -81 -34.5t-30 -96.5t30 -97t81 -35zM237 590v133h140v-133h-140z" />
    <glyph glyph-name="uni0122" unicode="&#x122;" horiz-adv-x="742" 
d="M420 -11q-119 0 -201.5 45t-125.5 126t-43 190q0 112 44.5 194t128.5 127t202 45q74 0 140.5 -21t108.5 -56l-50 -121q-46 34 -94 48.5t-104 14.5q-107 0 -160.5 -59.5t-53.5 -171.5q0 -113 54.5 -171t161.5 -58q57 0 120 18v138h-152v112h280v-346q-52 -26 -120 -40
t-136 -14zM428 -284l-54 36q18 16 26.5 32t10.5 33h-72v114h149v-71q0 -44 -13.5 -79.5t-46.5 -64.5z" />
    <glyph glyph-name="uni0123" unicode="&#x123;" horiz-adv-x="615" 
d="M294 -191q-71 0 -132.5 15t-107.5 47l41 103q40 -25 90.5 -38.5t95.5 -13.5q128 0 128 118v56q-20 -38 -63 -61t-94 -23q-66 0 -115 30.5t-76 85.5t-27 129q0 73 27 128t76 85.5t115 30.5q53 0 95 -23t62 -61v74h147v-434q0 -124 -67 -186t-195 -62zM297 125
q50 0 80.5 35t30.5 97t-30.5 96.5t-80.5 34.5q-51 0 -81 -34.5t-30 -96.5t30 -97t81 -35zM232 562v71q0 44 13.5 79.5t47.5 64.5l53 -36q-17 -16 -25.5 -32t-10.5 -33h71v-114h-149z" />
    <glyph glyph-name="Hcircumflex" unicode="&#x124;" horiz-adv-x="780" 
d="M71 0v705h155v-283h328v283h155v-705h-155v293h-328v-293h-155zM201 765l125 175h126l125 -175h-103l-85 95l-85 -95h-103z" />
    <glyph glyph-name="hcircumflex" unicode="&#x125;" horiz-adv-x="595" 
d="M58 0v705h151v-281q26 38 67 57.5t91 19.5q173 0 173 -206v-295h-151v288q0 51 -19 73.5t-56 22.5q-48 0 -76.5 -30t-28.5 -80v-274h-151zM111 765l125 175h126l125 -175h-103l-85 95l-85 -95h-103z" />
    <glyph glyph-name="Hbar" unicode="&#x126;" horiz-adv-x="829" 
d="M95 0v506h-81v112h81v87h155v-87h328v87h155v-87h82v-112h-82v-506h-155v280h-328v-280h-155zM250 409h328v97h-328v-97z" />
    <glyph glyph-name="hbar" unicode="&#x127;" horiz-adv-x="595" 
d="M58 0v538h-84v104h84v63h151v-63h187v-104h-187v-120q26 37 67 57t91 20q173 0 173 -207v-288h-151v282q0 51 -19 73.5t-56 22.5q-48 0 -76.5 -30t-28.5 -80v-268h-151z" />
    <glyph glyph-name="Itilde" unicode="&#x128;" horiz-adv-x="296" 
d="M71 0v705h155v-705h-155zM-12 766l-71 4q5 76 44 116.5t98 40.5q25 0 49 -8t55 -25q31 -16 47.5 -21.5t29.5 -5.5q56 0 68 64l71 -4q-5 -76 -44 -116.5t-97 -40.5q-26 0 -51.5 9t-55.5 25q-28 15 -44 20.5t-31 5.5q-55 0 -68 -64z" />
    <glyph glyph-name="itilde" unicode="&#x129;" horiz-adv-x="268" 
d="M58 0v491h151v-491h-151zM3 581l-71 4q5 74 39.5 115.5t87.5 41.5q24 0 42.5 -9t42.5 -25q21 -15 34 -20.5t26 -5.5q50 0 61 64l71 -4q-4 -74 -38.5 -115.5t-88.5 -41.5q-21 0 -40 7.5t-45 26.5q-37 26 -60 26q-50 0 -61 -64z" />
    <glyph glyph-name="Imacron" unicode="&#x12a;" horiz-adv-x="296" 
d="M71 0v705h155v-705h-155zM-30 801v85h356v-85h-356z" />
    <glyph glyph-name="imacron" unicode="&#x12b;" horiz-adv-x="268" 
d="M58 0v491h151v-491h-151zM-29 611v85h326v-85h-326z" />
    <glyph glyph-name="Ibreve" unicode="&#x12c;" horiz-adv-x="296" 
d="M71 0v705h155v-705h-155zM148 760q-82 0 -133.5 46.5t-56.5 124.5l83 11q4 -45 32 -70t75 -25q46 0 74.5 25t33.5 70l83 -11q-6 -78 -57.5 -124.5t-133.5 -46.5z" />
    <glyph glyph-name="ibreve" unicode="&#x12d;" horiz-adv-x="268" 
d="M58 0v491h151v-491h-151zM134 552q-76 0 -123.5 52.5t-49.5 142.5l83 8q4 -56 27 -85.5t63 -29.5t63 29.5t27 85.5l83 -8q-2 -90 -49 -142.5t-124 -52.5z" />
    <glyph glyph-name="Iogonek" unicode="&#x12e;" horiz-adv-x="296" 
d="M71 0v705h155v-705h-155zM167 -197q-59 0 -92 29.5t-33 78.5q0 44 29 80t77 54l42 -45q-26 -10 -41.5 -29.5t-15.5 -42.5t16 -35.5t39 -12.5q15 0 27.5 3t27.5 8l15 -70q-41 -18 -91 -18z" />
    <glyph glyph-name="iogonek" unicode="&#x12f;" horiz-adv-x="268" 
d="M58 0v491h151v-491h-151zM52 586v141h164v-141h-164zM152 -197q-59 0 -92 29.5t-33 78.5q0 44 29 80t77 54l42 -45q-26 -10 -41.5 -29.5t-15.5 -42.5t16 -35.5t39 -12.5q15 0 27.5 3t27.5 8l15 -70q-41 -18 -91 -18z" />
    <glyph glyph-name="Idotaccent" unicode="&#x130;" horiz-adv-x="296" 
d="M71 0v705h155v-705h-155zM78 786v133h140v-133h-140z" />
    <glyph glyph-name="dotlessi" unicode="&#x131;" horiz-adv-x="268" 
d="M58 0v491h151v-491h-151z" />
    <glyph glyph-name="IJ" unicode="&#x132;" horiz-adv-x="669" 
d="M71 0v705h155v-705h-155zM297 -10l-11 126l77 4q80 5 80 84v501h155v-499q0 -198 -210 -212z" />
    <glyph glyph-name="Jcircumflex" unicode="&#x134;" horiz-adv-x="373" 
d="M1 -10l-11 126l77 4q80 5 80 84v501h155v-499q0 -198 -210 -212zM35 765l125 175h126l125 -175h-103l-85 95l-85 -95h-103z" />
    <glyph glyph-name="jcircumflex" unicode="&#x135;" horiz-adv-x="273" 
d="M-42 -193l-10 108l47 5q68 8 68 78v493h151v-473q0 -69 -20.5 -113t-67 -67t-125.5 -28zM-37 555l111 205h128l111 -205h-94l-81 123l-81 -123h-94z" />
    <glyph glyph-name="uni0136" unicode="&#x136;" horiz-adv-x="687" 
d="M71 0v705h155v-307h2l293 307h186l-328 -337l342 -368h-188l-305 322h-2v-322h-155zM355 -284l-54 36q18 16 26.5 32t10.5 33h-72v114h149v-71q0 -44 -13.5 -79.5t-46.5 -64.5z" />
    <glyph glyph-name="uni0137" unicode="&#x137;" horiz-adv-x="558" 
d="M58 0v705h151v-417h2l181 203h179l-208 -235l218 -256h-182l-188 212h-2v-212h-151zM293 -284l-54 36q18 16 26.5 32t10.5 33h-72v114h149v-71q0 -44 -13.5 -79.5t-46.5 -64.5z" />
    <glyph glyph-name="kgreenlandic" unicode="&#x138;" horiz-adv-x="558" 
d="M58 0v491h151v-203h2l181 203h179l-208 -235l218 -256h-182l-188 212h-2v-212h-151z" />
    <glyph glyph-name="Lacute" unicode="&#x139;" horiz-adv-x="573" 
d="M71 0v705h155v-574h326v-131h-481zM96 765l118 175h153l-166 -175h-105z" />
    <glyph glyph-name="lacute" unicode="&#x13a;" horiz-adv-x="333" 
d="M241 -11q-95 0 -139 49.5t-44 147.5v519h151v-513q0 -80 71 -80q11 0 21.5 1t20.5 4l-2 -117q-38 -11 -79 -11zM82 765l118 175h153l-166 -175h-105z" />
    <glyph glyph-name="uni013B" unicode="&#x13b;" horiz-adv-x="573" 
d="M71 0v705h155v-574h326v-131h-481zM326 -284l-54 36q18 16 26.5 32t10.5 33h-72v114h149v-71q0 -44 -13.5 -79.5t-46.5 -64.5z" />
    <glyph glyph-name="uni013C" unicode="&#x13c;" horiz-adv-x="333" 
d="M241 -11q-95 0 -139 49.5t-44 147.5v519h151v-513q0 -80 71 -80q11 0 21.5 1t20.5 4l-2 -117q-38 -11 -79 -11zM209 -284l-54 36q18 16 26.5 32t10.5 33h-72v114h149v-71q0 -44 -13.5 -79.5t-46.5 -64.5z" />
    <glyph glyph-name="Lcaron" unicode="&#x13d;" horiz-adv-x="573" 
d="M71 0v705h155v-574h326v-131h-481zM327 462v243h112l-24 -243h-88z" />
    <glyph glyph-name="lcaron" unicode="&#x13e;" horiz-adv-x="333" 
d="M241 -11q-95 0 -139 49.5t-44 147.5v519h151v-513q0 -80 71 -80q11 0 21.5 1t20.5 4l-2 -117q-38 -11 -79 -11zM246 511v194h95l-28 -194h-67z" />
    <glyph glyph-name="Ldot" unicode="&#x13f;" horiz-adv-x="573" 
d="M71 0v705h155v-574h326v-131h-481zM356 326v140h163v-140h-163z" />
    <glyph glyph-name="ldot" unicode="&#x140;" horiz-adv-x="414" 
d="M241 -11q-95 0 -139 49.5t-44 147.5v519h151v-513q0 -80 71 -80q11 0 21.5 1t20.5 4l-2 -117q-38 -11 -79 -11zM259 287v140h163v-140h-163z" />
    <glyph glyph-name="Lslash" unicode="&#x141;" horiz-adv-x="573" 
d="M71 0v705h155v-574h326v-131h-481zM11 214l-56 101l424 244l56 -101z" />
    <glyph glyph-name="lslash" unicode="&#x142;" horiz-adv-x="333" 
d="M241 -11q-95 0 -139 49.5t-44 147.5v519h151v-513q0 -80 71 -80q11 0 21.5 1t20.5 4l-2 -117q-38 -11 -79 -11zM9 212l-56 101l326 189l57 -100z" />
    <glyph glyph-name="Nacute" unicode="&#x143;" horiz-adv-x="753" 
d="M71 0v705h115l352 -449v449h144v-705h-114l-353 450v-450h-144zM324 765l118 175h153l-166 -175h-105z" />
    <glyph glyph-name="nacute" unicode="&#x144;" horiz-adv-x="595" 
d="M58 0v491h148v-72q25 40 67 61t94 21q87 0 130 -50.5t43 -155.5v-295h-151v288q0 51 -19 73.5t-56 22.5q-48 0 -76.5 -30t-28.5 -80v-274h-151zM249 555l103 205h144l-147 -205h-100z" />
    <glyph glyph-name="uni0145" unicode="&#x145;" horiz-adv-x="753" 
d="M71 0v705h115l352 -449v449h144v-705h-114l-353 450v-450h-144zM391 -284l-54 36q18 16 26.5 32t10.5 33h-72v114h149v-71q0 -44 -13.5 -79.5t-46.5 -64.5z" />
    <glyph glyph-name="uni0146" unicode="&#x146;" horiz-adv-x="595" 
d="M58 0v491h148v-72q25 40 67 61t94 21q87 0 130 -50.5t43 -155.5v-295h-151v288q0 51 -19 73.5t-56 22.5q-48 0 -76.5 -30t-28.5 -80v-274h-151zM313 -284l-54 36q18 16 26.5 32t10.5 33h-72v114h149v-71q0 -44 -13.5 -79.5t-46.5 -64.5z" />
    <glyph glyph-name="Ncaron" unicode="&#x147;" horiz-adv-x="753" 
d="M71 0v705h115l352 -449v449h144v-705h-114l-353 450v-450h-144zM313 765l-125 175h103l85 -95l85 95h103l-125 -175h-126z" />
    <glyph glyph-name="ncaron" unicode="&#x148;" horiz-adv-x="595" 
d="M58 0v491h148v-72q25 40 67 61t94 21q87 0 130 -50.5t43 -155.5v-295h-151v288q0 51 -19 73.5t-56 22.5q-48 0 -76.5 -30t-28.5 -80v-274h-151zM235 555l-111 205h94l81 -123l81 123h94l-111 -205h-128z" />
    <glyph glyph-name="napostrophe" unicode="&#x149;" horiz-adv-x="595" 
d="M55 564l-53 36q17 15 25 30.5t10 30.5h-71v116h149v-71q0 -43 -12.5 -77.5t-47.5 -64.5zM58 0v491h148v-72q25 40 67 61t94 21q87 0 130 -50.5t43 -155.5v-295h-151v288q0 51 -19 73.5t-56 22.5q-48 0 -76.5 -30t-28.5 -80v-274h-151z" />
    <glyph glyph-name="Eng" unicode="&#x14a;" horiz-adv-x="753" 
d="M426 -193l-10 108l50 5q72 8 72 78v40l-323 412v-450h-144v705h115l352 -449v449h144v-687q0 -69 -20.5 -113t-67 -67t-124.5 -28z" />
    <glyph glyph-name="eng" unicode="&#x14b;" horiz-adv-x="595" 
d="M284 -193l-10 108l46 5q69 8 69 78v290q0 51 -19 73.5t-56 22.5q-48 0 -76.5 -30t-28.5 -80v-274h-151v491h148v-72q25 40 67 61t94 21q87 0 130 -50.5t43 -155.5v-277q0 -69 -20.5 -113t-67 -67t-124.5 -28z" />
    <glyph glyph-name="Omacron" unicode="&#x14c;" horiz-adv-x="796" 
d="M398 -11q-104 0 -182.5 45.5t-122 127t-43.5 191.5t43.5 191.5t121.5 126.5t183 45t183.5 -45t122 -126.5t43.5 -190.5q0 -110 -43.5 -192t-122 -127.5t-183.5 -45.5zM398 121q88 0 137.5 61.5t49.5 170.5q0 110 -49 170.5t-138 60.5q-87 0 -136.5 -60.5t-49.5 -170.5
q0 -109 49.5 -170.5t136.5 -61.5zM219 801v85h356v-85h-356z" />
    <glyph glyph-name="omacron" unicode="&#x14d;" horiz-adv-x="589" 
d="M294 -11q-79 0 -137.5 31.5t-90.5 89t-32 136.5q0 78 32 135.5t90.5 88.5t137.5 31t137.5 -31t91 -88.5t32.5 -135.5q0 -79 -32.5 -136.5t-91 -89t-137.5 -31.5zM294 102q48 0 78.5 35t30.5 109q0 73 -30.5 107.5t-78.5 34.5t-78 -34.5t-30 -107.5q0 -74 30 -109t78 -35z
M131 611v85h326v-85h-326z" />
    <glyph glyph-name="Obreve" unicode="&#x14e;" horiz-adv-x="796" 
d="M398 -11q-104 0 -182.5 45.5t-122 127t-43.5 191.5t43.5 191.5t121.5 126.5t183 45t183.5 -45t122 -126.5t43.5 -190.5q0 -110 -43.5 -192t-122 -127.5t-183.5 -45.5zM398 121q88 0 137.5 61.5t49.5 170.5q0 110 -49 170.5t-138 60.5q-87 0 -136.5 -60.5t-49.5 -170.5
q0 -109 49.5 -170.5t136.5 -61.5zM397 760q-82 0 -133.5 46.5t-56.5 124.5l83 11q4 -45 32 -70t75 -25q46 0 74.5 25t33.5 70l83 -11q-6 -78 -57.5 -124.5t-133.5 -46.5z" />
    <glyph glyph-name="obreve" unicode="&#x14f;" horiz-adv-x="589" 
d="M294 -11q-79 0 -137.5 31.5t-90.5 89t-32 136.5q0 78 32 135.5t90.5 88.5t137.5 31t137.5 -31t91 -88.5t32.5 -135.5q0 -79 -32.5 -136.5t-91 -89t-137.5 -31.5zM294 102q48 0 78.5 35t30.5 109q0 73 -30.5 107.5t-78.5 34.5t-78 -34.5t-30 -107.5q0 -74 30 -109t78 -35z
M294 552q-76 0 -123.5 52.5t-49.5 142.5l83 8q4 -56 27 -85.5t63 -29.5t63 29.5t27 85.5l83 -8q-2 -90 -49 -142.5t-124 -52.5z" />
    <glyph glyph-name="Ohungarumlaut" unicode="&#x150;" horiz-adv-x="796" 
d="M398 -11q-104 0 -182.5 45.5t-122 127t-43.5 191.5t43.5 191.5t121.5 126.5t183 45t183.5 -45t122 -126.5t43.5 -190.5q0 -110 -43.5 -192t-122 -127.5t-183.5 -45.5zM398 121q88 0 137.5 61.5t49.5 170.5q0 110 -49 170.5t-138 60.5q-87 0 -136.5 -60.5t-49.5 -170.5
q0 -109 49.5 -170.5t136.5 -61.5zM276 765l85 175h131l-132 -175h-84zM434 765l98 175h131l-144 -175h-85z" />
    <glyph glyph-name="ohungarumlaut" unicode="&#x151;" horiz-adv-x="589" 
d="M294 -11q-79 0 -137.5 31.5t-90.5 89t-32 136.5q0 78 32 135.5t90.5 88.5t137.5 31t137.5 -31t91 -88.5t32.5 -135.5q0 -79 -32.5 -136.5t-91 -89t-137.5 -31.5zM294 102q48 0 78.5 35t30.5 109q0 73 -30.5 107.5t-78.5 34.5t-78 -34.5t-30 -107.5q0 -74 30 -109t78 -35z
M333 555l47 205h123l-91 -205h-79zM172 555l47 205h123l-92 -205h-78z" />
    <glyph glyph-name="OE" unicode="&#x152;" horiz-adv-x="1062" 
d="M427 0q-180 0 -278.5 92t-98.5 261t98.5 260.5t278.5 91.5h583v-121h-334v-165h312v-122h-312v-176h334v-121h-583zM437 127h90v451h-90q-225 0 -225 -225q0 -226 225 -226z" />
    <glyph glyph-name="oe" unicode="&#x153;" horiz-adv-x="917" 
d="M289 -11q-78 0 -135.5 32t-88.5 90t-31 136t31 135t88.5 88t135.5 31q62 0 109.5 -21.5t79.5 -61.5q29 38 75 60.5t103 22.5q107 0 169.5 -67t62.5 -183v-38h-335q8 -57 40.5 -84t93.5 -27q40 0 79.5 12.5t73.5 36.5l40 -101q-37 -28 -90.5 -44.5t-106.5 -16.5
q-141 0 -206 88q-32 -42 -79 -65t-109 -23zM662 401q-46 0 -74.5 -27.5t-34.5 -82.5h210q-3 54 -29 82t-72 28zM295 102q48 0 78 36t30 108t-30.5 107t-78.5 35t-78 -35t-30 -107t30 -108t79 -36z" />
    <glyph glyph-name="Racute" unicode="&#x154;" horiz-adv-x="696" 
d="M71 0v705h322q118 0 182 -57t64 -159q0 -79 -40.5 -131.5t-115.5 -71.5q53 -16 87 -77l114 -209h-171l-122 225q-15 27 -37 37.5t-52 10.5h-76v-273h-155zM226 385h139q125 0 125 100q0 99 -125 99h-139v-199zM300 765l118 175h153l-166 -175h-105z" />
    <glyph glyph-name="racute" unicode="&#x155;" horiz-adv-x="412" 
d="M58 0v491h148v-85q35 86 150 95l44 3l9 -127l-85 -9q-112 -11 -112 -114v-254h-154zM184 555l103 205h144l-147 -205h-100z" />
    <glyph glyph-name="uni0156" unicode="&#x156;" horiz-adv-x="696" 
d="M71 0v705h322q118 0 182 -57t64 -159q0 -79 -40.5 -131.5t-115.5 -71.5q53 -16 87 -77l114 -209h-171l-122 225q-15 27 -37 37.5t-52 10.5h-76v-273h-155zM226 385h139q125 0 125 100q0 99 -125 99h-139v-199zM367 -284l-54 36q18 16 26.5 32t10.5 33h-72v114h149v-71
q0 -44 -13.5 -79.5t-46.5 -64.5z" />
    <glyph glyph-name="uni0157" unicode="&#x157;" horiz-adv-x="412" 
d="M58 0v491h148v-85q35 86 150 95l44 3l9 -127l-85 -9q-112 -11 -112 -114v-254h-154zM149 -284l-54 36q18 16 26.5 32t10.5 33h-72v114h149v-71q0 -44 -13.5 -79.5t-46.5 -64.5z" />
    <glyph glyph-name="Rcaron" unicode="&#x158;" horiz-adv-x="696" 
d="M71 0v705h322q118 0 182 -57t64 -159q0 -79 -40.5 -131.5t-115.5 -71.5q53 -16 87 -77l114 -209h-171l-122 225q-15 27 -37 37.5t-52 10.5h-76v-273h-155zM226 385h139q125 0 125 100q0 99 -125 99h-139v-199zM289 765l-125 175h103l85 -95l85 95h103l-125 -175h-126z
" />
    <glyph glyph-name="rcaron" unicode="&#x159;" horiz-adv-x="412" 
d="M58 0v491h148v-85q35 86 150 95l44 3l9 -127l-85 -9q-112 -11 -112 -114v-254h-154zM170 555l-111 205h94l81 -123l81 123h94l-111 -205h-128z" />
    <glyph glyph-name="Sacute" unicode="&#x15a;" horiz-adv-x="641" 
d="M323 -11q-83 0 -156.5 21t-122.5 57l45 122q47 -33 107.5 -52t126.5 -19q72 0 103.5 22.5t31.5 56.5q0 29 -22 46t-77 29l-113 24q-189 40 -189 196q0 67 36 117.5t100.5 78.5t149.5 28q73 0 137 -21t106 -59l-45 -114q-82 65 -199 65q-63 0 -97.5 -24.5t-34.5 -63.5
q0 -29 21 -47t73 -29l113 -24q194 -42 194 -190q0 -66 -35.5 -115.5t-100 -77t-152.5 -27.5zM279 765l118 175h153l-166 -175h-105z" />
    <glyph glyph-name="sacute" unicode="&#x15b;" horiz-adv-x="492" 
d="M246 -11q-65 0 -121 15t-93 41l36 98q37 -23 84.5 -36.5t94.5 -13.5q42 0 62 13.5t20 35.5q0 35 -51 44l-105 19q-63 11 -96 45t-33 89q0 50 28 86t77 56t113 20q53 0 103 -13.5t86 -42.5l-38 -97q-30 22 -71.5 36t-77.5 14q-45 0 -65 -14.5t-20 -36.5q0 -35 47 -44
l105 -19q65 -11 99 -43.5t34 -88.5q0 -77 -60 -120t-158 -43zM205 555l103 205h144l-147 -205h-100z" />
    <glyph glyph-name="Scircumflex" unicode="&#x15c;" horiz-adv-x="641" 
d="M323 -11q-83 0 -156.5 21t-122.5 57l45 122q47 -33 107.5 -52t126.5 -19q72 0 103.5 22.5t31.5 56.5q0 29 -22 46t-77 29l-113 24q-189 40 -189 196q0 67 36 117.5t100.5 78.5t149.5 28q73 0 137 -21t106 -59l-45 -114q-82 65 -199 65q-63 0 -97.5 -24.5t-34.5 -63.5
q0 -29 21 -47t73 -29l113 -24q194 -42 194 -190q0 -66 -35.5 -115.5t-100 -77t-152.5 -27.5zM143 765l125 175h126l125 -175h-103l-85 95l-85 -95h-103z" />
    <glyph glyph-name="scircumflex" unicode="&#x15d;" horiz-adv-x="492" 
d="M246 -11q-65 0 -121 15t-93 41l36 98q37 -23 84.5 -36.5t94.5 -13.5q42 0 62 13.5t20 35.5q0 35 -51 44l-105 19q-63 11 -96 45t-33 89q0 50 28 86t77 56t113 20q53 0 103 -13.5t86 -42.5l-38 -97q-30 22 -71.5 36t-77.5 14q-45 0 -65 -14.5t-20 -36.5q0 -35 47 -44
l105 -19q65 -11 99 -43.5t34 -88.5q0 -77 -60 -120t-158 -43zM80 555l111 205h128l111 -205h-94l-81 123l-81 -123h-94z" />
    <glyph glyph-name="Scedilla" unicode="&#x15e;" horiz-adv-x="641" 
d="M323 -11q-83 0 -156.5 21t-122.5 57l45 122q47 -33 107.5 -52t126.5 -19q72 0 103.5 22.5t31.5 56.5q0 29 -22 46t-77 29l-113 24q-189 40 -189 196q0 67 36 117.5t100.5 78.5t149.5 28q73 0 137 -21t106 -59l-45 -114q-82 65 -199 65q-63 0 -97.5 -24.5t-34.5 -63.5
q0 -29 21 -47t73 -29l113 -24q194 -42 194 -190q0 -66 -35.5 -115.5t-100 -77t-152.5 -27.5zM326 -197q-31 0 -59.5 5.5t-49.5 16.5l21 64q18 -9 36 -13.5t38 -4.5q52 0 52 26q0 20 -37 20q-9 0 -17.5 -1t-20.5 -4l-20 20l13 88h76l-10 -54h6q45 0 70.5 -19.5t25.5 -54.5
q0 -40 -34.5 -64.5t-89.5 -24.5z" />
    <glyph glyph-name="scedilla" unicode="&#x15f;" horiz-adv-x="492" 
d="M246 -11q-65 0 -121 15t-93 41l36 98q37 -23 84.5 -36.5t94.5 -13.5q42 0 62 13.5t20 35.5q0 35 -51 44l-105 19q-63 11 -96 45t-33 89q0 50 28 86t77 56t113 20q53 0 103 -13.5t86 -42.5l-38 -97q-30 22 -71.5 36t-77.5 14q-45 0 -65 -14.5t-20 -36.5q0 -35 47 -44
l105 -19q65 -11 99 -43.5t34 -88.5q0 -77 -60 -120t-158 -43zM246 -197q-31 0 -59.5 5.5t-49.5 16.5l21 64q18 -9 36 -13.5t38 -4.5q52 0 52 26q0 20 -37 20q-9 0 -17.5 -1t-20.5 -4l-20 20l13 88h76l-10 -54h6q45 0 70.5 -19.5t25.5 -54.5q0 -40 -34.5 -64.5t-89.5 -24.5z
" />
    <glyph glyph-name="Scaron" unicode="&#x160;" horiz-adv-x="641" 
d="M323 -11q-83 0 -156.5 21t-122.5 57l45 122q47 -33 107.5 -52t126.5 -19q72 0 103.5 22.5t31.5 56.5q0 29 -22 46t-77 29l-113 24q-189 40 -189 196q0 67 36 117.5t100.5 78.5t149.5 28q73 0 137 -21t106 -59l-45 -114q-82 65 -199 65q-63 0 -97.5 -24.5t-34.5 -63.5
q0 -29 21 -47t73 -29l113 -24q194 -42 194 -190q0 -66 -35.5 -115.5t-100 -77t-152.5 -27.5zM268 765l-125 175h103l85 -95l85 95h103l-125 -175h-126z" />
    <glyph glyph-name="scaron" unicode="&#x161;" horiz-adv-x="492" 
d="M246 -11q-65 0 -121 15t-93 41l36 98q37 -23 84.5 -36.5t94.5 -13.5q42 0 62 13.5t20 35.5q0 35 -51 44l-105 19q-63 11 -96 45t-33 89q0 50 28 86t77 56t113 20q53 0 103 -13.5t86 -42.5l-38 -97q-30 22 -71.5 36t-77.5 14q-45 0 -65 -14.5t-20 -36.5q0 -35 47 -44
l105 -19q65 -11 99 -43.5t34 -88.5q0 -77 -60 -120t-158 -43zM191 555l-111 205h94l81 -123l81 123h94l-111 -205h-128z" />
    <glyph glyph-name="uni0162" unicode="&#x162;" horiz-adv-x="632" 
d="M239 0v577h-233v128h621v-128h-233v-577h-155zM316 -197q-31 0 -59.5 5.5t-49.5 16.5l21 64q18 -9 36 -13.5t38 -4.5q52 0 52 26q0 20 -37 20q-9 0 -17.5 -1t-20.5 -4l-20 20l13 88h76l-10 -54h6q45 0 70.5 -19.5t25.5 -54.5q0 -40 -34.5 -64.5t-89.5 -24.5z" />
    <glyph glyph-name="uni0163" unicode="&#x163;" horiz-adv-x="404" 
d="M299 -11q-207 0 -207 201v188h-93v113h93v144h151v-144h145v-113h-145v-182q0 -42 19.5 -63t62.5 -21q13 0 27.5 3t31.5 8l22 -110q-21 -11 -50 -17.5t-57 -6.5zM237 -197q-31 0 -59.5 5.5t-49.5 16.5l21 64q18 -9 36 -13.5t38 -4.5q52 0 52 26q0 20 -37 20
q-9 0 -17.5 -1t-20.5 -4l-20 20l13 88h76l-10 -54h6q45 0 70.5 -19.5t25.5 -54.5q0 -40 -34.5 -64.5t-89.5 -24.5z" />
    <glyph glyph-name="Tcaron" unicode="&#x164;" horiz-adv-x="632" 
d="M239 0v577h-233v128h621v-128h-233v-577h-155zM253 765l-125 175h103l85 -95l85 95h103l-125 -175h-126z" />
    <glyph glyph-name="tcaron" unicode="&#x165;" horiz-adv-x="404" 
d="M299 -11q-207 0 -207 201v188h-93v113h93v144h151v-144h145v-113h-145v-182q0 -42 19.5 -63t62.5 -21q13 0 27.5 3t31.5 8l22 -110q-21 -11 -50 -17.5t-57 -6.5zM291 530v175h95l-28 -175h-67z" />
    <glyph glyph-name="Tbar" unicode="&#x166;" horiz-adv-x="632" 
d="M239 0v577h-233v128h621v-128h-233v-577h-155zM102 301v111h427v-111h-427z" />
    <glyph glyph-name="tbar" unicode="&#x167;" horiz-adv-x="404" 
d="M299 -11q-207 0 -207 201v188h-93v113h93v144h151v-144h145v-113h-145v-182q0 -42 19.5 -63t62.5 -21q13 0 27.5 3t31.5 8l22 -110q-21 -11 -50 -17.5t-57 -6.5zM25 213v88h327v-88h-327z" />
    <glyph glyph-name="Utilde" unicode="&#x168;" horiz-adv-x="743" 
d="M373 -11q-150 0 -228.5 77t-78.5 229v410h155v-411q0 -86 39 -129.5t113 -43.5q151 0 151 173v411h153v-410q0 -152 -77 -229t-227 -77zM213 766l-71 4q5 76 44 116.5t98 40.5q25 0 49 -8t55 -25q31 -16 47.5 -21.5t29.5 -5.5q56 0 68 64l71 -4q-5 -76 -44 -116.5
t-97 -40.5q-26 0 -51.5 9t-55.5 25q-28 15 -44 20.5t-31 5.5q-55 0 -68 -64z" />
    <glyph glyph-name="utilde" unicode="&#x169;" horiz-adv-x="590" 
d="M239 -11q-94 0 -138.5 52t-44.5 156v294h151v-298q0 -87 75 -87q43 0 70.5 30.5t27.5 80.5v274h151v-491h-147v67q-49 -78 -145 -78zM163 582l-71 4q5 74 39.5 115.5t87.5 41.5q24 0 42.5 -9t42.5 -25q21 -15 34 -20.5t26 -5.5q50 0 61 64l71 -4q-4 -74 -38.5 -115.5
t-88.5 -41.5q-21 0 -40 7.5t-45 26.5q-37 26 -60 26q-50 0 -61 -64z" />
    <glyph glyph-name="Umacron" unicode="&#x16a;" horiz-adv-x="743" 
d="M373 -11q-150 0 -228.5 77t-78.5 229v410h155v-411q0 -86 39 -129.5t113 -43.5q151 0 151 173v411h153v-410q0 -152 -77 -229t-227 -77zM195 801v85h356v-85h-356z" />
    <glyph glyph-name="umacron" unicode="&#x16b;" horiz-adv-x="590" 
d="M239 -11q-94 0 -138.5 52t-44.5 156v294h151v-298q0 -87 75 -87q43 0 70.5 30.5t27.5 80.5v274h151v-491h-147v67q-49 -78 -145 -78zM131 612v85h326v-85h-326z" />
    <glyph glyph-name="Ubreve" unicode="&#x16c;" horiz-adv-x="743" 
d="M373 -11q-150 0 -228.5 77t-78.5 229v410h155v-411q0 -86 39 -129.5t113 -43.5q151 0 151 173v411h153v-410q0 -152 -77 -229t-227 -77zM373 760q-82 0 -133.5 46.5t-56.5 124.5l83 11q4 -45 32 -70t75 -25q46 0 74.5 25t33.5 70l83 -11q-6 -78 -57.5 -124.5
t-133.5 -46.5z" />
    <glyph glyph-name="ubreve" unicode="&#x16d;" horiz-adv-x="590" 
d="M239 -11q-94 0 -138.5 52t-44.5 156v294h151v-298q0 -87 75 -87q43 0 70.5 30.5t27.5 80.5v274h151v-491h-147v67q-49 -78 -145 -78zM294 553q-76 0 -123.5 52.5t-49.5 142.5l83 8q4 -56 27 -85.5t63 -29.5t63 29.5t27 85.5l83 -8q-2 -90 -49 -142.5t-124 -52.5z" />
    <glyph glyph-name="Uring" unicode="&#x16e;" horiz-adv-x="743" 
d="M373 -11q-150 0 -228.5 77t-78.5 229v410h155v-411q0 -86 39 -129.5t113 -43.5q151 0 151 173v411h153v-410q0 -152 -77 -229t-227 -77zM373 753q-37 0 -66.5 17t-46.5 45.5t-17 64.5t17 64.5t46.5 45t66.5 16.5t66.5 -16.5t46.5 -45t17 -64.5t-17 -64.5t-46.5 -45.5
t-66.5 -17zM373 818q26 0 43.5 17.5t17.5 44.5t-17.5 44t-43.5 17t-43.5 -17t-17.5 -44t17.5 -44.5t43.5 -17.5z" />
    <glyph glyph-name="uring" unicode="&#x16f;" horiz-adv-x="590" 
d="M239 -11q-94 0 -138.5 52t-44.5 156v294h151v-298q0 -87 75 -87q43 0 70.5 30.5t27.5 80.5v274h151v-491h-147v67q-49 -78 -145 -78zM294 546q-37 0 -66.5 17t-46.5 45.5t-17 64.5t17 64.5t46.5 45t66.5 16.5t66.5 -16.5t46.5 -45t17 -64.5t-17 -64.5t-46.5 -45.5
t-66.5 -17zM294 611q26 0 43.5 17.5t17.5 44.5q0 26 -17.5 43.5t-43.5 17.5t-43.5 -17.5t-17.5 -43.5q0 -27 17.5 -44.5t43.5 -17.5z" />
    <glyph glyph-name="Uhungarumlaut" unicode="&#x170;" horiz-adv-x="743" 
d="M373 -11q-150 0 -228.5 77t-78.5 229v410h155v-411q0 -86 39 -129.5t113 -43.5q151 0 151 173v411h153v-410q0 -152 -77 -229t-227 -77zM252 765l85 175h131l-132 -175h-84zM410 765l98 175h131l-144 -175h-85z" />
    <glyph glyph-name="uhungarumlaut" unicode="&#x171;" horiz-adv-x="590" 
d="M239 -11q-94 0 -138.5 52t-44.5 156v294h151v-298q0 -87 75 -87q43 0 70.5 30.5t27.5 80.5v274h151v-491h-147v67q-49 -78 -145 -78zM333 556l47 205h123l-91 -205h-79zM172 556l47 205h123l-92 -205h-78z" />
    <glyph glyph-name="Uogonek" unicode="&#x172;" horiz-adv-x="743" 
d="M373 -11q-150 0 -228.5 77t-78.5 229v410h155v-411q0 -86 39 -129.5t113 -43.5q151 0 151 173v411h153v-410q0 -152 -77 -229t-227 -77zM407 -197q-59 0 -92 29.5t-33 78.5q0 44 29 80t77 54l42 -45q-26 -10 -41.5 -29.5t-15.5 -42.5t16 -35.5t39 -12.5q15 0 27.5 3
t27.5 8l15 -70q-41 -18 -91 -18z" />
    <glyph glyph-name="uogonek" unicode="&#x173;" horiz-adv-x="590" 
d="M239 -11q-94 0 -138.5 52t-44.5 156v294h151v-298q0 -87 75 -87q43 0 70.5 30.5t27.5 80.5v274h151v-491h-147v67q-49 -78 -145 -78zM462 -197q-59 0 -92 29.5t-33 78.5q0 44 29 80t77 54l42 -45q-26 -10 -41.5 -29.5t-15.5 -42.5t16 -35.5t39 -12.5q15 0 27.5 3t27.5 8
l15 -70q-41 -18 -91 -18z" />
    <glyph glyph-name="Wcircumflex" unicode="&#x174;" horiz-adv-x="1120" 
d="M268 0l-251 705h159l162 -482l171 482h112l166 -490l168 490h150l-253 -705h-126l-165 468l-167 -468h-126zM373 765l125 175h126l125 -175h-103l-85 95l-85 -95h-103z" />
    <glyph glyph-name="wcircumflex" unicode="&#x175;" horiz-adv-x="861" 
d="M197 0l-200 491h153l117 -315l117 315h100l117 -319l117 319h145l-198 -491h-128l-108 279l-105 -279h-127zM256 555l111 205h128l111 -205h-94l-81 123l-81 -123h-94z" />
    <glyph glyph-name="Ycircumflex" unicode="&#x176;" horiz-adv-x="631" 
d="M238 0v318l-272 387h180l172 -248l172 248h173l-270 -388v-317h-155zM127 765l125 175h126l125 -175h-103l-85 95l-85 -95h-103z" />
    <glyph glyph-name="ycircumflex" unicode="&#x177;" horiz-adv-x="533" 
d="M96 -180l94 207l-202 464h159l123 -312l127 312h150l-297 -671h-154zM92 555l111 205h128l111 -205h-94l-81 123l-81 -123h-94z" />
    <glyph glyph-name="Ydieresis" unicode="&#x178;" horiz-adv-x="631" 
d="M238 0v318l-272 387h180l172 -248l172 248h173l-270 -388v-317h-155zM347 781v132h133v-132h-133zM150 781v132h133v-132h-133z" />
    <glyph glyph-name="Zacute" unicode="&#x179;" horiz-adv-x="615" 
d="M46 0v114l352 462h-352v129h533v-114l-353 -462h368v-129h-548zM265 765l118 175h153l-166 -175h-105z" />
    <glyph glyph-name="zacute" unicode="&#x17a;" horiz-adv-x="480" 
d="M46 0v97l236 281h-236v113h399v-97l-236 -282h247v-112h-410zM196 555l103 205h144l-147 -205h-100z" />
    <glyph glyph-name="Zdotaccent" unicode="&#x17b;" horiz-adv-x="615" 
d="M46 0v114l352 462h-352v129h533v-114l-353 -462h368v-129h-548zM247 786v133h140v-133h-140z" />
    <glyph glyph-name="zdotaccent" unicode="&#x17c;" horiz-adv-x="480" 
d="M46 0v97l236 281h-236v113h399v-97l-236 -282h247v-112h-410zM176 590v133h140v-133h-140z" />
    <glyph glyph-name="Zcaron" unicode="&#x17d;" horiz-adv-x="615" 
d="M46 0v114l352 462h-352v129h533v-114l-353 -462h368v-129h-548zM254 765l-125 175h103l85 -95l85 95h103l-125 -175h-126z" />
    <glyph glyph-name="zcaron" unicode="&#x17e;" horiz-adv-x="480" 
d="M46 0v97l236 281h-236v113h399v-97l-236 -282h247v-112h-410zM182 555l-111 205h94l81 -123l81 123h94l-111 -205h-128z" />
    <glyph glyph-name="uni0181" unicode="&#x181;" horiz-adv-x="860" 
d="M236 0v597h-22q-46 0 -67 -21.5t-21 -69.5v-49h-126v54q0 95 54.5 144.5t165.5 49.5h340q112 0 174 -49t62 -134q0 -56 -28.5 -96.5t-78.5 -60.5q60 -17 92.5 -60t32.5 -106q0 -94 -65 -146.5t-179 -52.5h-334zM385 415h147q115 0 115 88q0 87 -115 87h-147v-175z
M385 115h165q59 0 87 23t28 70q0 46 -28 69t-87 23h-165v-185z" />
    <glyph glyph-name="uni018A" unicode="&#x18a;" horiz-adv-x="939" 
d="M236 0v597h-22q-46 0 -67 -21.5t-21 -69.5v-49h-126v54q0 95 54.5 144.5t161.5 49.5h296q181 0 279.5 -91.5t98.5 -260.5t-98.5 -261t-279.5 -92h-276zM391 127h112q225 0 225 226q0 225 -225 225h-112v-451z" />
    <glyph glyph-name="uni018F" unicode="&#x18f;" horiz-adv-x="796" 
d="M406 -11q-117 0 -196 47.5t-119.5 131.5t-40.5 194v52h530q-30 170 -225 170q-126 0 -223 -66l-52 118q54 38 129 59t166 21q112 0 195.5 -44t130 -126t46.5 -194q0 -110 -43.5 -191.5t-120.5 -126.5t-177 -45zM398 115q77 0 124 44.5t59 132.5h-369q22 -177 186 -177z
" />
    <glyph glyph-name="florin" unicode="&#x192;" horiz-adv-x="600" 
d="M27 -191v119h62q33 0 53.5 19t30.5 64l78 367h-102v113h125l6 26q19 95 77.5 147t148.5 52h67v-119h-50q-41 0 -63 -19.5t-32 -64.5l-5 -22h110v-113h-133l-80 -371q-20 -95 -76.5 -146.5t-142.5 -51.5h-74z" />
    <glyph glyph-name="Ohorn" unicode="&#x1a0;" horiz-adv-x="796" 
d="M398 -11q-104 0 -182.5 45.5t-122 127t-43.5 191.5t43.5 191.5t121.5 126.5t183 45t183.5 -45t122 -126.5t43.5 -190.5q0 -110 -43.5 -192t-122 -127.5t-183.5 -45.5zM398 121q88 0 137.5 61.5t49.5 170.5q0 110 -49 170.5t-138 60.5q-87 0 -136.5 -60.5t-49.5 -170.5
q0 -109 49.5 -170.5t136.5 -61.5zM497 633l-40 76q17 -1 34 -2.5t29 -1.5q47 0 69.5 20t22.5 82v23h130v-42q0 -42 -18.5 -77t-50.5 -56.5t-73 -21.5h-103z" />
    <glyph glyph-name="ohorn" unicode="&#x1a1;" horiz-adv-x="589" 
d="M294 -11q-79 0 -137.5 31.5t-90.5 89t-32 136.5q0 78 32 135.5t90.5 88.5t137.5 31t137.5 -31t91 -88.5t32.5 -135.5q0 -79 -32.5 -136.5t-91 -89t-137.5 -31.5zM294 102q48 0 78.5 35t30.5 109q0 73 -30.5 107.5t-78.5 34.5t-78 -34.5t-30 -107.5q0 -74 30 -109t78 -35z
M446 418l-89 55v18q46 0 68.5 20t22.5 81v24h130v-42q0 -63 -36.5 -106t-95.5 -50z" />
    <glyph glyph-name="Uhorn" unicode="&#x1af;" horiz-adv-x="743" 
d="M373 -11q-150 0 -228.5 77t-78.5 229v410h155v-411q0 -86 39 -129.5t113 -43.5q151 0 151 173v411h153v-410q0 -152 -77 -229t-227 -77zM657 633l-89 55v17q47 1 69 21t22 81v23h130v-42q0 -63 -36 -105.5t-96 -49.5z" />
    <glyph glyph-name="uhorn" unicode="&#x1b0;" horiz-adv-x="590" 
d="M239 -11q-94 0 -138.5 52t-44.5 156v294h151v-298q0 -87 75 -87q43 0 70.5 30.5t27.5 80.5v274h151v-491h-147v67q-49 -78 -145 -78zM511 418l-89 55v18q46 0 68.5 20t22.5 81v24h130v-42q0 -63 -36.5 -106t-95.5 -50z" />
    <glyph glyph-name="uni01B3" unicode="&#x1b3;" horiz-adv-x="644" 
d="M238 0v318l-272 387h180l172 -249l107 158q35 51 80.5 76t110.5 25q21 0 42 -3.5t34 -9.5v-105q-19 7 -49 7q-24 0 -46 -10.5t-39 -36.5l-165 -239v-318h-155z" />
    <glyph glyph-name="uni01B4" unicode="&#x1b4;" horiz-adv-x="583" 
d="M352 378q23 56 64.5 89.5t117.5 33.5q21 0 43 -3.5t35 -8.5l-19 -111q-11 4 -20.5 5t-19.5 1q-26 0 -47 -15.5t-37 -51.5l-219 -497h-154l94 207l-202 464h159l123 -312z" />
    <glyph glyph-name="uni01C4" unicode="&#x1c4;" horiz-adv-x="1374" 
d="M71 0v705h276q180 0 279 -91.5t99 -260.5t-99 -261t-279 -92h-276zM226 127h112q225 0 225 226q0 225 -225 225h-112v-451zM805 0v114l352 462h-352v129h533v-114l-353 -462h368v-129h-548zM1013 765l-125 175h103l85 -95l85 95h103l-125 -175h-126z" />
    <glyph glyph-name="uni01C5" unicode="&#x1c5;" horiz-adv-x="1254" 
d="M71 0v705h276q180 0 279 -91.5t99 -260.5t-99 -261t-279 -92h-276zM226 127h112q225 0 225 226q0 225 -225 225h-112v-451zM820 0v97l236 281h-236v113h399v-97l-236 -282h247v-112h-410zM956 555l-111 205h94l81 -123l81 123h94l-111 -205h-128z" />
    <glyph glyph-name="uni01C6" unicode="&#x1c6;" horiz-adv-x="1090" 
d="M249 -11q-64 0 -112.5 31.5t-75.5 89t-27 136.5t27 136t75.5 88t112.5 31q49 0 90 -21t62 -56v281h151v-705h-148v74q-20 -39 -61.5 -62t-93.5 -23zM294 102q48 0 78.5 35t30.5 109q0 73 -30.5 107.5t-78.5 34.5t-78 -34.5t-30 -107.5q0 -74 30 -109t78 -35zM656 0v97
l236 281h-236v113h399v-97l-236 -282h247v-112h-410zM792 555l-111 205h94l81 -123l81 123h94l-111 -205h-128z" />
    <glyph glyph-name="uni01C7" unicode="&#x1c7;" horiz-adv-x="986" 
d="M71 0v705h155v-574h326v-131h-481zM614 -10l-11 126l77 4q80 5 80 84v501h155v-499q0 -198 -210 -212z" />
    <glyph glyph-name="uni01C8" unicode="&#x1c8;" horiz-adv-x="846" 
d="M71 0v705h155v-574h326v-131h-481zM629 586v141h163v-141h-163zM531 -193l-10 108l47 5q68 8 68 78v493h151v-473q0 -69 -20.5 -113t-67 -67t-125.5 -28z" />
    <glyph glyph-name="uni01C9" unicode="&#x1c9;" horiz-adv-x="606" 
d="M241 -11q-95 0 -139 49.5t-44 147.5v519h151v-513q0 -80 71 -80q11 0 21.5 1t20.5 4l-2 -117q-38 -11 -79 -11zM389 586v141h163v-141h-163zM291 -193l-10 108l47 5q68 8 68 78v493h151v-473q0 -69 -20.5 -113t-67 -67t-125.5 -28z" />
    <glyph glyph-name="uni01CA" unicode="&#x1ca;" horiz-adv-x="1125" 
d="M71 0v705h115l352 -449v449h144v-705h-114l-353 450v-450h-144zM754 -10l-11 126l77 4q80 5 80 84v501h155v-499q0 -198 -210 -212z" />
    <glyph glyph-name="uni01CB" unicode="&#x1cb;" horiz-adv-x="1025" 
d="M71 0v705h115l352 -449v449h144v-705h-114l-353 450v-450h-144zM809 586v141h163v-141h-163zM711 -193l-10 108l47 5q68 8 68 78v493h151v-473q0 -69 -20.5 -113t-67 -67t-125.5 -28z" />
    <glyph glyph-name="uni01CC" unicode="&#x1cc;" horiz-adv-x="868" 
d="M58 0v491h148v-72q25 40 67 61t94 21q87 0 130 -50.5t43 -155.5v-295h-151v288q0 51 -19 73.5t-56 22.5q-48 0 -76.5 -30t-28.5 -80v-274h-151zM651 586v141h163v-141h-163zM553 -193l-10 108l47 5q68 8 68 78v493h151v-473q0 -69 -20.5 -113t-67 -67t-125.5 -28z" />
    <glyph glyph-name="uni01CD" unicode="&#x1cd;" horiz-adv-x="753" 
d="M-10 0l324 705h125l324 -705h-156l-66 153h-329l-65 -153h-157zM375 540l-111 -266h226l-113 266h-2zM314 765l-125 175h103l85 -95l85 95h103l-125 -175h-126z" />
    <glyph glyph-name="uni01CE" unicode="&#x1ce;" horiz-adv-x="557" 
d="M224 -11q-55 0 -97 21t-66.5 57t-24.5 81q0 53 28 85t91 45.5t167 13.5h36v17q0 44 -20 62.5t-68 18.5q-40 0 -84.5 -12.5t-88.5 -37.5l-41 101q26 17 63.5 31t78.5 21.5t78 7.5q114 0 170 -51.5t56 -159.5v-290h-141v74q-15 -39 -50.5 -62t-86.5 -23zM258 90q42 0 71 29
t29 75v20h-35q-77 0 -109 -13.5t-32 -46.5q0 -28 19.5 -46t56.5 -18zM219 555l-111 205h94l81 -123l81 123h94l-111 -205h-128z" />
    <glyph glyph-name="uni01D4" unicode="&#x1d4;" horiz-adv-x="590" 
d="M239 -11q-94 0 -138.5 52t-44.5 156v294h151v-298q0 -87 75 -87q43 0 70.5 30.5t27.5 80.5v274h151v-491h-147v67q-49 -78 -145 -78zM230 556l-111 205h94l81 -123l81 123h94l-111 -205h-128z" />
    <glyph glyph-name="uni01E5" unicode="&#x1e5;" horiz-adv-x="615" 
d="M294 -191q-71 0 -132.5 15t-107.5 47l41 102q40 -28 90.5 -42.5t95.5 -14.5q69 0 101 35h-98v78h125v5v97q-20 -37 -62.5 -59.5t-93.5 -22.5q-65 0 -114.5 29t-77 80t-27.5 117t27.5 117t77 80t114.5 29q51 0 93.5 -22t62.5 -60v72h147v-434q0 -15 -1 -28h56v-78h-71
q-52 -142 -246 -142zM297 161q49 0 79.5 31t30.5 82q0 52 -30.5 83t-79.5 31q-50 0 -80.5 -31t-30.5 -83t31 -82.5t80 -30.5z" />
    <glyph glyph-name="Gcaron" unicode="&#x1e6;" horiz-adv-x="742" 
d="M420 -11q-119 0 -201.5 45t-125.5 126t-43 190q0 112 44.5 194t128.5 127t202 45q74 0 140.5 -21t108.5 -56l-50 -121q-46 34 -94 48.5t-104 14.5q-107 0 -160.5 -59.5t-53.5 -171.5q0 -113 54.5 -171t161.5 -58q57 0 120 18v138h-152v112h280v-346q-52 -26 -120 -40
t-136 -14zM344 765l-125 175h103l85 -95l85 95h103l-125 -175h-126z" />
    <glyph glyph-name="gcaron" unicode="&#x1e7;" horiz-adv-x="615" 
d="M294 -191q-71 0 -132.5 15t-107.5 47l41 103q40 -25 90.5 -38.5t95.5 -13.5q128 0 128 118v56q-20 -38 -63 -61t-94 -23q-66 0 -115 30.5t-76 85.5t-27 129q0 73 27 128t76 85.5t115 30.5q53 0 95 -23t62 -61v74h147v-434q0 -124 -67 -186t-195 -62zM297 125
q50 0 80.5 35t30.5 97t-30.5 96.5t-80.5 34.5q-51 0 -81 -34.5t-30 -96.5t30 -97t81 -35zM243 555l-111 205h94l81 -123l81 123h94l-111 -205h-128z" />
    <glyph glyph-name="uni01E9" unicode="&#x1e9;" horiz-adv-x="558" 
d="M58 0v705h151v-417h2l181 203h179l-208 -235l218 -256h-182l-188 212h-2v-212h-151zM236 765l-125 175h103l85 -95l85 95h103l-125 -175h-126z" />
    <glyph glyph-name="uni01EA" unicode="&#x1ea;" horiz-adv-x="796" 
d="M398 -11q-104 0 -182.5 45.5t-122 127t-43.5 191.5t43.5 191.5t121.5 126.5t183 45t183.5 -45t122 -126.5t43.5 -190.5q0 -110 -43.5 -192t-122 -127.5t-183.5 -45.5zM398 121q88 0 137.5 61.5t49.5 170.5q0 110 -49 170.5t-138 60.5q-87 0 -136.5 -60.5t-49.5 -170.5
q0 -109 49.5 -170.5t136.5 -61.5zM436 -197q-59 0 -92 29.5t-33 78.5q0 44 29 80t77 54l42 -45q-26 -10 -41.5 -29.5t-15.5 -42.5t16 -35.5t39 -12.5q15 0 27.5 3t27.5 8l15 -70q-41 -18 -91 -18z" />
    <glyph glyph-name="uni01EB" unicode="&#x1eb;" horiz-adv-x="589" 
d="M294 -11q-79 0 -137.5 31.5t-90.5 89t-32 136.5q0 78 32 135.5t90.5 88.5t137.5 31t137.5 -31t91 -88.5t32.5 -135.5q0 -79 -32.5 -136.5t-91 -89t-137.5 -31.5zM294 102q48 0 78.5 35t30.5 109q0 73 -30.5 107.5t-78.5 34.5t-78 -34.5t-30 -107.5q0 -74 30 -109t78 -35z
M330 -197q-59 0 -92 29.5t-33 78.5q0 44 29 80t77 54l42 -45q-26 -10 -41.5 -29.5t-15.5 -42.5t16 -35.5t39 -12.5q15 0 27.5 3t27.5 8l15 -70q-41 -18 -91 -18z" />
    <glyph glyph-name="uni01EF" unicode="&#x1ef;" horiz-adv-x="529" 
d="M236 -191q-145 0 -231 60l42 104q70 -50 169 -50q136 0 136 103q0 98 -136 98h-93v70l181 182h-274v115h440v-101l-167 -167q93 -6 145.5 -55t52.5 -132q0 -69 -32.5 -120t-92 -79t-140.5 -28zM186 555l-111 205h94l81 -123l81 123h94l-111 -205h-128z" />
    <glyph glyph-name="Aringacute" unicode="&#x1fa;" horiz-adv-x="753" 
d="M-10 0l324 705h125l324 -705h-156l-66 153h-329l-65 -153h-157zM375 540l-111 -266h226l-113 266h-2zM377 753q-35 0 -63 16t-44.5 43.5t-16.5 61.5q0 50 36 84.5t88 34.5q33 0 62 -16l62 57h112l-125 -108q13 -24 13 -52q0 -34 -16.5 -61.5t-44.5 -43.5t-63 -16z
M377 812q26 0 43.5 17.5t17.5 44.5q0 26 -17.5 43.5t-43.5 17.5t-43.5 -17.5t-17.5 -43.5q0 -27 17.5 -44.5t43.5 -17.5z" />
    <glyph glyph-name="aringacute" unicode="&#x1fb;" horiz-adv-x="557" 
d="M224 -11q-55 0 -97 21t-66.5 57t-24.5 81q0 53 28 85t91 45.5t167 13.5h36v17q0 44 -20 62.5t-68 18.5q-40 0 -84.5 -12.5t-88.5 -37.5l-41 101q26 17 63.5 31t78.5 21.5t78 7.5q114 0 170 -51.5t56 -159.5v-290h-141v74q-15 -39 -50.5 -62t-86.5 -23zM258 90q42 0 71 29
t29 75v20h-35q-77 0 -109 -13.5t-32 -46.5q0 -28 19.5 -46t56.5 -18zM283 539q-52 0 -88 34.5t-36 84.5q0 34 16.5 61.5t44.5 43.5t63 16q17 0 32.5 -4.5t29.5 -12.5l62 57h112l-125 -108q13 -25 13 -53q0 -50 -36 -84.5t-88 -34.5zM283 598q26 0 43.5 17t17.5 43
q0 27 -17.5 44t-43.5 17t-43.5 -17t-17.5 -44q0 -26 17.5 -43t43.5 -17z" />
    <glyph glyph-name="AEacute" unicode="&#x1fc;" horiz-adv-x="999" 
d="M-48 0l444 705h551v-121h-385l36 -165h328v-122h-302l39 -176h284v-121h-396l-33 153h-311l-91 -153h-164zM433 535l-155 -261h214l-57 261h-2zM437 765l118 175h153l-166 -175h-105z" />
    <glyph glyph-name="aeacute" unicode="&#x1fd;" horiz-adv-x="868" 
d="M237 -11q-62 0 -106.5 21t-69.5 57t-25 81q0 53 28.5 85t92 45.5t169.5 13.5h31v18q0 42 -20.5 61t-66.5 19q-40 0 -84.5 -12t-88.5 -38l-41 101q26 17 63.5 31t78.5 21.5t78 7.5q58 0 101 -16t68 -51q30 34 72.5 50.5t88.5 16.5q71 0 123 -30.5t80.5 -86.5t28.5 -133
v-37h-335q7 -58 39.5 -85t94.5 -27q85 0 153 49l40 -101q-37 -28 -90.5 -44.5t-106.5 -16.5q-73 0 -129.5 25.5t-86.5 76.5q-23 -49 -69 -75.5t-111 -26.5zM612 401q-96 0 -109 -109h210q-6 109 -101 109zM258 90q44 0 71.5 30t27.5 77v17h-34q-77 0 -109 -13.5t-32 -46.5
q0 -28 19.5 -46t56.5 -18zM365 555l103 205h144l-147 -205h-100z" />
    <glyph glyph-name="Oslashacute" unicode="&#x1fe;" horiz-adv-x="796" 
d="M398 -11q-104 0 -182.5 45.5t-122 127t-43.5 191.5t43.5 191.5t121.5 126.5t183 45t183.5 -45t122 -126.5t43.5 -190.5q0 -110 -43.5 -192t-122 -127.5t-183.5 -45.5zM398 121q88 0 137.5 61.5t49.5 170.5q0 110 -49 170.5t-138 60.5q-87 0 -136.5 -60.5t-49.5 -170.5
q0 -109 49.5 -170.5t136.5 -61.5zM220 -68l-99 59l69 118l46 68l244 419l27 59l69 118l99 -59l-69 -118l-47 -68l-243 -418l-27 -59zM345 765l118 175h153l-166 -175h-105z" />
    <glyph glyph-name="oslashacute" unicode="&#x1ff;" horiz-adv-x="589" 
d="M163 -64l-75 44l36 61q-43 33 -66.5 85t-23.5 120q0 78 32 135.5t90.5 88.5t137.5 31q50 0 92 -13l40 68l75 -44l-36 -63q42 -33 66 -84.5t24 -118.5q0 -79 -32.5 -136.5t-91 -89t-137.5 -31.5q-49 0 -92 13zM178 246q0 -51 16 -85l134 228q-16 4 -34 4q-52 0 -84 -36.5
t-32 -110.5zM295 98q52 0 83.5 36.5t31.5 111.5q0 50 -15 84l-134 -228q15 -4 34 -4zM244 555l103 205h144l-147 -205h-100z" />
    <glyph glyph-name="uni0200" unicode="&#x200;" horiz-adv-x="753" 
d="M-10 0l324 705h125l324 -705h-156l-66 153h-329l-65 -153h-157zM375 540l-111 -266h226l-113 266h-2zM414 765l-131 175h131l85 -175h-85zM256 765l-144 175h131l97 -175h-84z" />
    <glyph glyph-name="uni0201" unicode="&#x201;" horiz-adv-x="557" 
d="M224 -11q-55 0 -97 21t-66.5 57t-24.5 81q0 53 28 85t91 45.5t167 13.5h36v17q0 44 -20 62.5t-68 18.5q-40 0 -84.5 -12.5t-88.5 -37.5l-41 101q26 17 63.5 31t78.5 21.5t78 7.5q114 0 170 -51.5t56 -159.5v-290h-141v74q-15 -39 -50.5 -62t-86.5 -23zM258 90q42 0 71 29
t29 75v20h-35q-77 0 -109 -13.5t-32 -46.5q0 -28 19.5 -46t56.5 -18zM327 555l-92 205h123l47 -205h-78zM166 555l-92 205h123l47 -205h-78z" />
    <glyph glyph-name="uni0202" unicode="&#x202;" horiz-adv-x="753" 
d="M-10 0l324 705h125l324 -705h-156l-66 153h-329l-65 -153h-157zM375 540l-111 -266h226l-113 266h-2zM270 760l-83 11q5 78 56.5 124.5t133.5 46.5t133.5 -46.5t57.5 -124.5l-83 -11q-5 45 -33.5 70t-74.5 25q-47 0 -75 -25t-32 -70z" />
    <glyph glyph-name="uni0203" unicode="&#x203;" horiz-adv-x="557" 
d="M224 -11q-55 0 -97 21t-66.5 57t-24.5 81q0 53 28 85t91 45.5t167 13.5h36v17q0 44 -20 62.5t-68 18.5q-40 0 -84.5 -12.5t-88.5 -37.5l-41 101q26 17 63.5 31t78.5 21.5t78 7.5q114 0 170 -51.5t56 -159.5v-290h-141v74q-15 -39 -50.5 -62t-86.5 -23zM258 90q42 0 71 29
t29 75v20h-35q-77 0 -109 -13.5t-32 -46.5q0 -28 19.5 -46t56.5 -18zM193 552l-83 7q2 90 49.5 143t123.5 53q77 0 124 -53t49 -143l-83 -7q-4 55 -27 84.5t-63 29.5t-63 -29.5t-27 -84.5z" />
    <glyph glyph-name="uni0204" unicode="&#x204;" horiz-adv-x="605" 
d="M71 0v705h483v-121h-335v-165h313v-122h-313v-176h335v-121h-483zM368 765l-131 175h131l85 -175h-85zM210 765l-144 175h131l97 -175h-84z" />
    <glyph glyph-name="uni0205" unicode="&#x205;" horiz-adv-x="549" 
d="M313 -11q-87 0 -149.5 31.5t-96 89t-33.5 135.5q0 76 32.5 133.5t89 90t130.5 32.5q107 0 170 -67.5t63 -182.5v-38h-341q8 -58 42.5 -84.5t95.5 -26.5q40 0 81 12t74 37l40 -101q-37 -28 -90.5 -44.5t-107.5 -16.5zM292 401q-48 0 -77.5 -29t-36.5 -81h216
q-6 110 -102 110zM331 555l-92 205h123l47 -205h-78zM170 555l-92 205h123l47 -205h-78z" />
    <glyph glyph-name="uni0206" unicode="&#x206;" horiz-adv-x="605" 
d="M71 0v705h483v-121h-335v-165h313v-122h-313v-176h335v-121h-483zM224 760l-83 11q5 78 56.5 124.5t133.5 46.5t133.5 -46.5t57.5 -124.5l-83 -11q-5 45 -33.5 70t-74.5 25q-47 0 -75 -25t-32 -70z" />
    <glyph glyph-name="uni0207" unicode="&#x207;" horiz-adv-x="549" 
d="M313 -11q-87 0 -149.5 31.5t-96 89t-33.5 135.5q0 76 32.5 133.5t89 90t130.5 32.5q107 0 170 -67.5t63 -182.5v-38h-341q8 -58 42.5 -84.5t95.5 -26.5q40 0 81 12t74 37l40 -101q-37 -28 -90.5 -44.5t-107.5 -16.5zM292 401q-48 0 -77.5 -29t-36.5 -81h216
q-6 110 -102 110zM197 552l-83 7q2 90 49.5 143t123.5 53q77 0 124 -53t49 -143l-83 -7q-4 55 -27 84.5t-63 29.5t-63 -29.5t-27 -84.5z" />
    <glyph glyph-name="uni0208" unicode="&#x208;" horiz-adv-x="296" 
d="M71 0v705h155v-705h-155zM185 765l-131 175h131l85 -175h-85zM27 765l-144 175h131l97 -175h-84z" />
    <glyph glyph-name="uni0209" unicode="&#x209;" horiz-adv-x="268" 
d="M58 0v491h151v-491h-151zM178 555l-92 205h123l47 -205h-78zM17 555l-92 205h123l47 -205h-78z" />
    <glyph glyph-name="uni020A" unicode="&#x20a;" horiz-adv-x="296" 
d="M71 0v705h155v-705h-155zM41 760l-83 11q5 78 56.5 124.5t133.5 46.5t133.5 -46.5t57.5 -124.5l-83 -11q-5 45 -33.5 70t-74.5 25q-47 0 -75 -25t-32 -70z" />
    <glyph glyph-name="uni020B" unicode="&#x20b;" horiz-adv-x="268" 
d="M58 0v491h151v-491h-151zM44 552l-83 7q2 90 49.5 143t123.5 53q77 0 124 -53t49 -143l-83 -7q-4 55 -27 84.5t-63 29.5t-63 -29.5t-27 -84.5z" />
    <glyph glyph-name="uni020C" unicode="&#x20c;" horiz-adv-x="796" 
d="M398 -11q-104 0 -182.5 45.5t-122 127t-43.5 191.5t43.5 191.5t121.5 126.5t183 45t183.5 -45t122 -126.5t43.5 -190.5q0 -110 -43.5 -192t-122 -127.5t-183.5 -45.5zM398 121q88 0 137.5 61.5t49.5 170.5q0 110 -49 170.5t-138 60.5q-87 0 -136.5 -60.5t-49.5 -170.5
q0 -109 49.5 -170.5t136.5 -61.5zM434 765l-131 175h131l85 -175h-85zM276 765l-144 175h131l97 -175h-84z" />
    <glyph glyph-name="uni020D" unicode="&#x20d;" horiz-adv-x="589" 
d="M294 -11q-79 0 -137.5 31.5t-90.5 89t-32 136.5q0 78 32 135.5t90.5 88.5t137.5 31t137.5 -31t91 -88.5t32.5 -135.5q0 -79 -32.5 -136.5t-91 -89t-137.5 -31.5zM294 102q48 0 78.5 35t30.5 109q0 73 -30.5 107.5t-78.5 34.5t-78 -34.5t-30 -107.5q0 -74 30 -109t78 -35z
M338 555l-92 205h123l47 -205h-78zM177 555l-92 205h123l47 -205h-78z" />
    <glyph glyph-name="uni020E" unicode="&#x20e;" horiz-adv-x="796" 
d="M398 -11q-104 0 -182.5 45.5t-122 127t-43.5 191.5t43.5 191.5t121.5 126.5t183 45t183.5 -45t122 -126.5t43.5 -190.5q0 -110 -43.5 -192t-122 -127.5t-183.5 -45.5zM398 121q88 0 137.5 61.5t49.5 170.5q0 110 -49 170.5t-138 60.5q-87 0 -136.5 -60.5t-49.5 -170.5
q0 -109 49.5 -170.5t136.5 -61.5zM290 760l-83 11q5 78 56.5 124.5t133.5 46.5t133.5 -46.5t57.5 -124.5l-83 -11q-5 45 -33.5 70t-74.5 25q-47 0 -75 -25t-32 -70z" />
    <glyph glyph-name="uni020F" unicode="&#x20f;" horiz-adv-x="589" 
d="M294 -11q-79 0 -137.5 31.5t-90.5 89t-32 136.5q0 78 32 135.5t90.5 88.5t137.5 31t137.5 -31t91 -88.5t32.5 -135.5q0 -79 -32.5 -136.5t-91 -89t-137.5 -31.5zM294 102q48 0 78.5 35t30.5 109q0 73 -30.5 107.5t-78.5 34.5t-78 -34.5t-30 -107.5q0 -74 30 -109t78 -35z
M204 552l-83 7q2 90 49.5 143t123.5 53q77 0 124 -53t49 -143l-83 -7q-4 55 -27 84.5t-63 29.5t-63 -29.5t-27 -84.5z" />
    <glyph glyph-name="uni0210" unicode="&#x210;" horiz-adv-x="696" 
d="M71 0v705h322q118 0 182 -57t64 -159q0 -79 -40.5 -131.5t-115.5 -71.5q53 -16 87 -77l114 -209h-171l-122 225q-15 27 -37 37.5t-52 10.5h-76v-273h-155zM226 385h139q125 0 125 100q0 99 -125 99h-139v-199zM389 765l-131 175h131l85 -175h-85zM231 765l-144 175h131
l97 -175h-84z" />
    <glyph glyph-name="uni0211" unicode="&#x211;" horiz-adv-x="412" 
d="M58 0v491h148v-85q35 86 150 95l44 3l9 -127l-85 -9q-112 -11 -112 -114v-254h-154zM278 555l-92 205h123l47 -205h-78zM117 555l-92 205h123l47 -205h-78z" />
    <glyph glyph-name="uni0212" unicode="&#x212;" horiz-adv-x="696" 
d="M71 0v705h322q118 0 182 -57t64 -159q0 -79 -40.5 -131.5t-115.5 -71.5q53 -16 87 -77l114 -209h-171l-122 225q-15 27 -37 37.5t-52 10.5h-76v-273h-155zM226 385h139q125 0 125 100q0 99 -125 99h-139v-199zM245 760l-83 11q5 78 56.5 124.5t133.5 46.5t133.5 -46.5
t57.5 -124.5l-83 -11q-5 45 -33.5 70t-74.5 25q-47 0 -75 -25t-32 -70z" />
    <glyph glyph-name="uni0213" unicode="&#x213;" horiz-adv-x="412" 
d="M58 0v491h148v-85q35 86 150 95l44 3l9 -127l-85 -9q-112 -11 -112 -114v-254h-154zM144 552l-83 7q2 90 49.5 143t123.5 53q77 0 124 -53t49 -143l-83 -7q-4 55 -27 84.5t-63 29.5t-63 -29.5t-27 -84.5z" />
    <glyph glyph-name="uni0214" unicode="&#x214;" horiz-adv-x="743" 
d="M373 -11q-150 0 -228.5 77t-78.5 229v410h155v-411q0 -86 39 -129.5t113 -43.5q151 0 151 173v411h153v-410q0 -152 -77 -229t-227 -77zM410 765l-131 175h131l85 -175h-85zM252 765l-144 175h131l97 -175h-84z" />
    <glyph glyph-name="uni0215" unicode="&#x215;" horiz-adv-x="590" 
d="M239 -11q-94 0 -138.5 52t-44.5 156v294h151v-298q0 -87 75 -87q43 0 70.5 30.5t27.5 80.5v274h151v-491h-147v67q-49 -78 -145 -78zM338 556l-92 205h123l47 -205h-78zM177 556l-92 205h123l47 -205h-78z" />
    <glyph glyph-name="uni0216" unicode="&#x216;" horiz-adv-x="743" 
d="M373 -11q-150 0 -228.5 77t-78.5 229v410h155v-411q0 -86 39 -129.5t113 -43.5q151 0 151 173v411h153v-410q0 -152 -77 -229t-227 -77zM266 760l-83 11q5 78 56.5 124.5t133.5 46.5t133.5 -46.5t57.5 -124.5l-83 -11q-5 45 -33.5 70t-74.5 25q-47 0 -75 -25t-32 -70z
" />
    <glyph glyph-name="uni0217" unicode="&#x217;" horiz-adv-x="590" 
d="M239 -11q-94 0 -138.5 52t-44.5 156v294h151v-298q0 -87 75 -87q43 0 70.5 30.5t27.5 80.5v274h151v-491h-147v67q-49 -78 -145 -78zM204 553l-83 7q2 90 49.5 143t123.5 53q77 0 124 -53t49 -143l-83 -7q-4 55 -27 84.5t-63 29.5t-63 -29.5t-27 -84.5z" />
    <glyph glyph-name="uni0218" unicode="&#x218;" horiz-adv-x="641" 
d="M323 -11q-83 0 -156.5 21t-122.5 57l45 122q47 -33 107.5 -52t126.5 -19q72 0 103.5 22.5t31.5 56.5q0 29 -22 46t-77 29l-113 24q-189 40 -189 196q0 67 36 117.5t100.5 78.5t149.5 28q73 0 137 -21t106 -59l-45 -114q-82 65 -199 65q-63 0 -97.5 -24.5t-34.5 -63.5
q0 -29 21 -47t73 -29l113 -24q194 -42 194 -190q0 -66 -35.5 -115.5t-100 -77t-152.5 -27.5zM341 -284l-54 36q18 16 26.5 32t10.5 33h-72v114h149v-71q0 -44 -13.5 -79.5t-46.5 -64.5z" />
    <glyph glyph-name="uni0219" unicode="&#x219;" horiz-adv-x="492" 
d="M246 -11q-65 0 -121 15t-93 41l36 98q37 -23 84.5 -36.5t94.5 -13.5q42 0 62 13.5t20 35.5q0 35 -51 44l-105 19q-63 11 -96 45t-33 89q0 50 28 86t77 56t113 20q53 0 103 -13.5t86 -42.5l-38 -97q-30 22 -71.5 36t-77.5 14q-45 0 -65 -14.5t-20 -36.5q0 -35 47 -44
l105 -19q65 -11 99 -43.5t34 -88.5q0 -77 -60 -120t-158 -43zM261 -284l-54 36q18 16 26.5 32t10.5 33h-72v114h149v-71q0 -44 -13.5 -79.5t-46.5 -64.5z" />
    <glyph glyph-name="uni021A" unicode="&#x21a;" horiz-adv-x="632" 
d="M239 0v577h-233v128h621v-128h-233v-577h-155zM331 -284l-54 36q18 16 26.5 32t10.5 33h-72v114h149v-71q0 -44 -13.5 -79.5t-46.5 -64.5z" />
    <glyph glyph-name="uni021B" unicode="&#x21b;" horiz-adv-x="404" 
d="M299 -11q-207 0 -207 201v188h-93v113h93v144h151v-144h145v-113h-145v-182q0 -42 19.5 -63t62.5 -21q13 0 27.5 3t31.5 8l22 -110q-21 -11 -50 -17.5t-57 -6.5zM252 -284l-54 36q18 16 26.5 32t10.5 33h-72v114h149v-71q0 -44 -13.5 -79.5t-46.5 -64.5z" />
    <glyph glyph-name="uni021F" unicode="&#x21f;" horiz-adv-x="595" 
d="M58 0v705h151v-281q26 38 67 57.5t91 19.5q173 0 173 -206v-295h-151v288q0 51 -19 73.5t-56 22.5q-48 0 -76.5 -30t-28.5 -80v-274h-151zM236 765l-125 175h103l85 -95l85 95h103l-125 -175h-126z" />
    <glyph glyph-name="uni0226" unicode="&#x226;" horiz-adv-x="753" 
d="M-10 0l324 705h125l324 -705h-156l-66 153h-329l-65 -153h-157zM375 540l-111 -266h226l-113 266h-2zM307 786v133h140v-133h-140z" />
    <glyph glyph-name="uni0227" unicode="&#x227;" horiz-adv-x="557" 
d="M224 -11q-55 0 -97 21t-66.5 57t-24.5 81q0 53 28 85t91 45.5t167 13.5h36v17q0 44 -20 62.5t-68 18.5q-40 0 -84.5 -12.5t-88.5 -37.5l-41 101q26 17 63.5 31t78.5 21.5t78 7.5q114 0 170 -51.5t56 -159.5v-290h-141v74q-15 -39 -50.5 -62t-86.5 -23zM258 90q42 0 71 29
t29 75v20h-35q-77 0 -109 -13.5t-32 -46.5q0 -28 19.5 -46t56.5 -18zM213 590v133h140v-133h-140z" />
    <glyph glyph-name="uni0228" unicode="&#x228;" horiz-adv-x="605" 
d="M71 0v705h483v-121h-335v-165h313v-122h-313v-176h335v-121h-483zM330 -197q-31 0 -59.5 5.5t-49.5 16.5l21 64q18 -9 36 -13.5t38 -4.5q52 0 52 26q0 20 -37 20q-9 0 -17.5 -1t-20.5 -4l-20 20l13 88h76l-10 -54h6q45 0 70.5 -19.5t25.5 -54.5q0 -40 -34.5 -64.5
t-89.5 -24.5z" />
    <glyph glyph-name="uni022A" unicode="&#x22a;" horiz-adv-x="796" 
d="M398 -11q-104 0 -182.5 45.5t-122 127t-43.5 191.5t43.5 191.5t121.5 126.5t183 45t183.5 -45t122 -126.5t43.5 -190.5q0 -110 -43.5 -192t-122 -127.5t-183.5 -45.5zM398 121q88 0 137.5 61.5t49.5 170.5q0 110 -49 170.5t-138 60.5q-87 0 -136.5 -60.5t-49.5 -170.5
q0 -109 49.5 -170.5t136.5 -61.5zM234 923v85h326v-85h-326zM232 781v97h133v-97h-133zM429 781v97h133v-97h-133z" />
    <glyph glyph-name="uni022B" unicode="&#x22b;" horiz-adv-x="589" 
d="M294 -11q-79 0 -137.5 31.5t-90.5 89t-32 136.5q0 78 32 135.5t90.5 88.5t137.5 31t137.5 -31t91 -88.5t32.5 -135.5q0 -79 -32.5 -136.5t-91 -89t-137.5 -31.5zM294 102q48 0 78.5 35t30.5 109q0 73 -30.5 107.5t-78.5 34.5t-78 -34.5t-30 -107.5q0 -74 30 -109t78 -35z
M131 709v85h326v-85h-326zM129 568v95h133v-95h-133zM326 568v95h133v-95h-133z" />
    <glyph glyph-name="uni022C" unicode="&#x22c;" horiz-adv-x="796" 
d="M398 -11q-104 0 -182.5 45.5t-122 127t-43.5 191.5t43.5 191.5t121.5 126.5t183 45t183.5 -45t122 -126.5t43.5 -190.5q0 -110 -43.5 -192t-122 -127.5t-183.5 -45.5zM398 121q88 0 137.5 61.5t49.5 170.5q0 110 -49 170.5t-138 60.5q-87 0 -136.5 -60.5t-49.5 -170.5
q0 -109 49.5 -170.5t136.5 -61.5zM234 923v85h326v-85h-326zM465 766q-20 0 -38.5 6t-40.5 17q-18 9 -29.5 13t-21.5 4q-23 0 -35 -10t-17 -30l-66 3q3 56 35 84t78 28q17 0 34.5 -5t42.5 -17q34 -17 53 -17q43 0 51 40l66 -4q-3 -56 -34.5 -84t-77.5 -28z" />
    <glyph glyph-name="uni022D" unicode="&#x22d;" horiz-adv-x="589" 
d="M294 -11q-79 0 -137.5 31.5t-90.5 89t-32 136.5q0 78 32 135.5t90.5 88.5t137.5 31t137.5 -31t91 -88.5t32.5 -135.5q0 -79 -32.5 -136.5t-91 -89t-137.5 -31.5zM294 102q48 0 78.5 35t30.5 109q0 73 -30.5 107.5t-78.5 34.5t-78 -34.5t-30 -107.5q0 -74 30 -109t78 -35z
M131 709v85h326v-85h-326zM180 552l-66 3q3 56 35 84t78 28q33 0 76 -22q15 -8 28.5 -12.5t25.5 -4.5q43 0 51 39l66 -3q-3 -56 -34.5 -84t-77.5 -28q-19 0 -38.5 6t-40.5 16q-33 17 -51 17q-23 0 -35 -9.5t-17 -29.5z" />
    <glyph glyph-name="uni0230" unicode="&#x230;" horiz-adv-x="796" 
d="M398 -11q-104 0 -182.5 45.5t-122 127t-43.5 191.5t43.5 191.5t121.5 126.5t183 45t183.5 -45t122 -126.5t43.5 -190.5q0 -110 -43.5 -192t-122 -127.5t-183.5 -45.5zM398 121q88 0 137.5 61.5t49.5 170.5q0 110 -49 170.5t-138 60.5q-87 0 -136.5 -60.5t-49.5 -170.5
q0 -109 49.5 -170.5t136.5 -61.5zM234 923v85h326v-85h-326zM331 781v97h132v-97h-132z" />
    <glyph glyph-name="uni0231" unicode="&#x231;" horiz-adv-x="589" 
d="M294 -11q-79 0 -137.5 31.5t-90.5 89t-32 136.5q0 78 32 135.5t90.5 88.5t137.5 31t137.5 -31t91 -88.5t32.5 -135.5q0 -79 -32.5 -136.5t-91 -89t-137.5 -31.5zM294 102q48 0 78.5 35t30.5 109q0 73 -30.5 107.5t-78.5 34.5t-78 -34.5t-30 -107.5q0 -74 30 -109t78 -35z
M131 709v85h326v-85h-326zM228 568v95h132v-95h-132z" />
    <glyph glyph-name="uni0232" unicode="&#x232;" horiz-adv-x="631" 
d="M238 0v318l-272 387h180l172 -248l172 248h173l-270 -388v-317h-155zM137 801v85h356v-85h-356z" />
    <glyph glyph-name="uni0233" unicode="&#x233;" horiz-adv-x="533" 
d="M96 -180l94 207l-202 464h159l123 -312l127 312h150l-297 -671h-154zM104 611v85h326v-85h-326z" />
    <glyph glyph-name="uni0237" unicode="&#x237;" horiz-adv-x="273" 
d="M-42 -193l-10 108l47 5q68 8 68 78v493h151v-473q0 -69 -20.5 -113t-67 -67t-125.5 -28z" />
    <glyph glyph-name="uni0253" unicode="&#x253;" horiz-adv-x="610" 
d="M361 -11q-52 0 -93.5 23t-61.5 61v-73h-148v509q0 94 54 150.5t161 56.5q16 0 36 -3t35 -8l-17 -112q-12 3 -21 4t-19 1q-78 0 -78 -91v-82q22 35 62.5 55.5t89.5 20.5q64 0 112.5 -31t75.5 -88t27 -136t-27 -136.5t-75.5 -89t-112.5 -31.5zM316 102q48 0 78 35t30 109
q0 73 -30 107.5t-78 34.5q-49 0 -79 -34.5t-30 -107.5q0 -74 30 -109t79 -35z" />
    <glyph glyph-name="uni0257" unicode="&#x257;" horiz-adv-x="610" 
d="M249 -11q-64 0 -112.5 31.5t-75.5 89t-27 136.5t27 136t75.5 88t112.5 31q49 0 90 -21t62 -56v85q0 94 53.5 150.5t160.5 56.5q17 0 37.5 -3t33.5 -8l-17 -112q-12 3 -21 4t-19 1q-34 0 -55.5 -20.5t-21.5 -70.5v-507h-148v74q-20 -39 -61.5 -62t-93.5 -23zM294 102
q48 0 78.5 35t30.5 109q0 73 -30.5 107.5t-78.5 34.5t-78 -34.5t-30 -107.5q0 -74 30 -109t78 -35z" />
    <glyph glyph-name="uni0259" unicode="&#x259;" horiz-adv-x="549" 
d="M268 -11q-112 0 -175 65.5t-63 186.5v37h342q-8 57 -42 84t-92 27q-82 0 -161 -49l-39 101q42 29 96.5 44.5t107.5 15.5q84 0 145.5 -31t95 -88.5t33.5 -135.5q0 -77 -32.5 -134.5t-88.5 -90t-127 -32.5zM261 89q45 0 74.5 28t36.5 83h-212q3 -57 29.5 -84t71.5 -27z" />
    <glyph glyph-name="uni0292" unicode="&#x292;" horiz-adv-x="529" 
d="M236 -191q-145 0 -231 60l42 104q70 -50 169 -50q136 0 136 103q0 98 -136 98h-93v70l181 182h-274v115h440v-101l-167 -167q93 -6 145.5 -55t52.5 -132q0 -69 -32.5 -120t-92 -79t-140.5 -28z" />
    <glyph glyph-name="uni02B9" unicode="&#x2b9;" horiz-adv-x="255" 
d="M77 407l-36 298h174l-36 -298h-102z" />
    <glyph glyph-name="uni02BA" unicode="&#x2ba;" horiz-adv-x="480" 
d="M77 407l-36 298h174l-36 -298h-102zM302 407l-36 298h174l-36 -298h-102z" />
    <glyph glyph-name="uni02BB" unicode="&#x2bb;" horiz-adv-x="500" 
d="M175 562v72q0 42 13 77t47 65l54 -37q-17 -15 -25 -30t-11 -31h71v-116h-149z" />
    <glyph glyph-name="uni02BC" unicode="&#x2bc;" horiz-adv-x="366" 
d="M197 564l-53 36q17 15 25 30.5t10 30.5h-71v116h149v-71q0 -43 -12.5 -77.5t-47.5 -64.5z" />
    <glyph glyph-name="uni02BE" unicode="&#x2be;" horiz-adv-x="500" 
d="M250 550v61q20 0 32.5 14t12.5 33q0 20 -12.5 33.5t-32.5 13.5v61q47 0 78.5 -31.5t31.5 -76.5q0 -46 -31.5 -77t-78.5 -31z" />
    <glyph glyph-name="uni02BF" unicode="&#x2bf;" horiz-adv-x="500" 
d="M250 550q-46 0 -77.5 31t-31.5 77q0 45 31.5 76.5t77.5 31.5v-61q-20 0 -32.5 -13.5t-12.5 -33.5q0 -19 12.5 -33t32.5 -14v-61z" />
    <glyph glyph-name="circumflex" unicode="&#x2c6;" horiz-adv-x="500" 
d="M75 555l111 205h128l111 -205h-94l-81 123l-81 -123h-94z" />
    <glyph glyph-name="caron" unicode="&#x2c7;" horiz-adv-x="500" 
d="M186 555l-111 205h94l81 -123l81 123h94l-111 -205h-128z" />
    <glyph glyph-name="uni02C8" unicode="&#x2c8;" horiz-adv-x="500" 
d="M204 593v205h92v-205h-92z" />
    <glyph glyph-name="uni02C9" unicode="&#x2c9;" horiz-adv-x="500" 
d="M87 611v85h326v-85h-326z" />
    <glyph glyph-name="uni02CA" unicode="&#x2ca;" horiz-adv-x="500" 
d="M200 555l103 205h144l-147 -205h-100z" />
    <glyph glyph-name="fourthtofinechinese" unicode="&#x2cb;" horiz-adv-x="500" 
d="M200 555l-147 205h145l102 -205h-100z" />
    <glyph glyph-name="uni02CC" unicode="&#x2cc;" horiz-adv-x="500" 
d="M204 -270v205h92v-205h-92z" />
    <glyph glyph-name="breve" unicode="&#x2d8;" horiz-adv-x="500" 
d="M250 552q-76 0 -123.5 52.5t-49.5 142.5l83 8q4 -56 27 -85.5t63 -29.5t63 29.5t27 85.5l83 -8q-2 -90 -49 -142.5t-124 -52.5z" />
    <glyph glyph-name="dotaccent" unicode="&#x2d9;" horiz-adv-x="500" 
d="M180 590v133h140v-133h-140z" />
    <glyph glyph-name="ring" unicode="&#x2da;" horiz-adv-x="500" 
d="M250 545q-37 0 -66.5 17t-46.5 45.5t-17 64.5t17 64.5t46.5 45t66.5 16.5t66.5 -16.5t46.5 -45t17 -64.5t-17 -64.5t-46.5 -45.5t-66.5 -17zM250 610q26 0 43.5 17.5t17.5 44.5q0 26 -17.5 43.5t-43.5 17.5t-43.5 -17.5t-17.5 -43.5q0 -27 17.5 -44.5t43.5 -17.5z" />
    <glyph glyph-name="ogonek" unicode="&#x2db;" horiz-adv-x="500" 
d="M227 -197q-59 0 -92 29.5t-33 78.5q0 44 29 80t77 54l42 -45q-26 -10 -41.5 -29.5t-15.5 -42.5t16 -35.5t39 -12.5q15 0 27.5 3t27.5 8l15 -70q-41 -18 -91 -18z" />
    <glyph glyph-name="tilde" unicode="&#x2dc;" horiz-adv-x="500" 
d="M119 581l-71 4q5 74 39.5 115.5t87.5 41.5q24 0 42.5 -9t42.5 -25q21 -15 34 -20.5t26 -5.5q50 0 61 64l71 -4q-4 -74 -38.5 -115.5t-88.5 -41.5q-21 0 -40 7.5t-45 26.5q-37 26 -60 26q-50 0 -61 -64z" />
    <glyph glyph-name="hungarumlaut" unicode="&#x2dd;" horiz-adv-x="500" 
d="M289 555l47 205h123l-91 -205h-79zM128 555l47 205h123l-92 -205h-78z" />
    <glyph glyph-name="gravecomb" unicode="&#x300;" 
d="M-50 555l-147 205h145l102 -205h-100z" />
    <glyph glyph-name="acutecomb" unicode="&#x301;" 
d="M-50 555l103 205h144l-147 -205h-100z" />
    <glyph glyph-name="uni0302" unicode="&#x302;" 
d="M-175 555l111 205h128l111 -205h-94l-81 123l-81 -123h-94z" />
    <glyph glyph-name="tildecomb" unicode="&#x303;" 
d="M-131 581l-71 4q5 74 39.5 115.5t87.5 41.5q24 0 42.5 -9t42.5 -25q21 -15 34 -20.5t26 -5.5q50 0 61 64l71 -4q-4 -74 -38.5 -115.5t-88.5 -41.5q-21 0 -40 7.5t-45 26.5q-37 26 -60 26q-50 0 -61 -64z" />
    <glyph glyph-name="uni0304" unicode="&#x304;" 
d="M-163 611v85h326v-85h-326z" />
    <glyph glyph-name="uni0306" unicode="&#x306;" 
d="M0 552q-76 0 -123.5 52.5t-49.5 142.5l83 8q4 -56 27 -85.5t63 -29.5t63 29.5t27 85.5l83 -8q-2 -90 -49 -142.5t-124 -52.5z" />
    <glyph glyph-name="uni0307" unicode="&#x307;" 
d="M-70 590v133h140v-133h-140z" />
    <glyph glyph-name="uni0308" unicode="&#x308;" 
d="M32 590v132h133v-132h-133zM-165 590v132h133v-132h-133z" />
    <glyph glyph-name="hookabovecomb" unicode="&#x309;" 
d="M-44 555v22q0 26 13 41.5t26 27t13 28.5q0 23 -36 23q-31 0 -59 -15l-22 61q45 25 116 25q53 0 83 -19t30 -55q0 -26 -11.5 -41.5t-26.5 -26.5t-26.5 -23t-11.5 -31v-17h-88z" />
    <glyph glyph-name="uni030A" unicode="&#x30a;" 
d="M0 545q-37 0 -66.5 17t-46.5 45.5t-17 64.5t17 64.5t46.5 45t66.5 16.5t66.5 -16.5t46.5 -45t17 -64.5t-17 -64.5t-46.5 -45.5t-66.5 -17zM0 610q26 0 43.5 17.5t17.5 44.5q0 26 -17.5 43.5t-43.5 17.5t-43.5 -17.5t-17.5 -43.5q0 -27 17.5 -44.5t43.5 -17.5z" />
    <glyph glyph-name="uni030B" unicode="&#x30b;" 
d="M39 555l47 205h123l-91 -205h-79zM-122 555l47 205h123l-92 -205h-78z" />
    <glyph glyph-name="uni030C" unicode="&#x30c;" 
d="M-64 555l-111 205h94l81 -123l81 123h94l-111 -205h-128z" />
    <glyph glyph-name="uni030F" unicode="&#x30f;" 
d="M44 555l-92 205h123l47 -205h-78zM-117 555l-92 205h123l47 -205h-78z" />
    <glyph glyph-name="uni0311" unicode="&#x311;" 
d="M-90 552l-83 7q2 90 49.5 143t123.5 53q77 0 124 -53t49 -143l-83 -7q-4 55 -27 84.5t-63 29.5t-63 -29.5t-27 -84.5z" />
    <glyph glyph-name="uni0312" unicode="&#x312;" 
d="M-75 562v71q0 44 13.5 79.5t47.5 64.5l53 -36q-17 -16 -25.5 -32t-10.5 -33h71v-114h-149z" />
    <glyph glyph-name="uni031B" unicode="&#x31b;" 
d="M89 418l-89 55v18q46 0 68.5 20t22.5 81v24h130v-42q0 -63 -36.5 -106t-95.5 -50z" />
    <glyph glyph-name="dotbelowcomb" unicode="&#x323;" 
d="M-70 -214v133h140v-133h-140z" />
    <glyph glyph-name="uni0324" unicode="&#x324;" 
d="M32 -199v132h133v-132h-133zM-165 -199v132h133v-132h-133z" />
    <glyph glyph-name="uni0326" unicode="&#x326;" 
d="M14 -284l-54 36q18 16 26.5 32t10.5 33h-72v114h149v-71q0 -44 -13.5 -79.5t-46.5 -64.5z" />
    <glyph glyph-name="uni0327" unicode="&#x327;" 
d="M-1 -197q-31 0 -59.5 5.5t-49.5 16.5l21 64q18 -9 36 -13.5t38 -4.5q52 0 52 26q0 20 -37 20q-9 0 -17.5 -1t-20.5 -4l-20 20l13 88h76l-10 -54h6q45 0 70.5 -19.5t25.5 -54.5q0 -40 -34.5 -64.5t-89.5 -24.5z" />
    <glyph glyph-name="uni0328" unicode="&#x328;" 
d="M-23 -197q-59 0 -92 29.5t-33 78.5q0 44 29 80t77 54l42 -45q-26 -10 -41.5 -29.5t-15.5 -42.5t16 -35.5t39 -12.5q15 0 27.5 3t27.5 8l15 -70q-41 -18 -91 -18z" />
    <glyph glyph-name="uni032E" unicode="&#x32e;" 
d="M0 -215q-76 0 -123.5 42t-49.5 113l83 8q4 -36 27 -56.5t63 -20.5t63 20.5t27 56.5l83 -8q-2 -71 -49 -113t-124 -42z" />
    <glyph glyph-name="uni0331" unicode="&#x331;" 
d="M-163 -170v85h326v-85h-326z" />
    <glyph glyph-name="uni0335" unicode="&#x335;" 
d="M-211 534v104h422v-104h-422z" />
    <glyph glyph-name="uni0337" unicode="&#x337;" 
d="M-135 213l-56 101l326 189l57 -100z" />
    <glyph glyph-name="uni0338" unicode="&#x338;" 
d="M-131 -64l-76 44l338 576l76 -44z" />
    <glyph glyph-name="uni0394" unicode="&#x394;" horiz-adv-x="753" 
d="M37 0v85l277 620h125l278 -620v-85h-680zM375 540l-177 -419h358l-179 419h-2z" />
    <glyph glyph-name="Sigma" unicode="&#x3a3;" horiz-adv-x="600" 
d="M29 -180v109l254 334l-254 333v109h542v-127h-352l209 -275v-81l-209 -275h352v-127h-542z" />
    <glyph glyph-name="uni03A9" unicode="&#x3a9;" horiz-adv-x="811" 
d="M34 0v126h163q-80 52 -115 122t-35 158q0 96 46.5 165.5t127.5 106.5t185 37t185 -37t127.5 -106.5t46.5 -165.5q0 -88 -35 -158t-116 -122h163v-126h-320v121q146 108 146 262q0 97 -53 149t-144 52t-144.5 -52t-53.5 -149q0 -154 146 -262v-121h-320z" />
    <glyph glyph-name="uni03BC" unicode="&#x3bc;" horiz-adv-x="590" 
d="M56 -180v671h151v-297q0 -87 75 -87q43 0 70.5 30.5t27.5 80.5v273h151v-491h-147v89q-11 -48 -41 -74t-65 -26q-29 0 -49 10.5t-34 34.5l12 -214h-151z" />
    <glyph glyph-name="pi" unicode="&#x3c0;" horiz-adv-x="636" 
d="M549 -9q-107 0 -154.5 57t-47.5 156v174h-99q-1 -114 -15.5 -203t-44.5 -175h-155q23 74 36.5 137t20.5 122t8 119h-94v113h597v-113h-103v-160q0 -55 20.5 -80t68.5 -25q9 0 19.5 1.5t21.5 3.5l-6 -121q-43 -6 -73 -6z" />
    <glyph glyph-name="uni0400" unicode="&#x400;" horiz-adv-x="605" 
d="M71 0v705h483v-121h-335v-165h313v-122h-313v-176h335v-121h-483zM279 765l-167 175h154l118 -175h-105z" />
    <glyph glyph-name="uni0401" unicode="&#x401;" horiz-adv-x="605" 
d="M71 0v705h483v-121h-335v-165h313v-122h-313v-176h335v-121h-483zM363 781v132h133v-132h-133zM166 781v132h133v-132h-133z" />
    <glyph glyph-name="uni0402" unicode="&#x402;" horiz-adv-x="887" 
d="M597 -191q-36 0 -69 6t-58 15l25 114q38 -13 84 -13q48 0 75.5 33t27.5 95v81q0 92 -44.5 133t-124.5 41q-32 0 -63 -6t-56 -19v-289h-155v577h-233v128h621v-128h-233v-156q23 11 60.5 18t76.5 7q147 0 226.5 -74t79.5 -226v-81q0 -123 -66 -189.5t-174 -66.5z" />
    <glyph glyph-name="uni0403" unicode="&#x403;" horiz-adv-x="569" 
d="M71 0v705h481v-128h-326v-577h-155zM230 765l118 175h153l-166 -175h-105z" />
    <glyph glyph-name="uni0404" unicode="&#x404;" horiz-adv-x="683" 
d="M413 -11q-114 0 -195 45t-124.5 126.5t-43.5 192.5q0 110 43.5 191.5t124.5 126.5t195 45q70 0 134 -22t105 -60l-48 -123q-45 35 -90.5 51.5t-95.5 16.5q-82 0 -133.5 -41t-66.5 -118h296v-122h-298q14 -86 66.5 -129t135.5 -43q50 0 95.5 16.5t90.5 51.5l48 -123
q-41 -37 -105 -59.5t-134 -22.5z" />
    <glyph glyph-name="uni0405" unicode="&#x405;" horiz-adv-x="641" 
d="M323 -11q-83 0 -156.5 21t-122.5 57l45 122q47 -33 107.5 -52t126.5 -19q72 0 103.5 22.5t31.5 56.5q0 29 -22 46t-77 29l-113 24q-189 40 -189 196q0 67 36 117.5t100.5 78.5t149.5 28q73 0 137 -21t106 -59l-45 -114q-82 65 -199 65q-63 0 -97.5 -24.5t-34.5 -63.5
q0 -29 21 -47t73 -29l113 -24q194 -42 194 -190q0 -66 -35.5 -115.5t-100 -77t-152.5 -27.5z" />
    <glyph glyph-name="uni0406" unicode="&#x406;" horiz-adv-x="296" 
d="M71 0v705h155v-705h-155z" />
    <glyph glyph-name="uni0407" unicode="&#x407;" horiz-adv-x="296" 
d="M71 0v705h155v-705h-155zM180 781v132h133v-132h-133zM-17 781v132h133v-132h-133z" />
    <glyph glyph-name="uni0408" unicode="&#x408;" horiz-adv-x="373" 
d="M1 -10l-11 126l77 4q80 5 80 84v501h155v-499q0 -198 -210 -212z" />
    <glyph glyph-name="uni0409" unicode="&#x409;" horiz-adv-x="1135" 
d="M90 -18l-78 113q54 31 89.5 77t52.5 122t17 195v216h510v-284h178q114 0 179 -54t65 -156t-65 -156.5t-179 -54.5h-334v577h-211v-128q0 -192 -59.5 -303t-164.5 -164zM681 120h158q60 0 87.5 22t27.5 69q0 45 -27.5 67.5t-87.5 22.5h-158v-181z" />
    <glyph glyph-name="uni040A" unicode="&#x40a;" horiz-adv-x="1163" 
d="M71 0v705h155v-283h328v283h155v-284h179q113 0 178 -54t65 -156t-65 -156.5t-178 -54.5h-334v293h-328v-293h-155zM709 120h158q60 0 88 22t28 69q0 45 -28 67.5t-88 22.5h-158v-181z" />
    <glyph glyph-name="uni040B" unicode="&#x40b;" horiz-adv-x="876" 
d="M239 0v577h-233v128h621v-128h-233v-156q25 11 64 18t78 7q140 0 215.5 -74t75.5 -226v-146h-155v140q0 93 -41 133.5t-114 40.5q-31 0 -63.5 -5.5t-59.5 -19.5v-289h-155z" />
    <glyph glyph-name="uni040C" unicode="&#x40c;" horiz-adv-x="695" 
d="M71 0v705h155v-291h85l179 291h170l-207 -320q73 -37 119 -131l123 -254h-168l-92 200q-22 47 -52.5 66.5t-77.5 19.5h-79v-286h-155zM294 765l118 175h153l-166 -175h-105z" />
    <glyph glyph-name="uni040D" unicode="&#x40d;" horiz-adv-x="753" 
d="M71 0v705h144v-453l352 453h115v-705h-144v455l-353 -455h-114zM325 765l-167 175h154l118 -175h-105z" />
    <glyph glyph-name="uni040E" unicode="&#x40e;" horiz-adv-x="670" 
d="M171 0l108 214l-300 491h164l210 -349l176 349h160l-358 -705h-160zM339 760q-89 0 -140 41t-64 104l74 24q19 -47 49.5 -68t81.5 -21t82 22t49 66l71 -23q-19 -68 -72 -106.5t-131 -38.5z" />
    <glyph glyph-name="uni040F" unicode="&#x40f;" horiz-adv-x="773" 
d="M318 -170v170h-247v705h155v-577h321v577h155v-705h-248v-170h-136z" />
    <glyph glyph-name="uni0410" unicode="&#x410;" horiz-adv-x="753" 
d="M-10 0l324 705h125l324 -705h-156l-66 153h-329l-65 -153h-157zM375 540l-111 -266h226l-113 266h-2z" />
    <glyph glyph-name="uni0411" unicode="&#x411;" horiz-adv-x="681" 
d="M71 0v705h507v-121h-359v-163h186q113 0 178.5 -54t65.5 -156t-65.5 -156.5t-178.5 -54.5h-334zM219 120h165q60 0 88 22t28 69q0 45 -28 67.5t-88 22.5h-165v-181z" />
    <glyph glyph-name="uni0412" unicode="&#x412;" horiz-adv-x="695" 
d="M71 0v705h323q113 0 174.5 -49t61.5 -134q0 -56 -28 -96.5t-78 -60.5q60 -17 92.5 -60t32.5 -106q0 -94 -65.5 -146.5t-178.5 -52.5h-334zM219 415h148q114 0 114 88q0 87 -114 87h-148v-175zM219 115h165q60 0 88 23t28 70q0 46 -28 69t-88 23h-165v-185z" />
    <glyph glyph-name="uni0413" unicode="&#x413;" horiz-adv-x="569" 
d="M71 0v705h481v-128h-326v-577h-155z" />
    <glyph glyph-name="uni0414" unicode="&#x414;" horiz-adv-x="811" 
d="M12 -170v292h71q89 111 89 397v186h517v-583h100v-292h-136v170h-504v-170h-137zM239 122h294v462h-218v-80q0 -134 -19 -227.5t-57 -154.5z" />
    <glyph glyph-name="uni0415" unicode="&#x415;" horiz-adv-x="605" 
d="M71 0v705h483v-121h-335v-165h313v-122h-313v-176h335v-121h-483z" />
    <glyph glyph-name="uni0416" unicode="&#x416;" horiz-adv-x="1041" 
d="M0 0l124 254q46 94 118 131l-206 320h170l179 -291h62v291h148v-291h62l179 291h170l-207 -320q73 -37 118 -131l124 -254h-167l-93 200q-22 47 -52.5 66.5t-77.5 19.5h-56v-286h-148v286h-56q-48 0 -78.5 -20t-52.5 -66l-92 -200h-168z" />
    <glyph glyph-name="uni0417" unicode="&#x417;" horiz-adv-x="631" 
d="M299 -11q-88 0 -155.5 21.5t-119.5 60.5l46 115q41 -32 95.5 -49.5t120.5 -17.5q75 0 111 23t36 72q0 42 -28 62.5t-88 20.5h-170v121h153q114 0 114 82q0 39 -30 63t-97 24q-56 0 -109 -17t-94 -49l-45 115q47 37 117 58.5t150 21.5q131 0 196 -54.5t65 -139.5
q0 -56 -28.5 -96.5t-78.5 -60.5q60 -17 92.5 -60t32.5 -106q0 -94 -70 -152t-216 -58z" />
    <glyph glyph-name="uni0418" unicode="&#x418;" horiz-adv-x="753" 
d="M71 0v705h144v-453l352 453h115v-705h-144v455l-353 -455h-114z" />
    <glyph glyph-name="uni0419" unicode="&#x419;" horiz-adv-x="753" 
d="M71 0v705h144v-453l352 453h115v-705h-144v455l-353 -455h-114zM376 760q-89 0 -140 41t-64 104l74 24q19 -47 49.5 -68t81.5 -21t82 22t49 66l71 -23q-19 -68 -72 -106.5t-131 -38.5z" />
    <glyph glyph-name="uni041A" unicode="&#x41a;" horiz-adv-x="695" 
d="M71 0v705h155v-291h85l179 291h170l-207 -320q73 -37 119 -131l123 -254h-168l-92 200q-22 47 -52.5 66.5t-77.5 19.5h-79v-286h-155z" />
    <glyph glyph-name="uni041B" unicode="&#x41b;" horiz-adv-x="758" 
d="M90 -18l-78 113q54 31 89.5 77t52.5 122t17 195v216h517v-705h-156v577h-218v-128q0 -192 -59.5 -303t-164.5 -164z" />
    <glyph glyph-name="uni041C" unicode="&#x41c;" horiz-adv-x="876" 
d="M73 0v705h129l238 -433l237 433h127v-705h-141v430l-182 -324h-87l-181 321v-427h-140z" />
    <glyph glyph-name="uni041D" unicode="&#x41d;" horiz-adv-x="780" 
d="M71 0v705h155v-283h328v283h155v-705h-155v293h-328v-293h-155z" />
    <glyph glyph-name="uni041E" unicode="&#x41e;" horiz-adv-x="796" 
d="M398 -11q-104 0 -182.5 45.5t-122 127t-43.5 191.5t43.5 191.5t121.5 126.5t183 45t183.5 -45t122 -126.5t43.5 -190.5q0 -110 -43.5 -192t-122 -127.5t-183.5 -45.5zM398 121q88 0 137.5 61.5t49.5 170.5q0 110 -49 170.5t-138 60.5q-87 0 -136.5 -60.5t-49.5 -170.5
q0 -109 49.5 -170.5t136.5 -61.5z" />
    <glyph glyph-name="uni041F" unicode="&#x41f;" horiz-adv-x="773" 
d="M71 0v705h631v-705h-155v577h-321v-577h-155z" />
    <glyph glyph-name="uni0420" unicode="&#x420;" horiz-adv-x="664" 
d="M71 0v705h322q118 0 182 -59.5t64 -165.5t-64 -166t-182 -60h-167v-254h-155zM226 374h141q123 0 123 106q0 104 -123 104h-141v-210z" />
    <glyph glyph-name="uni0421" unicode="&#x421;" horiz-adv-x="683" 
d="M413 -11q-114 0 -195 45t-124.5 126.5t-43.5 192.5q0 110 43.5 191.5t124.5 126.5t195 45q70 0 134 -22t105 -60l-48 -123q-45 35 -90.5 51.5t-95.5 16.5q-101 0 -152.5 -58.5t-51.5 -167.5t51.5 -168t152.5 -59q50 0 95.5 16.5t90.5 51.5l48 -123q-41 -37 -105 -59.5
t-134 -22.5z" />
    <glyph glyph-name="uni0422" unicode="&#x422;" horiz-adv-x="632" 
d="M239 0v577h-233v128h621v-128h-233v-577h-155z" />
    <glyph glyph-name="uni0423" unicode="&#x423;" horiz-adv-x="670" 
d="M171 0l108 214l-300 491h164l210 -349l176 349h160l-358 -705h-160z" />
    <glyph glyph-name="uni0424" unicode="&#x424;" horiz-adv-x="908" 
d="M376 -27v81q-152 3 -239 81.5t-87 222.5q0 145 85.5 223t240.5 81v75h156v-75q155 -3 240.5 -81t85.5 -223q0 -144 -87 -222.5t-239 -81.5v-81h-156zM535 545h-4v-374h4q46 0 83.5 20.5t59.5 62t22 104.5q0 96 -46.5 141.5t-118.5 45.5zM373 171h4v374h-4
q-72 0 -118.5 -45.5t-46.5 -141.5q0 -63 22 -104.5t59.5 -62t83.5 -20.5z" />
    <glyph glyph-name="uni0425" unicode="&#x425;" horiz-adv-x="685" 
d="M-15 0l269 357l-261 348h180l170 -235l169 235h181l-262 -348l269 -357h-181l-177 243l-175 -243h-182z" />
    <glyph glyph-name="uni0426" unicode="&#x426;" horiz-adv-x="824" 
d="M666 -170v170h-595v705h155v-577h321v577h155v-577h100v-298h-136z" />
    <glyph glyph-name="uni0427" unicode="&#x427;" horiz-adv-x="709" 
d="M483 0v262q-25 -12 -64 -18.5t-78 -6.5q-140 0 -215.5 74t-75.5 226v168h155v-162q0 -93 39 -134t115 -41q31 0 64 6t60 20v311h155v-705h-155z" />
    <glyph glyph-name="uni0428" unicode="&#x428;" horiz-adv-x="1080" 
d="M71 0v705h152v-577h241v577h152v-577h240v577h153v-705h-938z" />
    <glyph glyph-name="uni0429" unicode="&#x429;" horiz-adv-x="1131" 
d="M973 -170v170h-902v705h152v-577h241v577h152v-577h240v577h153v-577h100v-298h-136z" />
    <glyph glyph-name="uni042A" unicode="&#x42a;" horiz-adv-x="816" 
d="M206 0v577h-200v128h356v-284h178q114 0 179 -54t65 -156t-65 -156.5t-179 -54.5h-334zM362 120h158q116 0 116 91q0 90 -116 90h-158v-181z" />
    <glyph glyph-name="uni042B" unicode="&#x42b;" horiz-adv-x="928" 
d="M71 0v705h155v-284h149q113 0 178.5 -54t65.5 -156t-65.5 -156.5t-178.5 -54.5h-304zM702 0v705h156v-705h-156zM226 120h128q60 0 88 22t28 69q0 45 -28 67.5t-88 22.5h-128v-181z" />
    <glyph glyph-name="uni042C" unicode="&#x42c;" horiz-adv-x="681" 
d="M71 0v705h155v-284h179q113 0 178.5 -54t65.5 -156t-65.5 -156.5t-178.5 -54.5h-334zM226 120h158q60 0 88 22t28 69q0 45 -28 67.5t-88 22.5h-158v-181z" />
    <glyph glyph-name="uni042D" unicode="&#x42d;" horiz-adv-x="683" 
d="M271 -11q-71 0 -135 22.5t-105 59.5l49 123q44 -35 89.5 -51.5t95.5 -16.5q83 0 135.5 43t66.5 129h-298v122h296q-15 77 -64.5 118t-125.5 41q-50 0 -96.5 -15.5t-98.5 -52.5l-49 123q48 38 113.5 60t136.5 22q108 0 187 -45t122 -126.5t43 -191.5q0 -111 -43.5 -192.5
t-124.5 -126.5t-194 -45z" />
    <glyph glyph-name="uni042E" unicode="&#x42e;" horiz-adv-x="1066" 
d="M677 -11q-92 0 -162.5 37.5t-114.5 105.5t-56 161h-118v-293h-155v705h155v-284h119q13 91 57 157t114 102t161 36q103 0 179.5 -45t118.5 -126.5t42 -191.5t-42.5 -192t-118.5 -127t-179 -45zM678 121q84 0 130.5 61.5t46.5 170.5q0 110 -46.5 170.5t-130.5 60.5
t-130.5 -60.5t-46.5 -170.5q0 -109 46.5 -170.5t130.5 -61.5z" />
    <glyph glyph-name="uni042F" unicode="&#x42f;" horiz-adv-x="699" 
d="M25 0l114 209q32 59 82 75q-78 19 -119.5 72t-41.5 133q0 102 64 159t182 57h323v-705h-156v273h-66q-30 0 -51.5 -10.5t-36.5 -37.5l-123 -225h-171zM333 385h140v199h-140q-124 0 -124 -99q0 -100 124 -100z" />
    <glyph glyph-name="uni0430" unicode="&#x430;" horiz-adv-x="573" 
d="M232 -11q-55 0 -97 21t-66.5 57t-24.5 81q0 53 28 85t91 45.5t167 13.5h36v17q0 44 -20 62.5t-68 18.5q-40 0 -84.5 -12.5t-88.5 -37.5l-41 101q26 17 63.5 31t78.5 21.5t78 7.5q114 0 170 -51.5t56 -159.5v-290h-141v74q-15 -39 -50.5 -62t-86.5 -23zM266 90q42 0 71 29
t29 75v20h-35q-77 0 -109 -13.5t-32 -46.5q0 -28 19.5 -46t56.5 -18z" />
    <glyph glyph-name="uni0431" unicode="&#x431;" horiz-adv-x="604" 
d="M308 -11q-123 0 -194.5 72.5t-71.5 216.5v71q0 150 70.5 228.5t207.5 108.5l170 39l43 -118l-202 -44q-72 -16 -110 -59.5t-38 -113.5v-6q22 43 64.5 70t105.5 27q60 0 107.5 -29t75 -82.5t27.5 -127.5q0 -77 -32 -134t-89.5 -88t-133.5 -31zM303 102q52 0 80 34t28 99
q0 64 -28.5 99t-80.5 35q-51 0 -79.5 -34.5t-28.5 -95.5q0 -68 28 -102.5t81 -34.5z" />
    <glyph glyph-name="uni0432" unicode="&#x432;" horiz-adv-x="581" 
d="M66 0v491h279q100 0 142 -34.5t42 -94.5q0 -37 -20.5 -65t-56.5 -41q49 -12 72 -43t23 -75q0 -63 -49.5 -100.5t-144.5 -37.5h-287zM205 295h124q30 0 47 14t17 40t-17 39t-47 13h-124v-106zM205 90h133q73 0 73 58t-73 58h-133v-116z" />
    <glyph glyph-name="uni0433" unicode="&#x433;" horiz-adv-x="470" 
d="M66 0v491h387v-118h-236v-373h-151z" />
    <glyph glyph-name="uni0434" unicode="&#x434;" horiz-adv-x="633" 
d="M26 -130v246h59q25 42 36 97.5t11 140.5v137h403v-375h81v-246h-128v130h-335v-130h-127zM218 115h176v261h-134v-60q0 -55 -11 -109t-31 -92z" />
    <glyph glyph-name="uni0435" unicode="&#x435;" horiz-adv-x="564" 
d="M321 -11q-87 0 -149.5 31.5t-96 89t-33.5 135.5q0 76 32.5 133.5t89 90t130.5 32.5q107 0 170 -67.5t63 -182.5v-38h-341q8 -58 42.5 -84.5t95.5 -26.5q40 0 81 12t74 37l40 -101q-37 -28 -90.5 -44.5t-107.5 -16.5zM300 401q-48 0 -77.5 -29t-36.5 -81h216
q-6 110 -102 110z" />
    <glyph glyph-name="uni0436" unicode="&#x436;" horiz-adv-x="852" 
d="M-9 0l104 190q16 28 33.5 48.5t39.5 33.5l-157 219h160l132 -183h48v183h151v-183h48l130 183h161l-156 -219q21 -13 39 -33.5t33 -48.5l104 -190h-160l-79 142q-16 29 -33.5 39.5t-44.5 10.5h-42v-192h-151v192h-43q-27 0 -44 -10.5t-34 -39.5l-78 -142h-161z" />
    <glyph glyph-name="uni0437" unicode="&#x437;" horiz-adv-x="532" 
d="M258 -11q-68 0 -128 14.5t-102 42.5l37 96q35 -22 87 -34.5t103 -12.5q55 0 81.5 12t26.5 39q0 49 -69 49h-139v105h126q63 0 63 45q0 24 -22.5 37t-79.5 13q-51 0 -93 -11.5t-77 -30.5l-37 94q41 25 101 39.5t133 14.5q102 0 156.5 -36.5t54.5 -102.5q0 -37 -20.5 -65
t-56.5 -41q96 -23 96 -118q0 -68 -63 -108.5t-178 -40.5z" />
    <glyph glyph-name="uni0438" unicode="&#x438;" horiz-adv-x="616" 
d="M66 0v491h136v-297l224 297h124v-491h-136v297l-224 -297h-124z" />
    <glyph glyph-name="uni0439" unicode="&#x439;" horiz-adv-x="616" 
d="M66 0v491h136v-297l224 297h124v-491h-136v297l-224 -297h-124zM307 552q-83 0 -130 41t-59 103l74 24q16 -46 43.5 -67t72.5 -21q46 0 73 22t43 65l70 -23q-17 -68 -66 -106t-121 -38z" />
    <glyph glyph-name="uni043A" unicode="&#x43a;" horiz-adv-x="579" 
d="M66 0v491h151v-183h59l131 183h161l-155 -220q21 -13 38.5 -33.5t32.5 -47.5l104 -190h-161l-79 142q-16 29 -33 39.5t-44 10.5h-54v-192h-151z" />
    <glyph glyph-name="uni043B" unicode="&#x43b;" horiz-adv-x="610" 
d="M61 -15l-45 119q61 17 86 66.5t25 153.5v167h417v-491h-151v374h-128v-55q0 -151 -49 -233t-155 -101z" />
    <glyph glyph-name="uni043C" unicode="&#x43c;" horiz-adv-x="700" 
d="M66 0v491h124l161 -268l160 268h124v-491h-133v275l-117 -194h-69l-118 194v-275h-132z" />
    <glyph glyph-name="uni043D" unicode="&#x43d;" horiz-adv-x="620" 
d="M66 0v491h151v-182h187v182h151v-491h-151v192h-187v-192h-151z" />
    <glyph glyph-name="uni043E" unicode="&#x43e;" horiz-adv-x="604" 
d="M302 -11q-79 0 -137.5 31.5t-90.5 89t-32 136.5q0 78 32 135.5t90.5 88.5t137.5 31t137.5 -31t91 -88.5t32.5 -135.5q0 -79 -32.5 -136.5t-91 -89t-137.5 -31.5zM302 102q48 0 78.5 35t30.5 109q0 73 -30.5 107.5t-78.5 34.5t-78 -34.5t-30 -107.5q0 -74 30 -109t78 -35z
" />
    <glyph glyph-name="uni043F" unicode="&#x43f;" horiz-adv-x="617" 
d="M66 0v491h486v-491h-151v374h-184v-374h-151z" />
    <glyph glyph-name="uni0440" unicode="&#x440;" horiz-adv-x="626" 
d="M66 -180v671h148v-73q20 38 61.5 60.5t93.5 22.5q64 0 112.5 -31t75.5 -88t27 -136t-27 -136.5t-75.5 -89t-112.5 -31.5q-49 0 -89.5 21t-62.5 56v-246h-151zM324 102q48 0 78 35t30 109q0 73 -30 107.5t-78 34.5q-49 0 -79 -34.5t-30 -107.5q0 -74 30 -109t79 -35z" />
    <glyph glyph-name="uni0441" unicode="&#x441;" horiz-adv-x="494" 
d="M305 -11q-80 0 -139.5 31.5t-91.5 89.5t-32 137t32 136t91.5 87.5t139.5 30.5q47 0 95 -14t78 -40l-42 -104q-25 20 -56 31.5t-60 11.5q-59 0 -91.5 -36.5t-32.5 -103.5q0 -66 32.5 -103.5t91.5 -37.5q28 0 59.5 11t56.5 32l42 -104q-30 -26 -78 -40.5t-95 -14.5z" />
    <glyph glyph-name="uni0442" unicode="&#x442;" horiz-adv-x="490" 
d="M170 0v373h-162v118h475v-118h-162v-373h-151z" />
    <glyph glyph-name="uni0443" unicode="&#x443;" horiz-adv-x="549" 
d="M104 -180l94 207l-202 464h159l123 -312l127 312h150l-297 -671h-154z" />
    <glyph glyph-name="uni0444" unicode="&#x444;" horiz-adv-x="864" 
d="M357 -180v241q-40 -72 -128 -72q-55 0 -97 32t-66 89.5t-24 135.5t24 135.5t66 88.5t97 31q89 0 128 -71v275h151v-274q39 70 127 70q55 0 97 -31t66 -88.5t24 -135.5t-24 -135.5t-66 -89.5t-97 -32q-87 0 -127 71v-240h-151zM276 101q37 0 60 35t23 110t-23 109.5
t-60 34.5t-60 -34.5t-23 -109.5t22.5 -110t60.5 -35zM587 101q38 0 61 35t23 110t-23 109.5t-61 34.5q-37 0 -59.5 -34.5t-22.5 -109.5t22.5 -110t59.5 -35z" />
    <glyph glyph-name="uni0445" unicode="&#x445;" horiz-adv-x="575" 
d="M-5 0l207 253l-194 238h176l104 -135l104 135h176l-194 -238l208 -253h-177l-117 148l-117 -148h-176z" />
    <glyph glyph-name="uni0446" unicode="&#x446;" horiz-adv-x="638" 
d="M493 -130v130h-427v491h151v-374h171v374h151v-374h82v-247h-128z" />
    <glyph glyph-name="uni0447" unicode="&#x447;" horiz-adv-x="587" 
d="M373 0v165q-26 -11 -52.5 -16t-52.5 -5q-222 0 -222 217v130h151v-116q0 -58 22.5 -84t77.5 -26q44 0 73 19v207h151v-491h-148z" />
    <glyph glyph-name="uni0448" unicode="&#x448;" horiz-adv-x="851" 
d="M66 0v491h141v-374h148v374h141v-374h148v374h141v-491h-719z" />
    <glyph glyph-name="uni0449" unicode="&#x449;" horiz-adv-x="884" 
d="M739 -130v130h-673v491h141v-374h148v374h141v-374h148v374h141v-374h82v-247h-128z" />
    <glyph glyph-name="uni044A" unicode="&#x44a;" horiz-adv-x="645" 
d="M148 0v373h-140v118h291v-156h118q200 0 200 -164q0 -76 -54.5 -123.5t-145.5 -47.5h-269zM299 97h92q41 0 64 18t23 54q0 70 -87 70h-92v-142z" />
    <glyph glyph-name="uni044B" unicode="&#x44b;" horiz-adv-x="803" 
d="M66 0v491h151v-156h118q200 0 200 -164q0 -76 -54.5 -123.5t-145.5 -47.5h-269zM586 0v491h151v-491h-151zM217 97h92q41 0 64.5 18t23.5 54t-23 53t-65 17h-92v-142z" />
    <glyph glyph-name="uni044C" unicode="&#x44c;" horiz-adv-x="563" 
d="M66 0v491h151v-156h118q200 0 200 -164q0 -76 -54.5 -123.5t-145.5 -47.5h-269zM217 97h92q41 0 64.5 18t23.5 54t-23 53t-65 17h-92v-142z" />
    <glyph glyph-name="uni044D" unicode="&#x44d;" horiz-adv-x="523" 
d="M210 -11q-55 0 -107.5 15t-84.5 43l41 94q29 -22 66.5 -34.5t72.5 -12.5q54 0 90.5 25.5t49.5 76.5h-219v103h218q-13 46 -47.5 72t-91.5 26q-35 0 -72.5 -12t-66.5 -35l-41 94q35 27 87.5 42t105.5 15q82 0 143 -30.5t94 -87.5t33 -136t-33 -137t-94 -89.5t-144 -31.5z
" />
    <glyph glyph-name="uni044E" unicode="&#x44e;" horiz-adv-x="844" 
d="M542 -11q-104 0 -171.5 54.5t-82.5 148.5h-75v-192h-147v491h147v-182h76q18 90 85 141t168 51q79 0 137.5 -31t90.5 -88.5t32 -135.5q0 -79 -32 -136.5t-90.5 -89t-137.5 -31.5zM542 102q48 0 78 35t30 109q0 73 -30 107.5t-78 34.5q-49 0 -79 -34.5t-30 -107.5
q0 -74 30 -109t79 -35z" />
    <glyph glyph-name="uni044F" unicode="&#x44f;" horiz-adv-x="574" 
d="M22 0l72 123q28 51 74 68q-122 24 -122 144q0 73 50 114.5t146 41.5h266v-491h-139v159h-41q-24 0 -42.5 -13.5t-30.5 -34.5l-63 -111h-170zM274 256h95v138h-95q-43 0 -64.5 -18t-21.5 -50q0 -33 21.5 -51.5t64.5 -18.5z" />
    <glyph glyph-name="uni0450" unicode="&#x450;" horiz-adv-x="564" 
d="M321 -11q-87 0 -149.5 31.5t-96 89t-33.5 135.5q0 76 32.5 133.5t89 90t130.5 32.5q107 0 170 -67.5t63 -182.5v-38h-341q8 -58 42.5 -84.5t95.5 -26.5q40 0 81 12t74 37l40 -101q-37 -28 -90.5 -44.5t-107.5 -16.5zM300 401q-48 0 -77.5 -29t-36.5 -81h216
q-6 110 -102 110zM245 555l-147 205h145l102 -205h-100z" />
    <glyph glyph-name="uni0451" unicode="&#x451;" horiz-adv-x="564" 
d="M321 -11q-87 0 -149.5 31.5t-96 89t-33.5 135.5q0 76 32.5 133.5t89 90t130.5 32.5q107 0 170 -67.5t63 -182.5v-38h-341q8 -58 42.5 -84.5t95.5 -26.5q40 0 81 12t74 37l40 -101q-37 -28 -90.5 -44.5t-107.5 -16.5zM300 401q-48 0 -77.5 -29t-36.5 -81h216
q-6 110 -102 110zM327 590v132h133v-132h-133zM130 590v132h133v-132h-133z" />
    <glyph glyph-name="uni0452" unicode="&#x452;" horiz-adv-x="613" 
d="M343 -187l-47 109q41 12 63.5 29t30.5 44t8 69v218q0 51 -17 73.5t-58 22.5q-47 0 -76 -30t-29 -80v-268h-151v538h-85v104h85v63h151v-63h186v-104h-186v-120q26 37 67 57t91 20q173 0 173 -207v-223q0 -62 -17.5 -110.5t-62.5 -84t-126 -57.5z" />
    <glyph glyph-name="uni0453" unicode="&#x453;" horiz-adv-x="470" 
d="M66 0v491h387v-118h-236v-373h-151zM192 555l103 205h144l-147 -205h-100z" />
    <glyph glyph-name="uni0454" unicode="&#x454;" horiz-adv-x="524" 
d="M313 -11q-82 0 -143 31.5t-94.5 89.5t-33.5 137q0 118 74.5 186t204.5 68q53 0 104 -15t81 -42l-41 -94q-30 23 -67 35t-72 12q-58 0 -92.5 -26t-47.5 -72h219v-103h-220q13 -51 49.5 -76.5t91.5 -25.5q34 0 71.5 12.5t67.5 34.5l41 -94q-32 -28 -84.5 -43t-108.5 -15z
" />
    <glyph glyph-name="uni0455" unicode="&#x455;" horiz-adv-x="508" 
d="M254 -11q-65 0 -121 15t-93 41l36 98q37 -23 84.5 -36.5t94.5 -13.5q42 0 62 13.5t20 35.5q0 35 -51 44l-105 19q-63 11 -96 45t-33 89q0 50 28 86t77 56t113 20q53 0 103 -13.5t86 -42.5l-38 -97q-30 22 -71.5 36t-77.5 14q-45 0 -65 -14.5t-20 -36.5q0 -35 47 -44
l105 -19q65 -11 99 -43.5t34 -88.5q0 -77 -60 -120t-158 -43z" />
    <glyph glyph-name="uni0456" unicode="&#x456;" horiz-adv-x="284" 
d="M60 586v141h163v-141h-163zM66 0v491h151v-491h-151z" />
    <glyph glyph-name="uni0457" unicode="&#x457;" horiz-adv-x="284" 
d="M66 0v491h151v-491h-151zM174 590v132h133v-132h-133zM-23 590v132h133v-132h-133z" />
    <glyph glyph-name="uni0458" unicode="&#x458;" horiz-adv-x="289" 
d="M64 586v141h163v-141h-163zM-34 -193l-10 108l47 5q68 8 68 78v493h151v-473q0 -69 -20.5 -113t-67 -67t-125.5 -28z" />
    <glyph glyph-name="uni0459" unicode="&#x459;" horiz-adv-x="887" 
d="M61 -15l-45 119q61 17 86 66.5t25 153.5v167h414v-156h118q200 0 200 -164q0 -76 -54.5 -123.5t-145.5 -47.5h-266v374h-128v-55q0 -151 -49 -233t-155 -101zM541 97h92q41 0 64.5 18t23.5 54t-23 53t-65 17h-92v-142z" />
    <glyph glyph-name="uni045A" unicode="&#x45a;" horiz-adv-x="900" 
d="M66 0v491h151v-182h187v182h151v-156h117q200 0 200 -164q0 -76 -54.5 -123.5t-145.5 -47.5h-268v192h-187v-192h-151zM555 97h91q41 0 64.5 18t23.5 54q0 70 -88 70h-91v-142z" />
    <glyph glyph-name="uni045B" unicode="&#x45b;" horiz-adv-x="611" 
d="M66 0v538h-84v104h84v63h151v-63h187v-104h-187v-120q26 37 67 57t91 20q173 0 173 -207v-288h-151v282q0 51 -19 73.5t-56 22.5q-48 0 -76.5 -30t-28.5 -80v-268h-151z" />
    <glyph glyph-name="uni045C" unicode="&#x45c;" horiz-adv-x="579" 
d="M66 0v491h151v-183h59l131 183h161l-155 -220q21 -13 38.5 -33.5t32.5 -47.5l104 -190h-161l-79 142q-16 29 -33 39.5t-44 10.5h-54v-192h-151zM267 555l103 205h144l-147 -205h-100z" />
    <glyph glyph-name="uni045D" unicode="&#x45d;" horiz-adv-x="616" 
d="M66 0v491h136v-297l224 297h124v-491h-136v297l-224 -297h-124zM258 555l-147 205h145l102 -205h-100z" />
    <glyph glyph-name="uni045E" unicode="&#x45e;" horiz-adv-x="549" 
d="M104 -180l94 207l-202 464h159l123 -312l127 312h150l-297 -671h-154zM274 552q-83 0 -130 41t-59 103l74 24q16 -46 43.5 -67t72.5 -21q46 0 73 22t43 65l70 -23q-17 -68 -66 -106t-121 -38z" />
    <glyph glyph-name="uni045F" unicode="&#x45f;" horiz-adv-x="617" 
d="M244 -130v130h-178v491h151v-374h184v374h151v-491h-180v-130h-128z" />
    <glyph glyph-name="uni0462" unicode="&#x462;" horiz-adv-x="755" 
d="M151 0v515h-171v110h171v80h149v-80h236v-110h-236v-94h179q114 0 179 -54t65 -156t-65 -156.5t-179 -54.5h-328zM300 120h159q116 0 116 91q0 90 -116 90h-159v-181z" />
    <glyph glyph-name="uni0463" unicode="&#x463;" horiz-adv-x="645" 
d="M148 0v389h-140v102h140v214h151v-214h167v-102h-167v-66h125q92 0 143 -40.5t51 -119.5q0 -76 -53 -119.5t-141 -43.5h-276zM299 92h96q39 0 61.5 17.5t22.5 53.5q0 35 -22.5 51.5t-61.5 16.5h-96v-139z" />
    <glyph glyph-name="uni046A" unicode="&#x46a;" horiz-adv-x="1040" 
d="M0 0l126 260q36 72 98.5 112t151.5 40h1l-250 293h787l-251 -293h1q89 0 151.5 -40t98.5 -112l126 -260h-167l-94 200q-20 44 -48.5 65t-80.5 21h-52v-286h-155v286h-53q-52 0 -80.5 -21t-48.5 -65l-94 -200h-167zM519 411h2l161 189h-324z" />
    <glyph glyph-name="uni046B" unicode="&#x46b;" horiz-adv-x="852" 
d="M-9 0l104 174q25 41 48 67t53 38.5t75 13.5l-170 198h651l-171 -198q45 -2 75.5 -14.5t54 -38t47.5 -66.5l103 -174h-160l-79 126q-18 29 -34.5 40t-43.5 11h-42v-177h-151v177h-43q-27 0 -43.5 -11t-34.5 -40l-78 -126h-161zM425 271h2l106 124h-215z" />
    <glyph glyph-name="uni0472" unicode="&#x472;" horiz-adv-x="796" 
d="M398 -11q-104 0 -182.5 45.5t-122 127t-43.5 191.5t43.5 191.5t121.5 126.5t183 45t183.5 -45t122 -126.5t43.5 -190.5q0 -110 -43.5 -192t-122 -127.5t-183.5 -45.5zM398 584q-74 0 -121 -44t-61 -125h364q-13 81 -60 125t-122 44zM398 121q77 0 124.5 47.5t59.5 132.5
h-367q11 -86 59 -133t124 -47z" />
    <glyph glyph-name="uni0473" unicode="&#x473;" horiz-adv-x="604" 
d="M302 -11q-79 0 -137.5 31.5t-90.5 89t-32 136.5q0 78 32 135.5t90.5 88.5t137.5 31t137.5 -31t91 -88.5t32.5 -135.5q0 -79 -32.5 -136.5t-91 -89t-137.5 -31.5zM302 393q-43 0 -72.5 -24.5t-39.5 -74.5h224q-10 50 -39.5 74.5t-72.5 24.5zM303 98q42 0 71.5 25t39.5 75
h-224q10 -50 39.5 -75t73.5 -25z" />
    <glyph glyph-name="uni0474" unicode="&#x474;" horiz-adv-x="785" 
d="M300 0l-317 705h166l217 -505l126 307q33 81 70 126.5t89.5 63.5t131.5 18l13 -126q-50 0 -80 -13t-51.5 -44.5t-46.5 -89.5l-191 -442h-127z" />
    <glyph glyph-name="uni0475" unicode="&#x475;" horiz-adv-x="587" 
d="M211 0l-214 491h159l123 -312l75 184q21 53 49 83t70 42.5t106 12.5l12 -120q-47 0 -74 -18t-46 -61l-133 -302h-127z" />
    <glyph glyph-name="uni048A" unicode="&#x48a;" horiz-adv-x="783" 
d="M375 760q-89 0 -139.5 41t-63.5 104l73 24q19 -47 50 -68t82 -21t81.5 22t48.5 66l72 -23q-20 -68 -73 -106.5t-131 -38.5zM561 -170l56 170h-79v454l-353 -454h-114v705h144v-453l352 453h115v-582h109l-98 -293h-132z" />
    <glyph glyph-name="uni048B" unicode="&#x48b;" horiz-adv-x="649" 
d="M307 552q-83 0 -130 41t-59 103l73 24q17 -46 44.5 -67t72.5 -21t72 22t44 65l70 -23q-17 -68 -66 -106t-121 -38zM66 0v491h136v-297l224 297h124v-378h96l-82 -243h-125l43 130h-68v297l-224 -297h-124z" />
    <glyph glyph-name="uni048C" unicode="&#x48c;" horiz-adv-x="745" 
d="M141 0v515h-141v110h141v80h149v-80h142v-110h-142v-94h179q114 0 179 -54t65 -156t-65 -156.5t-179 -54.5h-328zM290 120h159q116 0 116 91q0 90 -116 90h-159v-181z" />
    <glyph glyph-name="uni048D" unicode="&#x48d;" horiz-adv-x="645" 
d="M148 0v389h-140v102h140v214h151v-214h167v-102h-167v-66h125q92 0 143 -40.5t51 -119.5q0 -76 -53 -119.5t-141 -43.5h-276zM299 92h96q39 0 61.5 17.5t22.5 53.5q0 35 -22.5 51.5t-61.5 16.5h-96v-139z" />
    <glyph glyph-name="uni048E" unicode="&#x48e;" horiz-adv-x="664" 
d="M71 0v705h322q118 0 182 -59.5t64 -165.5q0 -71 -29 -121.5t-83 -77.5l44 -64l-77 -51l-60 90q-19 -2 -41 -2h-167v-254h-155zM226 374h129l-38 58l75 48l58 -85q40 25 40 85q0 104 -123 104h-141v-210z" />
    <glyph glyph-name="uni048F" unicode="&#x48f;" horiz-adv-x="625" 
d="M66 -180v671h148v-71q21 37 62 59t93 22q63 0 111.5 -31t76 -88t27.5 -136q0 -69 -21 -122t-58 -85l44 -58l-63 -47l-50 66q-16 -5 -32.5 -8t-34.5 -3q-50 0 -90.5 21t-61.5 56v-246h-151zM323 102q17 0 31 4l-56 73l63 46l52 -68q19 35 19 89q0 73 -30.5 107.5
t-78.5 34.5q-49 0 -79 -34.5t-30 -107.5q0 -74 30 -109t79 -35z" />
    <glyph glyph-name="uni0490" unicode="&#x490;" horiz-adv-x="569" 
d="M71 0v705h345v163h136v-291h-326v-577h-155z" />
    <glyph glyph-name="uni0491" unicode="&#x491;" horiz-adv-x="470" 
d="M66 0v491h259v111h128v-229h-236v-373h-151z" />
    <glyph glyph-name="uni0492" unicode="&#x492;" horiz-adv-x="614" 
d="M116 0v289h-93v111h93v305h482v-128h-327v-177h177v-111h-177v-289h-155z" />
    <glyph glyph-name="uni0493" unicode="&#x493;" horiz-adv-x="496" 
d="M92 0v167h-87v104h87v220h387v-118h-236v-102h136v-104h-136v-167h-151z" />
    <glyph glyph-name="uni0494" unicode="&#x494;" horiz-adv-x="718" 
d="M435 -191q-41 0 -74.5 6t-58.5 15l25 114q38 -13 83 -13q49 0 76.5 33t27.5 95v81q0 92 -44.5 133t-124.5 41q-32 0 -63 -6t-56 -19v-289h-155v705h507v-128h-352v-156q23 11 60.5 18t76.5 7q147 0 226.5 -74t79.5 -226v-81q0 -82 -30 -139t-82.5 -87t-121.5 -30z" />
    <glyph glyph-name="uni0495" unicode="&#x495;" horiz-adv-x="591" 
d="M349 -187l-47 109q41 12 63.5 29t30.5 44t8 69v37q0 54 -16.5 77t-62.5 23q-49 0 -78.5 -30t-29.5 -80v-91h-151v491h387v-112h-236v-138q26 37 68 57t94 20q88 0 132 -51.5t44 -158.5v-43q0 -62 -17.5 -110.5t-62.5 -84t-126 -57.5z" />
    <glyph glyph-name="uni0496" unicode="&#x496;" horiz-adv-x="1062" 
d="M0 0l124 254q46 94 118 131l-206 320h170l179 -291h62v291h148v-291h62l179 291h170l-207 -320q73 -37 118 -131l64 -131h105v-293h-137v170h-75l-93 200q-22 47 -52.5 66.5t-77.5 19.5h-56v-286h-148v286h-56q-48 0 -78.5 -20t-52.5 -66l-92 -200h-168z" />
    <glyph glyph-name="uni0497" unicode="&#x497;" horiz-adv-x="901" 
d="M-9 0l104 190q16 28 33.5 48.5t39.5 33.5l-157 219h160l132 -183h48v183h151v-183h48l130 183h161l-156 -219q21 -13 39 -33.5t33 -48.5l42 -77h83v-243h-128v130h-53l-79 142q-16 29 -33.5 39.5t-44.5 10.5h-42v-192h-151v192h-43q-27 0 -44 -10.5t-34 -39.5l-78 -142
h-161z" />
    <glyph glyph-name="uni0498" unicode="&#x498;" horiz-adv-x="631" 
d="M245 -170v162q-68 5 -122.5 25.5t-98.5 53.5l46 115q41 -32 95.5 -49.5t120.5 -17.5q75 0 111 23t36 72q0 42 -28 62.5t-88 20.5h-170v121h153q114 0 114 82q0 39 -30 63t-97 24q-56 0 -109 -17t-94 -49l-45 115q47 37 117 58.5t150 21.5q131 0 196 -54.5t65 -139.5
q0 -56 -28.5 -96.5t-78.5 -60.5q60 -17 92.5 -59.5t32.5 -106.5q0 -80 -51 -134.5t-156 -69.5v-165h-133z" />
    <glyph glyph-name="uni0499" unicode="&#x499;" horiz-adv-x="532" 
d="M205 -130v122q-52 4 -97.5 18t-79.5 36l37 96q35 -22 87 -34.5t103 -12.5q55 0 81.5 12t26.5 39q0 49 -69 49h-139v105h126q63 0 63 45q0 24 -22.5 37t-79.5 13q-51 0 -93 -11.5t-77 -30.5l-37 94q41 25 101 39.5t133 14.5q102 0 156.5 -36.5t54.5 -102.5q0 -37 -21 -65
t-57 -41q97 -23 97 -118q0 -58 -45 -96t-130 -48v-124h-119z" />
    <glyph glyph-name="uni049A" unicode="&#x49a;" horiz-adv-x="740" 
d="M71 0v705h155v-291h85l179 291h170l-207 -320q73 -37 119 -131l63 -131h105v-293h-137v170h-76l-92 200q-22 47 -52.5 66.5t-77.5 19.5h-79v-286h-155z" />
    <glyph glyph-name="uni049B" unicode="&#x49b;" horiz-adv-x="626" 
d="M66 0v491h151v-183h59l131 183h161l-155 -220q21 -13 38.5 -33.5t32.5 -47.5l42 -77h82v-243h-128v130h-53l-79 142q-16 29 -33 39.5t-44 10.5h-54v-192h-151z" />
    <glyph glyph-name="uni049C" unicode="&#x49c;" horiz-adv-x="761" 
d="M71 0v705h155v-292h51v163h98v-163v0l180 292h170l-206 -320q73 -37 119 -131l123 -254h-168l-93 200q-21 47 -51 68t-74 21v-158h-98v158h-51v-289h-155z" />
    <glyph glyph-name="uni049D" unicode="&#x49d;" horiz-adv-x="664" 
d="M66 0v491h151v-183h46v109h95v-109h4l131 183h161l-157 -220q21 -12 39 -33t34 -48l104 -190h-161l-78 142q-17 28 -33.5 39t-43.5 11v-117h-95v117h-46v-192h-151z" />
    <glyph glyph-name="uni049E" unicode="&#x49e;" horiz-adv-x="755" 
d="M129 0v520h-140v107h140v78h156v-78h127v-107h-127v-106h107l186 291h170l-220 -331q26 -16 51.5 -45t47.5 -75l123 -254h-168l-92 200q-21 47 -52 66.5t-78 19.5h-75v-286h-156z" />
    <glyph glyph-name="uni049F" unicode="&#x49f;" horiz-adv-x="580" 
d="M67 0v538h-85v104h85v63h151v-63h186v-104h-186v-230h59l132 183h160l-157 -219q22 -13 39.5 -33.5t33.5 -48.5l105 -190h-162l-78 142q-17 29 -33.5 39.5t-44.5 10.5h-54v-192h-151z" />
    <glyph glyph-name="uni04A0" unicode="&#x4a0;" horiz-adv-x="831" 
d="M207 0v578h-201v127h356v-291h85l179 291h170l-207 -320q73 -37 118 -131l124 -254h-168l-92 200q-22 47 -52.5 66.5t-77.5 19.5h-79v-286h-155z" />
    <glyph glyph-name="uni04A1" unicode="&#x4a1;" horiz-adv-x="661" 
d="M148 0v373h-140v118h291v-183h60l130 183h161l-157 -220q21 -12 39 -33t34 -48l104 -190h-161l-78 142q-17 29 -34 39.5t-44 10.5h-54v-192h-151z" />
    <glyph glyph-name="uni04A2" unicode="&#x4a2;" horiz-adv-x="828" 
d="M71 0v705h155v-283h328v283h155v-582h95v-293h-136v170h-114v293h-328v-293h-155z" />
    <glyph glyph-name="uni04A3" unicode="&#x4a3;" horiz-adv-x="653" 
d="M508 -130v130h-104v192h-187v-192h-151v491h151v-182h187v182h151v-378h81v-243h-128z" />
    <glyph glyph-name="uni04A4" unicode="&#x4a4;" horiz-adv-x="947" 
d="M71 0v705h155v-283h328v283h388v-128h-233v-577h-155v293h-328v-293h-155z" />
    <glyph glyph-name="uni04A5" unicode="&#x4a5;" horiz-adv-x="771" 
d="M66 0v491h151v-182h187v182h350v-118h-199v-373h-151v192h-187v-192h-151z" />
    <glyph glyph-name="uni04A8" unicode="&#x4a8;" horiz-adv-x="862" 
d="M403 -11q-111 0 -190 42.5t-121 122.5t-42 193q0 115 42 198t121 127t190 44q21 0 36.5 -2t31.5 -5l-15 -122q-32 4 -50 4q-95 0 -145.5 -61t-50.5 -177q0 -247 201 -247h13q-38 43 -60 97.5t-22 117.5q0 70 27 121.5t75.5 80.5t114.5 29q67 0 115.5 -29t75.5 -80.5
t27 -121.5q0 -63 -22 -117.5t-61 -97.5h14q70 0 138 32l35 -108q-66 -41 -178 -41q-78 0 -146 27q-72 -27 -154 -27zM485 319q0 -131 74 -179q75 49 75 179q0 54 -19.5 84t-55.5 30q-35 0 -54.5 -30t-19.5 -84z" />
    <glyph glyph-name="uni04A9" unicode="&#x4a9;" horiz-adv-x="730" 
d="M341 -11q-145 0 -222 69.5t-77 190.5q0 77 33 134t93 87.5t138 30.5q53 0 90 -13l-23 -103q-14 4 -28 6t-32 2q-57 0 -91.5 -38t-34.5 -107q0 -74 40 -114.5t114 -42.5q-22 26 -34.5 57t-12.5 65q0 76 48 121.5t125 45.5q78 0 126.5 -46t48.5 -121q0 -34 -12.5 -65
t-35.5 -57q34 1 66 9.5t57 22.5l24 -103q-32 -14 -70 -22.5t-78 -8.5q-67 0 -126 20q-60 -20 -126 -20zM411 207q0 -37 13 -61t42 -37q59 26 59 98q0 37 -16 56t-42 19q-24 0 -40 -19t-16 -56z" />
    <glyph glyph-name="uni04AA" unicode="&#x4aa;" horiz-adv-x="683" 
d="M329 -170v166q-132 24 -205.5 118.5t-73.5 238.5q0 110 43.5 191.5t124.5 126.5t195 45q70 0 134 -22t105 -60l-48 -123q-45 35 -90.5 51.5t-95.5 16.5q-101 0 -152.5 -58.5t-51.5 -167.5t51.5 -168t152.5 -59q50 0 95.5 16.5t90.5 51.5l48 -123q-34 -31 -83.5 -51.5
t-106.5 -27.5v-162h-133z" />
    <glyph glyph-name="uni04AB" unicode="&#x4ab;" horiz-adv-x="494" 
d="M235 -130v126q-90 19 -141.5 85t-51.5 166q0 79 32 136t91.5 87.5t139.5 30.5q47 0 94.5 -14t78.5 -40l-42 -104q-25 20 -56.5 31.5t-59.5 11.5q-59 0 -91.5 -36.5t-32.5 -103.5q0 -66 32.5 -103.5t91.5 -37.5q28 0 59.5 11t56.5 32l42 -104q-23 -19 -56 -32t-68 -19
v-123h-119z" />
    <glyph glyph-name="uni04AC" unicode="&#x4ac;" horiz-adv-x="608" 
d="M346 -170v170h-119v577h-221v128h597v-128h-221v-454h100v-293h-136z" />
    <glyph glyph-name="uni04AD" unicode="&#x4ad;" horiz-adv-x="490" 
d="M275 -130v130h-105v373h-162v118h475v-118h-162v-260h81v-243h-127z" />
    <glyph glyph-name="uni04AE" unicode="&#x4ae;" horiz-adv-x="631" 
d="M238 0v318l-272 387h180l172 -248l172 248h173l-270 -388v-317h-155z" />
    <glyph glyph-name="uni04AF" unicode="&#x4af;" horiz-adv-x="540" 
d="M195 -180v204l-203 467h159l123 -312l126 312h150l-204 -461v-210h-151z" />
    <glyph glyph-name="uni04B0" unicode="&#x4b0;" horiz-adv-x="631" 
d="M238 0v318l-272 387h180l172 -248l172 248h173l-270 -388v-317h-155zM76 258v95h481v-95h-481z" />
    <glyph glyph-name="uni04B1" unicode="&#x4b1;" horiz-adv-x="540" 
d="M195 -180v120h-129v112h117l-191 439h159l123 -312l126 312h150l-194 -439h119v-112h-129v-120h-151z" />
    <glyph glyph-name="uni04B2" unicode="&#x4b2;" horiz-adv-x="729" 
d="M-15 0l269 357l-261 348h180l170 -235l169 235h181l-262 -348l177 -234h117v-293h-136v170h-70l-177 243l-175 -243h-182z" />
    <glyph glyph-name="uni04B3" unicode="&#x4b3;" horiz-adv-x="611" 
d="M-5 0l207 253l-194 238h176l104 -135l104 135h176l-194 -238l115 -140h97v-243h-127v130h-54l-117 148l-117 -148h-176z" />
    <glyph glyph-name="uni04B4" unicode="&#x4b4;" horiz-adv-x="960" 
d="M802 -170v170h-596v577h-200v128h543v-128h-188v-449h322v577h155v-577h100v-298h-136z" />
    <glyph glyph-name="uni04B5" unicode="&#x4b5;" horiz-adv-x="754" 
d="M609 -130v130h-461v373h-140v118h421v-118h-130v-256h205v374h151v-374h82v-247h-128z" />
    <glyph glyph-name="uni04B6" unicode="&#x4b6;" horiz-adv-x="757" 
d="M602 -170v170h-119v262q-25 -12 -64 -18.5t-78 -6.5q-140 0 -215.5 74t-75.5 226v168h155v-162q0 -93 39 -134t115 -41q31 0 64 6t60 20v311h155v-582h100v-293h-136z" />
    <glyph glyph-name="uni04B7" unicode="&#x4b7;" horiz-adv-x="620" 
d="M373 0v165q-26 -11 -52.5 -16t-52.5 -5q-222 0 -222 217v130h151v-116q0 -58 22.5 -84t77.5 -26q44 0 73 19v207h151v-378h82v-243h-128v130h-102z" />
    <glyph glyph-name="uni04B8" unicode="&#x4b8;" horiz-adv-x="709" 
d="M483 0v262q-18 -8 -40.5 -13.5t-44.5 -8.5v-137h-99v135q-116 11 -182.5 82.5t-66.5 216.5v168h155v-162q0 -68 23 -110.5t71 -56.5v153h99v-158q23 2 45.5 8t39.5 15v311h155v-705h-155z" />
    <glyph glyph-name="uni04B9" unicode="&#x4b9;" horiz-adv-x="630" 
d="M414 0v168q-27 -11 -55 -16v-94h-95v90q-218 13 -218 213v130h151v-119q0 -48 17 -72t50 -32v112h95v-116q14 1 28 5.5t27 10.5v211h151v-491h-151z" />
    <glyph glyph-name="uni04BA" unicode="&#x4ba;" horiz-adv-x="708" 
d="M71 0v705h155v-262q25 12 63.5 18.5t77.5 6.5q141 0 216.5 -74t75.5 -226v-168h-155v162q0 93 -39 134t-116 41q-31 0 -63.5 -6t-59.5 -19v-312h-155z" />
    <glyph glyph-name="uni04BB" unicode="&#x4bb;" horiz-adv-x="611" 
d="M66 0v705h151v-281q26 38 67 57.5t91 19.5q173 0 173 -206v-295h-151v288q0 51 -19 73.5t-56 22.5q-48 0 -76.5 -30t-28.5 -80v-274h-151z" />
    <glyph glyph-name="uni04BC" unicode="&#x4bc;" horiz-adv-x="985" 
d="M638 -11q-169 0 -272 80t-122 222h-30q-102 0 -152.5 52.5t-50.5 147.5v52h153v-51q0 -43 16 -61t52 -18h12q11 91 57.5 159t121.5 106t174 38q108 0 184 -47.5t115.5 -131.5t39.5 -194v-52h-529q15 -84 74 -127t163 -43q56 0 111 15.5t99 48.5l52 -118
q-48 -37 -120.5 -57.5t-147.5 -20.5zM598 590q-79 0 -129.5 -44.5t-62.5 -132.5h375q-22 177 -183 177z" />
    <glyph glyph-name="uni04BD" unicode="&#x4bd;" horiz-adv-x="678" 
d="M454 -11q-121 0 -194 60.5t-83 163.5h-16q-82 0 -116 36t-34 104v32h117v-32q0 -35 11.5 -48.5t38.5 -13.5q10 63 44 110t86.5 73.5t118.5 26.5q107 0 170 -67.5t63 -182.5v-38h-341q15 -111 138 -111q41 0 81.5 12t74.5 37l39 -101q-37 -28 -91.5 -44.5t-106.5 -16.5z
M433 401q-48 0 -77.5 -28t-36.5 -82h215q-7 110 -101 110z" />
    <glyph glyph-name="uni04BE" unicode="&#x4be;" horiz-adv-x="985" 
d="M638 -11q-169 0 -272 80t-122 222h-30q-102 0 -152.5 52.5t-50.5 147.5v52h153v-51q0 -43 16 -61t52 -18h12q11 91 57.5 159t121.5 106t174 38q108 0 184 -47.5t115.5 -131.5t39.5 -194v-52h-529q15 -84 74 -127t163 -43q56 0 111 15.5t99 48.5l52 -118
q-48 -37 -120.5 -57.5t-147.5 -20.5zM598 590q-79 0 -129.5 -44.5t-62.5 -132.5h375q-22 177 -183 177zM670 -197q-59 0 -92 29.5t-33 78.5q0 44 29 80t77 54l42 -45q-26 -10 -41.5 -29.5t-15.5 -42.5t16 -35.5t39 -12.5q15 0 27.5 3t27.5 8l15 -70q-41 -18 -91 -18z" />
    <glyph glyph-name="uni04BF" unicode="&#x4bf;" horiz-adv-x="678" 
d="M454 -11q-121 0 -194 60.5t-83 163.5h-16q-82 0 -116 36t-34 104v32h117v-32q0 -35 11.5 -48.5t38.5 -13.5q10 63 44 110t86.5 73.5t118.5 26.5q107 0 170 -67.5t63 -182.5v-38h-341q15 -111 138 -111q41 0 81.5 12t74.5 37l39 -101q-37 -28 -91.5 -44.5t-106.5 -16.5z
M433 401q-48 0 -77.5 -28t-36.5 -82h215q-7 110 -101 110zM476 -197q-59 0 -92 29.5t-33 78.5q0 44 29 80t77 54l42 -45q-26 -10 -41.5 -29.5t-15.5 -42.5t16 -35.5t39 -12.5q15 0 27.5 3t27.5 8l15 -70q-41 -18 -91 -18z" />
    <glyph glyph-name="uni04C0" unicode="&#x4c0;" horiz-adv-x="296" 
d="M71 0v705h155v-705h-155z" />
    <glyph glyph-name="uni04C1" unicode="&#x4c1;" horiz-adv-x="1041" 
d="M0 0l124 254q46 94 118 131l-206 320h170l179 -291h62v291h148v-291h62l179 291h170l-207 -320q73 -37 118 -131l124 -254h-167l-93 200q-22 47 -52.5 66.5t-77.5 19.5h-56v-286h-148v286h-56q-48 0 -78.5 -20t-52.5 -66l-92 -200h-168zM519 760q-89 0 -140 41t-64 104
l74 24q19 -47 49.5 -68t81.5 -21t82 22t49 66l71 -23q-19 -68 -72 -106.5t-131 -38.5z" />
    <glyph glyph-name="uni04C2" unicode="&#x4c2;" horiz-adv-x="852" 
d="M-9 0l104 190q16 28 33.5 48.5t39.5 33.5l-157 219h160l132 -183h48v183h151v-183h48l130 183h161l-156 -219q21 -13 39 -33.5t33 -48.5l104 -190h-160l-79 142q-16 29 -33.5 39.5t-44.5 10.5h-42v-192h-151v192h-43q-27 0 -44 -10.5t-34 -39.5l-78 -142h-161zM425 552
q-83 0 -130 41t-59 103l74 24q16 -46 43.5 -67t72.5 -21q46 0 73 22t43 65l70 -23q-17 -68 -66 -106t-121 -38z" />
    <glyph glyph-name="uni04C3" unicode="&#x4c3;" horiz-adv-x="718" 
d="M435 -191q-85 0 -132 21l24 114q38 -13 83 -13q49 0 76.5 33t27.5 95v56q0 93 -45.5 136t-128.5 43h-114v-294h-155v705h155v-283h99l174 283h170l-192 -299q91 -24 141.5 -94t50.5 -191v-56q0 -82 -30 -139t-82.5 -87t-121.5 -30z" />
    <glyph glyph-name="uni04C4" unicode="&#x4c4;" horiz-adv-x="588" 
d="M344 -187l-48 109q42 12 64 29t30.5 43t8.5 66v23q0 57 -28.5 83t-81.5 26h-72v-192h-151v491h151v-183h59l131 183h161l-146 -204q61 -22 94.5 -72.5t33.5 -125.5v-27q0 -60 -18 -108.5t-62.5 -83.5t-125.5 -57z" />
    <glyph glyph-name="uni04C5" unicode="&#x4c5;" horiz-adv-x="788" 
d="M564 -170l56 170h-88v577h-218v-128q0 -192 -59.5 -303t-164.5 -164l-78 113q54 31 89.5 77t52.5 122t17 195v216h517v-582h106l-98 -293h-132z" />
    <glyph glyph-name="uni04C6" unicode="&#x4c6;" horiz-adv-x="643" 
d="M61 -15l-45 119q61 17 86 66.5t25 153.5v167h417v-378h92l-82 -243h-125l43 130h-79v374h-128v-55q0 -151 -49 -233t-155 -101z" />
    <glyph glyph-name="uni04C7" unicode="&#x4c7;" horiz-adv-x="780" 
d="M449 -193l-11 108l47 5q69 8 69 78v295h-328v-293h-155v705h155v-283h328v283h155v-687q0 -69 -21 -113t-68.5 -67t-127.5 -28z" />
    <glyph glyph-name="uni04C8" unicode="&#x4c8;" horiz-adv-x="620" 
d="M299 -193l-11 108l47 5q69 6 69 78v194h-187v-192h-151v491h151v-182h187v182h151v-473q0 -104 -48 -152t-165 -56z" />
    <glyph glyph-name="uni04C9" unicode="&#x4c9;" horiz-adv-x="810" 
d="M71 0v705h155v-283h328v283h155v-582h102l-98 -293h-132l56 170h-83v293h-328v-293h-155z" />
    <glyph glyph-name="uni04CA" unicode="&#x4ca;" horiz-adv-x="653" 
d="M66 0v491h151v-182h187v182h151v-378h91l-82 -243h-125l43 130h-78v192h-187v-192h-151z" />
    <glyph glyph-name="uni04CB" unicode="&#x4cb;" horiz-adv-x="730" 
d="M519 -170h-136v293h100v139q-25 -12 -64 -18.5t-78 -6.5q-140 0 -215.5 74t-75.5 226v168h155v-162q0 -93 39 -134t115 -41q31 0 64 6t60 20v311h155v-705h-119v-170z" />
    <glyph glyph-name="uni04CC" unicode="&#x4cc;" horiz-adv-x="587" 
d="M419 -130h-127v206h81v89q-26 -11 -52.5 -16t-52.5 -5q-222 0 -222 217v130h151v-116q0 -58 22.5 -84t77.5 -26q44 0 73 19v207h151v-491h-102v-130z" />
    <glyph glyph-name="uni04CD" unicode="&#x4cd;" horiz-adv-x="906" 
d="M686 -170l57 170h-80v429l-182 -323h-87l-181 320v-426h-140v705h129l238 -433l237 433h127v-582h113l-98 -293h-133z" />
    <glyph glyph-name="uni04CE" unicode="&#x4ce;" horiz-adv-x="733" 
d="M66 0v491h124l161 -268l160 268h124v-378h99l-82 -243h-125l43 130h-68v275l-117 -194h-69l-118 194v-275h-132z" />
    <glyph glyph-name="uni04CF" unicode="&#x4cf;" horiz-adv-x="283" 
d="M66 0v705h151v-705h-151z" />
    <glyph glyph-name="uni04D0" unicode="&#x4d0;" horiz-adv-x="753" 
d="M-10 0l324 705h125l324 -705h-156l-66 153h-329l-65 -153h-157zM375 540l-111 -266h226l-113 266h-2zM375 760q-89 0 -140 41t-64 104l74 24q19 -47 49.5 -68t81.5 -21t82 22t49 66l71 -23q-19 -68 -72 -106.5t-131 -38.5z" />
    <glyph glyph-name="uni04D1" unicode="&#x4d1;" horiz-adv-x="573" 
d="M232 -11q-55 0 -97 21t-66.5 57t-24.5 81q0 53 28 85t91 45.5t167 13.5h36v17q0 44 -20 62.5t-68 18.5q-40 0 -84.5 -12.5t-88.5 -37.5l-41 101q26 17 63.5 31t78.5 21.5t78 7.5q114 0 170 -51.5t56 -159.5v-290h-141v74q-15 -39 -50.5 -62t-86.5 -23zM266 90q42 0 71 29
t29 75v20h-35q-77 0 -109 -13.5t-32 -46.5q0 -28 19.5 -46t56.5 -18zM290 552q-83 0 -130 41t-59 103l74 24q16 -46 43.5 -67t72.5 -21q46 0 73 22t43 65l70 -23q-17 -68 -66 -106t-121 -38z" />
    <glyph glyph-name="uni04D2" unicode="&#x4d2;" horiz-adv-x="753" 
d="M-10 0l324 705h125l324 -705h-156l-66 153h-329l-65 -153h-157zM375 540l-111 -266h226l-113 266h-2zM408 781v132h133v-132h-133zM211 781v132h133v-132h-133z" />
    <glyph glyph-name="uni04D3" unicode="&#x4d3;" horiz-adv-x="573" 
d="M232 -11q-55 0 -97 21t-66.5 57t-24.5 81q0 53 28 85t91 45.5t167 13.5h36v17q0 44 -20 62.5t-68 18.5q-40 0 -84.5 -12.5t-88.5 -37.5l-41 101q26 17 63.5 31t78.5 21.5t78 7.5q114 0 170 -51.5t56 -159.5v-290h-141v74q-15 -39 -50.5 -62t-86.5 -23zM266 90q42 0 71 29
t29 75v20h-35q-77 0 -109 -13.5t-32 -46.5q0 -28 19.5 -46t56.5 -18zM323 590v132h133v-132h-133zM126 590v132h133v-132h-133z" />
    <glyph glyph-name="uni04D4" unicode="&#x4d4;" horiz-adv-x="999" 
d="M-48 0l444 705h551v-121h-385l36 -165h328v-122h-302l39 -176h284v-121h-396l-33 153h-311l-91 -153h-164zM433 535l-155 -261h214l-57 261h-2z" />
    <glyph glyph-name="uni04D5" unicode="&#x4d5;" horiz-adv-x="883" 
d="M245 -11q-62 0 -106.5 21t-69.5 57t-25 81q0 53 28.5 85t92 45.5t169.5 13.5h31v18q0 42 -20.5 61t-66.5 19q-40 0 -84.5 -12t-88.5 -38l-41 101q26 17 63.5 31t78.5 21.5t78 7.5q58 0 101 -16t68 -51q30 34 72.5 50.5t88.5 16.5q71 0 123 -30.5t80.5 -86.5t28.5 -133
v-37h-335q7 -58 39.5 -85t94.5 -27q85 0 153 49l40 -101q-37 -28 -90.5 -44.5t-106.5 -16.5q-73 0 -129.5 25.5t-86.5 76.5q-23 -49 -69 -75.5t-111 -26.5zM620 401q-96 0 -109 -109h210q-6 109 -101 109zM266 90q44 0 71.5 30t27.5 77v17h-34q-77 0 -109 -13.5t-32 -46.5
q0 -28 19.5 -46t56.5 -18z" />
    <glyph glyph-name="uni04D6" unicode="&#x4d6;" horiz-adv-x="605" 
d="M71 0v705h483v-121h-335v-165h313v-122h-313v-176h335v-121h-483zM330 760q-89 0 -140 41t-64 104l74 24q19 -47 49.5 -68t81.5 -21t82 22t49 66l71 -23q-19 -68 -72 -106.5t-131 -38.5z" />
    <glyph glyph-name="uni04D7" unicode="&#x4d7;" horiz-adv-x="564" 
d="M321 -11q-87 0 -149.5 31.5t-96 89t-33.5 135.5q0 76 32.5 133.5t89 90t130.5 32.5q107 0 170 -67.5t63 -182.5v-38h-341q8 -58 42.5 -84.5t95.5 -26.5q40 0 81 12t74 37l40 -101q-37 -28 -90.5 -44.5t-107.5 -16.5zM300 401q-48 0 -77.5 -29t-36.5 -81h216
q-6 110 -102 110zM294 552q-83 0 -130 41t-59 103l74 24q16 -46 43.5 -67t72.5 -21q46 0 73 22t43 65l70 -23q-17 -68 -66 -106t-121 -38z" />
    <glyph glyph-name="uni04D8" unicode="&#x4d8;" horiz-adv-x="796" 
d="M406 -11q-117 0 -196 47.5t-119.5 131.5t-40.5 194v52h530q-30 170 -225 170q-126 0 -223 -66l-52 118q54 38 129 59t166 21q112 0 195.5 -44t130 -126t46.5 -194q0 -110 -43.5 -191.5t-120.5 -126.5t-177 -45zM398 115q77 0 124 44.5t59 132.5h-369q22 -177 186 -177z
" />
    <glyph glyph-name="uni04D9" unicode="&#x4d9;" horiz-adv-x="565" 
d="M276 -11q-112 0 -175 65.5t-63 186.5v37h342q-8 57 -42 84t-92 27q-82 0 -161 -49l-39 101q42 29 96.5 44.5t107.5 15.5q84 0 145.5 -31t95 -88.5t33.5 -135.5q0 -77 -32.5 -134.5t-88.5 -90t-127 -32.5zM269 89q45 0 74.5 28t36.5 83h-212q3 -57 29.5 -84t71.5 -27z" />
    <glyph glyph-name="uni04DA" unicode="&#x4da;" horiz-adv-x="796" 
d="M406 -11q-117 0 -196 47.5t-119.5 131.5t-40.5 194v52h530q-30 170 -225 170q-126 0 -223 -66l-52 118q54 38 129 59t166 21q112 0 195.5 -44t130 -126t46.5 -194q0 -110 -43.5 -191.5t-120.5 -126.5t-177 -45zM398 115q77 0 124 44.5t59 132.5h-369q22 -177 186 -177z
M417 781v132h133v-132h-133zM220 781v132h133v-132h-133z" />
    <glyph glyph-name="uni04DB" unicode="&#x4db;" horiz-adv-x="565" 
d="M276 -11q-112 0 -175 65.5t-63 186.5v37h342q-8 57 -42 84t-92 27q-82 0 -161 -49l-39 101q42 29 96.5 44.5t107.5 15.5q84 0 145.5 -31t95 -88.5t33.5 -135.5q0 -77 -32.5 -134.5t-88.5 -90t-127 -32.5zM269 89q45 0 74.5 28t36.5 83h-212q3 -57 29.5 -84t71.5 -27z
M294 590v132h133v-132h-133zM97 590v132h133v-132h-133z" />
    <glyph glyph-name="uni04DC" unicode="&#x4dc;" horiz-adv-x="1041" 
d="M0 0l124 254q46 94 118 131l-206 320h170l179 -291h62v291h148v-291h62l179 291h170l-207 -320q73 -37 118 -131l124 -254h-167l-93 200q-22 47 -52.5 66.5t-77.5 19.5h-56v-286h-148v286h-56q-48 0 -78.5 -20t-52.5 -66l-92 -200h-168zM552 781v132h133v-132h-133z
M355 781v132h133v-132h-133z" />
    <glyph glyph-name="uni04DD" unicode="&#x4dd;" horiz-adv-x="852" 
d="M-9 0l104 190q16 28 33.5 48.5t39.5 33.5l-157 219h160l132 -183h48v183h151v-183h48l130 183h161l-156 -219q21 -13 39 -33.5t33 -48.5l104 -190h-160l-79 142q-16 29 -33.5 39.5t-44.5 10.5h-42v-192h-151v192h-43q-27 0 -44 -10.5t-34 -39.5l-78 -142h-161zM458 590
v132h133v-132h-133zM261 590v132h133v-132h-133z" />
    <glyph glyph-name="uni04DE" unicode="&#x4de;" horiz-adv-x="631" 
d="M299 -11q-88 0 -155.5 21.5t-119.5 60.5l46 115q41 -32 95.5 -49.5t120.5 -17.5q75 0 111 23t36 72q0 42 -28 62.5t-88 20.5h-170v121h153q114 0 114 82q0 39 -30 63t-97 24q-56 0 -109 -17t-94 -49l-45 115q47 37 117 58.5t150 21.5q131 0 196 -54.5t65 -139.5
q0 -56 -28.5 -96.5t-78.5 -60.5q60 -17 92.5 -60t32.5 -106q0 -94 -70 -152t-216 -58zM336 781v132h133v-132h-133zM139 781v132h133v-132h-133z" />
    <glyph glyph-name="uni04DF" unicode="&#x4df;" horiz-adv-x="532" 
d="M258 -11q-68 0 -128 14.5t-102 42.5l37 96q35 -22 87 -34.5t103 -12.5q55 0 81.5 12t26.5 39q0 49 -69 49h-139v105h126q63 0 63 45q0 24 -22.5 37t-79.5 13q-51 0 -93 -11.5t-77 -30.5l-37 94q41 25 101 39.5t133 14.5q102 0 156.5 -36.5t54.5 -102.5q0 -37 -20.5 -65
t-56.5 -41q96 -23 96 -118q0 -68 -63 -108.5t-178 -40.5zM292 597v132h133v-132h-133zM95 597v132h133v-132h-133z" />
    <glyph glyph-name="uni04E0" unicode="&#x4e0;" horiz-adv-x="631" 
d="M299 -11q-88 0 -155.5 21.5t-119.5 60.5l49 115q41 -32 96.5 -50t116.5 -18q75 0 111 23t36 69q0 45 -30.5 66t-105.5 21h-120v94l191 187h-328v127h512v-107l-188 -183q106 -4 163.5 -58t57.5 -142q0 -106 -71.5 -166t-214.5 -60z" />
    <glyph glyph-name="uni04E1" unicode="&#x4e1;" horiz-adv-x="529" 
d="M236 -191q-145 0 -231 60l42 104q70 -50 169 -50q136 0 136 103q0 98 -136 98h-93v70l181 182h-274v115h440v-101l-167 -167q93 -6 145.5 -55t52.5 -132q0 -69 -32.5 -120t-92 -79t-140.5 -28z" />
    <glyph glyph-name="uni04E2" unicode="&#x4e2;" horiz-adv-x="753" 
d="M71 0v705h144v-453l352 453h115v-705h-144v455l-353 -455h-114zM199 801v85h356v-85h-356z" />
    <glyph glyph-name="uni04E3" unicode="&#x4e3;" horiz-adv-x="616" 
d="M66 0v491h136v-297l224 297h124v-491h-136v297l-224 -297h-124zM145 611v85h326v-85h-326z" />
    <glyph glyph-name="uni04E4" unicode="&#x4e4;" horiz-adv-x="753" 
d="M71 0v705h144v-453l352 453h115v-705h-144v455l-353 -455h-114zM409 781v132h133v-132h-133zM212 781v132h133v-132h-133z" />
    <glyph glyph-name="uni04E5" unicode="&#x4e5;" horiz-adv-x="616" 
d="M66 0v491h136v-297l224 297h124v-491h-136v297l-224 -297h-124zM340 590v132h133v-132h-133zM143 590v132h133v-132h-133z" />
    <glyph glyph-name="uni04E6" unicode="&#x4e6;" horiz-adv-x="796" 
d="M398 -11q-104 0 -182.5 45.5t-122 127t-43.5 191.5t43.5 191.5t121.5 126.5t183 45t183.5 -45t122 -126.5t43.5 -190.5q0 -110 -43.5 -192t-122 -127.5t-183.5 -45.5zM398 121q88 0 137.5 61.5t49.5 170.5q0 110 -49 170.5t-138 60.5q-87 0 -136.5 -60.5t-49.5 -170.5
q0 -109 49.5 -170.5t136.5 -61.5zM426 781v132h133v-132h-133zM229 781v132h133v-132h-133z" />
    <glyph glyph-name="uni04E7" unicode="&#x4e7;" horiz-adv-x="604" 
d="M302 -11q-79 0 -137.5 31.5t-90.5 89t-32 136.5q0 78 32 135.5t90.5 88.5t137.5 31t137.5 -31t91 -88.5t32.5 -135.5q0 -79 -32.5 -136.5t-91 -89t-137.5 -31.5zM302 102q48 0 78.5 35t30.5 109q0 73 -30.5 107.5t-78.5 34.5t-78 -34.5t-30 -107.5q0 -74 30 -109t78 -35z
M334 590v132h133v-132h-133zM137 590v132h133v-132h-133z" />
    <glyph glyph-name="uni04E8" unicode="&#x4e8;" horiz-adv-x="796" 
d="M398 -11q-104 0 -182.5 45.5t-122 127t-43.5 191.5t43.5 191.5t121.5 126.5t183 45t183.5 -45t122 -126.5t43.5 -190.5q0 -110 -43.5 -192t-122 -127.5t-183.5 -45.5zM398 584q-74 0 -121 -44t-61 -125h364q-13 81 -60 125t-122 44zM398 121q77 0 124.5 47.5t59.5 132.5
h-367q11 -86 59 -133t124 -47z" />
    <glyph glyph-name="uni04E9" unicode="&#x4e9;" horiz-adv-x="604" 
d="M302 -11q-79 0 -137.5 31.5t-90.5 89t-32 136.5q0 78 32 135.5t90.5 88.5t137.5 31t137.5 -31t91 -88.5t32.5 -135.5q0 -79 -32.5 -136.5t-91 -89t-137.5 -31.5zM302 393q-43 0 -72.5 -24.5t-39.5 -74.5h224q-10 50 -39.5 74.5t-72.5 24.5zM303 98q42 0 71.5 25t39.5 75
h-224q10 -50 39.5 -75t73.5 -25z" />
    <glyph glyph-name="uni04EA" unicode="&#x4ea;" horiz-adv-x="796" 
d="M398 -11q-104 0 -182.5 45.5t-122 127t-43.5 191.5t43.5 191.5t121.5 126.5t183 45t183.5 -45t122 -126.5t43.5 -190.5q0 -110 -43.5 -192t-122 -127.5t-183.5 -45.5zM398 584q-74 0 -121 -44t-61 -125h364q-13 81 -60 125t-122 44zM398 121q77 0 124.5 47.5t59.5 132.5
h-367q11 -86 59 -133t124 -47zM426 781v132h133v-132h-133zM229 781v132h133v-132h-133z" />
    <glyph glyph-name="uni04EB" unicode="&#x4eb;" horiz-adv-x="604" 
d="M302 -11q-79 0 -137.5 31.5t-90.5 89t-32 136.5q0 78 32 135.5t90.5 88.5t137.5 31t137.5 -31t91 -88.5t32.5 -135.5q0 -79 -32.5 -136.5t-91 -89t-137.5 -31.5zM302 393q-43 0 -72.5 -24.5t-39.5 -74.5h224q-10 50 -39.5 74.5t-72.5 24.5zM303 98q42 0 71.5 25t39.5 75
h-224q10 -50 39.5 -75t73.5 -25zM334 590v132h133v-132h-133zM137 590v132h133v-132h-133z" />
    <glyph glyph-name="uni04EC" unicode="&#x4ec;" horiz-adv-x="683" 
d="M271 -11q-71 0 -135 22.5t-105 59.5l49 123q44 -35 89.5 -51.5t95.5 -16.5q83 0 135.5 43t66.5 129h-298v122h296q-15 77 -64.5 118t-125.5 41q-50 0 -96.5 -15.5t-98.5 -52.5l-49 123q48 38 113.5 60t136.5 22q108 0 187 -45t122 -126.5t43 -191.5q0 -111 -43.5 -192.5
t-124.5 -126.5t-194 -45zM340 781v132h133v-132h-133zM143 781v132h133v-132h-133z" />
    <glyph glyph-name="uni04ED" unicode="&#x4ed;" horiz-adv-x="523" 
d="M210 -11q-55 0 -107.5 15t-84.5 43l41 94q29 -22 66.5 -34.5t72.5 -12.5q54 0 90.5 25.5t49.5 76.5h-219v103h218q-13 46 -47.5 72t-91.5 26q-35 0 -72.5 -12t-66.5 -35l-41 94q35 27 87.5 42t105.5 15q82 0 143 -30.5t94 -87.5t33 -136t-33 -137t-94 -89.5t-144 -31.5z
M263 590v132h133v-132h-133zM66 590v132h133v-132h-133z" />
    <glyph glyph-name="uni04EE" unicode="&#x4ee;" horiz-adv-x="670" 
d="M171 0l108 214l-300 491h164l210 -349l176 349h160l-358 -705h-160zM162 801v85h356v-85h-356z" />
    <glyph glyph-name="uni04EF" unicode="&#x4ef;" horiz-adv-x="549" 
d="M104 -180l94 207l-202 464h159l123 -312l127 312h150l-297 -671h-154zM112 611v85h326v-85h-326z" />
    <glyph glyph-name="uni04F0" unicode="&#x4f0;" horiz-adv-x="670" 
d="M171 0l108 214l-300 491h164l210 -349l176 349h160l-358 -705h-160zM372 781v132h133v-132h-133zM175 781v132h133v-132h-133z" />
    <glyph glyph-name="uni04F1" unicode="&#x4f1;" horiz-adv-x="549" 
d="M104 -180l94 207l-202 464h159l123 -312l127 312h150l-297 -671h-154zM307 590v132h133v-132h-133zM110 590v132h133v-132h-133z" />
    <glyph glyph-name="uni04F2" unicode="&#x4f2;" horiz-adv-x="670" 
d="M171 0l108 214l-300 491h164l210 -349l176 349h160l-358 -705h-160zM219 765l85 175h131l-132 -175h-84zM377 765l98 175h131l-144 -175h-85z" />
    <glyph glyph-name="uni04F3" unicode="&#x4f3;" horiz-adv-x="549" 
d="M104 -180l94 207l-202 464h159l123 -312l127 312h150l-297 -671h-154zM314 555l47 205h123l-91 -205h-79zM153 555l47 205h123l-92 -205h-78z" />
    <glyph glyph-name="uni04F4" unicode="&#x4f4;" horiz-adv-x="709" 
d="M483 0v262q-25 -12 -64 -18.5t-78 -6.5q-140 0 -215.5 74t-75.5 226v168h155v-162q0 -93 39 -134t115 -41q31 0 64 6t60 20v311h155v-705h-155zM371 781v132h133v-132h-133zM174 781v132h133v-132h-133z" />
    <glyph glyph-name="uni04F5" unicode="&#x4f5;" horiz-adv-x="587" 
d="M373 0v165q-26 -11 -52.5 -16t-52.5 -5q-222 0 -222 217v130h151v-116q0 -58 22.5 -84t77.5 -26q44 0 73 19v207h151v-491h-148zM316 590v132h133v-132h-133zM119 590v132h133v-132h-133z" />
    <glyph glyph-name="uni04F6" unicode="&#x4f6;" horiz-adv-x="569" 
d="M71 0v705h481v-128h-326v-454h100v-293h-136v170h-119z" />
    <glyph glyph-name="uni04F7" unicode="&#x4f7;" horiz-adv-x="470" 
d="M66 0v491h387v-118h-236v-260h81v-243h-127v130h-105z" />
    <glyph glyph-name="uni04F8" unicode="&#x4f8;" horiz-adv-x="928" 
d="M71 0v705h155v-284h149q113 0 178.5 -54t65.5 -156t-65.5 -156.5t-178.5 -54.5h-304zM702 0v705h156v-705h-156zM226 120h128q60 0 88 22t28 69q0 45 -28 67.5t-88 22.5h-128v-181zM496 781v132h133v-132h-133zM299 781v132h133v-132h-133z" />
    <glyph glyph-name="uni04F9" unicode="&#x4f9;" horiz-adv-x="803" 
d="M66 0v491h151v-156h118q200 0 200 -164q0 -76 -54.5 -123.5t-145.5 -47.5h-269zM586 0v491h151v-491h-151zM217 97h92q41 0 64.5 18t23.5 54t-23 53t-65 17h-92v-142zM433 590v132h133v-132h-133zM236 590v132h133v-132h-133z" />
    <glyph glyph-name="uni04FA" unicode="&#x4fa;" horiz-adv-x="614" 
d="M88 -186l-10 102l57 4q49 4 72 24.5t23 55.5h-114v289h-93v111h93v305h482v-128h-327v-177h177v-111h-177v-166h100v-93q0 -102 -51 -153t-160 -59z" />
    <glyph glyph-name="uni04FB" unicode="&#x4fb;" horiz-adv-x="496" 
d="M77 -186l-10 101l63 5q33 3 46 24t13 56h-97v177h-87v101h87v213h387v-118h-236v-95h136v-101h-136v-76h81v-71q0 -102 -46.5 -153.5t-128.5 -57.5z" />
    <glyph glyph-name="uni04FC" unicode="&#x4fc;" horiz-adv-x="685" 
d="M415 -188l-28 122q60 6 80.5 25t20.5 52q0 31 -43 91l-103 141l-175 -243h-182l269 357l-261 348h180l170 -235l169 235h181l-262 -348l146 -194q40 -53 56 -94.5t16 -76.5q0 -76 -56.5 -122t-177.5 -58z" />
    <glyph glyph-name="uni04FD" unicode="&#x4fd;" horiz-adv-x="575" 
d="M338 -188l-24 105q48 4 68 18t20 42q0 17 -11.5 36.5t-36.5 51.5l-66 83l-117 -148h-176l207 253l-194 238h175l105 -135l104 135h176l-194 -238l104 -127q42 -50 58.5 -83.5t16.5 -71.5q0 -65 -49.5 -106.5t-165.5 -52.5z" />
    <glyph glyph-name="uni04FE" unicode="&#x4fe;" horiz-adv-x="685" 
d="M-15 0l269 357l-261 348h180l170 -235l169 235h181l-262 -348l269 -357h-181l-177 243l-175 -243h-182zM102 316v95h481v-95h-481z" />
    <glyph glyph-name="uni04FF" unicode="&#x4ff;" horiz-adv-x="575" 
d="M-5 0l207 253l-194 238h176l104 -135l104 135h176l-194 -238l208 -253h-177l-117 148l-117 -148h-176zM48 202v95h481v-95h-481z" />
    <glyph glyph-name="uni0510" unicode="&#x510;" horiz-adv-x="631" 
d="M332 -11q-146 0 -216 58t-70 152q0 63 32.5 106t91.5 60q-49 20 -77.5 60.5t-28.5 96.5q0 85 69 139.5t200 54.5q80 0 146 -21.5t113 -58.5l-46 -115q-40 32 -93 49t-110 17q-66 0 -96 -24t-30 -63q0 -82 114 -82h153v-121h-171q-59 0 -87 -20.5t-28 -62.5
q0 -48 36 -71.5t111 -23.5q66 0 120.5 17.5t95.5 49.5l46 -115q-53 -39 -120 -60.5t-155 -21.5z" />
    <glyph glyph-name="uni0511" unicode="&#x511;" horiz-adv-x="532" 
d="M274 -11q-115 0 -177.5 40.5t-62.5 108.5q0 95 95 118q-36 13 -56.5 41t-20.5 65q0 66 61 102.5t167 36.5q60 0 118 -14.5t100 -39.5l-37 -94q-36 19 -77.5 30.5t-89.5 11.5q-58 0 -82 -13.5t-24 -37.5q0 -44 64 -44h126v-105h-139q-69 0 -69 -47q0 -53 108 -53
q51 0 102.5 12t86.5 34l37 -95q-41 -28 -101.5 -42.5t-128.5 -14.5z" />
    <glyph glyph-name="uni0512" unicode="&#x512;" horiz-adv-x="758" 
d="M419 -193l-9 108l50 5q35 4 53.5 22.5t18.5 55.5v579h-218v-128q0 -192 -59.5 -303t-164.5 -164l-78 113q54 31 89.5 77t52.5 122t17 195v216h517v-687q0 -69 -22 -113t-71 -66.5t-132 -28.5z" />
    <glyph glyph-name="uni0513" unicode="&#x513;" horiz-adv-x="610" 
d="M289 -193l-11 108l47 5q68 8 68 78v376h-128v-55q0 -151 -49 -233t-155 -101l-45 119q61 17 86 66.5t25 153.5v167h417v-490q0 -95 -52.5 -139.5t-159.5 -51.5z" />
    <glyph glyph-name="uni051A" unicode="&#x51a;" horiz-adv-x="796" 
d="M588 -220l-105 170q-26 39 -86 39v0q-104 1 -182 46t-121.5 127t-43.5 191q0 110 43.5 191.5t121.5 126.5t183 45t183.5 -45t122 -126.5t43.5 -190.5q0 -115 -47.5 -199.5t-131.5 -126.5q46 -14 76 -65l76 -122zM398 121q88 0 137.5 61.5t49.5 170.5q0 110 -49 170.5
t-138 60.5q-87 0 -136.5 -60.5t-49.5 -170.5q0 -109 49.5 -170.5t136.5 -61.5z" />
    <glyph glyph-name="uni051B" unicode="&#x51b;" horiz-adv-x="626" 
d="M409 -180v247q-21 -35 -62 -56.5t-90 -21.5q-64 0 -112.5 31.5t-75.5 89t-27 136.5t27 136t75.5 88t112.5 31q52 0 93.5 -23t61.5 -61v74h148v-671h-151zM302 102q48 0 78.5 35t30.5 109q0 73 -30.5 107.5t-78.5 34.5t-78 -34.5t-30 -107.5q0 -74 30 -109t78 -35z" />
    <glyph glyph-name="uni051C" unicode="&#x51c;" horiz-adv-x="1120" 
d="M268 0l-251 705h159l162 -482l171 482h112l166 -490l168 490h150l-253 -705h-126l-165 468l-167 -468h-126z" />
    <glyph glyph-name="uni051D" unicode="&#x51d;" horiz-adv-x="876" 
d="M205 0l-200 491h153l117 -315l117 315h100l117 -319l117 319h145l-198 -491h-128l-108 279l-105 -279h-127z" />
    <glyph glyph-name="uni0524" unicode="&#x524;" horiz-adv-x="821" 
d="M666 -170v170h-119v577h-321v-577h-155v705h631v-582h100v-293h-136z" />
    <glyph glyph-name="uni0525" unicode="&#x525;" horiz-adv-x="650" 
d="M505 -130v130h-104v374h-184v-374h-151v491h486v-378h81v-243h-128z" />
    <glyph glyph-name="uni0526" unicode="&#x526;" horiz-adv-x="757" 
d="M623 -170v170h-119v162q0 93 -39 134t-116 41q-31 0 -63.5 -6t-59.5 -19v-312h-155v705h155v-262q25 12 63.5 18.5t77.5 6.5q141 0 216.5 -74t75.5 -226v-45h100v-293h-136z" />
    <glyph glyph-name="uni0527" unicode="&#x527;" horiz-adv-x="639" 
d="M66 0v705h151v-281q26 38 67 57.5t91 19.5q173 0 173 -206v-182h81v-243h-128v130h-104v288q0 51 -19 73.5t-56 22.5q-48 0 -76.5 -30t-28.5 -80v-274h-151z" />
    <glyph glyph-name="uni0528" unicode="&#x528;" horiz-adv-x="786" 
d="M-29 -193l-10 108l47 5q69 8 69 78v707h155v-283h328v283h155v-705h-155v293h-328v-281q0 -101 -49 -147.5t-168 -54.5z" />
    <glyph glyph-name="uni0529" unicode="&#x529;" horiz-adv-x="620" 
d="M-39 -193l-11 108l47 5q69 8 69 78v493h151v-182h187v182h151v-491h-151v192h-187v-174q0 -69 -20.5 -113t-67 -67t-124.5 -28z" />
    <glyph glyph-name="uni052E" unicode="&#x52e;" horiz-adv-x="807" 
d="M651 -170v170h-119v577h-218v-128q0 -192 -59.5 -303t-164.5 -164l-78 113q54 31 89.5 77t52.5 122t17 195v216h517v-582h100v-293h-137z" />
    <glyph glyph-name="uni052F" unicode="&#x52f;" horiz-adv-x="643" 
d="M61 -15l-45 119q61 17 86 66.5t25 153.5v167h417v-378h82v-243h-128v130h-105v374h-128v-55q0 -151 -49 -233t-155 -101z" />
    <glyph glyph-name="uni1E08" unicode="&#x1e08;" horiz-adv-x="683" 
d="M413 -11q-114 0 -195 45t-124.5 126.5t-43.5 192.5q0 110 43.5 191.5t124.5 126.5t195 45q70 0 134 -22t105 -60l-48 -123q-45 35 -90.5 51.5t-95.5 16.5q-101 0 -152.5 -58.5t-51.5 -167.5t51.5 -168t152.5 -59q50 0 95.5 16.5t90.5 51.5l48 -123q-41 -37 -105 -59.5
t-134 -22.5zM393 -197q-31 0 -59.5 5.5t-49.5 16.5l21 64q18 -9 36 -13.5t38 -4.5q52 0 52 26q0 20 -37 20q-9 0 -17.5 -1t-20.5 -4l-20 20l13 88h76l-10 -54h6q45 0 70.5 -19.5t25.5 -54.5q0 -40 -34.5 -64.5t-89.5 -24.5zM343 765l118 175h153l-166 -175h-105z" />
    <glyph glyph-name="uni1E09" unicode="&#x1e09;" horiz-adv-x="478" 
d="M297 -11q-80 0 -139.5 31.5t-91.5 89.5t-32 137t32 136t91.5 87.5t139.5 30.5q47 0 95 -14t78 -40l-42 -104q-25 20 -56 31.5t-60 11.5q-59 0 -91.5 -36.5t-32.5 -103.5q0 -66 32.5 -103.5t91.5 -37.5q28 0 59.5 11t56.5 32l42 -104q-30 -26 -78 -40.5t-95 -14.5z
M285 -197q-31 0 -59.5 5.5t-49.5 16.5l21 64q18 -9 36 -13.5t38 -4.5q52 0 52 26q0 20 -37 20q-9 0 -17.5 -1t-20.5 -4l-20 20l13 88h76l-10 -54h6q45 0 70.5 -19.5t25.5 -54.5q0 -40 -34.5 -64.5t-89.5 -24.5zM236 555l103 205h144l-147 -205h-100z" />
    <glyph glyph-name="uni1E0C" unicode="&#x1e0c;" horiz-adv-x="774" 
d="M71 0v705h276q180 0 279 -91.5t99 -260.5t-99 -261t-279 -92h-276zM226 127h112q225 0 225 226q0 225 -225 225h-112v-451zM314 -214v133h140v-133h-140z" />
    <glyph glyph-name="uni1E0D" unicode="&#x1e0d;" horiz-adv-x="610" 
d="M249 -11q-64 0 -112.5 31.5t-75.5 89t-27 136.5t27 136t75.5 88t112.5 31q49 0 90 -21t62 -56v281h151v-705h-148v74q-20 -39 -61.5 -62t-93.5 -23zM294 102q48 0 78.5 35t30.5 109q0 73 -30.5 107.5t-78.5 34.5t-78 -34.5t-30 -107.5q0 -74 30 -109t78 -35zM236 -214
v133h140v-133h-140z" />
    <glyph glyph-name="uni1E0E" unicode="&#x1e0e;" horiz-adv-x="774" 
d="M71 0v705h276q180 0 279 -91.5t99 -260.5t-99 -261t-279 -92h-276zM226 127h112q225 0 225 226q0 225 -225 225h-112v-451zM221 -170v85h326v-85h-326z" />
    <glyph glyph-name="uni1E0F" unicode="&#x1e0f;" horiz-adv-x="610" 
d="M249 -11q-64 0 -112.5 31.5t-75.5 89t-27 136.5t27 136t75.5 88t112.5 31q49 0 90 -21t62 -56v281h151v-705h-148v74q-20 -39 -61.5 -62t-93.5 -23zM294 102q48 0 78.5 35t30.5 109q0 73 -30.5 107.5t-78.5 34.5t-78 -34.5t-30 -107.5q0 -74 30 -109t78 -35zM143 -170v85
h326v-85h-326z" />
    <glyph glyph-name="uni1E14" unicode="&#x1e14;" horiz-adv-x="605" 
d="M71 0v705h483v-121h-335v-165h313v-122h-313v-176h335v-121h-483zM285 901l-113 127h139l66 -127h-92zM168 779v85h326v-85h-326z" />
    <glyph glyph-name="uni1E15" unicode="&#x1e15;" horiz-adv-x="549" 
d="M313 -11q-87 0 -149.5 31.5t-96 89t-33.5 135.5q0 76 32.5 133.5t89 90t130.5 32.5q107 0 170 -67.5t63 -182.5v-38h-341q8 -58 42.5 -84.5t95.5 -26.5q40 0 81 12t74 37l40 -101q-37 -28 -90.5 -44.5t-107.5 -16.5zM292 401q-48 0 -77.5 -29t-36.5 -81h216
q-6 110 -102 110zM241 686l-113 127h139l66 -127h-92zM124 564v85h326v-85h-326z" />
    <glyph glyph-name="uni1E16" unicode="&#x1e16;" horiz-adv-x="605" 
d="M71 0v705h483v-121h-335v-165h313v-122h-313v-176h335v-121h-483zM285 901l66 127h140l-114 -127h-92zM168 779v85h326v-85h-326z" />
    <glyph glyph-name="uni1E17" unicode="&#x1e17;" horiz-adv-x="549" 
d="M313 -11q-87 0 -149.5 31.5t-96 89t-33.5 135.5q0 76 32.5 133.5t89 90t130.5 32.5q107 0 170 -67.5t63 -182.5v-38h-341q8 -58 42.5 -84.5t95.5 -26.5q40 0 81 12t74 37l40 -101q-37 -28 -90.5 -44.5t-107.5 -16.5zM292 401q-48 0 -77.5 -29t-36.5 -81h216
q-6 110 -102 110zM241 686l66 127h140l-114 -127h-92zM124 564v85h326v-85h-326z" />
    <glyph glyph-name="uni1E1C" unicode="&#x1e1c;" horiz-adv-x="605" 
d="M71 0v705h483v-121h-335v-165h313v-122h-313v-176h335v-121h-483zM330 -197q-31 0 -59.5 5.5t-49.5 16.5l21 64q18 -9 36 -13.5t38 -4.5q52 0 52 26q0 20 -37 20q-9 0 -17.5 -1t-20.5 -4l-20 20l13 88h76l-10 -54h6q45 0 70.5 -19.5t25.5 -54.5q0 -40 -34.5 -64.5
t-89.5 -24.5zM331 760q-82 0 -133.5 46.5t-56.5 124.5l83 11q4 -45 32 -70t75 -25q46 0 74.5 25t33.5 70l83 -11q-6 -78 -57.5 -124.5t-133.5 -46.5z" />
    <glyph glyph-name="uni1E1D" unicode="&#x1e1d;" horiz-adv-x="549" 
d="M313 -11q-87 0 -149.5 31.5t-96 89t-33.5 135.5q0 76 32.5 133.5t89 90t130.5 32.5q107 0 170 -67.5t63 -182.5v-38h-341q8 -58 42.5 -84.5t95.5 -26.5q40 0 81 12t74 37l40 -101q-37 -28 -90.5 -44.5t-107.5 -16.5zM292 401q-48 0 -77.5 -29t-36.5 -81h216
q-6 110 -102 110zM286 -197q-31 0 -59.5 5.5t-49.5 16.5l21 64q18 -9 36 -13.5t38 -4.5q52 0 52 26q0 20 -37 20q-9 0 -17.5 -1t-20.5 -4l-20 20l13 88h76l-10 -54h6q45 0 70.5 -19.5t25.5 -54.5q0 -40 -34.5 -64.5t-89.5 -24.5zM287 552q-76 0 -123.5 52.5t-49.5 142.5
l83 8q4 -56 27 -85.5t63 -29.5t63 29.5t27 85.5l83 -8q-2 -90 -49 -142.5t-124 -52.5z" />
    <glyph glyph-name="uni1E20" unicode="&#x1e20;" horiz-adv-x="742" 
d="M420 -11q-119 0 -201.5 45t-125.5 126t-43 190q0 112 44.5 194t128.5 127t202 45q74 0 140.5 -21t108.5 -56l-50 -121q-46 34 -94 48.5t-104 14.5q-107 0 -160.5 -59.5t-53.5 -171.5q0 -113 54.5 -171t161.5 -58q57 0 120 18v138h-152v112h280v-346q-52 -26 -120 -40
t-136 -14zM229 801v85h356v-85h-356z" />
    <glyph glyph-name="uni1E21" unicode="&#x1e21;" horiz-adv-x="615" 
d="M294 -191q-71 0 -132.5 15t-107.5 47l41 103q40 -25 90.5 -38.5t95.5 -13.5q128 0 128 118v56q-20 -38 -63 -61t-94 -23q-66 0 -115 30.5t-76 85.5t-27 129q0 73 27 128t76 85.5t115 30.5q53 0 95 -23t62 -61v74h147v-434q0 -124 -67 -186t-195 -62zM297 125
q50 0 80.5 35t30.5 97t-30.5 96.5t-80.5 34.5q-51 0 -81 -34.5t-30 -96.5t30 -97t81 -35zM144 611v85h326v-85h-326z" />
    <glyph glyph-name="uni1E24" unicode="&#x1e24;" horiz-adv-x="780" 
d="M71 0v705h155v-283h328v283h155v-705h-155v293h-328v-293h-155zM320 -214v133h140v-133h-140z" />
    <glyph glyph-name="uni1E25" unicode="&#x1e25;" horiz-adv-x="595" 
d="M58 0v705h151v-281q26 38 67 57.5t91 19.5q173 0 173 -206v-295h-151v288q0 51 -19 73.5t-56 22.5q-48 0 -76.5 -30t-28.5 -80v-274h-151zM229 -214v133h140v-133h-140z" />
    <glyph glyph-name="uni1E2A" unicode="&#x1e2a;" horiz-adv-x="780" 
d="M71 0v705h155v-283h328v283h155v-705h-155v293h-328v-293h-155zM390 -215q-76 0 -123.5 42t-49.5 113l83 8q4 -36 27 -56.5t63 -20.5t63 20.5t27 56.5l83 -8q-2 -71 -49 -113t-124 -42z" />
    <glyph glyph-name="uni1E2B" unicode="&#x1e2b;" horiz-adv-x="595" 
d="M58 0v705h151v-281q26 38 67 57.5t91 19.5q173 0 173 -206v-295h-151v288q0 51 -19 73.5t-56 22.5q-48 0 -76.5 -30t-28.5 -80v-274h-151zM299 -215q-76 0 -123.5 42t-49.5 113l83 8q4 -36 27 -56.5t63 -20.5t63 20.5t27 56.5l83 -8q-2 -71 -49 -113t-124 -42z" />
    <glyph glyph-name="uni1E2E" unicode="&#x1e2e;" horiz-adv-x="296" 
d="M71 0v705h155v-705h-155zM102 901l66 127h140l-114 -127h-92zM-17 770v96h133v-96h-133zM180 770v96h133v-96h-133z" />
    <glyph glyph-name="uni1E2F" unicode="&#x1e2f;" horiz-adv-x="268" 
d="M58 0v491h151v-491h-151zM88 686l66 127h140l-114 -127h-92zM-31 555v97h133v-97h-133zM166 555v97h133v-97h-133z" />
    <glyph glyph-name="uni1E36" unicode="&#x1e36;" horiz-adv-x="573" 
d="M71 0v705h155v-574h326v-131h-481zM242 -214v133h140v-133h-140z" />
    <glyph glyph-name="uni1E37" unicode="&#x1e37;" horiz-adv-x="333" 
d="M241 -11q-95 0 -139 49.5t-44 147.5v519h151v-513q0 -80 71 -80q11 0 21.5 1t20.5 4l-2 -117q-38 -11 -79 -11zM125 -214v133h140v-133h-140z" />
    <glyph glyph-name="uni1E3A" unicode="&#x1e3a;" horiz-adv-x="573" 
d="M71 0v705h155v-574h326v-131h-481zM149 -170v85h326v-85h-326z" />
    <glyph glyph-name="uni1E3B" unicode="&#x1e3b;" horiz-adv-x="333" 
d="M241 -11q-95 0 -139 49.5t-44 147.5v519h151v-513q0 -80 71 -80q11 0 21.5 1t20.5 4l-2 -117q-38 -11 -79 -11zM32 -170v85h326v-85h-326z" />
    <glyph glyph-name="uni1E42" unicode="&#x1e42;" horiz-adv-x="876" 
d="M73 0v705h129l238 -433l237 433h127v-705h-141v430l-182 -324h-87l-181 321v-427h-140zM369 -214v133h140v-133h-140z" />
    <glyph glyph-name="uni1E43" unicode="&#x1e43;" horiz-adv-x="889" 
d="M60 0v491h148v-71q22 38 60.5 59.5t89.5 21.5q52 0 88.5 -23t55.5 -70q23 44 66.5 68.5t96.5 24.5q84 0 125 -50.5t41 -155.5v-295h-151v290q0 49 -15.5 71.5t-52.5 22.5q-43 0 -67 -30t-24 -85v-269h-151v290q0 49 -16 71.5t-52 22.5q-43 0 -67 -30t-24 -85v-269h-151z
M376 -214v133h140v-133h-140z" />
    <glyph glyph-name="uni1E44" unicode="&#x1e44;" horiz-adv-x="753" 
d="M71 0v705h115l352 -449v449h144v-705h-114l-353 450v-450h-144zM306 786v133h140v-133h-140z" />
    <glyph glyph-name="uni1E45" unicode="&#x1e45;" horiz-adv-x="595" 
d="M58 0v491h148v-72q25 40 67 61t94 21q87 0 130 -50.5t43 -155.5v-295h-151v288q0 51 -19 73.5t-56 22.5q-48 0 -76.5 -30t-28.5 -80v-274h-151zM229 590v133h140v-133h-140z" />
    <glyph glyph-name="uni1E46" unicode="&#x1e46;" horiz-adv-x="753" 
d="M71 0v705h115l352 -449v449h144v-705h-114l-353 450v-450h-144zM307 -214v133h140v-133h-140z" />
    <glyph glyph-name="uni1E47" unicode="&#x1e47;" horiz-adv-x="595" 
d="M58 0v491h148v-72q25 40 67 61t94 21q87 0 130 -50.5t43 -155.5v-295h-151v288q0 51 -19 73.5t-56 22.5q-48 0 -76.5 -30t-28.5 -80v-274h-151zM229 -214v133h140v-133h-140z" />
    <glyph glyph-name="uni1E48" unicode="&#x1e48;" horiz-adv-x="753" 
d="M71 0v705h115l352 -449v449h144v-705h-114l-353 450v-450h-144zM214 -170v85h326v-85h-326z" />
    <glyph glyph-name="uni1E49" unicode="&#x1e49;" horiz-adv-x="595" 
d="M58 0v491h148v-72q25 40 67 61t94 21q87 0 130 -50.5t43 -155.5v-295h-151v288q0 51 -19 73.5t-56 22.5q-48 0 -76.5 -30t-28.5 -80v-274h-151zM136 -170v85h326v-85h-326z" />
    <glyph glyph-name="uni1E4C" unicode="&#x1e4c;" horiz-adv-x="796" 
d="M398 -11q-104 0 -182.5 45.5t-122 127t-43.5 191.5t43.5 191.5t121.5 126.5t183 45t183.5 -45t122 -126.5t43.5 -190.5q0 -110 -43.5 -192t-122 -127.5t-183.5 -45.5zM398 121q88 0 137.5 61.5t49.5 170.5q0 110 -49 170.5t-138 60.5q-87 0 -136.5 -60.5t-49.5 -170.5
q0 -109 49.5 -170.5t136.5 -61.5zM351 901l66 127h140l-114 -127h-92zM465 766q-20 0 -38.5 6t-40.5 17q-18 9 -29.5 13t-21.5 4q-23 0 -35 -10t-17 -30l-66 3q3 56 35 84t78 28q17 0 34.5 -5t42.5 -17q34 -17 53 -17q43 0 51 40l66 -4q-3 -56 -34.5 -84t-77.5 -28z" />
    <glyph glyph-name="uni1E4D" unicode="&#x1e4d;" horiz-adv-x="589" 
d="M294 -11q-79 0 -137.5 31.5t-90.5 89t-32 136.5q0 78 32 135.5t90.5 88.5t137.5 31t137.5 -31t91 -88.5t32.5 -135.5q0 -79 -32.5 -136.5t-91 -89t-137.5 -31.5zM294 102q48 0 78.5 35t30.5 109q0 73 -30.5 107.5t-78.5 34.5t-78 -34.5t-30 -107.5q0 -74 30 -109t78 -35z
M248 686l66 127h140l-114 -127h-92zM180 552l-66 3q3 56 35 84t78 28q33 0 76 -22q15 -8 28.5 -12.5t25.5 -4.5q43 0 51 39l66 -3q-3 -56 -34.5 -84t-77.5 -28q-19 0 -38.5 6t-40.5 16q-33 17 -51 17q-23 0 -35 -9.5t-17 -29.5z" />
    <glyph glyph-name="uni1E4E" unicode="&#x1e4e;" horiz-adv-x="796" 
d="M398 -11q-104 0 -182.5 45.5t-122 127t-43.5 191.5t43.5 191.5t121.5 126.5t183 45t183.5 -45t122 -126.5t43.5 -190.5q0 -110 -43.5 -192t-122 -127.5t-183.5 -45.5zM398 121q88 0 137.5 61.5t49.5 170.5q0 110 -49 170.5t-138 60.5q-87 0 -136.5 -60.5t-49.5 -170.5
q0 -109 49.5 -170.5t136.5 -61.5zM232 914v96h133v-96h-133zM429 914v96h133v-96h-133zM465 766q-20 0 -38.5 6t-40.5 17q-18 9 -29.5 13t-21.5 4q-23 0 -35 -10t-17 -30l-66 3q3 56 35 84t78 28q17 0 34.5 -5t42.5 -17q34 -17 53 -17q43 0 51 40l66 -4q-3 -56 -34.5 -84
t-77.5 -28z" />
    <glyph glyph-name="uni1E4F" unicode="&#x1e4f;" horiz-adv-x="589" 
d="M294 -11q-79 0 -137.5 31.5t-90.5 89t-32 136.5q0 78 32 135.5t90.5 88.5t137.5 31t137.5 -31t91 -88.5t32.5 -135.5q0 -79 -32.5 -136.5t-91 -89t-137.5 -31.5zM294 102q48 0 78.5 35t30.5 109q0 73 -30.5 107.5t-78.5 34.5t-78 -34.5t-30 -107.5q0 -74 30 -109t78 -35z
M130 700v96h131v-96h-131zM327 700v96h132v-96h-132zM180 552l-66 3q3 56 35 84t78 28q33 0 76 -22q15 -8 28.5 -12.5t25.5 -4.5q43 0 51 39l66 -3q-3 -56 -34.5 -84t-77.5 -28q-19 0 -38.5 6t-40.5 16q-33 17 -51 17q-23 0 -35 -9.5t-17 -29.5z" />
    <glyph glyph-name="uni1E50" unicode="&#x1e50;" horiz-adv-x="796" 
d="M398 -11q-104 0 -182.5 45.5t-122 127t-43.5 191.5t43.5 191.5t121.5 126.5t183 45t183.5 -45t122 -126.5t43.5 -190.5q0 -110 -43.5 -192t-122 -127.5t-183.5 -45.5zM398 121q88 0 137.5 61.5t49.5 170.5q0 110 -49 170.5t-138 60.5q-87 0 -136.5 -60.5t-49.5 -170.5
q0 -109 49.5 -170.5t136.5 -61.5zM351 901l-113 127h139l66 -127h-92zM234 779v85h326v-85h-326z" />
    <glyph glyph-name="uni1E51" unicode="&#x1e51;" horiz-adv-x="589" 
d="M294 -11q-79 0 -137.5 31.5t-90.5 89t-32 136.5q0 78 32 135.5t90.5 88.5t137.5 31t137.5 -31t91 -88.5t32.5 -135.5q0 -79 -32.5 -136.5t-91 -89t-137.5 -31.5zM294 102q48 0 78.5 35t30.5 109q0 73 -30.5 107.5t-78.5 34.5t-78 -34.5t-30 -107.5q0 -74 30 -109t78 -35z
M248 686l-113 127h139l66 -127h-92zM131 564v85h326v-85h-326z" />
    <glyph glyph-name="uni1E52" unicode="&#x1e52;" horiz-adv-x="796" 
d="M398 -11q-104 0 -182.5 45.5t-122 127t-43.5 191.5t43.5 191.5t121.5 126.5t183 45t183.5 -45t122 -126.5t43.5 -190.5q0 -110 -43.5 -192t-122 -127.5t-183.5 -45.5zM398 121q88 0 137.5 61.5t49.5 170.5q0 110 -49 170.5t-138 60.5q-87 0 -136.5 -60.5t-49.5 -170.5
q0 -109 49.5 -170.5t136.5 -61.5zM351 901l66 127h140l-114 -127h-92zM234 779v85h326v-85h-326z" />
    <glyph glyph-name="uni1E53" unicode="&#x1e53;" horiz-adv-x="589" 
d="M294 -11q-79 0 -137.5 31.5t-90.5 89t-32 136.5q0 78 32 135.5t90.5 88.5t137.5 31t137.5 -31t91 -88.5t32.5 -135.5q0 -79 -32.5 -136.5t-91 -89t-137.5 -31.5zM294 102q48 0 78.5 35t30.5 109q0 73 -30.5 107.5t-78.5 34.5t-78 -34.5t-30 -107.5q0 -74 30 -109t78 -35z
M248 686l66 127h140l-114 -127h-92zM131 564v85h326v-85h-326z" />
    <glyph glyph-name="uni1E5A" unicode="&#x1e5a;" horiz-adv-x="696" 
d="M71 0v705h322q118 0 182 -57t64 -159q0 -79 -40.5 -131.5t-115.5 -71.5q53 -16 87 -77l114 -209h-171l-122 225q-15 27 -37 37.5t-52 10.5h-76v-273h-155zM226 385h139q125 0 125 100q0 99 -125 99h-139v-199zM283 -214v133h140v-133h-140z" />
    <glyph glyph-name="uni1E5B" unicode="&#x1e5b;" horiz-adv-x="412" 
d="M58 0v491h148v-85q35 86 150 95l44 3l9 -127l-85 -9q-112 -11 -112 -114v-254h-154zM65 -214v133h140v-133h-140z" />
    <glyph glyph-name="uni1E5E" unicode="&#x1e5e;" horiz-adv-x="696" 
d="M71 0v705h322q118 0 182 -57t64 -159q0 -79 -40.5 -131.5t-115.5 -71.5q53 -16 87 -77l114 -209h-171l-122 225q-15 27 -37 37.5t-52 10.5h-76v-273h-155zM226 385h139q125 0 125 100q0 99 -125 99h-139v-199zM190 -170v85h326v-85h-326z" />
    <glyph glyph-name="uni1E5F" unicode="&#x1e5f;" horiz-adv-x="412" 
d="M58 0v491h148v-85q35 86 150 95l44 3l9 -127l-85 -9q-112 -11 -112 -114v-254h-154zM-28 -170v85h326v-85h-326z" />
    <glyph glyph-name="uni1E60" unicode="&#x1e60;" horiz-adv-x="641" 
d="M323 -11q-83 0 -156.5 21t-122.5 57l45 122q47 -33 107.5 -52t126.5 -19q72 0 103.5 22.5t31.5 56.5q0 29 -22 46t-77 29l-113 24q-189 40 -189 196q0 67 36 117.5t100.5 78.5t149.5 28q73 0 137 -21t106 -59l-45 -114q-82 65 -199 65q-63 0 -97.5 -24.5t-34.5 -63.5
q0 -29 21 -47t73 -29l113 -24q194 -42 194 -190q0 -66 -35.5 -115.5t-100 -77t-152.5 -27.5zM261 786v133h140v-133h-140z" />
    <glyph glyph-name="uni1E61" unicode="&#x1e61;" horiz-adv-x="492" 
d="M246 -11q-65 0 -121 15t-93 41l36 98q37 -23 84.5 -36.5t94.5 -13.5q42 0 62 13.5t20 35.5q0 35 -51 44l-105 19q-63 11 -96 45t-33 89q0 50 28 86t77 56t113 20q53 0 103 -13.5t86 -42.5l-38 -97q-30 22 -71.5 36t-77.5 14q-45 0 -65 -14.5t-20 -36.5q0 -35 47 -44
l105 -19q65 -11 99 -43.5t34 -88.5q0 -77 -60 -120t-158 -43zM185 590v133h140v-133h-140z" />
    <glyph glyph-name="uni1E62" unicode="&#x1e62;" horiz-adv-x="641" 
d="M323 -11q-83 0 -156.5 21t-122.5 57l45 122q47 -33 107.5 -52t126.5 -19q72 0 103.5 22.5t31.5 56.5q0 29 -22 46t-77 29l-113 24q-189 40 -189 196q0 67 36 117.5t100.5 78.5t149.5 28q73 0 137 -21t106 -59l-45 -114q-82 65 -199 65q-63 0 -97.5 -24.5t-34.5 -63.5
q0 -29 21 -47t73 -29l113 -24q194 -42 194 -190q0 -66 -35.5 -115.5t-100 -77t-152.5 -27.5zM257 -214v133h140v-133h-140z" />
    <glyph glyph-name="uni1E63" unicode="&#x1e63;" horiz-adv-x="492" 
d="M246 -11q-65 0 -121 15t-93 41l36 98q37 -23 84.5 -36.5t94.5 -13.5q42 0 62 13.5t20 35.5q0 35 -51 44l-105 19q-63 11 -96 45t-33 89q0 50 28 86t77 56t113 20q53 0 103 -13.5t86 -42.5l-38 -97q-30 22 -71.5 36t-77.5 14q-45 0 -65 -14.5t-20 -36.5q0 -35 47 -44
l105 -19q65 -11 99 -43.5t34 -88.5q0 -77 -60 -120t-158 -43zM177 -214v133h140v-133h-140z" />
    <glyph glyph-name="uni1E64" unicode="&#x1e64;" horiz-adv-x="641" 
d="M323 -11q-83 0 -156.5 21t-122.5 57l45 122q47 -33 107.5 -52t126.5 -19q72 0 103.5 22.5t31.5 56.5q0 29 -22 46t-77 29l-113 24q-189 40 -189 196q0 67 36 117.5t100.5 78.5t149.5 28q73 0 137 -21t106 -59l-45 -114q-82 65 -199 65q-63 0 -97.5 -24.5t-34.5 -63.5
q0 -29 21 -47t73 -29l113 -24q194 -42 194 -190q0 -66 -35.5 -115.5t-100 -77t-152.5 -27.5zM199 929v96h132v-96h-132zM279 765l118 175h153l-166 -175h-105z" />
    <glyph glyph-name="uni1E65" unicode="&#x1e65;" horiz-adv-x="492" 
d="M246 -11q-65 0 -121 15t-93 41l36 98q37 -23 84.5 -36.5t94.5 -13.5q42 0 62 13.5t20 35.5q0 35 -51 44l-105 19q-63 11 -96 45t-33 89q0 50 28 86t77 56t113 20q53 0 103 -13.5t86 -42.5l-38 -97q-30 22 -71.5 36t-77.5 14q-45 0 -65 -14.5t-20 -36.5q0 -35 47 -44
l105 -19q65 -11 99 -43.5t34 -88.5q0 -77 -60 -120t-158 -43zM124 749v96h132v-96h-132zM205 555l109 205h145l-154 -205h-100z" />
    </font>
</defs>
</svg>
