<?xml version="1.0" standalone="no"?>
<!DOCTYPE svg PUBLIC "-//W3C//DTD SVG 1.1//EN" "http://www.w3.org/Graphics/SVG/1.1/DTD/svg11.dtd" >
<svg xmlns="http://www.w3.org/2000/svg" xmlns:xlink="http://www.w3.org/1999/xlink" version="1.1">
<metadata>
Created by FontForge 20170731 at Mon Jun 29 15:02:14 2020
 By Aleksey,,,
Copyright 2016 The Nunito Sans Project Authors (https://github.com/Fonthausen/NunitoSans)
</metadata>
<defs>
<font id="NunitoSans-ExtraLight" horiz-adv-x="0" >
  <font-face 
    font-family="Nunito Sans ExtraLight"
    font-weight="200"
    font-stretch="normal"
    units-per-em="1000"
    panose-1="0 0 0 0 0 0 0 0 0 0"
    ascent="800"
    descent="-200"
    x-height="484"
    cap-height="705"
    bbox="-238 -270 1262 1036"
    underline-thickness="28"
    underline-position="-122"
    unicode-range="U+000D-FB02"
  />
<missing-glyph horiz-adv-x="500" 
d="M50 -180v885h400v-885h-400zM100 -130h300v785h-300v-785z" />
    <glyph glyph-name="fi" unicode="fi" horiz-adv-x="512" 
d="M105 0v448h-97v36h97v31q0 180 175 190l32 2l4 -37l-46 -3q-123 -7 -123 -152v-31h280v-484h-42v448h-238v-448h-42zM374 619v63h64v-63h-64z" />
    <glyph glyph-name="fl" unicode="fl" horiz-adv-x="581" 
d="M105 0v448h-97v36h97v31q0 180 175 190l31 2l5 -37l-46 -3q-123 -9 -123 -152v-31h146v-36h-146v-448h-42zM523 -8q-63 0 -97.5 40.5t-34.5 113.5v559h42v-552q0 -122 94 -122q25 0 47 6l-3 -39q-27 -6 -48 -6z" />
    <glyph glyph-name=".notdef" horiz-adv-x="500" 
d="M50 -180v885h400v-885h-400zM100 -130h300v785h-300v-785z" />
    <glyph glyph-name=".null" 
 />
    <glyph glyph-name="nonmarkingreturn" horiz-adv-x="333" 
 />
    <glyph glyph-name="NULL" 
 />
    <glyph glyph-name="NULL" 
 />
    <glyph glyph-name="CR" unicode="&#xd;" horiz-adv-x="246" 
 />
    <glyph glyph-name="space" unicode=" " horiz-adv-x="246" 
 />
    <glyph glyph-name="exclam" unicode="!" horiz-adv-x="211" 
d="M92 162l-13 543h53l-13 -543h-27zM71 0v70h69v-70h-69z" />
    <glyph glyph-name="quotedbl" unicode="&#x22;" horiz-adv-x="342" 
d="M88 440l-13 265h52l-11 -265h-28zM228 440l-13 265h52l-11 -265h-28z" />
    <glyph glyph-name="numbersign" unicode="#" horiz-adv-x="600" 
d="M94 0l38 191h-105v40h112l49 251h-142v40h149l36 183h42l-35 -183h188l35 183h43l-35 -183h104v-40h-112l-49 -251h142v-40h-149l-38 -191h-43l37 191h-187l-37 -191h-43zM181 231h188l49 251h-188z" />
    <glyph glyph-name="dollar" unicode="$" horiz-adv-x="600" 
d="M290 -115v111q-67 2 -127 22.5t-107 64.5l22 36q49 -43 99.5 -62.5t125.5 -19.5q95 0 143.5 40t48.5 104q0 53 -35.5 83t-115.5 47l-95 20q-90 19 -133.5 63t-43.5 117q0 57 28 101.5t77 70t113 26.5v111h40v-112q50 -3 102 -25t90 -65l-20 -36q-42 46 -90.5 66
t-110.5 20q-85 0 -136.5 -43t-51.5 -114q0 -57 33 -90t105 -48l95 -20q98 -20 145 -60.5t47 -110.5q0 -81 -58 -130t-150 -55v-112h-40z" />
    <glyph glyph-name="percent" unicode="%" horiz-adv-x="916" 
d="M267 -22l-35 20l417 729l35 -20zM229 281q-76 0 -119.5 56t-43.5 160q0 103 44 159t119 56t119 -56t44 -159t-43.5 -159.5t-119.5 -56.5zM229 318q56 0 88.5 45.5t32.5 133.5q0 87 -32.5 132.5t-88.5 45.5t-88.5 -45.5t-32.5 -132.5q0 -88 32.5 -133.5t88.5 -45.5z
M687 -8q-76 0 -119.5 56t-43.5 160q0 103 44 159t119 56t119 -56t44 -159t-43.5 -159.5t-119.5 -56.5zM687 29q56 0 88.5 45.5t32.5 133.5q0 87 -32.5 132.5t-88.5 45.5t-88.5 -45.5t-32.5 -132.5q0 -88 32.5 -133.5t88.5 -45.5z" />
    <glyph glyph-name="ampersand" unicode="&#x26;" horiz-adv-x="664" 
d="M275 -8q-100 0 -154.5 46t-54.5 122q0 45 16 80t50 68.5t86 70.5l24 17q-51 57 -70 95t-19 77q0 65 42 105t113 40q58 0 98.5 -35.5t40.5 -97.5q0 -33 -12 -62t-44 -59.5t-90 -69.5l190 -221q22 42 36 104.5t15 131.5h41q-2 -80 -19 -148.5t-46 -120.5l117 -135h-51
l-87 101q-40 -52 -97 -80.5t-125 -28.5zM308 674q-50 0 -81.5 -29.5t-31.5 -76.5q0 -23 7 -43t25 -45t50 -63q73 50 101.5 86t28.5 73q0 44 -27.5 71t-71.5 27zM275 31q124 0 195 101l-204 234l-24 -17q-50 -35 -79.5 -64t-42 -58t-12.5 -66q0 -61 42.5 -95.5t124.5 -34.5z
" />
    <glyph glyph-name="quotesingle" unicode="'" horiz-adv-x="202" 
d="M88 440l-13 265h52l-11 -265h-28z" />
    <glyph glyph-name="parenleft" unicode="(" horiz-adv-x="281" 
d="M211 -190q-107 221 -107 453q0 230 107 453l35 -12q-98 -219 -98 -441t98 -441z" />
    <glyph glyph-name="parenright" unicode=")" horiz-adv-x="281" 
d="M70 -190l-35 12q97 221 97 441t-97 441l35 12q107 -224 107 -453q0 -232 -107 -453z" />
    <glyph glyph-name="asterisk" unicode="*" horiz-adv-x="448" 
d="M146 367l-33 20l84 137l-161 -4v39l161 -4l-84 138l33 19l78 -141l77 141l33 -19l-83 -138l161 4v-39l-161 4l83 -137l-33 -19l-77 140z" />
    <glyph glyph-name="plus" unicode="+" horiz-adv-x="600" 
d="M280 40v227h-224v39h224v222h40v-222h224v-39h-224v-227h-40z" />
    <glyph glyph-name="comma" unicode="," horiz-adv-x="211" 
d="M96 -98l-26 20q20 22 26 41t7 37h-32v70h69v-55q0 -31 -9 -59.5t-35 -53.5z" />
    <glyph glyph-name="hyphen" unicode="-" horiz-adv-x="416" 
d="M76 246v38h264v-38h-264z" />
    <glyph glyph-name="period" unicode="." horiz-adv-x="211" 
d="M71 0v70h69v-70h-69z" />
    <glyph glyph-name="slash" unicode="/" horiz-adv-x="256" 
d="M20 -55l-38 11l254 788l38 -11z" />
    <glyph glyph-name="zero" unicode="0" horiz-adv-x="600" 
d="M300 -8q-117 0 -177.5 92t-60.5 268q0 178 60.5 269.5t177.5 91.5q118 0 178 -91t60 -269q0 -177 -61 -269t-177 -92zM300 33q98 0 145.5 78.5t47.5 241.5q0 164 -47 241.5t-146 77.5q-98 0 -145.5 -78t-47.5 -241t47.5 -241.5t145.5 -78.5z" />
    <glyph glyph-name="one" unicode="1" horiz-adv-x="600" 
d="M138 0v39h162v610l-130 -87l-22 33l163 110h31v-666h152v-39h-356z" />
    <glyph glyph-name="two" unicode="2" horiz-adv-x="600" 
d="M98 0v32l253 276q56 61 81 113.5t25 107.5q0 70 -41 106.5t-121 36.5q-115 0 -199 -88l-20 36q36 41 94.5 67t124.5 26q98 0 152 -48t54 -135q0 -64 -31.5 -125.5t-94.5 -129.5l-220 -236h376v-39h-433z" />
    <glyph glyph-name="three" unicode="3" horiz-adv-x="600" 
d="M297 -8q-67 0 -128 22t-105 65l20 36q50 -43 101.5 -62.5t111.5 -19.5q86 0 131.5 40t45.5 115q0 74 -47.5 112.5t-138.5 38.5h-96v39h94q77 0 123 43t46 116q0 65 -41.5 100t-118.5 35q-115 0 -199 -88l-20 36q38 44 96.5 68.5t122.5 24.5q96 0 150 -46.5t54 -129.5
q0 -61 -31.5 -107t-85.5 -66q65 -17 100.5 -63t35.5 -113q0 -90 -59 -143t-162 -53z" />
    <glyph glyph-name="four" unicode="4" horiz-adv-x="600" 
d="M402 0v166h-342v33l349 506h35v-500h111v-39h-111v-166h-42zM402 205v419l-290 -419h290z" />
    <glyph glyph-name="five" unicode="5" horiz-adv-x="600" 
d="M323 -8q-67 0 -126.5 22.5t-103.5 64.5l20 36q50 -43 100.5 -62.5t109.5 -19.5q83 0 130.5 48.5t47.5 126.5q0 81 -45.5 133.5t-125.5 52.5q-58 0 -101 -24t-75 -76h-37v411h387v-39h-345v-309q29 37 73.5 57.5t99.5 20.5q66 0 113.5 -28t73.5 -78t26 -117
q0 -64 -27 -113.5t-76.5 -78t-118.5 -28.5z" />
    <glyph glyph-name="six" unicode="6" horiz-adv-x="600" 
d="M323 -8q-120 0 -184.5 89.5t-64.5 249.5q0 185 71 283.5t198 98.5q53 0 107 -24.5t86 -65.5l-20 -36q-37 43 -82 64t-92 21q-107 0 -166 -83.5t-59 -248.5v-71q18 77 73.5 121t132.5 44q64 0 112.5 -28t76 -77.5t27.5 -114.5q0 -64 -27.5 -114.5t-76.5 -79t-112 -28.5z
M319 33q52 0 91.5 23t62 63.5t22.5 93.5t-22.5 93.5t-62 63.5t-91.5 23t-91.5 -23t-62 -63.5t-22.5 -93.5t22.5 -93.5t62 -63.5t91.5 -23z" />
    <glyph glyph-name="seven" unicode="7" horiz-adv-x="600" 
d="M135 0l337 666h-394v39h443v-31l-339 -674h-47z" />
    <glyph glyph-name="eight" unicode="8" horiz-adv-x="600" 
d="M300 -8q-115 0 -178.5 50.5t-63.5 141.5q0 68 38 114.5t102 60.5q-58 19 -91 64t-33 104q0 88 61.5 137t164.5 49t164.5 -49t61.5 -137q0 -58 -33 -103.5t-91 -64.5q64 -14 102 -60.5t38 -114.5q0 -91 -63.5 -141.5t-178.5 -50.5zM300 377q86 0 134 39.5t48 109.5
t-48 108.5t-134 38.5q-85 0 -133.5 -38.5t-48.5 -108.5t48.5 -109.5t133.5 -39.5zM300 32q198 0 198 153q0 152 -198 152t-198 -152q0 -153 198 -153z" />
    <glyph glyph-name="nine" unicode="9" horiz-adv-x="600" 
d="M257 -8q-52 0 -106.5 25t-86.5 65l20 36q37 -43 82 -64t92 -21q107 0 166 83.5t59 248.5v71q-18 -77 -73.5 -121t-132.5 -44q-64 0 -112.5 28t-76 78t-27.5 114q0 65 28 115t76.5 78.5t111.5 28.5q120 0 184.5 -89t64.5 -250q0 -185 -71 -283.5t-198 -98.5zM281 312
q52 0 91.5 23t62 63.5t22.5 93.5t-22.5 93.5t-62 63.5t-91.5 23t-91.5 -23t-62 -63.5t-22.5 -93.5t22.5 -93.5t62 -63.5t91.5 -23z" />
    <glyph glyph-name="colon" unicode=":" horiz-adv-x="211" 
d="M71 414v70h69v-70h-69zM71 0v70h69v-70h-69z" />
    <glyph glyph-name="semicolon" unicode=";" horiz-adv-x="211" 
d="M71 414v70h69v-70h-69zM96 -98l-26 20q20 22 26 41t7 37h-32v70h69v-55q0 -31 -9 -59.5t-35 -53.5z" />
    <glyph glyph-name="less" unicode="&#x3c;" horiz-adv-x="600" 
d="M544 37l-488 232v36l488 232v-43l-437 -207l437 -206v-44z" />
    <glyph glyph-name="equal" unicode="=" horiz-adv-x="600" 
d="M56 367v39h488v-39h-488zM56 168v39h488v-39h-488z" />
    <glyph glyph-name="greater" unicode="&#x3e;" horiz-adv-x="600" 
d="M56 37v44l437 206l-437 207v43l488 -232v-36z" />
    <glyph glyph-name="question" unicode="?" horiz-adv-x="429" 
d="M181 162v20q0 54 21 102.5t73 111.5q44 52 61 89t17 78q0 50 -35 79.5t-96 29.5q-60 0 -109 -22t-91 -66l-20 36q36 41 94.5 67t124.5 26q80 0 128 -41t48 -109q0 -32 -9 -61t-28.5 -60t-53.5 -71q-47 -56 -68 -98.5t-25 -88.5l-2 -22h-30zM162 0v70h68v-70h-68z" />
    <glyph glyph-name="at" unicode="@" horiz-adv-x="943" 
d="M484 -162q-126 0 -220 53.5t-145.5 152t-51.5 233.5q0 96 31 176t88 138.5t135.5 90t172.5 31.5q113 0 199 -46.5t134.5 -129t48.5 -191.5q0 -87 -23.5 -151.5t-65.5 -100t-99 -35.5q-48 0 -76 24.5t-30 66.5q-28 -43 -69.5 -67t-85.5 -24q-75 0 -116.5 47t-41.5 130
q0 74 28.5 132t78 91t111.5 33q50 0 84.5 -23t47.5 -63l13 78h42l-47 -275q-2 -11 -3 -21.5t-1 -19.5q0 -72 68 -72q44 0 76.5 31t51 87.5t18.5 131.5q0 97 -44 170.5t-121.5 115.5t-178.5 42q-114 0 -200.5 -50t-135 -139.5t-48.5 -207.5q0 -125 46 -214.5t130 -137.5
t199 -48q86 0 154.5 28.5t110.5 79.5l27 -32q-49 -55 -124.5 -85t-167.5 -30zM428 98q50 0 89.5 30t62.5 82t23 117q0 126 -116 126q-49 0 -89 -28t-63 -77t-23 -112q0 -67 30.5 -102.5t85.5 -35.5z" />
    <glyph glyph-name="A" unicode="A" horiz-adv-x="716" 
d="M35 0l303 705h40l303 -705h-45l-84 195h-389l-83 -195h-45zM357 648l-176 -414h354l-176 414h-2z" />
    <glyph glyph-name="B" unicode="B" horiz-adv-x="666" 
d="M96 0v705h258q107 0 166 -48t59 -137q0 -59 -31.5 -100t-85.5 -60q62 -14 97.5 -58t35.5 -111q0 -94 -59 -142.5t-169 -48.5h-271zM138 376h213q90 0 137 37.5t47 107.5q0 71 -47 108t-137 37h-213v-290zM138 39h228q92 0 138.5 36.5t46.5 112.5q0 77 -46.5 113
t-138.5 36h-228v-298z" />
    <glyph glyph-name="C" unicode="C" horiz-adv-x="667" 
d="M381 -8q-99 0 -169 43.5t-107.5 124.5t-37.5 193t37.5 192.5t107.5 124t169 43.5q151 0 238 -95l-22 -35q-47 47 -99 68t-118 21q-129 0 -198.5 -83.5t-69.5 -235.5t69.5 -236t198.5 -84q66 0 118 21t99 68l22 -35q-87 -95 -238 -95z" />
    <glyph glyph-name="D" unicode="D" horiz-adv-x="725" 
d="M96 0v705h217q166 0 255.5 -89.5t89.5 -262.5q0 -172 -89.5 -262.5t-255.5 -90.5h-217zM138 39h171q304 0 304 314q0 313 -304 313h-171v-627z" />
    <glyph glyph-name="E" unicode="E" horiz-adv-x="570" 
d="M96 0v705h424v-39h-382v-289h362v-39h-362v-299h382v-39h-424z" />
    <glyph glyph-name="F" unicode="F" horiz-adv-x="536" 
d="M96 0v705h414v-39h-372v-289h352v-39h-352v-338h-42z" />
    <glyph glyph-name="G" unicode="G" horiz-adv-x="718" 
d="M402 -8q-164 0 -249.5 94.5t-85.5 266.5q0 112 37.5 192.5t107.5 124t169 43.5q153 0 243 -95l-22 -35q-49 47 -101.5 68t-120.5 21q-129 0 -198.5 -83.5t-69.5 -235.5q0 -156 72 -238t217 -82q103 0 187 35v248h-194v39h234v-315q-24 -13 -62 -24t-81 -17.5t-83 -6.5z
" />
    <glyph glyph-name="H" unicode="H" horiz-adv-x="751" 
d="M96 0v705h42v-328h475v328h42v-705h-42v338h-475v-338h-42z" />
    <glyph glyph-name="I" unicode="I" horiz-adv-x="234" 
d="M96 0v705h42v-705h-42z" />
    <glyph glyph-name="J" unicode="J" horiz-adv-x="297" 
d="M-6 -6l-4 38l51 4q56 5 87 43t31 100v526h42v-528q0 -80 -40.5 -127t-116.5 -52z" />
    <glyph glyph-name="K" unicode="K" horiz-adv-x="590" 
d="M96 0v705h42v-328h2l369 328h59l-391 -346l417 -359h-62l-392 338h-2v-338h-42z" />
    <glyph glyph-name="L" unicode="L" horiz-adv-x="527" 
d="M96 0v705h42v-666h376v-39h-418z" />
    <glyph glyph-name="M" unicode="M" horiz-adv-x="844" 
d="M98 0v705h36l289 -551l287 551h36v-705h-39v619l-266 -509h-35l-269 509v-619h-39z" />
    <glyph glyph-name="N" unicode="N" horiz-adv-x="732" 
d="M96 0v705h35l466 -633v633h39v-705h-34l-467 634v-634h-39z" />
    <glyph glyph-name="O" unicode="O" horiz-adv-x="751" 
d="M375 -8q-95 0 -164 44t-106.5 125t-37.5 192q0 112 37 192.5t106 124t165 43.5t165.5 -43.5t106.5 -124t37 -191.5q0 -112 -37.5 -193t-106.5 -125t-165 -44zM375 33q126 0 195 84t69 236t-68.5 235.5t-195.5 83.5q-125 0 -194 -83.5t-69 -235.5q0 -151 69 -235.5
t194 -84.5z" />
    <glyph glyph-name="P" unicode="P" horiz-adv-x="616" 
d="M96 0v705h255q111 0 170 -53t59 -151t-59 -151t-170 -53h-213v-297h-42zM138 336h212q186 0 186 165t-186 165h-212v-330z" />
    <glyph glyph-name="Q" unicode="Q" horiz-adv-x="751" 
d="M375 -8q-95 0 -164 44t-106.5 125t-37.5 192q0 112 37 192.5t106 124t165 43.5t165.5 -43.5t106.5 -124t37 -191.5q0 -138 -56.5 -229t-157.5 -120q22 -8 39 -25t35 -48l62 -100l-33 -22l-72 116q-40 66 -126 66zM375 33q126 0 195 84t69 236t-68.5 235.5t-195.5 83.5
q-125 0 -194 -83.5t-69 -235.5q0 -151 69 -235.5t194 -84.5z" />
    <glyph glyph-name="R" unicode="R" horiz-adv-x="654" 
d="M96 0v705h255q111 0 170 -51t59 -146q0 -78 -44 -126.5t-124 -61.5q42 -16 75 -78l131 -242h-46l-122 226q-28 52 -62 69t-93 17h-157v-312h-42zM138 351h209q189 0 189 158q0 157 -189 157h-209v-315z" />
    <glyph glyph-name="S" unicode="S" horiz-adv-x="600" 
d="M310 -8q-82 0 -146 22t-112 65l20 36q53 -43 106 -62.5t132 -19.5q100 0 150.5 40t50.5 106q0 54 -37 84.5t-121 47.5l-99 20q-94 19 -140 63t-46 119q0 60 30.5 105t85 70t124.5 25q145 0 231 -91l-20 -36q-47 46 -97 66t-114 20q-88 0 -142 -43.5t-54 -115.5
q0 -58 34 -91.5t110 -48.5l99 -20q102 -21 151 -61.5t49 -111.5q0 -55 -29.5 -97.5t-84.5 -66.5t-131 -24z" />
    <glyph glyph-name="T" unicode="T" horiz-adv-x="586" 
d="M272 0v666h-269v39h580v-39h-269v-666h-42z" />
    <glyph glyph-name="U" unicode="U" horiz-adv-x="720" 
d="M360 -8q-132 0 -200.5 71.5t-68.5 207.5v434h42v-428q0 -244 227 -244t227 244v428h42v-434q0 -136 -68.5 -207.5t-200.5 -71.5z" />
    <glyph glyph-name="V" unicode="V" horiz-adv-x="667" 
d="M311 0l-303 705h45l281 -654l281 654h44l-303 -705h-45z" />
    <glyph glyph-name="W" unicode="W" horiz-adv-x="1091" 
d="M282 0l-244 705h44l221 -642l222 642h39l223 -645l223 645h43l-244 -705h-43l-221 642l-222 -642h-41z" />
    <glyph glyph-name="X" unicode="X" horiz-adv-x="631" 
d="M24 0l267 362l-252 343h50l228 -310l225 310h50l-252 -343l267 -362h-51l-240 328l-241 -328h-51z" />
    <glyph glyph-name="Y" unicode="Y" horiz-adv-x="577" 
d="M267 0v343l-268 362h49l242 -327l241 327h47l-269 -363v-342h-42z" />
    <glyph glyph-name="Z" unicode="Z" horiz-adv-x="575" 
d="M49 0v31l434 635h-434v39h489v-31l-434 -635h448v-39h-503z" />
    <glyph glyph-name="bracketleft" unicode="[" horiz-adv-x="281" 
d="M112 -180v885h165v-37h-123v-811h123v-37h-165z" />
    <glyph glyph-name="backslash" unicode="\" horiz-adv-x="256" 
d="M236 -55l-254 788l38 11l254 -788z" />
    <glyph glyph-name="bracketright" unicode="]" horiz-adv-x="281" 
d="M4 -180v37h123v811h-123v37h165v-885h-165z" />
    <glyph glyph-name="asciicircum" unicode="^" horiz-adv-x="600" 
d="M51 140l231 488h36l231 -488h-42l-207 436l-207 -436h-42z" />
    <glyph glyph-name="underscore" unicode="_" horiz-adv-x="500" 
d="M20 -33v33h460v-33h-460z" />
    <glyph glyph-name="grave" unicode="`" horiz-adv-x="500" 
d="M232 549l-122 200h54l104 -200h-36z" />
    <glyph glyph-name="a" unicode="a" horiz-adv-x="514" 
d="M231 -8q-47 0 -85 19t-60 51.5t-22 72.5q0 54 26.5 84.5t91 43t177.5 12.5h30v40q0 72 -28 105t-90 33q-45 0 -84.5 -13t-82.5 -42l-20 36q38 27 87.5 42.5t97.5 15.5q83 0 122.5 -43t39.5 -134v-315h-41v90q-21 -46 -62.5 -72t-96.5 -26zM234 30q46 0 80.5 22.5t54.5 61
t20 87.5v37h-28q-99 0 -153.5 -8.5t-76 -30t-21.5 -60.5q0 -48 33.5 -78.5t90.5 -30.5z" />
    <glyph glyph-name="b" unicode="b" horiz-adv-x="568" 
d="M300 -8q-61 0 -106 27.5t-67 75.5v-95h-42v705h42v-316q22 48 67 75.5t106 27.5q99 0 157 -67.5t58 -182.5q0 -76 -26.5 -132.5t-74.5 -87t-114 -30.5zM299 31q80 0 126.5 55.5t46.5 155.5t-46.5 155.5t-126.5 55.5q-79 0 -126 -55.5t-47 -155.5t47 -155.5t126 -55.5z
" />
    <glyph glyph-name="c" unicode="c" horiz-adv-x="455" 
d="M274 -8q-69 0 -118.5 32t-76 89t-26.5 133q0 114 59 180t162 66q44 0 86 -17.5t70 -48.5l-20 -33q-32 32 -68 46t-69 14q-85 0 -131 -54t-46 -154t46 -157t131 -57q33 0 69 14t68 46l20 -33q-28 -31 -71 -48.5t-85 -17.5z" />
    <glyph glyph-name="d" unicode="d" horiz-adv-x="568" 
d="M268 -8q-65 0 -113.5 30.5t-75 87t-26.5 132.5q0 115 58 182.5t157 67.5q61 0 106 -27.5t67 -75.5v316h42v-705h-42v95q-22 -48 -67 -75.5t-106 -27.5zM269 31q80 0 126.5 55.5t46.5 155.5t-46.5 155.5t-126.5 55.5q-79 0 -126 -55.5t-47 -155.5t47 -155.5t126 -55.5z
" />
    <glyph glyph-name="e" unicode="e" horiz-adv-x="523" 
d="M286 -8q-108 0 -170.5 66.5t-62.5 181.5q0 76 28.5 132.5t79 88t116.5 31.5q94 0 146 -61.5t52 -170.5v-26h-379q2 -97 51 -150t137 -53q45 0 84.5 14.5t78.5 48.5l20 -34q-31 -31 -80 -49.5t-101 -18.5zM276 454q-81 0 -126.5 -52t-52.5 -131h339q-3 85 -43 134t-117 49
z" />
    <glyph glyph-name="f" unicode="f" horiz-adv-x="306" 
d="M105 0v448h-97v36h97v31q0 180 175 190l31 2l5 -37l-46 -3q-123 -9 -123 -152v-31h146v-36h-146v-448h-42z" />
    <glyph glyph-name="g" unicode="g" horiz-adv-x="570" 
d="M290 -188q-121 0 -205 69l20 34q47 -35 88.5 -49.5t97.5 -14.5q75 0 114 42.5t39 121.5v102q-21 -50 -67 -78t-106 -28q-67 0 -116 30.5t-75.5 85t-26.5 125.5q0 72 26.5 126t75.5 84t116 30q59 0 105 -27.5t67 -75.5v95h42v-462q0 -210 -195 -210zM270 50q80 0 127 55
t47 147t-47 146.5t-127 54.5t-127 -54.5t-47 -146.5t47 -147t127 -55z" />
    <glyph glyph-name="h" unicode="h" horiz-adv-x="553" 
d="M85 0v705h42v-309q24 48 69 72t101 24q173 0 173 -184v-308h-42v304q0 77 -31 113t-100 36q-77 0 -123.5 -47.5t-46.5 -127.5v-278h-42z" />
    <glyph glyph-name="i" unicode="i" horiz-adv-x="212" 
d="M74 619v63h64v-63h-64zM85 0v484h42v-484h-42z" />
    <glyph glyph-name="j" unicode="j" horiz-adv-x="215" 
d="M77 619v63h64v-63h-64zM-55 -193l-3 38l41 3q105 8 105 130v506h42v-505q0 -77 -37 -120.5t-105 -48.5z" />
    <glyph glyph-name="k" unicode="k" horiz-adv-x="468" 
d="M85 0v705h42v-445h2l251 224h60l-265 -235l292 -249h-59l-279 237h-2v-237h-42z" />
    <glyph glyph-name="l" unicode="l" horiz-adv-x="275" 
d="M217 -8q-63 0 -97.5 40.5t-34.5 113.5v559h42v-552q0 -122 94 -122q25 0 47 6l-3 -39q-27 -6 -48 -6z" />
    <glyph glyph-name="m" unicode="m" horiz-adv-x="838" 
d="M87 0v484h41v-88q22 47 61.5 71.5t92.5 24.5q117 0 147 -102q21 47 64 74.5t101 27.5q159 0 159 -184v-308h-42v304q0 77 -27.5 113t-91.5 36q-69 0 -110 -47.5t-41 -127.5v-278h-42v304q0 77 -27.5 113t-91.5 36q-69 0 -110 -47.5t-41 -127.5v-278h-42z" />
    <glyph glyph-name="n" unicode="n" horiz-adv-x="553" 
d="M85 0v484h41v-90q24 49 69.5 73.5t101.5 24.5q173 0 173 -184v-308h-42v304q0 77 -31 113t-100 36q-77 0 -123.5 -47.5t-46.5 -127.5v-278h-42z" />
    <glyph glyph-name="o" unicode="o" horiz-adv-x="538" 
d="M269 -8q-66 0 -114.5 31t-75 87t-26.5 132t26.5 132t75 87t114.5 31t114.5 -31t75 -87t26.5 -132t-26.5 -132t-75 -87t-114.5 -31zM269 31q80 0 126.5 55.5t46.5 155.5t-46.5 155.5t-126.5 55.5q-79 0 -126 -55.5t-47 -155.5t47 -155.5t126 -55.5z" />
    <glyph glyph-name="p" unicode="p" horiz-adv-x="568" 
d="M85 -180v664h42v-95q22 48 67 75.5t106 27.5q66 0 114 -30.5t74.5 -86.5t26.5 -133q0 -115 -58 -182.5t-157 -67.5q-61 0 -106 27.5t-67 75.5v-275h-42zM299 31q80 0 126.5 55.5t46.5 155.5t-46.5 155.5t-126.5 55.5q-79 0 -126 -55.5t-47 -155.5t47 -155.5t126 -55.5z
" />
    <glyph glyph-name="q" unicode="q" horiz-adv-x="568" 
d="M441 -180v275q-22 -48 -67 -75.5t-106 -27.5q-99 0 -157 67.5t-58 182.5q0 77 26.5 133t75 86.5t113.5 30.5q61 0 106 -27.5t67 -75.5v95h42v-664h-42zM269 31q80 0 126.5 55.5t46.5 155.5t-46.5 155.5t-126.5 55.5q-79 0 -126 -55.5t-47 -155.5t47 -155.5t126 -55.5z
" />
    <glyph glyph-name="r" unicode="r" horiz-adv-x="327" 
d="M85 0v484h41v-88q22 46 62.5 69.5t103.5 28.5l21 2l5 -38l-34 -4q-74 -7 -115.5 -50t-41.5 -114v-290h-42z" />
    <glyph glyph-name="s" unicode="s" horiz-adv-x="475" 
d="M236 -8q-52 0 -100 16.5t-79 47.5l20 34q36 -31 77.5 -45t84.5 -14q65 0 99.5 25t34.5 68q0 34 -22.5 53.5t-72.5 31.5l-83 20q-63 15 -92.5 46t-29.5 80q0 62 47.5 99.5t126.5 37.5q50 0 92.5 -17t68.5 -48l-20 -34q-58 60 -142 60q-61 0 -95 -26.5t-34 -70.5
q0 -34 21 -55t67 -32l83 -20q65 -16 97 -45t32 -78q0 -61 -49 -97.5t-132 -36.5z" />
    <glyph glyph-name="t" unicode="t" horiz-adv-x="320" 
d="M255 -8q-76 0 -114 43t-38 121v292h-97v36h97v151h42v-151h159v-36h-159v-283q0 -65 26 -99.5t87 -34.5q18 0 34.5 4.5t27.5 8.5l10 -35q-9 -6 -32 -11.5t-43 -5.5z" />
    <glyph glyph-name="u" unicode="u" horiz-adv-x="545" 
d="M254 -8q-86 0 -128.5 47t-42.5 138v307h42v-303q0 -76 31 -113t98 -37q73 0 118.5 48.5t45.5 127.5v277h42v-484h-41v90q-23 -48 -67 -73t-98 -25z" />
    <glyph glyph-name="v" unicode="v" horiz-adv-x="504" 
d="M228 0l-206 484h48l182 -440l183 440h47l-206 -484h-48z" />
    <glyph glyph-name="w" unicode="w" horiz-adv-x="830" 
d="M210 0l-170 484h46l148 -434l156 434h52l152 -434l152 434h45l-172 -484h-49l-154 434l-156 -434h-50z" />
    <glyph glyph-name="x" unicode="x" horiz-adv-x="506" 
d="M29 0l199 250l-188 234h51l163 -205l162 205h51l-188 -235l199 -249h-52l-173 217l-173 -217h-51z" />
    <glyph glyph-name="y" unicode="y" horiz-adv-x="504" 
d="M152 -180l77 177l-207 487h48l182 -440l183 440h48l-284 -664h-47z" />
    <glyph glyph-name="z" unicode="z" horiz-adv-x="454" 
d="M60 0v30l300 418h-300v36h350v-30l-300 -418h311v-36h-361z" />
    <glyph glyph-name="braceleft" unicode="{" horiz-adv-x="318" 
d="M231 -180q-82 0 -82 85v257q0 42 -17.5 61t-58.5 21l-19 1v36l19 1q41 2 58.5 21t17.5 61v256q0 85 82 85h83v-37h-78q-45 0 -45 -46v-261q0 -39 -18.5 -65t-48.5 -33q30 -7 48.5 -33t18.5 -65v-262q0 -46 45 -46h78v-37h-83z" />
    <glyph glyph-name="bar" unicode="|" horiz-adv-x="244" 
d="M101 -180v885h42v-885h-42z" />
    <glyph glyph-name="braceright" unicode="}" horiz-adv-x="318" 
d="M4 -180v37h78q45 0 45 46v262q0 39 18.5 65t48.5 33q-30 7 -48.5 33t-18.5 65v261q0 46 -45 46h-78v37h83q82 0 82 -85v-256q0 -43 17.5 -61.5t58.5 -20.5l19 -1v-36l-19 -1q-41 -1 -58.5 -20t-17.5 -62v-257q0 -85 -82 -85h-83z" />
    <glyph glyph-name="asciitilde" unicode="~" horiz-adv-x="600" 
d="M420 224q-26 0 -58 10.5t-75 35.5t-65 33t-39 8q-60 0 -91 -69l-36 15q42 93 125 93q26 0 55 -9.5t72 -33.5q41 -22 64.5 -33t44.5 -11q62 0 92 69l35 -15q-41 -93 -124 -93z" />
    <glyph glyph-name="uni00A0" unicode="&#xa0;" horiz-adv-x="246" 
 />
    <glyph glyph-name="exclamdown" unicode="&#xa1;" horiz-adv-x="211" 
d="M71 414v70h69v-70h-69zM79 -180l13 503h27l13 -503h-53z" />
    <glyph glyph-name="cent" unicode="&#xa2;" horiz-adv-x="600" 
d="M296 -115v110q-58 5 -102.5 38t-69.5 87t-25 123q0 66 24.5 119t69 86.5t103.5 40.5v115h40v-114q43 -2 85 -19.5t67 -45.5l-20 -33q-29 30 -66.5 44.5t-78.5 14.5q-82 0 -131.5 -57t-49.5 -152q0 -97 48.5 -153t131.5 -56q41 0 79 14t67 44l20 -32q-26 -29 -68 -46.5
t-84 -19.5v-108h-40z" />
    <glyph glyph-name="sterling" unicode="&#xa3;" horiz-adv-x="600" 
d="M51 0v39h111v296h-111v36h111v151q0 93 50 142t148 49q55 0 108.5 -21.5t89.5 -61.5l-23 -37q-28 41 -76 60t-106 19q-149 0 -149 -148v-153h192v-36h-192v-296h341v-39h-494z" />
    <glyph glyph-name="currency" unicode="&#xa4;" horiz-adv-x="600" 
d="M74 -22l-35 36l74 76q-24 32 -38 72t-14 83q0 44 13.5 84t38.5 71l-74 76l35 36l74 -76q31 27 70.5 42t82.5 15t81.5 -14.5t69.5 -40.5l71 74l36 -36l-73 -73q26 -33 40.5 -73t14.5 -85t-14.5 -85t-40.5 -72l73 -74l-36 -36l-72 74q-31 -26 -69 -40.5t-81 -14.5t-82 15
t-71 41zM300 40q54 0 97.5 27.5t69 74t25.5 103.5t-25.5 103.5t-69 74.5t-97.5 27q-53 0 -96.5 -27.5t-69.5 -74t-26 -103.5t26 -103.5t69.5 -74t96.5 -27.5z" />
    <glyph glyph-name="yen" unicode="&#xa5;" horiz-adv-x="600" 
d="M279 0v189h-203v36h203v114h-203v36h174l-245 330h50l245 -333l245 333h50l-243 -330h172v-36h-203v-114h203v-36h-203v-189h-42z" />
    <glyph glyph-name="brokenbar" unicode="&#xa6;" horiz-adv-x="244" 
d="M101 372v333h42v-333h-42zM101 -180v333h42v-333h-42z" />
    <glyph glyph-name="section" unicode="&#xa7;" horiz-adv-x="523" 
d="M234 -188q-60 0 -108.5 17t-77.5 48l20 34q29 -28 74.5 -44t94.5 -16q68 0 111 35t43 99q0 45 -22.5 77.5t-81.5 60.5l-95 46q-56 28 -87.5 53.5t-44 55t-12.5 65.5q0 34 15.5 67.5t38.5 56.5q-5 10 -9.5 27.5t-4.5 43.5q0 55 26 93.5t70.5 59.5t98.5 21q56 0 103.5 -17
t76.5 -48l-20 -34q-29 29 -72.5 44.5t-90.5 15.5q-63 0 -105.5 -34.5t-42.5 -99.5q0 -45 22.5 -77t81.5 -61l95 -46q57 -27 88 -53t43.5 -55t12.5 -66q0 -34 -15.5 -67.5t-38.5 -56.5q5 -10 9.5 -27.5t4.5 -43.5q0 -54 -26.5 -93t-72 -60t-102.5 -21zM89 345q0 -40 25 -71.5
t95 -65.5l81 -39q41 -20 67.5 -40t42.5 -39q34 36 34 89q0 41 -24.5 72t-95.5 65l-81 39q-41 20 -67.5 40t-42.5 39q-34 -36 -34 -89z" />
    <glyph glyph-name="dieresis" unicode="&#xa8;" horiz-adv-x="500" 
d="M300 620v60h61v-60h-61zM139 620v60h61v-60h-61z" />
    <glyph glyph-name="copyright" unicode="&#xa9;" horiz-adv-x="815" 
d="M408 -8q-76 0 -142 27.5t-115 76.5t-76.5 115t-27.5 142q0 77 27.5 142.5t76.5 114t114.5 76t142.5 27.5t142.5 -27.5t114 -76t76 -114t27.5 -142.5q0 -76 -27.5 -142t-76 -115t-114 -76.5t-142.5 -27.5zM408 28q68 0 127 24.5t103 69t68.5 103.5t24.5 128t-24.5 128
t-68.5 103t-103 68.5t-127 24.5q-69 0 -128 -24.5t-103 -68.5t-68.5 -103t-24.5 -128t24.5 -128t68.5 -103.5t103 -69t128 -24.5zM417 137q-94 0 -147 60.5t-53 158.5t53 155t147 57q40 0 78 -15.5t63 -41.5l-18 -32q-29 28 -61.5 39.5t-62.5 11.5q-74 0 -116 -46t-42 -129
q0 -82 42 -131t116 -49q30 0 62.5 12t61.5 40l18 -33q-25 -26 -64 -41.5t-77 -15.5z" />
    <glyph glyph-name="ordfeminine" unicode="&#xaa;" horiz-adv-x="316" 
d="M137 413q-45 0 -75 25t-30 63q0 44 41.5 64t105.5 20h61v21q0 76 -78 76q-29 0 -56 -7.5t-50 -23.5l-12 30q24 17 55 24.5t62 7.5q113 0 113 -108v-187h-34v53h-2q-17 -31 -41.5 -44.5t-59.5 -13.5zM142 444q43 0 70.5 28t27.5 77v7h-60q-112 0 -112 -55
q0 -24 17.5 -40.5t56.5 -16.5z" />
    <glyph glyph-name="guillemotleft" unicode="&#xab;" horiz-adv-x="394" 
d="M152 95l-92 159v22l92 159l34 -12l-81 -158l81 -159zM310 95l-92 159v22l92 159l34 -12l-81 -158l81 -159z" />
    <glyph glyph-name="logicalnot" unicode="&#xac;" horiz-adv-x="600" 
d="M504 157v213h-448v39h488v-252h-40z" />
    <glyph glyph-name="uni00AD" unicode="&#xad;" horiz-adv-x="416" 
d="M76 246v38h264v-38h-264z" />
    <glyph glyph-name="registered" unicode="&#xae;" horiz-adv-x="815" 
d="M408 -8q-76 0 -142 27.5t-115 76.5t-76.5 115t-27.5 142q0 77 27.5 142.5t76.5 114t114.5 76t142.5 27.5t142.5 -27.5t114 -76t76 -114t27.5 -142.5q0 -76 -27.5 -142t-76 -115t-114 -76.5t-142.5 -27.5zM408 28q68 0 127 24.5t103 69t68.5 103.5t24.5 128t-24.5 128
t-68.5 103t-103 68.5t-127 24.5q-69 0 -128 -24.5t-103 -68.5t-68.5 -103t-24.5 -128t24.5 -128t68.5 -103.5t103 -69t128 -24.5zM273 142v421h162q65 0 100 -31t35 -89q0 -97 -97 -115q31 -11 46 -47l57 -139h-43l-56 134q-12 28 -33.5 37.5t-52.5 9.5h-77v-181h-41z
M314 360h116q99 0 99 83t-99 83h-116v-166z" />
    <glyph glyph-name="macron" unicode="&#xaf;" horiz-adv-x="500" 
d="M110 633v38h280v-38h-280z" />
    <glyph glyph-name="degree" unicode="&#xb0;" horiz-adv-x="364" 
d="M182 429q-40 0 -72 19t-50.5 51t-18.5 72t18.5 72t50.5 51t72 19t71.5 -18.5t50 -50.5t18.5 -73q0 -40 -18.5 -72.5t-50 -51t-71.5 -18.5zM182 469q44 0 71 28.5t27 73.5t-27 73.5t-71 28.5q-43 0 -70.5 -28.5t-27.5 -73.5t27.5 -73.5t70.5 -28.5z" />
    <glyph glyph-name="plusminus" unicode="&#xb1;" horiz-adv-x="600" 
d="M280 117v186h-224v39h224v186h40v-186h224v-39h-224v-186h-40zM56 0v39h488v-39h-488z" />
    <glyph glyph-name="uni00B2" unicode="&#xb2;" horiz-adv-x="380" 
d="M59 282v29l146 161q32 36 46 64t14 58q0 38 -21 58t-60 20q-30 0 -62 -13.5t-56 -37.5l-23 30q26 27 64.5 42.5t78.5 15.5q56 0 88.5 -30.5t32.5 -83.5q0 -66 -66 -138l-128 -138h215v-37h-269z" />
    <glyph glyph-name="uni00B3" unicode="&#xb3;" horiz-adv-x="380" 
d="M188 279q-45 0 -83.5 15.5t-61.5 42.5l23 30q21 -24 53.5 -37.5t68.5 -13.5q37 0 64 19.5t27 62.5t-28.5 61.5t-75.5 18.5h-72v37h62q47 0 75 21t28 62q0 35 -22.5 54.5t-61.5 19.5q-30 0 -62 -13.5t-56 -37.5l-23 30q26 27 64.5 42.5t78.5 15.5q56 0 90 -30t34 -78
q0 -39 -20 -64t-47 -37q34 -10 56 -36t22 -67q0 -57 -39 -87.5t-94 -30.5z" />
    <glyph glyph-name="acute" unicode="&#xb4;" horiz-adv-x="500" 
d="M232 549l104 200h54l-122 -200h-36z" />
    <glyph glyph-name="uni00B5" unicode="&#xb5;" horiz-adv-x="600" 
d="M112 -180v664h42v-303q0 -76 31 -112t96 -36q75 0 120.5 47.5t45.5 126.5v277h42v-484h-41v90q-23 -48 -67 -73t-98 -25q-42 0 -76 12t-56 44l3 -228h-42z" />
    <glyph glyph-name="paragraph" unicode="&#xb6;" horiz-adv-x="556" 
d="M239 -180v515q-56 0 -98 24t-65 66t-23 95t23 95t65 66t99 24h220v-885h-42v847h-137v-847h-42z" />
    <glyph glyph-name="periodcentered" unicode="&#xb7;" horiz-adv-x="211" 
d="M71 230v70h69v-70h-69z" />
    <glyph glyph-name="cedilla" unicode="&#xb8;" horiz-adv-x="500" 
d="M255 -190q-49 0 -78 18l9 34q19 -9 34 -12.5t39 -3.5q27 0 44.5 11t17.5 32q0 32 -39 32q-11 0 -22.5 -2t-28.5 -8l-15 13l15 96h38l-12 -69q15 3 26 3q32 0 55 -17t23 -48q0 -35 -29.5 -57t-76.5 -22z" />
    <glyph glyph-name="uni00B9" unicode="&#xb9;" horiz-adv-x="380" 
d="M105 282v37h90v337l-80 -54l-22 31l107 72h33v-386h80v-37h-208z" />
    <glyph glyph-name="ordmasculine" unicode="&#xba;" horiz-adv-x="326" 
d="M163 413q-59 0 -98 41t-39 109t39 109t98 41t98 -41t39 -109t-39 -109t-98 -41zM163 444q47 0 74 30.5t27 88.5t-27 88.5t-74 30.5q-46 0 -73.5 -30.5t-27.5 -88.5t27.5 -88.5t73.5 -30.5z" />
    <glyph glyph-name="guillemotright" unicode="&#xbb;" horiz-adv-x="394" 
d="M84 95l-34 11l81 159l-81 158l34 12l92 -159v-22zM242 95l-34 11l81 159l-81 158l34 12l92 -159v-22z" />
    <glyph glyph-name="onequarter" unicode="&#xbc;" horiz-adv-x="877" 
d="M105 282v37h90v337l-80 -54l-22 31l107 72h33v-386h80v-37h-208zM264 -21l-31 19l420 728l31 -19zM740 0v94h-197v33l203 296h32v-292h67v-37h-67v-94h-38zM740 131v223l-154 -223h154z" />
    <glyph glyph-name="onehalf" unicode="&#xbd;" horiz-adv-x="917" 
d="M105 282v37h90v337l-80 -54l-22 31l107 72h33v-386h80v-37h-208zM264 -21l-31 19l420 728l31 -19zM596 0v29l146 161q32 36 46 64t14 58q0 38 -21 58t-60 20q-30 0 -62 -13.5t-56 -37.5l-23 30q26 27 64.5 42.5t78.5 15.5q56 0 88.5 -30.5t32.5 -83.5q0 -66 -66 -138
l-128 -138h215v-37h-269z" />
    <glyph glyph-name="threequarters" unicode="&#xbe;" horiz-adv-x="877" 
d="M188 279q-45 0 -83.5 15.5t-61.5 42.5l23 30q21 -24 53.5 -37.5t68.5 -13.5q37 0 64 19.5t27 62.5t-28.5 61.5t-75.5 18.5h-72v37h62q47 0 75 21t28 62q0 35 -22.5 54.5t-61.5 19.5q-30 0 -62 -13.5t-56 -37.5l-23 30q26 27 64.5 42.5t78.5 15.5q56 0 90 -30t34 -78
q0 -39 -20 -64t-47 -37q34 -10 56 -36t22 -67q0 -57 -39 -87.5t-94 -30.5zM264 -21l-31 19l420 728l31 -19zM740 0v94h-197v33l203 296h32v-292h67v-37h-67v-94h-38zM740 131v223l-154 -223h154z" />
    <glyph glyph-name="questiondown" unicode="&#xbf;" horiz-adv-x="429" 
d="M199 414v70h68v-70h-68zM208 -188q-79 0 -127.5 39.5t-48.5 103.5q0 42 19 81t71 94q48 51 69 89.5t25 81.5l2 20h30v-18q0 -49 -20 -95t-74 -102q-46 -47 -62 -80.5t-16 -68.5q0 -47 35 -75.5t96 -28.5q60 0 109 20.5t91 60.5l20 -36q-36 -38 -94.5 -62t-124.5 -24z" />
    <glyph glyph-name="Agrave" unicode="&#xc0;" horiz-adv-x="716" 
d="M35 0l303 705h40l303 -705h-45l-84 195h-389l-83 -195h-45zM357 648l-176 -414h354l-176 414h-2zM340 765l-136 170h56l118 -170h-38z" />
    <glyph glyph-name="Aacute" unicode="&#xc1;" horiz-adv-x="716" 
d="M35 0l303 705h40l303 -705h-45l-84 195h-389l-83 -195h-45zM357 648l-176 -414h354l-176 414h-2zM340 765l118 170h56l-136 -170h-38z" />
    <glyph glyph-name="Acircumflex" unicode="&#xc2;" horiz-adv-x="716" 
d="M35 0l303 705h40l303 -705h-45l-84 195h-389l-83 -195h-45zM357 648l-176 -414h354l-176 414h-2zM214 765l121 170h48l121 -170h-37l-108 132l-108 -132h-37z" />
    <glyph glyph-name="Atilde" unicode="&#xc3;" horiz-adv-x="716" 
d="M35 0l303 705h40l303 -705h-45l-84 195h-389l-83 -195h-45zM357 648l-176 -414h354l-176 414h-2zM195 792l-32 2q7 58 35 89.5t72 31.5q23 0 46 -11t56 -35q32 -22 48 -30.5t31 -8.5q30 0 47.5 22.5t24.5 64.5l32 -2q-7 -58 -34.5 -89.5t-71.5 -31.5q-22 0 -46 11t-60 37
q-28 21 -45 29t-31 8q-30 0 -47.5 -22.5t-24.5 -64.5z" />
    <glyph glyph-name="Adieresis" unicode="&#xc4;" horiz-adv-x="716" 
d="M35 0l303 705h40l303 -705h-45l-84 195h-389l-83 -195h-45zM357 648l-176 -414h354l-176 414h-2zM409 820v60h61v-60h-61zM248 820v60h61v-60h-61z" />
    <glyph glyph-name="Aring" unicode="&#xc5;" horiz-adv-x="716" 
d="M35 0l303 705h40l303 -705h-45l-84 195h-389l-83 -195h-45zM357 648l-176 -414h354l-176 414h-2zM359 760q-47 0 -79.5 32t-32.5 78t32.5 78t79.5 32t79.5 -32t32.5 -78t-32.5 -78t-79.5 -32zM359 792q35 0 56.5 22.5t21.5 55.5t-21.5 55.5t-56.5 22.5q-34 0 -56 -22.5
t-22 -55.5t22 -55.5t56 -22.5z" />
    <glyph glyph-name="AE" unicode="&#xc6;" horiz-adv-x="971" 
d="M2 0l420 705h499v-39h-450l61 -289h369v-39h-361l63 -299h318v-39h-350l-41 195h-365l-116 -195h-47zM433 648l-245 -414h334l-87 414h-2z" />
    <glyph glyph-name="Ccedilla" unicode="&#xc7;" horiz-adv-x="667" 
d="M381 -8q-99 0 -169 43.5t-107.5 124.5t-37.5 193t37.5 192.5t107.5 124t169 43.5q151 0 238 -95l-22 -35q-47 47 -99 68t-118 21q-129 0 -198.5 -83.5t-69.5 -235.5t69.5 -236t198.5 -84q66 0 118 21t99 68l22 -35q-87 -95 -238 -95zM385 -190q-49 0 -78 18l9 34
q19 -9 34 -12.5t39 -3.5q27 0 44.5 11t17.5 32q0 32 -39 32q-11 0 -22.5 -2t-28.5 -8l-15 13l15 96h38l-12 -69q15 3 26 3q32 0 55 -17t23 -48q0 -35 -29.5 -57t-76.5 -22z" />
    <glyph glyph-name="Egrave" unicode="&#xc8;" horiz-adv-x="570" 
d="M96 0v705h424v-39h-382v-289h362v-39h-362v-299h382v-39h-424zM301 765l-136 170h56l118 -170h-38z" />
    <glyph glyph-name="Eacute" unicode="&#xc9;" horiz-adv-x="570" 
d="M96 0v705h424v-39h-382v-289h362v-39h-362v-299h382v-39h-424zM301 765l118 170h56l-136 -170h-38z" />
    <glyph glyph-name="Ecircumflex" unicode="&#xca;" horiz-adv-x="570" 
d="M96 0v705h424v-39h-382v-289h362v-39h-362v-299h382v-39h-424zM175 765l121 170h48l121 -170h-37l-108 132l-108 -132h-37z" />
    <glyph glyph-name="Edieresis" unicode="&#xcb;" horiz-adv-x="570" 
d="M96 0v705h424v-39h-382v-289h362v-39h-362v-299h382v-39h-424zM370 820v60h61v-60h-61zM209 820v60h61v-60h-61z" />
    <glyph glyph-name="Igrave" unicode="&#xcc;" horiz-adv-x="234" 
d="M96 0v705h42v-705h-42zM98 765l-136 170h56l118 -170h-38z" />
    <glyph glyph-name="Iacute" unicode="&#xcd;" horiz-adv-x="234" 
d="M96 0v705h42v-705h-42zM98 765l118 170h56l-136 -170h-38z" />
    <glyph glyph-name="Icircumflex" unicode="&#xce;" horiz-adv-x="234" 
d="M96 0v705h42v-705h-42zM-28 765l121 170h48l121 -170h-37l-108 132l-108 -132h-37z" />
    <glyph glyph-name="Idieresis" unicode="&#xcf;" horiz-adv-x="234" 
d="M96 0v705h42v-705h-42zM167 820v60h61v-60h-61zM6 820v60h61v-60h-61z" />
    <glyph glyph-name="Eth" unicode="&#xd0;" horiz-adv-x="725" 
d="M96 0v705h217q166 0 255.5 -89.5t89.5 -262.5q0 -172 -89.5 -262.5t-255.5 -90.5h-217zM138 39h171q304 0 304 314q0 313 -304 313h-171v-627zM6 340v37h334v-37h-334z" />
    <glyph glyph-name="Ntilde" unicode="&#xd1;" horiz-adv-x="732" 
d="M96 0v705h35l466 -633v633h39v-705h-34l-467 634v-634h-39zM202 792l-32 2q7 58 35 89.5t72 31.5q23 0 46 -11t56 -35q32 -22 48 -30.5t31 -8.5q30 0 47.5 22.5t24.5 64.5l32 -2q-7 -58 -34.5 -89.5t-71.5 -31.5q-22 0 -46 11t-60 37q-28 21 -45 29t-31 8
q-30 0 -47.5 -22.5t-24.5 -64.5z" />
    <glyph glyph-name="Ograve" unicode="&#xd2;" horiz-adv-x="751" 
d="M375 -8q-95 0 -164 44t-106.5 125t-37.5 192q0 112 37 192.5t106 124t165 43.5t165.5 -43.5t106.5 -124t37 -191.5q0 -112 -37.5 -193t-106.5 -125t-165 -44zM375 33q126 0 195 84t69 236t-68.5 235.5t-195.5 83.5q-125 0 -194 -83.5t-69 -235.5q0 -151 69 -235.5
t194 -84.5zM356 765l-136 170h56l118 -170h-38z" />
    <glyph glyph-name="Oacute" unicode="&#xd3;" horiz-adv-x="751" 
d="M375 -8q-95 0 -164 44t-106.5 125t-37.5 192q0 112 37 192.5t106 124t165 43.5t165.5 -43.5t106.5 -124t37 -191.5q0 -112 -37.5 -193t-106.5 -125t-165 -44zM375 33q126 0 195 84t69 236t-68.5 235.5t-195.5 83.5q-125 0 -194 -83.5t-69 -235.5q0 -151 69 -235.5
t194 -84.5zM356 765l118 170h56l-136 -170h-38z" />
    <glyph glyph-name="Ocircumflex" unicode="&#xd4;" horiz-adv-x="751" 
d="M375 -8q-95 0 -164 44t-106.5 125t-37.5 192q0 112 37 192.5t106 124t165 43.5t165.5 -43.5t106.5 -124t37 -191.5q0 -112 -37.5 -193t-106.5 -125t-165 -44zM375 33q126 0 195 84t69 236t-68.5 235.5t-195.5 83.5q-125 0 -194 -83.5t-69 -235.5q0 -151 69 -235.5
t194 -84.5zM230 765l121 170h48l121 -170h-37l-108 132l-108 -132h-37z" />
    <glyph glyph-name="Otilde" unicode="&#xd5;" horiz-adv-x="751" 
d="M375 -8q-95 0 -164 44t-106.5 125t-37.5 192q0 112 37 192.5t106 124t165 43.5t165.5 -43.5t106.5 -124t37 -191.5q0 -112 -37.5 -193t-106.5 -125t-165 -44zM375 33q126 0 195 84t69 236t-68.5 235.5t-195.5 83.5q-125 0 -194 -83.5t-69 -235.5q0 -151 69 -235.5
t194 -84.5zM211 792l-32 2q7 58 35 89.5t72 31.5q23 0 46 -11t56 -35q32 -22 48 -30.5t31 -8.5q30 0 47.5 22.5t24.5 64.5l32 -2q-7 -58 -34.5 -89.5t-71.5 -31.5q-22 0 -46 11t-60 37q-28 21 -45 29t-31 8q-30 0 -47.5 -22.5t-24.5 -64.5z" />
    <glyph glyph-name="Odieresis" unicode="&#xd6;" horiz-adv-x="751" 
d="M375 -8q-95 0 -164 44t-106.5 125t-37.5 192q0 112 37 192.5t106 124t165 43.5t165.5 -43.5t106.5 -124t37 -191.5q0 -112 -37.5 -193t-106.5 -125t-165 -44zM375 33q126 0 195 84t69 236t-68.5 235.5t-195.5 83.5q-125 0 -194 -83.5t-69 -235.5q0 -151 69 -235.5
t194 -84.5zM425 820v60h61v-60h-61zM264 820v60h61v-60h-61z" />
    <glyph glyph-name="multiply" unicode="&#xd7;" horiz-adv-x="600" 
d="M94 50l-28 27l206 207l-206 206l28 28l206 -206l206 206l28 -28l-206 -206l206 -207l-28 -27l-206 206z" />
    <glyph glyph-name="Oslash" unicode="&#xd8;" horiz-adv-x="751" 
d="M375 -8q-95 0 -164 44t-106.5 125t-37.5 192q0 112 37 192.5t106 124t165 43.5t165.5 -43.5t106.5 -124t37 -191.5q0 -112 -37.5 -193t-106.5 -125t-165 -44zM375 33q126 0 195 84t69 236t-68.5 235.5t-195.5 83.5q-125 0 -194 -83.5t-69 -235.5q0 -151 69 -235.5
t194 -84.5zM171 -35l-33 18l46 79l13 22l324 556l13 22l46 78l33 -18l-46 -79l-13 -22l-324 -556l-13 -22z" />
    <glyph glyph-name="Ugrave" unicode="&#xd9;" horiz-adv-x="720" 
d="M360 -8q-132 0 -200.5 71.5t-68.5 207.5v434h42v-428q0 -244 227 -244t227 244v428h42v-434q0 -136 -68.5 -207.5t-200.5 -71.5zM341 765l-136 170h56l118 -170h-38z" />
    <glyph glyph-name="Uacute" unicode="&#xda;" horiz-adv-x="720" 
d="M360 -8q-132 0 -200.5 71.5t-68.5 207.5v434h42v-428q0 -244 227 -244t227 244v428h42v-434q0 -136 -68.5 -207.5t-200.5 -71.5zM341 765l118 170h56l-136 -170h-38z" />
    <glyph glyph-name="Ucircumflex" unicode="&#xdb;" horiz-adv-x="720" 
d="M360 -8q-132 0 -200.5 71.5t-68.5 207.5v434h42v-428q0 -244 227 -244t227 244v428h42v-434q0 -136 -68.5 -207.5t-200.5 -71.5zM215 765l121 170h48l121 -170h-37l-108 132l-108 -132h-37z" />
    <glyph glyph-name="Udieresis" unicode="&#xdc;" horiz-adv-x="720" 
d="M360 -8q-132 0 -200.5 71.5t-68.5 207.5v434h42v-428q0 -244 227 -244t227 244v428h42v-434q0 -136 -68.5 -207.5t-200.5 -71.5zM410 820v60h61v-60h-61zM249 820v60h61v-60h-61z" />
    <glyph glyph-name="Yacute" unicode="&#xdd;" horiz-adv-x="577" 
d="M267 0v343l-268 362h49l242 -327l241 327h47l-269 -363v-342h-42zM269 765l118 170h56l-136 -170h-38z" />
    <glyph glyph-name="Thorn" unicode="&#xde;" horiz-adv-x="616" 
d="M96 0v705h42v-136h213q111 0 170 -53t59 -151t-59 -151t-170 -53h-213v-161h-42zM138 200h212q186 0 186 165t-186 165h-212v-330z" />
    <glyph glyph-name="germandbls" unicode="&#xdf;" horiz-adv-x="581" 
d="M374 -8q-48 0 -95.5 16.5t-78.5 47.5l20 34q36 -31 76.5 -45t77.5 -14q59 0 93 26t34 69q0 35 -26.5 58t-89.5 43q-82 26 -114 56.5t-32 76.5q0 31 18.5 59.5t64.5 66.5q36 29 50.5 53t14.5 52q0 39 -27 61t-75 22q-76 0 -117 -45.5t-41 -128.5v-500h-42v499
q0 101 52.5 157.5t145.5 56.5q68 0 107.5 -32.5t39.5 -86.5q0 -40 -19 -70t-64 -68q-37 -31 -50.5 -51t-13.5 -43q0 -31 25.5 -53t89.5 -42q80 -25 113.5 -57.5t33.5 -85.5q0 -58 -47.5 -95t-123.5 -37z" />
    <glyph glyph-name="agrave" unicode="&#xe0;" horiz-adv-x="514" 
d="M231 -8q-47 0 -85 19t-60 51.5t-22 72.5q0 54 26.5 84.5t91 43t177.5 12.5h30v40q0 72 -28 105t-90 33q-45 0 -84.5 -13t-82.5 -42l-20 36q38 27 87.5 42.5t97.5 15.5q83 0 122.5 -43t39.5 -134v-315h-41v90q-21 -46 -62.5 -72t-96.5 -26zM234 30q46 0 80.5 22.5t54.5 61
t20 87.5v37h-28q-99 0 -153.5 -8.5t-76 -30t-21.5 -60.5q0 -48 33.5 -78.5t90.5 -30.5zM247 549l-122 200h54l104 -200h-36z" />
    <glyph glyph-name="aacute" unicode="&#xe1;" horiz-adv-x="514" 
d="M231 -8q-47 0 -85 19t-60 51.5t-22 72.5q0 54 26.5 84.5t91 43t177.5 12.5h30v40q0 72 -28 105t-90 33q-45 0 -84.5 -13t-82.5 -42l-20 36q38 27 87.5 42.5t97.5 15.5q83 0 122.5 -43t39.5 -134v-315h-41v90q-21 -46 -62.5 -72t-96.5 -26zM234 30q46 0 80.5 22.5t54.5 61
t20 87.5v37h-28q-99 0 -153.5 -8.5t-76 -30t-21.5 -60.5q0 -48 33.5 -78.5t90.5 -30.5zM247 549l104 200h54l-122 -200h-36z" />
    <glyph glyph-name="acircumflex" unicode="&#xe2;" horiz-adv-x="514" 
d="M231 -8q-47 0 -85 19t-60 51.5t-22 72.5q0 54 26.5 84.5t91 43t177.5 12.5h30v40q0 72 -28 105t-90 33q-45 0 -84.5 -13t-82.5 -42l-20 36q38 27 87.5 42.5t97.5 15.5q83 0 122.5 -43t39.5 -134v-315h-41v90q-21 -46 -62.5 -72t-96.5 -26zM234 30q46 0 80.5 22.5t54.5 61
t20 87.5v37h-28q-99 0 -153.5 -8.5t-76 -30t-21.5 -60.5q0 -48 33.5 -78.5t90.5 -30.5zM132 549l109 200h48l109 -200h-35l-98 161l-98 -161h-35z" />
    <glyph glyph-name="atilde" unicode="&#xe3;" horiz-adv-x="514" 
d="M231 -8q-47 0 -85 19t-60 51.5t-22 72.5q0 54 26.5 84.5t91 43t177.5 12.5h30v40q0 72 -28 105t-90 33q-45 0 -84.5 -13t-82.5 -42l-20 36q38 27 87.5 42.5t97.5 15.5q83 0 122.5 -43t39.5 -134v-315h-41v90q-21 -46 -62.5 -72t-96.5 -26zM234 30q46 0 80.5 22.5t54.5 61
t20 87.5v37h-28q-99 0 -153.5 -8.5t-76 -30t-21.5 -60.5q0 -48 33.5 -78.5t90.5 -30.5zM129 595l-32 2q6 58 31 89.5t65 31.5q21 0 39.5 -11.5t42.5 -35.5q22 -22 35.5 -30t26.5 -8q52 0 64 87l32 -2q-6 -58 -31 -89.5t-64 -31.5q-20 0 -38.5 11.5t-44.5 35.5
q-22 21 -35 29.5t-27 8.5q-52 0 -64 -87z" />
    <glyph glyph-name="adieresis" unicode="&#xe4;" horiz-adv-x="514" 
d="M231 -8q-47 0 -85 19t-60 51.5t-22 72.5q0 54 26.5 84.5t91 43t177.5 12.5h30v40q0 72 -28 105t-90 33q-45 0 -84.5 -13t-82.5 -42l-20 36q38 27 87.5 42.5t97.5 15.5q83 0 122.5 -43t39.5 -134v-315h-41v90q-21 -46 -62.5 -72t-96.5 -26zM234 30q46 0 80.5 22.5t54.5 61
t20 87.5v37h-28q-99 0 -153.5 -8.5t-76 -30t-21.5 -60.5q0 -48 33.5 -78.5t90.5 -30.5zM315 620v60h61v-60h-61zM154 620v60h61v-60h-61z" />
    <glyph glyph-name="aring" unicode="&#xe5;" horiz-adv-x="514" 
d="M231 -8q-47 0 -85 19t-60 51.5t-22 72.5q0 54 26.5 84.5t91 43t177.5 12.5h30v40q0 72 -28 105t-90 33q-45 0 -84.5 -13t-82.5 -42l-20 36q38 27 87.5 42.5t97.5 15.5q83 0 122.5 -43t39.5 -134v-315h-41v90q-21 -46 -62.5 -72t-96.5 -26zM234 30q46 0 80.5 22.5t54.5 61
t20 87.5v37h-28q-99 0 -153.5 -8.5t-76 -30t-21.5 -60.5q0 -48 33.5 -78.5t90.5 -30.5zM265 547q-47 0 -79.5 32t-32.5 78t32.5 78t79.5 32t79.5 -32t32.5 -78t-32.5 -78t-79.5 -32zM265 579q35 0 56.5 22.5t21.5 55.5t-21.5 55.5t-56.5 22.5q-34 0 -56 -22.5t-22 -55.5
t22 -55.5t56 -22.5z" />
    <glyph glyph-name="ae" unicode="&#xe6;" horiz-adv-x="857" 
d="M233 -8q-48 0 -86 19t-60.5 51.5t-22.5 72.5q0 54 27.5 84.5t92 42.5t175.5 12h35v38q0 74 -29.5 107.5t-91.5 33.5q-46 0 -86 -12.5t-83 -41.5l-20 35q38 27 87.5 42.5t99.5 15.5q67 0 105.5 -27.5t53.5 -79.5q57 107 186 107q90 0 141.5 -61.5t51.5 -170.5v-23h-372
q2 -98 49 -152t134 -54q44 0 83 15t78 48l20 -34q-31 -31 -79.5 -49.5t-97.5 -18.5q-78 0 -131.5 34t-78.5 100q-19 -62 -66 -98t-115 -36zM612 454q-75 0 -121.5 -49t-52.5 -131h332q-3 83 -43 131.5t-115 48.5zM236 30q48 0 83.5 23t55 63.5t19.5 91.5v29h-33
q-99 0 -153.5 -8t-76 -29.5t-21.5 -60.5q0 -48 34 -78.5t92 -30.5z" />
    <glyph glyph-name="ccedilla" unicode="&#xe7;" horiz-adv-x="455" 
d="M274 -8q-69 0 -118.5 32t-76 89t-26.5 133q0 114 59 180t162 66q44 0 86 -17.5t70 -48.5l-20 -33q-32 32 -68 46t-69 14q-85 0 -131 -54t-46 -154t46 -157t131 -57q33 0 69 14t68 46l20 -33q-28 -31 -71 -48.5t-85 -17.5zM278 -190q-49 0 -78 18l9 34q19 -9 34 -12.5
t39 -3.5q27 0 44.5 11t17.5 32q0 32 -39 32q-11 0 -22.5 -2t-28.5 -8l-15 13l15 96h38l-12 -69q15 3 26 3q32 0 55 -17t23 -48q0 -35 -29.5 -57t-76.5 -22z" />
    <glyph glyph-name="egrave" unicode="&#xe8;" horiz-adv-x="523" 
d="M286 -8q-108 0 -170.5 66.5t-62.5 181.5q0 76 28.5 132.5t79 88t116.5 31.5q94 0 146 -61.5t52 -170.5v-26h-379q2 -97 51 -150t137 -53q45 0 84.5 14.5t78.5 48.5l20 -34q-31 -31 -80 -49.5t-101 -18.5zM276 454q-81 0 -126.5 -52t-52.5 -131h339q-3 85 -43 134t-117 49
zM259 549l-122 200h54l104 -200h-36z" />
    <glyph glyph-name="eacute" unicode="&#xe9;" horiz-adv-x="523" 
d="M286 -8q-108 0 -170.5 66.5t-62.5 181.5q0 76 28.5 132.5t79 88t116.5 31.5q94 0 146 -61.5t52 -170.5v-26h-379q2 -97 51 -150t137 -53q45 0 84.5 14.5t78.5 48.5l20 -34q-31 -31 -80 -49.5t-101 -18.5zM276 454q-81 0 -126.5 -52t-52.5 -131h339q-3 85 -43 134t-117 49
zM259 549l104 200h54l-122 -200h-36z" />
    <glyph glyph-name="ecircumflex" unicode="&#xea;" horiz-adv-x="523" 
d="M286 -8q-108 0 -170.5 66.5t-62.5 181.5q0 76 28.5 132.5t79 88t116.5 31.5q94 0 146 -61.5t52 -170.5v-26h-379q2 -97 51 -150t137 -53q45 0 84.5 14.5t78.5 48.5l20 -34q-31 -31 -80 -49.5t-101 -18.5zM276 454q-81 0 -126.5 -52t-52.5 -131h339q-3 85 -43 134t-117 49
zM144 549l109 200h48l109 -200h-35l-98 161l-98 -161h-35z" />
    <glyph glyph-name="edieresis" unicode="&#xeb;" horiz-adv-x="523" 
d="M286 -8q-108 0 -170.5 66.5t-62.5 181.5q0 76 28.5 132.5t79 88t116.5 31.5q94 0 146 -61.5t52 -170.5v-26h-379q2 -97 51 -150t137 -53q45 0 84.5 14.5t78.5 48.5l20 -34q-31 -31 -80 -49.5t-101 -18.5zM276 454q-81 0 -126.5 -52t-52.5 -131h339q-3 85 -43 134t-117 49
zM327 620v60h61v-60h-61zM166 620v60h61v-60h-61z" />
    <glyph glyph-name="igrave" unicode="&#xec;" horiz-adv-x="212" 
d="M85 0v484h42v-484h-42zM88 549l-122 200h54l104 -200h-36z" />
    <glyph glyph-name="iacute" unicode="&#xed;" horiz-adv-x="212" 
d="M85 0v484h42v-484h-42zM88 549l104 200h54l-122 -200h-36z" />
    <glyph glyph-name="icircumflex" unicode="&#xee;" horiz-adv-x="212" 
d="M85 0v484h42v-484h-42zM-27 549l109 200h48l109 -200h-35l-98 161l-98 -161h-35z" />
    <glyph glyph-name="idieresis" unicode="&#xef;" horiz-adv-x="212" 
d="M85 0v484h42v-484h-42zM156 620v60h61v-60h-61zM-5 620v60h61v-60h-61z" />
    <glyph glyph-name="eth" unicode="&#xf0;" horiz-adv-x="541" 
d="M269 -8q-65 0 -114 28.5t-75.5 80.5t-26.5 122t27 122t76.5 80.5t115.5 28.5q121 0 170 -101q-10 84 -48.5 150.5t-105.5 111.5l-154 -65l-14 33l130 55q-43 23 -97 39l12 33q36 -11 68.5 -25t58.5 -30l130 55l14 -33l-108 -45q160 -117 160 -351q0 -289 -219 -289z
M268 31q80 0 127 51.5t47 140.5t-46.5 140.5t-126.5 51.5t-126.5 -51.5t-46.5 -140.5q0 -91 45.5 -141.5t126.5 -50.5z" />
    <glyph glyph-name="ntilde" unicode="&#xf1;" horiz-adv-x="553" 
d="M85 0v484h41v-90q24 49 69.5 73.5t101.5 24.5q173 0 173 -184v-308h-42v304q0 77 -31 113t-100 36q-77 0 -123.5 -47.5t-46.5 -127.5v-278h-42zM141 595l-32 2q6 58 31 89.5t65 31.5q21 0 39.5 -11.5t42.5 -35.5q22 -22 35.5 -30t26.5 -8q52 0 64 87l32 -2
q-6 -58 -31 -89.5t-64 -31.5q-20 0 -38.5 11.5t-44.5 35.5q-22 21 -35 29.5t-27 8.5q-52 0 -64 -87z" />
    <glyph glyph-name="ograve" unicode="&#xf2;" horiz-adv-x="538" 
d="M269 -8q-66 0 -114.5 31t-75 87t-26.5 132t26.5 132t75 87t114.5 31t114.5 -31t75 -87t26.5 -132t-26.5 -132t-75 -87t-114.5 -31zM269 31q80 0 126.5 55.5t46.5 155.5t-46.5 155.5t-126.5 55.5q-79 0 -126 -55.5t-47 -155.5t47 -155.5t126 -55.5zM251 549l-122 200h54
l104 -200h-36z" />
    <glyph glyph-name="oacute" unicode="&#xf3;" horiz-adv-x="538" 
d="M269 -8q-66 0 -114.5 31t-75 87t-26.5 132t26.5 132t75 87t114.5 31t114.5 -31t75 -87t26.5 -132t-26.5 -132t-75 -87t-114.5 -31zM269 31q80 0 126.5 55.5t46.5 155.5t-46.5 155.5t-126.5 55.5q-79 0 -126 -55.5t-47 -155.5t47 -155.5t126 -55.5zM251 549l104 200h54
l-122 -200h-36z" />
    <glyph glyph-name="ocircumflex" unicode="&#xf4;" horiz-adv-x="538" 
d="M269 -8q-66 0 -114.5 31t-75 87t-26.5 132t26.5 132t75 87t114.5 31t114.5 -31t75 -87t26.5 -132t-26.5 -132t-75 -87t-114.5 -31zM269 31q80 0 126.5 55.5t46.5 155.5t-46.5 155.5t-126.5 55.5q-79 0 -126 -55.5t-47 -155.5t47 -155.5t126 -55.5zM136 549l109 200h48
l109 -200h-35l-98 161l-98 -161h-35z" />
    <glyph glyph-name="otilde" unicode="&#xf5;" horiz-adv-x="538" 
d="M269 -8q-66 0 -114.5 31t-75 87t-26.5 132t26.5 132t75 87t114.5 31t114.5 -31t75 -87t26.5 -132t-26.5 -132t-75 -87t-114.5 -31zM269 31q80 0 126.5 55.5t46.5 155.5t-46.5 155.5t-126.5 55.5q-79 0 -126 -55.5t-47 -155.5t47 -155.5t126 -55.5zM133 595l-32 2
q6 58 31 89.5t65 31.5q21 0 39.5 -11.5t42.5 -35.5q22 -22 35.5 -30t26.5 -8q52 0 64 87l32 -2q-6 -58 -31 -89.5t-64 -31.5q-20 0 -38.5 11.5t-44.5 35.5q-22 21 -35 29.5t-27 8.5q-52 0 -64 -87z" />
    <glyph glyph-name="odieresis" unicode="&#xf6;" horiz-adv-x="538" 
d="M269 -8q-66 0 -114.5 31t-75 87t-26.5 132t26.5 132t75 87t114.5 31t114.5 -31t75 -87t26.5 -132t-26.5 -132t-75 -87t-114.5 -31zM269 31q80 0 126.5 55.5t46.5 155.5t-46.5 155.5t-126.5 55.5q-79 0 -126 -55.5t-47 -155.5t47 -155.5t126 -55.5zM319 620v60h61v-60h-61
zM158 620v60h61v-60h-61z" />
    <glyph glyph-name="divide" unicode="&#xf7;" horiz-adv-x="600" 
d="M259 452v70h70v-70h-70zM56 267v39h488v-39h-488zM259 51v70h70v-70h-70z" />
    <glyph glyph-name="oslash" unicode="&#xf8;" horiz-adv-x="538" 
d="M127 -39l-30 19l35 60q-38 32 -58.5 83.5t-20.5 118.5q0 76 26.5 132t75 87t114.5 31q61 0 108 -27l34 58l30 -19l-35 -60q38 -32 58.5 -83.5t20.5 -118.5q0 -76 -26.5 -132t-75 -87t-114.5 -31q-61 0 -108 27zM96 242q0 -55 14.5 -97t41.5 -69l205 354q-38 23 -88 23
q-79 0 -126 -55.5t-47 -155.5zM269 31q80 0 126.5 55.5t46.5 155.5q0 55 -14.5 97t-41.5 69l-205 -354q38 -23 88 -23z" />
    <glyph glyph-name="ugrave" unicode="&#xf9;" horiz-adv-x="545" 
d="M254 -8q-86 0 -128.5 47t-42.5 138v307h42v-303q0 -76 31 -113t98 -37q73 0 118.5 48.5t45.5 127.5v277h42v-484h-41v90q-23 -48 -67 -73t-98 -25zM255 550l-122 200h54l104 -200h-36z" />
    <glyph glyph-name="uacute" unicode="&#xfa;" horiz-adv-x="545" 
d="M254 -8q-86 0 -128.5 47t-42.5 138v307h42v-303q0 -76 31 -113t98 -37q73 0 118.5 48.5t45.5 127.5v277h42v-484h-41v90q-23 -48 -67 -73t-98 -25zM255 550l104 200h54l-122 -200h-36z" />
    <glyph glyph-name="ucircumflex" unicode="&#xfb;" horiz-adv-x="545" 
d="M254 -8q-86 0 -128.5 47t-42.5 138v307h42v-303q0 -76 31 -113t98 -37q73 0 118.5 48.5t45.5 127.5v277h42v-484h-41v90q-23 -48 -67 -73t-98 -25zM140 550l109 200h48l109 -200h-35l-98 161l-98 -161h-35z" />
    <glyph glyph-name="udieresis" unicode="&#xfc;" horiz-adv-x="545" 
d="M254 -8q-86 0 -128.5 47t-42.5 138v307h42v-303q0 -76 31 -113t98 -37q73 0 118.5 48.5t45.5 127.5v277h42v-484h-41v90q-23 -48 -67 -73t-98 -25zM323 621v60h61v-60h-61zM162 621v60h61v-60h-61z" />
    <glyph glyph-name="yacute" unicode="&#xfd;" horiz-adv-x="504" 
d="M152 -180l77 177l-207 487h48l182 -440l183 440h48l-284 -664h-47zM234 549l104 200h54l-122 -200h-36z" />
    <glyph glyph-name="thorn" unicode="&#xfe;" horiz-adv-x="568" 
d="M85 -180v885h42v-316q22 48 67 75.5t106 27.5q66 0 114 -30.5t74.5 -86.5t26.5 -133q0 -115 -58 -182.5t-157 -67.5q-61 0 -106 27.5t-67 75.5v-275h-42zM299 31q80 0 126.5 55.5t46.5 155.5t-46.5 155.5t-126.5 55.5q-79 0 -126 -55.5t-47 -155.5t47 -155.5t126 -55.5z
" />
    <glyph glyph-name="ydieresis" unicode="&#xff;" horiz-adv-x="504" 
d="M152 -180l77 177l-207 487h48l182 -440l183 440h48l-284 -664h-47zM302 620v60h61v-60h-61zM141 620v60h61v-60h-61z" />
    <glyph glyph-name="Amacron" unicode="&#x100;" horiz-adv-x="716" 
d="M35 0l303 705h40l303 -705h-45l-84 195h-389l-83 -195h-45zM357 648l-176 -414h354l-176 414h-2zM204 822v38h310v-38h-310z" />
    <glyph glyph-name="amacron" unicode="&#x101;" horiz-adv-x="514" 
d="M231 -8q-47 0 -85 19t-60 51.5t-22 72.5q0 54 26.5 84.5t91 43t177.5 12.5h30v40q0 72 -28 105t-90 33q-45 0 -84.5 -13t-82.5 -42l-20 36q38 27 87.5 42.5t97.5 15.5q83 0 122.5 -43t39.5 -134v-315h-41v90q-21 -46 -62.5 -72t-96.5 -26zM234 30q46 0 80.5 22.5t54.5 61
t20 87.5v37h-28q-99 0 -153.5 -8.5t-76 -30t-21.5 -60.5q0 -48 33.5 -78.5t90.5 -30.5zM125 633v38h280v-38h-280z" />
    <glyph glyph-name="Abreve" unicode="&#x102;" horiz-adv-x="716" 
d="M35 0l303 705h40l303 -705h-45l-84 195h-389l-83 -195h-45zM357 648l-176 -414h354l-176 414h-2zM359 760q-64 0 -107 44.5t-50 122.5l33 4q5 -64 38 -99.5t86 -35.5t86.5 35.5t37.5 99.5l33 -4q-7 -78 -50 -122.5t-107 -44.5z" />
    <glyph glyph-name="abreve" unicode="&#x103;" horiz-adv-x="514" 
d="M231 -8q-47 0 -85 19t-60 51.5t-22 72.5q0 54 26.5 84.5t91 43t177.5 12.5h30v40q0 72 -28 105t-90 33q-45 0 -84.5 -13t-82.5 -42l-20 36q38 27 87.5 42.5t97.5 15.5q83 0 122.5 -43t39.5 -134v-315h-41v90q-21 -46 -62.5 -72t-96.5 -26zM234 30q46 0 80.5 22.5t54.5 61
t20 87.5v37h-28q-99 0 -153.5 -8.5t-76 -30t-21.5 -60.5q0 -48 33.5 -78.5t90.5 -30.5zM265 547q-62 0 -100.5 49.5t-43.5 137.5l33 4q4 -74 33 -114.5t78 -40.5q50 0 78.5 40.5t32.5 114.5l33 -4q-5 -88 -43.5 -137.5t-100.5 -49.5z" />
    <glyph glyph-name="Aogonek" unicode="&#x104;" horiz-adv-x="716" 
d="M35 0l303 705h40l303 -705h-45l-84 195h-389l-83 -195h-45zM357 648l-176 -414h354l-176 414h-2zM665 -190q-41 0 -67.5 25t-26.5 67q0 38 23.5 72.5t66.5 56.5l21 -31q-15 -6 -31.5 -19t-28.5 -32t-12 -43q0 -31 17.5 -45.5t42.5 -14.5q26 0 53 13l13 -32
q-24 -17 -71 -17z" />
    <glyph glyph-name="aogonek" unicode="&#x105;" horiz-adv-x="514" 
d="M231 -8q-47 0 -85 19t-60 51.5t-22 72.5q0 54 26.5 84.5t91 43t177.5 12.5h30v40q0 72 -28 105t-90 33q-45 0 -84.5 -13t-82.5 -42l-20 36q38 27 87.5 42.5t97.5 15.5q83 0 122.5 -43t39.5 -134v-315h-41v90q-21 -46 -62.5 -72t-96.5 -26zM234 30q46 0 80.5 22.5t54.5 61
t20 87.5v37h-28q-99 0 -153.5 -8.5t-76 -30t-21.5 -60.5q0 -48 33.5 -78.5t90.5 -30.5zM414 -190q-41 0 -67.5 25t-26.5 67q0 38 23.5 72.5t66.5 56.5l21 -31q-15 -6 -31.5 -19t-28.5 -32t-12 -43q0 -31 17.5 -45.5t42.5 -14.5q26 0 53 13l13 -32q-24 -17 -71 -17z" />
    <glyph glyph-name="Cacute" unicode="&#x106;" horiz-adv-x="667" 
d="M381 -8q-99 0 -169 43.5t-107.5 124.5t-37.5 193t37.5 192.5t107.5 124t169 43.5q151 0 238 -95l-22 -35q-47 47 -99 68t-118 21q-129 0 -198.5 -83.5t-69.5 -235.5t69.5 -236t198.5 -84q66 0 118 21t99 68l22 -35q-87 -95 -238 -95zM363 765l118 170h56l-136 -170h-38z
" />
    <glyph glyph-name="cacute" unicode="&#x107;" horiz-adv-x="455" 
d="M274 -8q-69 0 -118.5 32t-76 89t-26.5 133q0 114 59 180t162 66q44 0 86 -17.5t70 -48.5l-20 -33q-32 32 -68 46t-69 14q-85 0 -131 -54t-46 -154t46 -157t131 -57q33 0 69 14t68 46l20 -33q-28 -31 -71 -48.5t-85 -17.5zM255 549l104 200h54l-122 -200h-36z" />
    <glyph glyph-name="Ccircumflex" unicode="&#x108;" horiz-adv-x="667" 
d="M381 -8q-99 0 -169 43.5t-107.5 124.5t-37.5 193t37.5 192.5t107.5 124t169 43.5q151 0 238 -95l-22 -35q-47 47 -99 68t-118 21q-129 0 -198.5 -83.5t-69.5 -235.5t69.5 -236t198.5 -84q66 0 118 21t99 68l22 -35q-87 -95 -238 -95zM237 765l121 170h48l121 -170h-37
l-108 132l-108 -132h-37z" />
    <glyph glyph-name="ccircumflex" unicode="&#x109;" horiz-adv-x="455" 
d="M274 -8q-69 0 -118.5 32t-76 89t-26.5 133q0 114 59 180t162 66q44 0 86 -17.5t70 -48.5l-20 -33q-32 32 -68 46t-69 14q-85 0 -131 -54t-46 -154t46 -157t131 -57q33 0 69 14t68 46l20 -33q-28 -31 -71 -48.5t-85 -17.5zM140 549l109 200h48l109 -200h-35l-98 161
l-98 -161h-35z" />
    <glyph glyph-name="Cdotaccent" unicode="&#x10a;" horiz-adv-x="667" 
d="M381 -8q-99 0 -169 43.5t-107.5 124.5t-37.5 193t37.5 192.5t107.5 124t169 43.5q151 0 238 -95l-22 -35q-47 47 -99 68t-118 21q-129 0 -198.5 -83.5t-69.5 -235.5t69.5 -236t198.5 -84q66 0 118 21t99 68l22 -35q-87 -95 -238 -95zM351 818v63h62v-63h-62z" />
    <glyph glyph-name="cdotaccent" unicode="&#x10b;" horiz-adv-x="455" 
d="M274 -8q-69 0 -118.5 32t-76 89t-26.5 133q0 114 59 180t162 66q44 0 86 -17.5t70 -48.5l-20 -33q-32 32 -68 46t-69 14q-85 0 -131 -54t-46 -154t46 -157t131 -57q33 0 69 14t68 46l20 -33q-28 -31 -71 -48.5t-85 -17.5zM241 619v63h64v-63h-64z" />
    <glyph glyph-name="Ccaron" unicode="&#x10c;" horiz-adv-x="667" 
d="M381 -8q-99 0 -169 43.5t-107.5 124.5t-37.5 193t37.5 192.5t107.5 124t169 43.5q151 0 238 -95l-22 -35q-47 47 -99 68t-118 21q-129 0 -198.5 -83.5t-69.5 -235.5t69.5 -236t198.5 -84q66 0 118 21t99 68l22 -35q-87 -95 -238 -95zM358 765l-121 170h37l108 -132
l108 132h37l-121 -170h-48z" />
    <glyph glyph-name="ccaron" unicode="&#x10d;" horiz-adv-x="455" 
d="M274 -8q-69 0 -118.5 32t-76 89t-26.5 133q0 114 59 180t162 66q44 0 86 -17.5t70 -48.5l-20 -33q-32 32 -68 46t-69 14q-85 0 -131 -54t-46 -154t46 -157t131 -57q33 0 69 14t68 46l20 -33q-28 -31 -71 -48.5t-85 -17.5zM249 549l-109 200h35l98 -161l98 161h35
l-109 -200h-48z" />
    <glyph glyph-name="Dcaron" unicode="&#x10e;" horiz-adv-x="725" 
d="M96 0v705h217q166 0 255.5 -89.5t89.5 -262.5q0 -172 -89.5 -262.5t-255.5 -90.5h-217zM138 39h171q304 0 304 314q0 313 -304 313h-171v-627zM338 765l-121 170h37l108 -132l108 132h37l-121 -170h-48z" />
    <glyph glyph-name="dcaron" unicode="&#x10f;" horiz-adv-x="568" 
d="M268 -8q-65 0 -113.5 30.5t-75 87t-26.5 132.5q0 115 58 182.5t157 67.5q61 0 106 -27.5t67 -75.5v316h42v-705h-42v95q-22 -48 -67 -75.5t-106 -27.5zM269 31q80 0 126.5 55.5t46.5 155.5t-46.5 155.5t-126.5 55.5q-79 0 -126 -55.5t-47 -155.5t47 -155.5t126 -55.5z
M533 517v188h49l-22 -188h-27z" />
    <glyph glyph-name="Dcroat" unicode="&#x110;" horiz-adv-x="725" 
d="M96 0v705h217q166 0 255.5 -89.5t89.5 -262.5q0 -172 -89.5 -262.5t-255.5 -90.5h-217zM138 39h171q304 0 304 314q0 313 -304 313h-171v-627zM6 340v37h334v-37h-334z" />
    <glyph glyph-name="dcroat" unicode="&#x111;" horiz-adv-x="568" 
d="M268 -8q-65 0 -113.5 30.5t-75 87t-26.5 132.5q0 115 58 182.5t157 67.5q61 0 106 -27.5t67 -75.5v173h-197v36h197v107h42v-107h95v-36h-95v-562h-42v95q-22 -48 -67 -75.5t-106 -27.5zM269 31q80 0 126.5 55.5t46.5 155.5t-46.5 155.5t-126.5 55.5q-79 0 -126 -55.5
t-47 -155.5t47 -155.5t126 -55.5z" />
    <glyph glyph-name="Emacron" unicode="&#x112;" horiz-adv-x="570" 
d="M96 0v705h424v-39h-382v-289h362v-39h-362v-299h382v-39h-424zM165 822v38h310v-38h-310z" />
    <glyph glyph-name="emacron" unicode="&#x113;" horiz-adv-x="523" 
d="M286 -8q-108 0 -170.5 66.5t-62.5 181.5q0 76 28.5 132.5t79 88t116.5 31.5q94 0 146 -61.5t52 -170.5v-26h-379q2 -97 51 -150t137 -53q45 0 84.5 14.5t78.5 48.5l20 -34q-31 -31 -80 -49.5t-101 -18.5zM276 454q-81 0 -126.5 -52t-52.5 -131h339q-3 85 -43 134t-117 49
zM137 633v38h280v-38h-280z" />
    <glyph glyph-name="Ebreve" unicode="&#x114;" horiz-adv-x="570" 
d="M96 0v705h424v-39h-382v-289h362v-39h-362v-299h382v-39h-424zM320 760q-64 0 -107 44.5t-50 122.5l33 4q5 -64 38 -99.5t86 -35.5t86.5 35.5t37.5 99.5l33 -4q-7 -78 -50 -122.5t-107 -44.5z" />
    <glyph glyph-name="ebreve" unicode="&#x115;" horiz-adv-x="523" 
d="M286 -8q-108 0 -170.5 66.5t-62.5 181.5q0 76 28.5 132.5t79 88t116.5 31.5q94 0 146 -61.5t52 -170.5v-26h-379q2 -97 51 -150t137 -53q45 0 84.5 14.5t78.5 48.5l20 -34q-31 -31 -80 -49.5t-101 -18.5zM276 454q-81 0 -126.5 -52t-52.5 -131h339q-3 85 -43 134t-117 49
zM277 547q-62 0 -100.5 49.5t-43.5 137.5l33 4q4 -74 33 -114.5t78 -40.5q50 0 78.5 40.5t32.5 114.5l33 -4q-5 -88 -43.5 -137.5t-100.5 -49.5z" />
    <glyph glyph-name="Edotaccent" unicode="&#x116;" horiz-adv-x="570" 
d="M96 0v705h424v-39h-382v-289h362v-39h-362v-299h382v-39h-424zM289 818v63h62v-63h-62z" />
    <glyph glyph-name="edotaccent" unicode="&#x117;" horiz-adv-x="523" 
d="M286 -8q-108 0 -170.5 66.5t-62.5 181.5q0 76 28.5 132.5t79 88t116.5 31.5q94 0 146 -61.5t52 -170.5v-26h-379q2 -97 51 -150t137 -53q45 0 84.5 14.5t78.5 48.5l20 -34q-31 -31 -80 -49.5t-101 -18.5zM276 454q-81 0 -126.5 -52t-52.5 -131h339q-3 85 -43 134t-117 49
zM245 619v63h64v-63h-64z" />
    <glyph glyph-name="Eogonek" unicode="&#x118;" horiz-adv-x="570" 
d="M96 0v705h424v-39h-382v-289h362v-39h-362v-299h382v-39h-424zM473 -190q-41 0 -67.5 25t-26.5 67q0 38 23.5 72.5t66.5 56.5l21 -31q-15 -6 -31.5 -19t-28.5 -32t-12 -43q0 -31 17.5 -45.5t42.5 -14.5q26 0 53 13l13 -32q-24 -17 -71 -17z" />
    <glyph glyph-name="eogonek" unicode="&#x119;" horiz-adv-x="523" 
d="M286 -8q-108 0 -170.5 66.5t-62.5 181.5q0 76 28.5 132.5t79 88t116.5 31.5q94 0 146 -61.5t52 -170.5v-26h-379q2 -97 51 -150t137 -53q45 0 84.5 14.5t78.5 48.5l20 -34q-31 -31 -80 -49.5t-101 -18.5zM276 454q-81 0 -126.5 -52t-52.5 -131h339q-3 85 -43 134t-117 49
zM325 -190q-41 0 -67.5 25t-26.5 67q0 38 23.5 72.5t66.5 56.5l21 -31q-15 -6 -31.5 -19t-28.5 -32t-12 -43q0 -31 17.5 -45.5t42.5 -14.5q26 0 53 13l13 -32q-24 -17 -71 -17z" />
    <glyph glyph-name="Ecaron" unicode="&#x11a;" horiz-adv-x="570" 
d="M96 0v705h424v-39h-382v-289h362v-39h-362v-299h382v-39h-424zM296 765l-121 170h37l108 -132l108 132h37l-121 -170h-48z" />
    <glyph glyph-name="ecaron" unicode="&#x11b;" horiz-adv-x="523" 
d="M286 -8q-108 0 -170.5 66.5t-62.5 181.5q0 76 28.5 132.5t79 88t116.5 31.5q94 0 146 -61.5t52 -170.5v-26h-379q2 -97 51 -150t137 -53q45 0 84.5 14.5t78.5 48.5l20 -34q-31 -31 -80 -49.5t-101 -18.5zM276 454q-81 0 -126.5 -52t-52.5 -131h339q-3 85 -43 134t-117 49
zM253 549l-109 200h35l98 -161l98 161h35l-109 -200h-48z" />
    <glyph glyph-name="Gcircumflex" unicode="&#x11c;" horiz-adv-x="718" 
d="M402 -8q-164 0 -249.5 94.5t-85.5 266.5q0 112 37.5 192.5t107.5 124t169 43.5q153 0 243 -95l-22 -35q-49 47 -101.5 68t-120.5 21q-129 0 -198.5 -83.5t-69.5 -235.5q0 -156 72 -238t217 -82q103 0 187 35v248h-194v39h234v-315q-24 -13 -62 -24t-81 -17.5t-83 -6.5z
M238 765l121 170h48l121 -170h-37l-108 132l-108 -132h-37z" />
    <glyph glyph-name="gcircumflex" unicode="&#x11d;" horiz-adv-x="570" 
d="M290 -188q-121 0 -205 69l20 34q47 -35 88.5 -49.5t97.5 -14.5q75 0 114 42.5t39 121.5v102q-21 -50 -67 -78t-106 -28q-67 0 -116 30.5t-75.5 85t-26.5 125.5q0 72 26.5 126t75.5 84t116 30q59 0 105 -27.5t67 -75.5v95h42v-462q0 -210 -195 -210zM270 50q80 0 127 55
t47 147t-47 146.5t-127 54.5t-127 -54.5t-47 -146.5t47 -147t127 -55zM155 549l109 200h48l109 -200h-35l-98 161l-98 -161h-35z" />
    <glyph glyph-name="Gbreve" unicode="&#x11e;" horiz-adv-x="718" 
d="M402 -8q-164 0 -249.5 94.5t-85.5 266.5q0 112 37.5 192.5t107.5 124t169 43.5q153 0 243 -95l-22 -35q-49 47 -101.5 68t-120.5 21q-129 0 -198.5 -83.5t-69.5 -235.5q0 -156 72 -238t217 -82q103 0 187 35v248h-194v39h234v-315q-24 -13 -62 -24t-81 -17.5t-83 -6.5z
M383 760q-64 0 -107 44.5t-50 122.5l33 4q5 -64 38 -99.5t86 -35.5t86.5 35.5t37.5 99.5l33 -4q-7 -78 -50 -122.5t-107 -44.5z" />
    <glyph glyph-name="gbreve" unicode="&#x11f;" horiz-adv-x="570" 
d="M290 -188q-121 0 -205 69l20 34q47 -35 88.5 -49.5t97.5 -14.5q75 0 114 42.5t39 121.5v102q-21 -50 -67 -78t-106 -28q-67 0 -116 30.5t-75.5 85t-26.5 125.5q0 72 26.5 126t75.5 84t116 30q59 0 105 -27.5t67 -75.5v95h42v-462q0 -210 -195 -210zM270 50q80 0 127 55
t47 147t-47 146.5t-127 54.5t-127 -54.5t-47 -146.5t47 -147t127 -55zM288 547q-62 0 -100.5 49.5t-43.5 137.5l33 4q4 -74 33 -114.5t78 -40.5q50 0 78.5 40.5t32.5 114.5l33 -4q-5 -88 -43.5 -137.5t-100.5 -49.5z" />
    <glyph glyph-name="Gdotaccent" unicode="&#x120;" horiz-adv-x="718" 
d="M402 -8q-164 0 -249.5 94.5t-85.5 266.5q0 112 37.5 192.5t107.5 124t169 43.5q153 0 243 -95l-22 -35q-49 47 -101.5 68t-120.5 21q-129 0 -198.5 -83.5t-69.5 -235.5q0 -156 72 -238t217 -82q103 0 187 35v248h-194v39h234v-315q-24 -13 -62 -24t-81 -17.5t-83 -6.5z
M352 818v63h62v-63h-62z" />
    <glyph glyph-name="gdotaccent" unicode="&#x121;" horiz-adv-x="570" 
d="M290 -188q-121 0 -205 69l20 34q47 -35 88.5 -49.5t97.5 -14.5q75 0 114 42.5t39 121.5v102q-21 -50 -67 -78t-106 -28q-67 0 -116 30.5t-75.5 85t-26.5 125.5q0 72 26.5 126t75.5 84t116 30q59 0 105 -27.5t67 -75.5v95h42v-462q0 -210 -195 -210zM270 50q80 0 127 55
t47 147t-47 146.5t-127 54.5t-127 -54.5t-47 -146.5t47 -147t127 -55zM256 619v63h64v-63h-64z" />
    <glyph glyph-name="uni0122" unicode="&#x122;" horiz-adv-x="718" 
d="M402 -8q-164 0 -249.5 94.5t-85.5 266.5q0 112 37.5 192.5t107.5 124t169 43.5q153 0 243 -95l-22 -35q-49 47 -101.5 68t-120.5 21q-129 0 -198.5 -83.5t-69.5 -235.5q0 -156 72 -238t217 -82q103 0 187 35v248h-194v39h234v-315q-24 -13 -62 -24t-81 -17.5t-83 -6.5z
M378 -259l-26 20q21 24 29 44.5t9 43.5h-35v65h70v-54q0 -70 -47 -119z" />
    <glyph glyph-name="uni0123" unicode="&#x123;" horiz-adv-x="570" 
d="M290 -188q-121 0 -205 69l20 34q47 -35 88.5 -49.5t97.5 -14.5q75 0 114 42.5t39 121.5v102q-21 -50 -67 -78t-106 -28q-67 0 -116 30.5t-75.5 85t-26.5 125.5q0 72 26.5 126t75.5 84t116 30q59 0 105 -27.5t67 -75.5v95h42v-462q0 -210 -195 -210zM270 50q80 0 127 55
t47 147t-47 146.5t-127 54.5t-127 -54.5t-47 -146.5t47 -147t127 -55zM253 570v54q0 70 47 119l26 -20q-21 -24 -29 -44.5t-9 -43.5h35v-65h-70z" />
    <glyph glyph-name="Hcircumflex" unicode="&#x124;" horiz-adv-x="751" 
d="M96 0v705h42v-328h475v328h42v-705h-42v338h-475v-338h-42zM230 765l121 170h48l121 -170h-37l-108 132l-108 -132h-37z" />
    <glyph glyph-name="hcircumflex" unicode="&#x125;" horiz-adv-x="553" 
d="M85 0v705h42v-309q24 48 69 72t101 24q173 0 173 -184v-308h-42v304q0 77 -31 113t-100 36q-77 0 -123.5 -47.5t-46.5 -127.5v-278h-42zM133 765l121 170h48l121 -170h-37l-108 132l-108 -132h-37z" />
    <glyph glyph-name="Hbar" unicode="&#x126;" horiz-adv-x="781" 
d="M111 0v527h-96v38h96v140h42v-140h475v140h42v-140h96v-38h-96v-527h-42v338h-475v-338h-42zM153 377h475v150h-475v-150z" />
    <glyph glyph-name="hbar" unicode="&#x127;" horiz-adv-x="553" 
d="M85 0v562h-95v36h95v107h42v-107h197v-36h-197v-166q24 48 69 72t101 24q173 0 173 -184v-308h-42v304q0 77 -31 113t-100 36q-77 0 -123.5 -47.5t-46.5 -127.5v-278h-42z" />
    <glyph glyph-name="Itilde" unicode="&#x128;" horiz-adv-x="234" 
d="M96 0v705h42v-705h-42zM-47 792l-32 2q7 58 35 89.5t72 31.5q23 0 46 -11t56 -35q32 -22 48 -30.5t31 -8.5q30 0 47.5 22.5t24.5 64.5l32 -2q-7 -58 -34.5 -89.5t-71.5 -31.5q-22 0 -46 11t-60 37q-28 21 -45 29t-31 8q-30 0 -47.5 -22.5t-24.5 -64.5z" />
    <glyph glyph-name="itilde" unicode="&#x129;" horiz-adv-x="212" 
d="M85 0v484h42v-484h-42zM-30 595l-32 2q6 58 31 89.5t65 31.5q21 0 39.5 -11.5t42.5 -35.5q22 -22 35.5 -30t26.5 -8q52 0 64 87l32 -2q-6 -58 -31 -89.5t-64 -31.5q-20 0 -38.5 11.5t-44.5 35.5q-22 21 -35 29.5t-27 8.5q-52 0 -64 -87z" />
    <glyph glyph-name="Imacron" unicode="&#x12a;" horiz-adv-x="234" 
d="M96 0v705h42v-705h-42zM-38 822v38h310v-38h-310z" />
    <glyph glyph-name="imacron" unicode="&#x12b;" horiz-adv-x="212" 
d="M85 0v484h42v-484h-42zM-34 633v38h280v-38h-280z" />
    <glyph glyph-name="Ibreve" unicode="&#x12c;" horiz-adv-x="234" 
d="M96 0v705h42v-705h-42zM117 760q-64 0 -107 44.5t-50 122.5l33 4q5 -64 38 -99.5t86 -35.5t86.5 35.5t37.5 99.5l33 -4q-7 -78 -50 -122.5t-107 -44.5z" />
    <glyph glyph-name="ibreve" unicode="&#x12d;" horiz-adv-x="212" 
d="M85 0v484h42v-484h-42zM106 547q-62 0 -100.5 49.5t-43.5 137.5l33 4q4 -74 33 -114.5t78 -40.5q50 0 78.5 40.5t32.5 114.5l33 -4q-5 -88 -43.5 -137.5t-100.5 -49.5z" />
    <glyph glyph-name="Iogonek" unicode="&#x12e;" horiz-adv-x="234" 
d="M96 0v705h42v-705h-42zM121 -190q-41 0 -67.5 25t-26.5 67q0 38 23.5 72.5t66.5 56.5l21 -31q-15 -6 -31.5 -19t-28.5 -32t-12 -43q0 -31 17.5 -45.5t42.5 -14.5q26 0 53 13l13 -32q-24 -17 -71 -17z" />
    <glyph glyph-name="iogonek" unicode="&#x12f;" horiz-adv-x="212" 
d="M85 0v484h42v-484h-42zM74 619v63h64v-63h-64zM110 -190q-41 0 -67.5 25t-26.5 67q0 38 23.5 72.5t66.5 56.5l21 -31q-15 -6 -31.5 -19t-28.5 -32t-12 -43q0 -31 17.5 -45.5t42.5 -14.5q26 0 53 13l13 -32q-24 -17 -71 -17z" />
    <glyph glyph-name="Idotaccent" unicode="&#x130;" horiz-adv-x="234" 
d="M96 0v705h42v-705h-42zM86 818v63h62v-63h-62z" />
    <glyph glyph-name="dotlessi" unicode="&#x131;" horiz-adv-x="212" 
d="M85 0v484h42v-484h-42z" />
    <glyph glyph-name="IJ" unicode="&#x132;" horiz-adv-x="531" 
d="M96 0v705h42v-705h-42zM228 -6l-4 38l51 4q56 5 87 43t31 100v526h42v-528q0 -80 -40.5 -127t-116.5 -52z" />
    <glyph glyph-name="Jcircumflex" unicode="&#x134;" horiz-adv-x="297" 
d="M-6 -6l-4 38l51 4q56 5 87 43t31 100v526h42v-528q0 -80 -40.5 -127t-116.5 -52zM35 765l121 170h48l121 -170h-37l-108 132l-108 -132h-37z" />
    <glyph glyph-name="jcircumflex" unicode="&#x135;" horiz-adv-x="215" 
d="M-55 -193l-3 38l41 3q105 8 105 130v506h42v-505q0 -77 -37 -120.5t-105 -48.5zM-24 549l109 200h48l109 -200h-35l-98 161l-98 -161h-35z" />
    <glyph glyph-name="uni0136" unicode="&#x136;" horiz-adv-x="590" 
d="M96 0v705h42v-328h2l369 328h59l-391 -346l417 -359h-62l-392 338h-2v-338h-42zM290 -259l-26 20q21 24 29 44.5t9 43.5h-35v65h70v-54q0 -70 -47 -119z" />
    <glyph glyph-name="uni0137" unicode="&#x137;" horiz-adv-x="468" 
d="M85 0v705h42v-445h2l251 224h60l-265 -235l292 -249h-59l-279 237h-2v-237h-42zM222 -259l-26 20q21 24 29 44.5t9 43.5h-35v65h70v-54q0 -70 -47 -119z" />
    <glyph glyph-name="kgreenlandic" unicode="&#x138;" horiz-adv-x="468" 
d="M85 0v484h42v-224h2l251 224h60l-265 -235l292 -249h-59l-279 237h-2v-237h-42z" />
    <glyph glyph-name="Lacute" unicode="&#x139;" horiz-adv-x="527" 
d="M96 0v705h42v-666h376v-39h-418zM98 765l118 170h56l-136 -170h-38z" />
    <glyph glyph-name="lacute" unicode="&#x13a;" horiz-adv-x="275" 
d="M217 -8q-63 0 -97.5 40.5t-34.5 113.5v559h42v-552q0 -122 94 -122q25 0 47 6l-3 -39q-27 -6 -48 -6zM87 765l118 170h56l-136 -170h-38z" />
    <glyph glyph-name="uni013B" unicode="&#x13b;" horiz-adv-x="527" 
d="M96 0v705h42v-666h376v-39h-418zM293 -259l-26 20q21 24 29 44.5t9 43.5h-35v65h70v-54q0 -70 -47 -119z" />
    <glyph glyph-name="uni013C" unicode="&#x13c;" horiz-adv-x="275" 
d="M217 -8q-63 0 -97.5 40.5t-34.5 113.5v559h42v-552q0 -122 94 -122q25 0 47 6l-3 -39q-27 -6 -48 -6zM169 -259l-26 20q21 24 29 44.5t9 43.5h-35v65h70v-54q0 -70 -47 -119z" />
    <glyph glyph-name="Lcaron" unicode="&#x13d;" horiz-adv-x="527" 
d="M96 0v705h42v-666h376v-39h-418zM260 489v216h49l-19 -216h-30z" />
    <glyph glyph-name="lcaron" unicode="&#x13e;" horiz-adv-x="275" 
d="M217 -8q-63 0 -97.5 40.5t-34.5 113.5v559h42v-552q0 -122 94 -122q25 0 47 6l-3 -39q-27 -6 -48 -6zM177 517v188h49l-22 -188h-27z" />
    <glyph glyph-name="Ldot" unicode="&#x13f;" horiz-adv-x="527" 
d="M96 0v705h42v-666h376v-39h-418zM350 352v68h68v-68h-68z" />
    <glyph glyph-name="ldot" unicode="&#x140;" horiz-adv-x="275" 
d="M217 -8q-63 0 -97.5 40.5t-34.5 113.5v559h42v-552q0 -122 94 -122q25 0 47 6l-3 -39q-27 -6 -48 -6zM208 323v68h68v-68h-68z" />
    <glyph glyph-name="Lslash" unicode="&#x141;" horiz-adv-x="527" 
d="M96 0v705h42v-666h376v-39h-418zM8 277l-20 34l324 186l20 -33z" />
    <glyph glyph-name="lslash" unicode="&#x142;" horiz-adv-x="275" 
d="M217 -8q-63 0 -97.5 40.5t-34.5 113.5v559h42v-552q0 -122 94 -122q25 0 47 6l-3 -39q-27 -6 -48 -6zM12 274l-20 33l228 133l20 -33z" />
    <glyph glyph-name="Nacute" unicode="&#x143;" horiz-adv-x="732" 
d="M96 0v705h35l466 -633v633h39v-705h-34l-467 634v-634h-39zM347 765l118 170h56l-136 -170h-38z" />
    <glyph glyph-name="nacute" unicode="&#x144;" horiz-adv-x="553" 
d="M85 0v484h41v-90q24 49 69.5 73.5t101.5 24.5q173 0 173 -184v-308h-42v304q0 77 -31 113t-100 36q-77 0 -123.5 -47.5t-46.5 -127.5v-278h-42zM259 549l104 200h54l-122 -200h-36z" />
    <glyph glyph-name="uni0145" unicode="&#x145;" horiz-adv-x="732" 
d="M96 0v705h35l466 -633v633h39v-705h-34l-467 634v-634h-39zM354 -259l-26 20q21 24 29 44.5t9 43.5h-35v65h70v-54q0 -70 -47 -119z" />
    <glyph glyph-name="uni0146" unicode="&#x146;" horiz-adv-x="553" 
d="M85 0v484h41v-90q24 49 69.5 73.5t101.5 24.5q173 0 173 -184v-308h-42v304q0 77 -31 113t-100 36q-77 0 -123.5 -47.5t-46.5 -127.5v-278h-42zM265 -259l-26 20q21 24 29 44.5t9 43.5h-35v65h70v-54q0 -70 -47 -119z" />
    <glyph glyph-name="Ncaron" unicode="&#x147;" horiz-adv-x="732" 
d="M96 0v705h35l466 -633v633h39v-705h-34l-467 634v-634h-39zM342 765l-121 170h37l108 -132l108 132h37l-121 -170h-48z" />
    <glyph glyph-name="ncaron" unicode="&#x148;" horiz-adv-x="553" 
d="M85 0v484h41v-90q24 49 69.5 73.5t101.5 24.5q173 0 173 -184v-308h-42v304q0 77 -31 113t-100 36q-77 0 -123.5 -47.5t-46.5 -127.5v-278h-42zM253 549l-109 200h35l98 -161l98 161h35l-109 -200h-48z" />
    <glyph glyph-name="napostrophe" unicode="&#x149;" horiz-adv-x="553" 
d="M23 575l-26 20q20 22 26 41t7 37h-32v70h69v-55q0 -31 -9 -59.5t-35 -53.5zM85 0v484h41v-90q24 49 69.5 73.5t101.5 24.5q173 0 173 -184v-308h-42v304q0 77 -31 113t-100 36q-77 0 -123.5 -47.5t-46.5 -127.5v-278h-42z" />
    <glyph glyph-name="Eng" unicode="&#x14a;" horiz-adv-x="732" 
d="M451 -193l-3 38l41 3q108 8 108 130v29l-462 627v-634h-39v705h35l466 -633v633h39v-726q0 -77 -37 -120.5t-105 -48.5z" />
    <glyph glyph-name="eng" unicode="&#x14b;" horiz-adv-x="553" 
d="M285 -193l-3 38l41 3q105 8 105 130v326q0 77 -31 113t-100 36q-77 0 -123.5 -47.5t-46.5 -127.5v-278h-42v484h41v-90q24 49 69.5 73.5t101.5 24.5q173 0 173 -184v-329q0 -77 -37 -120.5t-105 -48.5z" />
    <glyph glyph-name="Omacron" unicode="&#x14c;" horiz-adv-x="751" 
d="M375 -8q-95 0 -164 44t-106.5 125t-37.5 192q0 112 37 192.5t106 124t165 43.5t165.5 -43.5t106.5 -124t37 -191.5q0 -112 -37.5 -193t-106.5 -125t-165 -44zM375 33q126 0 195 84t69 236t-68.5 235.5t-195.5 83.5q-125 0 -194 -83.5t-69 -235.5q0 -151 69 -235.5
t194 -84.5zM220 822v38h310v-38h-310z" />
    <glyph glyph-name="omacron" unicode="&#x14d;" horiz-adv-x="538" 
d="M269 -8q-66 0 -114.5 31t-75 87t-26.5 132t26.5 132t75 87t114.5 31t114.5 -31t75 -87t26.5 -132t-26.5 -132t-75 -87t-114.5 -31zM269 31q80 0 126.5 55.5t46.5 155.5t-46.5 155.5t-126.5 55.5q-79 0 -126 -55.5t-47 -155.5t47 -155.5t126 -55.5zM129 633v38h280v-38
h-280z" />
    <glyph glyph-name="Obreve" unicode="&#x14e;" horiz-adv-x="751" 
d="M375 -8q-95 0 -164 44t-106.5 125t-37.5 192q0 112 37 192.5t106 124t165 43.5t165.5 -43.5t106.5 -124t37 -191.5q0 -112 -37.5 -193t-106.5 -125t-165 -44zM375 33q126 0 195 84t69 236t-68.5 235.5t-195.5 83.5q-125 0 -194 -83.5t-69 -235.5q0 -151 69 -235.5
t194 -84.5zM375 760q-64 0 -107 44.5t-50 122.5l33 4q5 -64 38 -99.5t86 -35.5t86.5 35.5t37.5 99.5l33 -4q-7 -78 -50 -122.5t-107 -44.5z" />
    <glyph glyph-name="obreve" unicode="&#x14f;" horiz-adv-x="538" 
d="M269 -8q-66 0 -114.5 31t-75 87t-26.5 132t26.5 132t75 87t114.5 31t114.5 -31t75 -87t26.5 -132t-26.5 -132t-75 -87t-114.5 -31zM269 31q80 0 126.5 55.5t46.5 155.5t-46.5 155.5t-126.5 55.5q-79 0 -126 -55.5t-47 -155.5t47 -155.5t126 -55.5zM269 547
q-62 0 -100.5 49.5t-43.5 137.5l33 4q4 -74 33 -114.5t78 -40.5q50 0 78.5 40.5t32.5 114.5l33 -4q-5 -88 -43.5 -137.5t-100.5 -49.5z" />
    <glyph glyph-name="Ohungarumlaut" unicode="&#x150;" horiz-adv-x="751" 
d="M375 -8q-95 0 -164 44t-106.5 125t-37.5 192q0 112 37 192.5t106 124t165 43.5t165.5 -43.5t106.5 -124t37 -191.5q0 -112 -37.5 -193t-106.5 -125t-165 -44zM375 33q126 0 195 84t69 236t-68.5 235.5t-195.5 83.5q-125 0 -194 -83.5t-69 -235.5q0 -151 69 -235.5
t194 -84.5zM307 765l86 170h52l-111 -170h-27zM416 765l85 170h52l-110 -170h-27z" />
    <glyph glyph-name="ohungarumlaut" unicode="&#x151;" horiz-adv-x="538" 
d="M269 -8q-66 0 -114.5 31t-75 87t-26.5 132t26.5 132t75 87t114.5 31t114.5 -31t75 -87t26.5 -132t-26.5 -132t-75 -87t-114.5 -31zM269 31q80 0 126.5 55.5t46.5 155.5t-46.5 155.5t-126.5 55.5q-79 0 -126 -55.5t-47 -155.5t47 -155.5t126 -55.5zM310 549l58 200h48
l-79 -200h-27zM201 549l58 200h48l-79 -200h-27z" />
    <glyph glyph-name="OE" unicode="&#x152;" horiz-adv-x="1038" 
d="M412 0q-166 0 -255.5 90.5t-89.5 262.5q0 173 89.5 262.5t255.5 89.5h576v-39h-382v-289h362v-39h-362v-299h382v-39h-576zM416 39h148v627h-148q-304 0 -304 -313q0 -314 304 -314z" />
    <glyph glyph-name="oe" unicode="&#x153;" horiz-adv-x="906" 
d="M269 -8q-66 0 -114.5 31t-75 87t-26.5 132t26.5 132t75 87t114.5 31q70 0 120.5 -36.5t74.5 -102.5q24 66 77 102.5t124 36.5q90 0 141.5 -61.5t51.5 -170.5v-26h-372q2 -96 49 -149.5t136 -53.5q43 0 81.5 15t77.5 48l20 -34q-30 -31 -78 -49.5t-99 -18.5
q-78 0 -132.5 35t-78.5 102q-24 -65 -74 -101t-119 -36zM661 454q-78 0 -123 -52t-51 -131h332q-2 85 -42 134t-116 49zM269 31q80 0 126.5 55.5t46.5 155.5t-46.5 155.5t-126.5 55.5q-79 0 -126 -55.5t-47 -155.5t47 -155.5t126 -55.5z" />
    <glyph glyph-name="Racute" unicode="&#x154;" horiz-adv-x="654" 
d="M96 0v705h255q111 0 170 -51t59 -146q0 -78 -44 -126.5t-124 -61.5q42 -16 75 -78l131 -242h-46l-122 226q-28 52 -62 69t-93 17h-157v-312h-42zM138 351h209q189 0 189 158q0 157 -189 157h-209v-315zM315 765l118 170h56l-136 -170h-38z" />
    <glyph glyph-name="racute" unicode="&#x155;" horiz-adv-x="327" 
d="M85 0v484h41v-88q22 46 62.5 69.5t103.5 28.5l21 2l5 -38l-34 -4q-74 -7 -115.5 -50t-41.5 -114v-290h-42zM186 549l104 200h54l-122 -200h-36z" />
    <glyph glyph-name="uni0156" unicode="&#x156;" horiz-adv-x="654" 
d="M96 0v705h255q111 0 170 -51t59 -146q0 -78 -44 -126.5t-124 -61.5q42 -16 75 -78l131 -242h-46l-122 226q-28 52 -62 69t-93 17h-157v-312h-42zM138 351h209q189 0 189 158q0 157 -189 157h-209v-315zM322 -259l-26 20q21 24 29 44.5t9 43.5h-35v65h70v-54
q0 -70 -47 -119z" />
    <glyph glyph-name="uni0157" unicode="&#x157;" horiz-adv-x="327" 
d="M85 0v484h41v-88q22 46 62.5 69.5t103.5 28.5l21 2l5 -38l-34 -4q-74 -7 -115.5 -50t-41.5 -114v-290h-42zM94 -259l-26 20q21 24 29 44.5t9 43.5h-35v65h70v-54q0 -70 -47 -119z" />
    <glyph glyph-name="Rcaron" unicode="&#x158;" horiz-adv-x="654" 
d="M96 0v705h255q111 0 170 -51t59 -146q0 -78 -44 -126.5t-124 -61.5q42 -16 75 -78l131 -242h-46l-122 226q-28 52 -62 69t-93 17h-157v-312h-42zM138 351h209q189 0 189 158q0 157 -189 157h-209v-315zM310 765l-121 170h37l108 -132l108 132h37l-121 -170h-48z" />
    <glyph glyph-name="rcaron" unicode="&#x159;" horiz-adv-x="327" 
d="M85 0v484h41v-88q22 46 62.5 69.5t103.5 28.5l21 2l5 -38l-34 -4q-74 -7 -115.5 -50t-41.5 -114v-290h-42zM180 549l-109 200h35l98 -161l98 161h35l-109 -200h-48z" />
    <glyph glyph-name="Sacute" unicode="&#x15a;" horiz-adv-x="600" 
d="M310 -8q-82 0 -146 22t-112 65l20 36q53 -43 106 -62.5t132 -19.5q100 0 150.5 40t50.5 106q0 54 -37 84.5t-121 47.5l-99 20q-94 19 -140 63t-46 119q0 60 30.5 105t85 70t124.5 25q145 0 231 -91l-20 -36q-47 46 -97 66t-114 20q-88 0 -142 -43.5t-54 -115.5
q0 -58 34 -91.5t110 -48.5l99 -20q102 -21 151 -61.5t49 -111.5q0 -55 -29.5 -97.5t-84.5 -66.5t-131 -24zM285 765l118 170h56l-136 -170h-38z" />
    <glyph glyph-name="sacute" unicode="&#x15b;" horiz-adv-x="475" 
d="M236 -8q-52 0 -100 16.5t-79 47.5l20 34q36 -31 77.5 -45t84.5 -14q65 0 99.5 25t34.5 68q0 34 -22.5 53.5t-72.5 31.5l-83 20q-63 15 -92.5 46t-29.5 80q0 62 47.5 99.5t126.5 37.5q50 0 92.5 -17t68.5 -48l-20 -34q-58 60 -142 60q-61 0 -95 -26.5t-34 -70.5
q0 -34 21 -55t67 -32l83 -20q65 -16 97 -45t32 -78q0 -61 -49 -97.5t-132 -36.5zM228 549l104 200h54l-122 -200h-36z" />
    <glyph glyph-name="Scircumflex" unicode="&#x15c;" horiz-adv-x="600" 
d="M310 -8q-82 0 -146 22t-112 65l20 36q53 -43 106 -62.5t132 -19.5q100 0 150.5 40t50.5 106q0 54 -37 84.5t-121 47.5l-99 20q-94 19 -140 63t-46 119q0 60 30.5 105t85 70t124.5 25q145 0 231 -91l-20 -36q-47 46 -97 66t-114 20q-88 0 -142 -43.5t-54 -115.5
q0 -58 34 -91.5t110 -48.5l99 -20q102 -21 151 -61.5t49 -111.5q0 -55 -29.5 -97.5t-84.5 -66.5t-131 -24zM159 765l121 170h48l121 -170h-37l-108 132l-108 -132h-37z" />
    <glyph glyph-name="scircumflex" unicode="&#x15d;" horiz-adv-x="475" 
d="M236 -8q-52 0 -100 16.5t-79 47.5l20 34q36 -31 77.5 -45t84.5 -14q65 0 99.5 25t34.5 68q0 34 -22.5 53.5t-72.5 31.5l-83 20q-63 15 -92.5 46t-29.5 80q0 62 47.5 99.5t126.5 37.5q50 0 92.5 -17t68.5 -48l-20 -34q-58 60 -142 60q-61 0 -95 -26.5t-34 -70.5
q0 -34 21 -55t67 -32l83 -20q65 -16 97 -45t32 -78q0 -61 -49 -97.5t-132 -36.5zM113 549l109 200h48l109 -200h-35l-98 161l-98 -161h-35z" />
    <glyph glyph-name="Scedilla" unicode="&#x15e;" horiz-adv-x="600" 
d="M310 -8q-82 0 -146 22t-112 65l20 36q53 -43 106 -62.5t132 -19.5q100 0 150.5 40t50.5 106q0 54 -37 84.5t-121 47.5l-99 20q-94 19 -140 63t-46 119q0 60 30.5 105t85 70t124.5 25q145 0 231 -91l-20 -36q-47 46 -97 66t-114 20q-88 0 -142 -43.5t-54 -115.5
q0 -58 34 -91.5t110 -48.5l99 -20q102 -21 151 -61.5t49 -111.5q0 -55 -29.5 -97.5t-84.5 -66.5t-131 -24zM315 -190q-49 0 -78 18l9 34q19 -9 34 -12.5t39 -3.5q27 0 44.5 11t17.5 32q0 32 -39 32q-11 0 -22.5 -2t-28.5 -8l-15 13l15 96h38l-12 -69q15 3 26 3q32 0 55 -17
t23 -48q0 -35 -29.5 -57t-76.5 -22z" />
    <glyph glyph-name="scedilla" unicode="&#x15f;" horiz-adv-x="475" 
d="M236 -8q-52 0 -100 16.5t-79 47.5l20 34q36 -31 77.5 -45t84.5 -14q65 0 99.5 25t34.5 68q0 34 -22.5 53.5t-72.5 31.5l-83 20q-63 15 -92.5 46t-29.5 80q0 62 47.5 99.5t126.5 37.5q50 0 92.5 -17t68.5 -48l-20 -34q-58 60 -142 60q-61 0 -95 -26.5t-34 -70.5
q0 -34 21 -55t67 -32l83 -20q65 -16 97 -45t32 -78q0 -61 -49 -97.5t-132 -36.5zM241 -190q-49 0 -78 18l9 34q19 -9 34 -12.5t39 -3.5q27 0 44.5 11t17.5 32q0 32 -39 32q-11 0 -22.5 -2t-28.5 -8l-15 13l15 96h38l-12 -69q15 3 26 3q32 0 55 -17t23 -48q0 -35 -29.5 -57
t-76.5 -22z" />
    <glyph glyph-name="Scaron" unicode="&#x160;" horiz-adv-x="600" 
d="M310 -8q-82 0 -146 22t-112 65l20 36q53 -43 106 -62.5t132 -19.5q100 0 150.5 40t50.5 106q0 54 -37 84.5t-121 47.5l-99 20q-94 19 -140 63t-46 119q0 60 30.5 105t85 70t124.5 25q145 0 231 -91l-20 -36q-47 46 -97 66t-114 20q-88 0 -142 -43.5t-54 -115.5
q0 -58 34 -91.5t110 -48.5l99 -20q102 -21 151 -61.5t49 -111.5q0 -55 -29.5 -97.5t-84.5 -66.5t-131 -24zM280 765l-121 170h37l108 -132l108 132h37l-121 -170h-48z" />
    <glyph glyph-name="scaron" unicode="&#x161;" horiz-adv-x="475" 
d="M236 -8q-52 0 -100 16.5t-79 47.5l20 34q36 -31 77.5 -45t84.5 -14q65 0 99.5 25t34.5 68q0 34 -22.5 53.5t-72.5 31.5l-83 20q-63 15 -92.5 46t-29.5 80q0 62 47.5 99.5t126.5 37.5q50 0 92.5 -17t68.5 -48l-20 -34q-58 60 -142 60q-61 0 -95 -26.5t-34 -70.5
q0 -34 21 -55t67 -32l83 -20q65 -16 97 -45t32 -78q0 -61 -49 -97.5t-132 -36.5zM222 549l-109 200h35l98 -161l98 161h35l-109 -200h-48z" />
    <glyph glyph-name="uni0162" unicode="&#x162;" horiz-adv-x="586" 
d="M272 0v666h-269v39h580v-39h-269v-666h-42zM298 -190q-49 0 -78 18l9 34q19 -9 34 -12.5t39 -3.5q27 0 44.5 11t17.5 32q0 32 -39 32q-11 0 -22.5 -2t-28.5 -8l-15 13l15 96h38l-12 -69q15 3 26 3q32 0 55 -17t23 -48q0 -35 -29.5 -57t-76.5 -22z" />
    <glyph glyph-name="uni0163" unicode="&#x163;" horiz-adv-x="320" 
d="M255 -8q-76 0 -114 43t-38 121v292h-97v36h97v151h42v-151h159v-36h-159v-283q0 -65 26 -99.5t87 -34.5q18 0 34.5 4.5t27.5 8.5l10 -35q-9 -6 -32 -11.5t-43 -5.5zM208 -190q-49 0 -78 18l9 34q19 -9 34 -12.5t39 -3.5q27 0 44.5 11t17.5 32q0 32 -39 32q-11 0 -22.5 -2
t-28.5 -8l-15 13l15 96h38l-12 -69q15 3 26 3q32 0 55 -17t23 -48q0 -35 -29.5 -57t-76.5 -22z" />
    <glyph glyph-name="Tcaron" unicode="&#x164;" horiz-adv-x="586" 
d="M272 0v666h-269v39h580v-39h-269v-666h-42zM269 765l-121 170h37l108 -132l108 132h37l-121 -170h-48z" />
    <glyph glyph-name="tcaron" unicode="&#x165;" horiz-adv-x="320" 
d="M255 -8q-76 0 -114 43t-38 121v292h-97v36h97v151h42v-151h159v-36h-159v-283q0 -65 26 -99.5t87 -34.5q18 0 34.5 4.5t27.5 8.5l10 -35q-9 -6 -32 -11.5t-43 -5.5zM225 535v170h48l-21 -170h-27z" />
    <glyph glyph-name="Tbar" unicode="&#x166;" horiz-adv-x="586" 
d="M272 0v666h-269v39h580v-39h-269v-666h-42zM126 340v37h334v-37h-334z" />
    <glyph glyph-name="tbar" unicode="&#x167;" horiz-adv-x="320" 
d="M255 -8q-76 0 -114 43t-38 121v292h-97v36h97v151h42v-151h159v-36h-159v-283q0 -65 26 -99.5t87 -34.5q18 0 34.5 4.5t27.5 8.5l10 -35q-9 -6 -32 -11.5t-43 -5.5zM28 253v36h245v-36h-245z" />
    <glyph glyph-name="Utilde" unicode="&#x168;" horiz-adv-x="720" 
d="M360 -8q-132 0 -200.5 71.5t-68.5 207.5v434h42v-428q0 -244 227 -244t227 244v428h42v-434q0 -136 -68.5 -207.5t-200.5 -71.5zM196 792l-32 2q7 58 35 89.5t72 31.5q23 0 46 -11t56 -35q32 -22 48 -30.5t31 -8.5q30 0 47.5 22.5t24.5 64.5l32 -2q-7 -58 -34.5 -89.5
t-71.5 -31.5q-22 0 -46 11t-60 37q-28 21 -45 29t-31 8q-30 0 -47.5 -22.5t-24.5 -64.5z" />
    <glyph glyph-name="utilde" unicode="&#x169;" horiz-adv-x="545" 
d="M254 -8q-86 0 -128.5 47t-42.5 138v307h42v-303q0 -76 31 -113t98 -37q73 0 118.5 48.5t45.5 127.5v277h42v-484h-41v90q-23 -48 -67 -73t-98 -25zM137 596l-32 2q6 58 31 89.5t65 31.5q21 0 39.5 -11.5t42.5 -35.5q22 -22 35.5 -30t26.5 -8q52 0 64 87l32 -2
q-6 -58 -31 -89.5t-64 -31.5q-20 0 -38.5 11.5t-44.5 35.5q-22 21 -35 29.5t-27 8.5q-52 0 -64 -87z" />
    <glyph glyph-name="Umacron" unicode="&#x16a;" horiz-adv-x="720" 
d="M360 -8q-132 0 -200.5 71.5t-68.5 207.5v434h42v-428q0 -244 227 -244t227 244v428h42v-434q0 -136 -68.5 -207.5t-200.5 -71.5zM205 822v38h310v-38h-310z" />
    <glyph glyph-name="umacron" unicode="&#x16b;" horiz-adv-x="545" 
d="M254 -8q-86 0 -128.5 47t-42.5 138v307h42v-303q0 -76 31 -113t98 -37q73 0 118.5 48.5t45.5 127.5v277h42v-484h-41v90q-23 -48 -67 -73t-98 -25zM133 634v38h280v-38h-280z" />
    <glyph glyph-name="Ubreve" unicode="&#x16c;" horiz-adv-x="720" 
d="M360 -8q-132 0 -200.5 71.5t-68.5 207.5v434h42v-428q0 -244 227 -244t227 244v428h42v-434q0 -136 -68.5 -207.5t-200.5 -71.5zM360 760q-64 0 -107 44.5t-50 122.5l33 4q5 -64 38 -99.5t86 -35.5t86.5 35.5t37.5 99.5l33 -4q-7 -78 -50 -122.5t-107 -44.5z" />
    <glyph glyph-name="ubreve" unicode="&#x16d;" horiz-adv-x="545" 
d="M254 -8q-86 0 -128.5 47t-42.5 138v307h42v-303q0 -76 31 -113t98 -37q73 0 118.5 48.5t45.5 127.5v277h42v-484h-41v90q-23 -48 -67 -73t-98 -25zM273 548q-62 0 -100.5 49.5t-43.5 137.5l33 4q4 -74 33 -114.5t78 -40.5q50 0 78.5 40.5t32.5 114.5l33 -4
q-5 -88 -43.5 -137.5t-100.5 -49.5z" />
    <glyph glyph-name="Uring" unicode="&#x16e;" horiz-adv-x="720" 
d="M360 -8q-132 0 -200.5 71.5t-68.5 207.5v434h42v-428q0 -244 227 -244t227 244v428h42v-434q0 -136 -68.5 -207.5t-200.5 -71.5zM360 760q-47 0 -79.5 32t-32.5 78t32.5 78t79.5 32t79.5 -32t32.5 -78t-32.5 -78t-79.5 -32zM360 792q35 0 56.5 22.5t21.5 55.5t-21.5 55.5
t-56.5 22.5q-34 0 -56 -22.5t-22 -55.5t22 -55.5t56 -22.5z" />
    <glyph glyph-name="uring" unicode="&#x16f;" horiz-adv-x="545" 
d="M254 -8q-86 0 -128.5 47t-42.5 138v307h42v-303q0 -76 31 -113t98 -37q73 0 118.5 48.5t45.5 127.5v277h42v-484h-41v90q-23 -48 -67 -73t-98 -25zM273 548q-47 0 -79.5 32t-32.5 78t32.5 78t79.5 32t79.5 -32t32.5 -78t-32.5 -78t-79.5 -32zM273 580q35 0 56.5 22.5
t21.5 55.5t-21.5 55.5t-56.5 22.5q-34 0 -56 -22.5t-22 -55.5t22 -55.5t56 -22.5z" />
    <glyph glyph-name="Uhungarumlaut" unicode="&#x170;" horiz-adv-x="720" 
d="M360 -8q-132 0 -200.5 71.5t-68.5 207.5v434h42v-428q0 -244 227 -244t227 244v428h42v-434q0 -136 -68.5 -207.5t-200.5 -71.5zM292 765l86 170h52l-111 -170h-27zM401 765l85 170h52l-110 -170h-27z" />
    <glyph glyph-name="uhungarumlaut" unicode="&#x171;" horiz-adv-x="545" 
d="M254 -8q-86 0 -128.5 47t-42.5 138v307h42v-303q0 -76 31 -113t98 -37q73 0 118.5 48.5t45.5 127.5v277h42v-484h-41v90q-23 -48 -67 -73t-98 -25zM314 550l58 200h48l-79 -200h-27zM205 550l58 200h48l-79 -200h-27z" />
    <glyph glyph-name="Uogonek" unicode="&#x172;" horiz-adv-x="720" 
d="M360 -8q-132 0 -200.5 71.5t-68.5 207.5v434h42v-428q0 -244 227 -244t227 244v428h42v-434q0 -136 -68.5 -207.5t-200.5 -71.5zM400 -190q-41 0 -67.5 25t-26.5 67q0 38 23.5 72.5t66.5 56.5l21 -31q-15 -6 -31.5 -19t-28.5 -32t-12 -43q0 -31 17.5 -45.5t42.5 -14.5
q26 0 53 13l13 -32q-24 -17 -71 -17z" />
    <glyph glyph-name="uogonek" unicode="&#x173;" horiz-adv-x="545" 
d="M254 -8q-86 0 -128.5 47t-42.5 138v307h42v-303q0 -76 31 -113t98 -37q73 0 118.5 48.5t45.5 127.5v277h42v-484h-41v90q-23 -48 -67 -73t-98 -25zM443 -190q-41 0 -67.5 25t-26.5 67q0 38 23.5 72.5t66.5 56.5l21 -31q-15 -6 -31.5 -19t-28.5 -32t-12 -43
q0 -31 17.5 -45.5t42.5 -14.5q26 0 53 13l13 -32q-24 -17 -71 -17z" />
    <glyph glyph-name="Wcircumflex" unicode="&#x174;" horiz-adv-x="1091" 
d="M282 0l-244 705h44l221 -642l222 642h39l223 -645l223 645h43l-244 -705h-43l-221 642l-222 -642h-41zM400 765l121 170h48l121 -170h-37l-108 132l-108 -132h-37z" />
    <glyph glyph-name="wcircumflex" unicode="&#x175;" horiz-adv-x="830" 
d="M210 0l-170 484h46l148 -434l156 434h52l152 -434l152 434h45l-172 -484h-49l-154 434l-156 -434h-50zM282 549l109 200h48l109 -200h-35l-98 161l-98 -161h-35z" />
    <glyph glyph-name="Ycircumflex" unicode="&#x176;" horiz-adv-x="577" 
d="M267 0v343l-268 362h49l242 -327l241 327h47l-269 -363v-342h-42zM143 765l121 170h48l121 -170h-37l-108 132l-108 -132h-37z" />
    <glyph glyph-name="ycircumflex" unicode="&#x177;" horiz-adv-x="504" 
d="M152 -180l77 177l-207 487h48l182 -440l183 440h48l-284 -664h-47zM119 549l109 200h48l109 -200h-35l-98 161l-98 -161h-35z" />
    <glyph glyph-name="Ydieresis" unicode="&#x178;" horiz-adv-x="577" 
d="M267 0v343l-268 362h49l242 -327l241 327h47l-269 -363v-342h-42zM338 820v60h61v-60h-61zM177 820v60h61v-60h-61z" />
    <glyph glyph-name="Zacute" unicode="&#x179;" horiz-adv-x="575" 
d="M49 0v31l434 635h-434v39h489v-31l-434 -635h448v-39h-503zM281 765l118 170h56l-136 -170h-38z" />
    <glyph glyph-name="zacute" unicode="&#x17a;" horiz-adv-x="454" 
d="M60 0v30l300 418h-300v36h350v-30l-300 -418h311v-36h-361zM217 549l104 200h54l-122 -200h-36z" />
    <glyph glyph-name="Zdotaccent" unicode="&#x17b;" horiz-adv-x="575" 
d="M49 0v31l434 635h-434v39h489v-31l-434 -635h448v-39h-503zM269 818v63h62v-63h-62z" />
    <glyph glyph-name="zdotaccent" unicode="&#x17c;" horiz-adv-x="454" 
d="M60 0v30l300 418h-300v36h350v-30l-300 -418h311v-36h-361zM203 619v63h64v-63h-64z" />
    <glyph glyph-name="Zcaron" unicode="&#x17d;" horiz-adv-x="575" 
d="M49 0v31l434 635h-434v39h489v-31l-434 -635h448v-39h-503zM276 765l-121 170h37l108 -132l108 132h37l-121 -170h-48z" />
    <glyph glyph-name="zcaron" unicode="&#x17e;" horiz-adv-x="454" 
d="M60 0v30l300 418h-300v36h350v-30l-300 -418h311v-36h-361zM211 549l-109 200h35l98 -161l98 161h35l-109 -200h-48z" />
    <glyph glyph-name="uni0181" unicode="&#x181;" horiz-adv-x="767" 
d="M197 0v666h-38q-61 0 -90.5 -28.5t-29.5 -89.5v-42h-39v45q0 77 41 115.5t129 38.5h285q107 0 166 -48t59 -137q0 -59 -31.5 -100t-85.5 -60q62 -14 97.5 -58t35.5 -111q0 -94 -59 -142.5t-169 -48.5h-271zM239 376h213q90 0 137 37.5t47 107.5q0 71 -47 108t-137 37
h-213v-290zM239 39h228q92 0 138.5 36.5t46.5 112.5q0 77 -46.5 113t-138.5 36h-228v-298z" />
    <glyph glyph-name="uni018A" unicode="&#x18a;" horiz-adv-x="826" 
d="M197 0v666h-38q-61 0 -90.5 -28.5t-29.5 -89.5v-42h-39v45q0 154 160 154h254q166 0 255.5 -89.5t89.5 -262.5q0 -172 -89.5 -262.5t-255.5 -90.5h-217zM239 39h171q304 0 304 314q0 313 -304 313h-171v-627z" />
    <glyph glyph-name="uni018F" unicode="&#x18f;" horiz-adv-x="751" 
d="M380 -8q-105 0 -174.5 44t-104 124t-34.5 188v28h572q-6 142 -80 219t-205 77q-79 0 -134 -21t-106 -68l-21 35q98 95 262 95q102 0 175.5 -43.5t113.5 -124t40 -192.5t-37 -193t-105.5 -124.5t-161.5 -43.5zM379 33q118 0 187 80t73 224h-528q4 -148 70.5 -226
t197.5 -78z" />
    <glyph glyph-name="florin" unicode="&#x192;" horiz-adv-x="600" 
d="M49 -188v37h39q50 0 81.5 25.5t45.5 91.5l102 482h-130v36h139l16 78q15 73 55 112t114 39h38v-39h-38q-51 0 -82 -24t-45 -92l-15 -74h131v-36h-139l-104 -486q-16 -72 -55.5 -111t-113.5 -39h-39z" />
    <glyph glyph-name="Ohorn" unicode="&#x1a0;" horiz-adv-x="751" 
d="M375 -8q-95 0 -164 44t-106.5 125t-37.5 192q0 112 37 192.5t106 124t165 43.5t165.5 -43.5t106.5 -124t37 -191.5q0 -112 -37.5 -193t-106.5 -125t-165 -44zM375 33q126 0 195 84t69 236t-68.5 235.5t-195.5 83.5q-125 0 -194 -83.5t-69 -235.5q0 -151 69 -235.5
t194 -84.5zM483 667l-54 42q29 -2 50.5 -3t43.5 -1q73 0 96.5 31t23.5 89v12h40v-20q0 -70 -37.5 -110t-106.5 -40h-56z" />
    <glyph glyph-name="ohorn" unicode="&#x1a1;" horiz-adv-x="538" 
d="M269 -8q-66 0 -114.5 31t-75 87t-26.5 132t26.5 132t75 87t114.5 31t114.5 -31t75 -87t26.5 -132t-26.5 -132t-75 -87t-114.5 -31zM269 31q80 0 126.5 55.5t46.5 155.5t-46.5 155.5t-126.5 55.5q-79 0 -126 -55.5t-47 -155.5t47 -155.5t126 -55.5zM330 446l-15 13v25
q73 1 96.5 31.5t23.5 88.5v12h40v-20q0 -70 -37 -108.5t-108 -41.5z" />
    <glyph glyph-name="Uhorn" unicode="&#x1af;" horiz-adv-x="720" 
d="M360 -8q-132 0 -200.5 71.5t-68.5 207.5v434h42v-428q0 -244 227 -244t227 244v428h42v-434q0 -136 -68.5 -207.5t-200.5 -71.5zM603 667l-15 13v25q73 1 96.5 31.5t23.5 88.5v12h40v-20q0 -70 -37 -108.5t-108 -41.5z" />
    <glyph glyph-name="uhorn" unicode="&#x1b0;" horiz-adv-x="545" 
d="M254 -8q-86 0 -128.5 47t-42.5 138v307h42v-303q0 -76 31 -113t98 -37q73 0 118.5 48.5t45.5 127.5v277h42v-484h-41v90q-23 -48 -67 -73t-98 -25zM435 446l-15 13v25q73 1 96.5 31.5t23.5 88.5v12h40v-20q0 -70 -37 -108.5t-108 -41.5z" />
    <glyph glyph-name="uni01B3" unicode="&#x1b3;" horiz-adv-x="607" 
d="M267 0v343l-268 362h49l242 -327l187 265q26 37 55.5 53t63.5 16q16 0 26 -1.5t23 -6.5v-37q-10 4 -21 6t-26 2q-25 0 -46.5 -11.5t-42.5 -40.5l-200 -281v-342h-42z" />
    <glyph glyph-name="uni01B4" unicode="&#x1b4;" horiz-adv-x="534" 
d="M401 402q20 47 48 68.5t73 21.5q16 0 26.5 -1.5t22.5 -5.5l-7 -37q-8 3 -18.5 4.5t-18.5 1.5q-33 0 -52.5 -17.5t-39.5 -64.5l-236 -552h-47l77 177l-207 487h48l182 -440z" />
    <glyph glyph-name="uni01C4" unicode="&#x1c4;" horiz-adv-x="1285" 
d="M96 0v705h217q166 0 255.5 -89.5t89.5 -262.5q0 -172 -89.5 -262.5t-255.5 -90.5h-217zM138 39h171q304 0 304 314q0 313 -304 313h-171v-627zM759 0v31l434 635h-434v39h489v-31l-434 -635h448v-39h-503zM986 765l-121 170h37l108 -132l108 132h37l-121 -170h-48z" />
    <glyph glyph-name="uni01C5" unicode="&#x1c5;" horiz-adv-x="1179" 
d="M96 0v705h217q166 0 255.5 -89.5t89.5 -262.5q0 -172 -89.5 -262.5t-255.5 -90.5h-217zM138 39h171q304 0 304 314q0 313 -304 313h-171v-627zM785 0v30l300 418h-300v36h350v-30l-300 -418h311v-36h-361zM936 549l-109 200h35l98 -161l98 161h35l-109 -200h-48z" />
    <glyph glyph-name="uni01C6" unicode="&#x1c6;" horiz-adv-x="1022" 
d="M268 -8q-65 0 -113.5 30.5t-75 87t-26.5 132.5q0 115 58 182.5t157 67.5q61 0 106 -27.5t67 -75.5v316h42v-705h-42v95q-22 -48 -67 -75.5t-106 -27.5zM269 31q80 0 126.5 55.5t46.5 155.5t-46.5 155.5t-126.5 55.5q-79 0 -126 -55.5t-47 -155.5t47 -155.5t126 -55.5z
M628 0v30l300 418h-300v36h350v-30l-300 -418h311v-36h-361zM779 549l-109 200h35l98 -161l98 161h35l-109 -200h-48z" />
    <glyph glyph-name="uni01C7" unicode="&#x1c7;" horiz-adv-x="864" 
d="M96 0v705h42v-666h376v-39h-418zM561 -6l-4 38l51 4q56 5 87 43t31 100v526h42v-528q0 -80 -40.5 -127t-116.5 -52z" />
    <glyph glyph-name="uni01C8" unicode="&#x1c8;" horiz-adv-x="742" 
d="M96 0v705h42v-666h376v-39h-418zM604 619v63h64v-63h-64zM472 -193l-3 38l41 3q105 8 105 130v506h42v-505q0 -77 -37 -120.5t-105 -48.5z" />
    <glyph glyph-name="uni01C9" unicode="&#x1c9;" horiz-adv-x="490" 
d="M217 -8q-63 0 -97.5 40.5t-34.5 113.5v559h42v-552q0 -122 94 -122q25 0 47 6l-3 -39q-27 -6 -48 -6zM352 619v63h64v-63h-64zM220 -193l-3 38l41 3q105 8 105 130v506h42v-505q0 -77 -37 -120.5t-105 -48.5z" />
    <glyph glyph-name="uni01CA" unicode="&#x1ca;" horiz-adv-x="1029" 
d="M96 0v705h35l466 -633v633h39v-705h-34l-467 634v-634h-39zM726 -6l-4 38l51 4q56 5 87 43t31 100v526h42v-528q0 -80 -40.5 -127t-116.5 -52z" />
    <glyph glyph-name="uni01CB" unicode="&#x1cb;" horiz-adv-x="947" 
d="M96 0v705h35l466 -633v633h39v-705h-34l-467 634v-634h-39zM809 619v63h64v-63h-64zM677 -193l-3 38l41 3q105 8 105 130v506h42v-505q0 -77 -37 -120.5t-105 -48.5z" />
    <glyph glyph-name="uni01CC" unicode="&#x1cc;" horiz-adv-x="768" 
d="M85 0v484h41v-90q24 49 69.5 73.5t101.5 24.5q173 0 173 -184v-308h-42v304q0 77 -31 113t-100 36q-77 0 -123.5 -47.5t-46.5 -127.5v-278h-42zM630 619v63h64v-63h-64zM498 -193l-3 38l41 3q105 8 105 130v506h42v-505q0 -77 -37 -120.5t-105 -48.5z" />
    <glyph glyph-name="uni01CD" unicode="&#x1cd;" horiz-adv-x="716" 
d="M35 0l303 705h40l303 -705h-45l-84 195h-389l-83 -195h-45zM357 648l-176 -414h354l-176 414h-2zM335 765l-121 170h37l108 -132l108 132h37l-121 -170h-48z" />
    <glyph glyph-name="uni01CE" unicode="&#x1ce;" horiz-adv-x="514" 
d="M231 -8q-47 0 -85 19t-60 51.5t-22 72.5q0 54 26.5 84.5t91 43t177.5 12.5h30v40q0 72 -28 105t-90 33q-45 0 -84.5 -13t-82.5 -42l-20 36q38 27 87.5 42.5t97.5 15.5q83 0 122.5 -43t39.5 -134v-315h-41v90q-21 -46 -62.5 -72t-96.5 -26zM234 30q46 0 80.5 22.5t54.5 61
t20 87.5v37h-28q-99 0 -153.5 -8.5t-76 -30t-21.5 -60.5q0 -48 33.5 -78.5t90.5 -30.5zM241 549l-109 200h35l98 -161l98 161h35l-109 -200h-48z" />
    <glyph glyph-name="uni01D4" unicode="&#x1d4;" horiz-adv-x="545" 
d="M254 -8q-86 0 -128.5 47t-42.5 138v307h42v-303q0 -76 31 -113t98 -37q73 0 118.5 48.5t45.5 127.5v277h42v-484h-41v90q-23 -48 -67 -73t-98 -25zM249 550l-109 200h35l98 -161l98 161h35l-109 -200h-48z" />
    <glyph glyph-name="uni01E5" unicode="&#x1e5;" horiz-adv-x="570" 
d="M290 -188q-121 0 -205 69l20 34q47 -35 88.5 -49t97.5 -14q108 0 140 85h-117v36h127q3 21 3 42v119q-44 -103 -173 -103q-65 0 -114 29t-76.5 81t-27.5 121t27.5 120.5t76.5 80.5t114 29q127 0 172 -100v92h42v-462q0 -25 -3 -49h77v-36h-85q-35 -125 -184 -125zM270 70
q81 0 127 51.5t46 140.5t-46 140t-127 51q-80 0 -127 -51t-47 -140q0 -90 47 -141t127 -51z" />
    <glyph glyph-name="Gcaron" unicode="&#x1e6;" horiz-adv-x="718" 
d="M402 -8q-164 0 -249.5 94.5t-85.5 266.5q0 112 37.5 192.5t107.5 124t169 43.5q153 0 243 -95l-22 -35q-49 47 -101.5 68t-120.5 21q-129 0 -198.5 -83.5t-69.5 -235.5q0 -156 72 -238t217 -82q103 0 187 35v248h-194v39h234v-315q-24 -13 -62 -24t-81 -17.5t-83 -6.5z
M359 765l-121 170h37l108 -132l108 132h37l-121 -170h-48z" />
    <glyph glyph-name="gcaron" unicode="&#x1e7;" horiz-adv-x="570" 
d="M290 -188q-121 0 -205 69l20 34q47 -35 88.5 -49.5t97.5 -14.5q75 0 114 42.5t39 121.5v102q-21 -50 -67 -78t-106 -28q-67 0 -116 30.5t-75.5 85t-26.5 125.5q0 72 26.5 126t75.5 84t116 30q59 0 105 -27.5t67 -75.5v95h42v-462q0 -210 -195 -210zM270 50q80 0 127 55
t47 147t-47 146.5t-127 54.5t-127 -54.5t-47 -146.5t47 -147t127 -55zM264 549l-109 200h35l98 -161l98 161h35l-109 -200h-48z" />
    <glyph glyph-name="uni01E9" unicode="&#x1e9;" horiz-adv-x="468" 
d="M85 0v705h42v-445h2l251 224h60l-265 -235l292 -249h-59l-279 237h-2v-237h-42zM254 765l-121 170h37l108 -132l108 132h37l-121 -170h-48z" />
    <glyph glyph-name="uni01EA" unicode="&#x1ea;" horiz-adv-x="751" 
d="M375 -8q-95 0 -164 44t-106.5 125t-37.5 192q0 112 37 192.5t106 124t165 43.5t165.5 -43.5t106.5 -124t37 -191.5q0 -112 -37.5 -193t-106.5 -125t-165 -44zM375 33q126 0 195 84t69 236t-68.5 235.5t-195.5 83.5q-125 0 -194 -83.5t-69 -235.5q0 -151 69 -235.5
t194 -84.5zM413 -190q-41 0 -67.5 25t-26.5 67q0 38 23.5 72.5t66.5 56.5l21 -31q-15 -6 -31.5 -19t-28.5 -32t-12 -43q0 -31 17.5 -45.5t42.5 -14.5q26 0 53 13l13 -32q-24 -17 -71 -17z" />
    <glyph glyph-name="uni01EB" unicode="&#x1eb;" horiz-adv-x="538" 
d="M269 -8q-66 0 -114.5 31t-75 87t-26.5 132t26.5 132t75 87t114.5 31t114.5 -31t75 -87t26.5 -132t-26.5 -132t-75 -87t-114.5 -31zM269 31q80 0 126.5 55.5t46.5 155.5t-46.5 155.5t-126.5 55.5q-79 0 -126 -55.5t-47 -155.5t47 -155.5t126 -55.5zM311 -190
q-41 0 -67.5 25t-26.5 67q0 38 23.5 72.5t66.5 56.5l21 -31q-15 -6 -31.5 -19t-28.5 -32t-12 -43q0 -31 17.5 -45.5t42.5 -14.5q26 0 53 13l13 -32q-24 -17 -71 -17z" />
    <glyph glyph-name="uni01EF" unicode="&#x1ef;" horiz-adv-x="476" 
d="M224 -188q-64 0 -116 16.5t-85 45.5l20 34q36 -29 79.5 -43t101.5 -14q86 0 130 42.5t44 123.5q0 71 -42.5 110t-119.5 39h-108v23l226 258h-316v37h373v-30l-221 -250h44q98 0 152.5 -49t54.5 -138q0 -96 -57 -150.5t-160 -54.5zM200 549l-109 200h35l98 -161l98 161h35
l-109 -200h-48z" />
    <glyph glyph-name="Aringacute" unicode="&#x1fa;" horiz-adv-x="716" 
d="M35 0l303 705h40l303 -705h-45l-84 195h-389l-83 -195h-45zM357 648l-176 -414h354l-176 414h-2zM359 760q-47 0 -79.5 32t-32.5 78t32.5 78t79.5 32q38 0 68 -22l76 71h61l-113 -95q20 -28 20 -64q0 -46 -32.5 -78t-79.5 -32zM359 792q35 0 56.5 22.5t21.5 55.5
t-21.5 55.5t-56.5 22.5q-34 0 -56 -22.5t-22 -55.5t22 -55.5t56 -22.5z" />
    <glyph glyph-name="aringacute" unicode="&#x1fb;" horiz-adv-x="514" 
d="M231 -8q-47 0 -85 19t-60 51.5t-22 72.5q0 54 26.5 84.5t91 43t177.5 12.5h30v40q0 72 -28 105t-90 33q-45 0 -84.5 -13t-82.5 -42l-20 36q38 27 87.5 42.5t97.5 15.5q83 0 122.5 -43t39.5 -134v-315h-41v90q-21 -46 -62.5 -72t-96.5 -26zM234 30q46 0 80.5 22.5t54.5 61
t20 87.5v37h-28q-99 0 -153.5 -8.5t-76 -30t-21.5 -60.5q0 -48 33.5 -78.5t90.5 -30.5zM265 547q-47 0 -79.5 32t-32.5 78t32.5 78t79.5 32q38 0 68 -22l76 71h61l-113 -95q20 -28 20 -64q0 -46 -32.5 -78t-79.5 -32zM265 579q35 0 56.5 22.5t21.5 55.5t-21.5 55.5
t-56.5 22.5q-34 0 -56 -22.5t-22 -55.5t22 -55.5t56 -22.5z" />
    <glyph glyph-name="AEacute" unicode="&#x1fc;" horiz-adv-x="971" 
d="M2 0l420 705h499v-39h-450l61 -289h369v-39h-361l63 -299h318v-39h-350l-41 195h-365l-116 -195h-47zM433 648l-245 -414h334l-87 414h-2zM467 765l118 170h56l-136 -170h-38z" />
    <glyph glyph-name="aeacute" unicode="&#x1fd;" horiz-adv-x="857" 
d="M233 -8q-48 0 -86 19t-60.5 51.5t-22.5 72.5q0 54 27.5 84.5t92 42.5t175.5 12h35v38q0 74 -29.5 107.5t-91.5 33.5q-46 0 -86 -12.5t-83 -41.5l-20 35q38 27 87.5 42.5t99.5 15.5q67 0 105.5 -27.5t53.5 -79.5q57 107 186 107q90 0 141.5 -61.5t51.5 -170.5v-23h-372
q2 -98 49 -152t134 -54q44 0 83 15t78 48l20 -34q-31 -31 -79.5 -49.5t-97.5 -18.5q-78 0 -131.5 34t-78.5 100q-19 -62 -66 -98t-115 -36zM612 454q-75 0 -121.5 -49t-52.5 -131h332q-3 83 -43 131.5t-115 48.5zM236 30q48 0 83.5 23t55 63.5t19.5 91.5v29h-33
q-99 0 -153.5 -8t-76 -29.5t-21.5 -60.5q0 -48 34 -78.5t92 -30.5zM398 549l104 200h54l-122 -200h-36z" />
    <glyph glyph-name="Oslashacute" unicode="&#x1fe;" horiz-adv-x="751" 
d="M375 -8q-95 0 -164 44t-106.5 125t-37.5 192q0 112 37 192.5t106 124t165 43.5t165.5 -43.5t106.5 -124t37 -191.5q0 -112 -37.5 -193t-106.5 -125t-165 -44zM375 33q126 0 195 84t69 236t-68.5 235.5t-195.5 83.5q-125 0 -194 -83.5t-69 -235.5q0 -151 69 -235.5
t194 -84.5zM171 -35l-33 18l46 79l13 22l324 556l13 22l46 78l33 -18l-46 -79l-13 -22l-324 -556l-13 -22zM356 765l118 170h56l-136 -170h-38z" />
    <glyph glyph-name="oslashacute" unicode="&#x1ff;" horiz-adv-x="538" 
d="M127 -39l-30 19l35 60q-38 32 -58.5 83.5t-20.5 118.5q0 76 26.5 132t75 87t114.5 31q61 0 108 -27l34 58l30 -19l-35 -60q38 -32 58.5 -83.5t20.5 -118.5q0 -76 -26.5 -132t-75 -87t-114.5 -31q-61 0 -108 27zM96 242q0 -55 14.5 -97t41.5 -69l205 354q-38 23 -88 23
q-79 0 -126 -55.5t-47 -155.5zM269 31q80 0 126.5 55.5t46.5 155.5q0 55 -14.5 97t-41.5 69l-205 -354q38 -23 88 -23zM250 549l104 200h54l-122 -200h-36z" />
    <glyph glyph-name="uni0200" unicode="&#x200;" horiz-adv-x="716" 
d="M35 0l303 705h40l303 -705h-45l-84 195h-389l-83 -195h-45zM357 648l-176 -414h354l-176 414h-2zM400 765l-111 170h52l86 -170h-27zM291 765l-110 170h52l85 -170h-27z" />
    <glyph glyph-name="uni0201" unicode="&#x201;" horiz-adv-x="514" 
d="M231 -8q-47 0 -85 19t-60 51.5t-22 72.5q0 54 26.5 84.5t91 43t177.5 12.5h30v40q0 72 -28 105t-90 33q-45 0 -84.5 -13t-82.5 -42l-20 36q38 27 87.5 42.5t97.5 15.5q83 0 122.5 -43t39.5 -134v-315h-41v90q-21 -46 -62.5 -72t-96.5 -26zM234 30q46 0 80.5 22.5t54.5 61
t20 87.5v37h-28q-99 0 -153.5 -8.5t-76 -30t-21.5 -60.5q0 -48 33.5 -78.5t90.5 -30.5zM306 549l-79 200h48l58 -200h-27zM197 549l-79 200h48l58 -200h-27z" />
    <glyph glyph-name="uni0202" unicode="&#x202;" horiz-adv-x="716" 
d="M35 0l303 705h40l303 -705h-45l-84 195h-389l-83 -195h-45zM357 648l-176 -414h354l-176 414h-2zM235 760l-33 4q7 78 50 122.5t107 44.5t107 -44.5t50 -122.5l-33 -4q-4 65 -37.5 100t-86.5 35t-86 -35t-38 -100z" />
    <glyph glyph-name="uni0203" unicode="&#x203;" horiz-adv-x="514" 
d="M231 -8q-47 0 -85 19t-60 51.5t-22 72.5q0 54 26.5 84.5t91 43t177.5 12.5h30v40q0 72 -28 105t-90 33q-45 0 -84.5 -13t-82.5 -42l-20 36q38 27 87.5 42.5t97.5 15.5q83 0 122.5 -43t39.5 -134v-315h-41v90q-21 -46 -62.5 -72t-96.5 -26zM234 30q46 0 80.5 22.5t54.5 61
t20 87.5v37h-28q-99 0 -153.5 -8.5t-76 -30t-21.5 -60.5q0 -48 33.5 -78.5t90.5 -30.5zM154 547l-33 4q5 88 43.5 137.5t100.5 49.5t100.5 -49.5t43.5 -137.5l-33 -4q-4 74 -32.5 114.5t-78.5 40.5q-49 0 -78 -40.5t-33 -114.5z" />
    <glyph glyph-name="uni0204" unicode="&#x204;" horiz-adv-x="570" 
d="M96 0v705h424v-39h-382v-289h362v-39h-362v-299h382v-39h-424zM361 765l-111 170h52l86 -170h-27zM252 765l-110 170h52l85 -170h-27z" />
    <glyph glyph-name="uni0205" unicode="&#x205;" horiz-adv-x="523" 
d="M286 -8q-108 0 -170.5 66.5t-62.5 181.5q0 76 28.5 132.5t79 88t116.5 31.5q94 0 146 -61.5t52 -170.5v-26h-379q2 -97 51 -150t137 -53q45 0 84.5 14.5t78.5 48.5l20 -34q-31 -31 -80 -49.5t-101 -18.5zM276 454q-81 0 -126.5 -52t-52.5 -131h339q-3 85 -43 134t-117 49
zM318 549l-79 200h48l58 -200h-27zM209 549l-79 200h48l58 -200h-27z" />
    <glyph glyph-name="uni0206" unicode="&#x206;" horiz-adv-x="570" 
d="M96 0v705h424v-39h-382v-289h362v-39h-362v-299h382v-39h-424zM196 760l-33 4q7 78 50 122.5t107 44.5t107 -44.5t50 -122.5l-33 -4q-4 65 -37.5 100t-86.5 35t-86 -35t-38 -100z" />
    <glyph glyph-name="uni0207" unicode="&#x207;" horiz-adv-x="523" 
d="M286 -8q-108 0 -170.5 66.5t-62.5 181.5q0 76 28.5 132.5t79 88t116.5 31.5q94 0 146 -61.5t52 -170.5v-26h-379q2 -97 51 -150t137 -53q45 0 84.5 14.5t78.5 48.5l20 -34q-31 -31 -80 -49.5t-101 -18.5zM276 454q-81 0 -126.5 -52t-52.5 -131h339q-3 85 -43 134t-117 49
zM166 547l-33 4q5 88 43.5 137.5t100.5 49.5t100.5 -49.5t43.5 -137.5l-33 -4q-4 74 -32.5 114.5t-78.5 40.5q-49 0 -78 -40.5t-33 -114.5z" />
    <glyph glyph-name="uni0208" unicode="&#x208;" horiz-adv-x="234" 
d="M96 0v705h42v-705h-42zM158 765l-111 170h52l86 -170h-27zM49 765l-110 170h52l85 -170h-27z" />
    <glyph glyph-name="uni0209" unicode="&#x209;" horiz-adv-x="212" 
d="M85 0v484h42v-484h-42zM147 549l-79 200h48l58 -200h-27zM38 549l-79 200h48l58 -200h-27z" />
    <glyph glyph-name="uni020A" unicode="&#x20a;" horiz-adv-x="234" 
d="M96 0v705h42v-705h-42zM-7 760l-33 4q7 78 50 122.5t107 44.5t107 -44.5t50 -122.5l-33 -4q-4 65 -37.5 100t-86.5 35t-86 -35t-38 -100z" />
    <glyph glyph-name="uni020B" unicode="&#x20b;" horiz-adv-x="212" 
d="M85 0v484h42v-484h-42zM-5 547l-33 4q5 88 43.5 137.5t100.5 49.5t100.5 -49.5t43.5 -137.5l-33 -4q-4 74 -32.5 114.5t-78.5 40.5q-49 0 -78 -40.5t-33 -114.5z" />
    <glyph glyph-name="uni020C" unicode="&#x20c;" horiz-adv-x="751" 
d="M375 -8q-95 0 -164 44t-106.5 125t-37.5 192q0 112 37 192.5t106 124t165 43.5t165.5 -43.5t106.5 -124t37 -191.5q0 -112 -37.5 -193t-106.5 -125t-165 -44zM375 33q126 0 195 84t69 236t-68.5 235.5t-195.5 83.5q-125 0 -194 -83.5t-69 -235.5q0 -151 69 -235.5
t194 -84.5zM416 765l-111 170h52l86 -170h-27zM307 765l-110 170h52l85 -170h-27z" />
    <glyph glyph-name="uni020D" unicode="&#x20d;" horiz-adv-x="538" 
d="M269 -8q-66 0 -114.5 31t-75 87t-26.5 132t26.5 132t75 87t114.5 31t114.5 -31t75 -87t26.5 -132t-26.5 -132t-75 -87t-114.5 -31zM269 31q80 0 126.5 55.5t46.5 155.5t-46.5 155.5t-126.5 55.5q-79 0 -126 -55.5t-47 -155.5t47 -155.5t126 -55.5zM310 549l-79 200h48
l58 -200h-27zM201 549l-79 200h48l58 -200h-27z" />
    <glyph glyph-name="uni020E" unicode="&#x20e;" horiz-adv-x="751" 
d="M375 -8q-95 0 -164 44t-106.5 125t-37.5 192q0 112 37 192.5t106 124t165 43.5t165.5 -43.5t106.5 -124t37 -191.5q0 -112 -37.5 -193t-106.5 -125t-165 -44zM375 33q126 0 195 84t69 236t-68.5 235.5t-195.5 83.5q-125 0 -194 -83.5t-69 -235.5q0 -151 69 -235.5
t194 -84.5zM251 760l-33 4q7 78 50 122.5t107 44.5t107 -44.5t50 -122.5l-33 -4q-4 65 -37.5 100t-86.5 35t-86 -35t-38 -100z" />
    <glyph glyph-name="uni020F" unicode="&#x20f;" horiz-adv-x="538" 
d="M269 -8q-66 0 -114.5 31t-75 87t-26.5 132t26.5 132t75 87t114.5 31t114.5 -31t75 -87t26.5 -132t-26.5 -132t-75 -87t-114.5 -31zM269 31q80 0 126.5 55.5t46.5 155.5t-46.5 155.5t-126.5 55.5q-79 0 -126 -55.5t-47 -155.5t47 -155.5t126 -55.5zM158 547l-33 4
q5 88 43.5 137.5t100.5 49.5t100.5 -49.5t43.5 -137.5l-33 -4q-4 74 -32.5 114.5t-78.5 40.5q-49 0 -78 -40.5t-33 -114.5z" />
    <glyph glyph-name="uni0210" unicode="&#x210;" horiz-adv-x="654" 
d="M96 0v705h255q111 0 170 -51t59 -146q0 -78 -44 -126.5t-124 -61.5q42 -16 75 -78l131 -242h-46l-122 226q-28 52 -62 69t-93 17h-157v-312h-42zM138 351h209q189 0 189 158q0 157 -189 157h-209v-315zM375 765l-111 170h52l86 -170h-27zM266 765l-110 170h52l85 -170
h-27z" />
    <glyph glyph-name="uni0211" unicode="&#x211;" horiz-adv-x="327" 
d="M85 0v484h41v-88q22 46 62.5 69.5t103.5 28.5l21 2l5 -38l-34 -4q-74 -7 -115.5 -50t-41.5 -114v-290h-42zM245 549l-79 200h48l58 -200h-27zM136 549l-79 200h48l58 -200h-27z" />
    <glyph glyph-name="uni0212" unicode="&#x212;" horiz-adv-x="654" 
d="M96 0v705h255q111 0 170 -51t59 -146q0 -78 -44 -126.5t-124 -61.5q42 -16 75 -78l131 -242h-46l-122 226q-28 52 -62 69t-93 17h-157v-312h-42zM138 351h209q189 0 189 158q0 157 -189 157h-209v-315zM210 760l-33 4q7 78 50 122.5t107 44.5t107 -44.5t50 -122.5l-33 -4
q-4 65 -37.5 100t-86.5 35t-86 -35t-38 -100z" />
    <glyph glyph-name="uni0213" unicode="&#x213;" horiz-adv-x="327" 
d="M85 0v484h41v-88q22 46 62.5 69.5t103.5 28.5l21 2l5 -38l-34 -4q-74 -7 -115.5 -50t-41.5 -114v-290h-42zM93 547l-33 4q5 88 43.5 137.5t100.5 49.5t100.5 -49.5t43.5 -137.5l-33 -4q-4 74 -32.5 114.5t-78.5 40.5q-49 0 -78 -40.5t-33 -114.5z" />
    <glyph glyph-name="uni0214" unicode="&#x214;" horiz-adv-x="720" 
d="M360 -8q-132 0 -200.5 71.5t-68.5 207.5v434h42v-428q0 -244 227 -244t227 244v428h42v-434q0 -136 -68.5 -207.5t-200.5 -71.5zM401 765l-111 170h52l86 -170h-27zM292 765l-110 170h52l85 -170h-27z" />
    <glyph glyph-name="uni0215" unicode="&#x215;" horiz-adv-x="545" 
d="M254 -8q-86 0 -128.5 47t-42.5 138v307h42v-303q0 -76 31 -113t98 -37q73 0 118.5 48.5t45.5 127.5v277h42v-484h-41v90q-23 -48 -67 -73t-98 -25zM314 550l-79 200h48l58 -200h-27zM205 550l-79 200h48l58 -200h-27z" />
    <glyph glyph-name="uni0216" unicode="&#x216;" horiz-adv-x="720" 
d="M360 -8q-132 0 -200.5 71.5t-68.5 207.5v434h42v-428q0 -244 227 -244t227 244v428h42v-434q0 -136 -68.5 -207.5t-200.5 -71.5zM236 760l-33 4q7 78 50 122.5t107 44.5t107 -44.5t50 -122.5l-33 -4q-4 65 -37.5 100t-86.5 35t-86 -35t-38 -100z" />
    <glyph glyph-name="uni0217" unicode="&#x217;" horiz-adv-x="545" 
d="M254 -8q-86 0 -128.5 47t-42.5 138v307h42v-303q0 -76 31 -113t98 -37q73 0 118.5 48.5t45.5 127.5v277h42v-484h-41v90q-23 -48 -67 -73t-98 -25zM162 548l-33 4q5 88 43.5 137.5t100.5 49.5t100.5 -49.5t43.5 -137.5l-33 -4q-4 74 -32.5 114.5t-78.5 40.5
q-49 0 -78 -40.5t-33 -114.5z" />
    <glyph glyph-name="uni0218" unicode="&#x218;" horiz-adv-x="600" 
d="M310 -8q-82 0 -146 22t-112 65l20 36q53 -43 106 -62.5t132 -19.5q100 0 150.5 40t50.5 106q0 54 -37 84.5t-121 47.5l-99 20q-94 19 -140 63t-46 119q0 60 30.5 105t85 70t124.5 25q145 0 231 -91l-20 -36q-47 46 -97 66t-114 20q-88 0 -142 -43.5t-54 -115.5
q0 -58 34 -91.5t110 -48.5l99 -20q102 -21 151 -61.5t49 -111.5q0 -55 -29.5 -97.5t-84.5 -66.5t-131 -24zM298 -259l-26 20q21 24 29 44.5t9 43.5h-35v65h70v-54q0 -70 -47 -119z" />
    <glyph glyph-name="uni0219" unicode="&#x219;" horiz-adv-x="475" 
d="M236 -8q-52 0 -100 16.5t-79 47.5l20 34q36 -31 77.5 -45t84.5 -14q65 0 99.5 25t34.5 68q0 34 -22.5 53.5t-72.5 31.5l-83 20q-63 15 -92.5 46t-29.5 80q0 62 47.5 99.5t126.5 37.5q50 0 92.5 -17t68.5 -48l-20 -34q-58 60 -142 60q-61 0 -95 -26.5t-34 -70.5
q0 -34 21 -55t67 -32l83 -20q65 -16 97 -45t32 -78q0 -61 -49 -97.5t-132 -36.5zM224 -259l-26 20q21 24 29 44.5t9 43.5h-35v65h70v-54q0 -70 -47 -119z" />
    <glyph glyph-name="uni021A" unicode="&#x21a;" horiz-adv-x="586" 
d="M272 0v666h-269v39h580v-39h-269v-666h-42zM281 -259l-26 20q21 24 29 44.5t9 43.5h-35v65h70v-54q0 -70 -47 -119z" />
    <glyph glyph-name="uni021B" unicode="&#x21b;" horiz-adv-x="320" 
d="M255 -8q-76 0 -114 43t-38 121v292h-97v36h97v151h42v-151h159v-36h-159v-283q0 -65 26 -99.5t87 -34.5q18 0 34.5 4.5t27.5 8.5l10 -35q-9 -6 -32 -11.5t-43 -5.5zM191 -259l-26 20q21 24 29 44.5t9 43.5h-35v65h70v-54q0 -70 -47 -119z" />
    <glyph glyph-name="uni021F" unicode="&#x21f;" horiz-adv-x="553" 
d="M85 0v705h42v-309q24 48 69 72t101 24q173 0 173 -184v-308h-42v304q0 77 -31 113t-100 36q-77 0 -123.5 -47.5t-46.5 -127.5v-278h-42zM254 765l-121 170h37l108 -132l108 132h37l-121 -170h-48z" />
    <glyph glyph-name="uni0226" unicode="&#x226;" horiz-adv-x="716" 
d="M35 0l303 705h40l303 -705h-45l-84 195h-389l-83 -195h-45zM357 648l-176 -414h354l-176 414h-2zM328 818v63h62v-63h-62z" />
    <glyph glyph-name="uni0227" unicode="&#x227;" horiz-adv-x="514" 
d="M231 -8q-47 0 -85 19t-60 51.5t-22 72.5q0 54 26.5 84.5t91 43t177.5 12.5h30v40q0 72 -28 105t-90 33q-45 0 -84.5 -13t-82.5 -42l-20 36q38 27 87.5 42.5t97.5 15.5q83 0 122.5 -43t39.5 -134v-315h-41v90q-21 -46 -62.5 -72t-96.5 -26zM234 30q46 0 80.5 22.5t54.5 61
t20 87.5v37h-28q-99 0 -153.5 -8.5t-76 -30t-21.5 -60.5q0 -48 33.5 -78.5t90.5 -30.5zM233 619v63h64v-63h-64z" />
    <glyph glyph-name="uni0228" unicode="&#x228;" horiz-adv-x="570" 
d="M96 0v705h424v-39h-382v-289h362v-39h-362v-299h382v-39h-424zM325 -190q-49 0 -78 18l9 34q19 -9 34 -12.5t39 -3.5q27 0 44.5 11t17.5 32q0 32 -39 32q-11 0 -22.5 -2t-28.5 -8l-15 13l15 96h38l-12 -69q15 3 26 3q32 0 55 -17t23 -48q0 -35 -29.5 -57t-76.5 -22z" />
    <glyph glyph-name="uni022A" unicode="&#x22a;" horiz-adv-x="751" 
d="M375 -8q-95 0 -164 44t-106.5 125t-37.5 192q0 112 37 192.5t106 124t165 43.5t165.5 -43.5t106.5 -124t37 -191.5q0 -112 -37.5 -193t-106.5 -125t-165 -44zM375 33q126 0 195 84t69 236t-68.5 235.5t-195.5 83.5q-125 0 -194 -83.5t-69 -235.5q0 -151 69 -235.5
t194 -84.5zM235 927v38h280v-38h-280zM264 806v60h61v-60h-61zM425 806v60h61v-60h-61z" />
    <glyph glyph-name="uni022B" unicode="&#x22b;" horiz-adv-x="538" 
d="M269 -8q-66 0 -114.5 31t-75 87t-26.5 132t26.5 132t75 87t114.5 31t114.5 -31t75 -87t26.5 -132t-26.5 -132t-75 -87t-114.5 -31zM269 31q80 0 126.5 55.5t46.5 155.5t-46.5 155.5t-126.5 55.5q-79 0 -126 -55.5t-47 -155.5t47 -155.5t126 -55.5zM129 706v38h280v-38
h-280zM158 585v60h61v-60h-61zM319 585v60h61v-60h-61z" />
    <glyph glyph-name="uni022C" unicode="&#x22c;" horiz-adv-x="751" 
d="M375 -8q-95 0 -164 44t-106.5 125t-37.5 192q0 112 37 192.5t106 124t165 43.5t165.5 -43.5t106.5 -124t37 -191.5q0 -112 -37.5 -193t-106.5 -125t-165 -44zM375 33q126 0 195 84t69 236t-68.5 235.5t-195.5 83.5q-125 0 -194 -83.5t-69 -235.5q0 -151 69 -235.5
t194 -84.5zM235 927v38h280v-38h-280zM439 768q-18 0 -34.5 8t-39.5 26q-20 17 -31.5 21.5t-21.5 4.5q-22 0 -33.5 -14.5t-16.5 -47.5l-33 2q5 48 27 72t56 24q17 0 32 -7t37 -24t34 -23t23 -6q23 0 34 14.5t16 47.5l33 -2q-4 -48 -26 -72t-56 -24z" />
    <glyph glyph-name="uni022D" unicode="&#x22d;" horiz-adv-x="538" 
d="M269 -8q-66 0 -114.5 31t-75 87t-26.5 132t26.5 132t75 87t114.5 31t114.5 -31t75 -87t26.5 -132t-26.5 -132t-75 -87t-114.5 -31zM269 31q80 0 126.5 55.5t46.5 155.5t-46.5 155.5t-126.5 55.5q-79 0 -126 -55.5t-47 -155.5t47 -155.5t126 -55.5zM129 706v38h280v-38
h-280zM156 545l-33 2q5 48 27 72t56 24q17 0 33.5 -7.5t38.5 -25.5q19 -15 30.5 -21t23.5 -6q23 0 34 14.5t16 47.5l33 -2q-4 -48 -26 -72t-56 -24q-18 0 -34.5 8t-38.5 25q-34 27 -54 27q-22 0 -33.5 -14.5t-16.5 -47.5z" />
    <glyph glyph-name="uni0230" unicode="&#x230;" horiz-adv-x="751" 
d="M375 -8q-95 0 -164 44t-106.5 125t-37.5 192q0 112 37 192.5t106 124t165 43.5t165.5 -43.5t106.5 -124t37 -191.5q0 -112 -37.5 -193t-106.5 -125t-165 -44zM375 33q126 0 195 84t69 236t-68.5 235.5t-195.5 83.5q-125 0 -194 -83.5t-69 -235.5q0 -151 69 -235.5
t194 -84.5zM235 927v38h280v-38h-280zM345 806v60h61v-60h-61z" />
    <glyph glyph-name="uni0231" unicode="&#x231;" horiz-adv-x="538" 
d="M269 -8q-66 0 -114.5 31t-75 87t-26.5 132t26.5 132t75 87t114.5 31t114.5 -31t75 -87t26.5 -132t-26.5 -132t-75 -87t-114.5 -31zM269 31q80 0 126.5 55.5t46.5 155.5t-46.5 155.5t-126.5 55.5q-79 0 -126 -55.5t-47 -155.5t47 -155.5t126 -55.5zM129 706v38h280v-38
h-280zM239 585v60h61v-60h-61z" />
    <glyph glyph-name="uni0232" unicode="&#x232;" horiz-adv-x="577" 
d="M267 0v343l-268 362h49l242 -327l241 327h47l-269 -363v-342h-42zM133 822v38h310v-38h-310z" />
    <glyph glyph-name="uni0233" unicode="&#x233;" horiz-adv-x="504" 
d="M152 -180l77 177l-207 487h48l182 -440l183 440h48l-284 -664h-47zM112 633v38h280v-38h-280z" />
    <glyph glyph-name="uni0237" unicode="&#x237;" horiz-adv-x="215" 
d="M-55 -193l-3 38l41 3q105 8 105 130v506h42v-505q0 -77 -37 -120.5t-105 -48.5z" />
    <glyph glyph-name="uni0253" unicode="&#x253;" horiz-adv-x="568" 
d="M300 -8q-61 0 -106 27.5t-67 75.5v-95h-42v564q0 73 36.5 111t105.5 38q26 0 47 -7l-6 -37q-13 4 -21 5t-18 1q-51 0 -76.5 -28t-25.5 -81v-177q22 48 67 75.5t106 27.5q99 0 157 -67.5t58 -182.5q0 -76 -26.5 -132.5t-74.5 -87t-114 -30.5zM299 31q80 0 126.5 55.5
t46.5 155.5t-46.5 155.5t-126.5 55.5q-79 0 -126 -55.5t-47 -155.5t47 -155.5t126 -55.5z" />
    <glyph glyph-name="uni0257" unicode="&#x257;" horiz-adv-x="568" 
d="M268 -8q-65 0 -113.5 30.5t-75 87t-26.5 132.5q0 115 58 182.5t157 67.5q61 0 106 -27.5t67 -75.5v175q0 73 36.5 111t105.5 38q26 0 47 -7l-6 -37q-13 4 -21 5t-18 1q-51 0 -76.5 -28t-25.5 -81v-566h-42v95q-22 -48 -67 -75.5t-106 -27.5zM269 31q80 0 126.5 55.5
t46.5 155.5t-46.5 155.5t-126.5 55.5q-79 0 -126 -55.5t-47 -155.5t47 -155.5t126 -55.5z" />
    <glyph glyph-name="uni0259" unicode="&#x259;" horiz-adv-x="523" 
d="M252 -8q-97 0 -150.5 61.5t-53.5 173.5v23h379q-2 96 -51 149.5t-137 53.5t-163 -62l-20 33q31 32 80 50t101 18q108 0 170.5 -66t62.5 -181q0 -77 -27.5 -134t-76.5 -88t-114 -31zM253 30q74 0 120.5 48t52.5 135h-337q3 -88 44.5 -135.5t119.5 -47.5z" />
    <glyph glyph-name="uni0292" unicode="&#x292;" horiz-adv-x="476" 
d="M224 -188q-64 0 -116 16.5t-85 45.5l20 34q36 -29 79.5 -43t101.5 -14q86 0 130 42.5t44 123.5q0 71 -42.5 110t-119.5 39h-108v23l226 258h-316v37h373v-30l-221 -250h44q98 0 152.5 -49t54.5 -138q0 -96 -57 -150.5t-160 -54.5z" />
    <glyph glyph-name="uni02B9" unicode="&#x2b9;" horiz-adv-x="202" 
d="M88 440l-13 265h52l-11 -265h-28z" />
    <glyph glyph-name="uni02BA" unicode="&#x2ba;" horiz-adv-x="342" 
d="M88 440l-13 265h52l-11 -265h-28zM228 440l-13 265h52l-11 -265h-28z" />
    <glyph glyph-name="uni02BB" unicode="&#x2bb;" horiz-adv-x="500" 
d="M215 570v55q0 32 9.5 60t34.5 53l26 -20q-20 -22 -26 -41t-7 -37h32v-70h-69z" />
    <glyph glyph-name="uni02BC" unicode="&#x2bc;" horiz-adv-x="300" 
d="M141 575l-26 20q20 22 26 41t7 37h-32v70h69v-55q0 -31 -9 -59.5t-35 -53.5z" />
    <glyph glyph-name="uni02BE" unicode="&#x2be;" horiz-adv-x="500" 
d="M250 556v35q26 0 41.5 17.5t15.5 41.5q0 25 -15.5 42t-41.5 17v36q42 0 69.5 -27.5t27.5 -67.5t-27.5 -67t-69.5 -27z" />
    <glyph glyph-name="uni02BF" unicode="&#x2bf;" horiz-adv-x="500" 
d="M250 556q-42 0 -69.5 27t-27.5 67t27.5 67.5t69.5 27.5v-36q-25 0 -41 -17t-16 -42q0 -24 16 -41.5t41 -17.5v-35z" />
    <glyph glyph-name="circumflex" unicode="&#x2c6;" horiz-adv-x="500" 
d="M117 549l109 200h48l109 -200h-35l-98 161l-98 -161h-35z" />
    <glyph glyph-name="caron" unicode="&#x2c7;" horiz-adv-x="500" 
d="M226 549l-109 200h35l98 -161l98 161h35l-109 -200h-48z" />
    <glyph glyph-name="uni02C8" unicode="&#x2c8;" horiz-adv-x="500" 
d="M229 596v198h42v-198h-42z" />
    <glyph glyph-name="uni02C9" unicode="&#x2c9;" horiz-adv-x="500" 
d="M110 633v38h280v-38h-280z" />
    <glyph glyph-name="uni02CA" unicode="&#x2ca;" horiz-adv-x="500" 
d="M232 549l104 200h54l-122 -200h-36z" />
    <glyph glyph-name="fourthtofinechinese" unicode="&#x2cb;" horiz-adv-x="500" 
d="M232 549l-122 200h54l104 -200h-36z" />
    <glyph glyph-name="uni02CC" unicode="&#x2cc;" horiz-adv-x="500" 
d="M229 -270v198h42v-198h-42z" />
    <glyph glyph-name="breve" unicode="&#x2d8;" horiz-adv-x="500" 
d="M250 547q-62 0 -100.5 49.5t-43.5 137.5l33 4q4 -74 33 -114.5t78 -40.5q50 0 78.5 40.5t32.5 114.5l33 -4q-5 -88 -43.5 -137.5t-100.5 -49.5z" />
    <glyph glyph-name="dotaccent" unicode="&#x2d9;" horiz-adv-x="500" 
d="M218 619v63h64v-63h-64z" />
    <glyph glyph-name="ring" unicode="&#x2da;" horiz-adv-x="500" 
d="M250 547q-47 0 -79.5 32t-32.5 78t32.5 78t79.5 32t79.5 -32t32.5 -78t-32.5 -78t-79.5 -32zM250 579q35 0 56.5 22.5t21.5 55.5t-21.5 55.5t-56.5 22.5q-34 0 -56 -22.5t-22 -55.5t22 -55.5t56 -22.5z" />
    <glyph glyph-name="ogonek" unicode="&#x2db;" horiz-adv-x="500" 
d="M233 -190q-41 0 -67.5 25t-26.5 67q0 38 23.5 72.5t66.5 56.5l21 -31q-15 -6 -31.5 -19t-28.5 -32t-12 -43q0 -31 17.5 -45.5t42.5 -14.5q26 0 53 13l13 -32q-24 -17 -71 -17z" />
    <glyph glyph-name="tilde" unicode="&#x2dc;" horiz-adv-x="500" 
d="M114 595l-32 2q6 58 31 89.5t65 31.5q21 0 39.5 -11.5t42.5 -35.5q22 -22 35.5 -30t26.5 -8q52 0 64 87l32 -2q-6 -58 -31 -89.5t-64 -31.5q-20 0 -38.5 11.5t-44.5 35.5q-22 21 -35 29.5t-27 8.5q-52 0 -64 -87z" />
    <glyph glyph-name="hungarumlaut" unicode="&#x2dd;" horiz-adv-x="500" 
d="M291 549l58 200h48l-79 -200h-27zM182 549l58 200h48l-79 -200h-27z" />
    <glyph glyph-name="gravecomb" unicode="&#x300;" 
d="M-18 549l-122 200h54l104 -200h-36z" />
    <glyph glyph-name="acutecomb" unicode="&#x301;" 
d="M-18 549l104 200h54l-122 -200h-36z" />
    <glyph glyph-name="uni0302" unicode="&#x302;" 
d="M-133 549l109 200h48l109 -200h-35l-98 161l-98 -161h-35z" />
    <glyph glyph-name="tildecomb" unicode="&#x303;" 
d="M-136 595l-32 2q6 58 31 89.5t65 31.5q21 0 39.5 -11.5t42.5 -35.5q22 -22 35.5 -30t26.5 -8q52 0 64 87l32 -2q-6 -58 -31 -89.5t-64 -31.5q-20 0 -38.5 11.5t-44.5 35.5q-22 21 -35 29.5t-27 8.5q-52 0 -64 -87z" />
    <glyph glyph-name="uni0304" unicode="&#x304;" 
d="M-140 633v38h280v-38h-280z" />
    <glyph glyph-name="uni0306" unicode="&#x306;" 
d="M0 547q-62 0 -100.5 49.5t-43.5 137.5l33 4q4 -74 33 -114.5t78 -40.5q50 0 78.5 40.5t32.5 114.5l33 -4q-5 -88 -43.5 -137.5t-100.5 -49.5z" />
    <glyph glyph-name="uni0307" unicode="&#x307;" 
d="M-32 619v63h64v-63h-64z" />
    <glyph glyph-name="uni0308" unicode="&#x308;" 
d="M50 620v60h61v-60h-61zM-111 620v60h61v-60h-61z" />
    <glyph glyph-name="hookabovecomb" unicode="&#x309;" 
d="M-18 549v20q0 25 10.5 40.5t23.5 27t23.5 23t10.5 27.5q0 31 -52 31q-15 0 -30.5 -3.5t-34.5 -12.5l-9 32q16 11 36 15.5t42 4.5q42 0 65.5 -17t23.5 -48q0 -25 -11 -39.5t-25.5 -25.5t-25.5 -24.5t-11 -35.5v-15h-36z" />
    <glyph glyph-name="uni030A" unicode="&#x30a;" 
d="M0 547q-47 0 -79.5 32t-32.5 78t32.5 78t79.5 32t79.5 -32t32.5 -78t-32.5 -78t-79.5 -32zM0 579q35 0 56.5 22.5t21.5 55.5t-21.5 55.5t-56.5 22.5q-34 0 -56 -22.5t-22 -55.5t22 -55.5t56 -22.5z" />
    <glyph glyph-name="uni030B" unicode="&#x30b;" 
d="M41 549l58 200h48l-79 -200h-27zM-68 549l58 200h48l-79 -200h-27z" />
    <glyph glyph-name="uni030C" unicode="&#x30c;" 
d="M-24 549l-109 200h35l98 -161l98 161h35l-109 -200h-48z" />
    <glyph glyph-name="uni030F" unicode="&#x30f;" 
d="M41 549l-79 200h48l58 -200h-27zM-68 549l-79 200h48l58 -200h-27z" />
    <glyph glyph-name="uni0311" unicode="&#x311;" 
d="M-111 547l-33 4q5 88 43.5 137.5t100.5 49.5t100.5 -49.5t43.5 -137.5l-33 -4q-4 74 -32.5 114.5t-78.5 40.5q-49 0 -78 -40.5t-33 -114.5z" />
    <glyph glyph-name="uni0312" unicode="&#x312;" 
d="M-35 570v54q0 70 47 119l26 -20q-21 -24 -29 -44.5t-9 -43.5h35v-65h-70z" />
    <glyph glyph-name="uni031B" unicode="&#x31b;" 
d="M14 446l-15 13v25q73 1 96.5 31.5t23.5 88.5v12h40v-20q0 -70 -37 -108.5t-108 -41.5z" />
    <glyph glyph-name="dotbelowcomb" unicode="&#x323;" 
d="M-32 -172v63h64v-63h-64z" />
    <glyph glyph-name="uni0324" unicode="&#x324;" 
d="M50 -171v60h61v-60h-61zM-111 -171v60h61v-60h-61z" />
    <glyph glyph-name="uni0326" unicode="&#x326;" 
d="M-12 -259l-26 20q21 24 29 44.5t9 43.5h-35v65h70v-54q0 -70 -47 -119z" />
    <glyph glyph-name="uni0327" unicode="&#x327;" 
d="M5 -190q-49 0 -78 18l9 34q19 -9 34 -12.5t39 -3.5q27 0 44.5 11t17.5 32q0 32 -39 32q-11 0 -22.5 -2t-28.5 -8l-15 13l15 96h38l-12 -69q15 3 26 3q32 0 55 -17t23 -48q0 -35 -29.5 -57t-76.5 -22z" />
    <glyph glyph-name="uni0328" unicode="&#x328;" 
d="M-17 -190q-41 0 -67.5 25t-26.5 67q0 38 23.5 72.5t66.5 56.5l21 -31q-15 -6 -31.5 -19t-28.5 -32t-12 -43q0 -31 17.5 -45.5t42.5 -14.5q26 0 53 13l13 -32q-24 -17 -71 -17z" />
    <glyph glyph-name="uni032E" unicode="&#x32e;" 
d="M0 -215q-62 0 -100.5 39t-43.5 108l33 4q4 -55 33 -85t78 -30q50 0 78.5 30t32.5 85l33 -4q-5 -69 -43.5 -108t-100.5 -39z" />
    <glyph glyph-name="uni0331" unicode="&#x331;" 
d="M-140 -148v38h280v-38h-280z" />
    <glyph glyph-name="uni0335" unicode="&#x335;" 
d="M-167 522v36h334v-36h-334z" />
    <glyph glyph-name="uni0337" unicode="&#x337;" 
d="M-104 274l-20 33l228 133l20 -33z" />
    <glyph glyph-name="uni0338" unicode="&#x338;" 
d="M-142 -36l-30 19l314 543l30 -19z" />
    <glyph glyph-name="uni0394" unicode="&#x394;" horiz-adv-x="716" 
d="M48 0v29l290 676h40l290 -676v-29h-620zM357 647l-261 -608h524l-261 608h-2z" />
    <glyph glyph-name="Sigma" unicode="&#x3a3;" horiz-adv-x="600" 
d="M55 -180v31l284 412l-284 411v31h490v-39h-435l267 -387v-33l-267 -387h435v-39h-490z" />
    <glyph glyph-name="uni03A9" unicode="&#x3a9;" horiz-adv-x="760" 
d="M45 0v38h216q-102 71 -151 160.5t-49 195.5q0 100 39 171t111 109.5t169 38.5q98 0 169.5 -38t110.5 -109.5t39 -171.5q0 -106 -49 -195.5t-151 -160.5h216v-38h-274v36q110 76 161.5 164.5t51.5 193.5q0 133 -73 205.5t-201 72.5t-201 -73t-73 -205q0 -105 52 -193.5
t161 -164.5v-36h-274z" />
    <glyph glyph-name="uni03BC" unicode="&#x3bc;" horiz-adv-x="545" 
d="M83 -180v664h42v-303q0 -76 31 -113t98 -37q73 0 118.5 48.5t45.5 127.5v277h42v-484h-41v90q-23 -48 -67 -73t-98 -25q-42 0 -76 12t-56 44l3 -228h-42z" />
    <glyph glyph-name="pi" unicode="&#x3c0;" horiz-adv-x="560" 
d="M489 -3q-76 0 -109 44.5t-33 120.5v286h-200q-2 -138 -19 -249t-49 -199h-47q35 90 53.5 204t19.5 244h-100v36h511v-36h-127v-287q0 -62 24.5 -93.5t80.5 -31.5q24 0 54 6l-2 -39q-31 -6 -57 -6z" />
    <glyph glyph-name="uni0400" unicode="&#x400;" horiz-adv-x="570" 
d="M96 0v705h424v-39h-382v-289h362v-39h-362v-299h382v-39h-424zM301 765l-136 170h56l118 -170h-38z" />
    <glyph glyph-name="uni0401" unicode="&#x401;" horiz-adv-x="570" 
d="M96 0v705h424v-39h-382v-289h362v-39h-362v-299h382v-39h-424zM370 820v60h61v-60h-61zM209 820v60h61v-60h-61z" />
    <glyph glyph-name="uni0402" unicode="&#x402;" horiz-adv-x="817" 
d="M568 -188q-33 0 -62 6t-49 15l12 37q41 -19 98 -19q71 0 108.5 47.5t37.5 143.5v98q0 126 -54 187t-168 61q-108 0 -177 -47v-341h-42v666h-269v39h580v-39h-269v-279q30 20 78 31t100 11q263 0 263 -283v-103q0 -113 -48.5 -172t-138.5 -59z" />
    <glyph glyph-name="uni0403" unicode="&#x403;" horiz-adv-x="527" 
d="M96 0v705h418v-39h-376v-666h-42zM256 765l118 170h56l-136 -170h-38z" />
    <glyph glyph-name="uni0404" unicode="&#x404;" horiz-adv-x="667" 
d="M381 -8q-99 0 -169 43.5t-107.5 124.5t-37.5 193t37.5 192.5t107.5 124t169 43.5q73 0 134 -24t104 -71l-22 -35q-47 47 -99 68t-118 21q-126 0 -194 -79t-74 -216h384v-39h-384q4 -144 72.5 -224.5t195.5 -80.5q66 0 118 21t99 68l22 -35q-43 -47 -104 -71t-134 -24z
" />
    <glyph glyph-name="uni0405" unicode="&#x405;" horiz-adv-x="600" 
d="M310 -8q-82 0 -146 22t-112 65l20 36q53 -43 106 -62.5t132 -19.5q100 0 150.5 40t50.5 106q0 54 -37 84.5t-121 47.5l-99 20q-94 19 -140 63t-46 119q0 60 30.5 105t85 70t124.5 25q145 0 231 -91l-20 -36q-47 46 -97 66t-114 20q-88 0 -142 -43.5t-54 -115.5
q0 -58 34 -91.5t110 -48.5l99 -20q102 -21 151 -61.5t49 -111.5q0 -55 -29.5 -97.5t-84.5 -66.5t-131 -24z" />
    <glyph glyph-name="uni0406" unicode="&#x406;" horiz-adv-x="234" 
d="M96 0v705h42v-705h-42z" />
    <glyph glyph-name="uni0407" unicode="&#x407;" horiz-adv-x="234" 
d="M96 0v705h42v-705h-42zM167 820v60h61v-60h-61zM6 820v60h61v-60h-61z" />
    <glyph glyph-name="uni0408" unicode="&#x408;" horiz-adv-x="297" 
d="M-6 -6l-4 38l51 4q56 5 87 43t31 100v526h42v-528q0 -80 -40.5 -127t-116.5 -52z" />
    <glyph glyph-name="uni0409" unicode="&#x409;" horiz-adv-x="1126" 
d="M37 -13l-17 38q39 20 71 49.5t55 80t36 132.5t13 208v210h420v-326h229q110 0 169 -46.5t59 -141.5t-59 -143t-169 -48h-271v666h-338v-181q0 -118 -13 -202t-38 -141t-62 -94t-85 -61zM615 39h228q185 0 185 151q0 150 -185 150h-228v-301z" />
    <glyph glyph-name="uni040A" unicode="&#x40a;" horiz-adv-x="1166" 
d="M96 0v705h42v-328h475v328h42v-326h229q110 0 169 -46.5t59 -141.5t-59 -143t-169 -48h-271v338h-475v-338h-42zM655 39h228q185 0 185 151q0 150 -185 150h-228v-301z" />
    <glyph glyph-name="uni040B" unicode="&#x40b;" horiz-adv-x="833" 
d="M272 0v666h-269v39h580v-39h-269v-279q35 21 86.5 31.5t103.5 10.5q131 0 199 -71.5t68 -211.5v-146h-42v140q0 128 -57 188t-168 60q-52 0 -100 -10.5t-90 -36.5v-341h-42z" />
    <glyph glyph-name="uni040C" unicode="&#x40c;" horiz-adv-x="611" 
d="M96 0v705h42v-327h145l223 327h49l-227 -332q48 -10 84.5 -44t64.5 -90l117 -239h-46l-101 210q-34 70 -75.5 99.5t-100.5 29.5h-133v-339h-42zM297 765l118 170h56l-136 -170h-38z" />
    <glyph glyph-name="uni040D" unicode="&#x40d;" horiz-adv-x="732" 
d="M96 0v705h39v-634l466 634h35v-705h-39v636l-467 -636h-34zM347 765l-136 170h56l118 -170h-38z" />
    <glyph glyph-name="uni040E" unicode="&#x40e;" horiz-adv-x="628" 
d="M213 0l109 209l-312 496h47l286 -455l235 455h45l-364 -705h-46zM315 760q-52 0 -103.5 28t-77.5 96l33 14q22 -52 58.5 -77t88.5 -25q53 0 88.5 21.5t68.5 79.5l32 -13q-35 -73 -85 -98.5t-103 -25.5z" />
    <glyph glyph-name="uni040F" unicode="&#x40f;" horiz-adv-x="746" 
d="M353 -150v150h-257v705h42v-666h470v666h42v-705h-257v-150h-40z" />
    <glyph glyph-name="uni0410" unicode="&#x410;" horiz-adv-x="716" 
d="M35 0l303 705h40l303 -705h-45l-84 195h-389l-83 -195h-45zM357 648l-176 -414h354l-176 414h-2z" />
    <glyph glyph-name="uni0411" unicode="&#x411;" horiz-adv-x="649" 
d="M96 0v705h435v-39h-393v-287h229q110 0 169 -46.5t59 -141.5t-59 -143t-169 -48h-271zM138 39h228q185 0 185 151q0 150 -185 150h-228v-301z" />
    <glyph glyph-name="uni0412" unicode="&#x412;" horiz-adv-x="666" 
d="M96 0v705h258q107 0 166 -48t59 -137q0 -59 -31.5 -100t-85.5 -60q62 -14 97.5 -58t35.5 -111q0 -94 -59 -142.5t-169 -48.5h-271zM138 376h213q90 0 137 37.5t47 107.5q0 71 -47 108t-137 37h-213v-290zM138 39h228q92 0 138.5 36.5t46.5 112.5q0 77 -46.5 113
t-138.5 36h-228v-298z" />
    <glyph glyph-name="uni0413" unicode="&#x413;" horiz-adv-x="527" 
d="M96 0v705h418v-39h-376v-666h-42z" />
    <glyph glyph-name="uni0414" unicode="&#x414;" horiz-adv-x="760" 
d="M19 -150v189h68q56 71 83 189.5t27 296.5v180h440v-666h100v-189h-40v150h-638v-150h-40zM134 39h461v627h-358v-141q0 -177 -24.5 -293t-78.5 -193z" />
    <glyph glyph-name="uni0415" unicode="&#x415;" horiz-adv-x="570" 
d="M96 0v705h424v-39h-382v-289h362v-39h-362v-299h382v-39h-424z" />
    <glyph glyph-name="uni0416" unicode="&#x416;" horiz-adv-x="928" 
d="M17 0l115 239q27 56 64.5 90t86.5 44l-227 332h49l223 -327h115v327h42v-327h115l223 327h49l-227 -332q48 -10 84.5 -44t64.5 -90l117 -239h-45l-102 210q-34 70 -75.5 99.5t-100.5 29.5h-103v-339h-42v339h-103q-61 0 -103.5 -30.5t-74.5 -98.5l-100 -210h-45z" />
    <glyph glyph-name="uni0417" unicode="&#x417;" horiz-adv-x="645" 
d="M319 -8q-90 0 -160 26t-111 70l21 36q51 -47 110 -69t140 -22q109 0 160 39.5t51 115.5q0 77 -46.5 113t-138.5 36h-173v39h158q90 0 137 37.5t47 107.5q0 71 -49.5 111t-145.5 40q-67 0 -125 -21t-108 -67l-21 36q47 46 114.5 69.5t139.5 23.5q118 0 178.5 -52
t60.5 -141q0 -59 -31.5 -100t-85.5 -60q62 -14 97.5 -58t35.5 -111q0 -94 -62.5 -146.5t-192.5 -52.5z" />
    <glyph glyph-name="uni0418" unicode="&#x418;" horiz-adv-x="732" 
d="M96 0v705h39v-634l466 634h35v-705h-39v636l-467 -636h-34z" />
    <glyph glyph-name="uni0419" unicode="&#x419;" horiz-adv-x="732" 
d="M96 0v705h39v-634l466 634h35v-705h-39v636l-467 -636h-34zM366 760q-52 0 -103.5 28t-77.5 96l33 14q22 -52 58.5 -77t88.5 -25q53 0 88.5 21.5t68.5 79.5l32 -13q-35 -73 -85 -98.5t-103 -25.5z" />
    <glyph glyph-name="uni041A" unicode="&#x41a;" horiz-adv-x="611" 
d="M96 0v705h42v-327h145l223 327h49l-227 -332q48 -10 84.5 -44t64.5 -90l117 -239h-46l-101 210q-34 70 -75.5 99.5t-100.5 29.5h-133v-339h-42z" />
    <glyph glyph-name="uni041B" unicode="&#x41b;" horiz-adv-x="731" 
d="M37 -13l-17 38q39 20 71 49.5t55 80t36 132.5t13 208v210h440v-705h-42v666h-358v-181q0 -118 -13 -202t-38 -141t-62 -94t-85 -61z" />
    <glyph glyph-name="uni041C" unicode="&#x41c;" horiz-adv-x="844" 
d="M98 0v705h36l289 -551l287 551h36v-705h-39v619l-266 -509h-35l-269 509v-619h-39z" />
    <glyph glyph-name="uni041D" unicode="&#x41d;" horiz-adv-x="751" 
d="M96 0v705h42v-328h475v328h42v-705h-42v338h-475v-338h-42z" />
    <glyph glyph-name="uni041E" unicode="&#x41e;" horiz-adv-x="751" 
d="M375 -8q-95 0 -164 44t-106.5 125t-37.5 192q0 112 37 192.5t106 124t165 43.5t165.5 -43.5t106.5 -124t37 -191.5q0 -112 -37.5 -193t-106.5 -125t-165 -44zM375 33q126 0 195 84t69 236t-68.5 235.5t-195.5 83.5q-125 0 -194 -83.5t-69 -235.5q0 -151 69 -235.5
t194 -84.5z" />
    <glyph glyph-name="uni041F" unicode="&#x41f;" horiz-adv-x="746" 
d="M96 0v705h554v-705h-42v666h-470v-666h-42z" />
    <glyph glyph-name="uni0420" unicode="&#x420;" horiz-adv-x="616" 
d="M96 0v705h255q111 0 170 -53t59 -151t-59 -151t-170 -53h-213v-297h-42zM138 336h212q186 0 186 165t-186 165h-212v-330z" />
    <glyph glyph-name="uni0421" unicode="&#x421;" horiz-adv-x="667" 
d="M381 -8q-99 0 -169 43.5t-107.5 124.5t-37.5 193t37.5 192.5t107.5 124t169 43.5q151 0 238 -95l-22 -35q-47 47 -99 68t-118 21q-129 0 -198.5 -83.5t-69.5 -235.5t69.5 -236t198.5 -84q66 0 118 21t99 68l22 -35q-87 -95 -238 -95z" />
    <glyph glyph-name="uni0422" unicode="&#x422;" horiz-adv-x="586" 
d="M272 0v666h-269v39h580v-39h-269v-666h-42z" />
    <glyph glyph-name="uni0423" unicode="&#x423;" horiz-adv-x="628" 
d="M213 0l109 209l-312 496h47l286 -455l235 455h45l-364 -705h-46z" />
    <glyph glyph-name="uni0424" unicode="&#x424;" horiz-adv-x="810" 
d="M384 -20v77h-10q-96 0 -164.5 37.5t-105.5 105t-37 158.5q0 92 36 159.5t104.5 104t166.5 36.5h10v72h42v-72h10q98 0 166.5 -36.5t104.5 -104t36 -159.5q0 -91 -36.5 -158.5t-105.5 -105t-165 -37.5h-10v-77h-42zM446 619h-20v-523h20q77 0 133.5 32.5t87.5 91.5t31 138
q0 123 -67 192t-185 69zM364 96h20v523h-20q-118 0 -185 -69t-67 -192q0 -79 31 -138t87.5 -91.5t133.5 -32.5z" />
    <glyph glyph-name="uni0425" unicode="&#x425;" horiz-adv-x="631" 
d="M24 0l267 362l-252 343h50l228 -310l225 310h50l-252 -343l267 -362h-51l-240 328l-241 -328h-51z" />
    <glyph glyph-name="uni0426" unicode="&#x426;" horiz-adv-x="773" 
d="M710 -150v150h-614v705h42v-666h470v666h42v-666h100v-189h-40z" />
    <glyph glyph-name="uni0427" unicode="&#x427;" horiz-adv-x="657" 
d="M519 0v318q-34 -21 -86 -31.5t-104 -10.5q-130 0 -198.5 71.5t-68.5 211.5v146h42v-140q0 -127 57 -187.5t168 -60.5q52 0 100 10.5t90 36.5v341h42v-705h-42z" />
    <glyph glyph-name="uni0428" unicode="&#x428;" horiz-adv-x="1038" 
d="M96 0v705h42v-666h360v666h42v-666h360v666h42v-705h-846z" />
    <glyph glyph-name="uni0429" unicode="&#x429;" horiz-adv-x="1064" 
d="M1001 -150v150h-905v705h42v-666h360v666h42v-666h360v666h42v-666h99v-189h-40z" />
    <glyph glyph-name="uni042A" unicode="&#x42a;" horiz-adv-x="776" 
d="M223 0v666h-220v39h262v-326h229q110 0 169 -46.5t59 -141.5t-59 -143t-169 -48h-271zM265 39h228q185 0 185 151q0 150 -185 150h-228v-301z" />
    <glyph glyph-name="uni042B" unicode="&#x42b;" horiz-adv-x="813" 
d="M96 0v705h42v-326h199q110 0 169 -46.5t59 -141.5t-59 -143t-169 -48h-241zM675 0v705h42v-705h-42zM138 39h198q185 0 185 151q0 150 -185 150h-198v-301z" />
    <glyph glyph-name="uni042C" unicode="&#x42c;" horiz-adv-x="649" 
d="M96 0v705h42v-326h229q110 0 169 -46.5t59 -141.5t-59 -143t-169 -48h-271zM138 39h228q185 0 185 151q0 150 -185 150h-228v-301z" />
    <glyph glyph-name="uni042D" unicode="&#x42d;" horiz-adv-x="667" 
d="M286 -8q-73 0 -133.5 24t-104.5 71l22 35q47 -47 99 -68t118 -21q127 0 195.5 80.5t72.5 224.5h-384v39h384q-6 138 -72.5 216.5t-185.5 78.5q-66 0 -119 -21t-108 -68l-22 35q103 95 248 95q94 0 162 -43.5t105 -124t37 -192.5t-37 -193t-107.5 -124.5t-169.5 -43.5z
" />
    <glyph glyph-name="uni042E" unicode="&#x42e;" horiz-adv-x="984" 
d="M616 -8q-91 0 -157.5 42t-103.5 119.5t-40 184.5h-177v-338h-42v705h42v-328h177q5 105 42 180t103 115.5t156 40.5q94 0 161 -43.5t103.5 -124t36.5 -192.5q0 -111 -36.5 -192t-104 -125t-160.5 -44zM616 33q122 0 189 84t67 236t-66.5 235.5t-189.5 83.5
q-122 0 -189 -83.5t-67 -235.5q0 -151 67 -235.5t189 -84.5z" />
    <glyph glyph-name="uni042F" unicode="&#x42f;" horiz-adv-x="654" 
d="M46 0l131 242q32 60 72 77q-83 11 -129 60t-46 129q0 95 59 146t170 51h255v-705h-42v312h-147q-58 0 -92.5 -17t-62.5 -69l-122 -226h-46zM307 351h209v315h-209q-189 0 -189 -157q0 -158 189 -158z" />
    <glyph glyph-name="uni0430" unicode="&#x430;" horiz-adv-x="520" 
d="M234 -8q-47 0 -85 19t-60 51.5t-22 72.5q0 54 26.5 84.5t91 43t177.5 12.5h30v40q0 72 -28 105t-90 33q-45 0 -84.5 -13t-82.5 -42l-20 36q38 27 87.5 42.5t97.5 15.5q83 0 122.5 -43t39.5 -134v-315h-41v90q-21 -46 -62.5 -72t-96.5 -26zM237 30q46 0 80.5 22.5t54.5 61
t20 87.5v37h-28q-99 0 -153.5 -8.5t-76 -30t-21.5 -60.5q0 -48 33.5 -78.5t90.5 -30.5z" />
    <glyph glyph-name="uni0431" unicode="&#x431;" horiz-adv-x="544" 
d="M272 -8q-100 0 -158 70t-58 200v77q0 96 22.5 159.5t69.5 103t118 61.5l174 54l18 -38l-190 -57q-85 -25 -127.5 -88.5t-42.5 -151.5q24 53 71.5 81.5t105.5 28.5q65 0 113 -31t74 -87t26 -132t-26.5 -132t-74.5 -87t-115 -31zM271 31q81 0 127.5 54.5t46.5 156.5
q0 100 -46.5 155.5t-126.5 55.5t-126.5 -54.5t-46.5 -146.5q0 -109 45.5 -165t126.5 -56z" />
    <glyph glyph-name="uni0432" unicode="&#x432;" horiz-adv-x="528" 
d="M88 0v484h213q159 0 159 -128q0 -38 -22 -67t-59 -41q43 -10 69.5 -41t26.5 -75q0 -61 -44 -96.5t-122 -35.5h-221zM130 264h175q53 0 82.5 24.5t29.5 67.5q0 44 -29.5 68t-82.5 24h-175v-184zM130 36h183q57 0 88 25t31 71q0 47 -31 71.5t-88 24.5h-183v-192z" />
    <glyph glyph-name="uni0433" unicode="&#x433;" horiz-adv-x="415" 
d="M88 0v484h315v-37h-273v-447h-42z" />
    <glyph glyph-name="uni0434" unicode="&#x434;" horiz-adv-x="569" 
d="M27 -130v166h47q40 55 57.5 129t17.5 171v148h312v-448h74v-166h-38v130h-432v-130h-38zM122 36h297v412h-229v-112q0 -86 -17.5 -165t-50.5 -135z" />
    <glyph glyph-name="uni0435" unicode="&#x435;" horiz-adv-x="529" 
d="M289 -8q-108 0 -170.5 66.5t-62.5 181.5q0 76 28.5 132.5t79 88t116.5 31.5q94 0 146 -61.5t52 -170.5v-26h-379q2 -97 51 -150t137 -53q45 0 84.5 14.5t78.5 48.5l20 -34q-31 -31 -80 -49.5t-101 -18.5zM279 454q-81 0 -126.5 -52t-52.5 -131h339q-3 85 -43 134t-117 49
z" />
    <glyph glyph-name="uni0436" unicode="&#x436;" horiz-adv-x="748" 
d="M7 0l97 156q34 54 57 77t53 31l-179 220h49l175 -215h94v215h42v-215h94l175 215h49l-179 -220q30 -8 53 -31t57 -77l97 -156h-46l-93 150q-20 33 -38 51t-40 25t-55 7h-74v-233h-42v233h-74q-33 0 -55 -7t-39.5 -25t-38.5 -51l-93 -150h-46z" />
    <glyph glyph-name="uni0437" unicode="&#x437;" horiz-adv-x="477" 
d="M231 -8q-60 0 -112.5 17.5t-82.5 48.5l20 36q35 -32 79 -47.5t96 -15.5q80 0 114.5 26.5t34.5 74.5q0 47 -31 71.5t-88 24.5h-101v36h93q50 0 81 24.5t31 67.5q0 44 -31 70.5t-96 26.5q-50 0 -92 -13.5t-82 -45.5l-20 36q80 62 194 62q87 0 128.5 -36t41.5 -100
q0 -38 -22 -67t-59 -41q43 -10 70 -41t27 -75q0 -63 -47.5 -101.5t-145.5 -38.5z" />
    <glyph glyph-name="uni0438" unicode="&#x438;" horiz-adv-x="566" 
d="M88 0v484h39v-420l313 420h38v-484h-39v420l-313 -420h-38z" />
    <glyph glyph-name="uni0439" unicode="&#x439;" horiz-adv-x="566" 
d="M88 0v484h39v-420l313 420h38v-484h-39v420l-313 -420h-38zM283 547q-46 0 -92 28t-69 96l33 14q19 -52 51 -77t77 -25q46 0 77 21.5t59 79.5l32 -13q-31 -73 -76 -98.5t-92 -25.5z" />
    <glyph glyph-name="uni043A" unicode="&#x43a;" horiz-adv-x="497" 
d="M88 0v484h42v-215h108l175 215h49l-179 -220q30 -8 53 -31t57 -77l97 -156h-46l-93 150q-20 33 -38 51t-40 25t-55 7h-88v-233h-42z" />
    <glyph glyph-name="uni043B" unicode="&#x43b;" horiz-adv-x="554" 
d="M48 -9l-22 33q36 18 60 44.5t37.5 67t19.5 100.5t6 147v101h317v-484h-42v448h-234v-66q0 -122 -13 -198.5t-44 -121t-85 -71.5z" />
    <glyph glyph-name="uni043C" unicode="&#x43c;" horiz-adv-x="636" 
d="M88 0v484h35l195 -358l195 358h35v-484h-38v398l-179 -321h-26l-179 321v-398h-38z" />
    <glyph glyph-name="uni043D" unicode="&#x43d;" horiz-adv-x="568" 
d="M88 0v484h42v-215h308v215h42v-484h-42v232h-308v-232h-42z" />
    <glyph glyph-name="uni043E" unicode="&#x43e;" horiz-adv-x="544" 
d="M272 -8q-66 0 -114.5 31t-75 87t-26.5 132t26.5 132t75 87t114.5 31t114.5 -31t75 -87t26.5 -132t-26.5 -132t-75 -87t-114.5 -31zM272 31q80 0 126.5 55.5t46.5 155.5t-46.5 155.5t-126.5 55.5q-79 0 -126 -55.5t-47 -155.5t47 -155.5t126 -55.5z" />
    <glyph glyph-name="uni043F" unicode="&#x43f;" horiz-adv-x="565" 
d="M88 0v484h389v-484h-42v448h-305v-448h-42z" />
    <glyph glyph-name="uni0440" unicode="&#x440;" horiz-adv-x="574" 
d="M88 -180v664h42v-95q22 48 67 75.5t106 27.5q66 0 114 -30.5t74.5 -86.5t26.5 -133q0 -115 -58 -182.5t-157 -67.5q-61 0 -106 27.5t-67 75.5v-275h-42zM302 31q80 0 126.5 55.5t46.5 155.5t-46.5 155.5t-126.5 55.5q-79 0 -126 -55.5t-47 -155.5t47 -155.5t126 -55.5z
" />
    <glyph glyph-name="uni0441" unicode="&#x441;" horiz-adv-x="461" 
d="M277 -8q-69 0 -118.5 32t-76 89t-26.5 133q0 114 59 180t162 66q44 0 86 -17.5t70 -48.5l-20 -33q-32 32 -68 46t-69 14q-85 0 -131 -54t-46 -154t46 -157t131 -57q33 0 69 14t68 46l20 -33q-28 -31 -71 -48.5t-85 -17.5z" />
    <glyph glyph-name="uni0442" unicode="&#x442;" horiz-adv-x="418" 
d="M188 0v447h-185v37h412v-37h-185v-447h-42z" />
    <glyph glyph-name="uni0443" unicode="&#x443;" horiz-adv-x="510" 
d="M155 -180l77 177l-207 487h48l182 -440l183 440h48l-284 -664h-47z" />
    <glyph glyph-name="uni0444" unicode="&#x444;" horiz-adv-x="756" 
d="M357 -180v269q-17 -46 -50 -71.5t-81 -25.5q-78 0 -124 67.5t-46 182.5t45.5 182.5t124.5 67.5q48 0 81 -25.5t50 -72.5v311h42v-311q17 47 50 72.5t81 25.5q78 0 124 -67.5t46 -182.5t-45.5 -182.5t-124.5 -67.5q-48 0 -81 25.5t-50 71.5v-269h-42zM228 30
q61 0 95.5 54.5t34.5 157.5q0 101 -34.5 156.5t-95.5 55.5q-60 0 -95 -55.5t-35 -156.5q0 -103 34.5 -157.5t95.5 -54.5zM527 30q61 0 96 54.5t35 157.5q0 101 -35 156.5t-96 55.5q-60 0 -94.5 -55.5t-34.5 -156.5q0 -103 34 -157.5t95 -54.5z" />
    <glyph glyph-name="uni0445" unicode="&#x445;" horiz-adv-x="512" 
d="M32 0l199 250l-188 234h51l163 -205l162 205h51l-188 -235l199 -249h-52l-173 217l-173 -217h-51z" />
    <glyph glyph-name="uni0446" unicode="&#x446;" horiz-adv-x="575" 
d="M503 -130v130h-415v484h42v-448h295v448h42v-448h74v-166h-38z" />
    <glyph glyph-name="uni0447" unicode="&#x447;" horiz-adv-x="532" 
d="M402 0v214q-59 -41 -142 -41q-100 0 -146.5 47t-46.5 144v120h42v-119q0 -79 36 -116t114 -37q44 0 77.5 10t65.5 33v229h42v-484h-42z" />
    <glyph glyph-name="uni0448" unicode="&#x448;" horiz-adv-x="770" 
d="M88 0v484h42v-448h234v448h42v-448h234v448h42v-484h-594z" />
    <glyph glyph-name="uni0449" unicode="&#x449;" horiz-adv-x="790" 
d="M718 -130v130h-630v484h42v-448h234v448h42v-448h234v448h42v-448h74v-166h-38z" />
    <glyph glyph-name="uni044A" unicode="&#x44a;" horiz-adv-x="598" 
d="M163 0v447h-160v37h202v-184h163q89 0 135.5 -39.5t46.5 -110.5t-46.5 -110.5t-135.5 -39.5h-205zM205 36h165q65 0 100.5 28t35.5 86q0 59 -35.5 86.5t-100.5 27.5h-165v-228z" />
    <glyph glyph-name="uni044B" unicode="&#x44b;" horiz-adv-x="689" 
d="M88 0v484h42v-184h163q89 0 135.5 -39.5t46.5 -110.5t-46.5 -110.5t-135.5 -39.5h-205zM559 0v484h42v-484h-42zM130 36h165q65 0 100.5 28t35.5 86q0 59 -35.5 86.5t-100.5 27.5h-165v-228z" />
    <glyph glyph-name="uni044C" unicode="&#x44c;" horiz-adv-x="523" 
d="M88 0v484h42v-184h163q89 0 135.5 -39.5t46.5 -110.5t-46.5 -110.5t-135.5 -39.5h-205zM130 36h165q65 0 100.5 28t35.5 86q0 59 -35.5 86.5t-100.5 27.5h-165v-228z" />
    <glyph glyph-name="uni044D" unicode="&#x44d;" horiz-adv-x="471" 
d="M194 -8q-31 0 -63.5 8t-60 23t-42.5 35l20 36q29 -31 69 -47t78 -16q83 0 128 53t49 146h-260v36h260q-3 50 -21.5 92.5t-56.5 68.5t-99 26q-37 0 -77.5 -15.5t-69.5 -47.5l-20 36q28 30 74.5 48t93.5 18q103 0 161 -66t58 -180q0 -115 -58.5 -184.5t-162.5 -69.5z" />
    <glyph glyph-name="uni044E" unicode="&#x44e;" horiz-adv-x="727" 
d="M455 -8q-97 0 -155 65.5t-61 175.5h-110v-233h-41v484h41v-215h111q8 103 64.5 163t150.5 60q66 0 114.5 -31t75 -87t26.5 -132t-26.5 -132t-75 -87t-114.5 -31zM455 31q80 0 126.5 55.5t46.5 155.5t-46.5 155.5t-126.5 55.5q-79 0 -126 -55.5t-47 -155.5t47 -155.5
t126 -55.5z" />
    <glyph glyph-name="uni044F" unicode="&#x44f;" horiz-adv-x="520" 
d="M50 0l77 134q15 25 35.5 43.5t43.5 26.5q-64 7 -100 43.5t-36 95.5q0 63 41.5 102t127.5 39h193v-484h-42v200h-88q-49 0 -81.5 -23.5t-52.5 -58.5l-68 -118h-50zM245 237h145v211h-145q-68 0 -100 -27.5t-32 -77.5t32 -78t100 -28z" />
    <glyph glyph-name="uni0450" unicode="&#x450;" horiz-adv-x="529" 
d="M289 -8q-108 0 -170.5 66.5t-62.5 181.5q0 76 28.5 132.5t79 88t116.5 31.5q94 0 146 -61.5t52 -170.5v-26h-379q2 -97 51 -150t137 -53q45 0 84.5 14.5t78.5 48.5l20 -34q-31 -31 -80 -49.5t-101 -18.5zM279 454q-81 0 -126.5 -52t-52.5 -131h339q-3 85 -43 134t-117 49
zM262 549l-122 200h54l104 -200h-36z" />
    <glyph glyph-name="uni0451" unicode="&#x451;" horiz-adv-x="529" 
d="M289 -8q-108 0 -170.5 66.5t-62.5 181.5q0 76 28.5 132.5t79 88t116.5 31.5q94 0 146 -61.5t52 -170.5v-26h-379q2 -97 51 -150t137 -53q45 0 84.5 14.5t78.5 48.5l20 -34q-31 -31 -80 -49.5t-101 -18.5zM279 454q-81 0 -126.5 -52t-52.5 -131h339q-3 85 -43 134t-117 49
zM330 620v60h61v-60h-61zM169 620v60h61v-60h-61z" />
    <glyph glyph-name="uni0452" unicode="&#x452;" horiz-adv-x="559" 
d="M299 -185l-9 37q58 13 88 38t41.5 65t11.5 97v252q0 77 -31 113t-100 36q-77 0 -123.5 -47.5t-46.5 -127.5v-278h-42v562h-95v36h95v107h42v-107h197v-36h-197v-164q23 45 68 69.5t99 24.5q176 0 176 -184v-253q0 -68 -15.5 -116.5t-53 -79t-105.5 -44.5z" />
    <glyph glyph-name="uni0453" unicode="&#x453;" horiz-adv-x="415" 
d="M88 0v484h315v-37h-273v-447h-42zM214 549l104 200h54l-122 -200h-36z" />
    <glyph glyph-name="uni0454" unicode="&#x454;" horiz-adv-x="471" 
d="M277 -8q-103 0 -162 69.5t-59 184.5q0 114 59 180t164 66q48 0 95 -18t69 -48l-20 -36q-29 32 -69.5 47.5t-77.5 15.5q-61 0 -99 -26t-56.5 -68.5t-21.5 -92.5h260v-36h-260q4 -93 49 -146t128 -53q38 0 78 16t69 47l20 -36q-15 -20 -42.5 -35t-60 -23t-63.5 -8z" />
    <glyph glyph-name="uni0455" unicode="&#x455;" horiz-adv-x="481" 
d="M239 -8q-52 0 -100 16.5t-79 47.5l20 34q36 -31 77.5 -45t84.5 -14q65 0 99.5 25t34.5 68q0 34 -22.5 53.5t-72.5 31.5l-83 20q-63 15 -92.5 46t-29.5 80q0 62 47.5 99.5t126.5 37.5q50 0 92.5 -17t68.5 -48l-20 -34q-58 60 -142 60q-61 0 -95 -26.5t-34 -70.5
q0 -34 21 -55t67 -32l83 -20q65 -16 97 -45t32 -78q0 -61 -49 -97.5t-132 -36.5z" />
    <glyph glyph-name="uni0456" unicode="&#x456;" horiz-adv-x="218" 
d="M77 619v63h64v-63h-64zM88 0v484h42v-484h-42z" />
    <glyph glyph-name="uni0457" unicode="&#x457;" horiz-adv-x="218" 
d="M88 0v484h42v-484h-42zM159 620v60h61v-60h-61zM-2 620v60h61v-60h-61z" />
    <glyph glyph-name="uni0458" unicode="&#x458;" horiz-adv-x="221" 
d="M80 619v63h64v-63h-64zM-52 -193l-3 38l41 3q105 8 105 130v506h42v-505q0 -77 -37 -120.5t-105 -48.5z" />
    <glyph glyph-name="uni0459" unicode="&#x459;" horiz-adv-x="859" 
d="M48 -9l-22 33q36 18 60 44.5t37.5 67t19.5 100.5t6 147v101h317v-184h163q89 0 135.5 -39.5t46.5 -110.5t-46.5 -110.5t-135.5 -39.5h-205v448h-234v-66q0 -122 -13 -198.5t-44 -121t-85 -71.5zM466 36h165q65 0 100.5 28t35.5 86q0 59 -35.5 86.5t-100.5 27.5h-165v-228
z" />
    <glyph glyph-name="uni045A" unicode="&#x45a;" horiz-adv-x="873" 
d="M88 0v484h42v-215h308v215h42v-184h163q89 0 135.5 -39.5t46.5 -110.5t-46.5 -110.5t-135.5 -39.5h-205v232h-308v-232h-42zM480 36h165q65 0 100.5 28t35.5 86q0 59 -35.5 86.5t-100.5 27.5h-165v-228z" />
    <glyph glyph-name="uni045B" unicode="&#x45b;" horiz-adv-x="559" 
d="M88 0v562h-95v36h95v107h42v-107h197v-36h-197v-166q24 48 69 72t101 24q173 0 173 -184v-308h-42v304q0 77 -31 113t-100 36q-77 0 -123.5 -47.5t-46.5 -127.5v-278h-42z" />
    <glyph glyph-name="uni045C" unicode="&#x45c;" horiz-adv-x="497" 
d="M88 0v484h42v-215h108l175 215h49l-179 -220q30 -8 53 -31t57 -77l97 -156h-46l-93 150q-20 33 -38 51t-40 25t-55 7h-88v-233h-42zM257 549l104 200h54l-122 -200h-36z" />
    <glyph glyph-name="uni045D" unicode="&#x45d;" horiz-adv-x="566" 
d="M88 0v484h39v-420l313 420h38v-484h-39v420l-313 -420h-38zM265 549l-122 200h54l104 -200h-36z" />
    <glyph glyph-name="uni045E" unicode="&#x45e;" horiz-adv-x="510" 
d="M155 -180l77 177l-207 487h48l182 -440l183 440h48l-284 -664h-47zM255 547q-46 0 -92 28t-69 96l33 14q19 -52 51 -77t77 -25q46 0 77 21.5t59 79.5l32 -13q-31 -73 -76 -98.5t-92 -25.5z" />
    <glyph glyph-name="uni045F" unicode="&#x45f;" horiz-adv-x="565" 
d="M263 -130v130h-175v484h42v-448h305v448h42v-484h-176v-130h-38z" />
    <glyph glyph-name="uni0462" unicode="&#x462;" horiz-adv-x="707" 
d="M154 0v548h-174v39h174v118h42v-118h240v-39h-240v-169h229q110 0 169 -46.5t59 -141.5t-59 -143t-169 -48h-271zM196 39h228q185 0 185 151q0 150 -185 150h-228v-301z" />
    <glyph glyph-name="uni0463" unicode="&#x463;" horiz-adv-x="598" 
d="M163 0v448h-160v36h160v221h42v-221h160v-36h-160v-148h163q89 0 135.5 -39.5t46.5 -110.5t-46.5 -110.5t-135.5 -39.5h-205zM205 36h165q65 0 100.5 28t35.5 86q0 59 -35.5 86.5t-100.5 27.5h-165v-228z" />
    <glyph glyph-name="uni046A" unicode="&#x46a;" horiz-adv-x="908" 
d="M17 0l117 239q20 40 47 71.5t68 49.5t102 18h53l-282 327h664l-282 -327h53q62 0 102.5 -18t68 -49.5t46.5 -71.5l117 -239h-45l-102 210q-34 70 -75.5 99.5t-100.5 29.5h-93v-339h-42v339h-93q-59 0 -100.5 -29.5t-75.5 -99.5l-102 -210h-45zM453 382h2l241 284h-484z
" />
    <glyph glyph-name="uni046B" unicode="&#x46b;" horiz-adv-x="748" 
d="M7 0l97 156q27 43 48 67.5t46 35t63 10.5h74l-186 215h450l-186 -215h74q38 0 63 -10.5t46 -35t48 -67.5l97 -156h-46l-93 150q-20 33 -38 51t-40 25t-55 7h-74v-233h-42v233h-74q-33 0 -55 -7t-39.5 -25t-38.5 -51l-93 -150h-46zM373 283h2l139 165h-280z" />
    <glyph glyph-name="uni0472" unicode="&#x472;" horiz-adv-x="751" 
d="M375 -8q-95 0 -164 44t-106.5 125t-37.5 192q0 112 37 192.5t106 124t165 43.5t165.5 -43.5t106.5 -124t37 -191.5q0 -112 -37.5 -193t-106.5 -125t-165 -44zM375 672q-120 0 -188.5 -77.5t-74.5 -217.5h527q-6 141 -74 218t-190 77zM375 33q123 0 192 80t72 226h-527
q4 -145 72.5 -225.5t190.5 -80.5z" />
    <glyph glyph-name="uni0473" unicode="&#x473;" horiz-adv-x="544" 
d="M272 -8q-66 0 -114.5 31t-75 87t-26.5 132t26.5 132t75 87t114.5 31t114.5 -31t75 -87t26.5 -132t-26.5 -132t-75 -87t-114.5 -31zM272 453q-76 0 -122 -50.5t-51 -142.5h346q-5 92 -51 142.5t-122 50.5zM272 31q76 0 122 50.5t51 142.5h-346q5 -92 51 -142.5t122 -50.5z
" />
    <glyph glyph-name="uni0474" unicode="&#x474;" horiz-adv-x="719" 
d="M310 0l-302 705h45l279 -654l199 482q28 68 57.5 107.5t68 56t93.5 16.5l5 -37q-44 0 -75 -12.5t-55 -43.5t-48 -88l-222 -532h-45z" />
    <glyph glyph-name="uni0475" unicode="&#x475;" horiz-adv-x="530" 
d="M231 0l-206 484h48l182 -440l141 340q26 61 59.5 84.5t91.5 23.5l4 -35q-48 -1 -72 -21.5t-46 -72.5l-154 -363h-48z" />
    <glyph glyph-name="uni048A" unicode="&#x48a;" horiz-adv-x="742" 
d="M366 760q-52 0 -103.5 28t-77.5 96l33 14q22 -52 58.5 -77t88.5 -25q53 0 88.5 21.5t68.5 79.5l32 -13q-35 -73 -85 -98.5t-103 -25.5zM637 -150l50 150h-90v636l-467 -636h-34v705h39v-634l466 634h35v-666h102l-63 -189h-38z" />
    <glyph glyph-name="uni048B" unicode="&#x48b;" horiz-adv-x="586" 
d="M283 547q-46 0 -92 28t-69 96l33 14q19 -52 51 -77t77 -25q46 0 77 21.5t59 79.5l32 -13q-31 -73 -76 -98.5t-92 -25.5zM88 0v484h39v-420l313 420h38v-447h78l-60 -167h-39l47 130h-65v420l-313 -420h-38z" />
    <glyph glyph-name="uni048C" unicode="&#x48c;" horiz-adv-x="697" 
d="M144 0v548h-144v39h144v118h42v-118h144v-39h-144v-169h229q110 0 169 -46.5t59 -141.5t-59 -143t-169 -48h-271zM186 39h228q185 0 185 151q0 150 -185 150h-228v-301z" />
    <glyph glyph-name="uni048D" unicode="&#x48d;" horiz-adv-x="598" 
d="M163 0v448h-160v36h160v221h42v-221h160v-36h-160v-148h163q89 0 135.5 -39.5t46.5 -110.5t-46.5 -110.5t-135.5 -39.5h-205zM205 36h165q65 0 100.5 28t35.5 86q0 59 -35.5 86.5t-100.5 27.5h-165v-228z" />
    <glyph glyph-name="uni048E" unicode="&#x48e;" horiz-adv-x="616" 
d="M96 0v705h255q111 0 170 -53t59 -151q0 -70 -29.5 -116.5t-85.5 -68.5l53 -80l-30 -21l-60 90q-35 -8 -77 -8h-213v-297h-42zM138 336h212q30 0 55 4l-53 80l32 21l59 -90q93 35 93 150q0 165 -186 165h-212v-330z" />
    <glyph glyph-name="uni048F" unicode="&#x48f;" horiz-adv-x="574" 
d="M88 -180v664h42v-95q22 48 67 75.5t106 27.5q66 0 114 -30.5t74.5 -86.5t26.5 -133q0 -70 -22 -123t-56 -79l45 -57l-26 -19l-45 57q-21 -13 -49 -21t-62 -8q-61 0 -106 27.5t-67 75.5v-275h-42zM302 31q27 0 49 6t38 16l-47 60l26 19l47 -60q27 25 43.5 68t16.5 102
q0 100 -46.5 155.5t-126.5 55.5q-79 0 -126 -55.5t-47 -155.5t47 -155.5t126 -55.5z" />
    <glyph glyph-name="uni0490" unicode="&#x490;" horiz-adv-x="527" 
d="M96 0v705h378v150h40v-189h-376v-666h-42z" />
    <glyph glyph-name="uni0491" unicode="&#x491;" horiz-adv-x="415" 
d="M88 0v484h277v118h38v-155h-273v-447h-42z" />
    <glyph glyph-name="uni0492" unicode="&#x492;" horiz-adv-x="558" 
d="M127 0v338h-100v38h100v329h418v-39h-376v-290h190v-38h-190v-338h-42z" />
    <glyph glyph-name="uni0493" unicode="&#x493;" horiz-adv-x="432" 
d="M105 0v225h-100v37h100v222h315v-37h-273v-185h150v-37h-150v-225h-42z" />
    <glyph glyph-name="uni0494" unicode="&#x494;" horiz-adv-x="641" 
d="M392 -188q-33 0 -62 6t-49 15l12 37q41 -19 98 -19q71 0 108.5 47.5t37.5 143.5v98q0 126 -54 187t-168 61q-108 0 -177 -47v-341h-42v705h435v-39h-393v-279q30 20 78 31t100 11q263 0 263 -283v-103q0 -113 -48.5 -172t-138.5 -59z" />
    <glyph glyph-name="uni0495" unicode="&#x495;" horiz-adv-x="529" 
d="M303 -185l-9 37q58 13 88 38t41.5 65t11.5 97v73q0 84 -31 121.5t-102 37.5q-79 0 -125.5 -47.5t-46.5 -127.5v-109h-42v484h315v-37h-273v-218q23 45 69 69.5t102 24.5q88 0 132 -46.5t44 -147.5v-74q0 -68 -15.5 -116.5t-53 -79t-105.5 -44.5z" />
    <glyph glyph-name="uni0496" unicode="&#x496;" horiz-adv-x="928" 
d="M17 0l115 239q27 56 64.5 90t86.5 44l-227 332h49l223 -327h115v327h42v-327h115l223 327h49l-227 -332q48 -10 84.5 -44t64.5 -90l98 -200h75v-189h-40v150h-61l-102 210q-34 70 -75.5 99.5t-100.5 29.5h-103v-339h-42v339h-103q-61 0 -103.5 -30.5t-74.5 -98.5
l-100 -210h-45z" />
    <glyph glyph-name="uni0497" unicode="&#x497;" horiz-adv-x="787" 
d="M7 0l97 156q34 54 57 77t53 31l-179 220h49l175 -215h94v215h42v-215h94l175 215h49l-179 -220q30 -8 53 -31t57 -77l74 -119h52v-167h-40v130h-35l-93 150q-20 33 -38 51t-40 25t-55 7h-74v-233h-42v233h-74q-33 0 -55 -7t-39.5 -25t-38.5 -51l-93 -150h-46z" />
    <glyph glyph-name="uni0498" unicode="&#x498;" horiz-adv-x="645" 
d="M301 -150v142q-84 3 -149.5 28.5t-103.5 67.5l21 36q51 -47 110 -69t140 -22q109 0 160 39.5t51 115.5q0 77 -46.5 113t-138.5 36h-173v39h158q90 0 137 37.5t47 107.5q0 71 -49.5 111t-145.5 40q-67 0 -125 -21t-108 -67l-21 36q47 46 114.5 69.5t139.5 23.5
q118 0 178.5 -52t60.5 -141q0 -59 -31.5 -100t-84.5 -60q61 -14 96.5 -57.5t35.5 -111.5q0 -91 -57 -142.5t-176 -56.5v-142h-40z" />
    <glyph glyph-name="uni0499" unicode="&#x499;" horiz-adv-x="477" 
d="M217 -130v122q-56 2 -104 19.5t-77 46.5l20 36q35 -32 79 -47.5t96 -15.5q80 0 114.5 26.5t34.5 74.5q0 47 -31 71.5t-88 24.5h-101v36h93q50 0 81 24.5t31 67.5q0 44 -31 70.5t-96 26.5q-50 0 -92 -13.5t-82 -45.5l-20 36q80 62 194 62q87 0 128.5 -36t41.5 -100
q0 -38 -21.5 -66.5t-58.5 -41.5q43 -11 69.5 -42t26.5 -74q0 -58 -41 -96t-126 -43v-123h-40z" />
    <glyph glyph-name="uni049A" unicode="&#x49a;" horiz-adv-x="631" 
d="M96 0v705h42v-327h145l223 327h49l-227 -332q48 -10 84.5 -44t64.5 -90l98 -200h74v-189h-40v150h-61l-101 210q-34 70 -75.5 99.5t-100.5 29.5h-133v-339h-42z" />
    <glyph glyph-name="uni049B" unicode="&#x49b;" horiz-adv-x="531" 
d="M88 0v484h42v-215h108l175 215h49l-179 -220q30 -8 53 -31t57 -77l74 -119h52v-167h-40v130h-35l-93 150q-20 33 -38 51t-40 25t-55 7h-88v-233h-42z" />
    <glyph glyph-name="uni049C" unicode="&#x49c;" horiz-adv-x="621" 
d="M96 0v705h42v-327h82v171h36v-171h37l223 327h49l-227 -332q48 -10 84.5 -44t64.5 -90l117 -239h-46l-101 210q-33 69 -75 99t-101 30h-25v-171h-36v171h-82v-339h-42z" />
    <glyph glyph-name="uni049D" unicode="&#x49d;" horiz-adv-x="497" 
d="M88 0v484h42v-215h60v115h36v-115h12l175 215h49l-179 -220q30 -8 53 -31t57 -77l97 -156h-46l-93 150q-19 30 -35 48t-37 26t-53 9v-123h-36v123h-60v-233h-42z" />
    <glyph glyph-name="uni049E" unicode="&#x49e;" horiz-adv-x="632" 
d="M127 0v549h-140v38h140v118h42v-118h140v-38h-140v-171h135l223 327h49l-227 -332q48 -10 84.5 -44t64.5 -90l117 -239h-46l-101 210q-34 70 -75.5 99.5t-100.5 29.5h-123v-339h-42z" />
    <glyph glyph-name="uni049F" unicode="&#x49f;" horiz-adv-x="497" 
d="M88 0v562h-95v36h95v107h42v-107h197v-36h-197v-293h108l175 215h49l-179 -220q30 -8 53 -31t57 -77l97 -156h-46l-93 150q-20 33 -38 51t-40 25t-55 7h-88v-233h-42z" />
    <glyph glyph-name="uni04A0" unicode="&#x4a0;" horiz-adv-x="738" 
d="M223 0v667h-220v38h262v-327h145l223 327h49l-227 -332q48 -10 84.5 -44t64.5 -90l117 -239h-46l-101 210q-34 70 -75.5 99.5t-100.5 29.5h-133v-339h-42z" />
    <glyph glyph-name="uni04A1" unicode="&#x4a1;" horiz-adv-x="572" 
d="M163 0v447h-160v37h202v-215h108l175 215h49l-179 -220q30 -8 53 -31t57 -77l97 -156h-46l-93 150q-20 33 -38 51t-40 25t-55 7h-88v-233h-42z" />
    <glyph glyph-name="uni04A2" unicode="&#x4a2;" horiz-adv-x="785" 
d="M96 0v705h42v-328h475v328h42v-666h100v-189h-40v150h-102v338h-475v-338h-42z" />
    <glyph glyph-name="uni04A3" unicode="&#x4a3;" horiz-adv-x="588" 
d="M514 -130v130h-76v232h-308v-232h-42v484h42v-215h308v215h42v-447h74v-167h-40z" />
    <glyph glyph-name="uni04A4" unicode="&#x4a4;" horiz-adv-x="927" 
d="M96 0v705h42v-328h475v328h311v-39h-269v-666h-42v338h-475v-338h-42z" />
    <glyph glyph-name="uni04A5" unicode="&#x4a5;" horiz-adv-x="727" 
d="M88 0v484h42v-215h308v215h277v-37h-235v-447h-42v232h-308v-232h-42z" />
    <glyph glyph-name="uni04A8" unicode="&#x4a8;" horiz-adv-x="780" 
d="M375 -8q-95 0 -164 44t-106.5 124.5t-37.5 191.5q0 113 36.5 194t105.5 124t164 43q20 0 38.5 -2t27.5 -5l-6 -39q-18 2 -33.5 3.5t-26.5 1.5q-124 0 -192.5 -83.5t-68.5 -235.5t69 -236t194 -84q51 0 97 16q-62 44 -97.5 116.5t-35.5 163.5q0 106 47.5 166t129.5 60
q83 0 130 -60t47 -166q0 -91 -35.5 -163.5t-97.5 -116.5q45 -16 97 -16q72 0 124 28l12 -38q-49 -31 -137 -31q-76 0 -140 31q-65 -31 -141 -31zM383 329q0 -89 35.5 -156t97.5 -104q62 37 97.5 104t35.5 156q0 88 -35 136.5t-98 48.5t-98 -48.5t-35 -136.5z" />
    <glyph glyph-name="uni04A9" unicode="&#x4a9;" horiz-adv-x="591" 
d="M289 -8q-71 0 -123.5 31t-81 88t-28.5 135q0 75 26.5 130t75 85.5t114.5 30.5q32 0 61 -7t46 -18l-14 -37q-14 10 -40.5 16.5t-52.5 6.5q-81 0 -127 -55.5t-46 -151.5q0 -104 49.5 -160t139.5 -56q32 0 60 8q-41 30 -65 77t-24 104q0 68 36 109.5t95 41.5t95 -41.5
t36 -109.5q0 -57 -23.5 -104t-65.5 -77q28 -8 60 -8q55 0 99 23l14 -35q-49 -26 -112 -26q-55 0 -102 21q-47 -21 -102 -21zM301 219q0 -56 23.5 -98.5t65.5 -65.5q42 23 65.5 65.5t23.5 98.5q0 52 -24 82.5t-65 30.5q-40 0 -64.5 -30.5t-24.5 -82.5z" />
    <glyph glyph-name="uni04AA" unicode="&#x4aa;" horiz-adv-x="667" 
d="M356 -150v143q-137 8 -213 103.5t-76 256.5q0 112 37.5 192.5t107.5 124t169 43.5q151 0 238 -95l-22 -35q-47 47 -99 68t-118 21q-129 0 -198.5 -83.5t-69.5 -235.5t69.5 -236t198.5 -84q66 0 118 21t99 68l22 -35q-83 -90 -223 -95v-142h-40z" />
    <glyph glyph-name="uni04AB" unicode="&#x4ab;" horiz-adv-x="461" 
d="M256 -130v123q-94 7 -147 76t-53 177q0 114 59 180t162 66q44 0 86 -17.5t70 -48.5l-20 -33q-32 32 -68 46t-69 14q-85 0 -131 -54t-46 -154t46 -157t131 -57q33 0 69 14t68 46l20 -33q-25 -27 -62 -44t-75 -21v-123h-40z" />
    <glyph glyph-name="uni04AC" unicode="&#x4ac;" horiz-adv-x="566" 
d="M364 -150v150h-102v666h-259v39h560v-39h-259v-627h100v-189h-40z" />
    <glyph glyph-name="uni04AD" unicode="&#x4ad;" horiz-adv-x="418" 
d="M264 -130v130h-76v447h-185v37h412v-37h-185v-410h74v-167h-40z" />
    <glyph glyph-name="uni04AE" unicode="&#x4ae;" horiz-adv-x="577" 
d="M267 0v343l-268 362h49l242 -327l241 327h47l-269 -363v-342h-42z" />
    <glyph glyph-name="uni04AF" unicode="&#x4af;" horiz-adv-x="510" 
d="M234 -180v173l-209 491h48l182 -440l183 440h47l-209 -491v-173h-42z" />
    <glyph glyph-name="uni04B0" unicode="&#x4b0;" horiz-adv-x="577" 
d="M267 0v343l-268 362h49l242 -327l241 327h47l-269 -363v-342h-42zM102 307v36h372v-36h-372z" />
    <glyph glyph-name="uni04B1" unicode="&#x4b1;" horiz-adv-x="510" 
d="M234 -180v144h-118v36h115l-206 484h48l182 -440l183 440h47l-206 -484h115v-36h-118v-144h-42z" />
    <glyph glyph-name="uni04B2" unicode="&#x4b2;" horiz-adv-x="651" 
d="M24 0l267 362l-252 343h50l228 -310l225 310h50l-252 -343l238 -323h64v-189h-40v150h-46l-240 328l-241 -328h-51z" />
    <glyph glyph-name="uni04B3" unicode="&#x4b3;" horiz-adv-x="495" 
d="M32 0l199 250l-188 234h51l163 -205l162 205h51l-188 -235l169 -212h56v-167h-40v130h-38l-173 217l-173 -217h-51z" />
    <glyph glyph-name="uni04B4" unicode="&#x4b4;" horiz-adv-x="900" 
d="M837 -150v150h-614v666h-220v39h482v-39h-220v-627h470v666h42v-666h100v-189h-40z" />
    <glyph glyph-name="uni04B5" unicode="&#x4b5;" horiz-adv-x="656" 
d="M584 -130v130h-421v447h-160v37h362v-37h-160v-411h301v448h42v-448h74v-166h-38z" />
    <glyph glyph-name="uni04B6" unicode="&#x4b6;" horiz-adv-x="691" 
d="M621 -150v150h-102v318q-34 -21 -86 -31.5t-104 -10.5q-130 0 -198.5 71.5t-68.5 211.5v146h42v-140q0 -127 57 -187.5t168 -60.5q52 0 100 10.5t90 36.5v341h42v-666h100v-189h-40z" />
    <glyph glyph-name="uni04B7" unicode="&#x4b7;" horiz-adv-x="552" 
d="M402 0v214q-59 -41 -142 -41q-100 0 -146.5 47t-46.5 144v120h42v-119q0 -79 36 -116t114 -37q44 0 77.5 10t65.5 33v229h42v-447h74v-167h-40v130h-76z" />
    <glyph glyph-name="uni04B8" unicode="&#x4b8;" horiz-adv-x="657" 
d="M519 0v318q-33 -20 -82.5 -30.5t-98.5 -11.5v-161h-36v162q-116 9 -178 77t-62 205v146h42v-140q0 -124 52 -182t146 -65v180h36v-181q48 1 94 11.5t87 35.5v341h42v-705h-42z" />
    <glyph glyph-name="uni04B9" unicode="&#x4b9;" horiz-adv-x="532" 
d="M402 0v214q-27 -19 -59.5 -29t-63.5 -12v-103h-36v103q-91 4 -133.5 51t-42.5 140v120h42v-119q0 -76 33.5 -113t100.5 -40v129h36v-129q33 2 63.5 12t59.5 31v229h42v-484h-42z" />
    <glyph glyph-name="uni04BA" unicode="&#x4ba;" horiz-adv-x="657" 
d="M96 0v705h42v-318q35 21 86.5 31.5t103.5 10.5q131 0 199 -71.5t68 -211.5v-146h-42v140q0 128 -57 188t-168 60q-52 0 -100 -10.5t-90 -36.5v-341h-42z" />
    <glyph glyph-name="uni04BB" unicode="&#x4bb;" horiz-adv-x="559" 
d="M88 0v705h42v-309q24 48 69 72t101 24q173 0 173 -184v-308h-42v304q0 77 -31 113t-100 36q-77 0 -123.5 -47.5t-46.5 -127.5v-278h-42z" />
    <glyph glyph-name="uni04BC" unicode="&#x4bc;" horiz-adv-x="888" 
d="M553 -8q-162 0 -252 89.5t-97 247.5h-17q-162 0 -162 154v59h42v-56q0 -62 29 -90t90 -28h18q3 107 41.5 184.5t107.5 119t165 41.5q100 0 167.5 -44t101.5 -124t34 -188v-28h-572q6 -141 83 -218.5t222 -77.5q61 0 115 18.5t105 63.5l21 -35q-49 -45 -111.5 -66.5
t-130.5 -21.5zM519 672q-125 0 -195.5 -80t-74.5 -224h529q-4 148 -69.5 226t-189.5 78z" />
    <glyph glyph-name="uni04BD" unicode="&#x4bd;" horiz-adv-x="599" 
d="M382 -8q-108 0 -170.5 65.5t-62.5 176.5h-7q-60 0 -90 31.5t-30 87.5v37h40v-38q0 -42 17.5 -61.5t60.5 -19.5h10q6 67 35.5 117t77.5 77t110 27q94 0 146 -61.5t52 -170.5v-26h-379q2 -97 51 -150t137 -53q45 0 84.5 14.5t78.5 48.5l20 -34q-31 -31 -80 -49.5
t-101 -18.5zM372 454q-55 0 -93.5 -24.5t-60 -65.5t-25.5 -93h339q-3 85 -43 134t-117 49z" />
    <glyph glyph-name="uni04BE" unicode="&#x4be;" horiz-adv-x="888" 
d="M553 -8q-162 0 -252 89.5t-97 247.5h-17q-162 0 -162 154v59h42v-56q0 -62 29 -90t90 -28h18q3 107 41.5 184.5t107.5 119t165 41.5q100 0 167.5 -44t101.5 -124t34 -188v-28h-572q6 -141 83 -218.5t222 -77.5q61 0 115 18.5t105 63.5l21 -35q-49 -45 -111.5 -66.5
t-130.5 -21.5zM519 672q-125 0 -195.5 -80t-74.5 -224h529q-4 148 -69.5 226t-189.5 78zM559 -190q-41 0 -67.5 25t-26.5 67q0 38 23.5 72.5t66.5 56.5l21 -31q-15 -6 -31.5 -19t-28.5 -32t-12 -43q0 -31 17.5 -45.5t42.5 -14.5q26 0 53 13l13 -32q-24 -17 -71 -17z" />
    <glyph glyph-name="uni04BF" unicode="&#x4bf;" horiz-adv-x="599" 
d="M382 -8q-108 0 -170.5 65.5t-62.5 176.5h-7q-60 0 -90 31.5t-30 87.5v37h40v-38q0 -42 17.5 -61.5t60.5 -19.5h10q6 67 35.5 117t77.5 77t110 27q94 0 146 -61.5t52 -170.5v-26h-379q2 -97 51 -150t137 -53q45 0 84.5 14.5t78.5 48.5l20 -34q-31 -31 -80 -49.5
t-101 -18.5zM372 454q-55 0 -93.5 -24.5t-60 -65.5t-25.5 -93h339q-3 85 -43 134t-117 49zM413 -190q-41 0 -67.5 25t-26.5 67q0 38 23.5 72.5t66.5 56.5l21 -31q-15 -6 -31.5 -19t-28.5 -32t-12 -43q0 -31 17.5 -45.5t42.5 -14.5q26 0 53 13l13 -32q-24 -17 -71 -17z" />
    <glyph glyph-name="uni04C0" unicode="&#x4c0;" horiz-adv-x="234" 
d="M96 0v705h42v-705h-42z" />
    <glyph glyph-name="uni04C1" unicode="&#x4c1;" horiz-adv-x="928" 
d="M17 0l115 239q27 56 64.5 90t86.5 44l-227 332h49l223 -327h115v327h42v-327h115l223 327h49l-227 -332q48 -10 84.5 -44t64.5 -90l117 -239h-45l-102 210q-34 70 -75.5 99.5t-100.5 29.5h-103v-339h-42v339h-103q-61 0 -103.5 -30.5t-74.5 -98.5l-100 -210h-45zM464 760
q-52 0 -103.5 28t-77.5 96l33 14q22 -52 58.5 -77t88.5 -25q53 0 88.5 21.5t68.5 79.5l32 -13q-35 -73 -85 -98.5t-103 -25.5z" />
    <glyph glyph-name="uni04C2" unicode="&#x4c2;" horiz-adv-x="748" 
d="M7 0l97 156q34 54 57 77t53 31l-179 220h49l175 -215h94v215h42v-215h94l175 215h49l-179 -220q30 -8 53 -31t57 -77l97 -156h-46l-93 150q-20 33 -38 51t-40 25t-55 7h-74v-233h-42v233h-74q-33 0 -55 -7t-39.5 -25t-38.5 -51l-93 -150h-46zM374 547q-46 0 -92 28
t-69 96l33 14q19 -52 51 -77t77 -25q46 0 77 21.5t59 79.5l32 -13q-31 -73 -76 -98.5t-92 -25.5z" />
    <glyph glyph-name="uni04C3" unicode="&#x4c3;" horiz-adv-x="641" 
d="M392 -188q-33 0 -65.5 6t-43.5 15l10 37q41 -19 98 -19q71 0 108.5 47.5t37.5 143.5v48q0 132 -58 190.5t-181 58.5h-160v-339h-42v705h42v-327h145l223 327h49l-224 -328q248 -10 248 -281v-53q0 -113 -48.5 -172t-138.5 -59z" />
    <glyph glyph-name="uni04C4" unicode="&#x4c4;" horiz-adv-x="514" 
d="M288 -185l-9 37q58 13 88 37.5t41.5 62.5t11.5 90v29q0 84 -37.5 123t-116.5 39h-136v-233h-42v484h42v-215h108l175 215h49l-175 -216q81 -6 128 -52.5t47 -140.5v-30q0 -63 -15.5 -109.5t-53 -76.5t-105.5 -44z" />
    <glyph glyph-name="uni04C5" unicode="&#x4c5;" horiz-adv-x="741" 
d="M633 -150l50 150h-90v666h-358v-181q0 -118 -13 -202t-38 -141t-62 -94t-85 -61l-17 38q39 20 71 49.5t55 80t36 132.5t13 208v210h440v-666h99l-63 -189h-38z" />
    <glyph glyph-name="uni04C6" unicode="&#x4c6;" horiz-adv-x="574" 
d="M48 -9l-22 33q36 18 60 44.5t37.5 67t19.5 100.5t6 147v101h317v-447h75l-60 -167h-39l47 130h-65v448h-234v-66q0 -122 -13 -198.5t-44 -121t-85 -71.5z" />
    <glyph glyph-name="uni04C7" unicode="&#x4c7;" horiz-adv-x="751" 
d="M470 -193l-3 38l41 3q105 8 105 130v360h-475v-338h-42v705h42v-328h475v328h42v-726q0 -77 -37 -120.5t-105 -48.5z" />
    <glyph glyph-name="uni04C8" unicode="&#x4c8;" horiz-adv-x="568" 
d="M295 -193l-3 38l41 3q105 8 105 130v254h-308v-232h-42v484h42v-215h308v215h42v-505q0 -77 -37 -120.5t-105 -48.5z" />
    <glyph glyph-name="uni04C9" unicode="&#x4c9;" horiz-adv-x="761" 
d="M96 0v705h42v-328h475v328h42v-666h99l-63 -189h-38l50 150h-90v338h-475v-338h-42z" />
    <glyph glyph-name="uni04CA" unicode="&#x4ca;" horiz-adv-x="588" 
d="M88 0v484h42v-215h308v215h42v-447h75l-60 -167h-39l47 130h-65v232h-308v-232h-42z" />
    <glyph glyph-name="uni04CB" unicode="&#x4cb;" horiz-adv-x="657" 
d="M459 -150h-40v189h100v279q-34 -21 -86 -31.5t-104 -10.5q-130 0 -198.5 71.5t-68.5 211.5v146h42v-140q0 -127 57 -187.5t168 -60.5q52 0 100 10.5t90 36.5v341h42v-705h-102v-150z" />
    <glyph glyph-name="uni04CC" unicode="&#x4cc;" horiz-adv-x="532" 
d="M367 -130h-39v166h74v178q-59 -41 -142 -41q-100 0 -146.5 47t-46.5 144v120h42v-119q0 -79 36 -116t114 -37q44 0 77.5 10t65.5 33v229h42v-484h-77v-130z" />
    <glyph glyph-name="uni04CD" unicode="&#x4cd;" horiz-adv-x="854" 
d="M747 -150l50 150h-90v619l-266 -509h-35l-269 509v-619h-39v705h36l289 -551l287 551h36v-666h102l-63 -189h-38z" />
    <glyph glyph-name="uni04CE" unicode="&#x4ce;" horiz-adv-x="656" 
d="M88 0v484h35l195 -358l195 358h35v-447h79l-60 -167h-39l47 130h-65v398l-179 -321h-26l-179 321v-398h-38z" />
    <glyph glyph-name="uni04CF" unicode="&#x4cf;" horiz-adv-x="218" 
d="M88 0v705h42v-705h-42z" />
    <glyph glyph-name="uni04D0" unicode="&#x4d0;" horiz-adv-x="716" 
d="M35 0l303 705h40l303 -705h-45l-84 195h-389l-83 -195h-45zM357 648l-176 -414h354l-176 414h-2zM357 760q-52 0 -103.5 28t-77.5 96l33 14q22 -52 58.5 -77t88.5 -25q53 0 88.5 21.5t68.5 79.5l32 -13q-35 -73 -85 -98.5t-103 -25.5z" />
    <glyph glyph-name="uni04D1" unicode="&#x4d1;" horiz-adv-x="520" 
d="M234 -8q-47 0 -85 19t-60 51.5t-22 72.5q0 54 26.5 84.5t91 43t177.5 12.5h30v40q0 72 -28 105t-90 33q-45 0 -84.5 -13t-82.5 -42l-20 36q38 27 87.5 42.5t97.5 15.5q83 0 122.5 -43t39.5 -134v-315h-41v90q-21 -46 -62.5 -72t-96.5 -26zM237 30q46 0 80.5 22.5t54.5 61
t20 87.5v37h-28q-99 0 -153.5 -8.5t-76 -30t-21.5 -60.5q0 -48 33.5 -78.5t90.5 -30.5zM268 547q-46 0 -92 28t-69 96l33 14q19 -52 51 -77t77 -25q46 0 77 21.5t59 79.5l32 -13q-31 -73 -76 -98.5t-92 -25.5z" />
    <glyph glyph-name="uni04D2" unicode="&#x4d2;" horiz-adv-x="716" 
d="M35 0l303 705h40l303 -705h-45l-84 195h-389l-83 -195h-45zM357 648l-176 -414h354l-176 414h-2zM407 820v60h61v-60h-61zM246 820v60h61v-60h-61z" />
    <glyph glyph-name="uni04D3" unicode="&#x4d3;" horiz-adv-x="520" 
d="M234 -8q-47 0 -85 19t-60 51.5t-22 72.5q0 54 26.5 84.5t91 43t177.5 12.5h30v40q0 72 -28 105t-90 33q-45 0 -84.5 -13t-82.5 -42l-20 36q38 27 87.5 42.5t97.5 15.5q83 0 122.5 -43t39.5 -134v-315h-41v90q-21 -46 -62.5 -72t-96.5 -26zM237 30q46 0 80.5 22.5t54.5 61
t20 87.5v37h-28q-99 0 -153.5 -8.5t-76 -30t-21.5 -60.5q0 -48 33.5 -78.5t90.5 -30.5zM318 620v60h61v-60h-61zM157 620v60h61v-60h-61z" />
    <glyph glyph-name="uni04D4" unicode="&#x4d4;" horiz-adv-x="971" 
d="M2 0l420 705h499v-39h-450l61 -289h369v-39h-361l63 -299h318v-39h-350l-41 195h-365l-116 -195h-47zM433 648l-245 -414h334l-87 414h-2z" />
    <glyph glyph-name="uni04D5" unicode="&#x4d5;" horiz-adv-x="863" 
d="M236 -8q-48 0 -86 19t-60.5 51.5t-22.5 72.5q0 54 27.5 84.5t92 42.5t175.5 12h35v38q0 74 -29.5 107.5t-91.5 33.5q-46 0 -86 -12.5t-83 -41.5l-20 35q38 27 87.5 42.5t99.5 15.5q67 0 105.5 -27.5t53.5 -79.5q57 107 186 107q90 0 141.5 -61.5t51.5 -170.5v-23h-372
q2 -98 49 -152t134 -54q44 0 83 15t78 48l20 -34q-31 -31 -79.5 -49.5t-97.5 -18.5q-78 0 -131.5 34t-78.5 100q-19 -62 -66 -98t-115 -36zM615 454q-75 0 -121.5 -49t-52.5 -131h332q-3 83 -43 131.5t-115 48.5zM239 30q48 0 83.5 23t55 63.5t19.5 91.5v29h-33
q-99 0 -153.5 -8t-76 -29.5t-21.5 -60.5q0 -48 34 -78.5t92 -30.5z" />
    <glyph glyph-name="uni04D6" unicode="&#x4d6;" horiz-adv-x="570" 
d="M96 0v705h424v-39h-382v-289h362v-39h-362v-299h382v-39h-424zM320 760q-52 0 -103.5 28t-77.5 96l33 14q22 -52 58.5 -77t88.5 -25q53 0 88.5 21.5t68.5 79.5l32 -13q-35 -73 -85 -98.5t-103 -25.5z" />
    <glyph glyph-name="uni04D7" unicode="&#x4d7;" horiz-adv-x="529" 
d="M289 -8q-108 0 -170.5 66.5t-62.5 181.5q0 76 28.5 132.5t79 88t116.5 31.5q94 0 146 -61.5t52 -170.5v-26h-379q2 -97 51 -150t137 -53q45 0 84.5 14.5t78.5 48.5l20 -34q-31 -31 -80 -49.5t-101 -18.5zM279 454q-81 0 -126.5 -52t-52.5 -131h339q-3 85 -43 134t-117 49
zM280 547q-46 0 -92 28t-69 96l33 14q19 -52 51 -77t77 -25q46 0 77 21.5t59 79.5l32 -13q-31 -73 -76 -98.5t-92 -25.5z" />
    <glyph glyph-name="uni04D8" unicode="&#x4d8;" horiz-adv-x="751" 
d="M380 -8q-105 0 -174.5 44t-104 124t-34.5 188v28h572q-6 142 -80 219t-205 77q-79 0 -134 -21t-106 -68l-21 35q98 95 262 95q102 0 175.5 -43.5t113.5 -124t40 -192.5t-37 -193t-105.5 -124.5t-161.5 -43.5zM379 33q118 0 187 80t73 224h-528q4 -148 70.5 -226
t197.5 -78z" />
    <glyph glyph-name="uni04D9" unicode="&#x4d9;" horiz-adv-x="529" 
d="M255 -8q-97 0 -150.5 61.5t-53.5 173.5v23h379q-2 96 -51 149.5t-137 53.5t-163 -62l-20 33q31 32 80 50t101 18q108 0 170.5 -66t62.5 -181q0 -77 -27.5 -134t-76.5 -88t-114 -31zM256 30q74 0 120.5 48t52.5 135h-337q3 -88 44.5 -135.5t119.5 -47.5z" />
    <glyph glyph-name="uni04DA" unicode="&#x4da;" horiz-adv-x="751" 
d="M380 -8q-105 0 -174.5 44t-104 124t-34.5 188v28h572q-6 142 -80 219t-205 77q-79 0 -134 -21t-106 -68l-21 35q98 95 262 95q102 0 175.5 -43.5t113.5 -124t40 -192.5t-37 -193t-105.5 -124.5t-161.5 -43.5zM379 33q118 0 187 80t73 224h-528q4 -148 70.5 -226
t197.5 -78zM422 820v60h61v-60h-61zM261 820v60h61v-60h-61z" />
    <glyph glyph-name="uni04DB" unicode="&#x4db;" horiz-adv-x="529" 
d="M255 -8q-97 0 -150.5 61.5t-53.5 173.5v23h379q-2 96 -51 149.5t-137 53.5t-163 -62l-20 33q31 32 80 50t101 18q108 0 170.5 -66t62.5 -181q0 -77 -27.5 -134t-76.5 -88t-114 -31zM256 30q74 0 120.5 48t52.5 135h-337q3 -88 44.5 -135.5t119.5 -47.5zM299 620v60h61
v-60h-61zM138 620v60h61v-60h-61z" />
    <glyph glyph-name="uni04DC" unicode="&#x4dc;" horiz-adv-x="928" 
d="M17 0l115 239q27 56 64.5 90t86.5 44l-227 332h49l223 -327h115v327h42v-327h115l223 327h49l-227 -332q48 -10 84.5 -44t64.5 -90l117 -239h-45l-102 210q-34 70 -75.5 99.5t-100.5 29.5h-103v-339h-42v339h-103q-61 0 -103.5 -30.5t-74.5 -98.5l-100 -210h-45zM514 820
v60h61v-60h-61zM353 820v60h61v-60h-61z" />
    <glyph glyph-name="uni04DD" unicode="&#x4dd;" horiz-adv-x="748" 
d="M7 0l97 156q34 54 57 77t53 31l-179 220h49l175 -215h94v215h42v-215h94l175 215h49l-179 -220q30 -8 53 -31t57 -77l97 -156h-46l-93 150q-20 33 -38 51t-40 25t-55 7h-74v-233h-42v233h-74q-33 0 -55 -7t-39.5 -25t-38.5 -51l-93 -150h-46zM424 620v60h61v-60h-61z
M263 620v60h61v-60h-61z" />
    <glyph glyph-name="uni04DE" unicode="&#x4de;" horiz-adv-x="645" 
d="M319 -8q-90 0 -160 26t-111 70l21 36q51 -47 110 -69t140 -22q109 0 160 39.5t51 115.5q0 77 -46.5 113t-138.5 36h-173v39h158q90 0 137 37.5t47 107.5q0 71 -49.5 111t-145.5 40q-67 0 -125 -21t-108 -67l-21 36q47 46 114.5 69.5t139.5 23.5q118 0 178.5 -52
t60.5 -141q0 -59 -31.5 -100t-85.5 -60q62 -14 97.5 -58t35.5 -111q0 -94 -62.5 -146.5t-192.5 -52.5zM370 820v60h61v-60h-61zM209 820v60h61v-60h-61z" />
    <glyph glyph-name="uni04DF" unicode="&#x4df;" horiz-adv-x="477" 
d="M231 -8q-60 0 -112.5 17.5t-82.5 48.5l20 36q35 -32 79 -47.5t96 -15.5q80 0 114.5 26.5t34.5 74.5q0 47 -31 71.5t-88 24.5h-101v36h93q50 0 81 24.5t31 67.5q0 44 -31 70.5t-96 26.5q-50 0 -92 -13.5t-82 -45.5l-20 36q80 62 194 62q87 0 128.5 -36t41.5 -100
q0 -38 -22 -67t-59 -41q43 -10 70 -41t27 -75q0 -63 -47.5 -101.5t-145.5 -38.5zM287 620v60h61v-60h-61zM126 620v60h61v-60h-61z" />
    <glyph glyph-name="uni04E0" unicode="&#x4e0;" horiz-adv-x="645" 
d="M319 -8q-90 0 -160 26t-111 70l21 36q51 -47 110 -69t140 -22q109 0 160 39.5t51 115.5q0 77 -49 113t-156 36h-93v36l255 293h-424v39h484v-31l-259 -298h45q112 0 176.5 -44t64.5 -141q0 -94 -62.5 -146.5t-192.5 -52.5z" />
    <glyph glyph-name="uni04E1" unicode="&#x4e1;" horiz-adv-x="476" 
d="M224 -188q-64 0 -116 16.5t-85 45.5l20 34q36 -29 79.5 -43t101.5 -14q86 0 130 42.5t44 123.5q0 71 -42.5 110t-119.5 39h-108v23l226 258h-316v37h373v-30l-221 -250h44q98 0 152.5 -49t54.5 -138q0 -96 -57 -150.5t-160 -54.5z" />
    <glyph glyph-name="uni04E2" unicode="&#x4e2;" horiz-adv-x="732" 
d="M96 0v705h39v-634l466 634h35v-705h-39v636l-467 -636h-34zM211 822v38h310v-38h-310z" />
    <glyph glyph-name="uni04E3" unicode="&#x4e3;" horiz-adv-x="566" 
d="M88 0v484h39v-420l313 420h38v-484h-39v420l-313 -420h-38zM143 633v38h280v-38h-280z" />
    <glyph glyph-name="uni04E4" unicode="&#x4e4;" horiz-adv-x="732" 
d="M96 0v705h39v-634l466 634h35v-705h-39v636l-467 -636h-34zM416 820v60h61v-60h-61zM255 820v60h61v-60h-61z" />
    <glyph glyph-name="uni04E5" unicode="&#x4e5;" horiz-adv-x="566" 
d="M88 0v484h39v-420l313 420h38v-484h-39v420l-313 -420h-38zM333 620v60h61v-60h-61zM172 620v60h61v-60h-61z" />
    <glyph glyph-name="uni04E6" unicode="&#x4e6;" horiz-adv-x="751" 
d="M375 -8q-95 0 -164 44t-106.5 125t-37.5 192q0 112 37 192.5t106 124t165 43.5t165.5 -43.5t106.5 -124t37 -191.5q0 -112 -37.5 -193t-106.5 -125t-165 -44zM375 33q126 0 195 84t69 236t-68.5 235.5t-195.5 83.5q-125 0 -194 -83.5t-69 -235.5q0 -151 69 -235.5
t194 -84.5zM426 820v60h61v-60h-61zM265 820v60h61v-60h-61z" />
    <glyph glyph-name="uni04E7" unicode="&#x4e7;" horiz-adv-x="544" 
d="M272 -8q-66 0 -114.5 31t-75 87t-26.5 132t26.5 132t75 87t114.5 31t114.5 -31t75 -87t26.5 -132t-26.5 -132t-75 -87t-114.5 -31zM272 31q80 0 126.5 55.5t46.5 155.5t-46.5 155.5t-126.5 55.5q-79 0 -126 -55.5t-47 -155.5t47 -155.5t126 -55.5zM322 620v60h61v-60h-61
zM161 620v60h61v-60h-61z" />
    <glyph glyph-name="uni04E8" unicode="&#x4e8;" horiz-adv-x="751" 
d="M375 -8q-95 0 -164 44t-106.5 125t-37.5 192q0 112 37 192.5t106 124t165 43.5t165.5 -43.5t106.5 -124t37 -191.5q0 -112 -37.5 -193t-106.5 -125t-165 -44zM375 672q-120 0 -188.5 -77.5t-74.5 -217.5h527q-6 141 -74 218t-190 77zM375 33q123 0 192 80t72 226h-527
q4 -145 72.5 -225.5t190.5 -80.5z" />
    <glyph glyph-name="uni04E9" unicode="&#x4e9;" horiz-adv-x="544" 
d="M272 -8q-66 0 -114.5 31t-75 87t-26.5 132t26.5 132t75 87t114.5 31t114.5 -31t75 -87t26.5 -132t-26.5 -132t-75 -87t-114.5 -31zM272 453q-76 0 -122 -50.5t-51 -142.5h346q-5 92 -51 142.5t-122 50.5zM272 31q76 0 122 50.5t51 142.5h-346q5 -92 51 -142.5t122 -50.5z
" />
    <glyph glyph-name="uni04EA" unicode="&#x4ea;" horiz-adv-x="751" 
d="M375 -8q-95 0 -164 44t-106.5 125t-37.5 192q0 112 37 192.5t106 124t165 43.5t165.5 -43.5t106.5 -124t37 -191.5q0 -112 -37.5 -193t-106.5 -125t-165 -44zM375 672q-120 0 -188.5 -77.5t-74.5 -217.5h527q-6 141 -74 218t-190 77zM375 33q123 0 192 80t72 226h-527
q4 -145 72.5 -225.5t190.5 -80.5zM426 820v60h61v-60h-61zM265 820v60h61v-60h-61z" />
    <glyph glyph-name="uni04EB" unicode="&#x4eb;" horiz-adv-x="544" 
d="M272 -8q-66 0 -114.5 31t-75 87t-26.5 132t26.5 132t75 87t114.5 31t114.5 -31t75 -87t26.5 -132t-26.5 -132t-75 -87t-114.5 -31zM272 453q-76 0 -122 -50.5t-51 -142.5h346q-5 92 -51 142.5t-122 50.5zM272 31q76 0 122 50.5t51 142.5h-346q5 -92 51 -142.5t122 -50.5z
M322 620v60h61v-60h-61zM161 620v60h61v-60h-61z" />
    <glyph glyph-name="uni04EC" unicode="&#x4ec;" horiz-adv-x="667" 
d="M286 -8q-73 0 -133.5 24t-104.5 71l22 35q47 -47 99 -68t118 -21q127 0 195.5 80.5t72.5 224.5h-384v39h384q-6 138 -72.5 216.5t-185.5 78.5q-66 0 -119 -21t-108 -68l-22 35q103 95 248 95q94 0 162 -43.5t105 -124t37 -192.5t-37 -193t-107.5 -124.5t-169.5 -43.5z
M342 820v60h61v-60h-61zM181 820v60h61v-60h-61z" />
    <glyph glyph-name="uni04ED" unicode="&#x4ed;" horiz-adv-x="471" 
d="M194 -8q-31 0 -63.5 8t-60 23t-42.5 35l20 36q29 -31 69 -47t78 -16q83 0 128 53t49 146h-260v36h260q-3 50 -21.5 92.5t-56.5 68.5t-99 26q-37 0 -77.5 -15.5t-69.5 -47.5l-20 36q28 30 74.5 48t93.5 18q103 0 161 -66t58 -180q0 -115 -58.5 -184.5t-162.5 -69.5z
M257 620v60h61v-60h-61zM96 620v60h61v-60h-61z" />
    <glyph glyph-name="uni04EE" unicode="&#x4ee;" horiz-adv-x="628" 
d="M213 0l109 209l-312 496h47l286 -455l235 455h45l-364 -705h-46zM160 822v38h310v-38h-310z" />
    <glyph glyph-name="uni04EF" unicode="&#x4ef;" horiz-adv-x="510" 
d="M155 -180l77 177l-207 487h48l182 -440l183 440h48l-284 -664h-47zM115 633v38h280v-38h-280z" />
    <glyph glyph-name="uni04F0" unicode="&#x4f0;" horiz-adv-x="628" 
d="M213 0l109 209l-312 496h47l286 -455l235 455h45l-364 -705h-46zM365 820v60h61v-60h-61zM204 820v60h61v-60h-61z" />
    <glyph glyph-name="uni04F1" unicode="&#x4f1;" horiz-adv-x="510" 
d="M155 -180l77 177l-207 487h48l182 -440l183 440h48l-284 -664h-47zM305 620v60h61v-60h-61zM144 620v60h61v-60h-61z" />
    <glyph glyph-name="uni04F2" unicode="&#x4f2;" horiz-adv-x="628" 
d="M213 0l109 209l-312 496h47l286 -455l235 455h45l-364 -705h-46zM247 765l86 170h52l-111 -170h-27zM356 765l85 170h52l-110 -170h-27z" />
    <glyph glyph-name="uni04F3" unicode="&#x4f3;" horiz-adv-x="510" 
d="M155 -180l77 177l-207 487h48l182 -440l183 440h48l-284 -664h-47zM296 549l58 200h48l-79 -200h-27zM187 549l58 200h48l-79 -200h-27z" />
    <glyph glyph-name="uni04F4" unicode="&#x4f4;" horiz-adv-x="657" 
d="M519 0v318q-34 -21 -86 -31.5t-104 -10.5q-130 0 -198.5 71.5t-68.5 211.5v146h42v-140q0 -127 57 -187.5t168 -60.5q52 0 100 10.5t90 36.5v341h42v-705h-42zM356 820v60h61v-60h-61zM195 820v60h61v-60h-61z" />
    <glyph glyph-name="uni04F5" unicode="&#x4f5;" horiz-adv-x="532" 
d="M402 0v214q-59 -41 -142 -41q-100 0 -146.5 47t-46.5 144v120h42v-119q0 -79 36 -116t114 -37q44 0 77.5 10t65.5 33v229h42v-484h-42zM306 620v60h61v-60h-61zM145 620v60h61v-60h-61z" />
    <glyph glyph-name="uni04F6" unicode="&#x4f6;" horiz-adv-x="527" 
d="M96 0v705h418v-39h-376v-627h100v-189h-40v150h-102z" />
    <glyph glyph-name="uni04F7" unicode="&#x4f7;" horiz-adv-x="415" 
d="M88 0v484h315v-37h-273v-410h74v-167h-40v130h-76z" />
    <glyph glyph-name="uni04F8" unicode="&#x4f8;" horiz-adv-x="813" 
d="M96 0v705h42v-326h199q110 0 169 -46.5t59 -141.5t-59 -143t-169 -48h-241zM675 0v705h42v-705h-42zM138 39h198q185 0 185 151q0 150 -185 150h-198v-301zM457 820v60h61v-60h-61zM296 820v60h61v-60h-61z" />
    <glyph glyph-name="uni04F9" unicode="&#x4f9;" horiz-adv-x="689" 
d="M88 0v484h42v-184h163q89 0 135.5 -39.5t46.5 -110.5t-46.5 -110.5t-135.5 -39.5h-205zM559 0v484h42v-484h-42zM130 36h165q65 0 100.5 28t35.5 86q0 59 -35.5 86.5t-100.5 27.5h-165v-228zM395 620v60h61v-60h-61zM234 620v60h61v-60h-61z" />
    <glyph glyph-name="uni04FA" unicode="&#x4fa;" horiz-adv-x="558" 
d="M94 -180l-4 38l34 3q60 5 83 38t23 101h-103v338h-100v38h100v329h418v-39h-376v-290h190v-38h-190v-299h100v-39q0 -87 -35.5 -130t-107.5 -48z" />
    <glyph glyph-name="uni04FB" unicode="&#x4fb;" horiz-adv-x="432" 
d="M67 -180l-3 37l34 4q44 5 64.5 38.5t20.5 100.5h-78v225h-100v36h100v223h315v-37h-273v-186h150v-36h-150v-189h74v-36q0 -87 -32.5 -129.5t-88.5 -47.5z" />
    <glyph glyph-name="uni04FC" unicode="&#x4fc;" horiz-adv-x="631" 
d="M410 -183l-8 36q68 8 99.5 36.5t31.5 86.5q0 56 -73 155l-144 197l-241 -328h-51l267 362l-252 343h50l228 -310l225 310h50l-252 -343l162 -221q38 -51 54.5 -92t16.5 -73q0 -71 -40.5 -109.5t-122.5 -49.5z" />
    <glyph glyph-name="uni04FD" unicode="&#x4fd;" horiz-adv-x="512" 
d="M326 -183l-9 35q56 8 85 30.5t29 66.5q0 31 -19 63t-63 88l-93 117l-173 -217h-51l199 250l-188 234h51l163 -205l162 205h51l-188 -235l99 -124q47 -58 68.5 -96.5t21.5 -79.5q0 -58 -38.5 -91.5t-106.5 -40.5z" />
    <glyph glyph-name="uni04FE" unicode="&#x4fe;" horiz-adv-x="631" 
d="M24 0l267 362l-252 343h50l228 -310l225 310h50l-252 -343l267 -362h-51l-240 328l-241 -328h-51zM130 345v36h372v-36h-372z" />
    <glyph glyph-name="uni04FF" unicode="&#x4ff;" horiz-adv-x="512" 
d="M32 0l199 250l-188 234h51l163 -205l162 205h51l-188 -235l199 -249h-52l-173 217l-173 -217h-51zM70 229v36h372v-36h-372z" />
    <glyph glyph-name="uni0510" unicode="&#x510;" horiz-adv-x="645" 
d="M326 -8q-130 0 -192.5 52t-62.5 147q0 67 35.5 111t97.5 58q-54 19 -85.5 60t-31.5 100q0 89 62.5 141t180.5 52q72 0 138 -23.5t112 -69.5l-21 -36q-49 46 -107.5 67t-125.5 21q-96 0 -145.5 -40t-49.5 -111q0 -70 47 -107.5t137 -37.5h158v-39h-173q-92 0 -138.5 -36
t-46.5 -113q0 -76 51 -115.5t160 -39.5q81 0 140 22t110 69l21 -36q-40 -44 -110.5 -70t-160.5 -26z" />
    <glyph glyph-name="uni0511" unicode="&#x511;" horiz-adv-x="477" 
d="M246 -8q-98 0 -145.5 38.5t-47.5 101.5q0 44 27 75t70 41q-37 12 -59 41t-22 67q0 64 49 100t131 36q49 0 96.5 -15t87.5 -47l-20 -36q-40 32 -80.5 45.5t-83.5 13.5q-64 0 -100.5 -26.5t-36.5 -70.5q0 -43 31 -67.5t81 -24.5h93v-36h-101q-57 0 -88 -24.5t-31 -71.5
q0 -48 34.5 -74.5t114.5 -26.5q52 0 96.5 15.5t78.5 47.5l20 -36q-30 -31 -82.5 -48.5t-112.5 -17.5z" />
    <glyph glyph-name="uni0512" unicode="&#x512;" horiz-adv-x="731" 
d="M447 -193l-3 38l41 3q108 8 108 130v688h-358v-181q0 -118 -13 -202t-38 -141t-62 -94t-85 -61l-17 38q39 20 71 49.5t55 80t36 132.5t13 208v210h440v-726q0 -77 -37.5 -120.5t-107.5 -48.5z" />
    <glyph glyph-name="uni0513" unicode="&#x513;" horiz-adv-x="554" 
d="M281 -193l-3 38l41 3q105 8 105 130v470h-234v-66q0 -122 -13 -198.5t-44 -121t-85 -71.5l-22 33q36 18 60 44.5t37.5 67t19.5 100.5t6 147v101h317v-505q0 -77 -37 -120.5t-105 -48.5z" />
    <glyph glyph-name="uni051A" unicode="&#x51a;" horiz-adv-x="751" 
d="M375 -8q-95 0 -164 44t-106.5 125t-37.5 192q0 112 37 192.5t106 124t165 43.5t165.5 -43.5t106.5 -124t37 -191.5q0 -138 -56.5 -229t-157.5 -120q22 -8 39 -25t35 -48l62 -100l-33 -22l-72 116q-40 66 -126 66zM375 33q126 0 195 84t69 236t-68.5 235.5t-195.5 83.5
q-125 0 -194 -83.5t-69 -235.5q0 -151 69 -235.5t194 -84.5z" />
    <glyph glyph-name="uni051B" unicode="&#x51b;" horiz-adv-x="574" 
d="M444 -180v275q-22 -48 -67 -75.5t-106 -27.5q-99 0 -157 67.5t-58 182.5q0 77 26.5 133t75 86.5t113.5 30.5q61 0 106 -27.5t67 -75.5v95h42v-664h-42zM272 31q80 0 126.5 55.5t46.5 155.5t-46.5 155.5t-126.5 55.5q-79 0 -126 -55.5t-47 -155.5t47 -155.5t126 -55.5z
" />
    <glyph glyph-name="uni051C" unicode="&#x51c;" horiz-adv-x="1091" 
d="M282 0l-244 705h44l221 -642l222 642h39l223 -645l223 645h43l-244 -705h-43l-221 642l-222 -642h-41z" />
    <glyph glyph-name="uni051D" unicode="&#x51d;" horiz-adv-x="836" 
d="M213 0l-170 484h46l148 -434l156 434h52l152 -434l152 434h45l-172 -484h-49l-154 434l-156 -434h-50z" />
    <glyph glyph-name="uni0524" unicode="&#x524;" horiz-adv-x="780" 
d="M710 -150v150h-102v666h-470v-666h-42v705h554v-666h100v-189h-40z" />
    <glyph glyph-name="uni0525" unicode="&#x525;" horiz-adv-x="585" 
d="M511 -130v130h-76v448h-305v-448h-42v484h389v-447h74v-167h-40z" />
    <glyph glyph-name="uni0526" unicode="&#x526;" horiz-adv-x="691" 
d="M655 -150v150h-102v140q0 128 -57 188t-168 60q-52 0 -100 -10.5t-90 -36.5v-341h-42v705h42v-318q35 21 86.5 31.5t103.5 10.5q131 0 199 -71.5t68 -211.5v-107h100v-189h-40z" />
    <glyph glyph-name="uni0527" unicode="&#x527;" horiz-adv-x="559" 
d="M88 0v705h42v-309q24 48 69 72t101 24q173 0 173 -184v-271h74v-167h-40v130h-76v304q0 77 -31 113t-100 36q-77 0 -123.5 -47.5t-46.5 -127.5v-278h-42z" />
    <glyph glyph-name="uni0528" unicode="&#x528;" horiz-adv-x="751" 
d="M-47 -193l-3 38l41 3q105 8 105 130v727h42v-328h475v328h42v-705h-42v338h-475v-359q0 -77 -37 -120.5t-105 -48.5z" />
    <glyph glyph-name="uni0529" unicode="&#x529;" horiz-adv-x="568" 
d="M-55 -193l-3 38l41 3q105 8 105 130v506h42v-215h308v215h42v-484h-42v232h-308v-253q0 -77 -37 -120.5t-105 -48.5z" />
    <glyph glyph-name="uni052E" unicode="&#x52e;" horiz-adv-x="765" 
d="M695 -150v150h-102v666h-358v-181q0 -118 -13 -202t-38 -141t-62 -94t-85 -61l-17 38q39 20 71 49.5t55 80t36 132.5t13 208v210h440v-666h100v-189h-40z" />
    <glyph glyph-name="uni052F" unicode="&#x52f;" horiz-adv-x="574" 
d="M48 -9l-22 33q36 18 60 44.5t37.5 67t19.5 100.5t6 147v101h317v-447h74v-167h-40v130h-76v448h-234v-66q0 -122 -13 -198.5t-44 -121t-85 -71.5z" />
    <glyph glyph-name="uni1E08" unicode="&#x1e08;" horiz-adv-x="667" 
d="M381 -8q-99 0 -169 43.5t-107.5 124.5t-37.5 193t37.5 192.5t107.5 124t169 43.5q151 0 238 -95l-22 -35q-47 47 -99 68t-118 21q-129 0 -198.5 -83.5t-69.5 -235.5t69.5 -236t198.5 -84q66 0 118 21t99 68l22 -35q-87 -95 -238 -95zM385 -190q-49 0 -78 18l9 34
q19 -9 34 -12.5t39 -3.5q27 0 44.5 11t17.5 32q0 32 -39 32q-11 0 -22.5 -2t-28.5 -8l-15 13l15 96h38l-12 -69q15 3 26 3q32 0 55 -17t23 -48q0 -35 -29.5 -57t-76.5 -22zM363 765l118 170h56l-136 -170h-38z" />
    <glyph glyph-name="uni1E09" unicode="&#x1e09;" horiz-adv-x="455" 
d="M274 -8q-69 0 -118.5 32t-76 89t-26.5 133q0 114 59 180t162 66q44 0 86 -17.5t70 -48.5l-20 -33q-32 32 -68 46t-69 14q-85 0 -131 -54t-46 -154t46 -157t131 -57q33 0 69 14t68 46l20 -33q-28 -31 -71 -48.5t-85 -17.5zM278 -190q-49 0 -78 18l9 34q19 -9 34 -12.5
t39 -3.5q27 0 44.5 11t17.5 32q0 32 -39 32q-11 0 -22.5 -2t-28.5 -8l-15 13l15 96h38l-12 -69q15 3 26 3q32 0 55 -17t23 -48q0 -35 -29.5 -57t-76.5 -22zM255 549l104 200h54l-122 -200h-36z" />
    <glyph glyph-name="uni1E0C" unicode="&#x1e0c;" horiz-adv-x="725" 
d="M96 0v705h217q166 0 255.5 -89.5t89.5 -262.5q0 -172 -89.5 -262.5t-255.5 -90.5h-217zM138 39h171q304 0 304 314q0 313 -304 313h-171v-627zM331 -172v63h64v-63h-64z" />
    <glyph glyph-name="uni1E0D" unicode="&#x1e0d;" horiz-adv-x="568" 
d="M268 -8q-65 0 -113.5 30.5t-75 87t-26.5 132.5q0 115 58 182.5t157 67.5q61 0 106 -27.5t67 -75.5v316h42v-705h-42v95q-22 -48 -67 -75.5t-106 -27.5zM269 31q80 0 126.5 55.5t46.5 155.5t-46.5 155.5t-126.5 55.5q-79 0 -126 -55.5t-47 -155.5t47 -155.5t126 -55.5z
M254 -172v63h64v-63h-64z" />
    <glyph glyph-name="uni1E0E" unicode="&#x1e0e;" horiz-adv-x="725" 
d="M96 0v705h217q166 0 255.5 -89.5t89.5 -262.5q0 -172 -89.5 -262.5t-255.5 -90.5h-217zM138 39h171q304 0 304 314q0 313 -304 313h-171v-627zM223 -148v38h280v-38h-280z" />
    <glyph glyph-name="uni1E0F" unicode="&#x1e0f;" horiz-adv-x="568" 
d="M268 -8q-65 0 -113.5 30.5t-75 87t-26.5 132.5q0 115 58 182.5t157 67.5q61 0 106 -27.5t67 -75.5v316h42v-705h-42v95q-22 -48 -67 -75.5t-106 -27.5zM269 31q80 0 126.5 55.5t46.5 155.5t-46.5 155.5t-126.5 55.5q-79 0 -126 -55.5t-47 -155.5t47 -155.5t126 -55.5z
M146 -148v38h280v-38h-280z" />
    <glyph glyph-name="uni1E14" unicode="&#x1e14;" horiz-adv-x="570" 
d="M96 0v705h424v-39h-382v-289h362v-39h-362v-299h382v-39h-424zM302 871l-116 150h54l98 -150h-36zM180 796v38h280v-38h-280z" />
    <glyph glyph-name="uni1E15" unicode="&#x1e15;" horiz-adv-x="523" 
d="M286 -8q-108 0 -170.5 66.5t-62.5 181.5q0 76 28.5 132.5t79 88t116.5 31.5q94 0 146 -61.5t52 -170.5v-26h-379q2 -97 51 -150t137 -53q45 0 84.5 14.5t78.5 48.5l20 -34q-31 -31 -80 -49.5t-101 -18.5zM276 454q-81 0 -126.5 -52t-52.5 -131h339q-3 85 -43 134t-117 49
zM259 650l-116 150h54l98 -150h-36zM137 575v38h280v-38h-280z" />
    <glyph glyph-name="uni1E16" unicode="&#x1e16;" horiz-adv-x="570" 
d="M96 0v705h424v-39h-382v-289h362v-39h-362v-299h382v-39h-424zM302 871l98 150h54l-116 -150h-36zM180 796v38h280v-38h-280z" />
    <glyph glyph-name="uni1E17" unicode="&#x1e17;" horiz-adv-x="523" 
d="M286 -8q-108 0 -170.5 66.5t-62.5 181.5q0 76 28.5 132.5t79 88t116.5 31.5q94 0 146 -61.5t52 -170.5v-26h-379q2 -97 51 -150t137 -53q45 0 84.5 14.5t78.5 48.5l20 -34q-31 -31 -80 -49.5t-101 -18.5zM276 454q-81 0 -126.5 -52t-52.5 -131h339q-3 85 -43 134t-117 49
zM259 650l98 150h54l-116 -150h-36zM137 575v38h280v-38h-280z" />
    <glyph glyph-name="uni1E1C" unicode="&#x1e1c;" horiz-adv-x="570" 
d="M96 0v705h424v-39h-382v-289h362v-39h-362v-299h382v-39h-424zM325 -190q-49 0 -78 18l9 34q19 -9 34 -12.5t39 -3.5q27 0 44.5 11t17.5 32q0 32 -39 32q-11 0 -22.5 -2t-28.5 -8l-15 13l15 96h38l-12 -69q15 3 26 3q32 0 55 -17t23 -48q0 -35 -29.5 -57t-76.5 -22z
M320 760q-64 0 -107 44.5t-50 122.5l33 4q5 -64 38 -99.5t86 -35.5t86.5 35.5t37.5 99.5l33 -4q-7 -78 -50 -122.5t-107 -44.5z" />
    <glyph glyph-name="uni1E1D" unicode="&#x1e1d;" horiz-adv-x="523" 
d="M286 -8q-108 0 -170.5 66.5t-62.5 181.5q0 76 28.5 132.5t79 88t116.5 31.5q94 0 146 -61.5t52 -170.5v-26h-379q2 -97 51 -150t137 -53q45 0 84.5 14.5t78.5 48.5l20 -34q-31 -31 -80 -49.5t-101 -18.5zM276 454q-81 0 -126.5 -52t-52.5 -131h339q-3 85 -43 134t-117 49
zM282 -190q-49 0 -78 18l9 34q19 -9 34 -12.5t39 -3.5q27 0 44.5 11t17.5 32q0 32 -39 32q-11 0 -22.5 -2t-28.5 -8l-15 13l15 96h38l-12 -69q15 3 26 3q32 0 55 -17t23 -48q0 -35 -29.5 -57t-76.5 -22zM277 547q-62 0 -100.5 49.5t-43.5 137.5l33 4q4 -74 33 -114.5
t78 -40.5q50 0 78.5 40.5t32.5 114.5l33 -4q-5 -88 -43.5 -137.5t-100.5 -49.5z" />
    <glyph glyph-name="uni1E20" unicode="&#x1e20;" horiz-adv-x="718" 
d="M402 -8q-164 0 -249.5 94.5t-85.5 266.5q0 112 37.5 192.5t107.5 124t169 43.5q153 0 243 -95l-22 -35q-49 47 -101.5 68t-120.5 21q-129 0 -198.5 -83.5t-69.5 -235.5q0 -156 72 -238t217 -82q103 0 187 35v248h-194v39h234v-315q-24 -13 -62 -24t-81 -17.5t-83 -6.5z
M228 822v38h310v-38h-310z" />
    <glyph glyph-name="uni1E21" unicode="&#x1e21;" horiz-adv-x="570" 
d="M290 -188q-121 0 -205 69l20 34q47 -35 88.5 -49.5t97.5 -14.5q75 0 114 42.5t39 121.5v102q-21 -50 -67 -78t-106 -28q-67 0 -116 30.5t-75.5 85t-26.5 125.5q0 72 26.5 126t75.5 84t116 30q59 0 105 -27.5t67 -75.5v95h42v-462q0 -210 -195 -210zM270 50q80 0 127 55
t47 147t-47 146.5t-127 54.5t-127 -54.5t-47 -146.5t47 -147t127 -55zM148 633v38h280v-38h-280z" />
    <glyph glyph-name="uni1E24" unicode="&#x1e24;" horiz-adv-x="751" 
d="M96 0v705h42v-328h475v328h42v-705h-42v338h-475v-338h-42zM344 -172v63h64v-63h-64z" />
    <glyph glyph-name="uni1E25" unicode="&#x1e25;" horiz-adv-x="553" 
d="M85 0v705h42v-309q24 48 69 72t101 24q173 0 173 -184v-308h-42v304q0 77 -31 113t-100 36q-77 0 -123.5 -47.5t-46.5 -127.5v-278h-42zM245 -172v63h64v-63h-64z" />
    <glyph glyph-name="uni1E2A" unicode="&#x1e2a;" horiz-adv-x="751" 
d="M96 0v705h42v-328h475v328h42v-705h-42v338h-475v-338h-42zM376 -215q-62 0 -100.5 39t-43.5 108l33 4q4 -55 33 -85t78 -30q50 0 78.5 30t32.5 85l33 -4q-5 -69 -43.5 -108t-100.5 -39z" />
    <glyph glyph-name="uni1E2B" unicode="&#x1e2b;" horiz-adv-x="553" 
d="M85 0v705h42v-309q24 48 69 72t101 24q173 0 173 -184v-308h-42v304q0 77 -31 113t-100 36q-77 0 -123.5 -47.5t-46.5 -127.5v-278h-42zM277 -215q-62 0 -100.5 39t-43.5 108l33 4q4 -55 33 -85t78 -30q50 0 78.5 30t32.5 85l33 -4q-5 -69 -43.5 -108t-100.5 -39z" />
    <glyph glyph-name="uni1E2E" unicode="&#x1e2e;" horiz-adv-x="234" 
d="M96 0v705h42v-705h-42zM99 871l98 150h54l-116 -150h-36zM6 771v60h61v-60h-61zM167 771v60h61v-60h-61z" />
    <glyph glyph-name="uni1E2F" unicode="&#x1e2f;" horiz-adv-x="212" 
d="M85 0v484h42v-484h-42zM88 650l98 150h54l-116 -150h-36zM-5 550v60h61v-60h-61zM156 550v60h61v-60h-61z" />
    <glyph glyph-name="uni1E36" unicode="&#x1e36;" horiz-adv-x="527" 
d="M96 0v705h42v-666h376v-39h-418zM273 -172v63h64v-63h-64z" />
    <glyph glyph-name="uni1E37" unicode="&#x1e37;" horiz-adv-x="275" 
d="M217 -8q-63 0 -97.5 40.5t-34.5 113.5v559h42v-552q0 -122 94 -122q25 0 47 6l-3 -39q-27 -6 -48 -6zM149 -172v63h64v-63h-64z" />
    <glyph glyph-name="uni1E3A" unicode="&#x1e3a;" horiz-adv-x="527" 
d="M96 0v705h42v-666h376v-39h-418zM165 -148v38h280v-38h-280z" />
    <glyph glyph-name="uni1E3B" unicode="&#x1e3b;" horiz-adv-x="275" 
d="M217 -8q-63 0 -97.5 40.5t-34.5 113.5v559h42v-552q0 -122 94 -122q25 0 47 6l-3 -39q-27 -6 -48 -6zM41 -148v38h280v-38h-280z" />
    <glyph glyph-name="uni1E42" unicode="&#x1e42;" horiz-adv-x="844" 
d="M98 0v705h36l289 -551l287 551h36v-705h-39v619l-266 -509h-35l-269 509v-619h-39zM390 -172v63h64v-63h-64z" />
    <glyph glyph-name="uni1E43" unicode="&#x1e43;" horiz-adv-x="838" 
d="M87 0v484h41v-88q22 47 61.5 71.5t92.5 24.5q117 0 147 -102q21 47 64 74.5t101 27.5q159 0 159 -184v-308h-42v304q0 77 -27.5 113t-91.5 36q-69 0 -110 -47.5t-41 -127.5v-278h-42v304q0 77 -27.5 113t-91.5 36q-69 0 -110 -47.5t-41 -127.5v-278h-42zM388 -172v63h64
v-63h-64z" />
    <glyph glyph-name="uni1E44" unicode="&#x1e44;" horiz-adv-x="732" 
d="M96 0v705h35l466 -633v633h39v-705h-34l-467 634v-634h-39zM335 818v63h62v-63h-62z" />
    <glyph glyph-name="uni1E45" unicode="&#x1e45;" horiz-adv-x="553" 
d="M85 0v484h41v-90q24 49 69.5 73.5t101.5 24.5q173 0 173 -184v-308h-42v304q0 77 -31 113t-100 36q-77 0 -123.5 -47.5t-46.5 -127.5v-278h-42zM245 619v63h64v-63h-64z" />
    <glyph glyph-name="uni1E46" unicode="&#x1e46;" horiz-adv-x="732" 
d="M96 0v705h35l466 -633v633h39v-705h-34l-467 634v-634h-39zM334 -172v63h64v-63h-64z" />
    <glyph glyph-name="uni1E47" unicode="&#x1e47;" horiz-adv-x="553" 
d="M85 0v484h41v-90q24 49 69.5 73.5t101.5 24.5q173 0 173 -184v-308h-42v304q0 77 -31 113t-100 36q-77 0 -123.5 -47.5t-46.5 -127.5v-278h-42zM245 -172v63h64v-63h-64z" />
    <glyph glyph-name="uni1E48" unicode="&#x1e48;" horiz-adv-x="732" 
d="M96 0v705h35l466 -633v633h39v-705h-34l-467 634v-634h-39zM226 -148v38h280v-38h-280z" />
    <glyph glyph-name="uni1E49" unicode="&#x1e49;" horiz-adv-x="553" 
d="M85 0v484h41v-90q24 49 69.5 73.5t101.5 24.5q173 0 173 -184v-308h-42v304q0 77 -31 113t-100 36q-77 0 -123.5 -47.5t-46.5 -127.5v-278h-42zM137 -148v38h280v-38h-280z" />
    <glyph glyph-name="uni1E4C" unicode="&#x1e4c;" horiz-adv-x="751" 
d="M375 -8q-95 0 -164 44t-106.5 125t-37.5 192q0 112 37 192.5t106 124t165 43.5t165.5 -43.5t106.5 -124t37 -191.5q0 -112 -37.5 -193t-106.5 -125t-165 -44zM375 33q126 0 195 84t69 236t-68.5 235.5t-195.5 83.5q-125 0 -194 -83.5t-69 -235.5q0 -151 69 -235.5
t194 -84.5zM357 871l98 150h54l-116 -150h-36zM439 768q-18 0 -34.5 8t-39.5 26q-20 17 -31.5 21.5t-21.5 4.5q-22 0 -33.5 -14.5t-16.5 -47.5l-33 2q5 48 27 72t56 24q17 0 32 -7t37 -24t34 -23t23 -6q23 0 34 14.5t16 47.5l33 -2q-4 -48 -26 -72t-56 -24z" />
    <glyph glyph-name="uni1E4D" unicode="&#x1e4d;" horiz-adv-x="538" 
d="M269 -8q-66 0 -114.5 31t-75 87t-26.5 132t26.5 132t75 87t114.5 31t114.5 -31t75 -87t26.5 -132t-26.5 -132t-75 -87t-114.5 -31zM269 31q80 0 126.5 55.5t46.5 155.5t-46.5 155.5t-126.5 55.5q-79 0 -126 -55.5t-47 -155.5t47 -155.5t126 -55.5zM251 650l98 150h54
l-116 -150h-36zM156 545l-33 2q5 48 27 72t56 24q17 0 33.5 -7.5t38.5 -25.5q19 -15 30.5 -21t23.5 -6q23 0 34 14.5t16 47.5l33 -2q-4 -48 -26 -72t-56 -24q-18 0 -34.5 8t-38.5 25q-34 27 -54 27q-22 0 -33.5 -14.5t-16.5 -47.5z" />
    <glyph glyph-name="uni1E4E" unicode="&#x1e4e;" horiz-adv-x="751" 
d="M375 -8q-95 0 -164 44t-106.5 125t-37.5 192q0 112 37 192.5t106 124t165 43.5t165.5 -43.5t106.5 -124t37 -191.5q0 -112 -37.5 -193t-106.5 -125t-165 -44zM375 33q126 0 195 84t69 236t-68.5 235.5t-195.5 83.5q-125 0 -194 -83.5t-69 -235.5q0 -151 69 -235.5
t194 -84.5zM264 910v60h61v-60h-61zM425 910v60h61v-60h-61zM439 768q-18 0 -34.5 8t-39.5 26q-20 17 -31.5 21.5t-21.5 4.5q-22 0 -33.5 -14.5t-16.5 -47.5l-33 2q5 48 27 72t56 24q17 0 32 -7t37 -24t34 -23t23 -6q23 0 34 14.5t16 47.5l33 -2q-4 -48 -26 -72t-56 -24z
" />
    <glyph glyph-name="uni1E4F" unicode="&#x1e4f;" horiz-adv-x="538" 
d="M269 -8q-66 0 -114.5 31t-75 87t-26.5 132t26.5 132t75 87t114.5 31t114.5 -31t75 -87t26.5 -132t-26.5 -132t-75 -87t-114.5 -31zM269 31q80 0 126.5 55.5t46.5 155.5t-46.5 155.5t-126.5 55.5q-79 0 -126 -55.5t-47 -155.5t47 -155.5t126 -55.5zM158 689v60h61v-60h-61
zM319 689v60h61v-60h-61zM156 545l-33 2q5 48 27 72t56 24q17 0 33.5 -7.5t38.5 -25.5q19 -15 30.5 -21t23.5 -6q23 0 34 14.5t16 47.5l33 -2q-4 -48 -26 -72t-56 -24q-18 0 -34.5 8t-38.5 25q-34 27 -54 27q-22 0 -33.5 -14.5t-16.5 -47.5z" />
    <glyph glyph-name="uni1E50" unicode="&#x1e50;" horiz-adv-x="751" 
d="M375 -8q-95 0 -164 44t-106.5 125t-37.5 192q0 112 37 192.5t106 124t165 43.5t165.5 -43.5t106.5 -124t37 -191.5q0 -112 -37.5 -193t-106.5 -125t-165 -44zM375 33q126 0 195 84t69 236t-68.5 235.5t-195.5 83.5q-125 0 -194 -83.5t-69 -235.5q0 -151 69 -235.5
t194 -84.5zM357 871l-116 150h54l98 -150h-36zM235 796v38h280v-38h-280z" />
    <glyph glyph-name="uni1E51" unicode="&#x1e51;" horiz-adv-x="538" 
d="M269 -8q-66 0 -114.5 31t-75 87t-26.5 132t26.5 132t75 87t114.5 31t114.5 -31t75 -87t26.5 -132t-26.5 -132t-75 -87t-114.5 -31zM269 31q80 0 126.5 55.5t46.5 155.5t-46.5 155.5t-126.5 55.5q-79 0 -126 -55.5t-47 -155.5t47 -155.5t126 -55.5zM251 650l-116 150h54
l98 -150h-36zM129 575v38h280v-38h-280z" />
    <glyph glyph-name="uni1E52" unicode="&#x1e52;" horiz-adv-x="751" 
d="M375 -8q-95 0 -164 44t-106.5 125t-37.5 192q0 112 37 192.5t106 124t165 43.5t165.5 -43.5t106.5 -124t37 -191.5q0 -112 -37.5 -193t-106.5 -125t-165 -44zM375 33q126 0 195 84t69 236t-68.5 235.5t-195.5 83.5q-125 0 -194 -83.5t-69 -235.5q0 -151 69 -235.5
t194 -84.5zM357 871l98 150h54l-116 -150h-36zM235 796v38h280v-38h-280z" />
    <glyph glyph-name="uni1E53" unicode="&#x1e53;" horiz-adv-x="538" 
d="M269 -8q-66 0 -114.5 31t-75 87t-26.5 132t26.5 132t75 87t114.5 31t114.5 -31t75 -87t26.5 -132t-26.5 -132t-75 -87t-114.5 -31zM269 31q80 0 126.5 55.5t46.5 155.5t-46.5 155.5t-126.5 55.5q-79 0 -126 -55.5t-47 -155.5t47 -155.5t126 -55.5zM251 650l98 150h54
l-116 -150h-36zM129 575v38h280v-38h-280z" />
    <glyph glyph-name="uni1E5A" unicode="&#x1e5a;" horiz-adv-x="654" 
d="M96 0v705h255q111 0 170 -51t59 -146q0 -78 -44 -126.5t-124 -61.5q42 -16 75 -78l131 -242h-46l-122 226q-28 52 -62 69t-93 17h-157v-312h-42zM138 351h209q189 0 189 158q0 157 -189 157h-209v-315zM302 -172v63h64v-63h-64z" />
    <glyph glyph-name="uni1E5B" unicode="&#x1e5b;" horiz-adv-x="327" 
d="M85 0v484h41v-88q22 46 62.5 69.5t103.5 28.5l21 2l5 -38l-34 -4q-74 -7 -115.5 -50t-41.5 -114v-290h-42zM74 -172v63h64v-63h-64z" />
    <glyph glyph-name="uni1E5E" unicode="&#x1e5e;" horiz-adv-x="654" 
d="M96 0v705h255q111 0 170 -51t59 -146q0 -78 -44 -126.5t-124 -61.5q42 -16 75 -78l131 -242h-46l-122 226q-28 52 -62 69t-93 17h-157v-312h-42zM138 351h209q189 0 189 158q0 157 -189 157h-209v-315zM194 -148v38h280v-38h-280z" />
    <glyph glyph-name="uni1E5F" unicode="&#x1e5f;" horiz-adv-x="327" 
d="M85 0v484h41v-88q22 46 62.5 69.5t103.5 28.5l21 2l5 -38l-34 -4q-74 -7 -115.5 -50t-41.5 -114v-290h-42zM-34 -148v38h280v-38h-280z" />
    <glyph glyph-name="uni1E60" unicode="&#x1e60;" horiz-adv-x="600" 
d="M310 -8q-82 0 -146 22t-112 65l20 36q53 -43 106 -62.5t132 -19.5q100 0 150.5 40t50.5 106q0 54 -37 84.5t-121 47.5l-99 20q-94 19 -140 63t-46 119q0 60 30.5 105t85 70t124.5 25q145 0 231 -91l-20 -36q-47 46 -97 66t-114 20q-88 0 -142 -43.5t-54 -115.5
q0 -58 34 -91.5t110 -48.5l99 -20q102 -21 151 -61.5t49 -111.5q0 -55 -29.5 -97.5t-84.5 -66.5t-131 -24zM273 818v63h62v-63h-62z" />
    <glyph glyph-name="uni1E61" unicode="&#x1e61;" horiz-adv-x="475" 
d="M236 -8q-52 0 -100 16.5t-79 47.5l20 34q36 -31 77.5 -45t84.5 -14q65 0 99.5 25t34.5 68q0 34 -22.5 53.5t-72.5 31.5l-83 20q-63 15 -92.5 46t-29.5 80q0 62 47.5 99.5t126.5 37.5q50 0 92.5 -17t68.5 -48l-20 -34q-58 60 -142 60q-61 0 -95 -26.5t-34 -70.5
q0 -34 21 -55t67 -32l83 -20q65 -16 97 -45t32 -78q0 -61 -49 -97.5t-132 -36.5zM214 619v63h64v-63h-64z" />
    <glyph glyph-name="uni1E62" unicode="&#x1e62;" horiz-adv-x="600" 
d="M310 -8q-82 0 -146 22t-112 65l20 36q53 -43 106 -62.5t132 -19.5q100 0 150.5 40t50.5 106q0 54 -37 84.5t-121 47.5l-99 20q-94 19 -140 63t-46 119q0 60 30.5 105t85 70t124.5 25q145 0 231 -91l-20 -36q-47 46 -97 66t-114 20q-88 0 -142 -43.5t-54 -115.5
q0 -58 34 -91.5t110 -48.5l99 -20q102 -21 151 -61.5t49 -111.5q0 -55 -29.5 -97.5t-84.5 -66.5t-131 -24zM278 -172v63h64v-63h-64z" />
    <glyph glyph-name="uni1E63" unicode="&#x1e63;" horiz-adv-x="475" 
d="M236 -8q-52 0 -100 16.5t-79 47.5l20 34q36 -31 77.5 -45t84.5 -14q65 0 99.5 25t34.5 68q0 34 -22.5 53.5t-72.5 31.5l-83 20q-63 15 -92.5 46t-29.5 80q0 62 47.5 99.5t126.5 37.5q50 0 92.5 -17t68.5 -48l-20 -34q-58 60 -142 60q-61 0 -95 -26.5t-34 -70.5
q0 -34 21 -55t67 -32l83 -20q65 -16 97 -45t32 -78q0 -61 -49 -97.5t-132 -36.5zM204 -172v63h64v-63h-64z" />
    <glyph glyph-name="uni1E64" unicode="&#x1e64;" horiz-adv-x="600" 
d="M310 -8q-82 0 -146 22t-112 65l20 36q53 -43 106 -62.5t132 -19.5q100 0 150.5 40t50.5 106q0 54 -37 84.5t-121 47.5l-99 20q-94 19 -140 63t-46 119q0 60 30.5 105t85 70t124.5 25q145 0 231 -91l-20 -36q-47 46 -97 66t-114 20q-88 0 -142 -43.5t-54 -115.5
q0 -58 34 -91.5t110 -48.5l99 -20q102 -21 151 -61.5t49 -111.5q0 -55 -29.5 -97.5t-84.5 -66.5t-131 -24zM243 946v60h61v-60h-61zM285 765l118 170h56l-136 -170h-38z" />
    <glyph glyph-name="uni1E65" unicode="&#x1e65;" horiz-adv-x="475" 
d="M236 -8q-52 0 -100 16.5t-79 47.5l20 34q36 -31 77.5 -45t84.5 -14q65 0 99.5 25t34.5 68q0 34 -22.5 53.5t-72.5 31.5l-83 20q-63 15 -92.5 46t-29.5 80q0 62 47.5 99.5t126.5 37.5q50 0 92.5 -17t68.5 -48l-20 -34q-58 60 -142 60q-61 0 -95 -26.5t-34 -70.5
q0 -34 21 -55t67 -32l83 -20q65 -16 97 -45t32 -78q0 -61 -49 -97.5t-132 -36.5zM185 760v60h61v-60h-61zM228 549l104 200h54l-122 -200h-36z" />
    <glyph glyph-name="uni1E66" unicode="&#x1e66;" horiz-adv-x="600" 
d="M310 -8q-82 0 -146 22t-112 65l20 36q53 -43 106 -62.5t132 -19.5q100 0 150.5 40t50.5 106q0 54 -37 84.5t-121 47.5l-99 20q-94 19 -140 63t-46 119q0 60 30.5 105t85 70t124.5 25q145 0 231 -91l-20 -36q-47 46 -97 66t-114 20q-88 0 -142 -43.5t-54 -115.5
q0 -58 34 -91.5t110 -48.5l99 -20q102 -21 151 -61.5t49 -111.5q0 -55 -29.5 -97.5t-84.5 -66.5t-131 -24zM274 976v60h61v-60h-61zM280 765l-109 160h35l98 -121l98 121h35l-109 -160h-48z" />
    <glyph glyph-name="uni1E67" unicode="&#x1e67;" horiz-adv-x="475" 
d="M236 -8q-52 0 -100 16.5t-79 47.5l20 34q36 -31 77.5 -45t84.5 -14q65 0 99.5 25t34.5 68q0 34 -22.5 53.5t-72.5 31.5l-83 20q-63 15 -92.5 46t-29.5 80q0 62 47.5 99.5t126.5 37.5q50 0 92.5 -17t68.5 -48l-20 -34q-58 60 -142 60q-61 0 -95 -26.5t-34 -70.5
q0 -34 21 -55t67 -32l83 -20q65 -16 97 -45t32 -78q0 -61 -49 -97.5t-132 -36.5zM216 760v60h61v-60h-61zM222 549l-109 160h35l98 -121l98 121h35l-109 -160h-48z" />
    <glyph glyph-name="uni1E68" unicode="&#x1e68;" horiz-adv-x="600" 
d="M310 -8q-82 0 -146 22t-112 65l20 36q53 -43 106 -62.5t132 -19.5q100 0 150.5 40t50.5 106q0 54 -37 84.5t-121 47.5l-99 20q-94 19 -140 63t-46 119q0 60 30.5 105t85 70t124.5 25q145 0 231 -91l-20 -36q-47 46 -97 66t-114 20q-88 0 -142 -43.5t-54 -115.5
q0 -58 34 -91.5t110 -48.5l99 -20q102 -21 151 -61.5t49 -111.5q0 -55 -29.5 -97.5t-84.5 -66.5t-131 -24zM278 -172v63h64v-63h-64zM273 818v63h62v-63h-62z" />
    <glyph glyph-name="uni1E69" unicode="&#x1e69;" horiz-adv-x="475" 
d="M236 -8q-52 0 -100 16.5t-79 47.5l20 34q36 -31 77.5 -45t84.5 -14q65 0 99.5 25t34.5 68q0 34 -22.5 53.5t-72.5 31.5l-83 20q-63 15 -92.5 46t-29.5 80q0 62 47.5 99.5t126.5 37.5q50 0 92.5 -17t68.5 -48l-20 -34q-58 60 -142 60q-61 0 -95 -26.5t-34 -70.5
q0 -34 21 -55t67 -32l83 -20q65 -16 97 -45t32 -78q0 -61 -49 -97.5t-132 -36.5zM204 -172v63h64v-63h-64zM214 619v63h64v-63h-64z" />
    </font>
</defs>
</svg>
