<?xml version="1.0" standalone="no"?>
<!DOCTYPE svg PUBLIC "-//W3C//DTD SVG 1.1//EN" "http://www.w3.org/Graphics/SVG/1.1/DTD/svg11.dtd" >
<svg xmlns="http://www.w3.org/2000/svg" xmlns:xlink="http://www.w3.org/1999/xlink" version="1.1">
<metadata>
Created by FontForge 20170731 at Mon Jun 29 15:02:11 2020
 By Aleksey,,,
Copyright 2016 The Nunito Sans Project Authors (https://github.com/Fonthausen/NunitoSans)
</metadata>
<defs>
<font id="NunitoSans-BlackItalic" horiz-adv-x="0" >
  <font-face 
    font-family="Nunito Sans Black"
    font-weight="900"
    font-style="italic"
    font-stretch="normal"
    units-per-em="1000"
    panose-1="0 0 0 0 0 0 0 0 0 0"
    ascent="800"
    descent="-200"
    x-height="492"
    cap-height="705"
    bbox="-339 -290 1432 1060"
    underline-thickness="54"
    underline-position="-169"
    slope="-9"
    unicode-range="U+000D-FB02"
  />
<missing-glyph horiz-adv-x="500" 
d="M50 -180v885h400v-885h-400zM100 -130h300v785h-300v-785z" />
    <glyph glyph-name="fi" unicode="fi" horiz-adv-x="673" 
d="M494 577l25 161h186l-26 -161h-185zM55 0l57 361h-92l21 131h92l1 8q10 61 40 106.5t86.5 71.5t147.5 30l62 3l-5 -127l-47 -3q-52 -3 -76 -20t-29 -55l-3 -14h351l-78 -492h-178l57 361h-172l-57 -361h-178z" />
    <glyph glyph-name="fl" unicode="fl" horiz-adv-x="749" 
d="M55 0l57 361h-92l21 131h92l1 8q10 61 40 106.5t86.5 72t147.5 29.5l70 3l-5 -127l-55 -3q-52 -3 -76 -20t-29 -55l-3 -14h121l-20 -131h-121l-57 -361h-178zM614 -11q-98 0 -140.5 53t-27.5 154l81 509h178l-81 -506q-10 -68 54 -68q10 0 20.5 1t20.5 2l-23 -135
q-36 -10 -82 -10z" />
    <glyph glyph-name=".notdef" horiz-adv-x="500" 
d="M50 -180v885h400v-885h-400zM100 -130h300v785h-300v-785z" />
    <glyph glyph-name=".null" 
 />
    <glyph glyph-name="nonmarkingreturn" horiz-adv-x="333" 
 />
    <glyph glyph-name="NULL" 
 />
    <glyph glyph-name="NULL" 
 />
    <glyph glyph-name="CR" unicode="&#xd;" horiz-adv-x="286" 
 />
    <glyph glyph-name="space" unicode=" " horiz-adv-x="286" 
 />
    <glyph glyph-name="exclam" unicode="!" horiz-adv-x="272" 
d="M82 245l17 460h218l-128 -460h-107zM5 0l29 182h185l-29 -182h-185z" />
    <glyph glyph-name="quotedbl" unicode="&#x22;" horiz-adv-x="515" 
d="M99 398l6 307h204l-91 -307h-119zM346 398l6 307h204l-91 -307h-119z" />
    <glyph glyph-name="numbersign" unicode="#" horiz-adv-x="600" 
d="M33 0l57 159h-49l17 106h70l65 183h-83l16 106h105l53 151h114l-54 -151h88l54 151h115l-54 -151h47l-16 -106h-69l-65 -183h82l-17 -106h-103l-57 -159h-113l56 159h-87l-57 -159h-115zM242 265h88l65 183h-88z" />
    <glyph glyph-name="dollar" unicode="$" horiz-adv-x="600" 
d="M183 -115l17 112q-57 8 -109.5 27t-95.5 51l59 140q59 -38 121 -55t116 -17q53 0 82 17t29 46q0 23 -17.5 37t-55.5 24l-108 27q-75 19 -118.5 67t-43.5 119q0 69 34.5 118t92 77.5t127.5 34.5l18 110h139l-20 -119q40 -9 79 -26.5t73 -43.5l-61 -130q-44 33 -95.5 46.5
t-94.5 13.5q-55 0 -85 -17t-30 -44q0 -45 67 -62l109 -27q80 -20 123.5 -68.5t43.5 -117.5t-32.5 -116.5t-87.5 -75.5t-121 -36l-16 -112h-139z" />
    <glyph glyph-name="percent" unicode="%" horiz-adv-x="964" 
d="M297 -37l-101 71l503 702l102 -71zM241 280q-86 0 -130.5 46.5t-44.5 122.5q0 74 23.5 133t68.5 94t109 35q85 0 129.5 -47.5t44.5 -123.5q0 -75 -23.5 -134t-68 -92.5t-108.5 -33.5zM240 388q21 0 34.5 23.5t21 59.5t7.5 72q1 34 -8.5 46.5t-27.5 12.5q-20 0 -34 -23.5
t-21.5 -59.5t-7.5 -72q-1 -34 8.5 -46.5t27.5 -12.5zM729 -11q-86 0 -130.5 46.5t-44.5 122.5q0 74 23.5 133t68.5 94t109 35q85 0 129.5 -47.5t44.5 -123.5q0 -75 -23.5 -134t-68 -92.5t-108.5 -33.5zM728 97q21 0 35 24t21 59.5t8 71.5q0 34 -9 47t-27 13q-21 0 -35 -24
t-21.5 -59.5t-7.5 -72.5q0 -33 9 -46t27 -13z" />
    <glyph glyph-name="ampersand" unicode="&#x26;" horiz-adv-x="766" 
d="M285 -11q-74 0 -128.5 23t-85 64t-30.5 93q0 76 47 129t117 89q-22 27 -32.5 60.5t-10.5 65.5q0 63 31.5 108.5t84.5 70t119 24.5q85 0 135 -42.5t50 -108.5q0 -44 -22 -81.5t-56.5 -67t-74.5 -50.5l89 -102q25 37 42.5 80.5t29.5 90.5h145q-10 -74 -41.5 -143
t-77.5 -125l150 -167h-202l-57 65q-45 -36 -100.5 -56t-121.5 -20zM394 600q-32 0 -51.5 -20t-19.5 -57q0 -16 6 -32t22 -38q45 13 69 41.5t24 58.5q0 21 -12.5 34t-37.5 13zM313 123q30 0 54 9t48 26l-124 140q-33 -18 -53.5 -44t-20.5 -58q0 -31 24 -52t72 -21z" />
    <glyph glyph-name="quotesingle" unicode="'" horiz-adv-x="268" 
d="M99 398l6 307h204l-91 -307h-119z" />
    <glyph glyph-name="parenleft" unicode="(" horiz-adv-x="406" 
d="M181 -198q-46 86 -67.5 179t-21.5 182q0 109 29.5 211.5t82 191.5t119.5 158l118 -55q-50 -90 -85 -178.5t-54 -184.5t-19 -209q0 -59 5.5 -115t14.5 -132z" />
    <glyph glyph-name="parenright" unicode=")" horiz-adv-x="406" 
d="M89 -198l-118 55q49 90 84.5 179t54.5 185t19 208q0 60 -5.5 115.5t-15.5 131.5l122 48q47 -86 68.5 -179t21.5 -182q0 -109 -30 -211.5t-82 -191.5t-119 -158z" />
    <glyph glyph-name="asterisk" unicode="*" horiz-adv-x="455" 
d="M220 319l-103 60l63 92l-108 -8v117l109 -9l-63 93l104 59l50 -116l49 116l104 -61l-63 -91l109 9v-118l-109 9l63 -92l-104 -61l-50 118z" />
    <glyph glyph-name="plus" unicode="+" horiz-adv-x="600" 
d="M205 40l30 188h-182l19 118h182l28 182h124l-28 -182h182l-19 -118h-183l-29 -188h-124z" />
    <glyph glyph-name="comma" unicode="," horiz-adv-x="272" 
d="M70 -155l-58 63q29 25 47 46t28 46h-83l29 182h186l-21 -129q-7 -42 -20.5 -76.5t-39 -66t-68.5 -65.5z" />
    <glyph glyph-name="hyphen" unicode="-" horiz-adv-x="445" 
d="M56 199l21 138h320l-22 -138h-319z" />
    <glyph glyph-name="period" unicode="." horiz-adv-x="272" 
d="M4 0l29 182h186l-30 -182h-185z" />
    <glyph glyph-name="slash" unicode="/" horiz-adv-x="349" 
d="M56 -82l-120 53l386 799l120 -53z" />
    <glyph glyph-name="zero" unicode="0" horiz-adv-x="600" 
d="M288 -11q-119 0 -182 70.5t-63 202.5q0 139 37 241t105.5 157.5t161.5 55.5q118 0 181 -70.5t63 -201.5q0 -139 -37 -241.5t-105 -158t-161 -55.5zM297 135q49 0 83 82.5t37 246.5q1 106 -79 106q-49 0 -83.5 -80.5t-36.5 -248.5q-1 -106 79 -106z" />
    <glyph glyph-name="one" unicode="1" horiz-adv-x="600" 
d="M51 0l24 149h156l55 343l-119 -62l-54 139l260 136h130l-88 -556h146l-24 -149h-486z" />
    <glyph glyph-name="two" unicode="2" horiz-adv-x="600" 
d="M32 0l21 135l241 221q48 44 72.5 76t24.5 68q0 32 -23 48.5t-60 16.5q-38 0 -79 -15.5t-84 -45.5l-52 136q115 76 256 76q66 0 116.5 -24t78 -66t27.5 -95q0 -59 -20 -105t-56.5 -86t-84.5 -81l-126 -110h259l-24 -149h-487z" />
    <glyph glyph-name="three" unicode="3" horiz-adv-x="600" 
d="M274 -11q-47 0 -96 8.5t-92.5 26.5t-73.5 46l69 129q42 -33 90.5 -46t102.5 -13q43 0 71.5 20t28.5 59q0 63 -85 63h-120l23 146h108q46 0 75.5 18.5t29.5 56.5q0 30 -24 46t-61 16q-45 0 -92.5 -15t-89.5 -46l-53 136q56 38 125.5 57t136.5 19q81 0 132 -26t75.5 -68
t25.5 -89q1 -64 -37.5 -108.5t-100.5 -62.5q52 -18 79.5 -59.5t27.5 -96.5q0 -57 -31.5 -106.5t-93 -80t-150.5 -30.5z" />
    <glyph glyph-name="four" unicode="4" horiz-adv-x="600" 
d="M279 0l19 118h-290l20 129l390 458h149l-71 -448h91l-22 -139h-90l-19 -118h-177zM319 257l31 191l-159 -191h128z" />
    <glyph glyph-name="five" unicode="5" horiz-adv-x="600" 
d="M275 -11q-41 0 -86 8.5t-86 26.5t-71 46l69 129q42 -33 85.5 -46t88.5 -13q53 0 86 25.5t33 69.5q0 37 -25.5 56t-64.5 19q-66 0 -120 -46h-115l70 441h460l-23 -149h-287l-20 -126q50 26 105 26q62 0 105.5 -27t66.5 -73t23 -102q0 -83 -40.5 -142.5t-107.5 -91
t-146 -31.5z" />
    <glyph glyph-name="six" unicode="6" horiz-adv-x="600" 
d="M314 -11q-126 0 -194.5 74t-68.5 201q0 148 43.5 248.5t123.5 152t189 51.5q61 0 114.5 -19.5t98.5 -60.5l-69 -128q-72 58 -153 58q-72 0 -116 -47.5t-55 -139.5q25 40 68 62t91 22q55 0 96 -27.5t64 -74t23 -102.5q0 -77 -32.5 -138.5t-89.5 -96.5t-133 -35zM308 129
q42 0 67.5 31t25.5 82q0 36 -22 58.5t-58 22.5q-42 0 -68 -31t-26 -82q0 -36 22 -58.5t59 -22.5z" />
    <glyph glyph-name="seven" unicode="7" horiz-adv-x="600" 
d="M15 0l386 553h-313l24 152h521l-21 -138l-391 -567h-206z" />
    <glyph glyph-name="eight" unicode="8" horiz-adv-x="600" 
d="M273 -11q-121 0 -189 51t-68 139q0 66 38 116.5t98 68.5q-32 21 -51 57.5t-19 84.5q0 68 37 114.5t99.5 70.5t139.5 24q110 0 174 -48t64 -128q0 -56 -32 -105t-84 -71q40 -20 63.5 -59.5t23.5 -95.5q0 -71 -39 -120t-105.5 -74t-149.5 -25zM329 426q46 0 73 24t27 62
q0 31 -20.5 48.5t-57.5 17.5q-48 0 -75 -25t-27 -63q0 -31 21 -47.5t59 -16.5zM281 127q55 0 87.5 23.5t32.5 65.5q0 35 -27.5 53t-73.5 18q-55 0 -86.5 -23t-31.5 -65q0 -35 26.5 -53.5t72.5 -18.5z" />
    <glyph glyph-name="nine" unicode="9" horiz-adv-x="600" 
d="M242 -11q-61 0 -122.5 19.5t-106.5 60.5l70 128q78 -58 158 -58q65 0 109.5 47.5t56.5 139.5q-26 -40 -68.5 -62t-90.5 -22q-55 0 -96.5 27.5t-64 74t-22.5 102.5q0 78 32 139t89.5 96t133.5 35q126 0 194.5 -73.5t68.5 -201.5q0 -130 -38.5 -232.5t-114 -161
t-188.5 -58.5zM312 382q42 0 68 31t26 82q0 36 -22 58.5t-58 22.5q-42 0 -68 -31t-26 -82q0 -36 22 -58.5t58 -22.5z" />
    <glyph glyph-name="colon" unicode=":" horiz-adv-x="272" 
d="M53 310l29 182h185l-29 -182h-185zM5 0l29 182h185l-29 -182h-185z" />
    <glyph glyph-name="semicolon" unicode=";" horiz-adv-x="272" 
d="M53 310l29 182h185l-29 -182h-185zM70 -155l-58 63q29 25 47 46t28 46h-83l29 182h186l-21 -129q-7 -42 -20.5 -76.5t-39 -66t-68.5 -65.5z" />
    <glyph glyph-name="less" unicode="&#x3c;" horiz-adv-x="600" 
d="M509 30l-457 191l21 133l518 191l-22 -138l-351 -127l311 -127z" />
    <glyph glyph-name="equal" unicode="=" horiz-adv-x="600" 
d="M68 328l20 118h488l-20 -118h-488zM37 128l19 118h488l-19 -118h-488z" />
    <glyph glyph-name="greater" unicode="&#x3e;" horiz-adv-x="600" 
d="M21 30l22 137l351 127l-311 127l20 124l458 -191l-21 -133z" />
    <glyph glyph-name="question" unicode="?" horiz-adv-x="478" 
d="M185 238l8 54q4 30 12.5 53.5t26.5 45.5t49 48q18 15 38 34.5t20 49.5q0 18 -14 30t-44 12q-39 0 -81.5 -15t-84.5 -46l-52 132q57 42 123.5 61t134.5 19q60 0 104.5 -22t69 -58.5t24.5 -81.5q0 -63 -32 -105t-85 -72q-35 -22 -55 -38.5t-30 -33t-17 -36.5l-11 -31h-104z
M107 0l29 182h185l-29 -182h-185z" />
    <glyph glyph-name="at" unicode="@" horiz-adv-x="954" 
d="M496 -167q-98 0 -178.5 31t-139.5 88t-91.5 135.5t-32.5 174.5q0 137 57.5 239.5t161.5 158.5t244 56q121 0 211 -46.5t139.5 -131t49.5 -199.5q0 -86 -24.5 -149t-69.5 -97.5t-104 -34.5q-101 0 -134 82q-27 -41 -63 -61.5t-79 -20.5q-83 0 -128.5 52.5t-45.5 141.5
q0 73 27 129.5t75 89t109 32.5q82 0 116 -63l10 52h126l-39 -219q-3 -20 -5 -35.5t-2 -27.5q0 -29 10.5 -41t31.5 -12q37 0 62 50.5t25 131.5q0 135 -78 205.5t-221 70.5q-105 0 -183 -43t-120.5 -122t-42.5 -188q0 -102 40 -175.5t113.5 -113t172.5 -39.5q137 0 229 68
l48 -88q-47 -39 -119 -60t-158 -21zM472 164q46 0 73.5 41.5t27.5 112.5q0 79 -66 79q-47 0 -75.5 -39.5t-28.5 -103.5q0 -90 69 -90z" />
    <glyph glyph-name="A" unicode="A" horiz-adv-x="763" 
d="M-60 0l442 705h146l217 -705h-176l-37 143h-317l-84 -143h-191zM433 513l-135 -229h197l-60 229h-2z" />
    <glyph glyph-name="B" unicode="B" horiz-adv-x="702" 
d="M25 0l112 705h318q83 0 134 -22.5t74 -61t23 -86.5q0 -65 -37.5 -110t-99.5 -63q50 -19 77.5 -58.5t27.5 -92.5q0 -102 -72 -156.5t-194 -54.5h-363zM268 425h135q108 0 108 87q0 28 -21 43t-66 15h-133zM222 135h155q52 0 77 23t25 65q0 67 -89 67h-143z" />
    <glyph glyph-name="C" unicode="C" horiz-adv-x="687" 
d="M405 -11q-98 0 -175.5 36.5t-122 109t-44.5 178.5q0 85 26 158t76.5 128t125 86t171.5 31q72 0 136 -21.5t101 -55.5l-69 -144q-81 61 -172 61q-67 0 -111.5 -31.5t-67 -85t-22.5 -119.5q0 -88 41 -129.5t129 -41.5q39 0 81 13t88 43l46 -145q-28 -22 -68 -38t-84 -24.5
t-85 -8.5z" />
    <glyph glyph-name="D" unicode="D" horiz-adv-x="786" 
d="M25 0l112 705h250q178 0 274.5 -82t96.5 -227q1 -113 -46 -203t-138.5 -141.5t-224.5 -51.5h-324zM232 149h119q107 0 161.5 66t54.5 178q0 79 -45 121t-135 42h-90z" />
    <glyph glyph-name="E" unicode="E" horiz-adv-x="614" 
d="M26 0l111 705h498l-22 -142h-323l-21 -134h300l-23 -142h-300l-23 -145h322l-22 -142h-497z" />
    <glyph glyph-name="F" unicode="F" horiz-adv-x="579" 
d="M26 0l111 705h492l-22 -142h-308l-23 -142h286l-22 -141h-286l-44 -280h-184z" />
    <glyph glyph-name="G" unicode="G" horiz-adv-x="747" 
d="M407 -11q-99 0 -177 37t-122.5 109t-44.5 177q0 114 47.5 205.5t140 145t226.5 53.5q81 0 145 -21t97 -51l-69 -143q-82 58 -182 58q-71 0 -118.5 -33.5t-72 -88t-24.5 -118.5q0 -91 48.5 -133.5t133.5 -42.5q42 0 92 12l18 113h-141l19 129h292l-57 -359
q-55 -26 -122 -37.5t-129 -11.5z" />
    <glyph glyph-name="H" unicode="H" horiz-adv-x="786" 
d="M25 0l112 705h184l-43 -272h290l44 272h183l-112 -705h-183l44 282h-290l-45 -282h-184z" />
    <glyph glyph-name="I" unicode="I" horiz-adv-x="312" 
d="M25 0l112 705h184l-112 -705h-184z" />
    <glyph glyph-name="J" unicode="J" horiz-adv-x="390" 
d="M-35 -11l5 147l85 5q37 2 57 20t27 59l77 485h183l-79 -497q-11 -67 -37.5 -113t-78 -71t-136.5 -30z" />
    <glyph glyph-name="K" unicode="K" horiz-adv-x="712" 
d="M25 0l112 705h184l-48 -302h2l311 302h227l-365 -348l266 -357h-206l-246 323h-2l-51 -323h-184z" />
    <glyph glyph-name="L" unicode="L" horiz-adv-x="585" 
d="M25 0l112 705h184l-87 -552h313l-24 -153h-498z" />
    <glyph glyph-name="M" unicode="M" horiz-adv-x="884" 
d="M27 0l112 705h145l160 -408l289 408h158l-112 -705h-166l61 385l-202 -281h-99l-119 277l-61 -381h-166z" />
    <glyph glyph-name="N" unicode="N" horiz-adv-x="757" 
d="M25 0l112 705h135l257 -421l66 421h171l-112 -705h-135l-256 421l-67 -421h-171z" />
    <glyph glyph-name="O" unicode="O" horiz-adv-x="807" 
d="M396 -11q-101 0 -176 37.5t-116.5 108t-41.5 170.5q0 122 48 214.5t134.5 144.5t200.5 52q101 0 176 -37.5t116.5 -108t41.5 -169.5q0 -123 -48 -215.5t-134 -144.5t-201 -52zM398 143q60 0 102.5 32t65.5 89.5t23 132.5q0 84 -39.5 124.5t-107.5 40.5q-59 0 -101.5 -32
t-65 -89.5t-22.5 -132.5q0 -84 39 -124.5t106 -40.5z" />
    <glyph glyph-name="P" unicode="P" horiz-adv-x="676" 
d="M25 0l112 705h298q128 0 191.5 -54.5t63.5 -149.5q0 -124 -75.5 -191t-218.5 -67h-148l-39 -243h-184zM270 384h133q112 0 112 101q0 79 -105 79h-112z" />
    <glyph glyph-name="Q" unicode="Q" horiz-adv-x="807" 
d="M549 -228l-80 172q-12 25 -30 35t-59 10v0q-96 3 -167.5 41.5t-111 108t-39.5 166.5q0 122 48 214.5t134.5 144.5t200.5 52q101 0 176 -37.5t116.5 -108t41.5 -169.5q0 -129 -53.5 -225.5t-146.5 -144.5q41 -16 62 -61l67 -140zM398 143q60 0 102.5 32t65.5 89.5
t23 132.5q0 84 -39.5 124.5t-107.5 40.5q-59 0 -101.5 -32t-65 -89.5t-22.5 -132.5q0 -84 39 -124.5t106 -40.5z" />
    <glyph glyph-name="R" unicode="R" horiz-adv-x="706" 
d="M25 0l112 705h303q121 0 185.5 -53.5t64.5 -147.5q0 -100 -52.5 -156.5t-137.5 -74.5q29 -11 49 -35.5t34 -59.5l68 -178h-188l-80 212q-10 28 -26.5 39.5t-45.5 11.5h-60l-42 -263h-184zM271 393h133q111 0 111 94q0 39 -25.5 58t-80.5 19h-111z" />
    <glyph glyph-name="S" unicode="S" horiz-adv-x="651" 
d="M303 -11q-78 0 -153 20.5t-133 62.5l60 138q61 -38 125 -54t119 -16q57 0 87.5 18t30.5 47q0 23 -18.5 39t-58.5 24l-115 28q-76 17 -120.5 65t-44.5 119q0 76 41.5 128.5t110 80t147.5 27.5q66 0 134.5 -19t124.5 -60l-63 -131q-45 32 -98.5 45.5t-98.5 13.5
q-55 0 -86.5 -18.5t-31.5 -47.5q0 -45 70 -62l115 -27q82 -19 127 -67.5t45 -116.5q0 -60 -26 -104.5t-70 -74t-101 -44t-119 -14.5z" />
    <glyph glyph-name="T" unicode="T" horiz-adv-x="644" 
d="M191 0l88 555h-224l24 150h632l-24 -150h-224l-88 -555h-184z" />
    <glyph glyph-name="U" unicode="U" horiz-adv-x="748" 
d="M350 -11q-92 0 -161.5 35.5t-102.5 109t-15 184.5l61 387h183l-63 -397q-12 -78 15.5 -122t96.5 -44q62 0 99.5 34t49.5 105l67 424h181l-66 -415q-23 -146 -103.5 -223.5t-241.5 -77.5z" />
    <glyph glyph-name="V" unicode="V" horiz-adv-x="742" 
d="M259 0l-210 705h183l127 -470l277 470h202l-433 -705h-146z" />
    <glyph glyph-name="W" unicode="W" horiz-adv-x="1128" 
d="M225 0l-142 705h178l77 -444l229 444h132l80 -448l224 448h187l-366 -705h-147l-84 423l-221 -423h-147z" />
    <glyph glyph-name="X" unicode="X" horiz-adv-x="698" 
d="M-64 0l322 364l-205 341h200l128 -226l187 226h224l-317 -357l210 -348h-203l-134 231l-189 -231h-223z" />
    <glyph glyph-name="Y" unicode="Y" horiz-adv-x="645" 
d="M191 0l50 312l-210 393h200l118 -230l191 230h217l-332 -392l-50 -313h-184z" />
    <glyph glyph-name="Z" unicode="Z" horiz-adv-x="625" 
d="M6 0l21 135l387 419h-320l23 151h544l-21 -135l-386 -419h336l-24 -151h-560z" />
    <glyph glyph-name="bracketleft" unicode="[" horiz-adv-x="401" 
d="M35 -180l140 885h281l-21 -131h-103l-98 -623h103l-21 -131h-281z" />
    <glyph glyph-name="backslash" unicode="\" horiz-adv-x="349" 
d="M193 -82l-137 825l130 27l139 -824z" />
    <glyph glyph-name="bracketright" unicode="]" horiz-adv-x="401" 
d="M-51 -180l21 131h104l98 623h-103l20 131h282l-140 -885h-282z" />
    <glyph glyph-name="asciicircum" unicode="^" horiz-adv-x="600" 
d="M26 140l269 488h131l115 -488h-126l-75 332l-179 -332h-135z" />
    <glyph glyph-name="underscore" unicode="_" horiz-adv-x="500" 
d="M-34 -101l16 101h459l-16 -101h-459z" />
    <glyph glyph-name="grave" unicode="`" horiz-adv-x="500" 
d="M242 557l-142 205h165l92 -205h-115z" />
    <glyph glyph-name="a" unicode="a" horiz-adv-x="568" 
d="M185 -11q-48 0 -86 22t-60.5 57.5t-22.5 76.5q0 78 67 113.5t208 35.5h68l1 9q6 33 -14.5 52t-66.5 19q-88 0 -172 -48l-33 118q39 26 102.5 42.5t127.5 16.5q91 0 142 -33t68.5 -88.5t6.5 -120.5l-41 -261h-165l11 71q-24 -44 -60.5 -63t-80.5 -19zM247 105q39 0 64 23
t31 60l3 22h-54q-56 0 -80.5 -12.5t-24.5 -40.5q0 -25 17 -38.5t44 -13.5z" />
    <glyph glyph-name="b" unicode="b" horiz-adv-x="620" 
d="M344 -11q-50 0 -88.5 21t-57.5 61l-12 -71h-173l112 705h178l-44 -274q28 35 67 53.5t85 18.5q83 0 132.5 -57.5t49.5 -156.5q0 -86 -31 -154t-87 -107t-131 -39zM306 120q50 0 79 45t29 114q0 45 -20.5 69t-56.5 24q-51 0 -80 -45t-29 -114q0 -45 20.5 -69t57.5 -24z
" />
    <glyph glyph-name="c" unicode="c" horiz-adv-x="484" 
d="M285 -11q-127 0 -192 63t-65 167q0 74 32.5 139t98.5 105t166 40q50 0 96.5 -12.5t77.5 -35.5l-51 -122q-19 16 -49 26t-59 10q-48 0 -76.5 -21.5t-41 -55.5t-12.5 -70q0 -44 24 -71.5t80 -27.5q24 0 52.5 9t51.5 26l36 -123q-29 -23 -77 -34.5t-92 -11.5z" />
    <glyph glyph-name="d" unicode="d" horiz-adv-x="620" 
d="M209 -11q-83 0 -132.5 58t-49.5 156q0 87 31 154.5t87 106.5t131 39q48 0 86 -19.5t58 -57.5l44 279h178l-112 -705h-174l11 69q-28 -38 -69 -59t-89 -21zM284 120q50 0 79 45t29 114q0 45 -20.5 69t-56.5 24q-51 0 -80 -44.5t-29 -114.5q0 -45 20.5 -69t57.5 -24z" />
    <glyph glyph-name="e" unicode="e" horiz-adv-x="556" 
d="M291 -11q-79 0 -138 28.5t-92 80.5t-33 121q0 85 37.5 149t101.5 99.5t144 35.5q84 0 135.5 -35.5t71.5 -96.5t10 -135l-4 -26h-331q2 -44 33 -67t85 -23q41 0 80.5 11.5t68.5 32.5l37 -116q-37 -28 -90.5 -43.5t-115.5 -15.5zM309 387q-45 0 -70.5 -27t-34.5 -66h189
q2 41 -18.5 67t-65.5 26z" />
    <glyph glyph-name="f" unicode="f" horiz-adv-x="402" 
d="M55 0l57 361h-92l21 131h92l1 8q10 61 40 106.5t86.5 72t147.5 29.5l70 3l-5 -127l-55 -3q-52 -3 -76 -20t-29 -55l-3 -14h121l-20 -131h-121l-57 -361h-178z" />
    <glyph glyph-name="g" unicode="g" horiz-adv-x="626" 
d="M265 -191q-154 0 -259 65l50 119q42 -24 88.5 -38.5t92.5 -14.5q55 0 89 20.5t43 70.5l8 52q-25 -36 -65 -53t-85 -17q-90 0 -144.5 52.5t-54.5 150.5q0 79 32 144t89 104t131 39q51 0 90 -20t58 -59l11 68h174l-71 -451q-17 -109 -86.5 -170.5t-190.5 -61.5zM287 144
q35 0 60.5 20t38.5 53t13 72q1 37 -20.5 60t-60.5 23q-35 0 -59.5 -20t-38 -53t-13.5 -72q0 -37 21 -60t59 -23z" />
    <glyph glyph-name="h" unicode="h" horiz-adv-x="606" 
d="M13 0l112 705h178l-44 -275q54 73 157 73q79 0 122 -50.5t26 -161.5l-46 -291h-178l45 288q6 39 -5.5 59t-45.5 20q-41 0 -67.5 -27.5t-34.5 -77.5l-41 -262h-178z" />
    <glyph glyph-name="i" unicode="i" horiz-adv-x="281" 
d="M100 577l26 161h187l-26 -161h-187zM13 0l78 492h178l-78 -492h-178z" />
    <glyph glyph-name="j" unicode="j" horiz-adv-x="287" 
d="M104 577l26 161h187l-26 -161h-187zM-90 -193l-11 125l50 6q33 3 48.5 18.5t20.5 46.5l78 489h178l-74 -465q-12 -74 -37 -120t-74.5 -69t-131.5 -28z" />
    <glyph glyph-name="k" unicode="k" horiz-adv-x="580" 
d="M14 0l111 705h178l-65 -411h2l190 198h207l-229 -243l163 -249h-202l-142 214h-2l-33 -214h-178z" />
    <glyph glyph-name="l" unicode="l" horiz-adv-x="348" 
d="M212 -11q-98 0 -140.5 53t-27.5 154l81 509h178l-81 -506q-10 -68 54 -68q10 0 20.5 1t20.5 2l-23 -135q-36 -10 -82 -10z" />
    <glyph glyph-name="m" unicode="m" horiz-adv-x="902" 
d="M15 0l78 492h173l-11 -68q30 42 70.5 60.5t82.5 18.5q98 0 135 -88q28 44 71.5 66t97.5 22q78 0 120.5 -50t25.5 -162l-46 -291h-178l45 289q12 78 -45 78q-36 0 -59.5 -27.5t-31.5 -77.5l-41 -262h-178l46 289q12 78 -46 78q-35 0 -58.5 -27.5t-31.5 -77.5l-41 -262
h-178z" />
    <glyph glyph-name="n" unicode="n" horiz-adv-x="606" 
d="M13 0l78 492h173l-11 -70q54 81 163 81q79 0 122 -50.5t26 -161.5l-46 -291h-178l45 288q6 39 -5.5 59t-45.5 20q-41 0 -67.5 -27.5t-34.5 -77.5l-41 -262h-178z" />
    <glyph glyph-name="o" unicode="o" horiz-adv-x="602" 
d="M282 -11q-121 0 -187 63t-66 167q0 71 24.5 124.5t66 89t93.5 53t107 17.5q120 0 186.5 -63t66.5 -166q0 -72 -24.5 -125.5t-66 -89t-93.5 -53t-107 -17.5zM285 120q51 0 80 45t29 114q0 45 -20.5 69t-57.5 24q-50 0 -79 -44.5t-29 -114.5q0 -45 20.5 -69t56.5 -24z" />
    <glyph glyph-name="p" unicode="p" horiz-adv-x="620" 
d="M-16 -180l107 672h173l-10 -68q28 38 68.5 58.5t88.5 20.5q83 0 132.5 -57.5t49.5 -156.5q0 -86 -31 -154t-87 -107t-131 -39q-48 0 -85.5 19.5t-57.5 56.5l-39 -245h-178zM306 120q50 0 79 45t29 114q0 45 -20.5 69t-56.5 24q-51 0 -80 -45t-29 -114q0 -45 20.5 -69
t57.5 -24z" />
    <glyph glyph-name="q" unicode="q" horiz-adv-x="620" 
d="M323 -180l39 242q-28 -35 -67.5 -54t-85.5 -19q-83 0 -132.5 58t-49.5 156q0 87 31 154.5t87 106.5t131 39q50 0 89 -21.5t58 -62.5l11 73h174l-107 -672h-178zM284 120q50 0 79 45t29 114q0 45 -20.5 69t-56.5 24q-51 0 -80 -44.5t-29 -114.5q0 -45 20.5 -69t57.5 -24z
" />
    <glyph glyph-name="r" unicode="r" horiz-adv-x="434" 
d="M13 0l78 492h173l-14 -86q23 43 63.5 68t95.5 29l48 3l-8 -150l-111 -11q-53 -5 -76 -30t-31 -78l-37 -237h-181z" />
    <glyph glyph-name="s" unicode="s" horiz-adv-x="496" 
d="M229 -11q-65 0 -124.5 14t-100.5 43l49 113q37 -23 84.5 -36.5t90.5 -13.5q39 0 57 12t18 30q0 13 -9.5 20.5t-31.5 11.5l-89 15q-62 9 -95.5 43.5t-33.5 86.5q0 46 27.5 86t82 64.5t136.5 24.5q45 0 96 -12.5t91 -38.5l-48 -111q-34 22 -73.5 32.5t-75.5 10.5
q-41 0 -60 -13t-19 -32q0 -11 7.5 -19t25.5 -11l89 -14q69 -12 103 -46t34 -85q0 -86 -63.5 -130.5t-167.5 -44.5z" />
    <glyph glyph-name="t" unicode="t" horiz-adv-x="426" 
d="M282 -11q-76 0 -124 27t-67 75t-9 110l26 160h-92l21 131h92l22 143h178l-22 -143h142l-21 -131h-142l-25 -153q-6 -41 12.5 -58.5t54.5 -17.5q24 0 53 9l5 -132q-21 -10 -49 -15t-55 -5z" />
    <glyph glyph-name="u" unicode="u" horiz-adv-x="601" 
d="M189 -11q-53 0 -90 22t-53 69t-4 121l46 291h178l-45 -288q-13 -79 49 -79q39 0 65 28t34 78l41 261h178l-78 -492h-174l11 70q-26 -40 -67 -60.5t-91 -20.5z" />
    <glyph glyph-name="v" unicode="v" horiz-adv-x="542" 
d="M157 0l-138 492h178l64 -279l157 279h183l-297 -492h-147z" />
    <glyph glyph-name="w" unicode="w" horiz-adv-x="868" 
d="M154 0l-129 492h170l63 -282l152 282h111l63 -291l157 291h180l-284 -492h-147l-59 242l-131 -242h-146z" />
    <glyph glyph-name="x" unicode="x" horiz-adv-x="572" 
d="M-62 0l248 256l-157 236h200l76 -124l108 124h209l-230 -244l167 -248h-200l-85 133l-127 -133h-209z" />
    <glyph glyph-name="y" unicode="y" horiz-adv-x="541" 
d="M14 -180l133 215l-128 457h178l64 -279l158 279h182l-407 -672h-180z" />
    <glyph glyph-name="z" unicode="z" horiz-adv-x="487" 
d="M3 0l18 114l249 247h-210l21 131h412l-18 -113l-249 -248h220l-20 -131h-423z" />
    <glyph glyph-name="braceleft" unicode="{" horiz-adv-x="438" 
d="M243 -180q-81 0 -119.5 42t-29.5 103l25 153q6 39 -2 55.5t-40 19.5l-47 5l20 127l46 6q32 3 47.5 19.5t21.5 54.5l24 155q12 75 52 110t101 35h151l-22 -131h-60q-18 0 -31.5 -8t-17.5 -34l-23 -148q-7 -49 -39.5 -81t-64.5 -39q29 -9 51 -43t14 -81l-23 -147
q-4 -26 5 -34t28 -8h63l-21 -131h-109z" />
    <glyph glyph-name="bar" unicode="|" horiz-adv-x="316" 
d="M2 -180l140 885h178l-140 -885h-178z" />
    <glyph glyph-name="braceright" unicode="}" horiz-adv-x="438" 
d="M-50 -180l21 131h61q18 0 31.5 8t17.5 34l23 148q7 49 39.5 81.5t64.5 39.5q-29 8 -51 42t-14 82l23 146q4 26 -5 34t-28 8h-64l21 131h110q81 0 119.5 -42t29.5 -103l-25 -153q-6 -38 2 -55t40 -20l47 -5l-20 -127l-46 -5q-32 -4 -47.5 -20.5t-21.5 -54.5l-24 -155
q-12 -75 -52 -110t-101 -35h-151z" />
    <glyph glyph-name="asciitilde" unicode="~" horiz-adv-x="600" 
d="M414 199q-32 0 -63.5 11.5t-58.5 25.5q-24 11 -44.5 19t-37.5 8q-43 0 -72 -58l-79 59q23 52 58.5 82t80.5 30q31 0 63 -12t60 -26q24 -10 44 -18t36 -8q22 0 40 13t34 44l79 -59q-24 -52 -59.5 -81.5t-80.5 -29.5z" />
    <glyph glyph-name="uni00A0" unicode="&#xa0;" horiz-adv-x="286" 
 />
    <glyph glyph-name="exclamdown" unicode="&#xa1;" horiz-adv-x="272" 
d="M53 310l29 182h185l-29 -182h-185zM-41 -180l123 428h107l-12 -428h-218z" />
    <glyph glyph-name="cent" unicode="&#xa2;" horiz-adv-x="600" 
d="M189 -115l21 131q-69 24 -104 78t-35 125q0 61 23.5 116.5t71 96t119.5 56.5l19 124h139l-19 -118q37 -4 69.5 -16t56.5 -29l-49 -122q-20 16 -51.5 26.5t-65.5 10.5q-49 0 -77.5 -22t-41 -54.5t-12.5 -65.5q0 -38 24.5 -64.5t80.5 -26.5q61 0 111 36l36 -123
q-22 -19 -68 -32t-91 -14l-18 -113h-139z" />
    <glyph glyph-name="sterling" unicode="&#xa3;" horiz-adv-x="600" 
d="M0 0l23 147h66l25 153h-67l17 107h67l11 74q18 118 86 176.5t194 58.5q68 0 125 -21t96 -52l-72 -122q-36 29 -71 41t-67 12q-49 0 -74 -23t-32 -63l-13 -81h149l-17 -107h-149l-24 -153h283l-23 -147h-533z" />
    <glyph glyph-name="currency" unicode="&#xa4;" horiz-adv-x="600" 
d="M87 -34l-60 60l72 75q-21 31 -32.5 67.5t-11.5 76.5q0 41 11.5 77.5t32.5 67.5l-72 74l61 61l73 -74q30 19 65 30.5t72 11.5q76 0 136 -42l75 77l66 -67l-76 -76q41 -62 41 -140q0 -39 -11 -75.5t-31 -66.5l74 -77l-60 -59l-73 75q-62 -45 -141 -45q-38 0 -73.5 11.5
t-64.5 31.5zM299 134q28 0 51.5 15t37.5 40.5t14 55.5q0 46 -30.5 78t-72.5 33q-29 0 -53 -15t-38 -40.5t-14 -55.5q0 -45 30 -78t75 -33z" />
    <glyph glyph-name="yen" unicode="&#xa5;" horiz-adv-x="600" 
d="M169 0l23 149h-145l17 103h145l9 57h-145l16 103h101l-147 293h189l99 -217l167 217h204l-240 -293h101l-16 -103h-146l-9 -57h146l-17 -103h-145l-24 -149h-183z" />
    <glyph glyph-name="brokenbar" unicode="&#xa6;" horiz-adv-x="316" 
d="M89 371l53 334h178l-53 -334h-178zM2 -180l53 334h178l-53 -334h-178z" />
    <glyph glyph-name="section" unicode="&#xa7;" horiz-adv-x="599" 
d="M244 -191q-61 0 -123 17t-117 51l55 112q35 -26 85 -43t94 -17q38 0 61.5 16t23.5 47q0 21 -11.5 36t-36.5 28l-131 69q-54 29 -81 69t-27 86q0 56 23 95t70 67q-16 31 -16 70q0 66 34 111.5t90 69t124 23.5q56 0 112.5 -15t105.5 -47l-48 -110q-37 23 -82.5 37.5
t-83.5 14.5q-37 0 -60 -16t-23 -48q0 -21 11 -36t37 -29l130 -69q109 -59 109 -155q0 -54 -24 -93.5t-69 -68.5q15 -30 15 -66q0 -68 -33.5 -114t-89.5 -69t-124 -23zM191 313q0 -22 15 -41t42 -33l121 -62q8 -5 15.5 -9.5t13.5 -9.5q9 14 12.5 27.5t3.5 25.5
q0 22 -15.5 40.5t-42.5 33.5l-121 62q-8 5 -15.5 10t-14.5 10q-8 -15 -11 -28.5t-3 -25.5z" />
    <glyph glyph-name="dieresis" unicode="&#xa8;" horiz-adv-x="500" 
d="M333 582l23 150h149l-23 -150h-149zM127 582l23 150h148l-22 -150h-149z" />
    <glyph glyph-name="copyright" unicode="&#xa9;" horiz-adv-x="815" 
d="M425 -11q-78 0 -144 27.5t-115.5 77t-77 116t-27.5 143.5t27.5 143t77 115.5t116 77t143.5 27.5t143 -27.5t115.5 -77t77 -115.5t27.5 -143t-27.5 -143.5t-77 -116t-115.5 -77t-143 -27.5zM425 53q86 0 152.5 39.5t104.5 107.5t38 153t-38 153t-104.5 107t-152.5 39
t-153 -39t-105 -107t-38 -153t38 -153t105 -107.5t153 -39.5zM448 137q-103 0 -165 58t-62 158t62 157.5t165 57.5q40 0 80.5 -11.5t66.5 -31.5l-40 -102q-18 14 -42 23.5t-51 9.5q-43 0 -68.5 -27t-25.5 -76t25.5 -76t68.5 -27q54 0 93 33l40 -103q-26 -20 -66.5 -31.5
t-80.5 -11.5z" />
    <glyph glyph-name="ordfeminine" unicode="&#xaa;" horiz-adv-x="354" 
d="M161 404q-45 0 -75 29t-30 66q0 47 47.5 70t133.5 23h38v2q7 42 -45 42q-27 0 -54.5 -5t-54.5 -19l-21 73q24 16 64.5 23.5t80.5 7.5q55 0 87 -20t43 -54t5 -74l-25 -157h-103l9 56h-3q-36 -63 -97 -63zM202 475q24 0 41.5 14.5t20.5 36.5l2 11h-29q-33 0 -52 -7.5
t-19 -23.5q0 -13 9.5 -22t26.5 -9z" />
    <glyph glyph-name="guillemotleft" unicode="&#xab;" horiz-adv-x="558" 
d="M126 62l-74 162l13 86l135 163l112 -58l-109 -155l43 -147zM364 62l-74 162l13 86l135 163l112 -58l-109 -155l43 -147z" />
    <glyph glyph-name="logicalnot" unicode="&#xac;" horiz-adv-x="600" 
d="M402 129l31 198h-364l19 119h487l-50 -317h-123z" />
    <glyph glyph-name="uni00AD" unicode="&#xad;" horiz-adv-x="445" 
d="M56 199l21 138h320l-22 -138h-319z" />
    <glyph glyph-name="registered" unicode="&#xae;" horiz-adv-x="815" 
d="M425 -11q-78 0 -144 27.5t-115.5 77t-77 116t-27.5 143.5t27.5 143t77 115.5t116 77t143.5 27.5t143 -27.5t115.5 -77t77 -115.5t27.5 -143t-27.5 -143.5t-77 -116t-115.5 -77t-143 -27.5zM425 53q86 0 152.5 39.5t104.5 107.5t38 153t-38 153t-104.5 107t-152.5 39
t-153 -39t-105 -107t-38 -153t38 -153t105 -107.5t153 -39.5zM257 142v424h197q73 0 113 -37t40 -91q0 -43 -21.5 -71t-60.5 -40q22 -6 36 -25.5t24 -59.5l25 -100h-132l-29 119q-5 18 -14.5 24.5t-23.5 6.5h-23v-150h-131zM387 386h48q48 0 48 43t-48 43h-48v-86z" />
    <glyph glyph-name="macron" unicode="&#xaf;" horiz-adv-x="500" 
d="M139 605l15 97h338l-15 -97h-338z" />
    <glyph glyph-name="degree" unicode="&#xb0;" horiz-adv-x="389" 
d="M242 386q-48 0 -86 21t-59.5 58t-21.5 83q0 47 22 83.5t60 57.5t85 21q48 0 86 -21t59.5 -57.5t21.5 -83.5q0 -46 -21.5 -83t-59.5 -58t-86 -21zM242 477q29 0 48.5 20.5t19.5 50.5t-19.5 50.5t-48.5 20.5t-48 -20.5t-19 -50.5t19 -50.5t48 -20.5z" />
    <glyph glyph-name="plusminus" unicode="&#xb1;" horiz-adv-x="600" 
d="M223 153l21 130h-182l19 120h183l19 129h124l-20 -129h182l-19 -120h-182l-21 -130h-124zM17 0l18 119h488l-18 -119h-488z" />
    <glyph glyph-name="uni00B2" unicode="&#xb2;" horiz-adv-x="380" 
d="M46 282l17 101l142 123q39 35 39 63q1 28 -38 28q-22 0 -43.5 -9t-41.5 -24l-33 102q36 22 75 32.5t84 10.5q72 0 109.5 -37t37.5 -84q0 -42 -23 -75t-78 -75l-52 -43h141l-18 -113h-318z" />
    <glyph glyph-name="uni00B3" unicode="&#xb3;" horiz-adv-x="380" 
d="M200 276q-50 0 -95.5 13.5t-71.5 37.5l47 88q24 -18 50.5 -25.5t66.5 -7.5q49 0 49 35q1 26 -42 26h-82l16 102h73q50 0 51 31q0 27 -46 27q-57 0 -103 -31l-32 94q74 42 157 42q71 0 113.5 -28t43.5 -75q1 -36 -23 -65t-64 -41q32 -11 50.5 -35.5t19.5 -56.5
q0 -38 -23 -67.5t-63.5 -46.5t-91.5 -17z" />
    <glyph glyph-name="acute" unicode="&#xb4;" horiz-adv-x="500" 
d="M242 557l131 205h171l-187 -205h-115z" />
    <glyph glyph-name="uni00B5" unicode="&#xb5;" horiz-adv-x="600" 
d="M-17 -180l107 672h178l-46 -288q-12 -79 49 -79q39 0 65 28t34 78l41 261h178l-77 -492h-174l14 90h-1q-14 -49 -39.5 -75t-57.5 -26q-53 0 -72 40h-2l-19 -209h-178z" />
    <glyph glyph-name="paragraph" unicode="&#xb6;" horiz-adv-x="667" 
d="M187 -180l68 428q-61 0 -105 26t-68 71.5t-24 101.5q0 78 32 136t90 90t137 32h359l-140 -885h-123l121 763h-104l-121 -763h-122z" />
    <glyph glyph-name="periodcentered" unicode="&#xb7;" horiz-adv-x="272" 
d="M32 178l29 182h186l-29 -182h-186z" />
    <glyph glyph-name="cedilla" unicode="&#xb8;" horiz-adv-x="500" 
d="M186 -198q-33 0 -63 5.5t-52 17.5l30 70q36 -17 74 -17q51 0 51 23q0 16 -34 16q-17 0 -36 -4l-19 21l26 86h84l-16 -51q44 -1 67.5 -19t23.5 -50q0 -45 -38.5 -71.5t-97.5 -26.5z" />
    <glyph glyph-name="uni00B9" unicode="&#xb9;" horiz-adv-x="380" 
d="M47 282l18 113h107l24 151l-76 -36l-44 106l186 89h99l-49 -310h79l-18 -113h-326z" />
    <glyph glyph-name="ordmasculine" unicode="&#xba;" horiz-adv-x="370" 
d="M230 407q-72 0 -118 39.5t-46 106.5q0 50 23 87t62.5 56.5t88.5 19.5q71 0 118 -39t47 -106q0 -50 -23.5 -87t-63.5 -57t-88 -20zM232 490q25 0 42.5 20.5t17.5 61.5q0 31 -15 46.5t-38 15.5q-26 0 -43 -19.5t-17 -62.5q0 -31 14.5 -46.5t38.5 -15.5z" />
    <glyph glyph-name="guillemotright" unicode="&#xbb;" horiz-adv-x="558" 
d="M126 62l-112 57l109 156l-43 147l120 51l74 -163l-13 -85zM364 62l-112 57l109 156l-43 147l120 51l74 -163l-13 -85z" />
    <glyph glyph-name="onequarter" unicode="&#xbc;" horiz-adv-x="934" 
d="M47 282l18 113h107l24 151l-76 -36l-44 106l186 89h99l-49 -310h79l-18 -113h-326zM308 -32l-101 65l520 704l101 -65zM709 0l10 61h-181l15 92l232 270h119l-40 -258h48l-16 -104h-48l-10 -61h-129zM740 165l16 100l-84 -100h68z" />
    <glyph glyph-name="onehalf" unicode="&#xbd;" horiz-adv-x="986" 
d="M47 282l18 113h107l24 151l-76 -36l-44 106l186 89h99l-49 -310h79l-18 -113h-326zM308 -32l-101 65l520 704l101 -65zM607 0l17 101l142 123q39 35 39 63q1 28 -38 28q-22 0 -43.5 -9t-41.5 -24l-33 102q36 22 75 32.5t84 10.5q72 0 109.5 -37t37.5 -84q0 -42 -23 -75
t-78 -75l-52 -43h141l-18 -113h-318z" />
    <glyph glyph-name="threequarters" unicode="&#xbe;" horiz-adv-x="934" 
d="M200 276q-50 0 -95.5 13.5t-71.5 37.5l47 88q24 -18 50.5 -25.5t66.5 -7.5q49 0 49 35q1 26 -42 26h-82l16 102h73q50 0 51 31q0 27 -46 27q-57 0 -103 -31l-32 94q74 42 157 42q71 0 113.5 -28t43.5 -75q1 -36 -23 -65t-64 -41q32 -11 50.5 -35.5t19.5 -56.5
q0 -38 -23 -67.5t-63.5 -46.5t-91.5 -17zM308 -32l-101 65l520 704l101 -65zM709 0l10 61h-181l15 92l232 270h119l-40 -258h48l-16 -104h-48l-10 -61h-129zM740 165l16 100l-84 -100h68z" />
    <glyph glyph-name="questiondown" unicode="&#xbf;" horiz-adv-x="478" 
d="M156 309l29 183h185l-29 -183h-185zM170 -191q-64 0 -110.5 20t-71.5 55t-25 77q0 56 29.5 96t83.5 68q52 28 71.5 50t28.5 48l11 30h105l-7 -47q-6 -42 -24.5 -74t-62.5 -60q-28 -18 -41.5 -34t-13.5 -37q0 -18 15 -29.5t44 -11.5q39 0 80.5 11.5t84.5 42.5l52 -132
q-56 -41 -121 -57t-128 -16z" />
    <glyph glyph-name="Agrave" unicode="&#xc0;" horiz-adv-x="763" 
d="M-60 0l442 705h146l217 -705h-176l-37 143h-317l-84 -143h-191zM433 513l-135 -229h197l-60 229h-2zM401 765l-159 176h175l106 -176h-122z" />
    <glyph glyph-name="Aacute" unicode="&#xc1;" horiz-adv-x="763" 
d="M-60 0l442 705h146l217 -705h-176l-37 143h-317l-84 -143h-191zM433 513l-135 -229h197l-60 229h-2zM401 765l130 176h182l-190 -176h-122z" />
    <glyph glyph-name="Acircumflex" unicode="&#xc2;" horiz-adv-x="763" 
d="M-60 0l442 705h146l217 -705h-176l-37 143h-317l-84 -143h-191zM433 513l-135 -229h197l-60 229h-2zM258 765l143 176h145l110 -176h-120l-70 86l-88 -86h-120z" />
    <glyph glyph-name="Atilde" unicode="&#xc3;" horiz-adv-x="763" 
d="M-60 0l442 705h146l217 -705h-176l-37 143h-317l-84 -143h-191zM433 513l-135 -229h197l-60 229h-2zM300 759l-81 6q12 79 54 122t104 43q31 0 57 -10t49 -21q21 -9 39 -16t37 -7q54 0 71 59l81 -5q-11 -80 -53 -122.5t-105 -42.5q-30 0 -56 9.5t-50 20.5q-20 9 -38.5 16
t-36.5 7q-55 0 -72 -59z" />
    <glyph glyph-name="Adieresis" unicode="&#xc4;" horiz-adv-x="763" 
d="M-60 0l442 705h146l217 -705h-176l-37 143h-317l-84 -143h-191zM433 513l-135 -229h197l-60 229h-2zM491 771l24 149h148l-24 -149h-148zM285 771l23 149h149l-24 -149h-148z" />
    <glyph glyph-name="Aring" unicode="&#xc5;" horiz-adv-x="763" 
d="M-60 0l442 705h146l217 -705h-176l-37 143h-317l-84 -143h-191zM433 513l-135 -229h197l-60 229h-2zM472 752q-38 0 -68.5 17t-48 46.5t-17.5 66.5q0 38 17.5 67t48 46.5t68.5 17.5q39 0 69.5 -17.5t48 -46.5t17.5 -67q0 -37 -17.5 -66.5t-48 -46.5t-69.5 -17zM472 825
q25 0 41 16t16 41t-16 41t-41 16q-23 0 -39.5 -16t-16.5 -41t16.5 -41t39.5 -16z" />
    <glyph glyph-name="AE" unicode="&#xc6;" horiz-adv-x="1006" 
d="M-99 0l561 705h564l-22 -142h-367l9 -134h314l-22 -142h-284l9 -145h275l-23 -142h-401l-9 143h-298l-107 -143h-199zM481 507l-168 -223h184l-14 223h-2z" />
    <glyph glyph-name="Ccedilla" unicode="&#xc7;" horiz-adv-x="687" 
d="M405 -11q-98 0 -175.5 36.5t-122 109t-44.5 178.5q0 85 26 158t76.5 128t125 86t171.5 31q72 0 136 -21.5t101 -55.5l-69 -144q-81 61 -172 61q-67 0 -111.5 -31.5t-67 -85t-22.5 -119.5q0 -88 41 -129.5t129 -41.5q39 0 81 13t88 43l46 -145q-28 -22 -68 -38t-84 -24.5
t-85 -8.5zM350 -198q-33 0 -63 5.5t-52 17.5l30 70q36 -17 74 -17q51 0 51 23q0 16 -34 16q-17 0 -36 -4l-19 21l26 86h84l-16 -51q44 -1 67.5 -19t23.5 -50q0 -45 -38.5 -71.5t-97.5 -26.5z" />
    <glyph glyph-name="Egrave" unicode="&#xc8;" horiz-adv-x="614" 
d="M26 0l111 705h498l-22 -142h-323l-21 -134h300l-23 -142h-300l-23 -145h322l-22 -142h-497zM353 765l-159 176h175l106 -176h-122z" />
    <glyph glyph-name="Eacute" unicode="&#xc9;" horiz-adv-x="614" 
d="M26 0l111 705h498l-22 -142h-323l-21 -134h300l-23 -142h-300l-23 -145h322l-22 -142h-497zM353 765l130 176h182l-190 -176h-122z" />
    <glyph glyph-name="Ecircumflex" unicode="&#xca;" horiz-adv-x="614" 
d="M26 0l111 705h498l-22 -142h-323l-21 -134h300l-23 -142h-300l-23 -145h322l-22 -142h-497zM210 765l143 176h145l110 -176h-120l-70 86l-88 -86h-120z" />
    <glyph glyph-name="Edieresis" unicode="&#xcb;" horiz-adv-x="614" 
d="M26 0l111 705h498l-22 -142h-323l-21 -134h300l-23 -142h-300l-23 -145h322l-22 -142h-497zM443 771l24 149h148l-24 -149h-148zM237 771l23 149h149l-24 -149h-148z" />
    <glyph glyph-name="Igrave" unicode="&#xcc;" horiz-adv-x="312" 
d="M25 0l112 705h184l-112 -705h-184zM177 765l-159 176h175l106 -176h-122z" />
    <glyph glyph-name="Iacute" unicode="&#xcd;" horiz-adv-x="312" 
d="M25 0l112 705h184l-112 -705h-184zM177 765l130 176h182l-190 -176h-122z" />
    <glyph glyph-name="Icircumflex" unicode="&#xce;" horiz-adv-x="312" 
d="M25 0l112 705h184l-112 -705h-184zM34 765l143 176h145l110 -176h-120l-70 86l-88 -86h-120z" />
    <glyph glyph-name="Idieresis" unicode="&#xcf;" horiz-adv-x="312" 
d="M25 0l112 705h184l-112 -705h-184zM267 771l24 149h148l-24 -149h-148zM61 771l23 149h149l-24 -149h-148z" />
    <glyph glyph-name="Eth" unicode="&#xd0;" horiz-adv-x="786" 
d="M25 0l112 705h250q178 0 274.5 -82t96.5 -227q1 -113 -46 -203t-138.5 -141.5t-224.5 -51.5h-324zM232 149h119q107 0 161.5 66t54.5 178q0 79 -45 121t-135 42h-90zM-13 291l21 130h449l-21 -130h-449z" />
    <glyph glyph-name="Ntilde" unicode="&#xd1;" horiz-adv-x="757" 
d="M25 0l112 705h135l257 -421l66 421h171l-112 -705h-135l-256 421l-67 -421h-171zM296 759l-81 6q12 79 54 122t104 43q31 0 57 -10t49 -21q21 -9 39 -16t37 -7q54 0 71 59l81 -5q-11 -80 -53 -122.5t-105 -42.5q-30 0 -56 9.5t-50 20.5q-20 9 -38.5 16t-36.5 7
q-55 0 -72 -59z" />
    <glyph glyph-name="Ograve" unicode="&#xd2;" horiz-adv-x="807" 
d="M396 -11q-101 0 -176 37.5t-116.5 108t-41.5 170.5q0 122 48 214.5t134.5 144.5t200.5 52q101 0 176 -37.5t116.5 -108t41.5 -169.5q0 -123 -48 -215.5t-134 -144.5t-201 -52zM398 143q60 0 102.5 32t65.5 89.5t23 132.5q0 84 -39.5 124.5t-107.5 40.5q-59 0 -101.5 -32
t-65 -89.5t-22.5 -132.5q0 -84 39 -124.5t106 -40.5zM410 765l-159 176h175l106 -176h-122z" />
    <glyph glyph-name="Oacute" unicode="&#xd3;" horiz-adv-x="807" 
d="M396 -11q-101 0 -176 37.5t-116.5 108t-41.5 170.5q0 122 48 214.5t134.5 144.5t200.5 52q101 0 176 -37.5t116.5 -108t41.5 -169.5q0 -123 -48 -215.5t-134 -144.5t-201 -52zM398 143q60 0 102.5 32t65.5 89.5t23 132.5q0 84 -39.5 124.5t-107.5 40.5q-59 0 -101.5 -32
t-65 -89.5t-22.5 -132.5q0 -84 39 -124.5t106 -40.5zM410 765l130 176h182l-190 -176h-122z" />
    <glyph glyph-name="Ocircumflex" unicode="&#xd4;" horiz-adv-x="807" 
d="M396 -11q-101 0 -176 37.5t-116.5 108t-41.5 170.5q0 122 48 214.5t134.5 144.5t200.5 52q101 0 176 -37.5t116.5 -108t41.5 -169.5q0 -123 -48 -215.5t-134 -144.5t-201 -52zM398 143q60 0 102.5 32t65.5 89.5t23 132.5q0 84 -39.5 124.5t-107.5 40.5q-59 0 -101.5 -32
t-65 -89.5t-22.5 -132.5q0 -84 39 -124.5t106 -40.5zM267 765l143 176h145l110 -176h-120l-70 86l-88 -86h-120z" />
    <glyph glyph-name="Otilde" unicode="&#xd5;" horiz-adv-x="807" 
d="M396 -11q-101 0 -176 37.5t-116.5 108t-41.5 170.5q0 122 48 214.5t134.5 144.5t200.5 52q101 0 176 -37.5t116.5 -108t41.5 -169.5q0 -123 -48 -215.5t-134 -144.5t-201 -52zM398 143q60 0 102.5 32t65.5 89.5t23 132.5q0 84 -39.5 124.5t-107.5 40.5q-59 0 -101.5 -32
t-65 -89.5t-22.5 -132.5q0 -84 39 -124.5t106 -40.5zM309 759l-81 6q12 79 54 122t104 43q31 0 57 -10t49 -21q21 -9 39 -16t37 -7q54 0 71 59l81 -5q-11 -80 -53 -122.5t-105 -42.5q-30 0 -56 9.5t-50 20.5q-20 9 -38.5 16t-36.5 7q-55 0 -72 -59z" />
    <glyph glyph-name="Odieresis" unicode="&#xd6;" horiz-adv-x="807" 
d="M396 -11q-101 0 -176 37.5t-116.5 108t-41.5 170.5q0 122 48 214.5t134.5 144.5t200.5 52q101 0 176 -37.5t116.5 -108t41.5 -169.5q0 -123 -48 -215.5t-134 -144.5t-201 -52zM398 143q60 0 102.5 32t65.5 89.5t23 132.5q0 84 -39.5 124.5t-107.5 40.5q-59 0 -101.5 -32
t-65 -89.5t-22.5 -132.5q0 -84 39 -124.5t106 -40.5zM500 771l24 149h148l-24 -149h-148zM294 771l23 149h149l-24 -149h-148z" />
    <glyph glyph-name="multiply" unicode="&#xd7;" horiz-adv-x="600" 
d="M140 52l-81 84l164 151l-137 149l86 85l137 -151l164 151l81 -85l-164 -150l137 -150l-86 -84l-137 150z" />
    <glyph glyph-name="Oslash" unicode="&#xd8;" horiz-adv-x="807" 
d="M396 -11q-101 0 -176 37.5t-116.5 108t-41.5 170.5q0 122 48 214.5t134.5 144.5t200.5 52q101 0 176 -37.5t116.5 -108t41.5 -169.5q0 -123 -48 -215.5t-134 -144.5t-201 -52zM398 143q60 0 102.5 32t65.5 89.5t23 132.5q0 84 -39.5 124.5t-107.5 40.5q-59 0 -101.5 -32
t-65 -89.5t-22.5 -132.5q0 -84 39 -124.5t106 -40.5zM188 -63l-107 72l96 128l66 73l272 359l42 74l95 127l106 -73l-96 -127l-66 -74l-272 -358l-42 -74z" />
    <glyph glyph-name="Ugrave" unicode="&#xd9;" horiz-adv-x="748" 
d="M350 -11q-92 0 -161.5 35.5t-102.5 109t-15 184.5l61 387h183l-63 -397q-12 -78 15.5 -122t96.5 -44q62 0 99.5 34t49.5 105l67 424h181l-66 -415q-23 -146 -103.5 -223.5t-241.5 -77.5zM394 765l-159 176h175l106 -176h-122z" />
    <glyph glyph-name="Uacute" unicode="&#xda;" horiz-adv-x="748" 
d="M350 -11q-92 0 -161.5 35.5t-102.5 109t-15 184.5l61 387h183l-63 -397q-12 -78 15.5 -122t96.5 -44q62 0 99.5 34t49.5 105l67 424h181l-66 -415q-23 -146 -103.5 -223.5t-241.5 -77.5zM394 765l130 176h182l-190 -176h-122z" />
    <glyph glyph-name="Ucircumflex" unicode="&#xdb;" horiz-adv-x="748" 
d="M350 -11q-92 0 -161.5 35.5t-102.5 109t-15 184.5l61 387h183l-63 -397q-12 -78 15.5 -122t96.5 -44q62 0 99.5 34t49.5 105l67 424h181l-66 -415q-23 -146 -103.5 -223.5t-241.5 -77.5zM251 765l143 176h145l110 -176h-120l-70 86l-88 -86h-120z" />
    <glyph glyph-name="Udieresis" unicode="&#xdc;" horiz-adv-x="748" 
d="M350 -11q-92 0 -161.5 35.5t-102.5 109t-15 184.5l61 387h183l-63 -397q-12 -78 15.5 -122t96.5 -44q62 0 99.5 34t49.5 105l67 424h181l-66 -415q-23 -146 -103.5 -223.5t-241.5 -77.5zM484 771l24 149h148l-24 -149h-148zM278 771l23 149h149l-24 -149h-148z" />
    <glyph glyph-name="Yacute" unicode="&#xdd;" horiz-adv-x="645" 
d="M191 0l50 312l-210 393h200l118 -230l191 230h217l-332 -392l-50 -313h-184zM329 765l130 176h182l-190 -176h-122z" />
    <glyph glyph-name="Thorn" unicode="&#xde;" horiz-adv-x="679" 
d="M25 0l112 705h184l-17 -107h117q128 0 191.5 -54t63.5 -149q0 -124 -75.5 -191.5t-218.5 -67.5h-151l-22 -136h-184zM253 278h136q112 0 112 100q0 41 -25.5 60t-79.5 19h-115z" />
    <glyph glyph-name="germandbls" unicode="&#xdf;" horiz-adv-x="700" 
d="M450 -11q-63 0 -119.5 18t-92.5 47l57 113q36 -23 79.5 -36.5t80.5 -13.5q26 0 41 8t15 27q0 14 -16 25.5t-60 26.5q-60 21 -87 52t-27 71q0 47 21.5 81.5t63.5 70.5q19 17 30 33t11 37q0 16 -12 29.5t-41 13.5q-57 0 -88 -29t-41 -95l-74 -468h-178l69 439
q14 87 49 149.5t100.5 95t168.5 32.5q65 0 113 -20t73.5 -53t25.5 -73t-17 -70.5t-52 -62.5q-38 -36 -50 -50t-12 -27q0 -17 18.5 -28t57.5 -25q54 -20 84 -52.5t30 -87.5q0 -59 -29 -98.5t-79 -59.5t-113 -20z" />
    <glyph glyph-name="agrave" unicode="&#xe0;" horiz-adv-x="568" 
d="M185 -11q-48 0 -86 22t-60.5 57.5t-22.5 76.5q0 78 67 113.5t208 35.5h68l1 9q6 33 -14.5 52t-66.5 19q-88 0 -172 -48l-33 118q39 26 102.5 42.5t127.5 16.5q91 0 142 -33t68.5 -88.5t6.5 -120.5l-41 -261h-165l11 71q-24 -44 -60.5 -63t-80.5 -19zM247 105q39 0 64 23
t31 60l3 22h-54q-56 0 -80.5 -12.5t-24.5 -40.5q0 -25 17 -38.5t44 -13.5zM270 557l-142 205h165l92 -205h-115z" />
    <glyph glyph-name="aacute" unicode="&#xe1;" horiz-adv-x="568" 
d="M185 -11q-48 0 -86 22t-60.5 57.5t-22.5 76.5q0 78 67 113.5t208 35.5h68l1 9q6 33 -14.5 52t-66.5 19q-88 0 -172 -48l-33 118q39 26 102.5 42.5t127.5 16.5q91 0 142 -33t68.5 -88.5t6.5 -120.5l-41 -261h-165l11 71q-24 -44 -60.5 -63t-80.5 -19zM247 105q39 0 64 23
t31 60l3 22h-54q-56 0 -80.5 -12.5t-24.5 -40.5q0 -25 17 -38.5t44 -13.5zM270 557l131 205h171l-187 -205h-115z" />
    <glyph glyph-name="acircumflex" unicode="&#xe2;" horiz-adv-x="568" 
d="M185 -11q-48 0 -86 22t-60.5 57.5t-22.5 76.5q0 78 67 113.5t208 35.5h68l1 9q6 33 -14.5 52t-66.5 19q-88 0 -172 -48l-33 118q39 26 102.5 42.5t127.5 16.5q91 0 142 -33t68.5 -88.5t6.5 -120.5l-41 -261h-165l11 71q-24 -44 -60.5 -63t-80.5 -19zM247 105q39 0 64 23
t31 60l3 22h-54q-56 0 -80.5 -12.5t-24.5 -40.5q0 -25 17 -38.5t44 -13.5zM136 557l131 205h148l92 -205h-108l-65 113l-90 -113h-108z" />
    <glyph glyph-name="atilde" unicode="&#xe3;" horiz-adv-x="568" 
d="M185 -11q-48 0 -86 22t-60.5 57.5t-22.5 76.5q0 78 67 113.5t208 35.5h68l1 9q6 33 -14.5 52t-66.5 19q-88 0 -172 -48l-33 118q39 26 102.5 42.5t127.5 16.5q91 0 142 -33t68.5 -88.5t6.5 -120.5l-41 -261h-165l11 71q-24 -44 -60.5 -63t-80.5 -19zM247 105q39 0 64 23
t31 60l3 22h-54q-56 0 -80.5 -12.5t-24.5 -40.5q0 -25 17 -38.5t44 -13.5zM203 577l-82 5q10 80 49 122.5t96 42.5q28 0 47.5 -10t36.5 -21q14 -9 28.5 -15.5t32.5 -6.5q49 0 64 59l81 -6q-9 -79 -48 -122t-96 -43q-29 0 -49.5 10.5t-37.5 21.5q-14 9 -28 15.5t-30 6.5
q-49 0 -64 -59z" />
    <glyph glyph-name="adieresis" unicode="&#xe4;" horiz-adv-x="568" 
d="M185 -11q-48 0 -86 22t-60.5 57.5t-22.5 76.5q0 78 67 113.5t208 35.5h68l1 9q6 33 -14.5 52t-66.5 19q-88 0 -172 -48l-33 118q39 26 102.5 42.5t127.5 16.5q91 0 142 -33t68.5 -88.5t6.5 -120.5l-41 -261h-165l11 71q-24 -44 -60.5 -63t-80.5 -19zM247 105q39 0 64 23
t31 60l3 22h-54q-56 0 -80.5 -12.5t-24.5 -40.5q0 -25 17 -38.5t44 -13.5zM361 582l23 150h149l-23 -150h-149zM155 582l23 150h148l-22 -150h-149z" />
    <glyph glyph-name="aring" unicode="&#xe5;" horiz-adv-x="568" 
d="M185 -11q-48 0 -86 22t-60.5 57.5t-22.5 76.5q0 78 67 113.5t208 35.5h68l1 9q6 33 -14.5 52t-66.5 19q-88 0 -172 -48l-33 118q39 26 102.5 42.5t127.5 16.5q91 0 142 -33t68.5 -88.5t6.5 -120.5l-41 -261h-165l11 71q-24 -44 -60.5 -63t-80.5 -19zM247 105q39 0 64 23
t31 60l3 22h-54q-56 0 -80.5 -12.5t-24.5 -40.5q0 -25 17 -38.5t44 -13.5zM347 545q-38 0 -69 17t-48.5 46.5t-17.5 66.5t17.5 66.5t48.5 47t69 17.5t68.5 -17.5t48.5 -47t18 -66.5t-18 -66.5t-48.5 -46.5t-68.5 -17zM347 618q24 0 40 16t16 41t-16 41t-40 16q-25 0 -41 -16
t-16 -41t16 -41t41 -16z" />
    <glyph glyph-name="ae" unicode="&#xe6;" horiz-adv-x="870" 
d="M221 -11q-53 0 -100 16.5t-76 51.5t-29 88q0 78 67 113.5t208 35.5h63l2 10q5 33 -12.5 51t-64.5 18q-44 0 -87.5 -11.5t-82.5 -35.5l-35 118q39 26 102.5 42.5t127.5 16.5q110 0 159 -59q33 30 74.5 44.5t89.5 14.5q82 0 134 -35t73 -94.5t9 -133.5l-5 -30h-325
q2 -44 31 -67t82 -23q88 0 149 44l36 -116q-37 -28 -90.5 -43.5t-114.5 -15.5q-71 0 -122.5 24.5t-79.5 69.5q-27 -49 -76.5 -71.5t-106.5 -22.5zM624 386q-42 0 -66.5 -26.5t-33.5 -65.5h180q3 39 -16.5 65.5t-63.5 26.5zM247 108q39 0 61.5 20.5t28.5 57.5l4 24h-49
q-55 0 -80.5 -13.5t-25.5 -41.5q0 -21 16 -34t45 -13z" />
    <glyph glyph-name="ccedilla" unicode="&#xe7;" horiz-adv-x="484" 
d="M285 -11q-127 0 -192 63t-65 167q0 74 32.5 139t98.5 105t166 40q50 0 96.5 -12.5t77.5 -35.5l-51 -122q-19 16 -49 26t-59 10q-48 0 -76.5 -21.5t-41 -55.5t-12.5 -70q0 -44 24 -71.5t80 -27.5q24 0 52.5 9t51.5 26l36 -123q-29 -23 -77 -34.5t-92 -11.5zM226 -198
q-33 0 -63 5.5t-52 17.5l30 70q36 -17 74 -17q51 0 51 23q0 16 -34 16q-17 0 -36 -4l-19 21l26 86h84l-16 -51q44 -1 67.5 -19t23.5 -50q0 -45 -38.5 -71.5t-97.5 -26.5z" />
    <glyph glyph-name="egrave" unicode="&#xe8;" horiz-adv-x="556" 
d="M291 -11q-79 0 -138 28.5t-92 80.5t-33 121q0 85 37.5 149t101.5 99.5t144 35.5q84 0 135.5 -35.5t71.5 -96.5t10 -135l-4 -26h-331q2 -44 33 -67t85 -23q41 0 80.5 11.5t68.5 32.5l37 -116q-37 -28 -90.5 -43.5t-115.5 -15.5zM309 387q-45 0 -70.5 -27t-34.5 -66h189
q2 41 -18.5 67t-65.5 26zM283 557l-142 205h165l92 -205h-115z" />
    <glyph glyph-name="eacute" unicode="&#xe9;" horiz-adv-x="556" 
d="M291 -11q-79 0 -138 28.5t-92 80.5t-33 121q0 85 37.5 149t101.5 99.5t144 35.5q84 0 135.5 -35.5t71.5 -96.5t10 -135l-4 -26h-331q2 -44 33 -67t85 -23q41 0 80.5 11.5t68.5 32.5l37 -116q-37 -28 -90.5 -43.5t-115.5 -15.5zM309 387q-45 0 -70.5 -27t-34.5 -66h189
q2 41 -18.5 67t-65.5 26zM283 557l131 205h171l-187 -205h-115z" />
    <glyph glyph-name="ecircumflex" unicode="&#xea;" horiz-adv-x="556" 
d="M291 -11q-79 0 -138 28.5t-92 80.5t-33 121q0 85 37.5 149t101.5 99.5t144 35.5q84 0 135.5 -35.5t71.5 -96.5t10 -135l-4 -26h-331q2 -44 33 -67t85 -23q41 0 80.5 11.5t68.5 32.5l37 -116q-37 -28 -90.5 -43.5t-115.5 -15.5zM309 387q-45 0 -70.5 -27t-34.5 -66h189
q2 41 -18.5 67t-65.5 26zM149 557l131 205h148l92 -205h-108l-65 113l-90 -113h-108z" />
    <glyph glyph-name="edieresis" unicode="&#xeb;" horiz-adv-x="556" 
d="M291 -11q-79 0 -138 28.5t-92 80.5t-33 121q0 85 37.5 149t101.5 99.5t144 35.5q84 0 135.5 -35.5t71.5 -96.5t10 -135l-4 -26h-331q2 -44 33 -67t85 -23q41 0 80.5 11.5t68.5 32.5l37 -116q-37 -28 -90.5 -43.5t-115.5 -15.5zM309 387q-45 0 -70.5 -27t-34.5 -66h189
q2 41 -18.5 67t-65.5 26zM374 582l23 150h149l-23 -150h-149zM168 582l23 150h148l-22 -150h-149z" />
    <glyph glyph-name="igrave" unicode="&#xec;" horiz-adv-x="281" 
d="M13 0l78 492h178l-78 -492h-178zM132 557l-142 205h165l92 -205h-115z" />
    <glyph glyph-name="iacute" unicode="&#xed;" horiz-adv-x="281" 
d="M13 0l78 492h178l-78 -492h-178zM132 557l131 205h171l-187 -205h-115z" />
    <glyph glyph-name="icircumflex" unicode="&#xee;" horiz-adv-x="281" 
d="M13 0l78 492h178l-78 -492h-178zM-2 557l131 205h148l92 -205h-108l-65 113l-90 -113h-108z" />
    <glyph glyph-name="idieresis" unicode="&#xef;" horiz-adv-x="281" 
d="M13 0l78 492h178l-78 -492h-178zM223 582l23 150h149l-23 -150h-149zM17 582l23 150h148l-22 -150h-149z" />
    <glyph glyph-name="eth" unicode="&#xf0;" horiz-adv-x="606" 
d="M273 -11q-72 0 -128 27t-88.5 74.5t-32.5 108.5q0 73 34.5 129t92.5 87.5t131 31.5q43 0 79.5 -11.5t60.5 -38.5q-8 42 -33 78.5t-60 65.5l-163 -74l-35 73l111 49q-43 18 -87 22l37 107q57 -9 105.5 -25.5t88.5 -38.5l140 64l35 -73l-100 -45q65 -60 94.5 -134.5
t29.5 -145.5q0 -97 -36.5 -171.5t-106.5 -117t-169 -42.5zM290 122q44 0 73 31t29 86q0 35 -23.5 57t-63.5 22q-44 0 -73 -31.5t-29 -85.5q0 -36 23.5 -57.5t63.5 -21.5z" />
    <glyph glyph-name="ntilde" unicode="&#xf1;" horiz-adv-x="606" 
d="M13 0l78 492h173l-11 -70q54 81 163 81q79 0 122 -50.5t26 -161.5l-46 -291h-178l45 288q6 39 -5.5 59t-45.5 20q-41 0 -67.5 -27.5t-34.5 -77.5l-41 -262h-178zM223 577l-82 5q10 80 49 122.5t96 42.5q28 0 47.5 -10t36.5 -21q14 -9 28.5 -15.5t32.5 -6.5q49 0 64 59
l81 -6q-9 -79 -48 -122t-96 -43q-29 0 -49.5 10.5t-37.5 21.5q-14 9 -28 15.5t-30 6.5q-49 0 -64 -59z" />
    <glyph glyph-name="ograve" unicode="&#xf2;" horiz-adv-x="602" 
d="M282 -11q-121 0 -187 63t-66 167q0 71 24.5 124.5t66 89t93.5 53t107 17.5q120 0 186.5 -63t66.5 -166q0 -72 -24.5 -125.5t-66 -89t-93.5 -53t-107 -17.5zM285 120q51 0 80 45t29 114q0 45 -20.5 69t-57.5 24q-50 0 -79 -44.5t-29 -114.5q0 -45 20.5 -69t56.5 -24z
M293 557l-142 205h165l92 -205h-115z" />
    <glyph glyph-name="oacute" unicode="&#xf3;" horiz-adv-x="602" 
d="M282 -11q-121 0 -187 63t-66 167q0 71 24.5 124.5t66 89t93.5 53t107 17.5q120 0 186.5 -63t66.5 -166q0 -72 -24.5 -125.5t-66 -89t-93.5 -53t-107 -17.5zM285 120q51 0 80 45t29 114q0 45 -20.5 69t-57.5 24q-50 0 -79 -44.5t-29 -114.5q0 -45 20.5 -69t56.5 -24z
M293 557l131 205h171l-187 -205h-115z" />
    <glyph glyph-name="ocircumflex" unicode="&#xf4;" horiz-adv-x="602" 
d="M282 -11q-121 0 -187 63t-66 167q0 71 24.5 124.5t66 89t93.5 53t107 17.5q120 0 186.5 -63t66.5 -166q0 -72 -24.5 -125.5t-66 -89t-93.5 -53t-107 -17.5zM285 120q51 0 80 45t29 114q0 45 -20.5 69t-57.5 24q-50 0 -79 -44.5t-29 -114.5q0 -45 20.5 -69t56.5 -24z
M159 557l131 205h148l92 -205h-108l-65 113l-90 -113h-108z" />
    <glyph glyph-name="otilde" unicode="&#xf5;" horiz-adv-x="602" 
d="M282 -11q-121 0 -187 63t-66 167q0 71 24.5 124.5t66 89t93.5 53t107 17.5q120 0 186.5 -63t66.5 -166q0 -72 -24.5 -125.5t-66 -89t-93.5 -53t-107 -17.5zM285 120q51 0 80 45t29 114q0 45 -20.5 69t-57.5 24q-50 0 -79 -44.5t-29 -114.5q0 -45 20.5 -69t56.5 -24z
M226 577l-82 5q10 80 49 122.5t96 42.5q28 0 47.5 -10t36.5 -21q14 -9 28.5 -15.5t32.5 -6.5q49 0 64 59l81 -6q-9 -79 -48 -122t-96 -43q-29 0 -49.5 10.5t-37.5 21.5q-14 9 -28 15.5t-30 6.5q-49 0 -64 -59z" />
    <glyph glyph-name="odieresis" unicode="&#xf6;" horiz-adv-x="602" 
d="M282 -11q-121 0 -187 63t-66 167q0 71 24.5 124.5t66 89t93.5 53t107 17.5q120 0 186.5 -63t66.5 -166q0 -72 -24.5 -125.5t-66 -89t-93.5 -53t-107 -17.5zM285 120q51 0 80 45t29 114q0 45 -20.5 69t-57.5 24q-50 0 -79 -44.5t-29 -114.5q0 -45 20.5 -69t56.5 -24z
M384 582l23 150h149l-23 -150h-149zM178 582l23 150h148l-22 -150h-149z" />
    <glyph glyph-name="divide" unicode="&#xf7;" horiz-adv-x="600" 
d="M259 419l19 126h126l-20 -126h-125zM53 228l19 118h488l-19 -118h-488zM197 29l20 126h126l-20 -126h-126z" />
    <glyph glyph-name="oslash" unicode="&#xf8;" horiz-adv-x="602" 
d="M128 -61l-73 51l44 58q-70 62 -70 171q0 71 24.5 124.5t66 89t93.5 53t107 17.5q59 0 107 -16l47 64l74 -50l-44 -59q69 -61 69 -168q0 -72 -24.5 -125.5t-66 -89t-93.5 -53t-107 -17.5q-58 0 -105 15zM189 210q0 -20 4 -36l154 206q-16 4 -35 4q-56 0 -89.5 -46.5
t-33.5 -127.5zM289 108q56 0 90 46.5t34 127.5q0 18 -4 33l-152 -204q15 -3 32 -3z" />
    <glyph glyph-name="ugrave" unicode="&#xf9;" horiz-adv-x="601" 
d="M189 -11q-53 0 -90 22t-53 69t-4 121l46 291h178l-45 -288q-13 -79 49 -79q39 0 65 28t34 78l41 261h178l-78 -492h-174l11 70q-26 -40 -67 -60.5t-91 -20.5zM289 557l-142 205h165l92 -205h-115z" />
    <glyph glyph-name="uacute" unicode="&#xfa;" horiz-adv-x="601" 
d="M189 -11q-53 0 -90 22t-53 69t-4 121l46 291h178l-45 -288q-13 -79 49 -79q39 0 65 28t34 78l41 261h178l-78 -492h-174l11 70q-26 -40 -67 -60.5t-91 -20.5zM289 557l131 205h171l-187 -205h-115z" />
    <glyph glyph-name="ucircumflex" unicode="&#xfb;" horiz-adv-x="601" 
d="M189 -11q-53 0 -90 22t-53 69t-4 121l46 291h178l-45 -288q-13 -79 49 -79q39 0 65 28t34 78l41 261h178l-78 -492h-174l11 70q-26 -40 -67 -60.5t-91 -20.5zM155 557l131 205h148l92 -205h-108l-65 113l-90 -113h-108z" />
    <glyph glyph-name="udieresis" unicode="&#xfc;" horiz-adv-x="601" 
d="M189 -11q-53 0 -90 22t-53 69t-4 121l46 291h178l-45 -288q-13 -79 49 -79q39 0 65 28t34 78l41 261h178l-78 -492h-174l11 70q-26 -40 -67 -60.5t-91 -20.5zM380 582l23 150h149l-23 -150h-149zM174 582l23 150h148l-22 -150h-149z" />
    <glyph glyph-name="yacute" unicode="&#xfd;" horiz-adv-x="541" 
d="M14 -180l133 215l-128 457h178l64 -279l158 279h182l-407 -672h-180zM246 557l131 205h171l-187 -205h-115z" />
    <glyph glyph-name="thorn" unicode="&#xfe;" horiz-adv-x="620" 
d="M-15 -180l140 885h178l-43 -273q28 34 67 52.5t84 18.5q83 0 132.5 -57.5t49.5 -156.5q0 -86 -31 -154t-87 -107t-131 -39q-48 0 -85.5 19.5t-57.5 55.5l-38 -244h-178zM306 120q50 0 79 45t29 114q0 45 -20.5 69t-56.5 24q-51 0 -80 -45t-29 -114q0 -45 20.5 -69
t57.5 -24z" />
    <glyph glyph-name="ydieresis" unicode="&#xff;" horiz-adv-x="541" 
d="M14 -180l133 215l-128 457h178l64 -279l158 279h182l-407 -672h-180zM337 582l23 150h149l-23 -150h-149zM131 582l23 150h148l-22 -150h-149z" />
    <glyph glyph-name="Amacron" unicode="&#x100;" horiz-adv-x="763" 
d="M-60 0l442 705h146l217 -705h-176l-37 143h-317l-84 -143h-191zM433 513l-135 -229h197l-60 229h-2zM283 796l14 97h368l-15 -97h-367z" />
    <glyph glyph-name="amacron" unicode="&#x101;" horiz-adv-x="568" 
d="M185 -11q-48 0 -86 22t-60.5 57.5t-22.5 76.5q0 78 67 113.5t208 35.5h68l1 9q6 33 -14.5 52t-66.5 19q-88 0 -172 -48l-33 118q39 26 102.5 42.5t127.5 16.5q91 0 142 -33t68.5 -88.5t6.5 -120.5l-41 -261h-165l11 71q-24 -44 -60.5 -63t-80.5 -19zM247 105q39 0 64 23
t31 60l3 22h-54q-56 0 -80.5 -12.5t-24.5 -40.5q0 -25 17 -38.5t44 -13.5zM167 605l15 97h338l-15 -97h-338z" />
    <glyph glyph-name="Abreve" unicode="&#x102;" horiz-adv-x="763" 
d="M-60 0l442 705h146l217 -705h-176l-37 143h-317l-84 -143h-191zM433 513l-135 -229h197l-60 229h-2zM464 760q-84 0 -134.5 48.5t-50.5 123.5l96 12q0 -40 25 -62.5t71 -22.5q44 0 73.5 22.5t37.5 62.5l94 -12q-11 -79 -68 -125.5t-144 -46.5z" />
    <glyph glyph-name="abreve" unicode="&#x103;" horiz-adv-x="568" 
d="M185 -11q-48 0 -86 22t-60.5 57.5t-22.5 76.5q0 78 67 113.5t208 35.5h68l1 9q6 33 -14.5 52t-66.5 19q-88 0 -172 -48l-33 118q39 26 102.5 42.5t127.5 16.5q91 0 142 -33t68.5 -88.5t6.5 -120.5l-41 -261h-165l11 71q-24 -44 -60.5 -63t-80.5 -19zM247 105q39 0 64 23
t31 60l3 22h-54q-56 0 -80.5 -12.5t-24.5 -40.5q0 -25 17 -38.5t44 -13.5zM335 553q-79 0 -124.5 54t-40.5 143l96 9q-1 -51 19 -78t57 -27t61.5 27t31.5 78l95 -9q-9 -90 -62 -143.5t-133 -53.5z" />
    <glyph glyph-name="Aogonek" unicode="&#x104;" horiz-adv-x="763" 
d="M-60 0l442 705h146l217 -705h-176l-37 143h-317l-84 -143h-191zM433 513l-135 -229h197l-60 229h-2zM637 -198q-57 0 -87 26.5t-30 72.5q0 50 34 89.5t86 57.5l43 -48q-32 -12 -45.5 -31.5t-13.5 -38.5q0 -18 14 -29.5t35 -11.5q14 0 26.5 2.5t27.5 7.5l12 -81
q-32 -8 -54 -12t-48 -4z" />
    <glyph glyph-name="aogonek" unicode="&#x105;" horiz-adv-x="568" 
d="M185 -11q-48 0 -86 22t-60.5 57.5t-22.5 76.5q0 78 67 113.5t208 35.5h68l1 9q6 33 -14.5 52t-66.5 19q-88 0 -172 -48l-33 118q39 26 102.5 42.5t127.5 16.5q91 0 142 -33t68.5 -88.5t6.5 -120.5l-41 -261h-165l11 71q-24 -44 -60.5 -63t-80.5 -19zM247 105q39 0 64 23
t31 60l3 22h-54q-56 0 -80.5 -12.5t-24.5 -40.5q0 -25 17 -38.5t44 -13.5zM377 -198q-57 0 -87 26.5t-30 72.5q0 50 34 89.5t86 57.5l43 -48q-32 -12 -45.5 -31.5t-13.5 -38.5q0 -18 14 -29.5t35 -11.5q14 0 26.5 2.5t27.5 7.5l12 -81q-32 -8 -54 -12t-48 -4z" />
    <glyph glyph-name="Cacute" unicode="&#x106;" horiz-adv-x="687" 
d="M405 -11q-98 0 -175.5 36.5t-122 109t-44.5 178.5q0 85 26 158t76.5 128t125 86t171.5 31q72 0 136 -21.5t101 -55.5l-69 -144q-81 61 -172 61q-67 0 -111.5 -31.5t-67 -85t-22.5 -119.5q0 -88 41 -129.5t129 -41.5q39 0 81 13t88 43l46 -145q-28 -22 -68 -38t-84 -24.5
t-85 -8.5zM397 765l130 176h182l-190 -176h-122z" />
    <glyph glyph-name="cacute" unicode="&#x107;" horiz-adv-x="484" 
d="M285 -11q-127 0 -192 63t-65 167q0 74 32.5 139t98.5 105t166 40q50 0 96.5 -12.5t77.5 -35.5l-51 -122q-19 16 -49 26t-59 10q-48 0 -76.5 -21.5t-41 -55.5t-12.5 -70q0 -44 24 -71.5t80 -27.5q24 0 52.5 9t51.5 26l36 -123q-29 -23 -77 -34.5t-92 -11.5zM276 557
l131 205h171l-187 -205h-115z" />
    <glyph glyph-name="Ccircumflex" unicode="&#x108;" horiz-adv-x="687" 
d="M405 -11q-98 0 -175.5 36.5t-122 109t-44.5 178.5q0 85 26 158t76.5 128t125 86t171.5 31q72 0 136 -21.5t101 -55.5l-69 -144q-81 61 -172 61q-67 0 -111.5 -31.5t-67 -85t-22.5 -119.5q0 -88 41 -129.5t129 -41.5q39 0 81 13t88 43l46 -145q-28 -22 -68 -38t-84 -24.5
t-85 -8.5zM254 765l143 176h145l110 -176h-120l-70 86l-88 -86h-120z" />
    <glyph glyph-name="ccircumflex" unicode="&#x109;" horiz-adv-x="484" 
d="M285 -11q-127 0 -192 63t-65 167q0 74 32.5 139t98.5 105t166 40q50 0 96.5 -12.5t77.5 -35.5l-51 -122q-19 16 -49 26t-59 10q-48 0 -76.5 -21.5t-41 -55.5t-12.5 -70q0 -44 24 -71.5t80 -27.5q24 0 52.5 9t51.5 26l36 -123q-29 -23 -77 -34.5t-92 -11.5zM142 557
l131 205h148l92 -205h-108l-65 113l-90 -113h-108z" />
    <glyph glyph-name="Cdotaccent" unicode="&#x10a;" horiz-adv-x="687" 
d="M405 -11q-98 0 -175.5 36.5t-122 109t-44.5 178.5q0 85 26 158t76.5 128t125 86t171.5 31q72 0 136 -21.5t101 -55.5l-69 -144q-81 61 -172 61q-67 0 -111.5 -31.5t-67 -85t-22.5 -119.5q0 -88 41 -129.5t129 -41.5q39 0 81 13t88 43l46 -145q-28 -22 -68 -38t-84 -24.5
t-85 -8.5zM380 778l23 150h159l-23 -150h-159z" />
    <glyph glyph-name="cdotaccent" unicode="&#x10b;" horiz-adv-x="484" 
d="M285 -11q-127 0 -192 63t-65 167q0 74 32.5 139t98.5 105t166 40q50 0 96.5 -12.5t77.5 -35.5l-51 -122q-19 16 -49 26t-59 10q-48 0 -76.5 -21.5t-41 -55.5t-12.5 -70q0 -44 24 -71.5t80 -27.5q24 0 52.5 9t51.5 26l36 -123q-29 -23 -77 -34.5t-92 -11.5zM258 583
l24 150h159l-24 -150h-159z" />
    <glyph glyph-name="Ccaron" unicode="&#x10c;" horiz-adv-x="687" 
d="M405 -11q-98 0 -175.5 36.5t-122 109t-44.5 178.5q0 85 26 158t76.5 128t125 86t171.5 31q72 0 136 -21.5t101 -55.5l-69 -144q-81 61 -172 61q-67 0 -111.5 -31.5t-67 -85t-22.5 -119.5q0 -88 41 -129.5t129 -41.5q39 0 81 13t88 43l46 -145q-28 -22 -68 -38t-84 -24.5
t-85 -8.5zM386 765l-111 176h115l74 -86l85 86h124l-142 -176h-145z" />
    <glyph glyph-name="ccaron" unicode="&#x10d;" horiz-adv-x="484" 
d="M285 -11q-127 0 -192 63t-65 167q0 74 32.5 139t98.5 105t166 40q50 0 96.5 -12.5t77.5 -35.5l-51 -122q-19 16 -49 26t-59 10q-48 0 -76.5 -21.5t-41 -55.5t-12.5 -70q0 -44 24 -71.5t80 -27.5q24 0 52.5 9t51.5 26l36 -123q-29 -23 -77 -34.5t-92 -11.5zM260 557
l-91 205h107l65 -113l90 113h108l-131 -205h-148z" />
    <glyph glyph-name="Dcaron" unicode="&#x10e;" horiz-adv-x="786" 
d="M25 0l112 705h250q178 0 274.5 -82t96.5 -227q1 -113 -46 -203t-138.5 -141.5t-224.5 -51.5h-324zM232 149h119q107 0 161.5 66t54.5 178q0 79 -45 121t-135 42h-90zM391 765l-111 176h115l74 -86l85 86h124l-142 -176h-145z" />
    <glyph glyph-name="dcaron" unicode="&#x10f;" horiz-adv-x="620" 
d="M209 -11q-83 0 -132.5 58t-49.5 156q0 87 31 154.5t87 106.5t131 39q48 0 86 -19.5t58 -57.5l44 279h178l-112 -705h-174l11 69q-28 -38 -69 -59t-89 -21zM284 120q50 0 79 45t29 114q0 45 -20.5 69t-56.5 24q-51 0 -80 -44.5t-29 -114.5q0 -45 20.5 -69t57.5 -24z
M644 510l32 195h106l-60 -195h-78z" />
    <glyph glyph-name="Dcroat" unicode="&#x110;" horiz-adv-x="786" 
d="M25 0l112 705h250q178 0 274.5 -82t96.5 -227q1 -113 -46 -203t-138.5 -141.5t-224.5 -51.5h-324zM232 149h119q107 0 161.5 66t54.5 178q0 79 -45 121t-135 42h-90zM-13 291l21 130h449l-21 -130h-449z" />
    <glyph glyph-name="dcroat" unicode="&#x111;" horiz-adv-x="620" 
d="M208 -11q-83 0 -132.5 57t-49.5 151q0 83 30.5 149.5t86 105.5t130.5 39q49 0 87 -20.5t57 -59.5l19 121h-183l19 121h183l8 52h178l-8 -52h83l-19 -121h-83l-84 -532h-174l11 69q-28 -38 -69.5 -59t-89.5 -21zM282 120q51 0 80 44t29 109q0 40 -20.5 63t-57.5 23
q-50 0 -79 -44t-29 -109q0 -39 20.5 -62.5t56.5 -23.5z" />
    <glyph glyph-name="Emacron" unicode="&#x112;" horiz-adv-x="614" 
d="M26 0l111 705h498l-22 -142h-323l-21 -134h300l-23 -142h-300l-23 -145h322l-22 -142h-497zM235 796l14 97h368l-15 -97h-367z" />
    <glyph glyph-name="emacron" unicode="&#x113;" horiz-adv-x="556" 
d="M291 -11q-79 0 -138 28.5t-92 80.5t-33 121q0 85 37.5 149t101.5 99.5t144 35.5q84 0 135.5 -35.5t71.5 -96.5t10 -135l-4 -26h-331q2 -44 33 -67t85 -23q41 0 80.5 11.5t68.5 32.5l37 -116q-37 -28 -90.5 -43.5t-115.5 -15.5zM309 387q-45 0 -70.5 -27t-34.5 -66h189
q2 41 -18.5 67t-65.5 26zM180 605l15 97h338l-15 -97h-338z" />
    <glyph glyph-name="Ebreve" unicode="&#x114;" horiz-adv-x="614" 
d="M26 0l111 705h498l-22 -142h-323l-21 -134h300l-23 -142h-300l-23 -145h322l-22 -142h-497zM416 760q-84 0 -134.5 48.5t-50.5 123.5l96 12q0 -40 25 -62.5t71 -22.5q44 0 73.5 22.5t37.5 62.5l94 -12q-11 -79 -68 -125.5t-144 -46.5z" />
    <glyph glyph-name="ebreve" unicode="&#x115;" horiz-adv-x="556" 
d="M291 -11q-79 0 -138 28.5t-92 80.5t-33 121q0 85 37.5 149t101.5 99.5t144 35.5q84 0 135.5 -35.5t71.5 -96.5t10 -135l-4 -26h-331q2 -44 33 -67t85 -23q41 0 80.5 11.5t68.5 32.5l37 -116q-37 -28 -90.5 -43.5t-115.5 -15.5zM309 387q-45 0 -70.5 -27t-34.5 -66h189
q2 41 -18.5 67t-65.5 26zM348 553q-79 0 -124.5 54t-40.5 143l96 9q-1 -51 19 -78t57 -27t61.5 27t31.5 78l95 -9q-9 -90 -62 -143.5t-133 -53.5z" />
    <glyph glyph-name="Edotaccent" unicode="&#x116;" horiz-adv-x="614" 
d="M26 0l111 705h498l-22 -142h-323l-21 -134h300l-23 -142h-300l-23 -145h322l-22 -142h-497zM336 778l23 150h159l-23 -150h-159z" />
    <glyph glyph-name="edotaccent" unicode="&#x117;" horiz-adv-x="556" 
d="M291 -11q-79 0 -138 28.5t-92 80.5t-33 121q0 85 37.5 149t101.5 99.5t144 35.5q84 0 135.5 -35.5t71.5 -96.5t10 -135l-4 -26h-331q2 -44 33 -67t85 -23q41 0 80.5 11.5t68.5 32.5l37 -116q-37 -28 -90.5 -43.5t-115.5 -15.5zM309 387q-45 0 -70.5 -27t-34.5 -66h189
q2 41 -18.5 67t-65.5 26zM265 583l24 150h159l-24 -150h-159z" />
    <glyph glyph-name="Eogonek" unicode="&#x118;" horiz-adv-x="614" 
d="M26 0l111 705h498l-22 -142h-323l-21 -134h300l-23 -142h-300l-23 -145h322l-22 -142h-497zM414 -198q-57 0 -87 26.5t-30 72.5q0 50 34 89.5t86 57.5l43 -48q-32 -12 -45.5 -31.5t-13.5 -38.5q0 -18 14 -29.5t35 -11.5q14 0 26.5 2.5t27.5 7.5l12 -81q-32 -8 -54 -12
t-48 -4z" />
    <glyph glyph-name="eogonek" unicode="&#x119;" horiz-adv-x="556" 
d="M291 -11q-79 0 -138 28.5t-92 80.5t-33 121q0 85 37.5 149t101.5 99.5t144 35.5q84 0 135.5 -35.5t71.5 -96.5t10 -135l-4 -26h-331q2 -44 33 -67t85 -23q41 0 80.5 11.5t68.5 32.5l37 -116q-37 -28 -90.5 -43.5t-115.5 -15.5zM309 387q-45 0 -70.5 -27t-34.5 -66h189
q2 41 -18.5 67t-65.5 26zM317 -198q-57 0 -87 26.5t-30 72.5q0 50 34 89.5t86 57.5l43 -48q-32 -12 -45.5 -31.5t-13.5 -38.5q0 -18 14 -29.5t35 -11.5q14 0 26.5 2.5t27.5 7.5l12 -81q-32 -8 -54 -12t-48 -4z" />
    <glyph glyph-name="Ecaron" unicode="&#x11a;" horiz-adv-x="614" 
d="M26 0l111 705h498l-22 -142h-323l-21 -134h300l-23 -142h-300l-23 -145h322l-22 -142h-497zM342 765l-111 176h115l74 -86l85 86h124l-142 -176h-145z" />
    <glyph glyph-name="ecaron" unicode="&#x11b;" horiz-adv-x="556" 
d="M291 -11q-79 0 -138 28.5t-92 80.5t-33 121q0 85 37.5 149t101.5 99.5t144 35.5q84 0 135.5 -35.5t71.5 -96.5t10 -135l-4 -26h-331q2 -44 33 -67t85 -23q41 0 80.5 11.5t68.5 32.5l37 -116q-37 -28 -90.5 -43.5t-115.5 -15.5zM309 387q-45 0 -70.5 -27t-34.5 -66h189
q2 41 -18.5 67t-65.5 26zM267 557l-91 205h107l65 -113l90 113h108l-131 -205h-148z" />
    <glyph glyph-name="Gcircumflex" unicode="&#x11c;" horiz-adv-x="747" 
d="M407 -11q-99 0 -177 37t-122.5 109t-44.5 177q0 114 47.5 205.5t140 145t226.5 53.5q81 0 145 -21t97 -51l-69 -143q-82 58 -182 58q-71 0 -118.5 -33.5t-72 -88t-24.5 -118.5q0 -91 48.5 -133.5t133.5 -42.5q42 0 92 12l18 113h-141l19 129h292l-57 -359
q-55 -26 -122 -37.5t-129 -11.5zM261 765l143 176h145l110 -176h-120l-70 86l-88 -86h-120z" />
    <glyph glyph-name="gcircumflex" unicode="&#x11d;" horiz-adv-x="626" 
d="M265 -191q-154 0 -259 65l50 119q42 -24 88.5 -38.5t92.5 -14.5q55 0 89 20.5t43 70.5l8 52q-25 -36 -65 -53t-85 -17q-90 0 -144.5 52.5t-54.5 150.5q0 79 32 144t89 104t131 39q51 0 90 -20t58 -59l11 68h174l-71 -451q-17 -109 -86.5 -170.5t-190.5 -61.5zM287 144
q35 0 60.5 20t38.5 53t13 72q1 37 -20.5 60t-60.5 23q-35 0 -59.5 -20t-38 -53t-13.5 -72q0 -37 21 -60t59 -23zM161 557l131 205h148l92 -205h-108l-65 113l-90 -113h-108z" />
    <glyph glyph-name="Gbreve" unicode="&#x11e;" horiz-adv-x="747" 
d="M407 -11q-99 0 -177 37t-122.5 109t-44.5 177q0 114 47.5 205.5t140 145t226.5 53.5q81 0 145 -21t97 -51l-69 -143q-82 58 -182 58q-71 0 -118.5 -33.5t-72 -88t-24.5 -118.5q0 -91 48.5 -133.5t133.5 -42.5q42 0 92 12l18 113h-141l19 129h292l-57 -359
q-55 -26 -122 -37.5t-129 -11.5zM467 760q-84 0 -134.5 48.5t-50.5 123.5l96 12q0 -40 25 -62.5t71 -22.5q44 0 73.5 22.5t37.5 62.5l94 -12q-11 -79 -68 -125.5t-144 -46.5z" />
    <glyph glyph-name="gbreve" unicode="&#x11f;" horiz-adv-x="626" 
d="M265 -191q-154 0 -259 65l50 119q42 -24 88.5 -38.5t92.5 -14.5q55 0 89 20.5t43 70.5l8 52q-25 -36 -65 -53t-85 -17q-90 0 -144.5 52.5t-54.5 150.5q0 79 32 144t89 104t131 39q51 0 90 -20t58 -59l11 68h174l-71 -451q-17 -109 -86.5 -170.5t-190.5 -61.5zM287 144
q35 0 60.5 20t38.5 53t13 72q1 37 -20.5 60t-60.5 23q-35 0 -59.5 -20t-38 -53t-13.5 -72q0 -37 21 -60t59 -23zM360 553q-79 0 -124.5 54t-40.5 143l96 9q-1 -51 19 -78t57 -27t61.5 27t31.5 78l95 -9q-9 -90 -62 -143.5t-133 -53.5z" />
    <glyph glyph-name="Gdotaccent" unicode="&#x120;" horiz-adv-x="747" 
d="M407 -11q-99 0 -177 37t-122.5 109t-44.5 177q0 114 47.5 205.5t140 145t226.5 53.5q81 0 145 -21t97 -51l-69 -143q-82 58 -182 58q-71 0 -118.5 -33.5t-72 -88t-24.5 -118.5q0 -91 48.5 -133.5t133.5 -42.5q42 0 92 12l18 113h-141l19 129h292l-57 -359
q-55 -26 -122 -37.5t-129 -11.5zM387 778l23 150h159l-23 -150h-159z" />
    <glyph glyph-name="gdotaccent" unicode="&#x121;" horiz-adv-x="626" 
d="M265 -191q-154 0 -259 65l50 119q42 -24 88.5 -38.5t92.5 -14.5q55 0 89 20.5t43 70.5l8 52q-25 -36 -65 -53t-85 -17q-90 0 -144.5 52.5t-54.5 150.5q0 79 32 144t89 104t131 39q51 0 90 -20t58 -59l11 68h174l-71 -451q-17 -109 -86.5 -170.5t-190.5 -61.5zM287 144
q35 0 60.5 20t38.5 53t13 72q1 37 -20.5 60t-60.5 23q-35 0 -59.5 -20t-38 -53t-13.5 -72q0 -37 21 -60t59 -23zM277 583l24 150h159l-24 -150h-159z" />
    <glyph glyph-name="uni0122" unicode="&#x122;" horiz-adv-x="747" 
d="M407 -11q-99 0 -177 37t-122.5 109t-44.5 177q0 114 47.5 205.5t140 145t226.5 53.5q81 0 145 -21t97 -51l-69 -143q-82 58 -182 58q-71 0 -118.5 -33.5t-72 -88t-24.5 -118.5q0 -91 48.5 -133.5t133.5 -42.5q42 0 92 12l18 113h-141l19 129h292l-57 -359
q-55 -26 -122 -37.5t-129 -11.5zM373 -290l-49 45q18 13 28 26t15 29h-81l19 125h170l-13 -85q-8 -47 -25 -79.5t-64 -60.5z" />
    <glyph glyph-name="uni0123" unicode="&#x123;" horiz-adv-x="626" 
d="M265 -191q-154 0 -259 65l50 119q42 -24 88.5 -38.5t92.5 -14.5q55 0 89 20.5t43 70.5l8 52q-25 -36 -65 -53t-85 -17q-90 0 -144.5 52.5t-54.5 150.5q0 79 32 144t89 104t131 39q51 0 90 -20t58 -59l11 68h174l-71 -451q-17 -109 -86.5 -170.5t-190.5 -61.5zM287 144
q35 0 60.5 20t38.5 53t13 72q1 37 -20.5 60t-60.5 23q-35 0 -59.5 -20t-38 -53t-13.5 -72q0 -37 21 -60t59 -23zM269 560l13 85q7 47 24 79.5t64 61.5l50 -46q-19 -13 -29 -26t-15 -28h82l-20 -126h-169z" />
    <glyph glyph-name="Hcircumflex" unicode="&#x124;" horiz-adv-x="786" 
d="M25 0l112 705h184l-43 -272h290l44 272h183l-112 -705h-183l44 282h-290l-45 -282h-184zM270 765l143 176h145l110 -176h-120l-70 86l-88 -86h-120z" />
    <glyph glyph-name="hcircumflex" unicode="&#x125;" horiz-adv-x="606" 
d="M13 0l112 705h178l-44 -275q54 73 157 73q79 0 122 -50.5t26 -161.5l-46 -291h-178l45 288q6 39 -5.5 59t-45.5 20q-41 0 -67.5 -27.5t-34.5 -77.5l-41 -262h-178zM180 765l143 176h145l110 -176h-120l-70 86l-88 -86h-120z" />
    <glyph glyph-name="Hbar" unicode="&#x126;" horiz-adv-x="841" 
d="M52 0l80 501h-78l21 130h78l11 74h184l-12 -74h291l11 74h184l-12 -74h79l-21 -130h-78l-80 -501h-184l43 265h-291l-42 -265h-184zM302 416h291l13 85h-290z" />
    <glyph glyph-name="hbar" unicode="&#x127;" horiz-adv-x="606" 
d="M13 0l84 532h-83l19 121h83l9 52h178l-9 -52h183l-19 -121h-183l-18 -115q54 74 157 74q79 0 122 -50.5t26 -162.5l-44 -278h-178l43 275q6 39 -5.5 59t-45.5 20q-41 0 -67.5 -27.5t-34.5 -77.5l-39 -249h-178z" />
    <glyph glyph-name="Itilde" unicode="&#x128;" horiz-adv-x="312" 
d="M25 0l112 705h184l-112 -705h-184zM76 759l-81 6q12 79 54 122t104 43q31 0 57 -10t49 -21q21 -9 39 -16t37 -7q54 0 71 59l81 -5q-11 -80 -53 -122.5t-105 -42.5q-30 0 -56 9.5t-50 20.5q-20 9 -38.5 16t-36.5 7q-55 0 -72 -59z" />
    <glyph glyph-name="itilde" unicode="&#x129;" horiz-adv-x="281" 
d="M13 0l78 492h178l-78 -492h-178zM65 577l-82 5q10 80 49 122.5t96 42.5q28 0 47.5 -10t36.5 -21q14 -9 28.5 -15.5t32.5 -6.5q49 0 64 59l81 -6q-9 -79 -48 -122t-96 -43q-29 0 -49.5 10.5t-37.5 21.5q-14 9 -28 15.5t-30 6.5q-49 0 -64 -59z" />
    <glyph glyph-name="Imacron" unicode="&#x12a;" horiz-adv-x="312" 
d="M25 0l112 705h184l-112 -705h-184zM59 796l14 97h368l-15 -97h-367z" />
    <glyph glyph-name="imacron" unicode="&#x12b;" horiz-adv-x="281" 
d="M13 0l78 492h178l-78 -492h-178zM29 605l15 97h338l-15 -97h-338z" />
    <glyph glyph-name="Ibreve" unicode="&#x12c;" horiz-adv-x="312" 
d="M25 0l112 705h184l-112 -705h-184zM240 760q-84 0 -134.5 48.5t-50.5 123.5l96 12q0 -40 25 -62.5t71 -22.5q44 0 73.5 22.5t37.5 62.5l94 -12q-11 -79 -68 -125.5t-144 -46.5z" />
    <glyph glyph-name="ibreve" unicode="&#x12d;" horiz-adv-x="281" 
d="M13 0l78 492h178l-78 -492h-178zM197 553q-79 0 -124.5 54t-40.5 143l96 9q-1 -51 19 -78t57 -27t61.5 27t31.5 78l95 -9q-9 -90 -62 -143.5t-133 -53.5z" />
    <glyph glyph-name="Iogonek" unicode="&#x12e;" horiz-adv-x="312" 
d="M25 0l112 705h184l-112 -705h-184zM116 -198q-57 0 -87 26.5t-30 72.5q0 50 34 89.5t86 57.5l43 -48q-32 -12 -45.5 -31.5t-13.5 -38.5q0 -18 14 -29.5t35 -11.5q14 0 26.5 2.5t27.5 7.5l12 -81q-32 -8 -54 -12t-48 -4z" />
    <glyph glyph-name="iogonek" unicode="&#x12f;" horiz-adv-x="281" 
d="M13 0l78 492h178l-78 -492h-178zM100 577l26 161h186l-25 -161h-187zM102 -198q-57 0 -87 26.5t-30 72.5q0 50 34 89.5t86 57.5l43 -48q-32 -12 -45.5 -31.5t-13.5 -38.5q0 -18 14 -29.5t35 -11.5q14 0 26.5 2.5t27.5 7.5l12 -81q-32 -8 -54 -12t-48 -4z" />
    <glyph glyph-name="Idotaccent" unicode="&#x130;" horiz-adv-x="312" 
d="M25 0l112 705h184l-112 -705h-184zM160 778l23 150h159l-23 -150h-159z" />
    <glyph glyph-name="dotlessi" unicode="&#x131;" horiz-adv-x="281" 
d="M13 0l78 492h178l-78 -492h-178z" />
    <glyph glyph-name="IJ" unicode="&#x132;" horiz-adv-x="702" 
d="M25 0l112 705h184l-112 -705h-184zM277 -11l5 147l85 5q37 2 57 20t27 59l77 485h183l-79 -497q-11 -67 -37.5 -113t-78 -71t-136.5 -30z" />
    <glyph glyph-name="Jcircumflex" unicode="&#x134;" horiz-adv-x="390" 
d="M-35 -11l5 147l85 5q37 2 57 20t27 59l77 485h183l-79 -497q-11 -67 -37.5 -113t-78 -71t-136.5 -30zM112 765l143 176h145l110 -176h-120l-70 86l-88 -86h-120z" />
    <glyph glyph-name="jcircumflex" unicode="&#x135;" horiz-adv-x="287" 
d="M-90 -193l-11 125l50 6q33 3 48.5 18.5t20.5 46.5l78 489h178l-74 -465q-12 -74 -37 -120t-74.5 -69t-131.5 -28zM2 557l131 205h148l92 -205h-108l-65 113l-90 -113h-108z" />
    <glyph glyph-name="uni0136" unicode="&#x136;" horiz-adv-x="712" 
d="M25 0l112 705h184l-48 -302h2l311 302h227l-365 -348l266 -357h-206l-246 323h-2l-51 -323h-184zM288 -290l-49 45q18 13 28 26t15 29h-81l19 125h170l-13 -85q-8 -47 -25 -79.5t-64 -60.5z" />
    <glyph glyph-name="uni0137" unicode="&#x137;" horiz-adv-x="580" 
d="M14 0l111 705h178l-65 -411h2l190 198h207l-229 -243l163 -249h-202l-142 214h-2l-33 -214h-178zM237 -290l-49 45q18 13 28 26t15 29h-81l19 125h170l-13 -85q-8 -47 -25 -79.5t-64 -60.5z" />
    <glyph glyph-name="kgreenlandic" unicode="&#x138;" horiz-adv-x="580" 
d="M13 0l78 492h178l-31 -198h2l190 198h207l-229 -243l163 -249h-202l-142 214h-2l-34 -214h-178z" />
    <glyph glyph-name="Lacute" unicode="&#x139;" horiz-adv-x="585" 
d="M25 0l112 705h184l-87 -552h313l-24 -153h-498zM176 765l130 176h182l-190 -176h-122z" />
    <glyph glyph-name="lacute" unicode="&#x13a;" horiz-adv-x="348" 
d="M212 -11q-98 0 -140.5 53t-27.5 154l81 509h178l-81 -506q-10 -68 54 -68q10 0 20.5 1t20.5 2l-23 -135q-36 -10 -82 -10zM162 765l130 176h182l-190 -176h-122z" />
    <glyph glyph-name="uni013B" unicode="&#x13b;" horiz-adv-x="585" 
d="M25 0l112 705h184l-87 -552h313l-24 -153h-498zM248 -290l-49 45q18 13 28 26t15 29h-81l19 125h170l-13 -85q-8 -47 -25 -79.5t-64 -60.5z" />
    <glyph glyph-name="uni013C" unicode="&#x13c;" horiz-adv-x="348" 
d="M212 -11q-98 0 -140.5 53t-27.5 154l81 509h178l-81 -506q-10 -68 54 -68q10 0 20.5 1t20.5 2l-23 -135q-36 -10 -82 -10zM136 -290l-49 45q18 13 28 26t15 29h-81l19 125h170l-13 -85q-8 -47 -25 -79.5t-64 -60.5z" />
    <glyph glyph-name="Lcaron" unicode="&#x13d;" horiz-adv-x="585" 
d="M25 0l112 705h184l-87 -552h313l-24 -153h-498zM377 456l40 249h128l-65 -249h-103z" />
    <glyph glyph-name="lcaron" unicode="&#x13e;" horiz-adv-x="348" 
d="M212 -11q-98 0 -140.5 53t-27.5 154l81 509h178l-81 -506q-10 -68 54 -68q10 0 20.5 1t20.5 2l-23 -135q-36 -10 -82 -10zM304 510l32 195h106l-60 -195h-78z" />
    <glyph glyph-name="Ldot" unicode="&#x13f;" horiz-adv-x="585" 
d="M25 0l112 705h184l-87 -552h313l-24 -153h-498zM371 319l25 159h186l-25 -159h-186z" />
    <glyph glyph-name="ldot" unicode="&#x140;" horiz-adv-x="458" 
d="M212 -11q-98 0 -140.5 53t-27.5 154l81 509h178l-81 -506q-10 -68 54 -68q10 0 20.5 1t20.5 2l-23 -135q-36 -10 -82 -10zM282 277l25 159h186l-25 -159h-186z" />
    <glyph glyph-name="Lslash" unicode="&#x141;" horiz-adv-x="585" 
d="M25 0l112 705h184l-87 -552h313l-24 -153h-498zM8 216l-56 123l469 219l56 -123z" />
    <glyph glyph-name="lslash" unicode="&#x142;" horiz-adv-x="348" 
d="M212 -11q-98 0 -140.5 53t-27.5 154l81 509h178l-81 -506q-10 -68 54 -68q10 0 20.5 1t20.5 2l-23 -135q-36 -10 -82 -10zM2 202l-55 123l387 188l55 -123z" />
    <glyph glyph-name="Nacute" unicode="&#x143;" horiz-adv-x="757" 
d="M25 0l112 705h135l257 -421l66 421h171l-112 -705h-135l-256 421l-67 -421h-171zM397 765l130 176h182l-190 -176h-122z" />
    <glyph glyph-name="nacute" unicode="&#x144;" horiz-adv-x="606" 
d="M13 0l78 492h173l-11 -70q54 81 163 81q79 0 122 -50.5t26 -161.5l-46 -291h-178l45 288q6 39 -5.5 59t-45.5 20q-41 0 -67.5 -27.5t-34.5 -77.5l-41 -262h-178zM290 557l131 205h171l-187 -205h-115z" />
    <glyph glyph-name="uni0145" unicode="&#x145;" horiz-adv-x="757" 
d="M25 0l112 705h135l257 -421l66 421h171l-112 -705h-135l-256 421l-67 -421h-171zM322 -290l-49 45q18 13 28 26t15 29h-81l19 125h170l-13 -85q-8 -47 -25 -79.5t-64 -60.5z" />
    <glyph glyph-name="uni0146" unicode="&#x146;" horiz-adv-x="606" 
d="M13 0l78 492h173l-11 -70q54 81 163 81q79 0 122 -50.5t26 -161.5l-46 -291h-178l45 288q6 39 -5.5 59t-45.5 20q-41 0 -67.5 -27.5t-34.5 -77.5l-41 -262h-178zM239 -290l-49 45q18 13 28 26t15 29h-81l19 125h170l-13 -85q-8 -47 -25 -79.5t-64 -60.5z" />
    <glyph glyph-name="Ncaron" unicode="&#x147;" horiz-adv-x="757" 
d="M25 0l112 705h135l257 -421l66 421h171l-112 -705h-135l-256 421l-67 -421h-171zM386 765l-111 176h115l74 -86l85 86h124l-142 -176h-145z" />
    <glyph glyph-name="ncaron" unicode="&#x148;" horiz-adv-x="606" 
d="M13 0l78 492h173l-11 -70q54 81 163 81q79 0 122 -50.5t26 -161.5l-46 -291h-178l45 288q6 39 -5.5 59t-45.5 20q-41 0 -67.5 -27.5t-34.5 -77.5l-41 -262h-178zM274 557l-91 205h107l65 -113l90 113h108l-131 -205h-148z" />
    <glyph glyph-name="napostrophe" unicode="&#x149;" horiz-adv-x="605" 
d="M124 561l-57 41q17 13 26 27.5t13 29.5h-81l20 127h169l-12 -77q-7 -45 -23 -81t-55 -67zM13 0l78 492h173l-11 -70q54 81 163 81q79 0 122 -50.5t26 -161.5l-46 -291h-178l45 288q6 39 -5.5 59t-45.5 20q-41 0 -67.5 -27.5t-34.5 -77.5l-41 -262h-178z" />
    <glyph glyph-name="Eng" unicode="&#x14a;" horiz-adv-x="757" 
d="M369 -193l-12 125l51 6q38 4 54.5 19t21.5 46l7 43l-228 375l-67 -421h-171l112 705h135l257 -421l66 421h171l-108 -678q-12 -74 -37.5 -120t-74.5 -69t-131 -28z" />
    <glyph glyph-name="eng" unicode="&#x14b;" horiz-adv-x="606" 
d="M226 -193l-12 125l51 6q66 6 75 65l45 285q6 39 -5.5 59t-45.5 20q-41 0 -67.5 -27.5t-34.5 -77.5l-41 -262h-178l78 492h173l-11 -71q53 82 163 82q79 0 122 -50.5t26 -161.5l-42 -264q-12 -74 -39 -120t-77.5 -69t-133.5 -28z" />
    <glyph glyph-name="Omacron" unicode="&#x14c;" horiz-adv-x="807" 
d="M396 -11q-101 0 -176 37.5t-116.5 108t-41.5 170.5q0 122 48 214.5t134.5 144.5t200.5 52q101 0 176 -37.5t116.5 -108t41.5 -169.5q0 -123 -48 -215.5t-134 -144.5t-201 -52zM398 143q60 0 102.5 32t65.5 89.5t23 132.5q0 84 -39.5 124.5t-107.5 40.5q-59 0 -101.5 -32
t-65 -89.5t-22.5 -132.5q0 -84 39 -124.5t106 -40.5zM292 796l14 97h368l-15 -97h-367z" />
    <glyph glyph-name="omacron" unicode="&#x14d;" horiz-adv-x="602" 
d="M282 -11q-121 0 -187 63t-66 167q0 71 24.5 124.5t66 89t93.5 53t107 17.5q120 0 186.5 -63t66.5 -166q0 -72 -24.5 -125.5t-66 -89t-93.5 -53t-107 -17.5zM285 120q51 0 80 45t29 114q0 45 -20.5 69t-57.5 24q-50 0 -79 -44.5t-29 -114.5q0 -45 20.5 -69t56.5 -24z
M190 605l15 97h338l-15 -97h-338z" />
    <glyph glyph-name="Obreve" unicode="&#x14e;" horiz-adv-x="807" 
d="M396 -11q-101 0 -176 37.5t-116.5 108t-41.5 170.5q0 122 48 214.5t134.5 144.5t200.5 52q101 0 176 -37.5t116.5 -108t41.5 -169.5q0 -123 -48 -215.5t-134 -144.5t-201 -52zM398 143q60 0 102.5 32t65.5 89.5t23 132.5q0 84 -39.5 124.5t-107.5 40.5q-59 0 -101.5 -32
t-65 -89.5t-22.5 -132.5q0 -84 39 -124.5t106 -40.5zM473 760q-84 0 -134.5 48.5t-50.5 123.5l96 12q0 -40 25 -62.5t71 -22.5q44 0 73.5 22.5t37.5 62.5l94 -12q-11 -79 -68 -125.5t-144 -46.5z" />
    <glyph glyph-name="obreve" unicode="&#x14f;" horiz-adv-x="602" 
d="M282 -11q-121 0 -187 63t-66 167q0 71 24.5 124.5t66 89t93.5 53t107 17.5q120 0 186.5 -63t66.5 -166q0 -72 -24.5 -125.5t-66 -89t-93.5 -53t-107 -17.5zM285 120q51 0 80 45t29 114q0 45 -20.5 69t-57.5 24q-50 0 -79 -44.5t-29 -114.5q0 -45 20.5 -69t56.5 -24z
M358 553q-79 0 -124.5 54t-40.5 143l96 9q-1 -51 19 -78t57 -27t61.5 27t31.5 78l95 -9q-9 -90 -62 -143.5t-133 -53.5z" />
    <glyph glyph-name="Ohungarumlaut" unicode="&#x150;" horiz-adv-x="807" 
d="M396 -11q-101 0 -176 37.5t-116.5 108t-41.5 170.5q0 122 48 214.5t134.5 144.5t200.5 52q101 0 176 -37.5t116.5 -108t41.5 -169.5q0 -123 -48 -215.5t-134 -144.5t-201 -52zM398 143q60 0 102.5 32t65.5 89.5t23 132.5q0 84 -39.5 124.5t-107.5 40.5q-59 0 -101.5 -32
t-65 -89.5t-22.5 -132.5q0 -84 39 -124.5t106 -40.5zM337 765l100 176h150l-152 -176h-98zM507 765l116 176h151l-168 -176h-99z" />
    <glyph glyph-name="ohungarumlaut" unicode="&#x151;" horiz-adv-x="602" 
d="M282 -11q-121 0 -187 63t-66 167q0 71 24.5 124.5t66 89t93.5 53t107 17.5q120 0 186.5 -63t66.5 -166q0 -72 -24.5 -125.5t-66 -89t-93.5 -53t-107 -17.5zM285 120q51 0 80 45t29 114q0 45 -20.5 69t-57.5 24q-50 0 -79 -44.5t-29 -114.5q0 -45 20.5 -69t56.5 -24z
M389 557l62 205h142l-113 -205h-91zM215 557l63 205h141l-113 -205h-91z" />
    <glyph glyph-name="OE" unicode="&#x152;" horiz-adv-x="1067" 
d="M434 0q-177 0 -273.5 82t-96.5 227q-1 121 46.5 210t140.5 137.5t230 48.5h607l-23 -142h-322l-21 -134h300l-23 -142h-299l-23 -145h322l-23 -142h-542zM435 149h68l64 407h-88q-113 0 -168.5 -66t-55.5 -178q0 -79 45 -121t135 -42z" />
    <glyph glyph-name="oe" unicode="&#x153;" horiz-adv-x="920" 
d="M282 -11q-121 0 -187 63t-66 167q0 71 24.5 124.5t66 89t93.5 53t107 17.5q57 0 101.5 -17.5t74.5 -50.5q36 32 82 50t100 18q83 0 135 -35t72 -95t8 -134l-5 -29h-323q1 -45 30 -67.5t81 -22.5q88 0 149 44l36 -116q-37 -28 -88.5 -43.5t-112.5 -15.5q-60 0 -109 18.5
t-82 51.5q-38 -34 -87 -52t-100 -18zM676 388q-43 0 -67.5 -27t-32.5 -67h181q4 41 -15.5 67.5t-65.5 26.5zM285 120q51 0 80 45t29 114q0 45 -20.5 69t-57.5 24q-50 0 -79 -44.5t-29 -114.5q0 -45 20.5 -69t56.5 -24z" />
    <glyph glyph-name="Racute" unicode="&#x154;" horiz-adv-x="706" 
d="M25 0l112 705h303q121 0 185.5 -53.5t64.5 -147.5q0 -100 -52.5 -156.5t-137.5 -74.5q29 -11 49 -35.5t34 -59.5l68 -178h-188l-80 212q-10 28 -26.5 39.5t-45.5 11.5h-60l-42 -263h-184zM271 393h133q111 0 111 94q0 39 -25.5 58t-80.5 19h-111zM365 765l130 176h182
l-190 -176h-122z" />
    <glyph glyph-name="racute" unicode="&#x155;" horiz-adv-x="434" 
d="M13 0l78 492h173l-14 -86q23 43 63.5 68t95.5 29l48 3l-8 -150l-111 -11q-53 -5 -76 -30t-31 -78l-37 -237h-181zM232 558l131 205h171l-187 -205h-115z" />
    <glyph glyph-name="uni0156" unicode="&#x156;" horiz-adv-x="706" 
d="M25 0l112 705h303q121 0 185.5 -53.5t64.5 -147.5q0 -100 -52.5 -156.5t-137.5 -74.5q29 -11 49 -35.5t34 -59.5l68 -178h-188l-80 212q-10 28 -26.5 39.5t-45.5 11.5h-60l-42 -263h-184zM271 393h133q111 0 111 94q0 39 -25.5 58t-80.5 19h-111zM294 -290l-49 45
q18 13 28 26t15 29h-81l19 125h170l-13 -85q-8 -47 -25 -79.5t-64 -60.5z" />
    <glyph glyph-name="uni0157" unicode="&#x157;" horiz-adv-x="434" 
d="M13 0l78 492h173l-14 -86q23 43 63.5 68t95.5 29l48 3l-8 -150l-111 -11q-53 -5 -76 -30t-31 -78l-37 -237h-181zM75 -290l-49 45q18 13 28 26t15 29h-81l19 125h170l-13 -85q-8 -47 -25 -79.5t-64 -60.5z" />
    <glyph glyph-name="Rcaron" unicode="&#x158;" horiz-adv-x="706" 
d="M25 0l112 705h303q121 0 185.5 -53.5t64.5 -147.5q0 -100 -52.5 -156.5t-137.5 -74.5q29 -11 49 -35.5t34 -59.5l68 -178h-188l-80 212q-10 28 -26.5 39.5t-45.5 11.5h-60l-42 -263h-184zM271 393h133q111 0 111 94q0 39 -25.5 58t-80.5 19h-111zM354 765l-111 176h115
l74 -86l85 86h124l-142 -176h-145z" />
    <glyph glyph-name="rcaron" unicode="&#x159;" horiz-adv-x="434" 
d="M13 0l78 492h173l-14 -86q23 43 63.5 68t95.5 29l48 3l-8 -150l-111 -11q-53 -5 -76 -30t-31 -78l-37 -237h-181zM216 558l-91 205h107l65 -113l90 113h108l-131 -205h-148z" />
    <glyph glyph-name="Sacute" unicode="&#x15a;" horiz-adv-x="651" 
d="M303 -11q-78 0 -153 20.5t-133 62.5l60 138q61 -38 125 -54t119 -16q57 0 87.5 18t30.5 47q0 23 -18.5 39t-58.5 24l-115 28q-76 17 -120.5 65t-44.5 119q0 76 41.5 128.5t110 80t147.5 27.5q66 0 134.5 -19t124.5 -60l-63 -131q-45 32 -98.5 45.5t-98.5 13.5
q-55 0 -86.5 -18.5t-31.5 -47.5q0 -45 70 -62l115 -27q82 -19 127 -67.5t45 -116.5q0 -60 -26 -104.5t-70 -74t-101 -44t-119 -14.5zM339 765l130 176h182l-190 -176h-122z" />
    <glyph glyph-name="sacute" unicode="&#x15b;" horiz-adv-x="496" 
d="M229 -11q-65 0 -124.5 14t-100.5 43l49 113q37 -23 84.5 -36.5t90.5 -13.5q39 0 57 12t18 30q0 13 -9.5 20.5t-31.5 11.5l-89 15q-62 9 -95.5 43.5t-33.5 86.5q0 46 27.5 86t82 64.5t136.5 24.5q45 0 96 -12.5t91 -38.5l-48 -111q-34 22 -73.5 32.5t-75.5 10.5
q-41 0 -60 -13t-19 -32q0 -11 7.5 -19t25.5 -11l89 -14q69 -12 103 -46t34 -85q0 -86 -63.5 -130.5t-167.5 -44.5zM235 557l131 205h171l-187 -205h-115z" />
    <glyph glyph-name="Scircumflex" unicode="&#x15c;" horiz-adv-x="651" 
d="M303 -11q-78 0 -153 20.5t-133 62.5l60 138q61 -38 125 -54t119 -16q57 0 87.5 18t30.5 47q0 23 -18.5 39t-58.5 24l-115 28q-76 17 -120.5 65t-44.5 119q0 76 41.5 128.5t110 80t147.5 27.5q66 0 134.5 -19t124.5 -60l-63 -131q-45 32 -98.5 45.5t-98.5 13.5
q-55 0 -86.5 -18.5t-31.5 -47.5q0 -45 70 -62l115 -27q82 -19 127 -67.5t45 -116.5q0 -60 -26 -104.5t-70 -74t-101 -44t-119 -14.5zM196 765l143 176h145l110 -176h-120l-70 86l-88 -86h-120z" />
    <glyph glyph-name="scircumflex" unicode="&#x15d;" horiz-adv-x="496" 
d="M229 -11q-65 0 -124.5 14t-100.5 43l49 113q37 -23 84.5 -36.5t90.5 -13.5q39 0 57 12t18 30q0 13 -9.5 20.5t-31.5 11.5l-89 15q-62 9 -95.5 43.5t-33.5 86.5q0 46 27.5 86t82 64.5t136.5 24.5q45 0 96 -12.5t91 -38.5l-48 -111q-34 22 -73.5 32.5t-75.5 10.5
q-41 0 -60 -13t-19 -32q0 -11 7.5 -19t25.5 -11l89 -14q69 -12 103 -46t34 -85q0 -86 -63.5 -130.5t-167.5 -44.5zM101 557l131 205h148l92 -205h-108l-65 113l-90 -113h-108z" />
    <glyph glyph-name="Scedilla" unicode="&#x15e;" horiz-adv-x="651" 
d="M303 -11q-78 0 -153 20.5t-133 62.5l60 138q61 -38 125 -54t119 -16q57 0 87.5 18t30.5 47q0 23 -18.5 39t-58.5 24l-115 28q-76 17 -120.5 65t-44.5 119q0 76 41.5 128.5t110 80t147.5 27.5q66 0 134.5 -19t124.5 -60l-63 -131q-45 32 -98.5 45.5t-98.5 13.5
q-55 0 -86.5 -18.5t-31.5 -47.5q0 -45 70 -62l115 -27q82 -19 127 -67.5t45 -116.5q0 -60 -26 -104.5t-70 -74t-101 -44t-119 -14.5zM286 -198q-33 0 -63 5.5t-52 17.5l30 70q36 -17 74 -17q51 0 51 23q0 16 -34 16q-17 0 -36 -4l-19 21l26 86h84l-16 -51q44 -1 67.5 -19
t23.5 -50q0 -45 -38.5 -71.5t-97.5 -26.5z" />
    <glyph glyph-name="scedilla" unicode="&#x15f;" horiz-adv-x="496" 
d="M229 -11q-65 0 -124.5 14t-100.5 43l49 113q37 -23 84.5 -36.5t90.5 -13.5q39 0 57 12t18 30q0 13 -9.5 20.5t-31.5 11.5l-89 15q-62 9 -95.5 43.5t-33.5 86.5q0 46 27.5 86t82 64.5t136.5 24.5q45 0 96 -12.5t91 -38.5l-48 -111q-34 22 -73.5 32.5t-75.5 10.5
q-41 0 -60 -13t-19 -32q0 -11 7.5 -19t25.5 -11l89 -14q69 -12 103 -46t34 -85q0 -86 -63.5 -130.5t-167.5 -44.5zM199 -198q-33 0 -63 5.5t-52 17.5l30 70q36 -17 74 -17q51 0 51 23q0 16 -34 16q-17 0 -36 -4l-19 21l26 86h84l-16 -51q44 -1 67.5 -19t23.5 -50
q0 -45 -38.5 -71.5t-97.5 -26.5z" />
    <glyph glyph-name="Scaron" unicode="&#x160;" horiz-adv-x="651" 
d="M303 -11q-78 0 -153 20.5t-133 62.5l60 138q61 -38 125 -54t119 -16q57 0 87.5 18t30.5 47q0 23 -18.5 39t-58.5 24l-115 28q-76 17 -120.5 65t-44.5 119q0 76 41.5 128.5t110 80t147.5 27.5q66 0 134.5 -19t124.5 -60l-63 -131q-45 32 -98.5 45.5t-98.5 13.5
q-55 0 -86.5 -18.5t-31.5 -47.5q0 -45 70 -62l115 -27q82 -19 127 -67.5t45 -116.5q0 -60 -26 -104.5t-70 -74t-101 -44t-119 -14.5zM328 765l-111 176h115l74 -86l85 86h124l-142 -176h-145z" />
    <glyph glyph-name="scaron" unicode="&#x161;" horiz-adv-x="496" 
d="M229 -11q-65 0 -124.5 14t-100.5 43l49 113q37 -23 84.5 -36.5t90.5 -13.5q39 0 57 12t18 30q0 13 -9.5 20.5t-31.5 11.5l-89 15q-62 9 -95.5 43.5t-33.5 86.5q0 46 27.5 86t82 64.5t136.5 24.5q45 0 96 -12.5t91 -38.5l-48 -111q-34 22 -73.5 32.5t-75.5 10.5
q-41 0 -60 -13t-19 -32q0 -11 7.5 -19t25.5 -11l89 -14q69 -12 103 -46t34 -85q0 -86 -63.5 -130.5t-167.5 -44.5zM219 557l-91 205h107l65 -113l90 113h108l-131 -205h-148z" />
    <glyph glyph-name="uni0162" unicode="&#x162;" horiz-adv-x="644" 
d="M191 0l88 555h-224l24 150h632l-24 -150h-224l-88 -555h-184zM259 -198q-33 0 -63 5.5t-52 17.5l30 70q36 -17 74 -17q51 0 51 23q0 16 -34 16q-17 0 -36 -4l-19 21l26 86h84l-16 -51q44 -1 67.5 -19t23.5 -50q0 -45 -38.5 -71.5t-97.5 -26.5z" />
    <glyph glyph-name="uni0163" unicode="&#x163;" horiz-adv-x="426" 
d="M282 -11q-76 0 -124 27t-67 75t-9 110l26 160h-92l21 131h92l22 143h178l-22 -143h142l-21 -131h-142l-25 -153q-6 -41 12.5 -58.5t54.5 -17.5q24 0 53 9l5 -132q-21 -10 -49 -15t-55 -5zM193 -198q-33 0 -63 5.5t-52 17.5l30 70q36 -17 74 -17q51 0 51 23q0 16 -34 16
q-17 0 -36 -4l-19 21l26 86h84l-16 -51q44 -1 67.5 -19t23.5 -50q0 -45 -38.5 -71.5t-97.5 -26.5z" />
    <glyph glyph-name="Tcaron" unicode="&#x164;" horiz-adv-x="644" 
d="M191 0l88 555h-224l24 150h632l-24 -150h-224l-88 -555h-184zM330 765l-111 176h115l74 -86l85 86h124l-142 -176h-145z" />
    <glyph glyph-name="tcaron" unicode="&#x165;" horiz-adv-x="426" 
d="M282 -11q-76 0 -124 27t-67 75t-9 110l26 160h-92l21 131h92l22 143h178l-22 -143h142l-21 -131h-142l-25 -153q-6 -41 12.5 -58.5t54.5 -17.5q24 0 53 9l5 -132q-21 -10 -49 -15t-55 -5zM351.124 531.461l28.876 173.803h105.547l-56.7559 -173.803h-77.667z" />
    <glyph glyph-name="Tbar" unicode="&#x166;" horiz-adv-x="644" 
d="M191 0l88 555h-224l24 150h632l-24 -150h-224l-88 -555h-184zM104 291l21 130h449l-21 -130h-449z" />
    <glyph glyph-name="tbar" unicode="&#x167;" horiz-adv-x="426" 
d="M282 -11q-76 0 -124 27t-67 75t-9 110l26 160h-92l21 131h92l22 143h178l-22 -143h142l-21 -131h-142l-25 -153q-6 -41 12.5 -58.5t54.5 -17.5q24 0 53 9l5 -132q-21 -10 -49 -15t-55 -5zM17 203l17 102h347l-17 -102h-347z" />
    <glyph glyph-name="Utilde" unicode="&#x168;" horiz-adv-x="748" 
d="M350 -11q-92 0 -161.5 35.5t-102.5 109t-15 184.5l61 387h183l-63 -397q-12 -78 15.5 -122t96.5 -44q62 0 99.5 34t49.5 105l67 424h181l-66 -415q-23 -146 -103.5 -223.5t-241.5 -77.5zM293 759l-81 6q12 79 54 122t104 43q31 0 57 -10t49 -21q21 -9 39 -16t37 -7
q54 0 71 59l81 -5q-11 -80 -53 -122.5t-105 -42.5q-30 0 -56 9.5t-50 20.5q-20 9 -38.5 16t-36.5 7q-55 0 -72 -59z" />
    <glyph glyph-name="utilde" unicode="&#x169;" horiz-adv-x="601" 
d="M189 -11q-53 0 -90 22t-53 69t-4 121l46 291h178l-45 -288q-13 -79 49 -79q39 0 65 28t34 78l41 261h178l-78 -492h-174l11 70q-26 -40 -67 -60.5t-91 -20.5zM222 577l-82 5q10 80 49 122.5t96 42.5q28 0 47.5 -10t36.5 -21q14 -9 28.5 -15.5t32.5 -6.5q49 0 64 59l81 -6
q-9 -79 -48 -122t-96 -43q-29 0 -49.5 10.5t-37.5 21.5q-14 9 -28 15.5t-30 6.5q-49 0 -64 -59z" />
    <glyph glyph-name="Umacron" unicode="&#x16a;" horiz-adv-x="748" 
d="M350 -11q-92 0 -161.5 35.5t-102.5 109t-15 184.5l61 387h183l-63 -397q-12 -78 15.5 -122t96.5 -44q62 0 99.5 34t49.5 105l67 424h181l-66 -415q-23 -146 -103.5 -223.5t-241.5 -77.5zM276 796l14 97h368l-15 -97h-367z" />
    <glyph glyph-name="umacron" unicode="&#x16b;" horiz-adv-x="601" 
d="M189 -11q-53 0 -90 22t-53 69t-4 121l46 291h178l-45 -288q-13 -79 49 -79q39 0 65 28t34 78l41 261h178l-78 -492h-174l11 70q-26 -40 -67 -60.5t-91 -20.5zM186 605l15 97h338l-15 -97h-338z" />
    <glyph glyph-name="Ubreve" unicode="&#x16c;" horiz-adv-x="748" 
d="M350 -11q-92 0 -161.5 35.5t-102.5 109t-15 184.5l61 387h183l-63 -397q-12 -78 15.5 -122t96.5 -44q62 0 99.5 34t49.5 105l67 424h181l-66 -415q-23 -146 -103.5 -223.5t-241.5 -77.5zM457 760q-84 0 -134.5 48.5t-50.5 123.5l96 12q0 -40 25 -62.5t71 -22.5
q44 0 73.5 22.5t37.5 62.5l94 -12q-11 -79 -68 -125.5t-144 -46.5z" />
    <glyph glyph-name="ubreve" unicode="&#x16d;" horiz-adv-x="601" 
d="M189 -11q-53 0 -90 22t-53 69t-4 121l46 291h178l-45 -288q-13 -79 49 -79q39 0 65 28t34 78l41 261h178l-78 -492h-174l11 70q-26 -40 -67 -60.5t-91 -20.5zM354 553q-79 0 -124.5 54t-40.5 143l96 9q-1 -51 19 -78t57 -27t61.5 27t31.5 78l95 -9q-9 -90 -62 -143.5
t-133 -53.5z" />
    <glyph glyph-name="Uring" unicode="&#x16e;" horiz-adv-x="748" 
d="M350 -11q-92 0 -161.5 35.5t-102.5 109t-15 184.5l61 387h183l-63 -397q-12 -78 15.5 -122t96.5 -44q62 0 99.5 34t49.5 105l67 424h181l-66 -415q-23 -146 -103.5 -223.5t-241.5 -77.5zM465 752q-38 0 -68.5 17t-48 46.5t-17.5 66.5q0 38 17.5 67t48 46.5t68.5 17.5
q39 0 69.5 -17.5t48 -46.5t17.5 -67q0 -37 -17.5 -66.5t-48 -46.5t-69.5 -17zM465 825q25 0 41 16t16 41t-16 41t-41 16q-23 0 -39.5 -16t-16.5 -41t16.5 -41t39.5 -16z" />
    <glyph glyph-name="uring" unicode="&#x16f;" horiz-adv-x="601" 
d="M189 -11q-53 0 -90 22t-53 69t-4 121l46 291h178l-45 -288q-13 -79 49 -79q39 0 65 28t34 78l41 261h178l-78 -492h-174l11 70q-26 -40 -67 -60.5t-91 -20.5zM366 545q-38 0 -69 17t-48.5 46.5t-17.5 66.5t17.5 66.5t48.5 47t69 17.5t68.5 -17.5t48.5 -47t18 -66.5
t-18 -66.5t-48.5 -46.5t-68.5 -17zM366 618q24 0 40 16t16 41t-16 41t-40 16q-25 0 -41 -16t-16 -41t16 -41t41 -16z" />
    <glyph glyph-name="Uhungarumlaut" unicode="&#x170;" horiz-adv-x="748" 
d="M350 -11q-92 0 -161.5 35.5t-102.5 109t-15 184.5l61 387h183l-63 -397q-12 -78 15.5 -122t96.5 -44q62 0 99.5 34t49.5 105l67 424h181l-66 -415q-23 -146 -103.5 -223.5t-241.5 -77.5zM321 765l100 176h150l-152 -176h-98zM491 765l116 176h151l-168 -176h-99z" />
    <glyph glyph-name="uhungarumlaut" unicode="&#x171;" horiz-adv-x="601" 
d="M189 -11q-53 0 -90 22t-53 69t-4 121l46 291h178l-45 -288q-13 -79 49 -79q39 0 65 28t34 78l41 261h178l-78 -492h-174l11 70q-26 -40 -67 -60.5t-91 -20.5zM385 557l62 205h142l-113 -205h-91zM211 557l63 205h141l-113 -205h-91z" />
    <glyph glyph-name="Uogonek" unicode="&#x172;" horiz-adv-x="748" 
d="M350 -11q-92 0 -161.5 35.5t-102.5 109t-15 184.5l61 387h183l-63 -397q-12 -78 15.5 -122t96.5 -44q62 0 99.5 34t49.5 105l67 424h181l-66 -415q-23 -146 -103.5 -223.5t-241.5 -77.5zM366 -198q-57 0 -87 26.5t-30 72.5q0 50 34 89.5t86 57.5l43 -48
q-32 -12 -45.5 -31.5t-13.5 -38.5q0 -18 14 -29.5t35 -11.5q14 0 26.5 2.5t27.5 7.5l12 -81q-32 -8 -54 -12t-48 -4z" />
    <glyph glyph-name="uogonek" unicode="&#x173;" horiz-adv-x="601" 
d="M189 -11q-53 0 -90 22t-53 69t-4 121l46 291h178l-45 -288q-13 -79 49 -79q39 0 65 28t34 78l41 261h178l-78 -492h-174l11 70q-26 -40 -67 -60.5t-91 -20.5zM404 -198q-57 0 -87 26.5t-30 72.5q0 50 34 89.5t86 57.5l43 -48q-32 -12 -45.5 -31.5t-13.5 -38.5
q0 -18 14 -29.5t35 -11.5q14 0 26.5 2.5t27.5 7.5l12 -81q-32 -8 -54 -12t-48 -4z" />
    <glyph glyph-name="Wcircumflex" unicode="&#x174;" horiz-adv-x="1128" 
d="M225 0l-142 705h178l77 -444l229 444h132l80 -448l224 448h187l-366 -705h-147l-84 423l-221 -423h-147zM438 765l143 176h145l110 -176h-120l-70 86l-88 -86h-120z" />
    <glyph glyph-name="wcircumflex" unicode="&#x175;" horiz-adv-x="868" 
d="M154 0l-129 492h170l63 -282l152 282h111l63 -291l157 291h180l-284 -492h-147l-59 242l-131 -242h-146zM278 557l131 205h148l92 -205h-108l-65 113l-90 -113h-108z" />
    <glyph glyph-name="Ycircumflex" unicode="&#x176;" horiz-adv-x="645" 
d="M191 0l50 312l-210 393h200l118 -230l191 230h217l-332 -392l-50 -313h-184zM186 765l143 176h145l110 -176h-120l-70 86l-88 -86h-120z" />
    <glyph glyph-name="ycircumflex" unicode="&#x177;" horiz-adv-x="541" 
d="M14 -180l133 215l-128 457h178l64 -279l158 279h182l-407 -672h-180zM112 557l131 205h148l92 -205h-108l-65 113l-90 -113h-108z" />
    <glyph glyph-name="Ydieresis" unicode="&#x178;" horiz-adv-x="645" 
d="M191 0l50 312l-210 393h200l118 -230l191 230h217l-332 -392l-50 -313h-184zM419 771l24 149h148l-24 -149h-148zM213 771l23 149h149l-24 -149h-148z" />
    <glyph glyph-name="Zacute" unicode="&#x179;" horiz-adv-x="625" 
d="M6 0l21 135l387 419h-320l23 151h544l-21 -135l-386 -419h336l-24 -151h-560zM331 765l130 176h182l-190 -176h-122z" />
    <glyph glyph-name="zacute" unicode="&#x17a;" horiz-adv-x="487" 
d="M3 0l18 114l249 247h-210l21 131h412l-18 -113l-249 -248h220l-20 -131h-423zM237 557l131 205h171l-187 -205h-115z" />
    <glyph glyph-name="Zdotaccent" unicode="&#x17b;" horiz-adv-x="625" 
d="M6 0l21 135l387 419h-320l23 151h544l-21 -135l-386 -419h336l-24 -151h-560zM314 778l23 150h159l-23 -150h-159z" />
    <glyph glyph-name="zdotaccent" unicode="&#x17c;" horiz-adv-x="487" 
d="M3 0l18 114l249 247h-210l21 131h412l-18 -113l-249 -248h220l-20 -131h-423zM219 583l24 150h159l-24 -150h-159z" />
    <glyph glyph-name="Zcaron" unicode="&#x17d;" horiz-adv-x="625" 
d="M6 0l21 135l387 419h-320l23 151h544l-21 -135l-386 -419h336l-24 -151h-560zM320 765l-111 176h115l74 -86l85 86h124l-142 -176h-145z" />
    <glyph glyph-name="zcaron" unicode="&#x17e;" horiz-adv-x="487" 
d="M3 0l18 114l249 247h-210l21 131h412l-18 -113l-249 -248h220l-20 -131h-423zM221 557l-91 205h107l65 -113l90 113h108l-131 -205h-148z" />
    <glyph glyph-name="uni0181" unicode="&#x181;" horiz-adv-x="883" 
d="M207 0l92 580h-20q-41 0 -63.5 -21.5t-29.5 -67.5l-7 -46h-147l10 68q16 100 75.5 146t175.5 46h343q83 0 134 -22.5t74 -61t23 -86.5q0 -65 -37.5 -110t-99.5 -63q50 -19 77.5 -58.5t27.5 -92.5q0 -102 -72 -156.5t-194 -54.5h-362zM449 425h135q108 0 108 87
q0 28 -20.5 43t-66.5 15h-133zM403 135h155q52 0 77 23t25 65q0 67 -89 67h-143z" />
    <glyph glyph-name="uni018A" unicode="&#x18a;" horiz-adv-x="968" 
d="M207 0l92 580h-20q-41 0 -63.5 -21.5t-29.5 -67.5l-7 -46h-147l10 68q16 100 75.5 146t175.5 46h276q177 0 273.5 -82t97.5 -227q0 -113 -47 -203t-138.5 -141.5t-224.5 -51.5h-323zM413 149h119q108 0 162.5 66t54.5 178q0 79 -45.5 121t-134.5 42h-90z" />
    <glyph glyph-name="uni018F" unicode="&#x18f;" horiz-adv-x="807" 
d="M391 -11q-113 0 -192.5 50t-114.5 139t-16 205l7 40h511q-8 67 -56 103t-132 36q-60 0 -119.5 -16t-109.5 -46l-55 141q60 35 138.5 55t171.5 20q105 0 185 -39.5t124.5 -113t44.5 -174.5q0 -75 -22.5 -146.5t-70 -129t-120.5 -91t-174 -33.5zM397 136q72 0 115 41
t61 105h-328q4 -72 43 -109t109 -37z" />
    <glyph glyph-name="florin" unicode="&#x192;" horiz-adv-x="600" 
d="M-49 -191l23 138h75q27 0 44 17.5t31 57.5l127 339h-94l20 131h123l5 15q34 107 98 158t175 51h74l-22 -139h-61q-38 0 -57.5 -17.5t-33.5 -57.5l-3 -10h103l-20 -131h-132l-131 -353q-29 -80 -65 -123t-85.5 -59.5t-119.5 -16.5h-74z" />
    <glyph glyph-name="Ohorn" unicode="&#x1a0;" horiz-adv-x="807" 
d="M396 -11q-101 0 -176 37.5t-116.5 108t-41.5 170.5q0 122 48 214.5t134.5 144.5t200.5 52q101 0 176 -37.5t116.5 -108t41.5 -169.5q0 -123 -48 -215.5t-134 -144.5t-201 -52zM398 143q60 0 102.5 32t65.5 89.5t23 132.5q0 84 -39.5 124.5t-107.5 40.5q-59 0 -101.5 -32
t-65 -89.5t-22.5 -132.5q0 -84 39 -124.5t106 -40.5zM547 624l-29 85q18 -1 31 -2.5t25 -1.5q27 0 45.5 7t30.5 27.5t19 62.5l4 27h154l-8 -48q-6 -41 -28 -76.5t-55 -58t-74 -22.5h-115z" />
    <glyph glyph-name="ohorn" unicode="&#x1a1;" horiz-adv-x="602" 
d="M282 -11q-121 0 -187 63t-66 167q0 71 24.5 124.5t66 89t93.5 53t107 17.5q120 0 186.5 -63t66.5 -166q0 -72 -24.5 -125.5t-66 -89t-93.5 -53t-107 -17.5zM285 120q51 0 80 45t29 114q0 45 -20.5 69t-57.5 24q-50 0 -79 -44.5t-29 -114.5q0 -45 20.5 -69t56.5 -24z
M491 412l-102 65l3 15q27 0 45 7t30 28t19 62l4 27h154l-8 -49q-10 -60 -48 -103.5t-97 -51.5z" />
    <glyph glyph-name="Uhorn" unicode="&#x1af;" horiz-adv-x="748" 
d="M350 -11q-92 0 -161.5 35.5t-102.5 109t-15 184.5l61 387h183l-63 -397q-12 -78 15.5 -122t96.5 -44q62 0 99.5 34t49.5 105l67 424h181l-66 -415q-23 -146 -103.5 -223.5t-241.5 -77.5zM726 624l-101 66l2 15q27 0 45.5 6t30.5 26t18 61l4 31h154l-7 -52
q-10 -61 -48.5 -103t-97.5 -50z" />
    <glyph glyph-name="uhorn" unicode="&#x1b0;" horiz-adv-x="601" 
d="M189 -11q-53 0 -90 22t-53 69t-4 121l46 291h178l-45 -288q-13 -79 49 -79q39 0 65 28t34 78l41 261h178l-78 -492h-174l11 70q-26 -40 -67 -60.5t-91 -20.5zM556 412l-102 65l3 15q27 0 45 7t30 28t19 62l4 27h154l-8 -49q-10 -60 -48 -103.5t-97 -51.5z" />
    <glyph glyph-name="uni01B3" unicode="&#x1b3;" horiz-adv-x="671" 
d="M191 0l50 312l-210 393h200l118 -230l116 138q34 40 66 62.5t69 31.5t85 9q22 0 50.5 -4t40.5 -10l-20 -122q-10 3 -21.5 4.5t-27.5 1.5q-23 0 -47 -12.5t-45 -36.5l-190 -224l-50 -313h-184z" />
    <glyph glyph-name="uni01B4" unicode="&#x1b4;" horiz-adv-x="595" 
d="M345 364q30 52 60.5 82.5t70 43.5t96.5 13q62 0 88 -14l-43 -128q-10 4 -19 5t-19 1q-24 0 -47.5 -14.5t-45.5 -49.5l-292 -483h-180l133 215l-128 457h178l64 -279z" />
    <glyph glyph-name="uni01C4" unicode="&#x1c4;" horiz-adv-x="1396" 
d="M25 0l112 705h250q178 0 274.5 -82t96.5 -227q1 -113 -46 -203t-138.5 -141.5t-224.5 -51.5h-324zM232 149h119q107 0 161.5 66t54.5 178q0 79 -45 121t-135 42h-90zM777 0l21 135l387 419h-320l23 151h544l-21 -135l-386 -419h336l-24 -151h-560zM1091 765l-111 176h115
l74 -86l85 86h124l-142 -176h-145z" />
    <glyph glyph-name="uni01C5" unicode="&#x1c5;" horiz-adv-x="1273" 
d="M25 0l112 705h250q178 0 274.5 -82t96.5 -227q1 -113 -46 -203t-138.5 -141.5t-224.5 -51.5h-324zM232 149h119q107 0 161.5 66t54.5 178q0 79 -45 121t-135 42h-90zM789 0l18 114l249 247h-210l21 131h412l-18 -113l-249 -248h220l-20 -131h-423zM1007 557l-91 205h107
l65 -113l90 113h108l-131 -205h-148z" />
    <glyph glyph-name="uni01C6" unicode="&#x1c6;" horiz-adv-x="1107" 
d="M209 -11q-83 0 -132.5 58t-49.5 156q0 87 31 154.5t87 106.5t131 39q48 0 86 -19.5t58 -57.5l44 279h178l-112 -705h-174l11 69q-28 -38 -69 -59t-89 -21zM284 120q50 0 79 45t29 114q0 45 -20.5 69t-56.5 24q-51 0 -80 -44.5t-29 -114.5q0 -45 20.5 -69t57.5 -24zM623 0
l18 114l249 247h-210l21 131h412l-18 -113l-249 -248h220l-20 -131h-423zM841 557l-91 205h107l65 -113l90 113h108l-131 -205h-148z" />
    <glyph glyph-name="uni01C7" unicode="&#x1c7;" horiz-adv-x="1015" 
d="M25 0l112 705h184l-87 -552h313l-24 -153h-498zM590 -11l5 147l85 5q37 2 57 20t27 59l77 485h183l-79 -497q-11 -67 -37.5 -113t-78 -71t-136.5 -30z" />
    <glyph glyph-name="uni01C8" unicode="&#x1c8;" horiz-adv-x="872" 
d="M25 0l112 705h184l-87 -552h313l-24 -153h-498zM689 577l26 161h187l-26 -161h-187zM495 -193l-11 125l50 6q33 3 48.5 18.5t20.5 46.5l78 489h178l-74 -465q-12 -74 -37 -120t-74.5 -69t-131.5 -28z" />
    <glyph glyph-name="uni01C9" unicode="&#x1c9;" horiz-adv-x="635" 
d="M212 -11q-98 0 -140.5 53t-27.5 154l81 509h178l-81 -506q-10 -68 54 -68q10 0 20.5 1t20.5 2l-23 -135q-36 -10 -82 -10zM452 577l26 161h187l-26 -161h-187zM258 -193l-11 125l50 6q33 3 48.5 18.5t20.5 46.5l78 489h178l-74 -465q-12 -74 -37 -120t-74.5 -69
t-131.5 -28z" />
    <glyph glyph-name="uni01CA" unicode="&#x1ca;" horiz-adv-x="1148" 
d="M25 0l112 705h135l257 -421l66 421h171l-112 -705h-135l-256 421l-67 -421h-171zM722 -11l5 147l85 5q37 2 57 20t27 59l77 485h183l-79 -497q-11 -67 -37.5 -113t-78 -71t-136.5 -30z" />
    <glyph glyph-name="uni01CB" unicode="&#x1cb;" horiz-adv-x="1044" 
d="M25 0l112 705h135l257 -421l66 421h171l-112 -705h-135l-256 421l-67 -421h-171zM861 577l26 161h187l-26 -161h-187zM667 -193l-11 125l50 6q33 3 48.5 18.5t20.5 46.5l78 489h178l-74 -465q-12 -74 -37 -120t-74.5 -69t-131.5 -28z" />
    <glyph glyph-name="uni01CC" unicode="&#x1cc;" horiz-adv-x="893" 
d="M13 0l78 492h173l-11 -70q54 81 163 81q79 0 122 -50.5t26 -161.5l-46 -291h-178l45 288q6 39 -5.5 59t-45.5 20q-41 0 -67.5 -27.5t-34.5 -77.5l-41 -262h-178zM710 577l26 161h187l-26 -161h-187zM516 -193l-11 125l50 6q33 3 48.5 18.5t20.5 46.5l78 489h178l-74 -465
q-12 -74 -37 -120t-74.5 -69t-131.5 -28z" />
    <glyph glyph-name="uni01CD" unicode="&#x1cd;" horiz-adv-x="763" 
d="M-60 0l442 705h146l217 -705h-176l-37 143h-317l-84 -143h-191zM433 513l-135 -229h197l-60 229h-2zM390 765l-111 176h115l74 -86l85 86h124l-142 -176h-145z" />
    <glyph glyph-name="uni01CE" unicode="&#x1ce;" horiz-adv-x="568" 
d="M185 -11q-48 0 -86 22t-60.5 57.5t-22.5 76.5q0 78 67 113.5t208 35.5h68l1 9q6 33 -14.5 52t-66.5 19q-88 0 -172 -48l-33 118q39 26 102.5 42.5t127.5 16.5q91 0 142 -33t68.5 -88.5t6.5 -120.5l-41 -261h-165l11 71q-24 -44 -60.5 -63t-80.5 -19zM247 105q39 0 64 23
t31 60l3 22h-54q-56 0 -80.5 -12.5t-24.5 -40.5q0 -25 17 -38.5t44 -13.5zM254 557l-91 205h107l65 -113l90 113h108l-131 -205h-148z" />
    <glyph glyph-name="uni01D4" unicode="&#x1d4;" horiz-adv-x="601" 
d="M189 -11q-53 0 -90 22t-53 69t-4 121l46 291h178l-45 -288q-13 -79 49 -79q39 0 65 28t34 78l41 261h178l-78 -492h-174l11 70q-26 -40 -67 -60.5t-91 -20.5zM273 557l-91 205h107l65 -113l90 113h108l-131 -205h-148z" />
    <glyph glyph-name="uni01E5" unicode="&#x1e5;" horiz-adv-x="626" 
d="M258 -191q-77 0 -142 11.5t-117 43.5l54 120q40 -25 87 -40t93 -15q33 0 59 6.5t43 22.5h-105l12 79h126l13 92q-25 -36 -68 -55t-89 -19q-62 0 -104.5 28t-64.5 73.5t-22 98.5q0 64 29 121t84.5 92t134.5 35q51 0 89.5 -20.5t56.5 -57.5l11 67h174l-71 -447q0 -2 -1 -8
h49l-12 -79h-60q-32 -71 -97 -110t-162 -39zM292 184q52 0 82.5 34t30.5 78q0 33 -20.5 54.5t-60.5 21.5q-52 0 -82.5 -34t-30.5 -78q0 -32 20.5 -54t60.5 -22z" />
    <glyph glyph-name="Gcaron" unicode="&#x1e6;" horiz-adv-x="747" 
d="M407 -11q-99 0 -177 37t-122.5 109t-44.5 177q0 114 47.5 205.5t140 145t226.5 53.5q81 0 145 -21t97 -51l-69 -143q-82 58 -182 58q-71 0 -118.5 -33.5t-72 -88t-24.5 -118.5q0 -91 48.5 -133.5t133.5 -42.5q42 0 92 12l18 113h-141l19 129h292l-57 -359
q-55 -26 -122 -37.5t-129 -11.5zM393 765l-111 176h115l74 -86l85 86h124l-142 -176h-145z" />
    <glyph glyph-name="gcaron" unicode="&#x1e7;" horiz-adv-x="626" 
d="M265 -191q-154 0 -259 65l50 119q42 -24 88.5 -38.5t92.5 -14.5q55 0 89 20.5t43 70.5l8 52q-25 -36 -65 -53t-85 -17q-90 0 -144.5 52.5t-54.5 150.5q0 79 32 144t89 104t131 39q51 0 90 -20t58 -59l11 68h174l-71 -451q-17 -109 -86.5 -170.5t-190.5 -61.5zM287 144
q35 0 60.5 20t38.5 53t13 72q1 37 -20.5 60t-60.5 23q-35 0 -59.5 -20t-38 -53t-13.5 -72q0 -37 21 -60t59 -23zM279 557l-91 205h107l65 -113l90 113h108l-131 -205h-148z" />
    <glyph glyph-name="uni01E9" unicode="&#x1e9;" horiz-adv-x="580" 
d="M14 0l111 705h178l-65 -411h2l190 198h207l-229 -243l163 -249h-202l-142 214h-2l-33 -214h-178zM312 765l-111 176h115l74 -86l85 86h124l-142 -176h-145z" />
    <glyph glyph-name="uni01EA" unicode="&#x1ea;" horiz-adv-x="807" 
d="M396 -11q-101 0 -176 37.5t-116.5 108t-41.5 170.5q0 122 48 214.5t134.5 144.5t200.5 52q101 0 176 -37.5t116.5 -108t41.5 -169.5q0 -123 -48 -215.5t-134 -144.5t-201 -52zM398 143q60 0 102.5 32t65.5 89.5t23 132.5q0 84 -39.5 124.5t-107.5 40.5q-59 0 -101.5 -32
t-65 -89.5t-22.5 -132.5q0 -84 39 -124.5t106 -40.5zM399 -198q-57 0 -87 26.5t-30 72.5q0 50 34 89.5t86 57.5l43 -48q-32 -12 -45.5 -31.5t-13.5 -38.5q0 -18 14 -29.5t35 -11.5q14 0 26.5 2.5t27.5 7.5l12 -81q-32 -8 -54 -12t-48 -4z" />
    <glyph glyph-name="uni01EB" unicode="&#x1eb;" horiz-adv-x="602" 
d="M282 -11q-121 0 -187 63t-66 167q0 71 24.5 124.5t66 89t93.5 53t107 17.5q120 0 186.5 -63t66.5 -166q0 -72 -24.5 -125.5t-66 -89t-93.5 -53t-107 -17.5zM285 120q51 0 80 45t29 114q0 45 -20.5 69t-57.5 24q-50 0 -79 -44.5t-29 -114.5q0 -45 20.5 -69t56.5 -24z
M285 -198q-57 0 -87 26.5t-30 72.5q0 50 34 89.5t86 57.5l43 -48q-32 -12 -45.5 -31.5t-13.5 -38.5q0 -18 14 -29.5t35 -11.5q14 0 26.5 2.5t27.5 7.5l12 -81q-32 -8 -54 -12t-48 -4z" />
    <glyph glyph-name="uni01EF" unicode="&#x1ef;" horiz-adv-x="542" 
d="M202 -191q-77 0 -144.5 17.5t-115.5 53.5l62 116q32 -28 76.5 -41t102.5 -13q56 0 89 23t33 70q0 36 -28.5 57t-89.5 21h-90l13 82l196 165h-265l21 132h458l-19 -118l-181 -148q78 -11 120 -62t42 -115q0 -66 -32 -120.5t-94.5 -87t-153.5 -32.5zM227 557l-91 205h107
l65 -113l90 113h108l-131 -205h-148z" />
    <glyph glyph-name="Aringacute" unicode="&#x1fa;" horiz-adv-x="763" 
d="M-60 0l442 705h146l217 -705h-176l-37 143h-317l-84 -143h-191zM433 513l-135 -229h197l-60 229h-2zM464 752q-36 0 -64.5 16t-45.5 44t-17 62q0 35 17 62.5t45.5 43.5t64.5 16q31 0 60 -14l58 53h125l-128 -111q11 -23 11 -50q0 -34 -16.5 -62t-45.5 -44t-64 -16z
M464 817q24 0 40 16t16 41t-16 41t-40 16q-25 0 -41 -16t-16 -41t16 -41t41 -16z" />
    <glyph glyph-name="aringacute" unicode="&#x1fb;" horiz-adv-x="568" 
d="M185 -11q-48 0 -86 22t-60.5 57.5t-22.5 76.5q0 78 67 113.5t208 35.5h68l1 9q6 33 -14.5 52t-66.5 19q-88 0 -172 -48l-33 118q39 26 102.5 42.5t127.5 16.5q91 0 142 -33t68.5 -88.5t6.5 -120.5l-41 -261h-165l11 71q-24 -44 -60.5 -63t-80.5 -19zM247 105q39 0 64 23
t31 60l3 22h-54q-56 0 -80.5 -12.5t-24.5 -40.5q0 -25 17 -38.5t44 -13.5zM342 537q-36 0 -64.5 16t-45.5 43.5t-17 62.5q0 34 17 62t45.5 44t64.5 16q17 0 32 -4t29 -11l58 53h125l-128 -110q11 -24 11 -50q0 -35 -17 -62.5t-45.5 -43.5t-64.5 -16zM342 601q24 0 40.5 16.5
t16.5 41.5t-16.5 40.5t-40.5 15.5t-40.5 -15.5t-16.5 -40.5t16.5 -41.5t40.5 -16.5z" />
    <glyph glyph-name="AEacute" unicode="&#x1fc;" horiz-adv-x="1006" 
d="M-99 0l561 705h564l-22 -142h-367l9 -134h314l-22 -142h-284l9 -145h275l-23 -142h-401l-9 143h-298l-107 -143h-199zM481 507l-168 -223h184l-14 223h-2zM500 765l130 176h182l-190 -176h-122z" />
    <glyph glyph-name="aeacute" unicode="&#x1fd;" horiz-adv-x="870" 
d="M221 -11q-53 0 -100 16.5t-76 51.5t-29 88q0 78 67 113.5t208 35.5h63l2 10q5 33 -12.5 51t-64.5 18q-44 0 -87.5 -11.5t-82.5 -35.5l-35 118q39 26 102.5 42.5t127.5 16.5q110 0 159 -59q33 30 74.5 44.5t89.5 14.5q82 0 134 -35t73 -94.5t9 -133.5l-5 -30h-325
q2 -44 31 -67t82 -23q88 0 149 44l36 -116q-37 -28 -90.5 -43.5t-114.5 -15.5q-71 0 -122.5 24.5t-79.5 69.5q-27 -49 -76.5 -71.5t-106.5 -22.5zM624 386q-42 0 -66.5 -26.5t-33.5 -65.5h180q3 39 -16.5 65.5t-63.5 26.5zM247 108q39 0 61.5 20.5t28.5 57.5l4 24h-49
q-55 0 -80.5 -13.5t-25.5 -41.5q0 -21 16 -34t45 -13zM388 557l131 205h171l-187 -205h-115z" />
    <glyph glyph-name="Oslashacute" unicode="&#x1fe;" horiz-adv-x="807" 
d="M396 -11q-101 0 -176 37.5t-116.5 108t-41.5 170.5q0 122 48 214.5t134.5 144.5t200.5 52q101 0 176 -37.5t116.5 -108t41.5 -169.5q0 -123 -48 -215.5t-134 -144.5t-201 -52zM398 143q60 0 102.5 32t65.5 89.5t23 132.5q0 84 -39.5 124.5t-107.5 40.5q-59 0 -101.5 -32
t-65 -89.5t-22.5 -132.5q0 -84 39 -124.5t106 -40.5zM188 -63l-107 72l96 128l66 73l272 359l42 74l95 127l106 -73l-96 -127l-66 -74l-272 -358l-42 -74zM410 765l130 176h182l-190 -176h-122z" />
    <glyph glyph-name="oslashacute" unicode="&#x1ff;" horiz-adv-x="602" 
d="M128 -61l-73 51l44 58q-70 62 -70 171q0 71 24.5 124.5t66 89t93.5 53t107 17.5q59 0 107 -16l47 64l74 -50l-44 -59q69 -61 69 -168q0 -72 -24.5 -125.5t-66 -89t-93.5 -53t-107 -17.5q-58 0 -105 15zM189 210q0 -20 4 -36l154 206q-16 4 -35 4q-56 0 -89.5 -46.5
t-33.5 -127.5zM289 108q56 0 90 46.5t34 127.5q0 18 -4 33l-152 -204q15 -3 32 -3zM293 557l131 205h171l-187 -205h-115z" />
    <glyph glyph-name="uni0200" unicode="&#x200;" horiz-adv-x="763" 
d="M-60 0l442 705h146l217 -705h-176l-37 143h-317l-84 -143h-191zM433 513l-135 -229h197l-60 229h-2zM498 765l-120 176h149l70 -176h-99zM328 765l-137 176h150l85 -176h-98z" />
    <glyph glyph-name="uni0201" unicode="&#x201;" horiz-adv-x="568" 
d="M185 -11q-48 0 -86 22t-60.5 57.5t-22.5 76.5q0 78 67 113.5t208 35.5h68l1 9q6 33 -14.5 52t-66.5 19q-88 0 -172 -48l-33 118q39 26 102.5 42.5t127.5 16.5q91 0 142 -33t68.5 -88.5t6.5 -120.5l-41 -261h-165l11 71q-24 -44 -60.5 -63t-80.5 -19zM247 105q39 0 64 23
t31 60l3 22h-54q-56 0 -80.5 -12.5t-24.5 -40.5q0 -25 17 -38.5t44 -13.5zM372 557l-76 205h141l26 -205h-91zM198 557l-76 205h141l26 -205h-91z" />
    <glyph glyph-name="uni0202" unicode="&#x202;" horiz-adv-x="763" 
d="M-60 0l442 705h146l217 -705h-176l-37 143h-317l-84 -143h-191zM433 513l-135 -229h197l-60 229h-2zM357 760l-94 12q11 79 68 125.5t144 46.5q85 0 135 -48.5t51 -123.5l-97 -12q0 40 -25 62.5t-70 22.5t-74.5 -22.5t-37.5 -62.5z" />
    <glyph glyph-name="uni0203" unicode="&#x203;" horiz-adv-x="568" 
d="M185 -11q-48 0 -86 22t-60.5 57.5t-22.5 76.5q0 78 67 113.5t208 35.5h68l1 9q6 33 -14.5 52t-66.5 19q-88 0 -172 -48l-33 118q39 26 102.5 42.5t127.5 16.5q91 0 142 -33t68.5 -88.5t6.5 -120.5l-41 -261h-165l11 71q-24 -44 -60.5 -63t-80.5 -19zM247 105q39 0 64 23
t31 60l3 22h-54q-56 0 -80.5 -12.5t-24.5 -40.5q0 -25 17 -38.5t44 -13.5zM238 553l-94 8q8 90 61.5 144t133.5 54q79 0 124.5 -54.5t40.5 -143.5l-96 -8q1 50 -19 77t-57 27t-61.5 -27t-32.5 -77z" />
    <glyph glyph-name="uni0204" unicode="&#x204;" horiz-adv-x="614" 
d="M26 0l111 705h498l-22 -142h-323l-21 -134h300l-23 -142h-300l-23 -145h322l-22 -142h-497zM450 765l-120 176h149l70 -176h-99zM280 765l-137 176h150l85 -176h-98z" />
    <glyph glyph-name="uni0205" unicode="&#x205;" horiz-adv-x="556" 
d="M291 -11q-79 0 -138 28.5t-92 80.5t-33 121q0 85 37.5 149t101.5 99.5t144 35.5q84 0 135.5 -35.5t71.5 -96.5t10 -135l-4 -26h-331q2 -44 33 -67t85 -23q41 0 80.5 11.5t68.5 32.5l37 -116q-37 -28 -90.5 -43.5t-115.5 -15.5zM309 387q-45 0 -70.5 -27t-34.5 -66h189
q2 41 -18.5 67t-65.5 26zM385 557l-76 205h141l26 -205h-91zM211 557l-76 205h141l26 -205h-91z" />
    <glyph glyph-name="uni0206" unicode="&#x206;" horiz-adv-x="614" 
d="M26 0l111 705h498l-22 -142h-323l-21 -134h300l-23 -142h-300l-23 -145h322l-22 -142h-497zM309 760l-94 12q11 79 68 125.5t144 46.5q85 0 135 -48.5t51 -123.5l-97 -12q0 40 -25 62.5t-70 22.5t-74.5 -22.5t-37.5 -62.5z" />
    <glyph glyph-name="uni0207" unicode="&#x207;" horiz-adv-x="556" 
d="M291 -11q-79 0 -138 28.5t-92 80.5t-33 121q0 85 37.5 149t101.5 99.5t144 35.5q84 0 135.5 -35.5t71.5 -96.5t10 -135l-4 -26h-331q2 -44 33 -67t85 -23q41 0 80.5 11.5t68.5 32.5l37 -116q-37 -28 -90.5 -43.5t-115.5 -15.5zM309 387q-45 0 -70.5 -27t-34.5 -66h189
q2 41 -18.5 67t-65.5 26zM251 553l-94 8q8 90 61.5 144t133.5 54q79 0 124.5 -54.5t40.5 -143.5l-96 -8q1 50 -19 77t-57 27t-61.5 -27t-32.5 -77z" />
    <glyph glyph-name="uni0208" unicode="&#x208;" horiz-adv-x="312" 
d="M25 0l112 705h184l-112 -705h-184zM274 765l-120 176h149l70 -176h-99zM104 765l-137 176h150l85 -176h-98z" />
    <glyph glyph-name="uni0209" unicode="&#x209;" horiz-adv-x="281" 
d="M13 0l78 492h178l-78 -492h-178zM234 557l-76 205h141l26 -205h-91zM60 557l-76 205h141l26 -205h-91z" />
    <glyph glyph-name="uni020A" unicode="&#x20a;" horiz-adv-x="312" 
d="M25 0l112 705h184l-112 -705h-184zM133 760l-94 12q11 79 68 125.5t144 46.5q85 0 135 -48.5t51 -123.5l-97 -12q0 40 -25 62.5t-70 22.5t-74.5 -22.5t-37.5 -62.5z" />
    <glyph glyph-name="uni020B" unicode="&#x20b;" horiz-adv-x="281" 
d="M13 0l78 492h178l-78 -492h-178zM100 553l-94 8q8 90 61.5 144t133.5 54q79 0 124.5 -54.5t40.5 -143.5l-96 -8q1 50 -19 77t-57 27t-61.5 -27t-32.5 -77z" />
    <glyph glyph-name="uni020C" unicode="&#x20c;" horiz-adv-x="807" 
d="M396 -11q-101 0 -176 37.5t-116.5 108t-41.5 170.5q0 122 48 214.5t134.5 144.5t200.5 52q101 0 176 -37.5t116.5 -108t41.5 -169.5q0 -123 -48 -215.5t-134 -144.5t-201 -52zM398 143q60 0 102.5 32t65.5 89.5t23 132.5q0 84 -39.5 124.5t-107.5 40.5q-59 0 -101.5 -32
t-65 -89.5t-22.5 -132.5q0 -84 39 -124.5t106 -40.5zM507 765l-120 176h149l70 -176h-99zM337 765l-137 176h150l85 -176h-98z" />
    <glyph glyph-name="uni020D" unicode="&#x20d;" horiz-adv-x="602" 
d="M282 -11q-121 0 -187 63t-66 167q0 71 24.5 124.5t66 89t93.5 53t107 17.5q120 0 186.5 -63t66.5 -166q0 -72 -24.5 -125.5t-66 -89t-93.5 -53t-107 -17.5zM285 120q51 0 80 45t29 114q0 45 -20.5 69t-57.5 24q-50 0 -79 -44.5t-29 -114.5q0 -45 20.5 -69t56.5 -24z
M395 557l-76 205h141l26 -205h-91zM221 557l-76 205h141l26 -205h-91z" />
    <glyph glyph-name="uni020E" unicode="&#x20e;" horiz-adv-x="807" 
d="M396 -11q-101 0 -176 37.5t-116.5 108t-41.5 170.5q0 122 48 214.5t134.5 144.5t200.5 52q101 0 176 -37.5t116.5 -108t41.5 -169.5q0 -123 -48 -215.5t-134 -144.5t-201 -52zM398 143q60 0 102.5 32t65.5 89.5t23 132.5q0 84 -39.5 124.5t-107.5 40.5q-59 0 -101.5 -32
t-65 -89.5t-22.5 -132.5q0 -84 39 -124.5t106 -40.5zM366 760l-94 12q11 79 68 125.5t144 46.5q85 0 135 -48.5t51 -123.5l-97 -12q0 40 -25 62.5t-70 22.5t-74.5 -22.5t-37.5 -62.5z" />
    <glyph glyph-name="uni020F" unicode="&#x20f;" horiz-adv-x="602" 
d="M282 -11q-121 0 -187 63t-66 167q0 71 24.5 124.5t66 89t93.5 53t107 17.5q120 0 186.5 -63t66.5 -166q0 -72 -24.5 -125.5t-66 -89t-93.5 -53t-107 -17.5zM285 120q51 0 80 45t29 114q0 45 -20.5 69t-57.5 24q-50 0 -79 -44.5t-29 -114.5q0 -45 20.5 -69t56.5 -24z
M261 553l-94 8q8 90 61.5 144t133.5 54q79 0 124.5 -54.5t40.5 -143.5l-96 -8q1 50 -19 77t-57 27t-61.5 -27t-32.5 -77z" />
    <glyph glyph-name="uni0210" unicode="&#x210;" horiz-adv-x="706" 
d="M25 0l112 705h303q121 0 185.5 -53.5t64.5 -147.5q0 -100 -52.5 -156.5t-137.5 -74.5q29 -11 49 -35.5t34 -59.5l68 -178h-188l-80 212q-10 28 -26.5 39.5t-45.5 11.5h-60l-42 -263h-184zM271 393h133q111 0 111 94q0 39 -25.5 58t-80.5 19h-111zM462 765l-120 176h149
l70 -176h-99zM292 765l-137 176h150l85 -176h-98z" />
    <glyph glyph-name="uni0211" unicode="&#x211;" horiz-adv-x="434" 
d="M13 0l78 492h173l-14 -86q23 43 63.5 68t95.5 29l48 3l-8 -150l-111 -11q-53 -5 -76 -30t-31 -78l-37 -237h-181zM334 558l-76 205h141l26 -205h-91zM160 558l-76 205h141l26 -205h-91z" />
    <glyph glyph-name="uni0212" unicode="&#x212;" horiz-adv-x="706" 
d="M25 0l112 705h303q121 0 185.5 -53.5t64.5 -147.5q0 -100 -52.5 -156.5t-137.5 -74.5q29 -11 49 -35.5t34 -59.5l68 -178h-188l-80 212q-10 28 -26.5 39.5t-45.5 11.5h-60l-42 -263h-184zM271 393h133q111 0 111 94q0 39 -25.5 58t-80.5 19h-111zM321 760l-94 12
q11 79 68 125.5t144 46.5q85 0 135 -48.5t51 -123.5l-97 -12q0 40 -25 62.5t-70 22.5t-74.5 -22.5t-37.5 -62.5z" />
    <glyph glyph-name="uni0213" unicode="&#x213;" horiz-adv-x="434" 
d="M13 0l78 492h173l-14 -86q23 43 63.5 68t95.5 29l48 3l-8 -150l-111 -11q-53 -5 -76 -30t-31 -78l-37 -237h-181zM200 554l-94 8q8 90 61.5 144t133.5 54q79 0 124.5 -54.5t40.5 -143.5l-96 -8q1 50 -19 77t-57 27t-61.5 -27t-32.5 -77z" />
    <glyph glyph-name="uni0214" unicode="&#x214;" horiz-adv-x="748" 
d="M350 -11q-92 0 -161.5 35.5t-102.5 109t-15 184.5l61 387h183l-63 -397q-12 -78 15.5 -122t96.5 -44q62 0 99.5 34t49.5 105l67 424h181l-66 -415q-23 -146 -103.5 -223.5t-241.5 -77.5zM491 765l-120 176h149l70 -176h-99zM321 765l-137 176h150l85 -176h-98z" />
    <glyph glyph-name="uni0215" unicode="&#x215;" horiz-adv-x="601" 
d="M189 -11q-53 0 -90 22t-53 69t-4 121l46 291h178l-45 -288q-13 -79 49 -79q39 0 65 28t34 78l41 261h178l-78 -492h-174l11 70q-26 -40 -67 -60.5t-91 -20.5zM391 557l-76 205h141l26 -205h-91zM217 557l-76 205h141l26 -205h-91z" />
    <glyph glyph-name="uni0216" unicode="&#x216;" horiz-adv-x="748" 
d="M350 -11q-92 0 -161.5 35.5t-102.5 109t-15 184.5l61 387h183l-63 -397q-12 -78 15.5 -122t96.5 -44q62 0 99.5 34t49.5 105l67 424h181l-66 -415q-23 -146 -103.5 -223.5t-241.5 -77.5zM350 760l-94 12q11 79 68 125.5t144 46.5q85 0 135 -48.5t51 -123.5l-97 -12
q0 40 -25 62.5t-70 22.5t-74.5 -22.5t-37.5 -62.5z" />
    <glyph glyph-name="uni0217" unicode="&#x217;" horiz-adv-x="601" 
d="M189 -11q-53 0 -90 22t-53 69t-4 121l46 291h178l-45 -288q-13 -79 49 -79q39 0 65 28t34 78l41 261h178l-78 -492h-174l11 70q-26 -40 -67 -60.5t-91 -20.5zM257 553l-94 8q8 90 61.5 144t133.5 54q79 0 124.5 -54.5t40.5 -143.5l-96 -8q1 50 -19 77t-57 27t-61.5 -27
t-32.5 -77z" />
    <glyph glyph-name="uni0218" unicode="&#x218;" horiz-adv-x="651" 
d="M303 -11q-78 0 -153 20.5t-133 62.5l60 138q61 -38 125 -54t119 -16q57 0 87.5 18t30.5 47q0 23 -18.5 39t-58.5 24l-115 28q-76 17 -120.5 65t-44.5 119q0 76 41.5 128.5t110 80t147.5 27.5q66 0 134.5 -19t124.5 -60l-63 -131q-45 32 -98.5 45.5t-98.5 13.5
q-55 0 -86.5 -18.5t-31.5 -47.5q0 -45 70 -62l115 -27q82 -19 127 -67.5t45 -116.5q0 -60 -26 -104.5t-70 -74t-101 -44t-119 -14.5zM283 -290l-49 45q18 13 28 26t15 29h-81l19 125h170l-13 -85q-8 -47 -25 -79.5t-64 -60.5z" />
    <glyph glyph-name="uni0219" unicode="&#x219;" horiz-adv-x="496" 
d="M229 -11q-65 0 -124.5 14t-100.5 43l49 113q37 -23 84.5 -36.5t90.5 -13.5q39 0 57 12t18 30q0 13 -9.5 20.5t-31.5 11.5l-89 15q-62 9 -95.5 43.5t-33.5 86.5q0 46 27.5 86t82 64.5t136.5 24.5q45 0 96 -12.5t91 -38.5l-48 -111q-34 22 -73.5 32.5t-75.5 10.5
q-41 0 -60 -13t-19 -32q0 -11 7.5 -19t25.5 -11l89 -14q69 -12 103 -46t34 -85q0 -86 -63.5 -130.5t-167.5 -44.5zM196 -290l-49 45q18 13 28 26t15 29h-81l19 125h170l-13 -85q-8 -47 -25 -79.5t-64 -60.5z" />
    <glyph glyph-name="uni021A" unicode="&#x21a;" horiz-adv-x="644" 
d="M191 0l88 555h-224l24 150h632l-24 -150h-224l-88 -555h-184zM256 -290l-49 45q18 13 28 26t15 29h-81l19 125h170l-13 -85q-8 -47 -25 -79.5t-64 -60.5z" />
    <glyph glyph-name="uni021B" unicode="&#x21b;" horiz-adv-x="426" 
d="M282 -11q-76 0 -124 27t-67 75t-9 110l26 160h-92l21 131h92l22 143h178l-22 -143h142l-21 -131h-142l-25 -153q-6 -41 12.5 -58.5t54.5 -17.5q24 0 53 9l5 -132q-21 -10 -49 -15t-55 -5zM190 -290l-49 45q18 13 28 26t15 29h-81l19 125h170l-13 -85q-8 -47 -25 -79.5
t-64 -60.5z" />
    <glyph glyph-name="uni021F" unicode="&#x21f;" horiz-adv-x="606" 
d="M13 0l112 705h178l-44 -275q54 73 157 73q79 0 122 -50.5t26 -161.5l-46 -291h-178l45 288q6 39 -5.5 59t-45.5 20q-41 0 -67.5 -27.5t-34.5 -77.5l-41 -262h-178zM312 765l-111 176h115l74 -86l85 86h124l-142 -176h-145z" />
    <glyph glyph-name="uni0226" unicode="&#x226;" horiz-adv-x="763" 
d="M-60 0l442 705h146l217 -705h-176l-37 143h-317l-84 -143h-191zM433 513l-135 -229h197l-60 229h-2zM384 778l23 150h159l-23 -150h-159z" />
    <glyph glyph-name="uni0227" unicode="&#x227;" horiz-adv-x="568" 
d="M185 -11q-48 0 -86 22t-60.5 57.5t-22.5 76.5q0 78 67 113.5t208 35.5h68l1 9q6 33 -14.5 52t-66.5 19q-88 0 -172 -48l-33 118q39 26 102.5 42.5t127.5 16.5q91 0 142 -33t68.5 -88.5t6.5 -120.5l-41 -261h-165l11 71q-24 -44 -60.5 -63t-80.5 -19zM247 105q39 0 64 23
t31 60l3 22h-54q-56 0 -80.5 -12.5t-24.5 -40.5q0 -25 17 -38.5t44 -13.5zM252 583l24 150h159l-24 -150h-159z" />
    <glyph glyph-name="uni0228" unicode="&#x228;" horiz-adv-x="614" 
d="M26 0l111 705h498l-22 -142h-323l-21 -134h300l-23 -142h-300l-23 -145h322l-22 -142h-497zM273 -198q-33 0 -63 5.5t-52 17.5l30 70q36 -17 74 -17q51 0 51 23q0 16 -34 16q-17 0 -36 -4l-19 21l26 86h84l-16 -51q44 -1 67.5 -19t23.5 -50q0 -45 -38.5 -71.5
t-97.5 -26.5z" />
    <glyph glyph-name="uni022A" unicode="&#x22a;" horiz-adv-x="807" 
d="M396 -11q-101 0 -176 37.5t-116.5 108t-41.5 170.5q0 122 48 214.5t134.5 144.5t200.5 52q101 0 176 -37.5t116.5 -108t41.5 -169.5q0 -123 -48 -215.5t-134 -144.5t-201 -52zM398 143q60 0 102.5 32t65.5 89.5t23 132.5q0 84 -39.5 124.5t-107.5 40.5q-59 0 -101.5 -32
t-65 -89.5t-22.5 -132.5q0 -84 39 -124.5t106 -40.5zM327 922l15 97h337l-15 -97h-337zM295 776l16 105h149l-17 -105h-148zM501 776l16 105h149l-16 -105h-149z" />
    <glyph glyph-name="uni022B" unicode="&#x22b;" horiz-adv-x="602" 
d="M282 -11q-121 0 -187 63t-66 167q0 71 24.5 124.5t66 89t93.5 53t107 17.5q120 0 186.5 -63t66.5 -166q0 -72 -24.5 -125.5t-66 -89t-93.5 -53t-107 -17.5zM285 120q51 0 80 45t29 114q0 45 -20.5 69t-57.5 24q-50 0 -79 -44.5t-29 -114.5q0 -45 20.5 -69t56.5 -24z
M206 709l15 97h338l-16 -97h-337zM174 563l16 105h149l-17 -105h-148zM380 563l16 105h149l-17 -105h-148z" />
    <glyph glyph-name="uni022C" unicode="&#x22c;" horiz-adv-x="807" 
d="M396 -11q-101 0 -176 37.5t-116.5 108t-41.5 170.5q0 122 48 214.5t134.5 144.5t200.5 52q101 0 176 -37.5t116.5 -108t41.5 -169.5q0 -123 -48 -215.5t-134 -144.5t-201 -52zM398 143q60 0 102.5 32t65.5 89.5t23 132.5q0 84 -39.5 124.5t-107.5 40.5q-59 0 -101.5 -32
t-65 -89.5t-22.5 -132.5q0 -84 39 -124.5t106 -40.5zM328 922l14 97h338l-15 -97h-337zM550 766q-22 0 -43 6t-41 13q-15 6 -28.5 10.5t-25.5 4.5q-44 0 -55 -34l-74 4q8 57 42 86t86 29q22 0 43 -6t40 -13q16 -6 29.5 -10t25.5 -4q44 0 55 34l74 -5q-8 -57 -42 -86t-86 -29
z" />
    <glyph glyph-name="uni022D" unicode="&#x22d;" horiz-adv-x="602" 
d="M282 -11q-121 0 -187 63t-66 167q0 71 24.5 124.5t66 89t93.5 53t107 17.5q120 0 186.5 -63t66.5 -166q0 -72 -24.5 -125.5t-66 -89t-93.5 -53t-107 -17.5zM285 120q51 0 80 45t29 114q0 45 -20.5 69t-57.5 24q-50 0 -79 -44.5t-29 -114.5q0 -45 20.5 -69t56.5 -24z
M204 709l16 97h337l-16 -97h-337zM234 553l-74 4q8 57 41.5 86t85.5 29q23 0 44 -6.5t41 -12.5q15 -6 28.5 -10t25.5 -4q44 0 55 34l74 -4q-8 -58 -41.5 -87t-85.5 -29q-22 0 -43 6t-40 13q-16 6 -30 10.5t-26 4.5q-44 0 -55 -34z" />
    <glyph glyph-name="uni0230" unicode="&#x230;" horiz-adv-x="807" 
d="M396 -11q-101 0 -176 37.5t-116.5 108t-41.5 170.5q0 122 48 214.5t134.5 144.5t200.5 52q101 0 176 -37.5t116.5 -108t41.5 -169.5q0 -123 -48 -215.5t-134 -144.5t-201 -52zM398 143q60 0 102.5 32t65.5 89.5t23 132.5q0 84 -39.5 124.5t-107.5 40.5q-59 0 -101.5 -32
t-65 -89.5t-22.5 -132.5q0 -84 39 -124.5t106 -40.5zM327 922l15 97h337l-15 -97h-337zM398 776l16 105h149l-16 -105h-149z" />
    <glyph glyph-name="uni0231" unicode="&#x231;" horiz-adv-x="602" 
d="M282 -11q-121 0 -187 63t-66 167q0 71 24.5 124.5t66 89t93.5 53t107 17.5q120 0 186.5 -63t66.5 -166q0 -72 -24.5 -125.5t-66 -89t-93.5 -53t-107 -17.5zM285 120q51 0 80 45t29 114q0 45 -20.5 69t-57.5 24q-50 0 -79 -44.5t-29 -114.5q0 -45 20.5 -69t56.5 -24z
M198 709l16 97h337l-16 -97h-337zM269 563l17 105h148l-16 -105h-149z" />
    <glyph glyph-name="uni0232" unicode="&#x232;" horiz-adv-x="645" 
d="M191 0l50 312l-210 393h200l118 -230l191 230h217l-332 -392l-50 -313h-184zM211 796l14 97h368l-15 -97h-367z" />
    <glyph glyph-name="uni0233" unicode="&#x233;" horiz-adv-x="541" 
d="M14 -180l133 215l-128 457h178l64 -279l158 279h182l-407 -672h-180zM143 605l15 97h338l-15 -97h-338z" />
    <glyph glyph-name="uni0237" unicode="&#x237;" horiz-adv-x="287" 
d="M-90 -193l-11 125l50 6q33 3 48.5 18.5t20.5 46.5l78 489h178l-74 -465q-12 -74 -37 -120t-74.5 -69t-131.5 -28z" />
    <glyph glyph-name="uni0253" unicode="&#x253;" horiz-adv-x="620" 
d="M344 -11q-50 0 -89 21.5t-58 61.5l-11 -72h-173l78 498q18 111 79 164.5t181 53.5q23 0 45 -5t37 -11l-40 -126q-10 3 -19 4t-19 1q-74 0 -87 -87l-9 -61q28 35 67 53.5t85 18.5q83 0 132.5 -57.5t49.5 -156.5q0 -86 -31 -154t-87 -107t-131 -39zM306 120q50 0 79 45
t29 114q0 45 -20.5 69t-56.5 24q-51 0 -80 -45t-29 -114q0 -45 20.5 -69t57.5 -24z" />
    <glyph glyph-name="uni0257" unicode="&#x257;" horiz-adv-x="620" 
d="M209 -11q-83 0 -132.5 58t-49.5 156q0 87 31 154.5t87 106.5t131 39q48 0 86 -19.5t58 -57.5l11 72q17 111 77.5 164.5t180.5 53.5q24 0 46 -5t36 -11l-39 -126q-11 3 -19.5 4t-19.5 1q-71 0 -85 -87l-78 -492h-174l11 69q-28 -38 -69 -59t-89 -21zM284 120q50 0 79 45
t29 114q0 45 -20.5 69t-56.5 24q-51 0 -80 -44.5t-29 -114.5q0 -45 20.5 -69t57.5 -24z" />
    <glyph glyph-name="uni0259" unicode="&#x259;" horiz-adv-x="556" 
d="M246 -11q-84 0 -136.5 34.5t-73 94.5t-8.5 135l4 30h329q-3 89 -112 89q-43 0 -83 -13t-70 -34l-36 120q37 28 92.5 43t116.5 15q78 0 136.5 -28.5t90.5 -80t32 -120.5q0 -86 -37.5 -150t-101.5 -99.5t-143 -35.5zM250 104q44 0 67.5 27t32.5 67h-174q-3 -40 16.5 -67
t57.5 -27z" />
    <glyph glyph-name="uni0292" unicode="&#x292;" horiz-adv-x="542" 
d="M202 -191q-77 0 -144.5 17.5t-115.5 53.5l62 116q32 -28 76.5 -41t102.5 -13q56 0 89 23t33 70q0 36 -28.5 57t-89.5 21h-90l13 82l196 165h-265l21 132h458l-19 -118l-181 -148q78 -11 120 -62t42 -115q0 -66 -32 -120.5t-94.5 -87t-153.5 -32.5z" />
    <glyph glyph-name="uni02B9" unicode="&#x2b9;" horiz-adv-x="269" 
d="M100 398l6 307h203l-91 -307h-118z" />
    <glyph glyph-name="uni02BA" unicode="&#x2ba;" horiz-adv-x="515" 
d="M99 398l6 307h204l-91 -307h-119zM346 398l6 307h204l-91 -307h-119z" />
    <glyph glyph-name="uni02BB" unicode="&#x2bb;" horiz-adv-x="500" 
d="M215 560l12 84q7 46 25 79.5t64 62.5l50 -46q-18 -13 -28 -26t-15 -28h80l-19 -126h-169z" />
    <glyph glyph-name="uni02BC" unicode="&#x2bc;" horiz-adv-x="382" 
d="M271 561l-57 41q17 13 26 27.5t13 29.5h-81l20 127h169l-12 -77q-7 -45 -23 -81t-55 -67z" />
    <glyph glyph-name="uni02BE" unicode="&#x2be;" horiz-adv-x="500" 
d="M297 549l11 65q21 1 35.5 16t14.5 37q0 16 -9.5 26.5t-26.5 11.5l11 66q43 -5 69.5 -33t26.5 -68q0 -36 -18.5 -64t-48.5 -43.5t-65 -13.5z" />
    <glyph glyph-name="uni02BF" unicode="&#x2bf;" horiz-adv-x="500" 
d="M298 549q-43 4 -69.5 32t-26.5 69q0 35 18 63t48.5 43.5t65.5 14.5l-11 -66q-21 0 -35.5 -15.5t-14.5 -37.5q0 -15 9.5 -26t26.5 -12z" />
    <glyph glyph-name="circumflex" unicode="&#x2c6;" horiz-adv-x="500" 
d="M108 557l131 205h148l92 -205h-108l-65 113l-90 -113h-108z" />
    <glyph glyph-name="caron" unicode="&#x2c7;" horiz-adv-x="500" 
d="M226 557l-91 205h107l65 -113l90 113h108l-131 -205h-148z" />
    <glyph glyph-name="uni02C8" unicode="&#x2c8;" horiz-adv-x="500" 
d="M252 593l32 206h106l-32 -206h-106z" />
    <glyph glyph-name="uni02C9" unicode="&#x2c9;" horiz-adv-x="500" 
d="M139 605l14 97h338l-15 -97h-337z" />
    <glyph glyph-name="uni02CA" unicode="&#x2ca;" horiz-adv-x="500" 
d="M242 557l129 205h170l-184 -205h-115z" />
    <glyph glyph-name="fourthtofinechinese" unicode="&#x2cb;" horiz-adv-x="500" 
d="M241 557l-142 205h167l90 -205h-115z" />
    <glyph glyph-name="uni02CC" unicode="&#x2cc;" horiz-adv-x="500" 
d="M115 -270l33 206h106l-33 -206h-106z" />
    <glyph glyph-name="breve" unicode="&#x2d8;" horiz-adv-x="500" 
d="M307 553q-79 0 -124.5 54t-40.5 143l96 9q-1 -51 19 -78t57 -27t61.5 27t31.5 78l95 -9q-9 -90 -62 -143.5t-133 -53.5z" />
    <glyph glyph-name="dotaccent" unicode="&#x2d9;" horiz-adv-x="500" 
d="M224 583l24 150h159l-24 -150h-159z" />
    <glyph glyph-name="ring" unicode="&#x2da;" horiz-adv-x="500" 
d="M319 545q-38 0 -69 17t-48.5 46.5t-17.5 66.5t17.5 66.5t48.5 47t69 17.5t68.5 -17.5t48.5 -47t18 -66.5t-18 -66.5t-48.5 -46.5t-68.5 -17zM319 618q24 0 40 16t16 41t-16 41t-40 16q-25 0 -41 -16t-16 -41t16 -41t41 -16z" />
    <glyph glyph-name="ogonek" unicode="&#x2db;" horiz-adv-x="500" 
d="M165 -198q-57 0 -87 26.5t-30 72.5q0 50 34 89.5t86 57.5l43 -48q-32 -12 -45.5 -31.5t-13.5 -38.5q0 -18 14 -29.5t35 -11.5q14 0 26.5 2.5t27.5 7.5l12 -81q-32 -8 -54 -12t-48 -4z" />
    <glyph glyph-name="tilde" unicode="&#x2dc;" horiz-adv-x="500" 
d="M175 577l-82 5q10 80 49 122.5t96 42.5q28 0 47.5 -10t36.5 -21q14 -9 28.5 -15.5t32.5 -6.5q49 0 64 59l81 -6q-9 -79 -48 -122t-96 -43q-29 0 -49.5 10.5t-37.5 21.5q-14 9 -28 15.5t-30 6.5q-49 0 -64 -59z" />
    <glyph glyph-name="hungarumlaut" unicode="&#x2dd;" horiz-adv-x="500" 
d="M338 557l62 205h142l-113 -205h-91zM164 557l63 205h141l-113 -205h-91z" />
    <glyph glyph-name="gravecomb" unicode="&#x300;" 
d="M-46 557l-142 205h165l92 -205h-115z" />
    <glyph glyph-name="acutecomb" unicode="&#x301;" 
d="M-46 557l131 205h171l-187 -205h-115z" />
    <glyph glyph-name="uni0302" unicode="&#x302;" 
d="M-180 557l131 205h148l92 -205h-108l-65 113l-90 -113h-108z" />
    <glyph glyph-name="tildecomb" unicode="&#x303;" 
d="M-113 577l-82 5q10 80 49 122.5t96 42.5q28 0 47.5 -10t36.5 -21q14 -9 28.5 -15.5t32.5 -6.5q49 0 64 59l81 -6q-9 -79 -48 -122t-96 -43q-29 0 -49.5 10.5t-37.5 21.5q-14 9 -28 15.5t-30 6.5q-49 0 -64 -59z" />
    <glyph glyph-name="uni0304" unicode="&#x304;" 
d="M-149 605l15 97h338l-15 -97h-338z" />
    <glyph glyph-name="uni0306" unicode="&#x306;" 
d="M19 553q-79 0 -124.5 54t-40.5 143l96 9q-1 -51 19 -78t57 -27t61.5 27t31.5 78l95 -9q-9 -90 -62 -143.5t-133 -53.5z" />
    <glyph glyph-name="uni0307" unicode="&#x307;" 
d="M-64 583l24 150h159l-24 -150h-159z" />
    <glyph glyph-name="uni0308" unicode="&#x308;" 
d="M45 582l23 150h149l-23 -150h-149zM-161 582l23 150h148l-22 -150h-149z" />
    <glyph glyph-name="hookabovecomb" unicode="&#x309;" 
d="M-44 557l4 23q4 25 18 39.5t27 26t13 26.5q0 11 -9.5 15.5t-22.5 4.5q-30 0 -60 -15l-19 68q51 26 127 26q53 0 83 -18.5t30 -51.5q0 -27 -12 -44t-28 -28.5t-29.5 -24t-17.5 -31.5l-3 -16h-101z" />
    <glyph glyph-name="uni030A" unicode="&#x30a;" 
d="M31 545q-38 0 -69 17t-48.5 46.5t-17.5 66.5t17.5 66.5t48.5 47t69 17.5t68.5 -17.5t48.5 -47t18 -66.5t-18 -66.5t-48.5 -46.5t-68.5 -17zM31 618q24 0 40 16t16 41t-16 41t-40 16q-25 0 -41 -16t-16 -41t16 -41t41 -16z" />
    <glyph glyph-name="uni030B" unicode="&#x30b;" 
d="M50 557l62 205h142l-113 -205h-91zM-124 557l63 205h141l-113 -205h-91z" />
    <glyph glyph-name="uni030C" unicode="&#x30c;" 
d="M-62 557l-91 205h107l65 -113l90 113h108l-131 -205h-148z" />
    <glyph glyph-name="uni030F" unicode="&#x30f;" 
d="M56 557l-76 205h141l26 -205h-91zM-118 557l-76 205h141l26 -205h-91z" />
    <glyph glyph-name="uni0311" unicode="&#x311;" 
d="M-78 553l-94 8q8 90 61.5 144t133.5 54q79 0 124.5 -54.5t40.5 -143.5l-96 -8q1 50 -19 77t-57 27t-61.5 -27t-32.5 -77z" />
    <glyph glyph-name="uni0312" unicode="&#x312;" 
d="M-72 560l13 85q7 47 24 79.5t64 61.5l50 -46q-19 -13 -29 -26t-15 -28h82l-20 -126h-169z" />
    <glyph glyph-name="uni031B" unicode="&#x31b;" 
d="M101 412l-102 65l3 15q27 0 45 7t30 28t19 62l4 27h154l-8 -49q-10 -60 -48 -103.5t-97 -51.5z" />
    <glyph glyph-name="dotbelowcomb" unicode="&#x323;" 
d="M-115 -224l23 149h159l-23 -149h-159z" />
    <glyph glyph-name="uni0324" unicode="&#x324;" 
d="M-4 -205l24 149h149l-24 -149h-149zM-210 -205l24 149h148l-23 -149h-149z" />
    <glyph glyph-name="uni0326" unicode="&#x326;" 
d="M-28 -290l-49 45q18 13 28 26t15 29h-81l19 125h170l-13 -85q-8 -47 -25 -79.5t-64 -60.5z" />
    <glyph glyph-name="uni0327" unicode="&#x327;" 
d="M-25 -198q-33 0 -63 5.5t-52 17.5l30 70q36 -17 74 -17q51 0 51 23q0 16 -34 16q-17 0 -36 -4l-19 21l26 86h84l-16 -51q44 -1 67.5 -19t23.5 -50q0 -45 -38.5 -71.5t-97.5 -26.5z" />
    <glyph glyph-name="uni0328" unicode="&#x328;" 
d="M-46 -198q-57 0 -87 26.5t-30 72.5q0 50 34 89.5t86 57.5l43 -48q-32 -12 -45.5 -31.5t-13.5 -38.5q0 -18 14 -29.5t35 -11.5q14 0 26.5 2.5t27.5 7.5l12 -81q-32 -8 -54 -12t-48 -4z" />
    <glyph glyph-name="uni032E" unicode="&#x32e;" 
d="M-20 -215q-80 0 -127.5 43t-41.5 114l95 9q1 -31 21.5 -49t57.5 -18t60.5 18t30.5 49l95 -9q-8 -71 -59.5 -114t-131.5 -43z" />
    <glyph glyph-name="uni0331" unicode="&#x331;" 
d="M-196 -175l15 97h338l-16 -97h-337z" />
    <glyph glyph-name="uni0335" unicode="&#x335;" 
d="M-231 537l19 121h444l-19 -121h-444z" />
    <glyph glyph-name="uni0337" unicode="&#x337;" 
d="M-166 204l-55 123l387 188l55 -123z" />
    <glyph glyph-name="uni0338" unicode="&#x338;" 
d="M-172 -58l-74 51l420 561l73 -50z" />
    <glyph glyph-name="uni0394" unicode="&#x394;" horiz-adv-x="763" 
d="M-5 0l16 99l370 606h145l179 -606l-10 -99h-700zM428 514l-216 -372h317l-99 372h-2z" />
    <glyph glyph-name="Sigma" unicode="&#x3a3;" horiz-adv-x="600" 
d="M-45 -180l21 128l299 328l-200 301l20 128h555l-23 -149h-342l166 -248l-15 -91l-225 -248h323l-24 -149h-555z" />
    <glyph glyph-name="uni03A9" unicode="&#x3a9;" horiz-adv-x="824" 
d="M-7 0l23 147h165q-60 47 -90 104.5t-30 115.5q0 113 51 191t140.5 118t205.5 40q72 0 135 -19.5t111 -55.5t75 -85.5t27 -109.5q0 -105 -46.5 -179t-129.5 -120h146l-23 -147h-331l22 143q76 42 123.5 107.5t47.5 149.5q0 76 -42 119t-121 43q-98 0 -149 -57t-51 -148
q0 -55 23.5 -110.5t71.5 -103.5l-23 -143h-331z" />
    <glyph glyph-name="uni03BC" unicode="&#x3bc;" horiz-adv-x="601" 
d="M-18 -180l106 672h178l-45 -288q-13 -79 49 -79q39 0 65 28t34 78l41 261h178l-78 -492h-174l14 90h-1q-14 -49 -39 -75t-58 -26q-53 0 -72 40h-1l-19 -209h-178z" />
    <glyph glyph-name="pi" unicode="&#x3c0;" horiz-adv-x="656" 
d="M515 -11q-60 0 -103 26.5t-63 75.5t-9 115l24 155h-73q-19 -108 -45.5 -192t-69.5 -169h-181q34 78 57 139t38 114.5t25 107.5h-93l20 131h619l-21 -131h-98l-19 -123q-10 -59 4.5 -84t64.5 -26q8 0 18 0.5t20 1.5l-29 -137q-22 -2 -42 -3t-44 -1z" />
    <glyph glyph-name="uni0400" unicode="&#x400;" horiz-adv-x="614" 
d="M26 0l111 705h498l-22 -142h-323l-21 -134h300l-23 -142h-300l-23 -145h322l-22 -142h-497zM353 765l-159 176h175l106 -176h-122z" />
    <glyph glyph-name="uni0401" unicode="&#x401;" horiz-adv-x="614" 
d="M26 0l111 705h498l-22 -142h-323l-21 -134h300l-23 -142h-300l-23 -145h322l-22 -142h-497zM443 771l24 149h148l-24 -149h-148zM237 771l23 149h149l-24 -149h-148z" />
    <glyph glyph-name="uni0402" unicode="&#x402;" horiz-adv-x="904" 
d="M562 -191q-43 0 -76.5 5.5t-58.5 15.5l29 132q17 -5 36.5 -8t40.5 -3q43 0 73 29.5t38 82.5l11 67q14 84 -22 125t-103 41q-26 0 -56 -4.5t-55 -15.5l-44 -276h-184l88 555h-224l24 150h632l-24 -150h-224l-19 -125q23 8 57 14t70 6q87 0 153.5 -37.5t98.5 -108
t17 -168.5l-10 -65q-20 -126 -90.5 -194t-177.5 -68z" />
    <glyph glyph-name="uni0403" unicode="&#x403;" horiz-adv-x="579" 
d="M25 0l112 705h498l-25 -150h-313l-88 -555h-184zM305 765l130 176h182l-190 -176h-122z" />
    <glyph glyph-name="uni0404" unicode="&#x404;" horiz-adv-x="687" 
d="M405 -11q-98 0 -175.5 36.5t-122 109t-44.5 178.5q0 85 26 158t76.5 128t125 86t171.5 31q72 0 136 -21.5t101 -55.5l-69 -144q-81 61 -172 61q-70 0 -116.5 -35t-68.5 -91h275l-22 -142h-270q8 -68 48.5 -103.5t122.5 -35.5q39 0 81 13t88 43l46 -145q-28 -22 -68 -38
t-84 -24.5t-85 -8.5z" />
    <glyph glyph-name="uni0405" unicode="&#x405;" horiz-adv-x="651" 
d="M303 -11q-78 0 -153 20.5t-133 62.5l60 138q61 -38 125 -54t119 -16q57 0 87.5 18t30.5 47q0 23 -18.5 39t-58.5 24l-115 28q-76 17 -120.5 65t-44.5 119q0 76 41.5 128.5t110 80t147.5 27.5q66 0 134.5 -19t124.5 -60l-63 -131q-45 32 -98.5 45.5t-98.5 13.5
q-55 0 -86.5 -18.5t-31.5 -47.5q0 -45 70 -62l115 -27q82 -19 127 -67.5t45 -116.5q0 -60 -26 -104.5t-70 -74t-101 -44t-119 -14.5z" />
    <glyph glyph-name="uni0406" unicode="&#x406;" horiz-adv-x="312" 
d="M25 0l112 705h184l-112 -705h-184z" />
    <glyph glyph-name="uni0407" unicode="&#x407;" horiz-adv-x="312" 
d="M25 0l112 705h184l-112 -705h-184zM267 771l24 149h148l-24 -149h-148zM61 771l23 149h149l-24 -149h-148z" />
    <glyph glyph-name="uni0408" unicode="&#x408;" horiz-adv-x="390" 
d="M-35 -11l5 147l85 5q37 2 57 20t27 59l77 485h183l-79 -497q-11 -67 -37.5 -113t-78 -71t-136.5 -30z" />
    <glyph glyph-name="uni0409" unicode="&#x409;" horiz-adv-x="1137" 
d="M77 -19l-86 131q58 32 98.5 75t67.5 112t44 177l36 229h533l-44 -274h126q85 0 141.5 -26t84 -70t27.5 -100q0 -114 -73.5 -174.5t-215.5 -60.5h-341l88 555h-181l-20 -127q-28 -182 -98 -288t-187 -159zM680 139h140q111 0 111 85q0 35 -23 51.5t-81 16.5h-123z" />
    <glyph glyph-name="uni040A" unicode="&#x40a;" horiz-adv-x="1163" 
d="M25 0l112 705h184l-43 -272h290l44 272h183l-44 -274h126q86 0 142 -26t83.5 -70t27.5 -100q0 -114 -73 -174.5t-216 -60.5h-341l44 282h-290l-45 -282h-184zM706 139h139q111 0 111 85q0 35 -22.5 51.5t-81.5 16.5h-122z" />
    <glyph glyph-name="uni040B" unicode="&#x40b;" horiz-adv-x="887" 
d="M191 0l88 555h-224l24 150h632l-24 -150h-224l-20 -125q23 8 57.5 14t70.5 6q88 0 150 -37t90 -107t12 -168l-21 -138h-184l23 140q13 84 -15 120t-96 36q-26 0 -56 -4.5t-55 -15.5l-44 -276h-184z" />
    <glyph glyph-name="uni040C" unicode="&#x40c;" horiz-adv-x="716" 
d="M25 0l112 705h184l-45 -282h69l213 282h200l-249 -325q26 -20 44.5 -50t33.5 -72l95 -258h-188l-69 198q-14 40 -38 57.5t-69 17.5h-66l-43 -273h-184zM373 765l130 176h182l-190 -176h-122z" />
    <glyph glyph-name="uni040D" unicode="&#x40d;" horiz-adv-x="758" 
d="M25 0l112 705h171l-62 -397l385 397h135l-112 -705h-170l63 399l-387 -399h-135zM396 765l-159 176h175l106 -176h-122z" />
    <glyph glyph-name="uni040E" unicode="&#x40e;" horiz-adv-x="681" 
d="M113 0l147 223l-216 482h184l139 -322l213 322h197l-467 -705h-197zM408 760q-64 0 -105 20t-64 54t-30 76l86 27q14 -46 42 -66t78 -20q51 0 82.5 22.5t49.5 62.5l78 -26q-19 -67 -76 -108.5t-141 -41.5z" />
    <glyph glyph-name="uni040F" unicode="&#x40f;" horiz-adv-x="779" 
d="M243 -175l28 175h-246l112 705h184l-88 -555h283l88 555h184l-112 -705h-246l-28 -175h-159z" />
    <glyph glyph-name="uni0410" unicode="&#x410;" horiz-adv-x="763" 
d="M-60 0l442 705h146l217 -705h-176l-37 143h-317l-84 -143h-191zM433 513l-135 -229h197l-60 229h-2z" />
    <glyph glyph-name="uni0411" unicode="&#x411;" horiz-adv-x="688" 
d="M25 0l112 705h515l-22 -142h-339l-22 -132h135q85 0 141.5 -26t84 -70t27.5 -100q0 -114 -73.5 -174.5t-215.5 -60.5h-343zM223 139h149q111 0 111 85q0 35 -22.5 51.5t-81.5 16.5h-132z" />
    <glyph glyph-name="uni0412" unicode="&#x412;" horiz-adv-x="702" 
d="M25 0l112 705h318q83 0 134 -22.5t74 -61t23 -86.5q0 -65 -37.5 -110t-99.5 -63q50 -19 77.5 -58.5t27.5 -92.5q0 -102 -72 -156.5t-194 -54.5h-363zM268 425h135q108 0 108 87q0 28 -21 43t-66 15h-133zM222 135h155q52 0 77 23t25 65q0 67 -89 67h-143z" />
    <glyph glyph-name="uni0413" unicode="&#x413;" horiz-adv-x="579" 
d="M25 0l112 705h498l-25 -150h-313l-88 -555h-184z" />
    <glyph glyph-name="uni0414" unicode="&#x414;" horiz-adv-x="824" 
d="M-56 -175l50 317h72q51 52 85.5 142t56.5 226l30 195h537l-89 -563h100l-51 -317h-159l28 175h-473l-28 -175h-159zM255 142h247l68 421h-185l-11 -65q-20 -124 -46.5 -212.5t-72.5 -143.5z" />
    <glyph glyph-name="uni0415" unicode="&#x415;" horiz-adv-x="614" 
d="M26 0l111 705h498l-22 -142h-323l-21 -134h300l-23 -142h-300l-23 -145h322l-22 -142h-497z" />
    <glyph glyph-name="uni0416" unicode="&#x416;" horiz-adv-x="1069" 
d="M-44 0l161 258q61 97 146 135l-149 312h190l125 -282h46l45 282h175l-45 -282h48l213 282h204l-257 -323q27 -20 46 -50.5t35 -73.5l96 -258h-188l-69 198q-14 40 -38.5 57.5t-68.5 17.5h-44l-43 -273h-176l44 273h-44q-45 0 -75 -17.5t-55 -57.5l-123 -198h-199z" />
    <glyph glyph-name="uni0417" unicode="&#x417;" horiz-adv-x="628" 
d="M289 -11q-72 0 -145 20t-132 66l64 129q42 -34 97.5 -49t108.5 -15q29 0 57 8t46 26t18 47q0 66 -86 66h-171l23 141h160q48 0 76.5 18t28.5 56q0 33 -23 48t-74 15q-55 0 -105 -14.5t-93 -40.5l-54 134q58 35 130.5 53.5t147.5 18.5q80 0 135.5 -24.5t84 -65.5t28.5 -90
q0 -66 -37.5 -111t-99.5 -63q50 -18 77.5 -58t27.5 -93q0 -105 -77 -163.5t-213 -58.5z" />
    <glyph glyph-name="uni0418" unicode="&#x418;" horiz-adv-x="758" 
d="M25 0l112 705h171l-62 -397l385 397h135l-112 -705h-170l63 399l-387 -399h-135z" />
    <glyph glyph-name="uni0419" unicode="&#x419;" horiz-adv-x="758" 
d="M25 0l112 705h171l-62 -397l385 397h135l-112 -705h-170l63 399l-387 -399h-135zM453 760q-64 0 -105 20t-64 54t-30 76l86 27q14 -46 42 -66t78 -20q51 0 82.5 22.5t49.5 62.5l78 -26q-19 -67 -76 -108.5t-141 -41.5z" />
    <glyph glyph-name="uni041A" unicode="&#x41a;" horiz-adv-x="716" 
d="M25 0l112 705h184l-45 -282h69l213 282h200l-249 -325q26 -20 44.5 -50t33.5 -72l95 -258h-188l-69 198q-14 40 -38 57.5t-69 17.5h-66l-43 -273h-184z" />
    <glyph glyph-name="uni041B" unicode="&#x41b;" horiz-adv-x="765" 
d="M70 -19l-79 131q58 32 98.5 75t67.5 112t44 177l36 229h537l-112 -705h-184l88 555h-184l-20 -127q-30 -182 -100 -288t-192 -159z" />
    <glyph glyph-name="uni041C" unicode="&#x41c;" horiz-adv-x="884" 
d="M27 0l112 705h145l160 -408l289 408h158l-112 -705h-166l61 385l-202 -281h-99l-119 277l-61 -381h-166z" />
    <glyph glyph-name="uni041D" unicode="&#x41d;" horiz-adv-x="786" 
d="M25 0l112 705h184l-43 -272h290l44 272h183l-112 -705h-183l44 282h-290l-45 -282h-184z" />
    <glyph glyph-name="uni041E" unicode="&#x41e;" horiz-adv-x="807" 
d="M396 -11q-101 0 -176 37.5t-116.5 108t-41.5 170.5q0 122 48 214.5t134.5 144.5t200.5 52q101 0 176 -37.5t116.5 -108t41.5 -169.5q0 -123 -48 -215.5t-134 -144.5t-201 -52zM398 143q60 0 102.5 32t65.5 89.5t23 132.5q0 84 -39.5 124.5t-107.5 40.5q-59 0 -101.5 -32
t-65 -89.5t-22.5 -132.5q0 -84 39 -124.5t106 -40.5z" />
    <glyph glyph-name="uni041F" unicode="&#x41f;" horiz-adv-x="779" 
d="M25 0l112 705h651l-112 -705h-184l88 555h-283l-88 -555h-184z" />
    <glyph glyph-name="uni0420" unicode="&#x420;" horiz-adv-x="676" 
d="M25 0l112 705h298q128 0 191.5 -54.5t63.5 -149.5q0 -124 -75.5 -191t-218.5 -67h-148l-39 -243h-184zM270 384h133q112 0 112 101q0 79 -105 79h-112z" />
    <glyph glyph-name="uni0421" unicode="&#x421;" horiz-adv-x="687" 
d="M405 -11q-98 0 -175.5 36.5t-122 109t-44.5 178.5q0 85 26 158t76.5 128t125 86t171.5 31q72 0 136 -21.5t101 -55.5l-69 -144q-81 61 -172 61q-67 0 -111.5 -31.5t-67 -85t-22.5 -119.5q0 -88 41 -129.5t129 -41.5q39 0 81 13t88 43l46 -145q-28 -22 -68 -38t-84 -24.5
t-85 -8.5z" />
    <glyph glyph-name="uni0422" unicode="&#x422;" horiz-adv-x="644" 
d="M191 0l88 555h-224l24 150h632l-24 -150h-224l-88 -555h-184z" />
    <glyph glyph-name="uni0423" unicode="&#x423;" horiz-adv-x="681" 
d="M113 0l147 223l-216 482h184l139 -322l213 322h197l-467 -705h-197z" />
    <glyph glyph-name="uni0424" unicode="&#x424;" horiz-adv-x="932" 
d="M331 -28l13 83q-127 11 -203.5 80.5t-76.5 189.5q0 92 41.5 168.5t125 122.5t209.5 46l12 76h184l-13 -82q127 -11 203.5 -80t76.5 -190q0 -92 -41.5 -168.5t-125 -122.5t-210.5 -46l-12 -77h-183zM250 331q0 -62 25 -97.5t92 -42.5l53 336q-62 -3 -99 -30.5t-54 -71
t-17 -94.5zM717 380q0 63 -25 98.5t-92 42.5l-54 -337q62 3 99.5 30.5t54.5 71t17 94.5z" />
    <glyph glyph-name="uni0425" unicode="&#x425;" horiz-adv-x="698" 
d="M-64 0l322 364l-205 341h200l128 -226l187 226h224l-317 -357l210 -348h-203l-134 231l-189 -231h-223z" />
    <glyph glyph-name="uni0426" unicode="&#x426;" horiz-adv-x="837" 
d="M589 -175l28 175h-592l112 705h184l-88 -555h283l88 555h184l-88 -555h100l-51 -325h-160z" />
    <glyph glyph-name="uni0427" unicode="&#x427;" horiz-adv-x="721" 
d="M434 0l39 248q-23 -9 -57.5 -15t-70.5 -6q-85 0 -147 38t-90.5 108t-13.5 166l26 166h184l-27 -168q-13 -84 14.5 -120t95.5 -36q26 0 56 5t54 15l49 304h184l-112 -705h-184z" />
    <glyph glyph-name="uni0428" unicode="&#x428;" horiz-adv-x="1090" 
d="M25 0l112 705h181l-88 -555h210l88 555h180l-88 -555h210l88 555h181l-112 -705h-962z" />
    <glyph glyph-name="uni0429" unicode="&#x429;" horiz-adv-x="1148" 
d="M900 -175l28 175h-903l112 705h181l-88 -555h209l88 555h181l-88 -555h210l88 555h180l-88 -555h101l-52 -325h-159z" />
    <glyph glyph-name="uni042A" unicode="&#x42a;" horiz-adv-x="826" 
d="M163 0l88 555h-195l23 150h380l-44 -274h125q86 0 142 -26t83.5 -70t27.5 -100q0 -114 -72 -174.5t-214 -60.5h-344zM369 139h139q111 0 111 85q0 35 -22.5 51.5t-81.5 16.5h-122z" />
    <glyph glyph-name="uni042B" unicode="&#x42b;" horiz-adv-x="957" 
d="M25 0l112 705h184l-44 -274h101q85 0 141 -26t83.5 -70t27.5 -100q0 -114 -73 -174.5t-215 -60.5h-317zM670 0l112 705h183l-112 -705h-183zM231 139h115q110 0 110 85q0 35 -22.5 51.5t-81.5 16.5h-97z" />
    <glyph glyph-name="uni042C" unicode="&#x42c;" horiz-adv-x="688" 
d="M25 0l112 705h184l-44 -274h126q85 0 141 -26t84 -70t28 -100q0 -114 -72 -174.5t-214 -60.5h-345zM231 139h140q110 0 110 85q0 35 -22.5 51.5t-80.5 16.5h-123z" />
    <glyph glyph-name="uni042D" unicode="&#x42d;" horiz-adv-x="687" 
d="M259 -11q-72 0 -136 22t-101 55l69 144q81 -61 172 -61q76 0 123.5 38.5t66.5 100.5h-277l22 142h265q-8 61 -46 93.5t-119 32.5q-39 0 -83 -13t-90 -43l-46 145q28 22 69 38t86 24.5t87 8.5q97 0 173 -36.5t119.5 -108.5t43.5 -179q0 -85 -25.5 -158t-76 -128t-125 -86
t-171.5 -31z" />
    <glyph glyph-name="uni042E" unicode="&#x42e;" horiz-adv-x="1087" 
d="M680 -11q-96 0 -167.5 35t-113 100.5t-47.5 157.5h-98l-45 -282h-184l112 705h184l-43 -272h89q22 86 72.5 149.5t124.5 98.5t165 35q99 0 173 -37.5t115.5 -108t41.5 -169.5q0 -123 -48 -215.5t-133 -144.5t-198 -52zM682 143q58 0 99.5 32t64 89.5t22.5 132.5
q0 84 -38.5 124.5t-103.5 40.5q-57 0 -98.5 -32t-63.5 -89.5t-22 -132.5q0 -84 38 -124.5t102 -40.5z" />
    <glyph glyph-name="uni042F" unicode="&#x42f;" horiz-adv-x="710" 
d="M-19 0l138 200q23 35 49.5 55t58.5 26q-65 21 -100 68.5t-35 117.5q0 83 36.5 135.5t99.5 77.5t143 25h348l-112 -705h-184l42 263h-46q-23 0 -43.5 -9t-34.5 -30l-154 -224h-206zM374 393h112l27 171h-134q-111 0 -111 -94q0 -39 25.5 -58t80.5 -19z" />
    <glyph glyph-name="uni0430" unicode="&#x430;" horiz-adv-x="586" 
d="M194 -11q-48 0 -86 22t-60.5 57.5t-22.5 76.5q0 78 67 113.5t208 35.5h68l1 9q6 33 -14.5 52t-66.5 19q-88 0 -172 -48l-33 118q39 26 102.5 42.5t127.5 16.5q91 0 142 -33t68.5 -88.5t6.5 -120.5l-41 -261h-165l11 71q-24 -44 -60.5 -63t-80.5 -19zM256 105q39 0 64 23
t31 60l3 22h-54q-56 0 -80.5 -12.5t-24.5 -40.5q0 -25 17 -38.5t44 -13.5z" />
    <glyph glyph-name="uni0431" unicode="&#x431;" horiz-adv-x="619" 
d="M294 -11q-98 0 -157.5 41.5t-81.5 113.5t-8 162l11 70q17 103 58 165.5t109.5 97.5t164.5 56l139 32l36 -138l-176 -37q-70 -16 -110 -51.5t-50 -100.5l-3 -15q24 39 65 66t106 27q50 0 92.5 -25.5t67.5 -70.5t25 -102q0 -91 -35 -156t-99.5 -100t-153.5 -35zM293 120
q51 0 80.5 38.5t29.5 100.5q0 41 -21 64.5t-57 23.5q-51 0 -80.5 -38.5t-29.5 -98.5q0 -43 21 -66.5t57 -23.5z" />
    <glyph glyph-name="uni0432" unicode="&#x432;" horiz-adv-x="594" 
d="M22 0l77 492h286q63 0 102 -16.5t57 -43t18 -56.5q0 -43 -24 -74.5t-64 -45.5q76 -23 76 -104q0 -70 -56 -111t-165 -41h-307zM232 303h112q26 0 42.5 13.5t16.5 37.5q0 18 -12.5 27t-34.5 9h-110zM201 103h118q71 0 71 56q0 41 -55 41h-119z" />
    <glyph glyph-name="uni0433" unicode="&#x433;" horiz-adv-x="484" 
d="M22 0l77 492h405l-21 -137h-227l-56 -355h-178z" />
    <glyph glyph-name="uni0434" unicode="&#x434;" horiz-adv-x="649" 
d="M-35 -130l43 266h62q28 38 45.5 88.5t29.5 134.5l22 133h424l-56 -356h83l-42 -266h-150l21 130h-311l-21 -130h-150zM227 135h142l35 223h-110l-8 -50q-7 -50 -21.5 -96t-37.5 -77z" />
    <glyph glyph-name="uni0435" unicode="&#x435;" horiz-adv-x="574" 
d="M300 -11q-79 0 -138 28.5t-92 80.5t-33 121q0 85 37.5 149t101.5 99.5t144 35.5q84 0 135.5 -35.5t71.5 -96.5t10 -135l-4 -26h-331q2 -44 33 -67t85 -23q41 0 80.5 11.5t68.5 32.5l37 -116q-37 -28 -90.5 -43.5t-115.5 -15.5zM318 387q-45 0 -70.5 -27t-34.5 -66h189
q2 41 -18.5 67t-65.5 26z" />
    <glyph glyph-name="uni0436" unicode="&#x436;" horiz-adv-x="878" 
d="M-52 0l130 199q17 25 39 46t47 33l-112 214h180l92 -174h38l27 174h178l-27 -174h36l148 174h188l-192 -231q16 -14 28.5 -32t21.5 -39l82 -190h-180l-62 140q-10 23 -23 32.5t-33 9.5h-36l-29 -182h-178l29 182h-34q-22 0 -38 -9t-33 -33l-97 -140h-190z" />
    <glyph glyph-name="uni0437" unicode="&#x437;" horiz-adv-x="546" 
d="M224 -11q-69 0 -125.5 16t-93.5 43l53 105q32 -20 81 -31.5t100 -11.5q50 0 77 9.5t27 34.5q0 17 -12.5 25.5t-40.5 8.5h-146l19 120h134q57 0 57 37q0 17 -20 26t-72 9q-86 0 -171 -40l-33 111q45 24 108 38t140 14q97 0 152 -33.5t55 -89.5q0 -44 -24.5 -76t-65.5 -47
q39 -12 59 -39.5t20 -66.5q0 -80 -75 -121t-203 -41z" />
    <glyph glyph-name="uni0438" unicode="&#x438;" horiz-adv-x="628" 
d="M22 0l77 492h160l-41 -261l243 261h146l-78 -492h-160l42 262l-243 -262h-146z" />
    <glyph glyph-name="uni0439" unicode="&#x439;" horiz-adv-x="628" 
d="M22 0l77 492h160l-41 -261l243 261h146l-78 -492h-160l42 262l-243 -262h-146zM362 553q-60 0 -99 21t-60 55t-26 73l82 27q13 -45 39 -65t71 -20t72 22t43 62l80 -26q-18 -66 -71 -107.5t-131 -41.5z" />
    <glyph glyph-name="uni043A" unicode="&#x43a;" horiz-adv-x="599" 
d="M22 0l77 492h178l-27 -174h47l147 174h189l-193 -232q16 -13 29 -31t22 -39l82 -190h-180l-62 140q-11 23 -23.5 32.5t-33.5 9.5h-46l-28 -182h-178z" />
    <glyph glyph-name="uni043B" unicode="&#x43b;" horiz-adv-x="624" 
d="M30 -17l-35 141q59 11 91 54.5t45 130.5l29 183h442l-77 -492h-178l56 356h-103l-10 -61q-17 -103 -46.5 -168.5t-80.5 -100t-133 -43.5z" />
    <glyph glyph-name="uni043C" unicode="&#x43c;" horiz-adv-x="716" 
d="M22 0l77 492h137l115 -245l190 245h154l-78 -492h-156l39 242l-123 -161h-80l-81 166l-39 -247h-155z" />
    <glyph glyph-name="uni043D" unicode="&#x43d;" horiz-adv-x="633" 
d="M22 0l77 492h178l-27 -173h156l27 173h178l-77 -492h-178l29 182h-157l-28 -182h-178z" />
    <glyph glyph-name="uni043E" unicode="&#x43e;" horiz-adv-x="619" 
d="M291 -11q-121 0 -187 63t-66 167q0 71 24.5 124.5t66 89t93.5 53t107 17.5q120 0 186.5 -63t66.5 -166q0 -72 -24.5 -125.5t-66 -89t-93.5 -53t-107 -17.5zM294 120q51 0 80 45t29 114q0 45 -20.5 69t-57.5 24q-50 0 -79 -44.5t-29 -114.5q0 -45 20.5 -69t56.5 -24z" />
    <glyph glyph-name="uni043F" unicode="&#x43f;" horiz-adv-x="630" 
d="M22 0l77 492h509l-77 -492h-178l56 356h-153l-56 -356h-178z" />
    <glyph glyph-name="uni0440" unicode="&#x440;" horiz-adv-x="638" 
d="M-7 -180l107 672h173l-10 -68q28 38 68.5 58.5t88.5 20.5q83 0 132.5 -57.5t49.5 -156.5q0 -86 -31 -154t-87 -107t-131 -39q-48 0 -85.5 19.5t-57.5 56.5l-39 -245h-178zM315 120q50 0 79 45t29 114q0 45 -20.5 69t-56.5 24q-51 0 -80 -45t-29 -114q0 -45 20.5 -69
t57.5 -24z" />
    <glyph glyph-name="uni0441" unicode="&#x441;" horiz-adv-x="502" 
d="M294 -11q-127 0 -192 63t-65 167q0 74 32.5 139t98.5 105t166 40q50 0 96.5 -12.5t77.5 -35.5l-51 -122q-19 16 -49 26t-59 10q-48 0 -76.5 -21.5t-41 -55.5t-12.5 -70q0 -44 24 -71.5t80 -27.5q24 0 52.5 9t51.5 26l36 -123q-29 -23 -77 -34.5t-92 -11.5z" />
    <glyph glyph-name="uni0442" unicode="&#x442;" horiz-adv-x="508" 
d="M126 0l56 353h-156l22 139h491l-23 -139h-156l-56 -353h-178z" />
    <glyph glyph-name="uni0443" unicode="&#x443;" horiz-adv-x="559" 
d="M23 -180l133 215l-128 457h178l64 -279l158 279h182l-407 -672h-180z" />
    <glyph glyph-name="uni0444" unicode="&#x444;" horiz-adv-x="890" 
d="M305 -180l37 236q-25 -36 -59 -51.5t-70 -15.5q-53 0 -93 27.5t-62 75.5t-22 111q0 87 29 155t78.5 106.5t112.5 38.5q91 0 122 -63l42 265h178l-41 -257q25 29 56 42t64 13q53 0 93 -27t62 -75.5t22 -110.5q0 -87 -28.5 -155t-78.5 -107t-113 -39q-82 0 -116 54
l-35 -223h-178zM586 119q40 -1 65 45t25 120q0 41 -16 64.5t-43 24.5q-44 2 -67 -44.5t-23 -119.5q0 -43 16 -66t43 -24zM273 119q44 -1 67 45t23 120q0 42 -16 65t-42 24q-41 1 -66 -45t-25 -120q0 -40 16 -64t43 -25z" />
    <glyph glyph-name="uni0445" unicode="&#x445;" horiz-adv-x="590" 
d="M-53 0l248 256l-157 236h200l76 -124l108 124h209l-230 -244l167 -248h-200l-85 133l-127 -133h-209z" />
    <glyph glyph-name="uni0446" unicode="&#x446;" horiz-adv-x="654" 
d="M430 -130l21 130h-429l77 492h178l-56 -356h141l56 356h178l-56 -356h83l-43 -266h-150z" />
    <glyph glyph-name="uni0447" unicode="&#x447;" horiz-adv-x="600" 
d="M327 0l24 153q-26 -9 -47 -13t-43 -4q-114 0 -167 57t-36 168l21 131h178l-18 -115q-9 -53 7 -76t65 -23q34 0 58 12l32 202h178l-78 -492h-174z" />
    <glyph glyph-name="uni0448" unicode="&#x448;" horiz-adv-x="871" 
d="M21 0l78 492h166l-57 -356h127l57 356h165l-56 -356h126l57 356h165l-77 -492h-751z" />
    <glyph glyph-name="uni0449" unicode="&#x449;" horiz-adv-x="907" 
d="M684 -130l21 130h-684l78 492h166l-57 -356h127l57 356h165l-56 -356h127l56 356h166l-56 -356h82l-42 -266h-150z" />
    <glyph glyph-name="uni044A" unicode="&#x44a;" horiz-adv-x="657" 
d="M105 0l56 353h-135l22 139h313l-23 -148h103q90 0 136 -42.5t46 -109.5q0 -63 -30.5 -106t-82.5 -64.5t-116 -21.5h-289zM301 112h75q39 0 62 16t23 51q0 53 -68 53h-73z" />
    <glyph glyph-name="uni044B" unicode="&#x44b;" horiz-adv-x="831" 
d="M22 0l77 492h178l-23 -148h105q89 0 134.5 -42.5t45.5 -109.5q0 -63 -30.5 -106t-82 -64.5t-114.5 -21.5h-290zM554 0l77 492h178l-77 -492h-178zM217 112h75q39 0 62 16t23 51q0 53 -68 53h-73z" />
    <glyph glyph-name="uni044C" unicode="&#x44c;" horiz-adv-x="573" 
d="M22 0l77 492h178l-23 -148h103q91 0 136.5 -42.5t45.5 -109.5q0 -63 -30.5 -106t-82.5 -64.5t-116 -21.5h-288zM217 112h75q39 0 62 16t23 51q0 53 -68 53h-73z" />
    <glyph glyph-name="uni044D" unicode="&#x44d;" horiz-adv-x="534" 
d="M181 -11q-54 0 -103.5 15t-81.5 41l48 106q25 -17 64.5 -28.5t75.5 -11.5q57 0 90 22.5t49 56.5h-213l18 117h207q-9 34 -38.5 54.5t-85.5 20.5q-31 0 -68 -10.5t-67 -29.5l-36 112q21 14 51.5 25t65 17.5t64.5 6.5q138 0 207 -63t69 -167q0 -74 -34.5 -139t-105 -105
t-176.5 -40z" />
    <glyph glyph-name="uni044E" unicode="&#x44e;" horiz-adv-x="873" 
d="M544 -11q-109 0 -174 52.5t-76 140.5h-69l-29 -182h-174l77 492h175l-27 -173h60q20 61 62.5 102t98 61.5t114.5 20.5q121 0 187 -63t66 -166q0 -72 -24.5 -125.5t-66 -89t-93.5 -53t-107 -17.5zM548 120q50 0 79 45t29 114q0 45 -20.5 69t-56.5 24q-51 0 -80 -44.5
t-29 -114.5q0 -45 20.5 -69t57.5 -24z" />
    <glyph glyph-name="uni044F" unicode="&#x44f;" horiz-adv-x="587" 
d="M-23 0l87 121q38 51 87 68q-50 13 -75 44.5t-25 79.5q0 90 63 134.5t164 44.5h288l-78 -492h-163l24 149h-31q-17 0 -34 -11t-30 -29l-78 -109h-199zM283 261h84l19 119h-86q-39 0 -61 -17.5t-22 -47.5q0 -54 66 -54z" />
    <glyph glyph-name="uni0450" unicode="&#x450;" horiz-adv-x="574" 
d="M300 -11q-79 0 -138 28.5t-92 80.5t-33 121q0 85 37.5 149t101.5 99.5t144 35.5q84 0 135.5 -35.5t71.5 -96.5t10 -135l-4 -26h-331q2 -44 33 -67t85 -23q41 0 80.5 11.5t68.5 32.5l37 -116q-37 -28 -90.5 -43.5t-115.5 -15.5zM318 387q-45 0 -70.5 -27t-34.5 -66h189
q2 41 -18.5 67t-65.5 26zM295 557l-142 205h165l92 -205h-115z" />
    <glyph glyph-name="uni0451" unicode="&#x451;" horiz-adv-x="574" 
d="M300 -11q-79 0 -138 28.5t-92 80.5t-33 121q0 85 37.5 149t101.5 99.5t144 35.5q84 0 135.5 -35.5t71.5 -96.5t10 -135l-4 -26h-331q2 -44 33 -67t85 -23q41 0 80.5 11.5t68.5 32.5l37 -116q-37 -28 -90.5 -43.5t-115.5 -15.5zM318 387q-45 0 -70.5 -27t-34.5 -66h189
q2 41 -18.5 67t-65.5 26zM386 582l23 150h149l-23 -150h-149zM180 582l23 150h148l-22 -150h-149z" />
    <glyph glyph-name="uni0452" unicode="&#x452;" horiz-adv-x="627" 
d="M303 -188l-57 127q40 12 62.5 27t34 38.5t16.5 60.5l34 210q5 39 -6.5 59t-44.5 20q-42 0 -68.5 -27.5t-34.5 -77.5l-39 -249h-178l84 532h-83l19 121h83l9 52h178l-9 -52h183l-19 -121h-183l-18 -115q54 74 157 74q80 0 123 -50.5t25 -162.5l-34 -212
q-9 -59 -30.5 -107.5t-68.5 -85.5t-135 -61z" />
    <glyph glyph-name="uni0453" unicode="&#x453;" horiz-adv-x="484" 
d="M22 0l77 492h405l-21 -137h-227l-56 -355h-178zM235 557l131 205h171l-187 -205h-115z" />
    <glyph glyph-name="uni0454" unicode="&#x454;" horiz-adv-x="535" 
d="M314 -11q-138 0 -207.5 63t-69.5 167q0 74 35 139t105.5 105t176.5 40q54 0 103 -15t81 -40l-47 -107q-25 17 -64 29t-76 12q-55 0 -88 -21.5t-49 -53.5h210l-19 -117h-206q8 -36 38 -58t87 -22q31 0 67.5 10.5t67.5 29.5l35 -112q-31 -20 -82.5 -34.5t-97.5 -14.5z" />
    <glyph glyph-name="uni0455" unicode="&#x455;" horiz-adv-x="514" 
d="M238 -11q-65 0 -124.5 14t-100.5 43l49 113q37 -23 84.5 -36.5t90.5 -13.5q39 0 57 12t18 30q0 13 -9.5 20.5t-31.5 11.5l-89 15q-62 9 -95.5 43.5t-33.5 86.5q0 46 27.5 86t82 64.5t136.5 24.5q45 0 96 -12.5t91 -38.5l-48 -111q-34 22 -73.5 32.5t-75.5 10.5
q-41 0 -60 -13t-19 -32q0 -11 7.5 -19t25.5 -11l89 -14q69 -12 103 -46t34 -85q0 -86 -63.5 -130.5t-167.5 -44.5z" />
    <glyph glyph-name="uni0456" unicode="&#x456;" horiz-adv-x="299" 
d="M109 577l26 161h187l-26 -161h-187zM22 0l78 492h178l-78 -492h-178z" />
    <glyph glyph-name="uni0457" unicode="&#x457;" horiz-adv-x="299" 
d="M22 0l78 492h178l-78 -492h-178zM232 582l23 150h149l-23 -150h-149zM26 582l23 150h148l-22 -150h-149z" />
    <glyph glyph-name="uni0458" unicode="&#x458;" horiz-adv-x="305" 
d="M113 577l26 161h187l-26 -161h-187zM-81 -193l-11 125l50 6q33 3 48.5 18.5t20.5 46.5l78 489h178l-74 -465q-12 -74 -37 -120t-74.5 -69t-131.5 -28z" />
    <glyph glyph-name="uni0459" unicode="&#x459;" horiz-adv-x="894" 
d="M30 -17l-35 141q59 11 91 54.5t45 130.5l29 183h438l-23 -148h104q90 0 135.5 -42.5t45.5 -109.5q0 -63 -30.5 -106t-82.5 -64.5t-116 -21.5h-284l56 356h-103l-10 -61q-17 -103 -46.5 -168.5t-80.5 -100t-133 -43.5zM538 112h76q39 0 61.5 16t22.5 51q0 53 -68 53h-73z
" />
    <glyph glyph-name="uni045A" unicode="&#x45a;" horiz-adv-x="907" 
d="M22 0l77 492h178l-27 -173h156l27 173h178l-23 -148h104q90 0 135.5 -42.5t45.5 -109.5q0 -63 -30.5 -106t-82.5 -64.5t-116 -21.5h-288l29 182h-157l-28 -182h-178zM551 112h76q39 0 61.5 16t22.5 51q0 53 -68 53h-73z" />
    <glyph glyph-name="uni045B" unicode="&#x45b;" horiz-adv-x="624" 
d="M22 0l84 532h-83l19 121h83l9 52h178l-9 -52h183l-19 -121h-183l-18 -115q54 74 157 74q79 0 122 -50.5t26 -162.5l-44 -278h-178l43 275q6 39 -5.5 59t-45.5 20q-41 0 -67.5 -27.5t-34.5 -77.5l-39 -249h-178z" />
    <glyph glyph-name="uni045C" unicode="&#x45c;" horiz-adv-x="599" 
d="M22 0l77 492h178l-27 -174h47l147 174h189l-193 -232q16 -13 29 -31t22 -39l82 -190h-180l-62 140q-11 23 -23.5 32.5t-33.5 9.5h-46l-28 -182h-178zM308 557l131 205h171l-187 -205h-115z" />
    <glyph glyph-name="uni045D" unicode="&#x45d;" horiz-adv-x="628" 
d="M22 0l77 492h160l-41 -261l243 261h146l-78 -492h-160l42 262l-243 -262h-146zM300 557l-142 205h165l92 -205h-115z" />
    <glyph glyph-name="uni045E" unicode="&#x45e;" horiz-adv-x="559" 
d="M23 -180l133 215l-128 457h178l64 -279l158 279h182l-407 -672h-180zM317 553q-60 0 -99 21t-60 55t-26 73l82 27q13 -45 39 -65t71 -20t72 22t43 62l80 -26q-18 -66 -71 -107.5t-131 -41.5z" />
    <glyph glyph-name="uni045F" unicode="&#x45f;" horiz-adv-x="630" 
d="M180 -130l21 130h-179l77 492h178l-56 -356h153l56 356h178l-77 -492h-180l-21 -130h-150z" />
    <glyph glyph-name="uni0462" unicode="&#x462;" horiz-adv-x="767" 
d="M109 0l81 506h-168l21 129h167l11 70h177l-11 -70h235l-21 -129h-234l-12 -75h126q85 0 141.5 -26t84 -70t27.5 -100q0 -114 -73 -174.5t-216 -60.5h-336zM309 139h140q111 0 111 85q0 35 -22.5 51.5t-81.5 16.5h-122z" />
    <glyph glyph-name="uni0463" unicode="&#x463;" horiz-adv-x="657" 
d="M106 0l60 377h-136l19 115h136l33 213h178l-33 -213h167l-18 -115h-168l-9 -58h112q79 0 126.5 -36.5t47.5 -100.5q0 -88 -57 -135t-153 -47h-305zM300 102h80q79 0 79 65q0 26 -17 37.5t-45 11.5h-78z" />
    <glyph glyph-name="uni046A" unicode="&#x46a;" horiz-adv-x="1073" 
d="M-44 0l165 265q48 75 121.5 114.5t155.5 40.5l-197 285h817l-289 -286q79 -10 134.5 -52t79.5 -109l96 -258h-187l-70 198q-14 40 -38.5 57.5t-68.5 17.5h-41l-44 -273h-184l44 273h-42q-45 0 -75 -17.5t-55 -57.5l-123 -198h-199zM557 417h2l165 166h-284z" />
    <glyph glyph-name="uni046B" unicode="&#x46b;" horiz-adv-x="878" 
d="M-52 0l126 179q29 41 54.5 66.5t57 38.5t77.5 14l-136 194h701l-199 -196q55 -6 84 -35.5t54 -81.5l85 -179h-180l-59 120q-12 24 -25 33.5t-34 9.5h-39l-26 -163h-178l26 163h-40q-22 0 -37 -9.5t-33 -33.5l-89 -120h-190zM441 268h2l116 114h-198z" />
    <glyph glyph-name="uni0472" unicode="&#x472;" horiz-adv-x="807" 
d="M396 -11q-101 0 -176 37.5t-116.5 108t-41.5 170.5q0 122 48 214.5t134.5 144.5t200.5 52q101 0 176 -37.5t116.5 -108t41.5 -169.5q0 -123 -48 -215.5t-134 -144.5t-201 -52zM442 562q-63 0 -107.5 -37t-64.5 -100h317q-6 69 -44.5 103t-100.5 34zM398 143
q67 0 112.5 40t64.5 108h-321q4 -75 42 -111.5t102 -36.5z" />
    <glyph glyph-name="uni0473" unicode="&#x473;" horiz-adv-x="619" 
d="M291 -11q-121 0 -187 63t-66 167q0 71 24 124.5t66 89t94 53t107 17.5q120 0 186.5 -63t66.5 -166q0 -72 -24.5 -125.5t-66 -89t-93.5 -53t-107 -17.5zM321 384q-38 0 -66 -21.5t-43 -61.5h208q-9 83 -99 83zM298 108q38 0 66 22t43 62h-208q9 -84 99 -84z" />
    <glyph glyph-name="uni0474" unicode="&#x474;" horiz-adv-x="802" 
d="M259 0l-210 705h183l128 -468l149 263q36 63 70.5 105t73 66t86.5 34.5t112 10.5l6 -149q-51 0 -82.5 -13t-58 -45t-60.5 -89l-251 -420h-146z" />
    <glyph glyph-name="uni0475" unicode="&#x475;" horiz-adv-x="601" 
d="M165 0l-137 492h178l64 -279l81 144q32 57 66 88.5t81 44.5t118 13l2 -141q-47 1 -77.5 -16.5t-55.5 -58.5l-173 -287h-147z" />
    <glyph glyph-name="uni048A" unicode="&#x48a;" horiz-adv-x="793" 
d="M453 760q-63 0 -104.5 20t-64.5 54t-30 76l86 27q14 -46 42 -66t78 -20q51 0 82.5 22.5t49.5 62.5l78 -26q-19 -67 -76 -108.5t-141 -41.5zM474 -175l87 175h-77l63 399l-387 -399h-135l112 705h171l-62 -398l385 398h135l-89 -561h111l-158 -319h-156z" />
    <glyph glyph-name="uni048B" unicode="&#x48b;" horiz-adv-x="665" 
d="M361 553q-59 0 -98.5 21t-60.5 55t-26 73l83 27q12 -45 38.5 -65t71.5 -20t71.5 22t43.5 62l80 -26q-18 -66 -71 -107.5t-132 -41.5zM22 0l77 492h160l-41 -261l243 261h146l-57 -361h100l-129 -261h-147l64 130h-69l42 262l-243 -262h-146z" />
    <glyph glyph-name="uni048C" unicode="&#x48c;" horiz-adv-x="757" 
d="M101 0l80 506h-140l21 129h139l12 70h176l-12 -70h141l-20 -129h-141l-12 -75h126q85 0 141.5 -26t84 -70t27.5 -100q0 -114 -73.5 -174.5t-215.5 -60.5h-334zM299 139h141q110 0 110 85q0 35 -22.5 51.5t-80.5 16.5h-124z" />
    <glyph glyph-name="uni048D" unicode="&#x48d;" horiz-adv-x="657" 
d="M106 0l60 377h-136l19 115h136l33 213h178l-33 -213h167l-18 -115h-168l-9 -58h112q79 0 126.5 -36.5t47.5 -100.5q0 -88 -57 -135t-153 -47h-305zM300 102h80q79 0 79 65q0 26 -17 37.5t-45 11.5h-78z" />
    <glyph glyph-name="uni048E" unicode="&#x48e;" horiz-adv-x="676" 
d="M25 0l112 705h298q128 0 191.5 -54.5t63.5 -149.5q0 -183 -157 -237l33 -59l-76 -46l-46 86q-23 -2 -48 -2h-148l-39 -243h-184zM270 384h101l-29 56l72 42l48 -87q53 22 53 90q0 79 -105 79h-112z" />
    <glyph glyph-name="uni048F" unicode="&#x48f;" horiz-adv-x="638" 
d="M-7 -180l106 672h175l-10 -63q28 35 68 54.5t86 19.5q83 0 133 -57.5t50 -156.5q0 -80 -27 -144.5t-75 -103.5l47 -64l-68 -48l-52 72q-34 -12 -75 -12q-47 0 -84.5 19t-57.5 56l-38 -244h-178zM313 120q13 0 24 3l-52 73l68 49l46 -66q23 40 23 101q0 45 -21 68.5
t-57 23.5q-51 0 -79.5 -45t-28.5 -114q0 -45 20.5 -69t56.5 -24z" />
    <glyph glyph-name="uni0490" unicode="&#x490;" horiz-adv-x="579" 
d="M25 0l112 705h337l27 166h159l-50 -316h-313l-88 -555h-184z" />
    <glyph glyph-name="uni0491" unicode="&#x491;" horiz-adv-x="484" 
d="M22 0l77 492h256l17 110h150l-39 -247h-227l-56 -355h-178z" />
    <glyph glyph-name="uni0492" unicode="&#x492;" horiz-adv-x="628" 
d="M75 0l44 277h-92l20 128h92l47 300h498l-24 -150h-314l-23 -150h173l-20 -128h-173l-45 -277h-183z" />
    <glyph glyph-name="uni0493" unicode="&#x493;" horiz-adv-x="512" 
d="M49 0l24 152h-84l19 121h85l34 219h405l-21 -137h-227l-13 -82h133l-20 -121h-133l-24 -152h-178z" />
    <glyph glyph-name="uni0494" unicode="&#x494;" horiz-adv-x="738" 
d="M396 -191q-43 0 -76.5 5.5t-58.5 15.5l29 132q16 -5 36 -8t41 -3q43 0 73 29.5t38 82.5l11 67q14 84 -22 125t-103 41q-26 0 -56 -4.5t-55 -15.5l-44 -276h-184l112 705h515l-23 -150h-332l-20 -125q24 8 58.5 14t70.5 6q87 0 153 -37.5t98 -108t17 -168.5l-11 -65
q-20 -126 -90.5 -194t-176.5 -68z" />
    <glyph glyph-name="uni0495" unicode="&#x495;" horiz-adv-x="607" 
d="M312 -188l-58 127q40 12 62.5 27t34 38.5t17.5 60.5l6 36q6 39 -7 59t-49 20q-43 0 -71 -27.5t-36 -77.5l-11 -75h-178l77 492h396l-20 -125h-218l-19 -124q27 36 68.5 54.5t92.5 18.5q55 0 94 -22t55.5 -68.5t3.5 -121.5l-6 -38q-10 -59 -31 -107.5t-68 -85.5t-135 -61z
" />
    <glyph glyph-name="uni0496" unicode="&#x496;" horiz-adv-x="1095" 
d="M-44 0l161 258q61 97 146 135l-149 312h190l125 -282h46l45 282h175l-45 -282h48l213 282h204l-257 -323q27 -20 46 -50.5t35 -73.5l42 -114h119l-51 -319h-159l28 175h-71l-69 198q-14 40 -38.5 57.5t-68.5 17.5h-44l-43 -273h-176l44 273h-44q-45 0 -75 -17.5
t-55 -57.5l-123 -198h-199z" />
    <glyph glyph-name="uni0497" unicode="&#x497;" horiz-adv-x="930" 
d="M-52 0l130 199q17 25 39 46t47 33l-112 214h180l92 -174h38l27 174h178l-27 -174h36l148 174h188l-192 -231q16 -14 28.5 -32t21.5 -39l25 -59h96l-41 -261h-150l21 130h-49l-62 140q-10 23 -23 32.5t-33 9.5h-36l-29 -182h-178l29 182h-34q-22 0 -38 -9t-33 -33
l-97 -140h-190z" />
    <glyph glyph-name="uni0498" unicode="&#x498;" horiz-adv-x="628" 
d="M184 -175l26 170q-53 7 -103.5 27t-94.5 53l64 129q42 -34 97.5 -49t108.5 -15q29 0 57 8t46 26t18 47q0 66 -86 66h-171l23 141h160q48 0 76.5 18t28.5 56q0 33 -23 48t-74 15q-55 0 -105 -14.5t-93 -40.5l-54 134q58 35 130.5 53.5t147.5 18.5q80 0 135.5 -24.5
t84 -65.5t28.5 -90q0 -66 -38 -111t-100 -63q51 -18 78.5 -58t27.5 -93q0 -90 -57 -146t-160 -71l-27 -169h-151z" />
    <glyph glyph-name="uni0499" unicode="&#x499;" horiz-adv-x="546" 
d="M164 -130l19 120q-56 5 -101.5 20t-76.5 38l53 105q32 -20 81 -31.5t100 -11.5q50 0 77 9.5t27 34.5q0 17 -12.5 25.5t-40.5 8.5h-146l19 120h134q57 0 57 37q0 17 -20 26t-72 9q-86 0 -171 -40l-33 111q45 24 108 38t140 14q97 0 152 -33.5t55 -89.5q0 -44 -25 -76.5
t-66 -46.5q40 -12 60 -39.5t20 -66.5q0 -64 -48.5 -103t-133.5 -52l-19 -126h-137z" />
    <glyph glyph-name="uni049A" unicode="&#x49a;" horiz-adv-x="766" 
d="M25 0l112 705h184l-45 -282h69l213 282h200l-249 -325q26 -20 44.5 -50t33.5 -72l42 -114h118l-50 -319h-160l28 175h-71l-69 198q-14 40 -38 57.5t-69 17.5h-66l-43 -273h-184z" />
    <glyph glyph-name="uni049B" unicode="&#x49b;" horiz-adv-x="650" 
d="M22 0l77 492h178l-27 -174h47l147 174h189l-193 -232q16 -13 29 -31t22 -39l25 -59h96l-41 -261h-150l21 130h-49l-62 140q-11 23 -23.5 32.5t-33.5 9.5h-46l-28 -182h-178z" />
    <glyph glyph-name="uni049C" unicode="&#x49c;" horiz-adv-x="796" 
d="M25 0l112 705h184l-45 -283h44l26 161h105l-25 -158l212 280h200l-250 -325q27 -20 45 -50t34 -72l94 -258h-187l-68 200q-14 40 -38 58t-65 18l-25 -155h-106l25 155h-44l-44 -276h-184z" />
    <glyph glyph-name="uni049D" unicode="&#x49d;" horiz-adv-x="706" 
d="M22 0l77 492h178l-27 -174h42l17 107h104l-18 -107h9l148 174h188l-192 -231q16 -14 28.5 -32t21.5 -39l82 -190h-180l-62 140q-10 23 -23 32.5t-33 9.5h-8l-18 -116h-104l18 116h-42l-28 -182h-178z" />
    <glyph glyph-name="uni049E" unicode="&#x49e;" horiz-adv-x="790" 
d="M90 0l82 513h-140l19 122h140l11 70h184l-12 -70h108l-19 -122h-107l-15 -90h91l213 282h200l-255 -331q23 -20 40 -49t31 -67l94 -258h-187l-69 198q-14 40 -38.5 57.5t-68.5 17.5h-75l-43 -273h-184z" />
    <glyph glyph-name="uni049F" unicode="&#x49f;" horiz-adv-x="600" 
d="M22 0l84 532h-83l19 121h83l8 52h178l-8 -52h183l-19 -121h-183l-34 -214h47l148 174h189l-193 -231q16 -14 29 -32t22 -39l82 -190h-181l-61 140q-11 23 -23.5 32.5t-33.5 9.5h-46l-29 -182h-178z" />
    <glyph glyph-name="uni04A0" unicode="&#x4a0;" horiz-adv-x="854" 
d="M163 0l88 556h-195l23 149h380l-45 -282h69l213 282h200l-250 -325q27 -20 45 -50t34 -72l94 -258h-187l-69 198q-14 40 -38.5 57.5t-68.5 17.5h-66l-43 -273h-184z" />
    <glyph glyph-name="uni04A1" unicode="&#x4a1;" horiz-adv-x="683" 
d="M106 0l56 353h-136l22 139h314l-27 -174h46l147 174h189l-192 -232q16 -13 28.5 -31t21.5 -39l82 -190h-181l-61 140q-11 23 -23.5 32.5t-33.5 9.5h-45l-29 -182h-178z" />
    <glyph glyph-name="uni04A2" unicode="&#x4a2;" horiz-adv-x="838" 
d="M25 0l112 705h184l-43 -272h290l44 272h183l-89 -561h91l-51 -319h-159l28 175h-115l44 282h-290l-45 -282h-184z" />
    <glyph glyph-name="uni04A3" unicode="&#x4a3;" horiz-adv-x="669" 
d="M446 -130l21 130h-111l29 182h-157l-28 -182h-178l77 492h178l-27 -173h156l27 173h178l-56 -361h83l-42 -261h-150z" />
    <glyph glyph-name="uni04A4" unicode="&#x4a4;" horiz-adv-x="952" 
d="M25 0l112 705h184l-43 -272h290l44 272h407l-24 -150h-224l-88 -555h-183l44 282h-290l-45 -282h-184z" />
    <glyph glyph-name="uni04A5" unicode="&#x4a5;" horiz-adv-x="782" 
d="M21 0l78 492h178l-27 -173h156l28 173h368l-22 -139h-190l-56 -353h-178l29 182h-157l-29 -182h-178z" />
    <glyph glyph-name="uni04A8" unicode="&#x4a8;" horiz-adv-x="882" 
d="M383 -11q-96 0 -168 34.5t-112 104.5t-40 176q0 118 44.5 211t128.5 147t205 54q20 0 45.5 -1.5t38.5 -3.5l-22 -141q-14 2 -26.5 2.5t-20.5 0.5q-67 0 -112.5 -36.5t-69 -96t-23.5 -129.5q0 -103 39 -146.5t112 -43.5q-24 33 -37 71.5t-13 80.5q0 78 31 140t86 97.5
t129 35.5q58 0 104.5 -24.5t73.5 -68t27 -100.5q0 -67 -25 -126t-69 -106q29 2 59.5 10.5t64.5 22.5l29 -123q-38 -21 -83 -31.5t-103 -10.5q-72 0 -136 26q-75 -26 -157 -26zM517 253q0 -68 42 -100q41 25 60 70.5t19 113.5q0 33 -12 53.5t-37 20.5q-35 0 -53.5 -41
t-18.5 -117z" />
    <glyph glyph-name="uni04A9" unicode="&#x4a9;" horiz-adv-x="765" 
d="M319 -11q-94 0 -156.5 30t-94 82t-31.5 118q0 79 35 143.5t99.5 102.5t155.5 38q20 0 41.5 -3t38.5 -8l-28 -117q-7 3 -18 4t-22 1q-57 0 -94 -42.5t-37 -108.5q0 -56 30.5 -88.5t98.5 -35.5q-17 22 -26 47.5t-9 51.5q0 54 25.5 94.5t70.5 62t103 21.5q50 0 89 -18.5
t61 -50.5t22 -73q0 -38 -14.5 -71.5t-39.5 -61.5q59 7 105 30l13 -120q-69 -28 -156 -28q-31 0 -61 5.5t-57 16.5q-70 -22 -144 -22zM436 193q0 -50 33 -70q31 14 49 39t18 65q0 21 -11.5 33t-31.5 12q-25 0 -41 -22t-16 -57z" />
    <glyph glyph-name="uni04AA" unicode="&#x4aa;" horiz-adv-x="687" 
d="M260 -175l28 178q-100 28 -162.5 106t-62.5 204q0 85 26 158t76.5 128t125 86t171.5 31q72 0 136 -21.5t101 -55.5l-69 -144q-81 61 -172 61q-67 0 -111.5 -31.5t-67 -85t-22.5 -119.5q0 -88 41 -129.5t129 -41.5q39 0 81 13t88 43l46 -145q-37 -29 -92.5 -47t-111.5 -23
l-26 -165h-152z" />
    <glyph glyph-name="uni04AB" unicode="&#x4ab;" horiz-adv-x="502" 
d="M172 -130l21 132q-78 23 -117 80t-39 137q0 74 32.5 139t98.5 105t166 40q50 0 96 -12.5t78 -35.5l-51 -122q-19 16 -49 26t-59 10q-48 0 -76.5 -21.5t-41 -55.5t-12.5 -70q0 -44 24 -71.5t79 -27.5q25 0 53 9t52 26l36 -123q-23 -19 -60.5 -30t-74.5 -15l-19 -120h-137z
" />
    <glyph glyph-name="uni04AC" unicode="&#x4ac;" horiz-adv-x="619" 
d="M275 -175l28 175h-124l88 555h-212l24 150h607l-24 -150h-211l-66 -411h100l-50 -319h-160z" />
    <glyph glyph-name="uni04AD" unicode="&#x4ad;" horiz-adv-x="508" 
d="M215 -130l21 130h-110l56 353h-156l22 139h491l-23 -139h-156l-35 -222h82l-42 -261h-150z" />
    <glyph glyph-name="uni04AE" unicode="&#x4ae;" horiz-adv-x="645" 
d="M191 0l50 312l-210 393h200l118 -230l191 230h217l-332 -392l-50 -313h-184z" />
    <glyph glyph-name="uni04AF" unicode="&#x4af;" horiz-adv-x="554" 
d="M121 -180l33 212l-128 460h178l64 -279l156 279h184l-274 -453l-35 -219h-178z" />
    <glyph glyph-name="uni04B0" unicode="&#x4b0;" horiz-adv-x="645" 
d="M191 0l50 312l-210 393h200l118 -230l191 230h217l-332 -392l-50 -313h-184zM68 248l16 103h508l-16 -103h-508z" />
    <glyph glyph-name="uni04B1" unicode="&#x4b1;" horiz-adv-x="554" 
d="M121 -180l18 117h-132l20 125h119l-120 430h178l64 -279l156 279h184l-260 -430h119l-20 -125h-130l-18 -117h-178z" />
    <glyph glyph-name="uni04B2" unicode="&#x4b2;" horiz-adv-x="749" 
d="M-64 0l322 364l-205 341h200l128 -226l187 226h224l-317 -357l123 -204h130l-51 -319h-159l28 175h-64l-134 231l-189 -231h-223z" />
    <glyph glyph-name="uni04B3" unicode="&#x4b3;" horiz-adv-x="633" 
d="M-54 0l249 256l-157 236h200l76 -124l108 124h209l-230 -244l78 -117h113l-41 -261h-150l21 130h-54l-85 133l-127 -133h-210z" />
    <glyph glyph-name="uni04B4" unicode="&#x4b4;" horiz-adv-x="975" 
d="M728 -175l28 175h-592l88 555h-196l23 150h543l-24 -150h-163l-64 -405h284l88 555h183l-88 -555h100l-51 -325h-159z" />
    <glyph glyph-name="uni04B5" unicode="&#x4b5;" horiz-adv-x="778" 
d="M555 -130l20 130h-469l55 353h-135l22 139h420l-22 -139h-107l-34 -217h181l56 356h178l-56 -356h83l-42 -266h-150z" />
    <glyph glyph-name="uni04B6" unicode="&#x4b6;" horiz-adv-x="773" 
d="M531 -175l28 175h-125l39 248q-23 -9 -57.5 -15t-70.5 -6q-85 0 -147 38t-90.5 108t-13.5 166l26 166h184l-27 -168q-13 -84 14.5 -120t95.5 -36q26 0 56 5t54 15l49 304h184l-89 -561h100l-51 -319h-159z" />
    <glyph glyph-name="uni04B7" unicode="&#x4b7;" horiz-adv-x="637" 
d="M327 0l24 153q-26 -9 -47 -13t-43 -4q-114 0 -167 57t-36 168l21 131h178l-18 -115q-9 -53 7 -76t65 -23q34 0 58 12l32 202h178l-57 -361h83l-42 -261h-150l21 130h-107z" />
    <glyph glyph-name="uni04B8" unicode="&#x4b8;" horiz-adv-x="721" 
d="M434 0l39 248q-27 -11 -67 -17l-20 -131h-106l21 130q-73 10 -124.5 49.5t-74 105.5t-8.5 154l26 166h184l-27 -168q-10 -61 2.5 -96.5t47.5 -49.5l23 146h105l-24 -153q17 2 34.5 6.5t31.5 10.5l49 304h184l-112 -705h-184z" />
    <glyph glyph-name="uni04B9" unicode="&#x4b9;" horiz-adv-x="655" 
d="M378 0l25 157q-22 -7 -43 -11l-15 -91h-104l14 87q-111 9 -162 64.5t-35 154.5l21 131h178l-19 -119q-7 -40 4 -60.5t35 -29.5l17 107h104l-18 -114q11 1 22 3.5t21 6.5l33 206h178l-78 -492h-178z" />
    <glyph glyph-name="uni04BA" unicode="&#x4ba;" horiz-adv-x="721" 
d="M25 0l112 705h184l-39 -248q23 9 58 15t70 6q88 0 150 -37t89.5 -107t12.5 -168l-26 -166h-184l27 168q14 84 -14 120t-96 36q-26 0 -56 -4.5t-55 -15.5l-49 -304h-184z" />
    <glyph glyph-name="uni04BB" unicode="&#x4bb;" horiz-adv-x="624" 
d="M22 0l112 705h178l-44 -275q54 73 157 73q79 0 122 -50.5t26 -161.5l-46 -291h-178l45 288q6 39 -5.5 59t-45.5 20q-41 0 -67.5 -27.5t-34.5 -77.5l-41 -262h-178z" />
    <glyph glyph-name="uni04BC" unicode="&#x4bc;" horiz-adv-x="1010" 
d="M628 -11q-99 0 -176.5 35.5t-125.5 101t-56 156.5h-18q-108 0 -165 55.5t-41 155.5l8 51h181l-8 -50q-7 -43 3.5 -57t41.5 -14h8q18 80 64 146.5t123 106.5t187 40q113 0 192 -50t114.5 -139t16.5 -204l-7 -41h-509q9 -66 59.5 -102.5t134.5 -36.5q59 0 114 15.5
t105 43.5l55 -141q-60 -32 -134.5 -52t-166.5 -20zM648 570q-72 0 -114.5 -41.5t-60.5 -105.5h334q-5 72 -47 109.5t-112 37.5z" />
    <glyph glyph-name="uni04BD" unicode="&#x4bd;" horiz-adv-x="696" 
d="M451 -11q-78 0 -136.5 27.5t-91.5 77.5t-36 117h-26q-88 0 -118 35.5t-18 105.5l6 31h135l-5 -30q-5 -33 3 -47t32 -14q15 64 54.5 111.5t96 73.5t123.5 26q84 0 135.5 -35.5t72 -96.5t9.5 -135l-4 -26h-330q2 -44 32.5 -67t85.5 -23q40 0 79.5 11.5t69.5 32.5l36 -116
q-37 -28 -90.5 -43.5t-114.5 -15.5zM468 387q-45 0 -70.5 -26.5t-34.5 -66.5h189q2 41 -18 67t-66 26z" />
    <glyph glyph-name="uni04BE" unicode="&#x4be;" horiz-adv-x="1010" 
d="M628 -11q-99 0 -176.5 35.5t-125.5 101t-56 156.5h-18q-108 0 -165 55.5t-41 155.5l8 51h181l-8 -50q-7 -43 3.5 -57t41.5 -14h8q18 80 64 146.5t123 106.5t187 40q113 0 192 -50t114.5 -139t16.5 -204l-7 -41h-509q9 -66 59.5 -102.5t134.5 -36.5q59 0 114 15.5
t105 43.5l55 -141q-60 -32 -134.5 -52t-166.5 -20zM648 570q-72 0 -114.5 -41.5t-60.5 -105.5h334q-5 72 -47 109.5t-112 37.5zM637 -198q-57 0 -87 26.5t-30 72.5q0 50 34 89.5t86 57.5l43 -48q-32 -12 -45.5 -31.5t-13.5 -38.5q0 -18 14 -29.5t35 -11.5q14 0 26.5 2.5
t27.5 7.5l12 -81q-32 -8 -54 -12t-48 -4z" />
    <glyph glyph-name="uni04BF" unicode="&#x4bf;" horiz-adv-x="696" 
d="M451 -11q-78 0 -136.5 27.5t-91.5 77.5t-36 117h-26q-88 0 -118 35.5t-18 105.5l6 31h135l-5 -30q-5 -33 3 -47t32 -14q15 64 54.5 111.5t96 73.5t123.5 26q84 0 135.5 -35.5t72 -96.5t9.5 -135l-4 -26h-330q2 -44 32.5 -67t85.5 -23q40 0 79.5 11.5t69.5 32.5l36 -116
q-37 -28 -90.5 -43.5t-114.5 -15.5zM468 387q-45 0 -70.5 -26.5t-34.5 -66.5h189q2 41 -18 67t-66 26zM476 -198q-57 0 -87 26.5t-30 72.5q0 50 34 89.5t86 57.5l43 -48q-32 -12 -45.5 -31.5t-13.5 -38.5q0 -18 14 -29.5t35 -11.5q14 0 26.5 2.5t27.5 7.5l12 -81
q-32 -8 -54 -12t-48 -4z" />
    <glyph glyph-name="uni04C0" unicode="&#x4c0;" horiz-adv-x="312" 
d="M25 0l112 705h184l-112 -705h-184z" />
    <glyph glyph-name="uni04C1" unicode="&#x4c1;" horiz-adv-x="1069" 
d="M-44 0l161 258q61 97 146 135l-149 312h190l125 -282h46l45 282h175l-45 -282h48l213 282h204l-257 -323q27 -20 46 -50.5t35 -73.5l96 -258h-188l-69 198q-14 40 -38.5 57.5t-68.5 17.5h-44l-43 -273h-176l44 273h-44q-45 0 -75 -17.5t-55 -57.5l-123 -198h-199z
M613 760q-64 0 -105 20t-64 54t-30 76l86 27q14 -46 42 -66t78 -20q51 0 82.5 22.5t49.5 62.5l78 -26q-19 -67 -76 -108.5t-141 -41.5z" />
    <glyph glyph-name="uni04C2" unicode="&#x4c2;" horiz-adv-x="878" 
d="M-52 0l130 199q17 25 39 46t47 33l-112 214h180l92 -174h38l27 174h178l-27 -174h36l148 174h188l-192 -231q16 -14 28.5 -32t21.5 -39l82 -190h-180l-62 140q-10 23 -23 32.5t-33 9.5h-36l-29 -182h-178l29 182h-34q-22 0 -38 -9t-33 -33l-97 -140h-190zM493 553
q-60 0 -99 21t-60 55t-26 73l82 27q13 -45 39 -65t71 -20t72 22t43 62l80 -26q-18 -66 -71 -107.5t-131 -41.5z" />
    <glyph glyph-name="uni04C3" unicode="&#x4c3;" horiz-adv-x="738" 
d="M397 -191q-44 0 -78 5.5t-57 15.5l28 132q17 -5 37 -8t41 -3q42 0 72 29.5t39 82.5l9 58q14 83 -22.5 122.5t-108.5 39.5h-103l-45 -283h-184l112 705h184l-43 -272h87l205 272h200l-232 -301q74 -31 113 -99t21 -178l-11 -64q-21 -127 -90 -190.5t-174 -63.5z" />
    <glyph glyph-name="uni04C4" unicode="&#x4c4;" horiz-adv-x="606" 
d="M309 -188l-58 127q40 12 63 27t34 38.5t17 60.5l3 20q8 51 -15 74t-70 23h-55l-28 -182h-178l77 492h178l-27 -174h46l148 174h189l-172 -207q45 -23 71.5 -71.5t14.5 -121.5l-4 -26q-9 -59 -30 -107.5t-68.5 -85.5t-135.5 -61z" />
    <glyph glyph-name="uni04C5" unicode="&#x4c5;" horiz-adv-x="800" 
d="M480 -175l86 175h-88l88 555h-184l-20 -127q-30 -182 -100 -288t-192 -159l-79 131q58 32 98.5 75t67.5 112t44 177l36 229h537l-89 -561h108l-157 -319h-156z" />
    <glyph glyph-name="uni04C6" unicode="&#x4c6;" horiz-adv-x="660" 
d="M30 -17l-35 141q59 11 91 54.5t45 130.5l29 183h442l-57 -361h95l-129 -261h-147l64 130h-81l56 356h-103l-10 -61q-17 -103 -46.5 -168.5t-80.5 -100t-133 -43.5z" />
    <glyph glyph-name="uni04C7" unicode="&#x4c7;" horiz-adv-x="786" 
d="M392 -193l-12 125l51 6q33 4 48.5 19t20.5 46l44 279h-290l-45 -282h-184l112 705h184l-43 -272h290l44 272h183l-108 -678q-11 -74 -37 -120t-76 -69t-135 -28z" />
    <glyph glyph-name="uni04C8" unicode="&#x4c8;" horiz-adv-x="633" 
d="M248 -193l-11 125l50 6q33 3 48.5 18.5t20.5 46.5l29 179h-157l-28 -182h-178l77 492h178l-27 -173h156l27 173h178l-73 -465q-12 -74 -37.5 -120t-74.5 -69t-131 -28z" />
    <glyph glyph-name="uni04C9" unicode="&#x4c9;" horiz-adv-x="822" 
d="M25 0l112 705h184l-43 -272h290l44 272h183l-89 -561h100l-158 -319h-156l87 175h-79l44 282h-290l-45 -282h-184z" />
    <glyph glyph-name="uni04CA" unicode="&#x4ca;" horiz-adv-x="669" 
d="M22 0l77 492h178l-27 -173h156l27 173h178l-57 -361h95l-129 -261h-146l63 130h-81l29 182h-157l-28 -182h-178z" />
    <glyph glyph-name="uni04CB" unicode="&#x4cb;" horiz-adv-x="747" 
d="M473 -175h-165l50 319h99l16 104q-23 -9 -57.5 -15t-70.5 -6q-85 0 -147 38t-90.5 108t-13.5 166l26 166h184l-27 -168q-13 -84 14.5 -120t95.5 -36q26 0 56 5t54 15l49 304h184l-112 -705h-117z" />
    <glyph glyph-name="uni04CC" unicode="&#x4cc;" horiz-adv-x="639" 
d="M374 -130h-150l34 216h83l10 67q-26 -9 -47 -13t-43 -4q-114 0 -167 57t-36 168l21 131h178l-18 -115q-9 -53 7 -76t65 -23q34 0 58 12l32 202h178l-78 -492h-107z" />
    <glyph glyph-name="uni04CD" unicode="&#x4cd;" horiz-adv-x="919" 
d="M603 -175l87 175h-77l61 385l-202 -281h-99l-120 275l-60 -379h-166l112 705h145l160 -407l289 407h158l-89 -561h115l-158 -319h-156z" />
    <glyph glyph-name="uni04CE" unicode="&#x4ce;" horiz-adv-x="753" 
d="M22 0l77 492h137l115 -245l190 245h154l-57 -361h104l-129 -261h-146l63 130h-69l39 242l-123 -161h-80l-81 166l-39 -247h-155z" />
    <glyph glyph-name="uni04CF" unicode="&#x4cf;" horiz-adv-x="299" 
d="M22 0l111 705h178l-111 -705h-178z" />
    <glyph glyph-name="uni04D0" unicode="&#x4d0;" horiz-adv-x="763" 
d="M-60 0l442 705h146l217 -705h-176l-37 143h-317l-84 -143h-191zM433 513l-135 -229h197l-60 229h-2zM458 760q-64 0 -105 20t-64 54t-30 76l86 27q14 -46 42 -66t78 -20q51 0 82.5 22.5t49.5 62.5l78 -26q-19 -67 -76 -108.5t-141 -41.5z" />
    <glyph glyph-name="uni04D1" unicode="&#x4d1;" horiz-adv-x="586" 
d="M194 -11q-48 0 -86 22t-60.5 57.5t-22.5 76.5q0 78 67 113.5t208 35.5h68l1 9q6 33 -14.5 52t-66.5 19q-88 0 -172 -48l-33 118q39 26 102.5 42.5t127.5 16.5q91 0 142 -33t68.5 -88.5t6.5 -120.5l-41 -261h-165l11 71q-24 -44 -60.5 -63t-80.5 -19zM256 105q39 0 64 23
t31 60l3 22h-54q-56 0 -80.5 -12.5t-24.5 -40.5q0 -25 17 -38.5t44 -13.5zM341 553q-60 0 -99 21t-60 55t-26 73l82 27q13 -45 39 -65t71 -20t72 22t43 62l80 -26q-18 -66 -71 -107.5t-131 -41.5z" />
    <glyph glyph-name="uni04D2" unicode="&#x4d2;" horiz-adv-x="763" 
d="M-60 0l442 705h146l217 -705h-176l-37 143h-317l-84 -143h-191zM433 513l-135 -229h197l-60 229h-2zM491 771l24 149h148l-24 -149h-148zM285 771l23 149h149l-24 -149h-148z" />
    <glyph glyph-name="uni04D3" unicode="&#x4d3;" horiz-adv-x="586" 
d="M194 -11q-48 0 -86 22t-60.5 57.5t-22.5 76.5q0 78 67 113.5t208 35.5h68l1 9q6 33 -14.5 52t-66.5 19q-88 0 -172 -48l-33 118q39 26 102.5 42.5t127.5 16.5q91 0 142 -33t68.5 -88.5t6.5 -120.5l-41 -261h-165l11 71q-24 -44 -60.5 -63t-80.5 -19zM256 105q39 0 64 23
t31 60l3 22h-54q-56 0 -80.5 -12.5t-24.5 -40.5q0 -25 17 -38.5t44 -13.5zM370 582l23 150h149l-23 -150h-149zM164 582l23 150h148l-22 -150h-149z" />
    <glyph glyph-name="uni04D4" unicode="&#x4d4;" horiz-adv-x="1006" 
d="M-99 0l561 705h564l-22 -142h-367l9 -134h314l-22 -142h-284l9 -145h275l-23 -142h-401l-9 143h-298l-107 -143h-199zM481 507l-168 -223h184l-14 223h-2z" />
    <glyph glyph-name="uni04D5" unicode="&#x4d5;" horiz-adv-x="888" 
d="M230 -11q-53 0 -100 16.5t-76 51.5t-29 88q0 78 67 113.5t208 35.5h63l2 10q5 33 -12.5 51t-64.5 18q-44 0 -87.5 -11.5t-82.5 -35.5l-35 118q39 26 102.5 42.5t127.5 16.5q110 0 159 -59q33 30 74.5 44.5t89.5 14.5q82 0 134 -35t73 -94.5t9 -133.5l-5 -30h-325
q2 -44 31 -67t82 -23q88 0 149 44l36 -116q-37 -28 -90.5 -43.5t-114.5 -15.5q-71 0 -122.5 24.5t-79.5 69.5q-27 -49 -76.5 -71.5t-106.5 -22.5zM633 386q-42 0 -66.5 -26.5t-33.5 -65.5h180q3 39 -16.5 65.5t-63.5 26.5zM256 108q39 0 61.5 20.5t28.5 57.5l4 24h-49
q-55 0 -80.5 -13.5t-25.5 -41.5q0 -21 16 -34t45 -13z" />
    <glyph glyph-name="uni04D6" unicode="&#x4d6;" horiz-adv-x="614" 
d="M26 0l111 705h498l-22 -142h-323l-21 -134h300l-23 -142h-300l-23 -145h322l-22 -142h-497zM410 760q-64 0 -105 20t-64 54t-30 76l86 27q14 -46 42 -66t78 -20q51 0 82.5 22.5t49.5 62.5l78 -26q-19 -67 -76 -108.5t-141 -41.5z" />
    <glyph glyph-name="uni04D7" unicode="&#x4d7;" horiz-adv-x="574" 
d="M300 -11q-79 0 -138 28.5t-92 80.5t-33 121q0 85 37.5 149t101.5 99.5t144 35.5q84 0 135.5 -35.5t71.5 -96.5t10 -135l-4 -26h-331q2 -44 33 -67t85 -23q41 0 80.5 11.5t68.5 32.5l37 -116q-37 -28 -90.5 -43.5t-115.5 -15.5zM318 387q-45 0 -70.5 -27t-34.5 -66h189
q2 41 -18.5 67t-65.5 26zM357 553q-60 0 -99 21t-60 55t-26 73l82 27q13 -45 39 -65t71 -20t72 22t43 62l80 -26q-18 -66 -71 -107.5t-131 -41.5z" />
    <glyph glyph-name="uni04D8" unicode="&#x4d8;" horiz-adv-x="807" 
d="M391 -11q-113 0 -192.5 50t-114.5 139t-16 205l7 40h511q-8 67 -56 103t-132 36q-60 0 -119.5 -16t-109.5 -46l-55 141q60 35 138.5 55t171.5 20q105 0 185 -39.5t124.5 -113t44.5 -174.5q0 -75 -22.5 -146.5t-70 -129t-120.5 -91t-174 -33.5zM397 136q72 0 115 41
t61 105h-328q4 -72 43 -109t109 -37z" />
    <glyph glyph-name="uni04D9" unicode="&#x4d9;" horiz-adv-x="574" 
d="M255 -11q-84 0 -136.5 34.5t-73 94.5t-8.5 135l4 30h329q-3 89 -112 89q-43 0 -83 -13t-70 -34l-36 120q37 28 92.5 43t116.5 15q78 0 136.5 -28.5t90.5 -80t32 -120.5q0 -86 -37.5 -150t-101.5 -99.5t-143 -35.5zM259 104q44 0 67.5 27t32.5 67h-174q-3 -40 16.5 -67
t57.5 -27z" />
    <glyph glyph-name="uni04DA" unicode="&#x4da;" horiz-adv-x="807" 
d="M391 -11q-113 0 -192.5 50t-114.5 139t-16 205l7 40h511q-8 67 -56 103t-132 36q-60 0 -119.5 -16t-109.5 -46l-55 141q60 35 138.5 55t171.5 20q105 0 185 -39.5t124.5 -113t44.5 -174.5q0 -75 -22.5 -146.5t-70 -129t-120.5 -91t-174 -33.5zM397 136q72 0 115 41
t61 105h-328q4 -72 43 -109t109 -37zM460 771l24 149h148l-24 -149h-148zM254 771l23 149h149l-24 -149h-148z" />
    <glyph glyph-name="uni04DB" unicode="&#x4db;" horiz-adv-x="574" 
d="M255 -11q-84 0 -136.5 34.5t-73 94.5t-8.5 135l4 30h329q-3 89 -112 89q-43 0 -83 -13t-70 -34l-36 120q37 28 92.5 43t116.5 15q78 0 136.5 -28.5t90.5 -80t32 -120.5q0 -86 -37.5 -150t-101.5 -99.5t-143 -35.5zM259 104q44 0 67.5 27t32.5 67h-174q-3 -40 16.5 -67
t57.5 -27zM344 582l23 150h149l-23 -150h-149zM138 582l23 150h148l-22 -150h-149z" />
    <glyph glyph-name="uni04DC" unicode="&#x4dc;" horiz-adv-x="1069" 
d="M-44 0l161 258q61 97 146 135l-149 312h190l125 -282h46l45 282h175l-45 -282h48l213 282h204l-257 -323q27 -20 46 -50.5t35 -73.5l96 -258h-188l-69 198q-14 40 -38.5 57.5t-68.5 17.5h-44l-43 -273h-176l44 273h-44q-45 0 -75 -17.5t-55 -57.5l-123 -198h-199z
M646 771l24 149h148l-24 -149h-148zM440 771l23 149h149l-24 -149h-148z" />
    <glyph glyph-name="uni04DD" unicode="&#x4dd;" horiz-adv-x="878" 
d="M-52 0l130 199q17 25 39 46t47 33l-112 214h180l92 -174h38l27 174h178l-27 -174h36l148 174h188l-192 -231q16 -14 28.5 -32t21.5 -39l82 -190h-180l-62 140q-10 23 -23 32.5t-33 9.5h-36l-29 -182h-178l29 182h-34q-22 0 -38 -9t-33 -33l-97 -140h-190zM522 582l23 150
h149l-23 -150h-149zM316 582l23 150h148l-22 -150h-149z" />
    <glyph glyph-name="uni04DE" unicode="&#x4de;" horiz-adv-x="628" 
d="M289 -11q-72 0 -145 20t-132 66l64 129q42 -34 97.5 -49t108.5 -15q29 0 57 8t46 26t18 47q0 66 -86 66h-171l23 141h160q48 0 76.5 18t28.5 56q0 33 -23 48t-74 15q-55 0 -105 -14.5t-93 -40.5l-54 134q58 35 130.5 53.5t147.5 18.5q80 0 135.5 -24.5t84 -65.5t28.5 -90
q0 -66 -37.5 -111t-99.5 -63q50 -18 77.5 -58t27.5 -93q0 -105 -77 -163.5t-213 -58.5zM411 771l24 149h148l-24 -149h-148zM205 771l23 149h149l-24 -149h-148z" />
    <glyph glyph-name="uni04DF" unicode="&#x4df;" horiz-adv-x="546" 
d="M224 -11q-69 0 -125.5 16t-93.5 43l53 105q32 -20 81 -31.5t100 -11.5q50 0 77 9.5t27 34.5q0 17 -12.5 25.5t-40.5 8.5h-146l19 120h134q57 0 57 37q0 17 -20 26t-72 9q-86 0 -171 -40l-33 111q45 24 108 38t140 14q97 0 152 -33.5t55 -89.5q0 -44 -24.5 -76t-65.5 -47
q39 -12 59 -39.5t20 -66.5q0 -80 -75 -121t-203 -41zM337 582l23 150h149l-23 -150h-149zM131 582l23 150h148l-22 -150h-149z" />
    <glyph glyph-name="uni04E0" unicode="&#x4e0;" horiz-adv-x="628" 
d="M294 -11q-76 0 -149 20t-133 66l64 129q43 -35 98.5 -49.5t111.5 -14.5q30 0 57.5 8t45.5 26t18 47q0 66 -89 66h-157l18 109l196 160h-303l23 149h528l-19 -126l-193 -157q58 -6 96 -33.5t57 -67.5t19 -85q0 -70 -34.5 -126t-99 -88.5t-155.5 -32.5z" />
    <glyph glyph-name="uni04E1" unicode="&#x4e1;" horiz-adv-x="542" 
d="M202 -191q-77 0 -144.5 17.5t-115.5 53.5l62 116q32 -28 76.5 -41t102.5 -13q56 0 89 23t33 70q0 36 -28.5 57t-89.5 21h-90l13 82l196 165h-265l21 132h458l-19 -118l-181 -148q78 -11 120 -62t42 -115q0 -66 -32 -120.5t-94.5 -87t-153.5 -32.5z" />
    <glyph glyph-name="uni04E2" unicode="&#x4e2;" horiz-adv-x="758" 
d="M25 0l112 705h171l-62 -397l385 397h135l-112 -705h-170l63 399l-387 -399h-135zM278 796l14 97h368l-15 -97h-367z" />
    <glyph glyph-name="uni04E3" unicode="&#x4e3;" horiz-adv-x="628" 
d="M22 0l77 492h160l-41 -261l243 261h146l-78 -492h-160l42 262l-243 -262h-146zM197 605l15 97h338l-15 -97h-338z" />
    <glyph glyph-name="uni04E4" unicode="&#x4e4;" horiz-adv-x="758" 
d="M25 0l112 705h171l-62 -397l385 397h135l-112 -705h-170l63 399l-387 -399h-135zM486 771l24 149h148l-24 -149h-148zM280 771l23 149h149l-24 -149h-148z" />
    <glyph glyph-name="uni04E5" unicode="&#x4e5;" horiz-adv-x="628" 
d="M22 0l77 492h160l-41 -261l243 261h146l-78 -492h-160l42 262l-243 -262h-146zM391 582l23 150h149l-23 -150h-149zM185 582l23 150h148l-22 -150h-149z" />
    <glyph glyph-name="uni04E6" unicode="&#x4e6;" horiz-adv-x="807" 
d="M396 -11q-101 0 -176 37.5t-116.5 108t-41.5 170.5q0 122 48 214.5t134.5 144.5t200.5 52q101 0 176 -37.5t116.5 -108t41.5 -169.5q0 -123 -48 -215.5t-134 -144.5t-201 -52zM398 143q60 0 102.5 32t65.5 89.5t23 132.5q0 84 -39.5 124.5t-107.5 40.5q-59 0 -101.5 -32
t-65 -89.5t-22.5 -132.5q0 -84 39 -124.5t106 -40.5zM500 771l24 149h148l-24 -149h-148zM294 771l23 149h149l-24 -149h-148z" />
    <glyph glyph-name="uni04E7" unicode="&#x4e7;" horiz-adv-x="619" 
d="M291 -11q-121 0 -187 63t-66 167q0 71 24.5 124.5t66 89t93.5 53t107 17.5q120 0 186.5 -63t66.5 -166q0 -72 -24.5 -125.5t-66 -89t-93.5 -53t-107 -17.5zM294 120q51 0 80 45t29 114q0 45 -20.5 69t-57.5 24q-50 0 -79 -44.5t-29 -114.5q0 -45 20.5 -69t56.5 -24z
M393 582l23 150h149l-23 -150h-149zM187 582l23 150h148l-22 -150h-149z" />
    <glyph glyph-name="uni04E8" unicode="&#x4e8;" horiz-adv-x="807" 
d="M396 -11q-101 0 -176 37.5t-116.5 108t-41.5 170.5q0 122 48 214.5t134.5 144.5t200.5 52q101 0 176 -37.5t116.5 -108t41.5 -169.5q0 -123 -48 -215.5t-134 -144.5t-201 -52zM442 562q-63 0 -107.5 -37t-64.5 -100h317q-6 69 -44.5 103t-100.5 34zM398 143
q67 0 112.5 40t64.5 108h-321q4 -75 42 -111.5t102 -36.5z" />
    <glyph glyph-name="uni04E9" unicode="&#x4e9;" horiz-adv-x="619" 
d="M291 -11q-121 0 -187 63t-66 167q0 71 24 124.5t66 89t94 53t107 17.5q120 0 186.5 -63t66.5 -166q0 -72 -24.5 -125.5t-66 -89t-93.5 -53t-107 -17.5zM321 384q-38 0 -66 -21.5t-43 -61.5h208q-9 83 -99 83zM298 108q38 0 66 22t43 62h-208q9 -84 99 -84z" />
    <glyph glyph-name="uni04EA" unicode="&#x4ea;" horiz-adv-x="807" 
d="M396 -11q-101 0 -176 37.5t-116.5 108t-41.5 170.5q0 122 48 214.5t134.5 144.5t200.5 52q101 0 176 -37.5t116.5 -108t41.5 -169.5q0 -123 -48 -215.5t-134 -144.5t-201 -52zM442 562q-63 0 -107.5 -37t-64.5 -100h317q-6 69 -44.5 103t-100.5 34zM398 143
q67 0 112.5 40t64.5 108h-321q4 -75 42 -111.5t102 -36.5zM500 771l24 149h148l-24 -149h-148zM294 771l23 149h149l-24 -149h-148z" />
    <glyph glyph-name="uni04EB" unicode="&#x4eb;" horiz-adv-x="619" 
d="M291 -11q-121 0 -187 63t-66 167q0 71 24 124.5t66 89t94 53t107 17.5q120 0 186.5 -63t66.5 -166q0 -72 -24.5 -125.5t-66 -89t-93.5 -53t-107 -17.5zM321 384q-38 0 -66 -21.5t-43 -61.5h208q-9 83 -99 83zM298 108q38 0 66 22t43 62h-208q9 -84 99 -84zM393 582
l23 150h149l-23 -150h-149zM187 582l23 150h148l-22 -150h-149z" />
    <glyph glyph-name="uni04EC" unicode="&#x4ec;" horiz-adv-x="687" 
d="M259 -11q-72 0 -136 22t-101 55l69 144q81 -61 172 -61q76 0 123.5 38.5t66.5 100.5h-277l22 142h265q-8 61 -46 93.5t-119 32.5q-39 0 -83 -13t-90 -43l-46 145q28 22 69 38t86 24.5t87 8.5q97 0 173 -36.5t119.5 -108.5t43.5 -179q0 -85 -25.5 -158t-76 -128t-125 -86
t-171.5 -31zM424 771l24 149h148l-24 -149h-148zM218 771l23 149h149l-24 -149h-148z" />
    <glyph glyph-name="uni04ED" unicode="&#x4ed;" horiz-adv-x="534" 
d="M181 -11q-54 0 -103.5 15t-81.5 41l48 106q25 -17 64.5 -28.5t75.5 -11.5q57 0 90 22.5t49 56.5h-213l18 117h207q-9 34 -38.5 54.5t-85.5 20.5q-31 0 -68 -10.5t-67 -29.5l-36 112q21 14 51.5 25t65 17.5t64.5 6.5q138 0 207 -63t69 -167q0 -74 -34.5 -139t-105 -105
t-176.5 -40zM305 582l23 150h149l-23 -150h-149zM99 582l23 150h148l-22 -150h-149z" />
    <glyph glyph-name="uni04EE" unicode="&#x4ee;" horiz-adv-x="681" 
d="M113 0l147 223l-216 482h184l139 -322l213 322h197l-467 -705h-197zM233 796l14 97h368l-15 -97h-367z" />
    <glyph glyph-name="uni04EF" unicode="&#x4ef;" horiz-adv-x="559" 
d="M23 -180l133 215l-128 457h178l64 -279l158 279h182l-407 -672h-180zM152 605l15 97h338l-15 -97h-338z" />
    <glyph glyph-name="uni04F0" unicode="&#x4f0;" horiz-adv-x="681" 
d="M113 0l147 223l-216 482h184l139 -322l213 322h197l-467 -705h-197zM441 771l24 149h148l-24 -149h-148zM235 771l23 149h149l-24 -149h-148z" />
    <glyph glyph-name="uni04F1" unicode="&#x4f1;" horiz-adv-x="559" 
d="M23 -180l133 215l-128 457h178l64 -279l158 279h182l-407 -672h-180zM346 582l23 150h149l-23 -150h-149zM140 582l23 150h148l-22 -150h-149z" />
    <glyph glyph-name="uni04F2" unicode="&#x4f2;" horiz-adv-x="681" 
d="M113 0l147 223l-216 482h184l139 -322l213 322h197l-467 -705h-197zM278 765l100 176h150l-152 -176h-98zM448 765l116 176h151l-168 -176h-99z" />
    <glyph glyph-name="uni04F3" unicode="&#x4f3;" horiz-adv-x="559" 
d="M23 -180l133 215l-128 457h178l64 -279l158 279h182l-407 -672h-180zM351 557l62 205h142l-113 -205h-91zM177 557l63 205h141l-113 -205h-91z" />
    <glyph glyph-name="uni04F4" unicode="&#x4f4;" horiz-adv-x="721" 
d="M434 0l39 248q-23 -9 -57.5 -15t-70.5 -6q-85 0 -147 38t-90.5 108t-13.5 166l26 166h184l-27 -168q-13 -84 14.5 -120t95.5 -36q26 0 56 5t54 15l49 304h184l-112 -705h-184zM458 771l24 149h148l-24 -149h-148zM252 771l23 149h149l-24 -149h-148z" />
    <glyph glyph-name="uni04F5" unicode="&#x4f5;" horiz-adv-x="600" 
d="M327 0l24 153q-26 -9 -47 -13t-43 -4q-114 0 -167 57t-36 168l21 131h178l-18 -115q-9 -53 7 -76t65 -23q34 0 58 12l32 202h178l-78 -492h-174zM373 582l23 150h149l-23 -150h-149zM167 582l23 150h148l-22 -150h-149z" />
    <glyph glyph-name="uni04F6" unicode="&#x4f6;" horiz-adv-x="579" 
d="M25 0l112 705h498l-25 -150h-313l-65 -411h100l-50 -319h-160l28 175h-125z" />
    <glyph glyph-name="uni04F7" unicode="&#x4f7;" horiz-adv-x="484" 
d="M22 0l77 492h405l-21 -137h-227l-36 -224h87l-42 -261h-150l21 130h-114z" />
    <glyph glyph-name="uni04F8" unicode="&#x4f8;" horiz-adv-x="957" 
d="M25 0l112 705h184l-44 -274h101q85 0 141 -26t83.5 -70t27.5 -100q0 -114 -73 -174.5t-215 -60.5h-317zM670 0l112 705h183l-112 -705h-183zM231 139h115q110 0 110 85q0 35 -22.5 51.5t-81.5 16.5h-97zM584 771l24 149h148l-24 -149h-148zM378 771l23 149h149l-24 -149
h-148z" />
    <glyph glyph-name="uni04F9" unicode="&#x4f9;" horiz-adv-x="831" 
d="M22 0l77 492h178l-23 -148h105q89 0 134.5 -42.5t45.5 -109.5q0 -63 -30.5 -106t-82 -64.5t-114.5 -21.5h-290zM554 0l77 492h178l-77 -492h-178zM217 112h75q39 0 62 16t23 51q0 53 -68 53h-73zM497 582l23 150h149l-23 -150h-149zM291 582l23 150h148l-22 -150h-149z
" />
    <glyph glyph-name="uni04FA" unicode="&#x4fa;" horiz-adv-x="628" 
d="M39 -188l-11 118l64 5q45 4 70 21.5t29 43.5h-116l44 277h-92l21 128h91l47 300h498l-24 -150h-314l-24 -150h174l-19 -128h-174l-21 -133h100l-17 -107q-11 -70 -38 -116.5t-76 -72t-128 -30.5z" />
    <glyph glyph-name="uni04FB" unicode="&#x4fb;" horiz-adv-x="512" 
d="M19 -188l-8 118l72 6q30 2 41.5 20t15.5 44h-91l27 167h-84l18 115h84l33 210h405l-21 -137h-227l-12 -73h134l-19 -115h-133l-11 -63h73l-11 -69q-16 -105 -65 -158t-137 -59z" />
    <glyph glyph-name="uni04FC" unicode="&#x4fc;" horiz-adv-x="698" 
d="M380 -189l-32 144q47 5 74.5 21t27.5 52q0 13 -5.5 28.5t-18.5 37.5l-78 137l-189 -231h-223l322 364l-205 341h200l128 -226l187 226h224l-317 -357l108 -179q26 -43 36.5 -79t10.5 -66q0 -103 -64.5 -152.5t-185.5 -60.5z" />
    <glyph glyph-name="uni04FD" unicode="&#x4fd;" horiz-adv-x="590" 
d="M301 -189l-26 122q38 3 61 15t23 43q0 22 -27 65l-49 77l-127 -133h-210l249 256l-157 236h200l76 -124l107 124h210l-230 -244l82 -122q26 -39 38 -72.5t12 -63.5q0 -92 -60 -131t-172 -48z" />
    <glyph glyph-name="uni04FE" unicode="&#x4fe;" horiz-adv-x="698" 
d="M-64 0l322 364l-205 341h200l128 -226l187 226h224l-317 -357l210 -348h-203l-134 231l-189 -231h-223zM106 312l16 103h508l-16 -103h-508z" />
    <glyph glyph-name="uni04FF" unicode="&#x4ff;" horiz-adv-x="590" 
d="M-53 0l248 256l-157 236h200l76 -124l108 124h209l-230 -244l167 -248h-200l-85 133l-127 -133h-209zM34 196l16 103h508l-16 -103h-508z" />
    <glyph glyph-name="uni0510" unicode="&#x510;" horiz-adv-x="628" 
d="M295 -11q-146 0 -210 57.5t-53 148.5q8 64 46.5 108.5t101.5 63.5q-44 19 -64.5 58.5t-14.5 93.5q7 57 45.5 101.5t104 70t154.5 25.5q83 0 145 -21t104 -56l-73 -134q-33 29 -81.5 44.5t-102.5 15.5q-59 0 -88.5 -21t-32.5 -53q-3 -33 17.5 -48t68.5 -15h152l-22 -141
h-170q-102 0 -109 -71q-8 -76 120 -76q68 0 122 16.5t93 41.5l31 -139q-57 -32 -127.5 -51t-156.5 -19z" />
    <glyph glyph-name="uni0511" unicode="&#x511;" horiz-adv-x="546" 
d="M238 -11q-110 0 -169.5 35t-59.5 96q0 55 30 90t83 48q-30 14 -46.5 40.5t-16.5 57.5q0 50 36 82.5t95.5 48.5t129.5 16q64 0 123 -14t95 -37l-54 -109q-31 16 -71 26.5t-89 10.5q-60 0 -83 -10.5t-23 -32.5q0 -29 48 -29h133l-19 -120h-147q-28 0 -46 -10t-18 -34
q0 -34 90 -34q51 0 108.5 11.5t95.5 31.5l26 -110q-51 -28 -116 -41t-135 -13z" />
    <glyph glyph-name="uni0512" unicode="&#x512;" horiz-adv-x="765" 
d="M366 -193l-12 125l51 6q33 4 51 19t23 46l88 552h-185l-20 -127q-30 -182 -99 -288t-186 -159l-86 131q58 32 98.5 75t67.5 112t44 177l36 229h537l-108 -678q-12 -74 -40 -120t-80 -69t-134 -28z" />
    <glyph glyph-name="uni0513" unicode="&#x513;" horiz-adv-x="624" 
d="M240 -193l-12 125l51 6q33 4 48 19t20 46l56 353h-103l-10 -61q-17 -103 -46.5 -168.5t-80.5 -100t-133 -43.5l-35 141q59 11 91 54.5t45 130.5l29 183h443l-76 -478q-11 -68 -36 -111t-74 -65.5t-131 -27.5z" />
    <glyph glyph-name="uni051A" unicode="&#x51a;" horiz-adv-x="807" 
d="M549 -228l-80 172q-12 25 -30 35t-59 10v0q-96 3 -167.5 41.5t-111 108t-39.5 166.5q0 122 48 214.5t134.5 144.5t200.5 52q101 0 176 -37.5t116.5 -108t41.5 -169.5q0 -129 -53.5 -225.5t-146.5 -144.5q41 -16 62 -61l67 -140zM398 143q60 0 102.5 32t65.5 89.5
t23 132.5q0 84 -39.5 124.5t-107.5 40.5q-59 0 -101.5 -32t-65 -89.5t-22.5 -132.5q0 -84 39 -124.5t106 -40.5z" />
    <glyph glyph-name="uni051B" unicode="&#x51b;" horiz-adv-x="638" 
d="M332 -180l39 242q-28 -35 -67.5 -54t-85.5 -19q-83 0 -132.5 58t-49.5 156q0 87 31 154.5t87 106.5t131 39q50 0 89 -21.5t58 -62.5l11 73h174l-107 -672h-178zM293 120q50 0 79 45t29 114q0 45 -20.5 69t-56.5 24q-51 0 -80 -44.5t-29 -114.5q0 -45 20.5 -69t57.5 -24z
" />
    <glyph glyph-name="uni051C" unicode="&#x51c;" horiz-adv-x="1128" 
d="M225 0l-142 705h178l77 -444l229 444h132l80 -448l224 448h187l-366 -705h-147l-84 423l-221 -423h-147z" />
    <glyph glyph-name="uni051D" unicode="&#x51d;" horiz-adv-x="886" 
d="M163 0l-129 492h170l63 -282l152 282h111l63 -291l157 291h180l-284 -492h-147l-59 242l-131 -242h-146z" />
    <glyph glyph-name="uni0524" unicode="&#x524;" horiz-adv-x="831" 
d="M589 -175l28 175h-125l88 555h-283l-88 -555h-184l112 705h651l-89 -561h100l-51 -319h-159z" />
    <glyph glyph-name="uni0525" unicode="&#x525;" horiz-adv-x="666" 
d="M447 -130l21 130h-115l56 356h-153l-56 -356h-178l77 492h509l-56 -361h87l-42 -261h-150z" />
    <glyph glyph-name="uni0526" unicode="&#x526;" horiz-adv-x="773" 
d="M548 -175l28 175h-124l27 168q14 84 -14 120t-96 36q-26 0 -56 -4.5t-55 -15.5l-49 -304h-184l112 705h184l-39 -248q23 9 58 15t70 6q88 0 150 -37t89.5 -107t12.5 -168l-3 -22h99l-50 -319h-160z" />
    <glyph glyph-name="uni0527" unicode="&#x527;" horiz-adv-x="658" 
d="M22 0l112 705h178l-44 -275q54 73 156 73q80 0 123 -50.5t26 -161.5l-25 -160h86l-41 -261h-151l21 130h-114l45 288q6 39 -5.5 59t-45.5 20q-41 0 -67.5 -27.5t-34.5 -77.5l-41 -262h-178z" />
    <glyph glyph-name="uni0528" unicode="&#x528;" horiz-adv-x="799" 
d="M-70 -193l-12 125l51 6q33 4 48.5 19t20.5 46l112 702h184l-44 -272h291l43 272h184l-112 -705h-184l45 282h-291l-40 -255q-12 -74 -38 -120t-76.5 -69t-135.5 -28z" />
    <glyph glyph-name="uni0529" unicode="&#x529;" horiz-adv-x="633" 
d="M-86 -193l-12 125l51 6q33 4 48.5 19t20.5 46l77 489h178l-27 -173h156l27 173h178l-77 -492h-178l29 182h-157l-24 -155q-12 -74 -37.5 -120t-74.5 -69t-132 -28z" />
    <glyph glyph-name="uni052E" unicode="&#x52e;" horiz-adv-x="817" 
d="M574 -175l28 175h-124l88 555h-184l-20 -127q-30 -182 -100 -288t-192 -159l-79 131q58 32 98.5 75t67.5 112t44 177l36 229h537l-89 -561h99l-50 -319h-160z" />
    <glyph glyph-name="uni052F" unicode="&#x52f;" horiz-adv-x="660" 
d="M30 -17l-35 141q59 11 91 54.5t45 130.5l29 183h442l-57 -361h84l-42 -261h-150l21 130h-111l56 356h-103l-10 -61q-17 -103 -46.5 -168.5t-80.5 -100t-133 -43.5z" />
    <glyph glyph-name="uni1E08" unicode="&#x1e08;" horiz-adv-x="687" 
d="M405 -11q-98 0 -175.5 36.5t-122 109t-44.5 178.5q0 85 26 158t76.5 128t125 86t171.5 31q72 0 136 -21.5t101 -55.5l-69 -144q-81 61 -172 61q-67 0 -111.5 -31.5t-67 -85t-22.5 -119.5q0 -88 41 -129.5t129 -41.5q39 0 81 13t88 43l46 -145q-28 -22 -68 -38t-84 -24.5
t-85 -8.5zM350 -198q-33 0 -63 5.5t-52 17.5l30 70q36 -17 74 -17q51 0 51 23q0 16 -34 16q-17 0 -36 -4l-19 21l26 86h84l-16 -51q44 -1 67.5 -19t23.5 -50q0 -45 -38.5 -71.5t-97.5 -26.5zM397 765l130 176h182l-190 -176h-122z" />
    <glyph glyph-name="uni1E09" unicode="&#x1e09;" horiz-adv-x="484" 
d="M285 -11q-127 0 -192 63t-65 167q0 74 32.5 139t98.5 105t166 40q50 0 96.5 -12.5t77.5 -35.5l-51 -122q-19 16 -49 26t-59 10q-48 0 -76.5 -21.5t-41 -55.5t-12.5 -70q0 -44 24 -71.5t80 -27.5q24 0 52.5 9t51.5 26l36 -123q-29 -23 -77 -34.5t-92 -11.5zM226 -198
q-33 0 -63 5.5t-52 17.5l30 70q36 -17 74 -17q51 0 51 23q0 16 -34 16q-17 0 -36 -4l-19 21l26 86h84l-16 -51q44 -1 67.5 -19t23.5 -50q0 -45 -38.5 -71.5t-97.5 -26.5zM276 557l131 205h171l-187 -205h-115z" />
    <glyph glyph-name="uni1E0C" unicode="&#x1e0c;" horiz-adv-x="786" 
d="M25 0l112 705h250q178 0 274.5 -82t96.5 -227q1 -113 -46 -203t-138.5 -141.5t-224.5 -51.5h-324zM232 149h119q107 0 161.5 66t54.5 178q0 79 -45 121t-135 42h-90zM243 -224l23 149h159l-23 -149h-159z" />
    <glyph glyph-name="uni1E0D" unicode="&#x1e0d;" horiz-adv-x="620" 
d="M209 -11q-83 0 -132.5 58t-49.5 156q0 87 31 154.5t87 106.5t131 39q48 0 86 -19.5t58 -57.5l44 279h178l-112 -705h-174l11 69q-28 -38 -69 -59t-89 -21zM284 120q50 0 79 45t29 114q0 45 -20.5 69t-56.5 24q-51 0 -80 -44.5t-29 -114.5q0 -45 20.5 -69t57.5 -24z
M164 -224l23 149h159l-23 -149h-159z" />
    <glyph glyph-name="uni1E0E" unicode="&#x1e0e;" horiz-adv-x="786" 
d="M25 0l112 705h250q178 0 274.5 -82t96.5 -227q1 -113 -46 -203t-138.5 -141.5t-224.5 -51.5h-324zM232 149h119q107 0 161.5 66t54.5 178q0 79 -45 121t-135 42h-90zM162 -175l15 97h338l-16 -97h-337z" />
    <glyph glyph-name="uni1E0F" unicode="&#x1e0f;" horiz-adv-x="620" 
d="M209 -11q-83 0 -132.5 58t-49.5 156q0 87 31 154.5t87 106.5t131 39q48 0 86 -19.5t58 -57.5l44 279h178l-112 -705h-174l11 69q-28 -38 -69 -59t-89 -21zM284 120q50 0 79 45t29 114q0 45 -20.5 69t-56.5 24q-51 0 -80 -44.5t-29 -114.5q0 -45 20.5 -69t57.5 -24z
M83 -175l15 97h338l-16 -97h-337z" />
    <glyph glyph-name="uni1E14" unicode="&#x1e14;" horiz-adv-x="614" 
d="M26 0l111 705h498l-22 -142h-323l-21 -134h300l-23 -142h-300l-23 -145h322l-22 -142h-497zM384 908l-102 121h161l46 -121h-105zM247 774l15 97h337l-15 -97h-337z" />
    <glyph glyph-name="uni1E15" unicode="&#x1e15;" horiz-adv-x="556" 
d="M291 -11q-79 0 -138 28.5t-92 80.5t-33 121q0 85 37.5 149t101.5 99.5t144 35.5q84 0 135.5 -35.5t71.5 -96.5t10 -135l-4 -26h-331q2 -44 33 -67t85 -23q41 0 80.5 11.5t68.5 32.5l37 -116q-37 -28 -90.5 -43.5t-115.5 -15.5zM309 387q-45 0 -70.5 -27t-34.5 -66h189
q2 41 -18.5 67t-65.5 26zM309 695l-103 121h161l47 -121h-105zM172 561l16 97h337l-16 -97h-337z" />
    <glyph glyph-name="uni1E16" unicode="&#x1e16;" horiz-adv-x="614" 
d="M26 0l111 705h498l-22 -142h-323l-21 -134h300l-23 -142h-300l-23 -145h322l-22 -142h-497zM384 908l68 121h161l-124 -121h-105zM247 774l15 97h337l-15 -97h-337z" />
    <glyph glyph-name="uni1E17" unicode="&#x1e17;" horiz-adv-x="556" 
d="M291 -11q-79 0 -138 28.5t-92 80.5t-33 121q0 85 37.5 149t101.5 99.5t144 35.5q84 0 135.5 -35.5t71.5 -96.5t10 -135l-4 -26h-331q2 -44 33 -67t85 -23q41 0 80.5 11.5t68.5 32.5l37 -116q-37 -28 -90.5 -43.5t-115.5 -15.5zM309 387q-45 0 -70.5 -27t-34.5 -66h189
q2 41 -18.5 67t-65.5 26zM309 695l68 121h161l-124 -121h-105zM172 561l16 97h337l-16 -97h-337z" />
    <glyph glyph-name="uni1E1C" unicode="&#x1e1c;" horiz-adv-x="614" 
d="M26 0l111 705h498l-22 -142h-323l-21 -134h300l-23 -142h-300l-23 -145h322l-22 -142h-497zM273 -198q-33 0 -63 5.5t-52 17.5l30 70q36 -17 74 -17q51 0 51 23q0 16 -34 16q-17 0 -36 -4l-19 21l26 86h84l-16 -51q44 -1 67.5 -19t23.5 -50q0 -45 -38.5 -71.5
t-97.5 -26.5zM416 760q-84 0 -134.5 48.5t-50.5 123.5l96 12q0 -40 25 -62.5t71 -22.5q44 0 73.5 22.5t37.5 62.5l94 -12q-11 -79 -68 -125.5t-144 -46.5z" />
    <glyph glyph-name="uni1E1D" unicode="&#x1e1d;" horiz-adv-x="556" 
d="M291 -11q-79 0 -138 28.5t-92 80.5t-33 121q0 85 37.5 149t101.5 99.5t144 35.5q84 0 135.5 -35.5t71.5 -96.5t10 -135l-4 -26h-331q2 -44 33 -67t85 -23q41 0 80.5 11.5t68.5 32.5l37 -116q-37 -28 -90.5 -43.5t-115.5 -15.5zM309 387q-45 0 -70.5 -27t-34.5 -66h189
q2 41 -18.5 67t-65.5 26zM236 -198q-33 0 -63 5.5t-52 17.5l30 70q36 -17 74 -17q51 0 51 23q0 16 -34 16q-17 0 -36 -4l-19 21l26 86h84l-16 -51q44 -1 67.5 -19t23.5 -50q0 -45 -38.5 -71.5t-97.5 -26.5zM348 553q-79 0 -124.5 54t-40.5 143l96 9q-1 -51 19 -78t57 -27
t61.5 27t31.5 78l95 -9q-9 -90 -62 -143.5t-133 -53.5z" />
    </font>
</defs>
</svg>
