<?xml version="1.0" standalone="no"?>
<!DOCTYPE svg PUBLIC "-//W3C//DTD SVG 1.1//EN" "http://www.w3.org/Graphics/SVG/1.1/DTD/svg11.dtd" >
<svg xmlns="http://www.w3.org/2000/svg" xmlns:xlink="http://www.w3.org/1999/xlink" version="1.1">
<metadata>
Created by FontForge 20170731 at Mon Jun 29 15:02:16 2020
 By Aleksey,,,
Copyright 2016 The Nunito Sans Project Authors (https://github.com/Fonthausen/NunitoSans)
</metadata>
<defs>
<font id="NunitoSans-Light" horiz-adv-x="0" >
  <font-face 
    font-family="Nunito Sans Light"
    font-weight="300"
    font-stretch="normal"
    units-per-em="1000"
    panose-1="0 0 0 0 0 0 0 0 0 0"
    ascent="800"
    descent="-200"
    x-height="485"
    cap-height="705"
    bbox="-245 -270 1277 1039"
    underline-thickness="32"
    underline-position="-129"
    unicode-range="U+000D-FB02"
  />
<missing-glyph horiz-adv-x="500" 
d="M50 -180v885h400v-885h-400zM100 -130h300v785h-300v-785z" />
    <glyph glyph-name="fi" unicode="fi" horiz-adv-x="535" 
d="M103 0v436h-96v49h96v24q0 185 187 196l34 2l5 -49l-45 -3q-62 -4 -91 -39t-29 -102v-29h290v-485h-61v436h-229v-436h-61zM383 613v77h81v-77h-81z" />
    <glyph glyph-name="fl" unicode="fl" horiz-adv-x="604" 
d="M103 0v436h-96v49h96v24q0 185 187 196l35 3l5 -50l-46 -3q-62 -4 -91 -39t-29 -102v-29h143v-49h-143v-436h-61zM540 -8q-68 0 -104.5 41.5t-36.5 119.5v552h61v-545q0 -115 90 -115q25 0 46 6l-2 -53q-29 -6 -54 -6z" />
    <glyph glyph-name=".notdef" horiz-adv-x="500" 
d="M50 -180v885h400v-885h-400zM100 -130h300v785h-300v-785z" />
    <glyph glyph-name=".null" 
 />
    <glyph glyph-name="nonmarkingreturn" horiz-adv-x="333" 
 />
    <glyph glyph-name="NULL" 
 />
    <glyph glyph-name="NULL" 
 />
    <glyph glyph-name="CR" unicode="&#xd;" horiz-adv-x="251" 
 />
    <glyph glyph-name="space" unicode=" " horiz-adv-x="251" 
 />
    <glyph glyph-name="exclam" unicode="!" horiz-adv-x="219" 
d="M91 173l-19 532h76l-19 -532h-38zM67 0v86h85v-86h-85z" />
    <glyph glyph-name="quotedbl" unicode="&#x22;" horiz-adv-x="366" 
d="M86 434l-17 271h73l-15 -271h-41zM241 434l-17 271h73l-15 -271h-41z" />
    <glyph glyph-name="numbersign" unicode="#" horiz-adv-x="600" 
d="M91 0l37 187h-97v49h106l47 241h-134v49h143l35 179h52l-34 -179h174l34 179h53l-34 -179h96v-49h-106l-47 -241h134v-49h-143l-37 -187h-53l36 187h-173l-36 -187h-53zM189 236h174l47 241h-174z" />
    <glyph glyph-name="dollar" unicode="$" horiz-adv-x="600" 
d="M283 -115v111q-67 2 -126.5 22.5t-105.5 62.5l26 51q48 -41 100 -60.5t125 -19.5q90 0 135 36.5t45 95.5q0 48 -32.5 76t-107.5 45l-98 20q-90 19 -133.5 63.5t-43.5 119.5q0 56 27 100t75.5 70.5t113.5 30.5v111h54v-112q50 -4 101.5 -25t88.5 -62l-24 -50
q-41 43 -90 62.5t-109 19.5q-80 0 -128.5 -40t-48.5 -105q0 -51 31 -81.5t98 -44.5l97 -21q98 -20 145 -61.5t47 -112.5q0 -82 -58 -132t-150 -58v-112h-54z" />
    <glyph glyph-name="percent" unicode="%" horiz-adv-x="923" 
d="M276 -23l-45 26l415 725l46 -26zM227 282q-77 0 -121.5 56t-44.5 160q0 102 44.5 158.5t121.5 56.5t122 -56.5t45 -158.5q0 -103 -44.5 -159.5t-122.5 -56.5zM227 329q52 0 81.5 43t29.5 126q0 82 -29.5 124.5t-81.5 42.5q-51 0 -80.5 -42.5t-29.5 -124.5
q0 -84 29.5 -126.5t80.5 -42.5zM695 -8q-77 0 -121.5 56t-44.5 160q0 102 44.5 158.5t121.5 56.5q78 0 122.5 -56.5t44.5 -158.5q0 -103 -44.5 -159.5t-122.5 -56.5zM695 39q52 0 81.5 42.5t29.5 126.5q0 82 -29.5 124.5t-81.5 42.5q-51 0 -80.5 -42.5t-29.5 -124.5
q0 -84 29.5 -126.5t80.5 -42.5z" />
    <glyph glyph-name="ampersand" unicode="&#x26;" horiz-adv-x="678" 
d="M281 -8q-103 0 -160 47t-57 126q0 67 37 115.5t113 100.5l20 14q-48 53 -67 91t-19 77q0 67 44.5 108.5t120.5 41.5q63 0 105.5 -37t42.5 -100q0 -34 -13 -63.5t-44 -60t-86 -67.5l177 -203q22 42 35 101.5t15 124.5h55q-2 -79 -19.5 -147t-47.5 -121l126 -140h-74
l-84 95q-40 -49 -97 -76t-123 -27zM313 663q-47 0 -76.5 -27.5t-29.5 -71.5q0 -23 6.5 -42t23.5 -42t47 -57q67 46 94.5 79t27.5 69q0 42 -26 67t-67 25zM283 44q113 0 182 91l-197 221l-18 -13q-47 -32 -74 -58.5t-39 -54t-12 -62.5q0 -59 40 -91.5t118 -32.5z" />
    <glyph glyph-name="quotesingle" unicode="'" horiz-adv-x="211" 
d="M86 434l-17 271h73l-15 -271h-41z" />
    <glyph glyph-name="parenleft" unicode="(" horiz-adv-x="299" 
d="M217 -191q-58 111 -86 223.5t-28 230.5t28 230t86 224l47 -17q-96 -218 -96 -437t96 -437z" />
    <glyph glyph-name="parenright" unicode=")" horiz-adv-x="299" 
d="M81 -191l-46 17q95 221 95 437t-95 437l46 17q59 -112 87 -224.5t28 -229.5q0 -118 -28 -230.5t-87 -223.5z" />
    <glyph glyph-name="asterisk" unicode="*" horiz-adv-x="449" 
d="M150 360l-42 26l81 131l-154 -5v50l154 -5l-81 132l43 25l74 -138l73 138l43 -25l-81 -132l154 5v-50l-154 5l81 -131l-43 -25l-73 137z" />
    <glyph glyph-name="plus" unicode="+" horiz-adv-x="600" 
d="M274 40v222h-218v50h218v216h52v-216h218v-50h-218v-222h-52z" />
    <glyph glyph-name="comma" unicode="," horiz-adv-x="219" 
d="M100 -106l-31 25q21 22 28.5 41.5t9.5 39.5h-40v86h85v-64q0 -36 -11 -67.5t-41 -60.5z" />
    <glyph glyph-name="hyphen" unicode="-" horiz-adv-x="420" 
d="M74 240v52h272v-52h-272z" />
    <glyph glyph-name="period" unicode="." horiz-adv-x="219" 
d="M67 0v86h85v-86h-85z" />
    <glyph glyph-name="slash" unicode="/" horiz-adv-x="269" 
d="M32 -59l-50 15l255 792l51 -15z" />
    <glyph glyph-name="zero" unicode="0" horiz-adv-x="600" 
d="M300 -8q-119 0 -180.5 92t-61.5 268q0 178 61.5 269.5t180.5 91.5q120 0 181 -91t61 -269q0 -176 -62 -268.5t-180 -92.5zM300 47q91 0 135 75t44 231q0 158 -43.5 231.5t-135.5 73.5q-91 0 -135 -74t-44 -231q0 -156 44 -231t135 -75z" />
    <glyph glyph-name="one" unicode="1" horiz-adv-x="600" 
d="M131 0v54h162v574l-129 -84l-28 47l174 114h44v-651h152v-54h-375z" />
    <glyph glyph-name="two" unicode="2" horiz-adv-x="600" 
d="M94 0v46l247 269q53 58 77.5 107.5t24.5 101.5q0 65 -39 99t-114 34q-112 0 -194 -84l-26 50q38 40 97.5 65t125.5 25q102 0 157.5 -48.5t55.5 -137.5q0 -63 -31.5 -124.5t-94.5 -129.5l-206 -219h361v-54h-441z" />
    <glyph glyph-name="three" unicode="3" horiz-adv-x="600" 
d="M294 -8q-68 0 -130 21.5t-105 63.5l25 50q49 -42 100 -60.5t110 -18.5q81 0 124 37t43 107q0 68 -44.5 103.5t-128.5 35.5h-100v54h95q73 0 115.5 39t42.5 108q0 60 -39 92.5t-111 32.5q-113 0 -195 -84l-25 50q38 42 97.5 66t124.5 24q99 0 155 -47t56 -131
q0 -60 -31 -105.5t-84 -65.5q64 -16 99 -62t35 -113q0 -91 -61 -144t-168 -53z" />
    <glyph glyph-name="four" unicode="4" horiz-adv-x="600" 
d="M390 0v159h-334v47l344 499h52v-492h108v-54h-108v-159h-62zM390 213v385l-266 -385h266z" />
    <glyph glyph-name="five" unicode="5" horiz-adv-x="600" 
d="M319 -8q-67 0 -128 22t-104 63l25 50q48 -41 98.5 -60t108.5 -19q78 0 123 45t45 117q0 75 -43 123.5t-118 48.5q-108 0 -168 -92h-48v415h397v-54h-336v-281q28 32 70 50t93 18q66 0 114 -28t74.5 -78.5t26.5 -116.5t-28 -116t-79.5 -78.5t-122.5 -28.5z" />
    <glyph glyph-name="six" unicode="6" horiz-adv-x="600" 
d="M324 -8q-123 0 -189 89.5t-66 251.5q0 184 73 282t204 98q53 0 107.5 -23.5t87.5 -63.5l-25 -50q-36 41 -80.5 61t-90.5 20q-103 0 -159 -78.5t-56 -233.5v-59q19 71 72.5 111.5t126.5 40.5q63 0 111.5 -28.5t76 -78.5t27.5 -114q0 -66 -28.5 -116.5t-78 -79.5
t-113.5 -29zM319 47q73 0 118 46.5t45 121.5q0 74 -45 121t-118 47t-118 -47t-45 -121q0 -75 45 -121.5t118 -46.5z" />
    <glyph glyph-name="seven" unicode="7" horiz-adv-x="600" 
d="M124 0l332 650h-383v55h454v-46l-335 -659h-68z" />
    <glyph glyph-name="eight" unicode="8" horiz-adv-x="600" 
d="M300 -8q-117 0 -182 50.5t-65 142.5q0 67 37 113.5t98 61.5q-55 19 -86.5 64t-31.5 103q0 88 62.5 137t167.5 49t167.5 -49t62.5 -137q0 -58 -31.5 -103t-86.5 -64q61 -16 98 -62t37 -113q0 -92 -65 -142.5t-182 -50.5zM300 384q79 0 124 37t45 102t-45 101t-124 36
t-124 -36t-45 -101t45 -102t124 -37zM300 45q185 0 185 143q0 142 -185 142t-185 -142q0 -143 185 -143z" />
    <glyph glyph-name="nine" unicode="9" horiz-adv-x="600" 
d="M254 -8q-53 0 -107.5 23.5t-87.5 63.5l25 50q36 -41 80.5 -61t90.5 -20q103 0 159 78.5t56 233.5v60q-18 -71 -72 -112t-127 -41q-63 0 -111.5 28.5t-76 78.5t-27.5 114q0 66 28.5 116.5t78 79.5t113.5 29q123 0 189 -89.5t66 -251.5q0 -184 -73 -282t-204 -98zM281 322
q73 0 118.5 47t45.5 121q0 75 -45.5 122t-118.5 47q-72 0 -117.5 -47t-45.5 -122q0 -74 45.5 -121t117.5 -47z" />
    <glyph glyph-name="colon" unicode=":" horiz-adv-x="219" 
d="M67 400v85h85v-85h-85zM67 0v86h85v-86h-85z" />
    <glyph glyph-name="semicolon" unicode=";" horiz-adv-x="219" 
d="M67 400v85h85v-85h-85zM100 -106l-31 25q21 22 28.5 41.5t9.5 39.5h-40v86h85v-64q0 -36 -11 -67.5t-41 -60.5z" />
    <glyph glyph-name="less" unicode="&#x3c;" horiz-adv-x="600" 
d="M544 36l-488 226v50l488 226v-55l-424 -196l424 -195v-56z" />
    <glyph glyph-name="equal" unicode="=" horiz-adv-x="600" 
d="M56 362v50h488v-50h-488zM56 163v49h488v-49h-488z" />
    <glyph glyph-name="greater" unicode="&#x3e;" horiz-adv-x="600" 
d="M56 36v56l424 195l-424 196v55l488 -226v-50z" />
    <glyph glyph-name="question" unicode="?" horiz-adv-x="436" 
d="M181 173v24q0 53 20 99.5t71 105.5q40 48 56.5 82.5t16.5 72.5q0 46 -33 73t-89 27q-58 0 -106 -21t-90 -63l-25 50q37 40 96.5 65t125.5 25q83 0 133.5 -42t50.5 -111q0 -48 -20.5 -89.5t-71.5 -98.5q-47 -53 -67.5 -93t-24.5 -83l-2 -23h-41zM159 0v86h85v-86h-85z" />
    <glyph glyph-name="at" unicode="@" horiz-adv-x="945" 
d="M484 -163q-126 0 -221 53.5t-147 152t-52 232.5q0 97 31.5 177.5t89 139t136.5 90t175 31.5q114 0 200.5 -46t135.5 -129t49 -193q0 -87 -24 -151t-66.5 -99.5t-99.5 -35.5q-48 0 -77 24t-33 66q-28 -43 -68.5 -66.5t-84.5 -23.5q-76 0 -118 47.5t-42 131.5
q0 74 28.5 131.5t77.5 91t111 33.5q49 0 82.5 -22t47.5 -61l12 74h54l-46 -267q-2 -13 -3 -24t-1 -20q0 -70 64 -70q41 0 72 30t48.5 84.5t17.5 126.5q0 96 -43 168t-119 112.5t-176 40.5q-113 0 -198 -49t-133 -137t-48 -205q0 -122 45 -209.5t128 -134t195 -46.5
q84 0 151 27t109 75l30 -39q-48 -54 -123.5 -82.5t-166.5 -28.5zM433 107q47 0 84.5 28.5t59 78t21.5 112.5q0 119 -109 119q-47 0 -84.5 -26.5t-59.5 -73.5t-22 -106q0 -64 29 -98t81 -34z" />
    <glyph glyph-name="A" unicode="A" horiz-adv-x="722" 
d="M27 0l307 705h55l306 -705h-64l-81 188h-378l-80 -188h-65zM360 629l-165 -388h332l-165 388h-2z" />
    <glyph glyph-name="B" unicode="B" horiz-adv-x="671" 
d="M92 0v705h269q108 0 167.5 -48t59.5 -137q0 -58 -31 -99t-84 -60q61 -15 96 -58.5t35 -110.5q0 -94 -60 -143t-170 -49h-282zM152 383h202q84 0 128 34.5t44 100.5t-44 100.5t-128 34.5h-202v-270zM152 52h217q173 0 173 139q0 72 -43 106t-130 34h-217v-279z" />
    <glyph glyph-name="C" unicode="C" horiz-adv-x="670" 
d="M386 -8q-101 0 -173 43.5t-110.5 124.5t-38.5 193q0 111 38.5 192t110.5 124.5t173 43.5q73 0 134.5 -23.5t104.5 -68.5l-27 -51q-47 46 -97.5 66t-113.5 20q-124 0 -190.5 -79.5t-66.5 -223.5q0 -145 66.5 -224.5t190.5 -79.5q63 0 113.5 20t97.5 66l27 -51
q-43 -45 -104.5 -68.5t-134.5 -23.5z" />
    <glyph glyph-name="D" unicode="D" horiz-adv-x="733" 
d="M92 0v705h227q168 0 259.5 -90t91.5 -262t-91.5 -262.5t-259.5 -90.5h-227zM153 54h161q290 0 290 299q0 298 -290 298h-161v-597z" />
    <glyph glyph-name="E" unicode="E" horiz-adv-x="576" 
d="M92 0v705h434v-53h-374v-268h353v-53h-353v-278h374v-53h-434z" />
    <glyph glyph-name="F" unicode="F" horiz-adv-x="542" 
d="M92 0v705h424v-53h-363v-269h343v-53h-343v-330h-61z" />
    <glyph glyph-name="G" unicode="G" horiz-adv-x="722" 
d="M405 -8q-167 0 -254 95t-87 266q0 111 38.5 192t111 124.5t175.5 43.5q153 0 244 -91l-27 -50q-49 45 -101 64.5t-117 19.5q-125 0 -192 -79.5t-67 -223.5q0 -149 69.5 -227t207.5 -78q94 0 175 32v229h-187v52h242v-321q-26 -14 -64.5 -25t-82 -17t-84.5 -6z" />
    <glyph glyph-name="H" unicode="H" horiz-adv-x="756" 
d="M92 0v705h61v-320h450v320h61v-705h-61v330h-450v-330h-61z" />
    <glyph glyph-name="I" unicode="I" horiz-adv-x="245" 
d="M92 0v705h61v-705h-61z" />
    <glyph glyph-name="J" unicode="J" horiz-adv-x="310" 
d="M-5 -7l-5 54l56 4q53 4 82 39t29 93v522h62v-523q0 -83 -43 -131t-124 -54z" />
    <glyph glyph-name="K" unicode="K" horiz-adv-x="607" 
d="M92 0v705h61v-324h2l356 324h81l-379 -344l403 -361h-84l-377 335h-2v-335h-61z" />
    <glyph glyph-name="L" unicode="L" horiz-adv-x="535" 
d="M92 0v705h61v-650h368v-55h-429z" />
    <glyph glyph-name="M" unicode="M" horiz-adv-x="849" 
d="M94 0v705h52l280 -531l278 531h52v-705h-57v586l-251 -477h-44l-254 476v-585h-56z" />
    <glyph glyph-name="N" unicode="N" horiz-adv-x="736" 
d="M92 0v705h49l446 -601v601h57v-705h-48l-447 602v-602h-57z" />
    <glyph glyph-name="O" unicode="O" horiz-adv-x="759" 
d="M379 -8q-97 0 -167.5 44t-109 125t-38.5 192t38 192t109 124.5t168 43.5q98 0 168.5 -43.5t109 -124t38.5 -191.5q0 -112 -38.5 -193t-109.5 -125t-168 -44zM379 48q119 0 185 80t66 225t-65.5 224.5t-185.5 79.5q-119 0 -184.5 -80t-65.5 -224t65.5 -224.5t184.5 -80.5z
" />
    <glyph glyph-name="P" unicode="P" horiz-adv-x="624" 
d="M92 0v705h266q113 0 172.5 -54t59.5 -154q0 -99 -59.5 -153.5t-172.5 -54.5h-205v-289h-61zM153 343h200q175 0 175 154q0 155 -175 155h-200v-309z" />
    <glyph glyph-name="Q" unicode="Q" horiz-adv-x="759" 
d="M576 -195l-78 125q-38 62 -119 62v0q-97 0 -167.5 44t-109 125t-38.5 192t38 192t109 124.5t168 43.5q98 0 168.5 -43.5t109 -124t38.5 -191.5q0 -133 -55 -223t-152 -123q22 -7 39 -24t34 -47l65 -103zM379 48q119 0 185 80t66 225t-65.5 224.5t-185.5 79.5
q-119 0 -184.5 -80t-65.5 -224t65.5 -224.5t184.5 -80.5z" />
    <glyph glyph-name="R" unicode="R" horiz-adv-x="661" 
d="M92 0v705h266q113 0 172.5 -52t59.5 -148q0 -79 -43 -128t-122 -63q43 -16 76 -78l128 -236h-67l-122 226q-26 47 -58 63t-86 16h-143v-305h-61zM153 357h197q178 0 178 148q0 147 -178 147h-197v-295z" />
    <glyph glyph-name="S" unicode="S" horiz-adv-x="607" 
d="M312 -8q-82 0 -147.5 21.5t-113.5 63.5l24 51q52 -41 106.5 -60.5t130.5 -19.5q95 0 142.5 37t47.5 97q0 50 -34.5 78t-113.5 44l-101 21q-94 19 -140.5 64t-46.5 120q0 61 31.5 107t87.5 71.5t129 25.5q146 0 233 -88l-24 -50q-46 43 -96 62.5t-113 19.5
q-84 0 -134.5 -40t-50.5 -107q0 -53 32 -83.5t103 -44.5l102 -21q101 -21 150 -62.5t49 -113.5q0 -57 -30.5 -100.5t-87.5 -68t-135 -24.5z" />
    <glyph glyph-name="T" unicode="T" horiz-adv-x="594" 
d="M266 0v650h-263v55h588v-55h-263v-650h-62z" />
    <glyph glyph-name="U" unicode="U" horiz-adv-x="724" 
d="M362 -8q-135 0 -205 72.5t-70 210.5v430h61v-425q0 -232 214 -232t214 232v425h61v-430q0 -138 -70 -210.5t-205 -72.5z" />
    <glyph glyph-name="V" unicode="V" horiz-adv-x="678" 
d="M309 0l-305 705h66l270 -628l270 628h64l-306 -705h-59z" />
    <glyph glyph-name="W" unicode="W" horiz-adv-x="1096" 
d="M279 0l-245 705h64l211 -614l213 614h52l213 -618l213 618h62l-245 -705h-58l-211 612l-213 -612h-56z" />
    <glyph glyph-name="X" unicode="X" horiz-adv-x="640" 
d="M17 0l268 361l-254 344h73l217 -297l216 297h73l-254 -344l267 -361h-73l-230 313l-229 -313h-74z" />
    <glyph glyph-name="Y" unicode="Y" horiz-adv-x="586" 
d="M262 0v338l-269 367h72l229 -313l230 313h69l-269 -368v-337h-62z" />
    <glyph glyph-name="Z" unicode="Z" horiz-adv-x="582" 
d="M49 0v45l420 605h-420v55h496v-45l-420 -605h434v-55h-510z" />
    <glyph glyph-name="bracketleft" unicode="[" horiz-adv-x="298" 
d="M111 -180v885h181v-50h-120v-785h120v-50h-181z" />
    <glyph glyph-name="backslash" unicode="\" horiz-adv-x="269" 
d="M237 -59l-255 792l50 15l256 -792z" />
    <glyph glyph-name="bracketright" unicode="]" horiz-adv-x="298" 
d="M6 -180v50h120v785h-120v50h181v-885h-181z" />
    <glyph glyph-name="asciicircum" unicode="^" horiz-adv-x="600" 
d="M50 140l225 488h50l225 -488h-54l-196 423l-196 -423h-54z" />
    <glyph glyph-name="underscore" unicode="_" horiz-adv-x="500" 
d="M20 -43v43h460v-43h-460z" />
    <glyph glyph-name="grave" unicode="`" horiz-adv-x="500" 
d="M227 550l-127 201h70l103 -201h-46z" />
    <glyph glyph-name="a" unicode="a" horiz-adv-x="522" 
d="M230 -8q-49 0 -87.5 19t-61 52t-22.5 74q0 54 27 84.5t91 43.5t176 13h31v36q0 67 -27 97.5t-86 30.5q-44 0 -84.5 -13t-83.5 -41l-24 47q38 27 90 43t101 16q88 0 130.5 -45t42.5 -138v-311h-58v87q-20 -45 -60.5 -70t-94.5 -25zM238 41q43 0 75.5 20.5t51.5 56.5t19 82
v33h-30q-90 0 -140.5 -8t-70.5 -28t-20 -55q0 -45 31 -73t84 -28z" />
    <glyph glyph-name="b" unicode="b" horiz-adv-x="575" 
d="M311 -8q-59 0 -103.5 26.5t-66.5 73.5v-92h-61v705h61v-310q22 46 66.5 72.5t103.5 26.5q98 0 156.5 -68t58.5 -183q0 -77 -26.5 -133.5t-75 -87t-113.5 -30.5zM302 43q74 0 118 52.5t44 147.5t-44 147t-118 52t-118 -52t-44 -147t44 -147.5t118 -52.5z" />
    <glyph glyph-name="c" unicode="c" horiz-adv-x="459" 
d="M278 -8q-71 0 -122 31.5t-78.5 89t-27.5 133.5q0 115 60.5 181.5t167.5 66.5q44 0 87 -17t72 -47l-24 -46q-31 30 -66 43.5t-67 13.5q-81 0 -124.5 -51t-43.5 -145t43.5 -147.5t124.5 -53.5q32 0 67 13.5t66 43.5l24 -46q-29 -29 -72.5 -46t-86.5 -17z" />
    <glyph glyph-name="d" unicode="d" horiz-adv-x="575" 
d="M265 -8q-66 0 -114 30.5t-74.5 87t-26.5 133.5q0 115 58 183t157 68q58 0 102.5 -26.5t66.5 -72.5v310h61v-705h-60v92q-22 -47 -66.5 -73.5t-103.5 -26.5zM273 43q74 0 118 52.5t44 147.5t-44 147t-118 52t-117.5 -52t-43.5 -147t43.5 -147.5t117.5 -52.5z" />
    <glyph glyph-name="e" unicode="e" horiz-adv-x="527" 
d="M291 -8q-112 0 -176.5 66.5t-64.5 182.5q0 75 29 132t80.5 89t118.5 32q97 0 151 -63t54 -173v-28h-373q3 -90 49.5 -138.5t129.5 -48.5q45 0 84.5 14t77.5 47l24 -46q-32 -31 -82 -48.5t-102 -17.5zM279 445q-76 0 -118.5 -47.5t-49.5 -122.5h317q-2 80 -40 125t-109 45
z" />
    <glyph glyph-name="f" unicode="f" horiz-adv-x="319" 
d="M103 0v436h-96v49h96v24q0 185 187 196l35 3l5 -50l-46 -3q-62 -4 -91 -39t-29 -102v-29h143v-49h-143v-436h-61z" />
    <glyph glyph-name="g" unicode="g" horiz-adv-x="578" 
d="M291 -188q-127 0 -211 67l23 46q46 -33 89 -47.5t97 -14.5q73 0 111 40t38 116v94q-21 -48 -66.5 -75t-103.5 -27q-68 0 -116.5 30.5t-75 85t-26.5 126.5t26.5 126t75 84.5t116.5 30.5q58 0 103 -27t66 -74v92h60v-457q0 -216 -206 -216zM275 63q75 0 119 51.5t44 138.5
t-44 138t-119 51q-76 0 -119.5 -51t-43.5 -138t43.5 -138.5t119.5 -51.5z" />
    <glyph glyph-name="h" unicode="h" horiz-adv-x="560" 
d="M80 0v705h61v-304q25 46 69.5 69.5t98.5 23.5q173 0 173 -188v-306h-61v301q0 72 -29 106t-92 34q-72 0 -115.5 -44.5t-43.5 -119.5v-277h-61z" />
    <glyph glyph-name="i" unicode="i" horiz-adv-x="222" 
d="M70 613v77h82v-77h-82zM80 0v485h61v-485h-61z" />
    <glyph glyph-name="j" unicode="j" horiz-adv-x="225" 
d="M73 613v77h82v-77h-82zM-53 -193l-4 50l42 4q99 8 99 120v504h61v-499q0 -166 -155 -176z" />
    <glyph glyph-name="k" unicode="k" horiz-adv-x="484" 
d="M80 0v705h61v-440h2l239 220h81l-255 -234l279 -251h-81l-263 233h-2v-233h-61z" />
    <glyph glyph-name="l" unicode="l" horiz-adv-x="285" 
d="M221 -8q-68 0 -104.5 41.5t-36.5 119.5v552h61v-545q0 -115 90 -115q25 0 46 6l-2 -53q-29 -6 -54 -6z" />
    <glyph glyph-name="m" unicode="m" horiz-adv-x="847" 
d="M82 0v485h60v-85q45 94 153 94q116 0 147 -101q21 47 64 74t100 27q161 0 161 -188v-306h-61v301q0 72 -25.5 106t-85.5 34q-64 0 -102 -44.5t-38 -120.5v-276h-61v301q0 72 -25.5 106t-84.5 34q-65 0 -103 -44.5t-38 -120.5v-276h-61z" />
    <glyph glyph-name="n" unicode="n" horiz-adv-x="560" 
d="M80 0v485h60v-87q24 48 69 72t100 24q173 0 173 -188v-306h-61v301q0 72 -29 106t-92 34q-72 0 -115.5 -44.5t-43.5 -119.5v-277h-61z" />
    <glyph glyph-name="o" unicode="o" horiz-adv-x="547" 
d="M273 -8q-68 0 -118 30.5t-77.5 87t-27.5 133.5q0 76 27.5 132.5t77.5 87.5t118 31q69 0 119 -31t77.5 -87.5t27.5 -132.5q0 -77 -27.5 -133.5t-77.5 -87t-119 -30.5zM273 43q74 0 118 52.5t44 147.5t-44 147t-118 52t-117.5 -52t-43.5 -147t43.5 -147.5t117.5 -52.5z" />
    <glyph glyph-name="p" unicode="p" horiz-adv-x="575" 
d="M80 -180v665h61v-91q22 46 66.5 73t103.5 27q65 0 113.5 -31t75 -87t26.5 -133t-26.5 -133.5t-75 -87t-113.5 -30.5q-59 0 -103.5 26t-66.5 72v-270h-61zM302 43q74 0 118 52.5t44 147.5t-44 147t-118 52t-118 -52t-44 -147t44 -147.5t118 -52.5z" />
    <glyph glyph-name="q" unicode="q" horiz-adv-x="575" 
d="M434 -180v271q-22 -46 -66.5 -72.5t-102.5 -26.5q-66 0 -114.5 30.5t-74.5 87t-26 133.5t26.5 133t74.5 87t114 31q59 0 103.5 -27t66.5 -74v92h60v-665h-61zM273 43q74 0 118 52.5t44 147.5t-44 147t-118 52t-117.5 -52t-43.5 -147t43.5 -147.5t117.5 -52.5z" />
    <glyph glyph-name="r" unicode="r" horiz-adv-x="342" 
d="M80 0v485h60v-88q21 46 61 70t102 28l25 2l6 -53l-43 -5q-71 -6 -110 -46.5t-39 -108.5v-284h-62z" />
    <glyph glyph-name="s" unicode="s" horiz-adv-x="478" 
d="M238 -8q-54 0 -103.5 16t-81.5 46l22 45q37 -30 79 -43.5t86 -13.5q62 0 93.5 22.5t31.5 62.5q0 31 -21 49t-66 29l-87 20q-123 28 -123 127q0 64 50 103t132 39q50 0 94 -16.5t72 -47.5l-24 -45q-29 29 -66 43.5t-77 14.5q-58 0 -89.5 -24t-31.5 -65q0 -31 19 -50
t62 -29l87 -20q65 -15 97 -44.5t32 -79.5q0 -65 -51 -102t-136 -37z" />
    <glyph glyph-name="t" unicode="t" horiz-adv-x="335" 
d="M263 -8q-81 0 -121.5 44t-40.5 126v274h-96v49h96v150h61v-150h157v-49h-157v-266q0 -61 25 -93t83 -32q17 0 33 4t28 9l12 -48q-11 -7 -35 -12.5t-45 -5.5z" />
    <glyph glyph-name="u" unicode="u" horiz-adv-x="553" 
d="M251 -8q-173 0 -173 188v305h61v-302q0 -71 29 -105t91 -34q67 0 109.5 45t42.5 120v276h61v-485h-59v86q-24 -46 -66.5 -70t-95.5 -24z" />
    <glyph glyph-name="v" unicode="v" horiz-adv-x="509" 
d="M224 0l-208 485h68l171 -418l174 418h64l-208 -485h-61z" />
    <glyph glyph-name="w" unicode="w" horiz-adv-x="835" 
d="M208 0l-176 485h65l143 -413l149 413h60l146 -414l146 414h63l-177 -485h-63l-146 406l-147 -406h-63z" />
    <glyph glyph-name="x" unicode="x" horiz-adv-x="515" 
d="M22 0l200 251l-189 234h73l152 -192l153 192h72l-189 -235l201 -250h-74l-163 205l-164 -205h-72z" />
    <glyph glyph-name="y" unicode="y" horiz-adv-x="509" 
d="M142 -180l80 182l-206 483h68l171 -418l173 418h66l-286 -665h-66z" />
    <glyph glyph-name="z" unicode="z" horiz-adv-x="459" 
d="M57 0v42l290 394h-290v49h359v-42l-289 -394h300v-49h-370z" />
    <glyph glyph-name="braceleft" unicode="{" horiz-adv-x="335" 
d="M239 -180q-91 0 -91 93v243q0 41 -17 60t-57 21l-23 2v48l23 2q40 2 57 20.5t17 60.5v242q0 93 91 93h90v-50h-76q-44 0 -44 -46v-245q0 -39 -19.5 -66.5t-50.5 -34.5q31 -7 50.5 -34.5t19.5 -66.5v-246q0 -46 44 -46h76v-50h-90z" />
    <glyph glyph-name="bar" unicode="|" horiz-adv-x="254" 
d="M97 -180v885h61v-885h-61z" />
    <glyph glyph-name="braceright" unicode="}" horiz-adv-x="335" 
d="M6 -180v50h76q44 0 44 46v246q0 39 19.5 66.5t50.5 34.5q-31 7 -50.5 34.5t-19.5 66.5v245q0 46 -44 46h-76v50h90q91 0 91 -93v-242q0 -42 16.5 -60.5t56.5 -20.5l23 -2v-48l-23 -2q-40 -2 -56.5 -20.5t-16.5 -60.5v-243q0 -93 -91 -93h-90z" />
    <glyph glyph-name="asciitilde" unicode="~" horiz-adv-x="600" 
d="M418 221q-26 0 -57 10t-73 34q-41 23 -63.5 31t-38.5 8q-58 0 -87 -66l-43 20q41 96 127 96q26 0 54.5 -9.5t70.5 -32.5q39 -22 62.5 -32t43.5 -10q60 0 88 67l42 -21q-41 -95 -126 -95z" />
    <glyph glyph-name="uni00A0" unicode="&#xa0;" horiz-adv-x="251" 
 />
    <glyph glyph-name="exclamdown" unicode="&#xa1;" horiz-adv-x="219" 
d="M67 399v86h85v-86h-85zM72 -180l19 493h38l19 -493h-76z" />
    <glyph glyph-name="cent" unicode="&#xa2;" horiz-adv-x="600" 
d="M290 -115v110q-58 7 -102 40.5t-68.5 87t-24.5 120.5q0 65 24 117.5t68 86t103 42.5v116h54v-114q43 -3 84.5 -20t66.5 -44l-24 -45q-28 28 -65.5 42.5t-76.5 14.5q-79 0 -125 -54t-46 -142q0 -90 45.5 -143t124.5 -53q40 0 77.5 13.5t65.5 42.5l24 -44q-26 -28 -67 -45
t-84 -21v-108h-54z" />
    <glyph glyph-name="sterling" unicode="&#xa3;" horiz-adv-x="600" 
d="M49 0v54h105v275h-105v48h105v139q0 95 52 146t155 51q56 0 110 -21t91 -59l-28 -50q-30 39 -76.5 57t-100.5 18q-141 0 -141 -139v-142h186v-48h-186v-275h333v-54h-500z" />
    <glyph glyph-name="currency" unicode="&#xa4;" horiz-adv-x="600" 
d="M76 -24l-39 40l74 76q-24 31 -37.5 70.5t-13.5 82.5t13.5 82.5t37.5 71.5l-74 75l39 40l74 -76q30 26 69 40.5t82 14.5q42 0 79.5 -14t68.5 -39l72 74l40 -40l-73 -74q25 -32 39 -71.5t14 -83.5t-14 -83.5t-39 -71.5l73 -74l-40 -40l-72 75q-30 -26 -68 -40t-80 -14
q-43 0 -81.5 14.5t-69.5 39.5zM300 53q50 0 90.5 26t64.5 69.5t24 96.5t-24 97t-64.5 69.5t-90.5 25.5t-91 -26t-65 -69.5t-24 -96.5t24 -96.5t65 -69.5t91 -26z" />
    <glyph glyph-name="yen" unicode="&#xa5;" horiz-adv-x="600" 
d="M269 0v182h-195v48h195v104h-195v47h163l-237 324h71l229 -317l229 317h71l-235 -324h161v-47h-195v-104h195v-48h-195v-182h-62z" />
    <glyph glyph-name="brokenbar" unicode="&#xa6;" horiz-adv-x="254" 
d="M97 372v333h61v-333h-61zM97 -180v333h61v-333h-61z" />
    <glyph glyph-name="section" unicode="&#xa7;" horiz-adv-x="534" 
d="M241 -188q-62 0 -112 16.5t-81 47.5l23 45q30 -27 76.5 -43t95.5 -16q64 0 104 32t40 91q0 42 -21 71.5t-76 56.5l-102 48q-55 27 -86.5 53t-44 55t-12.5 66q0 35 16 69t41 58q-7 11 -12 29.5t-5 44.5q0 55 27 94.5t73 61t103 21.5t106 -17t79 -47l-24 -45q-30 28 -74 43
t-90 15q-59 0 -98.5 -32t-39.5 -91q0 -41 21 -71t76 -56l102 -49q55 -26 86 -52t44 -55.5t13 -66.5q0 -35 -16 -69t-41 -57q7 -12 12 -30.5t5 -44.5q0 -55 -27.5 -94.5t-74.5 -60.5t-106 -21zM102 342q0 -39 23.5 -69t89.5 -61l88 -42q35 -17 59.5 -34.5t39.5 -34.5
q30 34 30 82q0 38 -24 68t-89 61l-88 42q-35 17 -59.5 34.5t-39.5 34.5q-30 -34 -30 -81z" />
    <glyph glyph-name="dieresis" unicode="&#xa8;" horiz-adv-x="500" 
d="M297 615v72h73v-72h-73zM130 615v72h73v-72h-73z" />
    <glyph glyph-name="copyright" unicode="&#xa9;" horiz-adv-x="815" 
d="M408 -8q-77 0 -142.5 27t-115 76.5t-76.5 115t-27 142.5t27 142.5t76 114.5t115 76t143 27t142.5 -27t114.5 -76t76 -114.5t27 -142.5t-27 -142.5t-76 -115t-114.5 -76.5t-142.5 -27zM408 31q68 0 126 24.5t101.5 68.5t67.5 102.5t24 126.5t-24 126.5t-67.5 102
t-101.5 68t-126 24.5t-126.5 -24.5t-102 -68t-67.5 -102t-24 -126.5t24 -126.5t67.5 -102.5t102 -68.5t126.5 -24.5zM419 137q-95 0 -149.5 60t-54.5 159q0 98 54.5 155t149.5 57q40 0 78 -15t64 -40l-21 -42q-28 26 -59 37t-61 11q-70 0 -109.5 -43t-39.5 -121t39.5 -123.5
t109.5 -45.5q30 0 61 11.5t59 37.5l21 -43q-26 -25 -65 -40t-77 -15z" />
    <glyph glyph-name="ordfeminine" unicode="&#xaa;" horiz-adv-x="321" 
d="M137 412q-47 0 -77 25t-30 64q0 45 41.5 65t108.5 20h57v19q0 71 -75 71q-28 0 -55.5 -7.5t-50.5 -22.5l-14 36q24 16 56.5 23.5t64.5 7.5q119 0 119 -110v-186h-44v54h-2q-32 -59 -99 -59zM145 448q40 0 66 26.5t26 72.5v6h-55q-106 0 -106 -51q0 -23 16.5 -38.5
t52.5 -15.5z" />
    <glyph glyph-name="guillemotleft" unicode="&#xab;" horiz-adv-x="417" 
d="M155 90l-95 160v31l94 159l46 -18l-80 -157l80 -158zM324 90l-95 160v31l94 159l46 -18l-80 -157l80 -158z" />
    <glyph glyph-name="logicalnot" unicode="&#xac;" horiz-adv-x="600" 
d="M492 153v211h-436v50h488v-261h-52z" />
    <glyph glyph-name="uni00AD" unicode="&#xad;" horiz-adv-x="420" 
d="M74 240v52h272v-52h-272z" />
    <glyph glyph-name="registered" unicode="&#xae;" horiz-adv-x="815" 
d="M408 -8q-77 0 -142.5 27t-115 76.5t-76.5 115t-27 142.5t27 142.5t76 114.5t115 76t143 27t142.5 -27t114.5 -76t76 -114.5t27 -142.5t-27 -142.5t-76 -115t-114.5 -76.5t-142.5 -27zM408 31q68 0 126 24.5t101.5 68.5t67.5 102.5t24 126.5t-24 126.5t-67.5 102
t-101.5 68t-126 24.5t-126.5 -24.5t-102 -68t-67.5 -102t-24 -126.5t24 -126.5t67.5 -102.5t102 -68.5t126.5 -24.5zM268 142v421h167q67 0 102.5 -31.5t35.5 -89.5q0 -95 -94 -114q32 -12 47 -52l53 -134h-56l-52 132q-11 26 -31 35.5t-49 9.5h-69v-177h-54zM322 364h106
q92 0 92 77t-92 77h-106v-154z" />
    <glyph glyph-name="macron" unicode="&#xaf;" horiz-adv-x="500" 
d="M106 629v46h288v-46h-288z" />
    <glyph glyph-name="degree" unicode="&#xb0;" horiz-adv-x="367" 
d="M184 424q-41 0 -74 19t-52 52t-19 74t19 73.5t52 51.5t74 19q40 0 73 -18.5t51.5 -51.5t18.5 -74q0 -42 -18.5 -74.5t-51.5 -51.5t-73 -19zM184 471q41 0 67 27.5t26 70.5q0 42 -26 69.5t-67 27.5q-42 0 -68 -27.5t-26 -69.5q0 -43 26 -70.5t68 -27.5z" />
    <glyph glyph-name="plusminus" unicode="&#xb1;" horiz-adv-x="600" 
d="M274 122v178h-218v50h218v179h52v-179h218v-50h-218v-178h-52zM56 0v50h488v-50h-488z" />
    <glyph glyph-name="uni00B2" unicode="&#xb2;" horiz-adv-x="380" 
d="M56 282v39l141 154q31 34 44 60t13 54q0 72 -75 72q-29 0 -59.5 -12.5t-53.5 -35.5l-26 39q26 27 65 42t80 15q59 0 92.5 -31t33.5 -85q0 -66 -66 -136l-118 -127h205v-48h-276z" />
    <glyph glyph-name="uni00B3" unicode="&#xb3;" horiz-adv-x="380" 
d="M187 279q-46 0 -85 15t-63 41l25 40q21 -23 53 -36t68 -13q35 0 60.5 18t25.5 57q0 38 -26 54.5t-69 16.5h-75v48h64q43 0 69 18.5t26 55.5q0 31 -21.5 49t-58.5 18q-30 0 -60.5 -12.5t-53.5 -35.5l-26 39q26 27 65 42t81 15q58 0 93.5 -30t35.5 -79q0 -37 -20 -62.5
t-48 -37.5q35 -10 57 -36t22 -67q0 -57 -40.5 -87.5t-98.5 -30.5z" />
    <glyph glyph-name="acute" unicode="&#xb4;" horiz-adv-x="500" 
d="M227 550l103 201h70l-127 -201h-46z" />
    <glyph glyph-name="uni00B5" unicode="&#xb5;" horiz-adv-x="600" 
d="M104 -180v665h61v-302q0 -71 28.5 -104t88.5 -33q70 0 112.5 44t42.5 119v276h61v-485h-60v89q-21 -48 -62.5 -72.5t-92.5 -24.5q-39 0 -70.5 11.5t-52.5 41.5l5 -225h-61z" />
    <glyph glyph-name="paragraph" unicode="&#xb6;" horiz-adv-x="572" 
d="M241 -180v503q-58 0 -101 24.5t-67 68t-24 98.5t24 98.5t67.5 68t102.5 24.5h237v-885h-53v835h-132v-835h-54z" />
    <glyph glyph-name="periodcentered" unicode="&#xb7;" horiz-adv-x="219" 
d="M67 223v85h85v-85h-85z" />
    <glyph glyph-name="cedilla" unicode="&#xb8;" horiz-adv-x="500" 
d="M254 -191q-52 0 -83 19l11 39q18 -9 34 -13t39 -4q27 0 43.5 10.5t16.5 29.5q0 30 -38 30q-11 0 -22.5 -1.5t-26.5 -7.5l-16 14l14 95h45l-11 -66q12 2 22 2q34 0 57.5 -17.5t23.5 -49.5q0 -36 -30 -58t-79 -22z" />
    <glyph glyph-name="uni00B9" unicode="&#xb9;" horiz-adv-x="380" 
d="M96 282v48h92v311l-79 -51l-27 41l116 74h43v-375h80v-48h-225z" />
    <glyph glyph-name="ordmasculine" unicode="&#xba;" horiz-adv-x="332" 
d="M166 412q-61 0 -101.5 41t-40.5 110t40.5 109.5t101.5 40.5t101.5 -40.5t40.5 -109.5t-40.5 -110t-101.5 -41zM166 450q44 0 69.5 29t25.5 84t-25.5 83.5t-69.5 28.5t-69.5 -28.5t-25.5 -83.5t25.5 -84t69.5 -29z" />
    <glyph glyph-name="guillemotright" unicode="&#xbb;" horiz-adv-x="417" 
d="M93 90l-45 17l80 158l-80 157l46 18l93 -159v-31zM262 90l-45 17l80 158l-80 157l46 18l93 -159v-31z" />
    <glyph glyph-name="onequarter" unicode="&#xbc;" horiz-adv-x="885" 
d="M96 282v48h92v311l-79 -51l-27 41l116 74h43v-375h80v-48h-225zM276 -23l-42 26l418 725l42 -26zM741 0v89h-195v41l201 293h46v-287h63v-47h-63v-89h-52zM741 136v203l-139 -203h139z" />
    <glyph glyph-name="onehalf" unicode="&#xbd;" horiz-adv-x="927" 
d="M96 282v48h92v311l-79 -51l-27 41l116 74h43v-375h80v-48h-225zM276 -23l-42 26l418 725l42 -26zM603 0v39l141 154q31 34 44 60t13 54q0 72 -75 72q-29 0 -59.5 -12.5t-53.5 -35.5l-26 39q26 27 65 42t80 15q59 0 92.5 -31t33.5 -85q0 -66 -66 -136l-118 -127h205v-48
h-276z" />
    <glyph glyph-name="threequarters" unicode="&#xbe;" horiz-adv-x="885" 
d="M187 279q-46 0 -85 15t-63 41l25 40q21 -23 53 -36t68 -13q35 0 60.5 18t25.5 57q0 38 -26 54.5t-69 16.5h-75v48h64q43 0 69 18.5t26 55.5q0 31 -21.5 49t-58.5 18q-30 0 -60.5 -12.5t-53.5 -35.5l-26 39q26 27 65 42t81 15q58 0 93.5 -30t35.5 -79q0 -37 -20 -62.5
t-48 -37.5q35 -10 57 -36t22 -67q0 -57 -40.5 -87.5t-98.5 -30.5zM276 -23l-42 26l418 725l42 -26zM741 0v89h-195v41l201 293h46v-287h63v-47h-63v-89h-52zM741 136v203l-139 -203h139z" />
    <glyph glyph-name="questiondown" unicode="&#xbf;" horiz-adv-x="436" 
d="M192 399v86h84v-86h-84zM212 -188q-83 0 -133.5 40t-50.5 106q0 42 19 80.5t72 90.5q48 49 68 85.5t24 75.5l3 22h40v-23q0 -47 -19 -91t-70 -97q-43 -43 -58.5 -74t-15.5 -63q0 -44 32.5 -70t89.5 -26q58 0 106 19.5t90 57.5l25 -49q-37 -38 -96.5 -61t-125.5 -23z" />
    <glyph glyph-name="Agrave" unicode="&#xc0;" horiz-adv-x="722" 
d="M27 0l307 705h55l306 -705h-64l-81 188h-378l-80 -188h-65zM360 629l-165 -388h332l-165 388h-2zM337 765l-141 171h73l118 -171h-50z" />
    <glyph glyph-name="Aacute" unicode="&#xc1;" horiz-adv-x="722" 
d="M27 0l307 705h55l306 -705h-64l-81 188h-378l-80 -188h-65zM360 629l-165 -388h332l-165 388h-2zM337 765l118 171h73l-141 -171h-50z" />
    <glyph glyph-name="Acircumflex" unicode="&#xc2;" horiz-adv-x="722" 
d="M27 0l307 705h55l306 -705h-64l-81 188h-378l-80 -188h-65zM360 629l-165 -388h332l-165 388h-2zM209 765l122 171h62l122 -171h-49l-104 126l-104 -126h-49z" />
    <glyph glyph-name="Atilde" unicode="&#xc3;" horiz-adv-x="722" 
d="M27 0l307 705h55l306 -705h-64l-81 188h-378l-80 -188h-65zM360 629l-165 -388h332l-165 388h-2zM199 787l-39 3q6 61 36 94t77 33q23 0 46.5 -10.5t55.5 -33.5q32 -21 48.5 -29t30.5 -8q58 0 71 84l39 -3q-6 -61 -36 -94t-76 -33q-23 0 -47.5 10.5t-58.5 34.5
q-28 20 -45 28t-31 8q-57 0 -71 -84z" />
    <glyph glyph-name="Adieresis" unicode="&#xc4;" horiz-adv-x="722" 
d="M27 0l307 705h55l306 -705h-64l-81 188h-378l-80 -188h-65zM360 629l-165 -388h332l-165 388h-2zM409 813v73h73v-73h-73zM242 813v73h73v-73h-73z" />
    <glyph glyph-name="Aring" unicode="&#xc5;" horiz-adv-x="722" 
d="M27 0l307 705h55l306 -705h-64l-81 188h-378l-80 -188h-65zM360 629l-165 -388h332l-165 388h-2zM362 759q-49 0 -82 33t-33 80t33 80t82 33t82 -33t33 -80t-33 -80t-82 -33zM362 797q33 0 54 21.5t21 53.5t-21 53.5t-54 21.5t-54 -21.5t-21 -53.5t21 -53.5t54 -21.5z
" />
    <glyph glyph-name="AE" unicode="&#xc6;" horiz-adv-x="976" 
d="M-7 0l424 705h509v-53h-439l56 -268h362v-53h-350l59 -278h312v-53h-358l-40 188h-356l-111 -188h-68zM433 628l-229 -387h313l-82 387h-2z" />
    <glyph glyph-name="Ccedilla" unicode="&#xc7;" horiz-adv-x="670" 
d="M386 -8q-101 0 -173 43.5t-110.5 124.5t-38.5 193q0 111 38.5 192t110.5 124.5t173 43.5q73 0 134.5 -23.5t104.5 -68.5l-27 -51q-47 46 -97.5 66t-113.5 20q-124 0 -190.5 -79.5t-66.5 -223.5q0 -145 66.5 -224.5t190.5 -79.5q63 0 113.5 20t97.5 66l27 -51
q-43 -45 -104.5 -68.5t-134.5 -23.5zM387 -191q-52 0 -83 19l11 39q18 -9 34 -13t39 -4q27 0 43.5 10.5t16.5 29.5q0 30 -38 30q-11 0 -22.5 -1.5t-26.5 -7.5l-16 14l14 95h45l-11 -66q12 2 22 2q34 0 57.5 -17.5t23.5 -49.5q0 -36 -30 -58t-79 -22z" />
    <glyph glyph-name="Egrave" unicode="&#xc8;" horiz-adv-x="576" 
d="M92 0v705h434v-53h-374v-268h353v-53h-353v-278h374v-53h-434zM297 765l-141 171h73l118 -171h-50z" />
    <glyph glyph-name="Eacute" unicode="&#xc9;" horiz-adv-x="576" 
d="M92 0v705h434v-53h-374v-268h353v-53h-353v-278h374v-53h-434zM297 765l118 171h73l-141 -171h-50z" />
    <glyph glyph-name="Ecircumflex" unicode="&#xca;" horiz-adv-x="576" 
d="M92 0v705h434v-53h-374v-268h353v-53h-353v-278h374v-53h-434zM169 765l122 171h62l122 -171h-49l-104 126l-104 -126h-49z" />
    <glyph glyph-name="Edieresis" unicode="&#xcb;" horiz-adv-x="576" 
d="M92 0v705h434v-53h-374v-268h353v-53h-353v-278h374v-53h-434zM369 813v73h73v-73h-73zM202 813v73h73v-73h-73z" />
    <glyph glyph-name="Igrave" unicode="&#xcc;" horiz-adv-x="245" 
d="M92 0v705h61v-705h-61zM97 765l-141 171h73l118 -171h-50z" />
    <glyph glyph-name="Iacute" unicode="&#xcd;" horiz-adv-x="245" 
d="M92 0v705h61v-705h-61zM97 765l118 171h73l-141 -171h-50z" />
    <glyph glyph-name="Icircumflex" unicode="&#xce;" horiz-adv-x="245" 
d="M92 0v705h61v-705h-61zM-31 765l122 171h62l122 -171h-49l-104 126l-104 -126h-49z" />
    <glyph glyph-name="Idieresis" unicode="&#xcf;" horiz-adv-x="245" 
d="M92 0v705h61v-705h-61zM169 813v73h73v-73h-73zM2 813v73h73v-73h-73z" />
    <glyph glyph-name="Eth" unicode="&#xd0;" horiz-adv-x="733" 
d="M92 0v705h227q168 0 259.5 -90t91.5 -262t-91.5 -262.5t-259.5 -90.5h-227zM153 54h161q290 0 290 299q0 298 -290 298h-161v-597zM2 333v50h350v-50h-350z" />
    <glyph glyph-name="Ntilde" unicode="&#xd1;" horiz-adv-x="736" 
d="M92 0v705h49l446 -601v601h57v-705h-48l-447 602v-602h-57zM205 787l-39 3q6 61 36 94t77 33q23 0 46.5 -10.5t55.5 -33.5q32 -21 48.5 -29t30.5 -8q58 0 71 84l39 -3q-6 -61 -36 -94t-76 -33q-23 0 -47.5 10.5t-58.5 34.5q-28 20 -45 28t-31 8q-57 0 -71 -84z" />
    <glyph glyph-name="Ograve" unicode="&#xd2;" horiz-adv-x="759" 
d="M379 -8q-97 0 -167.5 44t-109 125t-38.5 192t38 192t109 124.5t168 43.5q98 0 168.5 -43.5t109 -124t38.5 -191.5q0 -112 -38.5 -193t-109.5 -125t-168 -44zM379 48q119 0 185 80t66 225t-65.5 224.5t-185.5 79.5q-119 0 -184.5 -80t-65.5 -224t65.5 -224.5t184.5 -80.5z
M354 765l-141 171h73l118 -171h-50z" />
    <glyph glyph-name="Oacute" unicode="&#xd3;" horiz-adv-x="759" 
d="M379 -8q-97 0 -167.5 44t-109 125t-38.5 192t38 192t109 124.5t168 43.5q98 0 168.5 -43.5t109 -124t38.5 -191.5q0 -112 -38.5 -193t-109.5 -125t-168 -44zM379 48q119 0 185 80t66 225t-65.5 224.5t-185.5 79.5q-119 0 -184.5 -80t-65.5 -224t65.5 -224.5t184.5 -80.5z
M354 765l118 171h73l-141 -171h-50z" />
    <glyph glyph-name="Ocircumflex" unicode="&#xd4;" horiz-adv-x="759" 
d="M379 -8q-97 0 -167.5 44t-109 125t-38.5 192t38 192t109 124.5t168 43.5q98 0 168.5 -43.5t109 -124t38.5 -191.5q0 -112 -38.5 -193t-109.5 -125t-168 -44zM379 48q119 0 185 80t66 225t-65.5 224.5t-185.5 79.5q-119 0 -184.5 -80t-65.5 -224t65.5 -224.5t184.5 -80.5z
M226 765l122 171h62l122 -171h-49l-104 126l-104 -126h-49z" />
    <glyph glyph-name="Otilde" unicode="&#xd5;" horiz-adv-x="759" 
d="M379 -8q-97 0 -167.5 44t-109 125t-38.5 192t38 192t109 124.5t168 43.5q98 0 168.5 -43.5t109 -124t38.5 -191.5q0 -112 -38.5 -193t-109.5 -125t-168 -44zM379 48q119 0 185 80t66 225t-65.5 224.5t-185.5 79.5q-119 0 -184.5 -80t-65.5 -224t65.5 -224.5t184.5 -80.5z
M216 787l-39 3q6 61 36 94t77 33q23 0 46.5 -10.5t55.5 -33.5q32 -21 48.5 -29t30.5 -8q58 0 71 84l39 -3q-6 -61 -36 -94t-76 -33q-23 0 -47.5 10.5t-58.5 34.5q-28 20 -45 28t-31 8q-57 0 -71 -84z" />
    <glyph glyph-name="Odieresis" unicode="&#xd6;" horiz-adv-x="759" 
d="M379 -8q-97 0 -167.5 44t-109 125t-38.5 192t38 192t109 124.5t168 43.5q98 0 168.5 -43.5t109 -124t38.5 -191.5q0 -112 -38.5 -193t-109.5 -125t-168 -44zM379 48q119 0 185 80t66 225t-65.5 224.5t-185.5 79.5q-119 0 -184.5 -80t-65.5 -224t65.5 -224.5t184.5 -80.5z
M426 813v73h73v-73h-73zM259 813v73h73v-73h-73z" />
    <glyph glyph-name="multiply" unicode="&#xd7;" horiz-adv-x="600" 
d="M102 50l-36 35l198 199l-198 198l36 36l198 -198l198 198l36 -36l-198 -198l198 -199l-36 -35l-198 199z" />
    <glyph glyph-name="Oslash" unicode="&#xd8;" horiz-adv-x="759" 
d="M379 -8q-97 0 -167.5 44t-109 125t-38.5 192t38 192t109 124.5t168 43.5q98 0 168.5 -43.5t109 -124t38.5 -191.5q0 -112 -38.5 -193t-109.5 -125t-168 -44zM379 48q119 0 185 80t66 225t-65.5 224.5t-185.5 79.5q-119 0 -184.5 -80t-65.5 -224t65.5 -224.5t184.5 -80.5z
M180 -41l-45 25l50 86l19 31l310 532l16 28l49 85l45 -25l-50 -86l-18 -31l-310 -532l-16 -28z" />
    <glyph glyph-name="Ugrave" unicode="&#xd9;" horiz-adv-x="724" 
d="M362 -8q-135 0 -205 72.5t-70 210.5v430h61v-425q0 -232 214 -232t214 232v425h61v-430q0 -138 -70 -210.5t-205 -72.5zM337 765l-141 171h73l118 -171h-50z" />
    <glyph glyph-name="Uacute" unicode="&#xda;" horiz-adv-x="724" 
d="M362 -8q-135 0 -205 72.5t-70 210.5v430h61v-425q0 -232 214 -232t214 232v425h61v-430q0 -138 -70 -210.5t-205 -72.5zM337 765l118 171h73l-141 -171h-50z" />
    <glyph glyph-name="Ucircumflex" unicode="&#xdb;" horiz-adv-x="724" 
d="M362 -8q-135 0 -205 72.5t-70 210.5v430h61v-425q0 -232 214 -232t214 232v425h61v-430q0 -138 -70 -210.5t-205 -72.5zM209 765l122 171h62l122 -171h-49l-104 126l-104 -126h-49z" />
    <glyph glyph-name="Udieresis" unicode="&#xdc;" horiz-adv-x="724" 
d="M362 -8q-135 0 -205 72.5t-70 210.5v430h61v-425q0 -232 214 -232t214 232v425h61v-430q0 -138 -70 -210.5t-205 -72.5zM409 813v73h73v-73h-73zM242 813v73h73v-73h-73z" />
    <glyph glyph-name="Yacute" unicode="&#xdd;" horiz-adv-x="586" 
d="M262 0v338l-269 367h72l229 -313l230 313h69l-269 -368v-337h-62zM268 765l118 171h73l-141 -171h-50z" />
    <glyph glyph-name="Thorn" unicode="&#xde;" horiz-adv-x="625" 
d="M92 0v705h61v-132h206q112 0 172 -54t60 -154q0 -99 -60 -153t-172 -54h-206v-158h-61zM153 211h200q175 0 175 154q0 155 -175 155h-200v-309z" />
    <glyph glyph-name="germandbls" unicode="&#xdf;" horiz-adv-x="597" 
d="M388 -8q-49 0 -98 16.5t-81 46.5l24 46q36 -31 77 -44.5t79 -13.5q53 0 84.5 23.5t31.5 63.5q0 32 -25.5 53t-86.5 41q-81 25 -113 56t-32 78q0 31 17.5 59.5t63.5 67.5q33 28 47 51t14 49q0 36 -25.5 57t-71.5 21q-74 0 -113 -44t-39 -124v-495h-61v490q0 105 56 164
t156 59q74 0 116 -33.5t42 -89.5q0 -39 -18.5 -69t-61.5 -67q-36 -31 -49 -50t-13 -41q0 -29 24.5 -49.5t87.5 -39.5q78 -25 111.5 -58t33.5 -86q0 -62 -49 -100t-128 -38z" />
    <glyph glyph-name="agrave" unicode="&#xe0;" horiz-adv-x="522" 
d="M230 -8q-49 0 -87.5 19t-61 52t-22.5 74q0 54 27 84.5t91 43.5t176 13h31v36q0 67 -27 97.5t-86 30.5q-44 0 -84.5 -13t-83.5 -41l-24 47q38 27 90 43t101 16q88 0 130.5 -45t42.5 -138v-311h-58v87q-20 -45 -60.5 -70t-94.5 -25zM238 41q43 0 75.5 20.5t51.5 56.5t19 82
v33h-30q-90 0 -140.5 -8t-70.5 -28t-20 -55q0 -45 31 -73t84 -28zM245 550l-127 201h70l103 -201h-46z" />
    <glyph glyph-name="aacute" unicode="&#xe1;" horiz-adv-x="522" 
d="M230 -8q-49 0 -87.5 19t-61 52t-22.5 74q0 54 27 84.5t91 43.5t176 13h31v36q0 67 -27 97.5t-86 30.5q-44 0 -84.5 -13t-83.5 -41l-24 47q38 27 90 43t101 16q88 0 130.5 -45t42.5 -138v-311h-58v87q-20 -45 -60.5 -70t-94.5 -25zM238 41q43 0 75.5 20.5t51.5 56.5t19 82
v33h-30q-90 0 -140.5 -8t-70.5 -28t-20 -55q0 -45 31 -73t84 -28zM245 550l103 201h70l-127 -201h-46z" />
    <glyph glyph-name="acircumflex" unicode="&#xe2;" horiz-adv-x="522" 
d="M230 -8q-49 0 -87.5 19t-61 52t-22.5 74q0 54 27 84.5t91 43.5t176 13h31v36q0 67 -27 97.5t-86 30.5q-44 0 -84.5 -13t-83.5 -41l-24 47q38 27 90 43t101 16q88 0 130.5 -45t42.5 -138v-311h-58v87q-20 -45 -60.5 -70t-94.5 -25zM238 41q43 0 75.5 20.5t51.5 56.5t19 82
v33h-30q-90 0 -140.5 -8t-70.5 -28t-20 -55q0 -45 31 -73t84 -28zM128 550l109 201h62l109 -201h-45l-95 155l-95 -155h-45z" />
    <glyph glyph-name="atilde" unicode="&#xe3;" horiz-adv-x="522" 
d="M230 -8q-49 0 -87.5 19t-61 52t-22.5 74q0 54 27 84.5t91 43.5t176 13h31v36q0 67 -27 97.5t-86 30.5q-44 0 -84.5 -13t-83.5 -41l-24 47q38 27 90 43t101 16q88 0 130.5 -45t42.5 -138v-311h-58v87q-20 -45 -60.5 -70t-94.5 -25zM238 41q43 0 75.5 20.5t51.5 56.5t19 82
v33h-30q-90 0 -140.5 -8t-70.5 -28t-20 -55q0 -45 31 -73t84 -28zM133 592l-39 3q6 60 32.5 93.5t69.5 33.5q21 0 39.5 -11t42.5 -34q22 -20 35.5 -28t26.5 -8q51 0 63 84l39 -3q-6 -60 -32.5 -93.5t-68.5 -33.5q-20 0 -38.5 10.5t-44.5 34.5q-21 19 -34.5 27.5t-27.5 8.5
q-51 0 -63 -84z" />
    <glyph glyph-name="adieresis" unicode="&#xe4;" horiz-adv-x="522" 
d="M230 -8q-49 0 -87.5 19t-61 52t-22.5 74q0 54 27 84.5t91 43.5t176 13h31v36q0 67 -27 97.5t-86 30.5q-44 0 -84.5 -13t-83.5 -41l-24 47q38 27 90 43t101 16q88 0 130.5 -45t42.5 -138v-311h-58v87q-20 -45 -60.5 -70t-94.5 -25zM238 41q43 0 75.5 20.5t51.5 56.5t19 82
v33h-30q-90 0 -140.5 -8t-70.5 -28t-20 -55q0 -45 31 -73t84 -28zM315 615v72h73v-72h-73zM148 615v72h73v-72h-73z" />
    <glyph glyph-name="aring" unicode="&#xe5;" horiz-adv-x="522" 
d="M230 -8q-49 0 -87.5 19t-61 52t-22.5 74q0 54 27 84.5t91 43.5t176 13h31v36q0 67 -27 97.5t-86 30.5q-44 0 -84.5 -13t-83.5 -41l-24 47q38 27 90 43t101 16q88 0 130.5 -45t42.5 -138v-311h-58v87q-20 -45 -60.5 -70t-94.5 -25zM238 41q43 0 75.5 20.5t51.5 56.5t19 82
v33h-30q-90 0 -140.5 -8t-70.5 -28t-20 -55q0 -45 31 -73t84 -28zM268 547q-49 0 -82 33t-33 80t33 79.5t82 32.5t82 -32.5t33 -79.5t-33 -80t-82 -33zM268 584q33 0 54 22t21 54t-21 53.5t-54 21.5t-54 -21.5t-21 -53.5t21 -54t54 -22z" />
    <glyph glyph-name="ae" unicode="&#xe6;" horiz-adv-x="859" 
d="M234 -8q-51 0 -90 19t-62 52t-23 74q0 54 27.5 84.5t92 43.5t174.5 13h35v34q0 68 -28.5 99t-86.5 31q-46 0 -86.5 -12.5t-83.5 -40.5l-24 46q38 27 90 43t103 16q127 0 161 -101q28 49 75 75t106 26q93 0 146.5 -63t53.5 -173v-25h-366q3 -91 47.5 -140.5t127.5 -49.5
q86 0 160 61l23 -46q-32 -31 -81.5 -48.5t-98.5 -17.5q-77 0 -131 32t-80 96q-20 -60 -67 -94t-114 -34zM612 445q-70 0 -113 -45t-50 -122h311q-3 77 -40.5 122t-107.5 45zM240 41q66 0 107 46.5t41 118.5v27h-34q-90 0 -140.5 -8t-70.5 -27.5t-20 -55.5q0 -45 31 -73
t86 -28z" />
    <glyph glyph-name="ccedilla" unicode="&#xe7;" horiz-adv-x="459" 
d="M278 -8q-71 0 -122 31.5t-78.5 89t-27.5 133.5q0 115 60.5 181.5t167.5 66.5q44 0 87 -17t72 -47l-24 -46q-31 30 -66 43.5t-67 13.5q-81 0 -124.5 -51t-43.5 -145t43.5 -147.5t124.5 -53.5q32 0 67 13.5t66 43.5l24 -46q-29 -29 -72.5 -46t-86.5 -17zM279 -191
q-52 0 -83 19l11 39q18 -9 34 -13t39 -4q27 0 43.5 10.5t16.5 29.5q0 30 -38 30q-11 0 -22.5 -1.5t-26.5 -7.5l-16 14l14 95h45l-11 -66q12 2 22 2q34 0 57.5 -17.5t23.5 -49.5q0 -36 -30 -58t-79 -22z" />
    <glyph glyph-name="egrave" unicode="&#xe8;" horiz-adv-x="527" 
d="M291 -8q-112 0 -176.5 66.5t-64.5 182.5q0 75 29 132t80.5 89t118.5 32q97 0 151 -63t54 -173v-28h-373q3 -90 49.5 -138.5t129.5 -48.5q45 0 84.5 14t77.5 47l24 -46q-32 -31 -82 -48.5t-102 -17.5zM279 445q-76 0 -118.5 -47.5t-49.5 -122.5h317q-2 80 -40 125t-109 45
zM256 550l-127 201h70l103 -201h-46z" />
    <glyph glyph-name="eacute" unicode="&#xe9;" horiz-adv-x="527" 
d="M291 -8q-112 0 -176.5 66.5t-64.5 182.5q0 75 29 132t80.5 89t118.5 32q97 0 151 -63t54 -173v-28h-373q3 -90 49.5 -138.5t129.5 -48.5q45 0 84.5 14t77.5 47l24 -46q-32 -31 -82 -48.5t-102 -17.5zM279 445q-76 0 -118.5 -47.5t-49.5 -122.5h317q-2 80 -40 125t-109 45
zM256 550l103 201h70l-127 -201h-46z" />
    <glyph glyph-name="ecircumflex" unicode="&#xea;" horiz-adv-x="527" 
d="M291 -8q-112 0 -176.5 66.5t-64.5 182.5q0 75 29 132t80.5 89t118.5 32q97 0 151 -63t54 -173v-28h-373q3 -90 49.5 -138.5t129.5 -48.5q45 0 84.5 14t77.5 47l24 -46q-32 -31 -82 -48.5t-102 -17.5zM279 445q-76 0 -118.5 -47.5t-49.5 -122.5h317q-2 80 -40 125t-109 45
zM139 550l109 201h62l109 -201h-45l-95 155l-95 -155h-45z" />
    <glyph glyph-name="edieresis" unicode="&#xeb;" horiz-adv-x="527" 
d="M291 -8q-112 0 -176.5 66.5t-64.5 182.5q0 75 29 132t80.5 89t118.5 32q97 0 151 -63t54 -173v-28h-373q3 -90 49.5 -138.5t129.5 -48.5q45 0 84.5 14t77.5 47l24 -46q-32 -31 -82 -48.5t-102 -17.5zM279 445q-76 0 -118.5 -47.5t-49.5 -122.5h317q-2 80 -40 125t-109 45
zM326 615v72h73v-72h-73zM159 615v72h73v-72h-73z" />
    <glyph glyph-name="igrave" unicode="&#xec;" horiz-adv-x="222" 
d="M80 0v485h61v-485h-61zM88 550l-127 201h70l103 -201h-46z" />
    <glyph glyph-name="iacute" unicode="&#xed;" horiz-adv-x="222" 
d="M80 0v485h61v-485h-61zM88 550l103 201h70l-127 -201h-46z" />
    <glyph glyph-name="icircumflex" unicode="&#xee;" horiz-adv-x="222" 
d="M80 0v485h61v-485h-61zM-29 550l109 201h62l109 -201h-45l-95 155l-95 -155h-45z" />
    <glyph glyph-name="idieresis" unicode="&#xef;" horiz-adv-x="222" 
d="M80 0v485h61v-485h-61zM158 615v72h73v-72h-73zM-9 615v72h73v-72h-73z" />
    <glyph glyph-name="eth" unicode="&#xf0;" horiz-adv-x="550" 
d="M272 -8q-67 0 -117 28.5t-77.5 80.5t-27.5 122q0 69 27.5 121t77.5 80.5t117 28.5q56 0 97.5 -22t67.5 -68q-23 155 -145 238l-157 -67l-18 42l126 54q-20 11 -44 20.5t-51 16.5l14 44q40 -11 75 -25.5t63 -30.5l132 56l18 -42l-105 -45q76 -58 116 -143.5t40 -197.5
q0 -143 -58.5 -217t-170.5 -74zM272 44q76 0 119.5 48t43.5 131t-43 130.5t-119 47.5q-75 0 -118 -47.5t-43 -130.5q0 -85 42.5 -132t117.5 -47z" />
    <glyph glyph-name="ntilde" unicode="&#xf1;" horiz-adv-x="560" 
d="M80 0v485h60v-87q24 48 69 72t100 24q173 0 173 -188v-306h-61v301q0 72 -29 106t-92 34q-72 0 -115.5 -44.5t-43.5 -119.5v-277h-61zM146 592l-39 3q6 60 32.5 93.5t69.5 33.5q21 0 39.5 -11t42.5 -34q22 -20 35.5 -28t26.5 -8q51 0 63 84l39 -3q-6 -60 -32.5 -93.5
t-68.5 -33.5q-20 0 -38.5 10.5t-44.5 34.5q-21 19 -34.5 27.5t-27.5 8.5q-51 0 -63 -84z" />
    <glyph glyph-name="ograve" unicode="&#xf2;" horiz-adv-x="547" 
d="M273 -8q-68 0 -118 30.5t-77.5 87t-27.5 133.5q0 76 27.5 132.5t77.5 87.5t118 31q69 0 119 -31t77.5 -87.5t27.5 -132.5q0 -77 -27.5 -133.5t-77.5 -87t-119 -30.5zM273 43q74 0 118 52.5t44 147.5t-44 147t-118 52t-117.5 -52t-43.5 -147t43.5 -147.5t117.5 -52.5z
M250 550l-127 201h70l103 -201h-46z" />
    <glyph glyph-name="oacute" unicode="&#xf3;" horiz-adv-x="547" 
d="M273 -8q-68 0 -118 30.5t-77.5 87t-27.5 133.5q0 76 27.5 132.5t77.5 87.5t118 31q69 0 119 -31t77.5 -87.5t27.5 -132.5q0 -77 -27.5 -133.5t-77.5 -87t-119 -30.5zM273 43q74 0 118 52.5t44 147.5t-44 147t-118 52t-117.5 -52t-43.5 -147t43.5 -147.5t117.5 -52.5z
M250 550l103 201h70l-127 -201h-46z" />
    <glyph glyph-name="ocircumflex" unicode="&#xf4;" horiz-adv-x="547" 
d="M273 -8q-68 0 -118 30.5t-77.5 87t-27.5 133.5q0 76 27.5 132.5t77.5 87.5t118 31q69 0 119 -31t77.5 -87.5t27.5 -132.5q0 -77 -27.5 -133.5t-77.5 -87t-119 -30.5zM273 43q74 0 118 52.5t44 147.5t-44 147t-118 52t-117.5 -52t-43.5 -147t43.5 -147.5t117.5 -52.5z
M133 550l109 201h62l109 -201h-45l-95 155l-95 -155h-45z" />
    <glyph glyph-name="otilde" unicode="&#xf5;" horiz-adv-x="547" 
d="M273 -8q-68 0 -118 30.5t-77.5 87t-27.5 133.5q0 76 27.5 132.5t77.5 87.5t118 31q69 0 119 -31t77.5 -87.5t27.5 -132.5q0 -77 -27.5 -133.5t-77.5 -87t-119 -30.5zM273 43q74 0 118 52.5t44 147.5t-44 147t-118 52t-117.5 -52t-43.5 -147t43.5 -147.5t117.5 -52.5z
M138 592l-39 3q6 60 32.5 93.5t69.5 33.5q21 0 39.5 -11t42.5 -34q22 -20 35.5 -28t26.5 -8q51 0 63 84l39 -3q-6 -60 -32.5 -93.5t-68.5 -33.5q-20 0 -38.5 10.5t-44.5 34.5q-21 19 -34.5 27.5t-27.5 8.5q-51 0 -63 -84z" />
    <glyph glyph-name="odieresis" unicode="&#xf6;" horiz-adv-x="547" 
d="M273 -8q-68 0 -118 30.5t-77.5 87t-27.5 133.5q0 76 27.5 132.5t77.5 87.5t118 31q69 0 119 -31t77.5 -87.5t27.5 -132.5q0 -77 -27.5 -133.5t-77.5 -87t-119 -30.5zM273 43q74 0 118 52.5t44 147.5t-44 147t-118 52t-117.5 -52t-43.5 -147t43.5 -147.5t117.5 -52.5z
M320 615v72h73v-72h-73zM153 615v72h73v-72h-73z" />
    <glyph glyph-name="divide" unicode="&#xf7;" horiz-adv-x="600" 
d="M255 447v78h78v-78h-78zM56 262v50h488v-50h-488zM255 48v78h78v-78h-78z" />
    <glyph glyph-name="oslash" unicode="&#xf8;" horiz-adv-x="547" 
d="M134 -44l-39 24l35 61q-39 32 -59.5 83.5t-20.5 118.5q0 76 27.5 132.5t77.5 87.5t118 31q59 0 106 -24l34 59l39 -24l-35 -60q38 -33 59 -84.5t21 -117.5q0 -77 -27.5 -133.5t-77.5 -87t-119 -30.5q-59 0 -105 23zM112 243q0 -99 47 -152l193 332q-34 19 -79 19
q-74 0 -117.5 -52t-43.5 -147zM273 43q74 0 118 52.5t44 147.5q0 98 -47 151l-193 -332q34 -19 78 -19z" />
    <glyph glyph-name="ugrave" unicode="&#xf9;" horiz-adv-x="553" 
d="M251 -8q-173 0 -173 188v305h61v-302q0 -71 29 -105t91 -34q67 0 109.5 45t42.5 120v276h61v-485h-59v86q-24 -46 -66.5 -70t-95.5 -24zM254 551l-127 201h70l103 -201h-46z" />
    <glyph glyph-name="uacute" unicode="&#xfa;" horiz-adv-x="553" 
d="M251 -8q-173 0 -173 188v305h61v-302q0 -71 29 -105t91 -34q67 0 109.5 45t42.5 120v276h61v-485h-59v86q-24 -46 -66.5 -70t-95.5 -24zM254 551l103 201h70l-127 -201h-46z" />
    <glyph glyph-name="ucircumflex" unicode="&#xfb;" horiz-adv-x="553" 
d="M251 -8q-173 0 -173 188v305h61v-302q0 -71 29 -105t91 -34q67 0 109.5 45t42.5 120v276h61v-485h-59v86q-24 -46 -66.5 -70t-95.5 -24zM137 551l109 201h62l109 -201h-45l-95 155l-95 -155h-45z" />
    <glyph glyph-name="udieresis" unicode="&#xfc;" horiz-adv-x="553" 
d="M251 -8q-173 0 -173 188v305h61v-302q0 -71 29 -105t91 -34q67 0 109.5 45t42.5 120v276h61v-485h-59v86q-24 -46 -66.5 -70t-95.5 -24zM324 616v72h73v-72h-73zM157 616v72h73v-72h-73z" />
    <glyph glyph-name="yacute" unicode="&#xfd;" horiz-adv-x="509" 
d="M142 -180l80 182l-206 483h68l171 -418l173 418h66l-286 -665h-66zM232 550l103 201h70l-127 -201h-46z" />
    <glyph glyph-name="thorn" unicode="&#xfe;" horiz-adv-x="575" 
d="M80 -180v885h61v-310q22 46 66.5 72.5t103.5 26.5q65 0 113.5 -31t75 -87t26.5 -133t-26.5 -133.5t-75 -87t-113.5 -30.5q-59 0 -103.5 26t-66.5 72v-270h-61zM302 43q74 0 118 52.5t44 147.5t-44 147t-118 52t-118 -52t-44 -147t44 -147.5t118 -52.5z" />
    <glyph glyph-name="ydieresis" unicode="&#xff;" horiz-adv-x="509" 
d="M142 -180l80 182l-206 483h68l171 -418l173 418h66l-286 -665h-66zM302 615v72h73v-72h-73zM135 615v72h73v-72h-73z" />
    <glyph glyph-name="Amacron" unicode="&#x100;" horiz-adv-x="722" 
d="M27 0l307 705h55l306 -705h-64l-81 188h-378l-80 -188h-65zM360 629l-165 -388h332l-165 388h-2zM203 818v47h318v-47h-318z" />
    <glyph glyph-name="amacron" unicode="&#x101;" horiz-adv-x="522" 
d="M230 -8q-49 0 -87.5 19t-61 52t-22.5 74q0 54 27 84.5t91 43.5t176 13h31v36q0 67 -27 97.5t-86 30.5q-44 0 -84.5 -13t-83.5 -41l-24 47q38 27 90 43t101 16q88 0 130.5 -45t42.5 -138v-311h-58v87q-20 -45 -60.5 -70t-94.5 -25zM238 41q43 0 75.5 20.5t51.5 56.5t19 82
v33h-30q-90 0 -140.5 -8t-70.5 -28t-20 -55q0 -45 31 -73t84 -28zM124 629v46h288v-46h-288z" />
    <glyph glyph-name="Abreve" unicode="&#x102;" horiz-adv-x="722" 
d="M27 0l307 705h55l306 -705h-64l-81 188h-378l-80 -188h-65zM360 629l-165 -388h332l-165 388h-2zM362 760q-67 0 -111.5 45t-51.5 123l42 5q4 -61 36.5 -94.5t84.5 -33.5t84.5 33.5t36.5 94.5l42 -5q-7 -78 -51.5 -123t-111.5 -45z" />
    <glyph glyph-name="abreve" unicode="&#x103;" horiz-adv-x="522" 
d="M230 -8q-49 0 -87.5 19t-61 52t-22.5 74q0 54 27 84.5t91 43.5t176 13h31v36q0 67 -27 97.5t-86 30.5q-44 0 -84.5 -13t-83.5 -41l-24 47q38 27 90 43t101 16q88 0 130.5 -45t42.5 -138v-311h-58v87q-20 -45 -60.5 -70t-94.5 -25zM238 41q43 0 75.5 20.5t51.5 56.5t19 82
v33h-30q-90 0 -140.5 -8t-70.5 -28t-20 -55q0 -45 31 -73t84 -28zM268 548q-65 0 -104.5 50t-44.5 138l42 5q3 -71 31 -109.5t76 -38.5t76 38.5t31 109.5l42 -5q-5 -88 -44.5 -138t-104.5 -50z" />
    <glyph glyph-name="Aogonek" unicode="&#x104;" horiz-adv-x="722" 
d="M27 0l307 705h55l306 -705h-64l-81 188h-378l-80 -188h-65zM360 629l-165 -388h332l-165 388h-2zM669 -191q-44 0 -71.5 25.5t-27.5 69.5q0 38 24.5 73t67.5 57l25 -34q-23 -10 -46 -33.5t-23 -56.5q0 -30 17 -44t42 -14t53 12l14 -38q-28 -17 -75 -17z" />
    <glyph glyph-name="aogonek" unicode="&#x105;" horiz-adv-x="522" 
d="M230 -8q-49 0 -87.5 19t-61 52t-22.5 74q0 54 27 84.5t91 43.5t176 13h31v36q0 67 -27 97.5t-86 30.5q-44 0 -84.5 -13t-83.5 -41l-24 47q38 27 90 43t101 16q88 0 130.5 -45t42.5 -138v-311h-58v87q-20 -45 -60.5 -70t-94.5 -25zM238 41q43 0 75.5 20.5t51.5 56.5t19 82
v33h-30q-90 0 -140.5 -8t-70.5 -28t-20 -55q0 -45 31 -73t84 -28zM417 -191q-44 0 -71.5 25.5t-27.5 69.5q0 38 24.5 73t67.5 57l25 -34q-23 -10 -46 -33.5t-23 -56.5q0 -30 17 -44t42 -14t53 12l14 -38q-28 -17 -75 -17z" />
    <glyph glyph-name="Cacute" unicode="&#x106;" horiz-adv-x="670" 
d="M386 -8q-101 0 -173 43.5t-110.5 124.5t-38.5 193q0 111 38.5 192t110.5 124.5t173 43.5q73 0 134.5 -23.5t104.5 -68.5l-27 -51q-47 46 -97.5 66t-113.5 20q-124 0 -190.5 -79.5t-66.5 -223.5q0 -145 66.5 -224.5t190.5 -79.5q63 0 113.5 20t97.5 66l27 -51
q-43 -45 -104.5 -68.5t-134.5 -23.5zM359 765l118 171h73l-141 -171h-50z" />
    <glyph glyph-name="cacute" unicode="&#x107;" horiz-adv-x="459" 
d="M278 -8q-71 0 -122 31.5t-78.5 89t-27.5 133.5q0 115 60.5 181.5t167.5 66.5q44 0 87 -17t72 -47l-24 -46q-31 30 -66 43.5t-67 13.5q-81 0 -124.5 -51t-43.5 -145t43.5 -147.5t124.5 -53.5q32 0 67 13.5t66 43.5l24 -46q-29 -29 -72.5 -46t-86.5 -17zM252 550l103 201
h70l-127 -201h-46z" />
    <glyph glyph-name="Ccircumflex" unicode="&#x108;" horiz-adv-x="670" 
d="M386 -8q-101 0 -173 43.5t-110.5 124.5t-38.5 193q0 111 38.5 192t110.5 124.5t173 43.5q73 0 134.5 -23.5t104.5 -68.5l-27 -51q-47 46 -97.5 66t-113.5 20q-124 0 -190.5 -79.5t-66.5 -223.5q0 -145 66.5 -224.5t190.5 -79.5q63 0 113.5 20t97.5 66l27 -51
q-43 -45 -104.5 -68.5t-134.5 -23.5zM231 765l122 171h62l122 -171h-49l-104 126l-104 -126h-49z" />
    <glyph glyph-name="ccircumflex" unicode="&#x109;" horiz-adv-x="459" 
d="M278 -8q-71 0 -122 31.5t-78.5 89t-27.5 133.5q0 115 60.5 181.5t167.5 66.5q44 0 87 -17t72 -47l-24 -46q-31 30 -66 43.5t-67 13.5q-81 0 -124.5 -51t-43.5 -145t43.5 -147.5t124.5 -53.5q32 0 67 13.5t66 43.5l24 -46q-29 -29 -72.5 -46t-86.5 -17zM135 550l109 201
h62l109 -201h-45l-95 155l-95 -155h-45z" />
    <glyph glyph-name="Cdotaccent" unicode="&#x10a;" horiz-adv-x="670" 
d="M386 -8q-101 0 -173 43.5t-110.5 124.5t-38.5 193q0 111 38.5 192t110.5 124.5t173 43.5q73 0 134.5 -23.5t104.5 -68.5l-27 -51q-47 46 -97.5 66t-113.5 20q-124 0 -190.5 -79.5t-66.5 -223.5q0 -145 66.5 -224.5t190.5 -79.5q63 0 113.5 20t97.5 66l27 -51
q-43 -45 -104.5 -68.5t-134.5 -23.5zM346 813v75h76v-75h-76z" />
    <glyph glyph-name="cdotaccent" unicode="&#x10b;" horiz-adv-x="459" 
d="M278 -8q-71 0 -122 31.5t-78.5 89t-27.5 133.5q0 115 60.5 181.5t167.5 66.5q44 0 87 -17t72 -47l-24 -46q-31 30 -66 43.5t-67 13.5q-81 0 -124.5 -51t-43.5 -145t43.5 -147.5t124.5 -53.5q32 0 67 13.5t66 43.5l24 -46q-29 -29 -72.5 -46t-86.5 -17zM236 614v75h78v-75
h-78z" />
    <glyph glyph-name="Ccaron" unicode="&#x10c;" horiz-adv-x="670" 
d="M386 -8q-101 0 -173 43.5t-110.5 124.5t-38.5 193q0 111 38.5 192t110.5 124.5t173 43.5q73 0 134.5 -23.5t104.5 -68.5l-27 -51q-47 46 -97.5 66t-113.5 20q-124 0 -190.5 -79.5t-66.5 -223.5q0 -145 66.5 -224.5t190.5 -79.5q63 0 113.5 20t97.5 66l27 -51
q-43 -45 -104.5 -68.5t-134.5 -23.5zM353 765l-122 171h49l104 -126l104 126h49l-122 -171h-62z" />
    <glyph glyph-name="ccaron" unicode="&#x10d;" horiz-adv-x="459" 
d="M278 -8q-71 0 -122 31.5t-78.5 89t-27.5 133.5q0 115 60.5 181.5t167.5 66.5q44 0 87 -17t72 -47l-24 -46q-31 30 -66 43.5t-67 13.5q-81 0 -124.5 -51t-43.5 -145t43.5 -147.5t124.5 -53.5q32 0 67 13.5t66 43.5l24 -46q-29 -29 -72.5 -46t-86.5 -17zM244 550l-109 201
h45l95 -155l95 155h45l-109 -201h-62z" />
    <glyph glyph-name="Dcaron" unicode="&#x10e;" horiz-adv-x="733" 
d="M92 0v705h227q168 0 259.5 -90t91.5 -262t-91.5 -262.5t-259.5 -90.5h-227zM153 54h161q290 0 290 299q0 298 -290 298h-161v-597zM335 765l-122 171h49l104 -126l104 126h49l-122 -171h-62z" />
    <glyph glyph-name="dcaron" unicode="&#x10f;" horiz-adv-x="575" 
d="M265 -8q-66 0 -114 30.5t-74.5 87t-26.5 133.5q0 115 58 183t157 68q58 0 102.5 -26.5t66.5 -72.5v310h61v-705h-60v92q-22 -47 -66.5 -73.5t-103.5 -26.5zM273 43q74 0 118 52.5t44 147.5t-44 147t-118 52t-117.5 -52t-43.5 -147t43.5 -147.5t117.5 -52.5zM543 516v189
h57l-23 -189h-34z" />
    <glyph glyph-name="Dcroat" unicode="&#x110;" horiz-adv-x="733" 
d="M92 0v705h227q168 0 259.5 -90t91.5 -262t-91.5 -262.5t-259.5 -90.5h-227zM153 54h161q290 0 290 299q0 298 -290 298h-161v-597zM2 333v50h350v-50h-350z" />
    <glyph glyph-name="dcroat" unicode="&#x111;" horiz-adv-x="575" 
d="M265 -8q-65 0 -113.5 30.5t-75 87t-26.5 133.5q0 115 58 183t157 68q59 0 103 -26.5t66 -72.5v163h-195v48h195v99h61v-99h93v-48h-93v-558h-61v91q-21 -46 -65.5 -72.5t-103.5 -26.5zM274 43q74 0 117.5 52.5t43.5 147.5t-43.5 147t-117.5 52q-75 0 -118.5 -52
t-43.5 -147t43.5 -147.5t118.5 -52.5z" />
    <glyph glyph-name="Emacron" unicode="&#x112;" horiz-adv-x="576" 
d="M92 0v705h434v-53h-374v-268h353v-53h-353v-278h374v-53h-434zM163 818v47h318v-47h-318z" />
    <glyph glyph-name="emacron" unicode="&#x113;" horiz-adv-x="527" 
d="M291 -8q-112 0 -176.5 66.5t-64.5 182.5q0 75 29 132t80.5 89t118.5 32q97 0 151 -63t54 -173v-28h-373q3 -90 49.5 -138.5t129.5 -48.5q45 0 84.5 14t77.5 47l24 -46q-32 -31 -82 -48.5t-102 -17.5zM279 445q-76 0 -118.5 -47.5t-49.5 -122.5h317q-2 80 -40 125t-109 45
zM135 629v46h288v-46h-288z" />
    <glyph glyph-name="Ebreve" unicode="&#x114;" horiz-adv-x="576" 
d="M92 0v705h434v-53h-374v-268h353v-53h-353v-278h374v-53h-434zM322 760q-67 0 -111.5 45t-51.5 123l42 5q4 -61 36.5 -94.5t84.5 -33.5t84.5 33.5t36.5 94.5l42 -5q-7 -78 -51.5 -123t-111.5 -45z" />
    <glyph glyph-name="ebreve" unicode="&#x115;" horiz-adv-x="527" 
d="M291 -8q-112 0 -176.5 66.5t-64.5 182.5q0 75 29 132t80.5 89t118.5 32q97 0 151 -63t54 -173v-28h-373q3 -90 49.5 -138.5t129.5 -48.5q45 0 84.5 14t77.5 47l24 -46q-32 -31 -82 -48.5t-102 -17.5zM279 445q-76 0 -118.5 -47.5t-49.5 -122.5h317q-2 80 -40 125t-109 45
zM279 548q-65 0 -104.5 50t-44.5 138l42 5q3 -71 31 -109.5t76 -38.5t76 38.5t31 109.5l42 -5q-5 -88 -44.5 -138t-104.5 -50z" />
    <glyph glyph-name="Edotaccent" unicode="&#x116;" horiz-adv-x="576" 
d="M92 0v705h434v-53h-374v-268h353v-53h-353v-278h374v-53h-434zM284 813v75h76v-75h-76z" />
    <glyph glyph-name="edotaccent" unicode="&#x117;" horiz-adv-x="527" 
d="M291 -8q-112 0 -176.5 66.5t-64.5 182.5q0 75 29 132t80.5 89t118.5 32q97 0 151 -63t54 -173v-28h-373q3 -90 49.5 -138.5t129.5 -48.5q45 0 84.5 14t77.5 47l24 -46q-32 -31 -82 -48.5t-102 -17.5zM279 445q-76 0 -118.5 -47.5t-49.5 -122.5h317q-2 80 -40 125t-109 45
zM240 614v75h78v-75h-78z" />
    <glyph glyph-name="Eogonek" unicode="&#x118;" horiz-adv-x="576" 
d="M92 0v705h434v-53h-374v-268h353v-53h-353v-278h374v-53h-434zM474 -191q-44 0 -71.5 25.5t-27.5 69.5q0 38 24.5 73t67.5 57l25 -34q-23 -10 -46 -33.5t-23 -56.5q0 -30 17 -44t42 -14t53 12l14 -38q-28 -17 -75 -17z" />
    <glyph glyph-name="eogonek" unicode="&#x119;" horiz-adv-x="527" 
d="M291 -8q-112 0 -176.5 66.5t-64.5 182.5q0 75 29 132t80.5 89t118.5 32q97 0 151 -63t54 -173v-28h-373q3 -90 49.5 -138.5t129.5 -48.5q45 0 84.5 14t77.5 47l24 -46q-32 -31 -82 -48.5t-102 -17.5zM279 445q-76 0 -118.5 -47.5t-49.5 -122.5h317q-2 80 -40 125t-109 45
zM331 -191q-44 0 -71.5 25.5t-27.5 69.5q0 38 24.5 73t67.5 57l25 -34q-23 -10 -46 -33.5t-23 -56.5q0 -30 17 -44t42 -14t53 12l14 -38q-28 -17 -75 -17z" />
    <glyph glyph-name="Ecaron" unicode="&#x11a;" horiz-adv-x="576" 
d="M92 0v705h434v-53h-374v-268h353v-53h-353v-278h374v-53h-434zM291 765l-122 171h49l104 -126l104 126h49l-122 -171h-62z" />
    <glyph glyph-name="ecaron" unicode="&#x11b;" horiz-adv-x="527" 
d="M291 -8q-112 0 -176.5 66.5t-64.5 182.5q0 75 29 132t80.5 89t118.5 32q97 0 151 -63t54 -173v-28h-373q3 -90 49.5 -138.5t129.5 -48.5q45 0 84.5 14t77.5 47l24 -46q-32 -31 -82 -48.5t-102 -17.5zM279 445q-76 0 -118.5 -47.5t-49.5 -122.5h317q-2 80 -40 125t-109 45
zM248 550l-109 201h45l95 -155l95 155h45l-109 -201h-62z" />
    <glyph glyph-name="Gcircumflex" unicode="&#x11c;" horiz-adv-x="722" 
d="M405 -8q-167 0 -254 95t-87 266q0 111 38.5 192t111 124.5t175.5 43.5q153 0 244 -91l-27 -50q-49 45 -101 64.5t-117 19.5q-125 0 -192 -79.5t-67 -223.5q0 -149 69.5 -227t207.5 -78q94 0 175 32v229h-187v52h242v-321q-26 -14 -64.5 -25t-82 -17t-84.5 -6zM234 765
l122 171h62l122 -171h-49l-104 126l-104 -126h-49z" />
    <glyph glyph-name="gcircumflex" unicode="&#x11d;" horiz-adv-x="578" 
d="M291 -188q-127 0 -211 67l23 46q46 -33 89 -47.5t97 -14.5q73 0 111 40t38 116v94q-21 -48 -66.5 -75t-103.5 -27q-68 0 -116.5 30.5t-75 85t-26.5 126.5t26.5 126t75 84.5t116.5 30.5q58 0 103 -27t66 -74v92h60v-457q0 -216 -206 -216zM275 63q75 0 119 51.5t44 138.5
t-44 138t-119 51q-76 0 -119.5 -51t-43.5 -138t43.5 -138.5t119.5 -51.5zM151 550l109 201h62l109 -201h-45l-95 155l-95 -155h-45z" />
    <glyph glyph-name="Gbreve" unicode="&#x11e;" horiz-adv-x="722" 
d="M405 -8q-167 0 -254 95t-87 266q0 111 38.5 192t111 124.5t175.5 43.5q153 0 244 -91l-27 -50q-49 45 -101 64.5t-117 19.5q-125 0 -192 -79.5t-67 -223.5q0 -149 69.5 -227t207.5 -78q94 0 175 32v229h-187v52h242v-321q-26 -14 -64.5 -25t-82 -17t-84.5 -6zM387 760
q-67 0 -111.5 45t-51.5 123l42 5q4 -61 36.5 -94.5t84.5 -33.5t84.5 33.5t36.5 94.5l42 -5q-7 -78 -51.5 -123t-111.5 -45z" />
    <glyph glyph-name="gbreve" unicode="&#x11f;" horiz-adv-x="578" 
d="M291 -188q-127 0 -211 67l23 46q46 -33 89 -47.5t97 -14.5q73 0 111 40t38 116v94q-21 -48 -66.5 -75t-103.5 -27q-68 0 -116.5 30.5t-75 85t-26.5 126.5t26.5 126t75 84.5t116.5 30.5q58 0 103 -27t66 -74v92h60v-457q0 -216 -206 -216zM275 63q75 0 119 51.5t44 138.5
t-44 138t-119 51q-76 0 -119.5 -51t-43.5 -138t43.5 -138.5t119.5 -51.5zM291 548q-65 0 -104.5 50t-44.5 138l42 5q3 -71 31 -109.5t76 -38.5t76 38.5t31 109.5l42 -5q-5 -88 -44.5 -138t-104.5 -50z" />
    <glyph glyph-name="Gdotaccent" unicode="&#x120;" horiz-adv-x="722" 
d="M405 -8q-167 0 -254 95t-87 266q0 111 38.5 192t111 124.5t175.5 43.5q153 0 244 -91l-27 -50q-49 45 -101 64.5t-117 19.5q-125 0 -192 -79.5t-67 -223.5q0 -149 69.5 -227t207.5 -78q94 0 175 32v229h-187v52h242v-321q-26 -14 -64.5 -25t-82 -17t-84.5 -6zM349 813v75
h76v-75h-76z" />
    <glyph glyph-name="gdotaccent" unicode="&#x121;" horiz-adv-x="578" 
d="M291 -188q-127 0 -211 67l23 46q46 -33 89 -47.5t97 -14.5q73 0 111 40t38 116v94q-21 -48 -66.5 -75t-103.5 -27q-68 0 -116.5 30.5t-75 85t-26.5 126.5t26.5 126t75 84.5t116.5 30.5q58 0 103 -27t66 -74v92h60v-457q0 -216 -206 -216zM275 63q75 0 119 51.5t44 138.5
t-44 138t-119 51q-76 0 -119.5 -51t-43.5 -138t43.5 -138.5t119.5 -51.5zM252 614v75h78v-75h-78z" />
    <glyph glyph-name="uni0122" unicode="&#x122;" horiz-adv-x="722" 
d="M405 -8q-167 0 -254 95t-87 266q0 111 38.5 192t111 124.5t175.5 43.5q153 0 244 -91l-27 -50q-49 45 -101 64.5t-117 19.5q-125 0 -192 -79.5t-67 -223.5q0 -149 69.5 -227t207.5 -78q94 0 175 32v229h-187v52h242v-321q-26 -14 -64.5 -25t-82 -17t-84.5 -6zM387 -263
l-31 22q21 23 29 43t9 42h-42v73h84v-57q0 -35 -12 -66.5t-37 -56.5z" />
    <glyph glyph-name="uni0123" unicode="&#x123;" horiz-adv-x="578" 
d="M291 -188q-127 0 -211 67l23 46q46 -33 89 -47.5t97 -14.5q73 0 111 40t38 116v94q-21 -48 -66.5 -75t-103.5 -27q-68 0 -116.5 30.5t-75 85t-26.5 126.5t26.5 126t75 84.5t116.5 30.5q58 0 103 -27t66 -74v92h60v-457q0 -216 -206 -216zM275 63q75 0 119 51.5t44 138.5
t-44 138t-119 51q-76 0 -119.5 -51t-43.5 -138t43.5 -138.5t119.5 -51.5zM249 569v57q0 35 12 66.5t37 56.5l31 -23q-21 -23 -29 -42.5t-9 -41.5h42v-73h-84z" />
    <glyph glyph-name="Hcircumflex" unicode="&#x124;" horiz-adv-x="756" 
d="M92 0v705h61v-320h450v320h61v-705h-61v330h-450v-330h-61zM225 765l122 171h62l122 -171h-49l-104 126l-104 -126h-49z" />
    <glyph glyph-name="hcircumflex" unicode="&#x125;" horiz-adv-x="560" 
d="M80 0v705h61v-304q25 46 69.5 69.5t98.5 23.5q173 0 173 -188v-306h-61v301q0 72 -29 106t-92 34q-72 0 -115.5 -44.5t-43.5 -119.5v-277h-61zM129 765l122 171h62l122 -171h-49l-104 126l-104 -126h-49z" />
    <glyph glyph-name="Hbar" unicode="&#x126;" horiz-adv-x="789" 
d="M108 0v523h-93v51h93v131h62v-131h449v131h62v-131h93v-51h-93v-523h-62v328h-449v-328h-62zM170 382h449v141h-449v-141z" />
    <glyph glyph-name="hbar" unicode="&#x127;" horiz-adv-x="560" 
d="M80 0v558h-93v48h93v99h61v-99h196v-48h-196v-157q25 46 69.5 69.5t98.5 23.5q173 0 173 -188v-306h-61v301q0 72 -29 106t-92 34q-72 0 -115.5 -44.5t-43.5 -119.5v-277h-61z" />
    <glyph glyph-name="Itilde" unicode="&#x128;" horiz-adv-x="245" 
d="M92 0v705h61v-705h-61zM-41 787l-39 3q6 61 36 94t77 33q23 0 46.5 -10.5t55.5 -33.5q32 -21 48.5 -29t30.5 -8q58 0 71 84l39 -3q-6 -61 -36 -94t-76 -33q-23 0 -47.5 10.5t-58.5 34.5q-28 20 -45 28t-31 8q-57 0 -71 -84z" />
    <glyph glyph-name="itilde" unicode="&#x129;" horiz-adv-x="222" 
d="M80 0v485h61v-485h-61zM-24 592l-39 3q6 60 32.5 93.5t69.5 33.5q21 0 39.5 -11t42.5 -34q22 -20 35.5 -28t26.5 -8q51 0 63 84l39 -3q-6 -60 -32.5 -93.5t-68.5 -33.5q-20 0 -38.5 10.5t-44.5 34.5q-21 19 -34.5 27.5t-27.5 8.5q-51 0 -63 -84z" />
    <glyph glyph-name="Imacron" unicode="&#x12a;" horiz-adv-x="245" 
d="M92 0v705h61v-705h-61zM-37 818v47h318v-47h-318z" />
    <glyph glyph-name="imacron" unicode="&#x12b;" horiz-adv-x="222" 
d="M80 0v485h61v-485h-61zM-33 629v46h288v-46h-288z" />
    <glyph glyph-name="Ibreve" unicode="&#x12c;" horiz-adv-x="245" 
d="M92 0v705h61v-705h-61zM122 760q-67 0 -111.5 45t-51.5 123l42 5q4 -61 36.5 -94.5t84.5 -33.5t84.5 33.5t36.5 94.5l42 -5q-7 -78 -51.5 -123t-111.5 -45z" />
    <glyph glyph-name="ibreve" unicode="&#x12d;" horiz-adv-x="222" 
d="M80 0v485h61v-485h-61zM111 548q-65 0 -104.5 50t-44.5 138l42 5q3 -71 31 -109.5t76 -38.5t76 38.5t31 109.5l42 -5q-5 -88 -44.5 -138t-104.5 -50z" />
    <glyph glyph-name="Iogonek" unicode="&#x12e;" horiz-adv-x="245" 
d="M92 0v705h61v-705h-61zM129 -191q-44 0 -71.5 25.5t-27.5 69.5q0 38 24.5 73t67.5 57l25 -34q-23 -10 -46 -33.5t-23 -56.5q0 -30 17 -44t42 -14t53 12l14 -38q-28 -17 -75 -17z" />
    <glyph glyph-name="iogonek" unicode="&#x12f;" horiz-adv-x="222" 
d="M80 0v485h61v-485h-61zM70 613v77h82v-77h-82zM117 -191q-44 0 -71.5 25.5t-27.5 69.5q0 38 24.5 73t67.5 57l25 -34q-23 -10 -46 -33.5t-23 -56.5q0 -30 17 -44t42 -14t53 12l14 -38q-28 -17 -75 -17z" />
    <glyph glyph-name="Idotaccent" unicode="&#x130;" horiz-adv-x="245" 
d="M92 0v705h61v-705h-61zM84 813v75h76v-75h-76z" />
    <glyph glyph-name="dotlessi" unicode="&#x131;" horiz-adv-x="222" 
d="M80 0v485h61v-485h-61z" />
    <glyph glyph-name="IJ" unicode="&#x132;" horiz-adv-x="555" 
d="M92 0v705h61v-705h-61zM240 -7l-5 54l56 4q53 4 82 39t29 93v522h62v-523q0 -83 -43 -131t-124 -54z" />
    <glyph glyph-name="Jcircumflex" unicode="&#x134;" horiz-adv-x="310" 
d="M-5 -7l-5 54l56 4q53 4 82 39t29 93v522h62v-523q0 -83 -43 -131t-124 -54zM35 765l122 171h62l122 -171h-49l-104 126l-104 -126h-49z" />
    <glyph glyph-name="jcircumflex" unicode="&#x135;" horiz-adv-x="225" 
d="M-53 -193l-4 50l42 4q99 8 99 120v504h61v-499q0 -166 -155 -176zM-26 550l109 201h62l109 -201h-45l-95 155l-95 -155h-45z" />
    <glyph glyph-name="uni0136" unicode="&#x136;" horiz-adv-x="607" 
d="M92 0v705h61v-324h2l356 324h81l-379 -344l403 -361h-84l-377 335h-2v-335h-61zM302 -263l-31 22q21 23 29 43t9 42h-42v73h84v-57q0 -35 -12 -66.5t-37 -56.5z" />
    <glyph glyph-name="uni0137" unicode="&#x137;" horiz-adv-x="484" 
d="M80 0v705h61v-440h2l239 220h81l-255 -234l279 -251h-81l-263 233h-2v-233h-61zM235 -263l-31 22q21 23 29 43t9 42h-42v73h84v-57q0 -35 -12 -66.5t-37 -56.5z" />
    <glyph glyph-name="kgreenlandic" unicode="&#x138;" horiz-adv-x="484" 
d="M80 0v485h61v-220h2l239 220h81l-255 -234l279 -251h-81l-263 233h-2v-233h-61z" />
    <glyph glyph-name="Lacute" unicode="&#x139;" horiz-adv-x="535" 
d="M92 0v705h61v-650h368v-55h-429zM97 765l118 171h73l-141 -171h-50z" />
    <glyph glyph-name="lacute" unicode="&#x13a;" horiz-adv-x="285" 
d="M221 -8q-68 0 -104.5 41.5t-36.5 119.5v552h61v-545q0 -115 90 -115q25 0 46 6l-2 -53q-29 -6 -54 -6zM86 765l118 171h73l-141 -171h-50z" />
    <glyph glyph-name="uni013B" unicode="&#x13b;" horiz-adv-x="535" 
d="M92 0v705h61v-650h368v-55h-429zM299 -263l-31 22q21 23 29 43t9 42h-42v73h84v-57q0 -35 -12 -66.5t-37 -56.5z" />
    <glyph glyph-name="uni013C" unicode="&#x13c;" horiz-adv-x="285" 
d="M221 -8q-68 0 -104.5 41.5t-36.5 119.5v552h61v-545q0 -115 90 -115q25 0 46 6l-2 -53q-29 -6 -54 -6zM177 -263l-31 22q21 23 29 43t9 42h-42v73h84v-57q0 -35 -12 -66.5t-37 -56.5z" />
    <glyph glyph-name="Lcaron" unicode="&#x13d;" horiz-adv-x="535" 
d="M92 0v705h61v-650h368v-55h-429zM272 484v221h60l-20 -221h-40z" />
    <glyph glyph-name="lcaron" unicode="&#x13e;" horiz-adv-x="285" 
d="M221 -8q-68 0 -104.5 41.5t-36.5 119.5v552h61v-545q0 -115 90 -115q25 0 46 6l-2 -53q-29 -6 -54 -6zM189 516v189h57l-23 -189h-34z" />
    <glyph glyph-name="Ldot" unicode="&#x13f;" horiz-adv-x="535" 
d="M92 0v705h61v-650h368v-55h-429zM351 347v81h84v-81h-84z" />
    <glyph glyph-name="ldot" unicode="&#x140;" horiz-adv-x="297" 
d="M221 -8q-68 0 -104.5 41.5t-36.5 119.5v552h61v-545q0 -115 90 -115q25 0 46 6l-2 -53q-29 -6 -54 -6zM216 316v81h84v-81h-84z" />
    <glyph glyph-name="Lslash" unicode="&#x141;" horiz-adv-x="535" 
d="M92 0v705h61v-650h368v-55h-429zM9 266l-27 45l342 197l26 -45z" />
    <glyph glyph-name="lslash" unicode="&#x142;" horiz-adv-x="285" 
d="M221 -8q-68 0 -104.5 41.5t-36.5 119.5v552h61v-545q0 -115 90 -115q25 0 46 6l-2 -53q-29 -6 -54 -6zM12 263l-27 45l245 143l27 -45z" />
    <glyph glyph-name="Nacute" unicode="&#x143;" horiz-adv-x="736" 
d="M92 0v705h49l446 -601v601h57v-705h-48l-447 602v-602h-57zM343 765l118 171h73l-141 -171h-50z" />
    <glyph glyph-name="nacute" unicode="&#x144;" horiz-adv-x="560" 
d="M80 0v485h60v-87q24 48 69 72t100 24q173 0 173 -188v-306h-61v301q0 72 -29 106t-92 34q-72 0 -115.5 -44.5t-43.5 -119.5v-277h-61zM258 550l103 201h70l-127 -201h-46z" />
    <glyph glyph-name="uni0145" unicode="&#x145;" horiz-adv-x="736" 
d="M92 0v705h49l446 -601v601h57v-705h-48l-447 602v-602h-57zM361 -263l-31 22q21 23 29 43t9 42h-42v73h84v-57q0 -35 -12 -66.5t-37 -56.5z" />
    <glyph glyph-name="uni0146" unicode="&#x146;" horiz-adv-x="560" 
d="M80 0v485h60v-87q24 48 69 72t100 24q173 0 173 -188v-306h-61v301q0 72 -29 106t-92 34q-72 0 -115.5 -44.5t-43.5 -119.5v-277h-61zM274 -263l-31 22q21 23 29 43t9 42h-42v73h84v-57q0 -35 -12 -66.5t-37 -56.5z" />
    <glyph glyph-name="Ncaron" unicode="&#x147;" horiz-adv-x="736" 
d="M92 0v705h49l446 -601v601h57v-705h-48l-447 602v-602h-57zM337 765l-122 171h49l104 -126l104 126h49l-122 -171h-62z" />
    <glyph glyph-name="ncaron" unicode="&#x148;" horiz-adv-x="560" 
d="M80 0v485h60v-87q24 48 69 72t100 24q173 0 173 -188v-306h-61v301q0 72 -29 106t-92 34q-72 0 -115.5 -44.5t-43.5 -119.5v-277h-61zM250 550l-109 201h45l95 -155l95 155h45l-109 -201h-62z" />
    <glyph glyph-name="napostrophe" unicode="&#x149;" horiz-adv-x="560" 
d="M29 573l-31 23q19 21 26 39t8 36h-39v78h83v-58q0 -33 -10 -62.5t-37 -55.5zM80 0v485h60v-87q24 48 69 72t100 24q173 0 173 -188v-306h-61v301q0 72 -29 106t-92 34q-72 0 -115.5 -44.5t-43.5 -119.5v-277h-61z" />
    <glyph glyph-name="Eng" unicode="&#x14a;" horiz-adv-x="736" 
d="M447 -193l-4 50l42 4q102 8 102 120v32l-438 589v-602h-57v705h49l446 -601v601h57v-719q0 -165 -154 -176z" />
    <glyph glyph-name="eng" unicode="&#x14b;" horiz-adv-x="560" 
d="M285 -193l-4 50l42 4q98 8 98 120v320q0 72 -29 106t-92 34q-72 0 -115.5 -44.5t-43.5 -119.5v-277h-61v485h60v-87q24 48 69 72t100 24q173 0 173 -188v-320q0 -165 -154 -176z" />
    <glyph glyph-name="Omacron" unicode="&#x14c;" horiz-adv-x="759" 
d="M379 -8q-97 0 -167.5 44t-109 125t-38.5 192t38 192t109 124.5t168 43.5q98 0 168.5 -43.5t109 -124t38.5 -191.5q0 -112 -38.5 -193t-109.5 -125t-168 -44zM379 48q119 0 185 80t66 225t-65.5 224.5t-185.5 79.5q-119 0 -184.5 -80t-65.5 -224t65.5 -224.5t184.5 -80.5z
M220 818v47h318v-47h-318z" />
    <glyph glyph-name="omacron" unicode="&#x14d;" horiz-adv-x="547" 
d="M273 -8q-68 0 -118 30.5t-77.5 87t-27.5 133.5q0 76 27.5 132.5t77.5 87.5t118 31q69 0 119 -31t77.5 -87.5t27.5 -132.5q0 -77 -27.5 -133.5t-77.5 -87t-119 -30.5zM273 43q74 0 118 52.5t44 147.5t-44 147t-118 52t-117.5 -52t-43.5 -147t43.5 -147.5t117.5 -52.5z
M129 629v46h288v-46h-288z" />
    <glyph glyph-name="Obreve" unicode="&#x14e;" horiz-adv-x="759" 
d="M379 -8q-97 0 -167.5 44t-109 125t-38.5 192t38 192t109 124.5t168 43.5q98 0 168.5 -43.5t109 -124t38.5 -191.5q0 -112 -38.5 -193t-109.5 -125t-168 -44zM379 48q119 0 185 80t66 225t-65.5 224.5t-185.5 79.5q-119 0 -184.5 -80t-65.5 -224t65.5 -224.5t184.5 -80.5z
M379 760q-67 0 -111.5 45t-51.5 123l42 5q4 -61 36.5 -94.5t84.5 -33.5t84.5 33.5t36.5 94.5l42 -5q-7 -78 -51.5 -123t-111.5 -45z" />
    <glyph glyph-name="obreve" unicode="&#x14f;" horiz-adv-x="547" 
d="M273 -8q-68 0 -118 30.5t-77.5 87t-27.5 133.5q0 76 27.5 132.5t77.5 87.5t118 31q69 0 119 -31t77.5 -87.5t27.5 -132.5q0 -77 -27.5 -133.5t-77.5 -87t-119 -30.5zM273 43q74 0 118 52.5t44 147.5t-44 147t-118 52t-117.5 -52t-43.5 -147t43.5 -147.5t117.5 -52.5z
M273 548q-65 0 -104.5 50t-44.5 138l42 5q3 -71 31 -109.5t76 -38.5t76 38.5t31 109.5l42 -5q-5 -88 -44.5 -138t-104.5 -50z" />
    <glyph glyph-name="Ohungarumlaut" unicode="&#x150;" horiz-adv-x="759" 
d="M379 -8q-97 0 -167.5 44t-109 125t-38.5 192t38 192t109 124.5t168 43.5q98 0 168.5 -43.5t109 -124t38.5 -191.5q0 -112 -38.5 -193t-109.5 -125t-168 -44zM379 48q119 0 185 80t66 225t-65.5 224.5t-185.5 79.5q-119 0 -184.5 -80t-65.5 -224t65.5 -224.5t184.5 -80.5z
M302 765l86 171h65l-114 -171h-37zM419 765l88 171h65l-116 -171h-37z" />
    <glyph glyph-name="ohungarumlaut" unicode="&#x151;" horiz-adv-x="547" 
d="M273 -8q-68 0 -118 30.5t-77.5 87t-27.5 133.5q0 76 27.5 132.5t77.5 87.5t118 31q69 0 119 -31t77.5 -87.5t27.5 -132.5q0 -77 -27.5 -133.5t-77.5 -87t-119 -30.5zM273 43q74 0 118 52.5t44 147.5t-44 147t-118 52t-117.5 -52t-43.5 -147t43.5 -147.5t117.5 -52.5z
M314 550l56 201h61l-81 -201h-36zM196 550l56 201h61l-81 -201h-36z" />
    <glyph glyph-name="OE" unicode="&#x152;" horiz-adv-x="1042" 
d="M415 0q-169 0 -260 90.5t-91 262.5t91 262t260 90h577v-53h-374v-268h353v-53h-353v-278h374v-53h-577zM420 54h138v597h-138q-291 0 -291 -298q0 -299 291 -299z" />
    <glyph glyph-name="oe" unicode="&#x153;" horiz-adv-x="908" 
d="M272 -8q-68 0 -118 31t-77 87t-27 133q0 76 27 132.5t77 87.5t118 31q69 0 119 -34t75 -95q25 60 77 94.5t120 34.5q93 0 146.5 -63t53.5 -173v-28h-366q3 -89 48 -138t129 -49q42 0 81 15t77 46l23 -46q-31 -31 -80 -48.5t-100 -17.5q-77 0 -131.5 32t-79.5 95
q-25 -60 -74.5 -93.5t-117.5 -33.5zM661 445q-72 0 -114 -47.5t-49 -122.5h311q-2 79 -39.5 124.5t-108.5 45.5zM273 43q75 0 118.5 52.5t43.5 147.5t-44 147t-118 52t-117.5 -52t-43.5 -147t43.5 -147.5t117.5 -52.5z" />
    <glyph glyph-name="Racute" unicode="&#x154;" horiz-adv-x="661" 
d="M92 0v705h266q113 0 172.5 -52t59.5 -148q0 -79 -43 -128t-122 -63q43 -16 76 -78l128 -236h-67l-122 226q-26 47 -58 63t-86 16h-143v-305h-61zM153 357h197q178 0 178 148q0 147 -178 147h-197v-295zM312 765l118 171h73l-141 -171h-50z" />
    <glyph glyph-name="racute" unicode="&#x155;" horiz-adv-x="342" 
d="M80 0v485h60v-88q21 46 61 70t102 28l25 2l6 -53l-43 -5q-71 -6 -110 -46.5t-39 -108.5v-284h-62zM186 550l103 201h70l-127 -201h-46z" />
    <glyph glyph-name="uni0156" unicode="&#x156;" horiz-adv-x="661" 
d="M92 0v705h266q113 0 172.5 -52t59.5 -148q0 -79 -43 -128t-122 -63q43 -16 76 -78l128 -236h-67l-122 226q-26 47 -58 63t-86 16h-143v-305h-61zM153 357h197q178 0 178 148q0 147 -178 147h-197v-295zM330 -263l-31 22q21 23 29 43t9 42h-42v73h84v-57q0 -35 -12 -66.5
t-37 -56.5z" />
    <glyph glyph-name="uni0157" unicode="&#x157;" horiz-adv-x="342" 
d="M80 0v485h60v-88q21 46 61 70t102 28l25 2l6 -53l-43 -5q-71 -6 -110 -46.5t-39 -108.5v-284h-62zM104 -263l-31 22q21 23 29 43t9 42h-42v73h84v-57q0 -35 -12 -66.5t-37 -56.5z" />
    <glyph glyph-name="Rcaron" unicode="&#x158;" horiz-adv-x="661" 
d="M92 0v705h266q113 0 172.5 -52t59.5 -148q0 -79 -43 -128t-122 -63q43 -16 76 -78l128 -236h-67l-122 226q-26 47 -58 63t-86 16h-143v-305h-61zM153 357h197q178 0 178 148q0 147 -178 147h-197v-295zM306 765l-122 171h49l104 -126l104 126h49l-122 -171h-62z" />
    <glyph glyph-name="rcaron" unicode="&#x159;" horiz-adv-x="342" 
d="M80 0v485h60v-88q21 46 61 70t102 28l25 2l6 -53l-43 -5q-71 -6 -110 -46.5t-39 -108.5v-284h-62zM178 550l-109 201h45l95 -155l95 155h45l-109 -201h-62z" />
    <glyph glyph-name="Sacute" unicode="&#x15a;" horiz-adv-x="607" 
d="M312 -8q-82 0 -147.5 21.5t-113.5 63.5l24 51q52 -41 106.5 -60.5t130.5 -19.5q95 0 142.5 37t47.5 97q0 50 -34.5 78t-113.5 44l-101 21q-94 19 -140.5 64t-46.5 120q0 61 31.5 107t87.5 71.5t129 25.5q146 0 233 -88l-24 -50q-46 43 -96 62.5t-113 19.5
q-84 0 -134.5 -40t-50.5 -107q0 -53 32 -83.5t103 -44.5l102 -21q101 -21 150 -62.5t49 -113.5q0 -57 -30.5 -100.5t-87.5 -68t-135 -24.5zM284 765l118 171h73l-141 -171h-50z" />
    <glyph glyph-name="sacute" unicode="&#x15b;" horiz-adv-x="478" 
d="M238 -8q-54 0 -103.5 16t-81.5 46l22 45q37 -30 79 -43.5t86 -13.5q62 0 93.5 22.5t31.5 62.5q0 31 -21 49t-66 29l-87 20q-123 28 -123 127q0 64 50 103t132 39q50 0 94 -16.5t72 -47.5l-24 -45q-29 29 -66 43.5t-77 14.5q-58 0 -89.5 -24t-31.5 -65q0 -31 19 -50
t62 -29l87 -20q65 -15 97 -44.5t32 -79.5q0 -65 -51 -102t-136 -37zM225 550l103 201h70l-127 -201h-46z" />
    <glyph glyph-name="Scircumflex" unicode="&#x15c;" horiz-adv-x="607" 
d="M312 -8q-82 0 -147.5 21.5t-113.5 63.5l24 51q52 -41 106.5 -60.5t130.5 -19.5q95 0 142.5 37t47.5 97q0 50 -34.5 78t-113.5 44l-101 21q-94 19 -140.5 64t-46.5 120q0 61 31.5 107t87.5 71.5t129 25.5q146 0 233 -88l-24 -50q-46 43 -96 62.5t-113 19.5
q-84 0 -134.5 -40t-50.5 -107q0 -53 32 -83.5t103 -44.5l102 -21q101 -21 150 -62.5t49 -113.5q0 -57 -30.5 -100.5t-87.5 -68t-135 -24.5zM156 765l122 171h62l122 -171h-49l-104 126l-104 -126h-49z" />
    <glyph glyph-name="scircumflex" unicode="&#x15d;" horiz-adv-x="478" 
d="M238 -8q-54 0 -103.5 16t-81.5 46l22 45q37 -30 79 -43.5t86 -13.5q62 0 93.5 22.5t31.5 62.5q0 31 -21 49t-66 29l-87 20q-123 28 -123 127q0 64 50 103t132 39q50 0 94 -16.5t72 -47.5l-24 -45q-29 29 -66 43.5t-77 14.5q-58 0 -89.5 -24t-31.5 -65q0 -31 19 -50
t62 -29l87 -20q65 -15 97 -44.5t32 -79.5q0 -65 -51 -102t-136 -37zM108 550l109 201h62l109 -201h-45l-95 155l-95 -155h-45z" />
    <glyph glyph-name="Scedilla" unicode="&#x15e;" horiz-adv-x="607" 
d="M312 -8q-82 0 -147.5 21.5t-113.5 63.5l24 51q52 -41 106.5 -60.5t130.5 -19.5q95 0 142.5 37t47.5 97q0 50 -34.5 78t-113.5 44l-101 21q-94 19 -140.5 64t-46.5 120q0 61 31.5 107t87.5 71.5t129 25.5q146 0 233 -88l-24 -50q-46 43 -96 62.5t-113 19.5
q-84 0 -134.5 -40t-50.5 -107q0 -53 32 -83.5t103 -44.5l102 -21q101 -21 150 -62.5t49 -113.5q0 -57 -30.5 -100.5t-87.5 -68t-135 -24.5zM317 -191q-52 0 -83 19l11 39q18 -9 34 -13t39 -4q27 0 43.5 10.5t16.5 29.5q0 30 -38 30q-11 0 -22.5 -1.5t-26.5 -7.5l-16 14
l14 95h45l-11 -66q12 2 22 2q34 0 57.5 -17.5t23.5 -49.5q0 -36 -30 -58t-79 -22z" />
    <glyph glyph-name="scedilla" unicode="&#x15f;" horiz-adv-x="478" 
d="M238 -8q-54 0 -103.5 16t-81.5 46l22 45q37 -30 79 -43.5t86 -13.5q62 0 93.5 22.5t31.5 62.5q0 31 -21 49t-66 29l-87 20q-123 28 -123 127q0 64 50 103t132 39q50 0 94 -16.5t72 -47.5l-24 -45q-29 29 -66 43.5t-77 14.5q-58 0 -89.5 -24t-31.5 -65q0 -31 19 -50
t62 -29l87 -20q65 -15 97 -44.5t32 -79.5q0 -65 -51 -102t-136 -37zM242 -191q-52 0 -83 19l11 39q18 -9 34 -13t39 -4q27 0 43.5 10.5t16.5 29.5q0 30 -38 30q-11 0 -22.5 -1.5t-26.5 -7.5l-16 14l14 95h45l-11 -66q12 2 22 2q34 0 57.5 -17.5t23.5 -49.5q0 -36 -30 -58
t-79 -22z" />
    <glyph glyph-name="Scaron" unicode="&#x160;" horiz-adv-x="607" 
d="M312 -8q-82 0 -147.5 21.5t-113.5 63.5l24 51q52 -41 106.5 -60.5t130.5 -19.5q95 0 142.5 37t47.5 97q0 50 -34.5 78t-113.5 44l-101 21q-94 19 -140.5 64t-46.5 120q0 61 31.5 107t87.5 71.5t129 25.5q146 0 233 -88l-24 -50q-46 43 -96 62.5t-113 19.5
q-84 0 -134.5 -40t-50.5 -107q0 -53 32 -83.5t103 -44.5l102 -21q101 -21 150 -62.5t49 -113.5q0 -57 -30.5 -100.5t-87.5 -68t-135 -24.5zM278 765l-122 171h49l104 -126l104 126h49l-122 -171h-62z" />
    <glyph glyph-name="scaron" unicode="&#x161;" horiz-adv-x="478" 
d="M238 -8q-54 0 -103.5 16t-81.5 46l22 45q37 -30 79 -43.5t86 -13.5q62 0 93.5 22.5t31.5 62.5q0 31 -21 49t-66 29l-87 20q-123 28 -123 127q0 64 50 103t132 39q50 0 94 -16.5t72 -47.5l-24 -45q-29 29 -66 43.5t-77 14.5q-58 0 -89.5 -24t-31.5 -65q0 -31 19 -50
t62 -29l87 -20q65 -15 97 -44.5t32 -79.5q0 -65 -51 -102t-136 -37zM217 550l-109 201h45l95 -155l95 155h45l-109 -201h-62z" />
    <glyph glyph-name="uni0162" unicode="&#x162;" horiz-adv-x="594" 
d="M266 0v650h-263v55h588v-55h-263v-650h-62zM301 -191q-52 0 -83 19l11 39q18 -9 34 -13t39 -4q27 0 43.5 10.5t16.5 29.5q0 30 -38 30q-11 0 -22.5 -1.5t-26.5 -7.5l-16 14l14 95h45l-11 -66q12 2 22 2q34 0 57.5 -17.5t23.5 -49.5q0 -36 -30 -58t-79 -22z" />
    <glyph glyph-name="uni0163" unicode="&#x163;" horiz-adv-x="335" 
d="M263 -8q-81 0 -121.5 44t-40.5 126v274h-96v49h96v150h61v-150h157v-49h-157v-266q0 -61 25 -93t83 -32q17 0 33 4t28 9l12 -48q-11 -7 -35 -12.5t-45 -5.5zM213 -191q-52 0 -83 19l11 39q18 -9 34 -13t39 -4q27 0 43.5 10.5t16.5 29.5q0 30 -38 30q-11 0 -22.5 -1.5
t-26.5 -7.5l-16 14l14 95h45l-11 -66q12 2 22 2q34 0 57.5 -17.5t23.5 -49.5q0 -36 -30 -58t-79 -22z" />
    <glyph glyph-name="Tcaron" unicode="&#x164;" horiz-adv-x="594" 
d="M266 0v650h-263v55h588v-55h-263v-650h-62zM266 765l-122 171h49l104 -126l104 126h49l-122 -171h-62z" />
    <glyph glyph-name="tcaron" unicode="&#x165;" horiz-adv-x="335" 
d="M263 -8q-81 0 -121.5 44t-40.5 126v274h-96v49h96v150h61v-150h157v-49h-157v-266q0 -61 25 -93t83 -32q17 0 33 4t28 9l12 -48q-11 -7 -35 -12.5t-45 -5.5zM236 534v171h56l-22 -171h-34z" />
    <glyph glyph-name="Tbar" unicode="&#x166;" horiz-adv-x="594" 
d="M266 0v650h-263v55h588v-55h-263v-650h-62zM122 333v50h350v-50h-350z" />
    <glyph glyph-name="tbar" unicode="&#x167;" horiz-adv-x="335" 
d="M263 -8q-81 0 -121.5 44t-40.5 126v274h-96v49h96v150h61v-150h157v-49h-157v-266q0 -61 25 -93t83 -32q17 0 33 4t28 9l12 -48q-11 -7 -35 -12.5t-45 -5.5zM28 246v45h259v-45h-259z" />
    <glyph glyph-name="Utilde" unicode="&#x168;" horiz-adv-x="724" 
d="M362 -8q-135 0 -205 72.5t-70 210.5v430h61v-425q0 -232 214 -232t214 232v425h61v-430q0 -138 -70 -210.5t-205 -72.5zM199 787l-39 3q6 61 36 94t77 33q23 0 46.5 -10.5t55.5 -33.5q32 -21 48.5 -29t30.5 -8q58 0 71 84l39 -3q-6 -61 -36 -94t-76 -33q-23 0 -47.5 10.5
t-58.5 34.5q-28 20 -45 28t-31 8q-57 0 -71 -84z" />
    <glyph glyph-name="utilde" unicode="&#x169;" horiz-adv-x="553" 
d="M251 -8q-173 0 -173 188v305h61v-302q0 -71 29 -105t91 -34q67 0 109.5 45t42.5 120v276h61v-485h-59v86q-24 -46 -66.5 -70t-95.5 -24zM142 593l-39 3q6 60 32.5 93.5t69.5 33.5q21 0 39.5 -11t42.5 -34q22 -20 35.5 -28t26.5 -8q51 0 63 84l39 -3q-6 -60 -32.5 -93.5
t-68.5 -33.5q-20 0 -38.5 10.5t-44.5 34.5q-21 19 -34.5 27.5t-27.5 8.5q-51 0 -63 -84z" />
    <glyph glyph-name="Umacron" unicode="&#x16a;" horiz-adv-x="724" 
d="M362 -8q-135 0 -205 72.5t-70 210.5v430h61v-425q0 -232 214 -232t214 232v425h61v-430q0 -138 -70 -210.5t-205 -72.5zM203 818v47h318v-47h-318z" />
    <glyph glyph-name="umacron" unicode="&#x16b;" horiz-adv-x="553" 
d="M251 -8q-173 0 -173 188v305h61v-302q0 -71 29 -105t91 -34q67 0 109.5 45t42.5 120v276h61v-485h-59v86q-24 -46 -66.5 -70t-95.5 -24zM133 630v46h288v-46h-288z" />
    <glyph glyph-name="Ubreve" unicode="&#x16c;" horiz-adv-x="724" 
d="M362 -8q-135 0 -205 72.5t-70 210.5v430h61v-425q0 -232 214 -232t214 232v425h61v-430q0 -138 -70 -210.5t-205 -72.5zM362 760q-67 0 -111.5 45t-51.5 123l42 5q4 -61 36.5 -94.5t84.5 -33.5t84.5 33.5t36.5 94.5l42 -5q-7 -78 -51.5 -123t-111.5 -45z" />
    <glyph glyph-name="ubreve" unicode="&#x16d;" horiz-adv-x="553" 
d="M251 -8q-173 0 -173 188v305h61v-302q0 -71 29 -105t91 -34q67 0 109.5 45t42.5 120v276h61v-485h-59v86q-24 -46 -66.5 -70t-95.5 -24zM277 549q-65 0 -104.5 50t-44.5 138l42 5q3 -71 31 -109.5t76 -38.5t76 38.5t31 109.5l42 -5q-5 -88 -44.5 -138t-104.5 -50z" />
    <glyph glyph-name="Uring" unicode="&#x16e;" horiz-adv-x="724" 
d="M362 -8q-135 0 -205 72.5t-70 210.5v430h61v-425q0 -232 214 -232t214 232v425h61v-430q0 -138 -70 -210.5t-205 -72.5zM362 759q-49 0 -82 33t-33 80t33 80t82 33t82 -33t33 -80t-33 -80t-82 -33zM362 797q33 0 54 21.5t21 53.5t-21 53.5t-54 21.5t-54 -21.5t-21 -53.5
t21 -53.5t54 -21.5z" />
    <glyph glyph-name="uring" unicode="&#x16f;" horiz-adv-x="553" 
d="M251 -8q-173 0 -173 188v305h61v-302q0 -71 29 -105t91 -34q67 0 109.5 45t42.5 120v276h61v-485h-59v86q-24 -46 -66.5 -70t-95.5 -24zM277 548q-49 0 -82 33t-33 80t33 79.5t82 32.5t82 -32.5t33 -79.5t-33 -80t-82 -33zM277 585q33 0 54 22t21 54t-21 53.5t-54 21.5
t-54 -21.5t-21 -53.5t21 -54t54 -22z" />
    <glyph glyph-name="Uhungarumlaut" unicode="&#x170;" horiz-adv-x="724" 
d="M362 -8q-135 0 -205 72.5t-70 210.5v430h61v-425q0 -232 214 -232t214 232v425h61v-430q0 -138 -70 -210.5t-205 -72.5zM285 765l86 171h65l-114 -171h-37zM402 765l88 171h65l-116 -171h-37z" />
    <glyph glyph-name="uhungarumlaut" unicode="&#x171;" horiz-adv-x="553" 
d="M251 -8q-173 0 -173 188v305h61v-302q0 -71 29 -105t91 -34q67 0 109.5 45t42.5 120v276h61v-485h-59v86q-24 -46 -66.5 -70t-95.5 -24zM318 551l56 201h61l-81 -201h-36zM200 551l56 201h61l-81 -201h-36z" />
    <glyph glyph-name="Uogonek" unicode="&#x172;" horiz-adv-x="724" 
d="M362 -8q-135 0 -205 72.5t-70 210.5v430h61v-425q0 -232 214 -232t214 232v425h61v-430q0 -138 -70 -210.5t-205 -72.5zM401 -191q-44 0 -71.5 25.5t-27.5 69.5q0 38 24.5 73t67.5 57l25 -34q-23 -10 -46 -33.5t-23 -56.5q0 -30 17 -44t42 -14t53 12l14 -38
q-28 -17 -75 -17z" />
    <glyph glyph-name="uogonek" unicode="&#x173;" horiz-adv-x="553" 
d="M251 -8q-173 0 -173 188v305h61v-302q0 -71 29 -105t91 -34q67 0 109.5 45t42.5 120v276h61v-485h-59v86q-24 -46 -66.5 -70t-95.5 -24zM446 -191q-44 0 -71.5 25.5t-27.5 69.5q0 38 24.5 73t67.5 57l25 -34q-23 -10 -46 -33.5t-23 -56.5q0 -30 17 -44t42 -14t53 12
l14 -38q-28 -17 -75 -17z" />
    <glyph glyph-name="Wcircumflex" unicode="&#x174;" horiz-adv-x="1096" 
d="M279 0l-245 705h64l211 -614l213 614h52l213 -618l213 618h62l-245 -705h-58l-211 612l-213 -612h-56zM395 765l122 171h62l122 -171h-49l-104 126l-104 -126h-49z" />
    <glyph glyph-name="wcircumflex" unicode="&#x175;" horiz-adv-x="835" 
d="M208 0l-176 485h65l143 -413l149 413h60l146 -414l146 414h63l-177 -485h-63l-146 406l-147 -406h-63zM278 550l109 201h62l109 -201h-45l-95 155l-95 -155h-45z" />
    <glyph glyph-name="Ycircumflex" unicode="&#x176;" horiz-adv-x="586" 
d="M262 0v338l-269 367h72l229 -313l230 313h69l-269 -368v-337h-62zM140 765l122 171h62l122 -171h-49l-104 126l-104 -126h-49z" />
    <glyph glyph-name="ycircumflex" unicode="&#x177;" horiz-adv-x="509" 
d="M142 -180l80 182l-206 483h68l171 -418l173 418h66l-286 -665h-66zM115 550l109 201h62l109 -201h-45l-95 155l-95 -155h-45z" />
    <glyph glyph-name="Ydieresis" unicode="&#x178;" horiz-adv-x="586" 
d="M262 0v338l-269 367h72l229 -313l230 313h69l-269 -368v-337h-62zM340 813v73h73v-73h-73zM173 813v73h73v-73h-73z" />
    <glyph glyph-name="Zacute" unicode="&#x179;" horiz-adv-x="582" 
d="M49 0v45l420 605h-420v55h496v-45l-420 -605h434v-55h-510zM278 765l118 171h73l-141 -171h-50z" />
    <glyph glyph-name="zacute" unicode="&#x17a;" horiz-adv-x="459" 
d="M57 0v42l290 394h-290v49h359v-42l-289 -394h300v-49h-370zM214 550l103 201h70l-127 -201h-46z" />
    <glyph glyph-name="Zdotaccent" unicode="&#x17b;" horiz-adv-x="582" 
d="M49 0v45l420 605h-420v55h496v-45l-420 -605h434v-55h-510zM265 813v75h76v-75h-76z" />
    <glyph glyph-name="zdotaccent" unicode="&#x17c;" horiz-adv-x="459" 
d="M57 0v42l290 394h-290v49h359v-42l-289 -394h300v-49h-370zM198 614v75h78v-75h-78z" />
    <glyph glyph-name="Zcaron" unicode="&#x17d;" horiz-adv-x="582" 
d="M49 0v45l420 605h-420v55h496v-45l-420 -605h434v-55h-510zM272 765l-122 171h49l104 -126l104 126h49l-122 -171h-62z" />
    <glyph glyph-name="zcaron" unicode="&#x17e;" horiz-adv-x="459" 
d="M57 0v42l290 394h-290v49h359v-42l-289 -394h300v-49h-370zM206 550l-109 201h45l95 -155l95 155h45l-109 -201h-62z" />
    <glyph glyph-name="uni0181" unicode="&#x181;" horiz-adv-x="783" 
d="M204 0v654h-35q-59 0 -87 -27.5t-28 -85.5v-43h-54v46q0 80 43.5 120.5t135.5 40.5h294q108 0 167.5 -48t59.5 -137q0 -58 -30.5 -99t-84.5 -60q61 -15 96.5 -58.5t35.5 -110.5q0 -94 -60.5 -143t-170.5 -49h-282zM264 383h202q84 0 128 34.5t44 100.5t-44 100.5
t-128 34.5h-202v-270zM264 52h217q173 0 173 139q0 72 -43 106t-130 34h-217v-279z" />
    <glyph glyph-name="uni018A" unicode="&#x18a;" horiz-adv-x="846" 
d="M204 0v654h-35q-59 0 -87 -27.5t-28 -85.5v-43h-54v46q0 161 170 161h261q168 0 259.5 -90t91.5 -262t-91.5 -262.5t-259.5 -90.5h-227zM266 54h160q291 0 291 299q0 298 -291 298h-160v-597z" />
    <glyph glyph-name="uni018F" unicode="&#x18f;" horiz-adv-x="759" 
d="M385 -8q-107 0 -178.5 44.5t-107 125t-35.5 189.5v32h565q-8 131 -79 202.5t-196 71.5q-76 0 -131 -20t-106 -65l-26 49q100 92 267 92q104 0 179.5 -43t116.5 -124t41 -193t-38.5 -193t-108 -124.5t-163.5 -43.5zM382 47q111 0 176.5 73.5t70.5 208.5h-501
q5 -138 68.5 -210t185.5 -72z" />
    <glyph glyph-name="florin" unicode="&#x192;" horiz-adv-x="600" 
d="M45 -188v51h43q47 0 76.5 24t43.5 87l98 462h-126v49h137l14 69q16 77 59 118t120 41h43v-53h-40q-49 0 -78.5 -23t-42.5 -87l-14 -65h128v-49h-138l-100 -466q-16 -76 -59 -117t-119 -41h-45z" />
    <glyph glyph-name="Ohorn" unicode="&#x1a0;" horiz-adv-x="759" 
d="M379 -8q-97 0 -167.5 44t-109 125t-38.5 192t38 192t109 124.5t168 43.5q98 0 168.5 -43.5t109 -124t38.5 -191.5q0 -112 -38.5 -193t-109.5 -125t-168 -44zM379 48q119 0 185 80t66 225t-65.5 224.5t-185.5 79.5q-119 0 -184.5 -80t-65.5 -224t65.5 -224.5t184.5 -80.5z
M486 661l-52 48q52 -4 89 -4q68 0 91.5 29t23.5 88v14h55v-24q0 -69 -38 -110t-105 -41h-64z" />
    <glyph glyph-name="ohorn" unicode="&#x1a1;" horiz-adv-x="547" 
d="M273 -8q-68 0 -118 30.5t-77.5 87t-27.5 133.5q0 76 27.5 132.5t77.5 87.5t118 31q69 0 119 -31t77.5 -87.5t27.5 -132.5q0 -77 -27.5 -133.5t-77.5 -87t-119 -30.5zM273 43q74 0 118 52.5t44 147.5t-44 147t-118 52t-117.5 -52t-43.5 -147t43.5 -147.5t117.5 -52.5z
M350 441l-28 21v23q68 1 91.5 30t23.5 87v14h56v-24q0 -69 -37 -108t-106 -43z" />
    <glyph glyph-name="Uhorn" unicode="&#x1af;" horiz-adv-x="724" 
d="M362 -8q-135 0 -205 72.5t-70 210.5v430h61v-425q0 -232 214 -232t214 232v425h61v-430q0 -138 -70 -210.5t-205 -72.5zM613 661l-28 20v24q68 1 91.5 30t23.5 87v14h56v-24q0 -69 -37 -108t-106 -43z" />
    <glyph glyph-name="uhorn" unicode="&#x1b0;" horiz-adv-x="553" 
d="M251 -8q-173 0 -173 188v305h61v-302q0 -71 29 -105t91 -34q67 0 109.5 45t42.5 120v276h61v-485h-59v86q-24 -46 -66.5 -70t-95.5 -24zM448 441l-28 21v23q68 1 91.5 30t23.5 87v14h56v-24q0 -69 -37 -108t-106 -43z" />
    <glyph glyph-name="uni01B3" unicode="&#x1b3;" horiz-adv-x="610" 
d="M262 0v338l-269 367h72l230 -314l173 247q28 39 60 56.5t71 17.5q31 0 54 -8v-49q-10 4 -21 6t-26 2q-25 0 -46.5 -11.5t-42.5 -39.5l-193 -274v-338h-62z" />
    <glyph glyph-name="uni01B4" unicode="&#x1b4;" horiz-adv-x="542" 
d="M393 398q20 48 50.5 72t80.5 24q31 0 54 -8l-9 -50q-9 3 -19 4.5t-18 1.5q-32 0 -51.5 -17t-39.5 -63l-233 -542h-66l80 182l-206 483h68l171 -418z" />
    <glyph glyph-name="uni01C4" unicode="&#x1c4;" horiz-adv-x="1300" 
d="M92 0v705h227q168 0 259.5 -90t91.5 -262t-91.5 -262.5t-259.5 -90.5h-227zM153 54h161q290 0 290 299q0 298 -290 298h-161v-597zM767 0v45l420 605h-420v55h496v-45l-420 -605h434v-55h-510zM990 765l-122 171h49l104 -126l104 126h49l-122 -171h-62z" />
    <glyph glyph-name="uni01C5" unicode="&#x1c5;" horiz-adv-x="1192" 
d="M92 0v705h227q168 0 259.5 -90t91.5 -262t-91.5 -262.5t-259.5 -90.5h-227zM153 54h161q290 0 290 299q0 298 -290 298h-161v-597zM790 0v42l290 394h-290v49h359v-42l-289 -394h300v-49h-370zM939 550l-109 201h45l95 -155l95 155h45l-109 -201h-62z" />
    <glyph glyph-name="uni01C6" unicode="&#x1c6;" horiz-adv-x="1034" 
d="M265 -8q-66 0 -114 30.5t-74.5 87t-26.5 133.5q0 115 58 183t157 68q58 0 102.5 -26.5t66.5 -72.5v310h61v-705h-60v92q-22 -47 -66.5 -73.5t-103.5 -26.5zM273 43q74 0 118 52.5t44 147.5t-44 147t-118 52t-117.5 -52t-43.5 -147t43.5 -147.5t117.5 -52.5zM632 0v42
l290 394h-290v49h359v-42l-289 -394h300v-49h-370zM781 550l-109 201h45l95 -155l95 155h45l-109 -201h-62z" />
    <glyph glyph-name="uni01C7" unicode="&#x1c7;" horiz-adv-x="885" 
d="M92 0v705h61v-650h368v-55h-429zM570 -7l-5 54l56 4q53 4 82 39t29 93v522h62v-523q0 -83 -43 -131t-124 -54z" />
    <glyph glyph-name="uni01C8" unicode="&#x1c8;" horiz-adv-x="760" 
d="M92 0v705h61v-650h368v-55h-429zM608 613v77h82v-77h-82zM482 -193l-4 50l42 4q99 8 99 120v504h61v-499q0 -166 -155 -176z" />
    <glyph glyph-name="uni01C9" unicode="&#x1c9;" horiz-adv-x="510" 
d="M221 -8q-68 0 -104.5 41.5t-36.5 119.5v552h61v-545q0 -115 90 -115q25 0 46 6l-2 -53q-29 -6 -54 -6zM358 613v77h82v-77h-82zM232 -193l-4 50l42 4q99 8 99 120v504h61v-499q0 -166 -155 -176z" />
    <glyph glyph-name="uni01CA" unicode="&#x1ca;" horiz-adv-x="1046" 
d="M92 0v705h49l446 -601v601h57v-705h-48l-447 602v-602h-57zM731 -7l-5 54l56 4q53 4 82 39t29 93v522h62v-523q0 -83 -43 -131t-124 -54z" />
    <glyph glyph-name="uni01CB" unicode="&#x1cb;" horiz-adv-x="961" 
d="M92 0v705h49l446 -601v601h57v-705h-48l-447 602v-602h-57zM809 613v77h82v-77h-82zM683 -193l-4 50l42 4q99 8 99 120v504h61v-499q0 -166 -155 -176z" />
    <glyph glyph-name="uni01CC" unicode="&#x1cc;" horiz-adv-x="785" 
d="M80 0v485h60v-87q24 48 69 72t100 24q173 0 173 -188v-306h-61v301q0 72 -29 106t-92 34q-72 0 -115.5 -44.5t-43.5 -119.5v-277h-61zM633 613v77h82v-77h-82zM507 -193l-4 50l42 4q99 8 99 120v504h61v-499q0 -166 -155 -176z" />
    <glyph glyph-name="uni01CD" unicode="&#x1cd;" horiz-adv-x="722" 
d="M27 0l307 705h55l306 -705h-64l-81 188h-378l-80 -188h-65zM360 629l-165 -388h332l-165 388h-2zM331 765l-122 171h49l104 -126l104 126h49l-122 -171h-62z" />
    <glyph glyph-name="uni01CE" unicode="&#x1ce;" horiz-adv-x="522" 
d="M230 -8q-49 0 -87.5 19t-61 52t-22.5 74q0 54 27 84.5t91 43.5t176 13h31v36q0 67 -27 97.5t-86 30.5q-44 0 -84.5 -13t-83.5 -41l-24 47q38 27 90 43t101 16q88 0 130.5 -45t42.5 -138v-311h-58v87q-20 -45 -60.5 -70t-94.5 -25zM238 41q43 0 75.5 20.5t51.5 56.5t19 82
v33h-30q-90 0 -140.5 -8t-70.5 -28t-20 -55q0 -45 31 -73t84 -28zM237 550l-109 201h45l95 -155l95 155h45l-109 -201h-62z" />
    <glyph glyph-name="uni01D4" unicode="&#x1d4;" horiz-adv-x="553" 
d="M251 -8q-173 0 -173 188v305h61v-302q0 -71 29 -105t91 -34q67 0 109.5 45t42.5 120v276h61v-485h-59v86q-24 -46 -66.5 -70t-95.5 -24zM246 551l-109 201h45l95 -155l95 155h45l-109 -201h-62z" />
    <glyph glyph-name="uni01E5" unicode="&#x1e5;" horiz-adv-x="578" 
d="M291 -188q-127 0 -211 67l23 46q46 -33 89 -47t97 -14q100 0 133 74h-113v46h126q3 17 3 35v114q-21 -47 -65 -73t-105 -26q-65 0 -114.5 29t-76.5 81t-27 120t27 119.5t76.5 81t114.5 29.5q60 0 104 -25.5t65 -72.5v89h60v-457q0 -22 -2 -44h73v-46h-83
q-38 -126 -194 -126zM275 86q75 0 118.5 48t43.5 130t-43.5 130t-118.5 48t-119 -47.5t-44 -130.5t44 -130.5t119 -47.5z" />
    <glyph glyph-name="Gcaron" unicode="&#x1e6;" horiz-adv-x="722" 
d="M405 -8q-167 0 -254 95t-87 266q0 111 38.5 192t111 124.5t175.5 43.5q153 0 244 -91l-27 -50q-49 45 -101 64.5t-117 19.5q-125 0 -192 -79.5t-67 -223.5q0 -149 69.5 -227t207.5 -78q94 0 175 32v229h-187v52h242v-321q-26 -14 -64.5 -25t-82 -17t-84.5 -6zM356 765
l-122 171h49l104 -126l104 126h49l-122 -171h-62z" />
    <glyph glyph-name="gcaron" unicode="&#x1e7;" horiz-adv-x="578" 
d="M291 -188q-127 0 -211 67l23 46q46 -33 89 -47.5t97 -14.5q73 0 111 40t38 116v94q-21 -48 -66.5 -75t-103.5 -27q-68 0 -116.5 30.5t-75 85t-26.5 126.5t26.5 126t75 84.5t116.5 30.5q58 0 103 -27t66 -74v92h60v-457q0 -216 -206 -216zM275 63q75 0 119 51.5t44 138.5
t-44 138t-119 51q-76 0 -119.5 -51t-43.5 -138t43.5 -138.5t119.5 -51.5zM260 550l-109 201h45l95 -155l95 155h45l-109 -201h-62z" />
    <glyph glyph-name="uni01E9" unicode="&#x1e9;" horiz-adv-x="484" 
d="M80 0v705h61v-440h2l239 220h81l-255 -234l279 -251h-81l-263 233h-2v-233h-61zM251 765l-122 171h49l104 -126l104 126h49l-122 -171h-62z" />
    <glyph glyph-name="uni01EA" unicode="&#x1ea;" horiz-adv-x="759" 
d="M379 -8q-97 0 -167.5 44t-109 125t-38.5 192t38 192t109 124.5t168 43.5q98 0 168.5 -43.5t109 -124t38.5 -191.5q0 -112 -38.5 -193t-109.5 -125t-168 -44zM379 48q119 0 185 80t66 225t-65.5 224.5t-185.5 79.5q-119 0 -184.5 -80t-65.5 -224t65.5 -224.5t184.5 -80.5z
M417 -191q-44 0 -71.5 25.5t-27.5 69.5q0 38 24.5 73t67.5 57l25 -34q-23 -10 -46 -33.5t-23 -56.5q0 -30 17 -44t42 -14t53 12l14 -38q-28 -17 -75 -17z" />
    <glyph glyph-name="uni01EB" unicode="&#x1eb;" horiz-adv-x="547" 
d="M273 -8q-68 0 -118 30.5t-77.5 87t-27.5 133.5q0 76 27.5 132.5t77.5 87.5t118 31q69 0 119 -31t77.5 -87.5t27.5 -132.5q0 -77 -27.5 -133.5t-77.5 -87t-119 -30.5zM273 43q74 0 118 52.5t44 147.5t-44 147t-118 52t-117.5 -52t-43.5 -147t43.5 -147.5t117.5 -52.5z
M314 -191q-44 0 -71.5 25.5t-27.5 69.5q0 38 24.5 73t67.5 57l25 -34q-23 -10 -46 -33.5t-23 -56.5q0 -30 17 -44t42 -14t53 12l14 -38q-28 -17 -75 -17z" />
    <glyph glyph-name="uni01EF" unicode="&#x1ef;" horiz-adv-x="485" 
d="M226 -188q-65 0 -118 16t-88 45l24 46q70 -56 179 -56q83 0 125 40t42 116q0 66 -41 103t-116 37h-106v31l218 244h-308v51h384v-42l-211 -236h32q99 0 154.5 -49t55.5 -138q0 -97 -60 -152.5t-166 -55.5zM198 550l-109 201h45l95 -155l95 155h45l-109 -201h-62z" />
    <glyph glyph-name="Aringacute" unicode="&#x1fa;" horiz-adv-x="722" 
d="M27 0l307 705h55l306 -705h-64l-81 188h-378l-80 -188h-65zM360 629l-165 -388h332l-165 388h-2zM362 759q-48 0 -81 32.5t-33 79.5q0 46 33 78.5t81 32.5q37 0 67 -21l74 69h69l-115 -97q19 -27 19 -62q0 -47 -33 -79.5t-81 -32.5zM362 795q33 0 54 22t21 54
q0 31 -21 53t-54 22t-54 -22t-21 -53q0 -32 21 -54t54 -22z" />
    <glyph glyph-name="aringacute" unicode="&#x1fb;" horiz-adv-x="522" 
d="M230 -8q-49 0 -87.5 19t-61 52t-22.5 74q0 54 27 84.5t91 43.5t176 13h31v36q0 67 -27 97.5t-86 30.5q-44 0 -84.5 -13t-83.5 -41l-24 47q38 27 90 43t101 16q88 0 130.5 -45t42.5 -138v-311h-58v87q-20 -45 -60.5 -70t-94.5 -25zM238 41q43 0 75.5 20.5t51.5 56.5t19 82
v33h-30q-90 0 -140.5 -8t-70.5 -28t-20 -55q0 -45 31 -73t84 -28zM268 546q-48 0 -81 32.5t-33 78.5q0 47 33 79.5t81 32.5q37 0 67 -21l74 68h69l-115 -97q19 -27 19 -62q0 -46 -33 -78.5t-81 -32.5zM268 582q33 0 54 21.5t21 53.5t-21 53.5t-54 21.5t-54 -21.5t-21 -53.5
t21 -53.5t54 -21.5z" />
    <glyph glyph-name="AEacute" unicode="&#x1fc;" horiz-adv-x="976" 
d="M-7 0l424 705h509v-53h-439l56 -268h362v-53h-350l59 -278h312v-53h-358l-40 188h-356l-111 -188h-68zM433 628l-229 -387h313l-82 387h-2zM461 765l118 171h73l-141 -171h-50z" />
    <glyph glyph-name="aeacute" unicode="&#x1fd;" horiz-adv-x="859" 
d="M234 -8q-51 0 -90 19t-62 52t-23 74q0 54 27.5 84.5t92 43.5t174.5 13h35v34q0 68 -28.5 99t-86.5 31q-46 0 -86.5 -12.5t-83.5 -40.5l-24 46q38 27 90 43t103 16q127 0 161 -101q28 49 75 75t106 26q93 0 146.5 -63t53.5 -173v-25h-366q3 -91 47.5 -140.5t127.5 -49.5
q86 0 160 61l23 -46q-32 -31 -81.5 -48.5t-98.5 -17.5q-77 0 -131 32t-80 96q-20 -60 -67 -94t-114 -34zM612 445q-70 0 -113 -45t-50 -122h311q-3 77 -40.5 122t-107.5 45zM240 41q66 0 107 46.5t41 118.5v27h-34q-90 0 -140.5 -8t-70.5 -27.5t-20 -55.5q0 -45 31 -73
t86 -28zM393 550l103 201h70l-127 -201h-46z" />
    <glyph glyph-name="Oslashacute" unicode="&#x1fe;" horiz-adv-x="759" 
d="M379 -8q-97 0 -167.5 44t-109 125t-38.5 192t38 192t109 124.5t168 43.5q98 0 168.5 -43.5t109 -124t38.5 -191.5q0 -112 -38.5 -193t-109.5 -125t-168 -44zM379 48q119 0 185 80t66 225t-65.5 224.5t-185.5 79.5q-119 0 -184.5 -80t-65.5 -224t65.5 -224.5t184.5 -80.5z
M180 -41l-45 25l50 86l19 31l310 532l16 28l49 85l45 -25l-50 -86l-18 -31l-310 -532l-16 -28zM354 765l118 171h73l-141 -171h-50z" />
    <glyph glyph-name="oslashacute" unicode="&#x1ff;" horiz-adv-x="547" 
d="M134 -44l-39 24l35 61q-39 32 -59.5 83.5t-20.5 118.5q0 76 27.5 132.5t77.5 87.5t118 31q59 0 106 -24l34 59l39 -24l-35 -60q38 -33 59 -84.5t21 -117.5q0 -77 -27.5 -133.5t-77.5 -87t-119 -30.5q-59 0 -105 23zM112 243q0 -99 47 -152l193 332q-34 19 -79 19
q-74 0 -117.5 -52t-43.5 -147zM273 43q74 0 118 52.5t44 147.5q0 98 -47 151l-193 -332q34 -19 78 -19zM250 550l103 201h70l-127 -201h-46z" />
    <glyph glyph-name="uni0200" unicode="&#x200;" horiz-adv-x="722" 
d="M27 0l307 705h55l306 -705h-64l-81 188h-378l-80 -188h-65zM360 629l-165 -388h332l-165 388h-2zM402 765l-114 171h66l85 -171h-37zM285 765l-116 171h66l87 -171h-37z" />
    <glyph glyph-name="uni0201" unicode="&#x201;" horiz-adv-x="522" 
d="M230 -8q-49 0 -87.5 19t-61 52t-22.5 74q0 54 27 84.5t91 43.5t176 13h31v36q0 67 -27 97.5t-86 30.5q-44 0 -84.5 -13t-83.5 -41l-24 47q38 27 90 43t101 16q88 0 130.5 -45t42.5 -138v-311h-58v87q-20 -45 -60.5 -70t-94.5 -25zM238 41q43 0 75.5 20.5t51.5 56.5t19 82
v33h-30q-90 0 -140.5 -8t-70.5 -28t-20 -55q0 -45 31 -73t84 -28zM309 550l-81 201h61l56 -201h-36zM192 550l-82 201h61l56 -201h-35z" />
    <glyph glyph-name="uni0202" unicode="&#x202;" horiz-adv-x="722" 
d="M27 0l307 705h55l306 -705h-64l-81 188h-378l-80 -188h-65zM360 629l-165 -388h332l-165 388h-2zM241 760l-42 5q7 78 51.5 123t111.5 45t111.5 -45t51.5 -123l-42 -5q-4 61 -36.5 94.5t-84.5 33.5t-84.5 -33.5t-36.5 -94.5z" />
    <glyph glyph-name="uni0203" unicode="&#x203;" horiz-adv-x="522" 
d="M230 -8q-49 0 -87.5 19t-61 52t-22.5 74q0 54 27 84.5t91 43.5t176 13h31v36q0 67 -27 97.5t-86 30.5q-44 0 -84.5 -13t-83.5 -41l-24 47q38 27 90 43t101 16q88 0 130.5 -45t42.5 -138v-311h-58v87q-20 -45 -60.5 -70t-94.5 -25zM238 41q43 0 75.5 20.5t51.5 56.5t19 82
v33h-30q-90 0 -140.5 -8t-70.5 -28t-20 -55q0 -45 31 -73t84 -28zM161 548l-42 4q5 88 44.5 138.5t104.5 50.5t104.5 -50.5t44.5 -138.5l-42 -4q-3 71 -31 109.5t-76 38.5t-76 -38.5t-31 -109.5z" />
    <glyph glyph-name="uni0204" unicode="&#x204;" horiz-adv-x="576" 
d="M92 0v705h434v-53h-374v-268h353v-53h-353v-278h374v-53h-434zM362 765l-114 171h66l85 -171h-37zM245 765l-116 171h66l87 -171h-37z" />
    <glyph glyph-name="uni0205" unicode="&#x205;" horiz-adv-x="527" 
d="M291 -8q-112 0 -176.5 66.5t-64.5 182.5q0 75 29 132t80.5 89t118.5 32q97 0 151 -63t54 -173v-28h-373q3 -90 49.5 -138.5t129.5 -48.5q45 0 84.5 14t77.5 47l24 -46q-32 -31 -82 -48.5t-102 -17.5zM279 445q-76 0 -118.5 -47.5t-49.5 -122.5h317q-2 80 -40 125t-109 45
zM320 550l-81 201h61l56 -201h-36zM203 550l-82 201h61l56 -201h-35z" />
    <glyph glyph-name="uni0206" unicode="&#x206;" horiz-adv-x="576" 
d="M92 0v705h434v-53h-374v-268h353v-53h-353v-278h374v-53h-434zM201 760l-42 5q7 78 51.5 123t111.5 45t111.5 -45t51.5 -123l-42 -5q-4 61 -36.5 94.5t-84.5 33.5t-84.5 -33.5t-36.5 -94.5z" />
    <glyph glyph-name="uni0207" unicode="&#x207;" horiz-adv-x="527" 
d="M291 -8q-112 0 -176.5 66.5t-64.5 182.5q0 75 29 132t80.5 89t118.5 32q97 0 151 -63t54 -173v-28h-373q3 -90 49.5 -138.5t129.5 -48.5q45 0 84.5 14t77.5 47l24 -46q-32 -31 -82 -48.5t-102 -17.5zM279 445q-76 0 -118.5 -47.5t-49.5 -122.5h317q-2 80 -40 125t-109 45
zM172 548l-42 4q5 88 44.5 138.5t104.5 50.5t104.5 -50.5t44.5 -138.5l-42 -4q-3 71 -31 109.5t-76 38.5t-76 -38.5t-31 -109.5z" />
    <glyph glyph-name="uni0208" unicode="&#x208;" horiz-adv-x="245" 
d="M92 0v705h61v-705h-61zM162 765l-114 171h66l85 -171h-37zM45 765l-116 171h66l87 -171h-37z" />
    <glyph glyph-name="uni0209" unicode="&#x209;" horiz-adv-x="222" 
d="M80 0v485h61v-485h-61zM152 550l-81 201h61l56 -201h-36zM35 550l-82 201h61l56 -201h-35z" />
    <glyph glyph-name="uni020A" unicode="&#x20a;" horiz-adv-x="245" 
d="M92 0v705h61v-705h-61zM1 760l-42 5q7 78 51.5 123t111.5 45t111.5 -45t51.5 -123l-42 -5q-4 61 -36.5 94.5t-84.5 33.5t-84.5 -33.5t-36.5 -94.5z" />
    <glyph glyph-name="uni020B" unicode="&#x20b;" horiz-adv-x="222" 
d="M80 0v485h61v-485h-61zM4 548l-42 4q5 88 44.5 138.5t104.5 50.5t104.5 -50.5t44.5 -138.5l-42 -4q-3 71 -31 109.5t-76 38.5t-76 -38.5t-31 -109.5z" />
    <glyph glyph-name="uni020C" unicode="&#x20c;" horiz-adv-x="759" 
d="M379 -8q-97 0 -167.5 44t-109 125t-38.5 192t38 192t109 124.5t168 43.5q98 0 168.5 -43.5t109 -124t38.5 -191.5q0 -112 -38.5 -193t-109.5 -125t-168 -44zM379 48q119 0 185 80t66 225t-65.5 224.5t-185.5 79.5q-119 0 -184.5 -80t-65.5 -224t65.5 -224.5t184.5 -80.5z
M419 765l-114 171h66l85 -171h-37zM302 765l-116 171h66l87 -171h-37z" />
    <glyph glyph-name="uni020D" unicode="&#x20d;" horiz-adv-x="547" 
d="M273 -8q-68 0 -118 30.5t-77.5 87t-27.5 133.5q0 76 27.5 132.5t77.5 87.5t118 31q69 0 119 -31t77.5 -87.5t27.5 -132.5q0 -77 -27.5 -133.5t-77.5 -87t-119 -30.5zM273 43q74 0 118 52.5t44 147.5t-44 147t-118 52t-117.5 -52t-43.5 -147t43.5 -147.5t117.5 -52.5z
M314 550l-81 201h61l56 -201h-36zM197 550l-82 201h61l56 -201h-35z" />
    <glyph glyph-name="uni020E" unicode="&#x20e;" horiz-adv-x="759" 
d="M379 -8q-97 0 -167.5 44t-109 125t-38.5 192t38 192t109 124.5t168 43.5q98 0 168.5 -43.5t109 -124t38.5 -191.5q0 -112 -38.5 -193t-109.5 -125t-168 -44zM379 48q119 0 185 80t66 225t-65.5 224.5t-185.5 79.5q-119 0 -184.5 -80t-65.5 -224t65.5 -224.5t184.5 -80.5z
M258 760l-42 5q7 78 51.5 123t111.5 45t111.5 -45t51.5 -123l-42 -5q-4 61 -36.5 94.5t-84.5 33.5t-84.5 -33.5t-36.5 -94.5z" />
    <glyph glyph-name="uni020F" unicode="&#x20f;" horiz-adv-x="547" 
d="M273 -8q-68 0 -118 30.5t-77.5 87t-27.5 133.5q0 76 27.5 132.5t77.5 87.5t118 31q69 0 119 -31t77.5 -87.5t27.5 -132.5q0 -77 -27.5 -133.5t-77.5 -87t-119 -30.5zM273 43q74 0 118 52.5t44 147.5t-44 147t-118 52t-117.5 -52t-43.5 -147t43.5 -147.5t117.5 -52.5z
M166 548l-42 4q5 88 44.5 138.5t104.5 50.5t104.5 -50.5t44.5 -138.5l-42 -4q-3 71 -31 109.5t-76 38.5t-76 -38.5t-31 -109.5z" />
    <glyph glyph-name="uni0210" unicode="&#x210;" horiz-adv-x="661" 
d="M92 0v705h266q113 0 172.5 -52t59.5 -148q0 -79 -43 -128t-122 -63q43 -16 76 -78l128 -236h-67l-122 226q-26 47 -58 63t-86 16h-143v-305h-61zM153 357h197q178 0 178 148q0 147 -178 147h-197v-295zM377 765l-114 171h66l85 -171h-37zM260 765l-116 171h66l87 -171
h-37z" />
    <glyph glyph-name="uni0211" unicode="&#x211;" horiz-adv-x="342" 
d="M80 0v485h60v-88q21 46 61 70t102 28l25 2l6 -53l-43 -5q-71 -6 -110 -46.5t-39 -108.5v-284h-62zM250 550l-81 201h61l56 -201h-36zM133 550l-82 201h61l56 -201h-35z" />
    <glyph glyph-name="uni0212" unicode="&#x212;" horiz-adv-x="661" 
d="M92 0v705h266q113 0 172.5 -52t59.5 -148q0 -79 -43 -128t-122 -63q43 -16 76 -78l128 -236h-67l-122 226q-26 47 -58 63t-86 16h-143v-305h-61zM153 357h197q178 0 178 148q0 147 -178 147h-197v-295zM216 760l-42 5q7 78 51.5 123t111.5 45t111.5 -45t51.5 -123l-42 -5
q-4 61 -36.5 94.5t-84.5 33.5t-84.5 -33.5t-36.5 -94.5z" />
    <glyph glyph-name="uni0213" unicode="&#x213;" horiz-adv-x="342" 
d="M80 0v485h60v-88q21 46 61 70t102 28l25 2l6 -53l-43 -5q-71 -6 -110 -46.5t-39 -108.5v-284h-62zM102 548l-42 4q5 88 44.5 138.5t104.5 50.5t104.5 -50.5t44.5 -138.5l-42 -4q-3 71 -31 109.5t-76 38.5t-76 -38.5t-31 -109.5z" />
    <glyph glyph-name="uni0214" unicode="&#x214;" horiz-adv-x="724" 
d="M362 -8q-135 0 -205 72.5t-70 210.5v430h61v-425q0 -232 214 -232t214 232v425h61v-430q0 -138 -70 -210.5t-205 -72.5zM402 765l-114 171h66l85 -171h-37zM285 765l-116 171h66l87 -171h-37z" />
    <glyph glyph-name="uni0215" unicode="&#x215;" horiz-adv-x="553" 
d="M251 -8q-173 0 -173 188v305h61v-302q0 -71 29 -105t91 -34q67 0 109.5 45t42.5 120v276h61v-485h-59v86q-24 -46 -66.5 -70t-95.5 -24zM318 551l-81 201h61l56 -201h-36zM201 551l-82 201h61l56 -201h-35z" />
    <glyph glyph-name="uni0216" unicode="&#x216;" horiz-adv-x="724" 
d="M362 -8q-135 0 -205 72.5t-70 210.5v430h61v-425q0 -232 214 -232t214 232v425h61v-430q0 -138 -70 -210.5t-205 -72.5zM241 760l-42 5q7 78 51.5 123t111.5 45t111.5 -45t51.5 -123l-42 -5q-4 61 -36.5 94.5t-84.5 33.5t-84.5 -33.5t-36.5 -94.5z" />
    <glyph glyph-name="uni0217" unicode="&#x217;" horiz-adv-x="553" 
d="M251 -8q-173 0 -173 188v305h61v-302q0 -71 29 -105t91 -34q67 0 109.5 45t42.5 120v276h61v-485h-59v86q-24 -46 -66.5 -70t-95.5 -24zM170 549l-42 4q5 88 44.5 138.5t104.5 50.5t104.5 -50.5t44.5 -138.5l-42 -4q-3 71 -31 109.5t-76 38.5t-76 -38.5t-31 -109.5z" />
    <glyph glyph-name="uni0218" unicode="&#x218;" horiz-adv-x="607" 
d="M312 -8q-82 0 -147.5 21.5t-113.5 63.5l24 51q52 -41 106.5 -60.5t130.5 -19.5q95 0 142.5 37t47.5 97q0 50 -34.5 78t-113.5 44l-101 21q-94 19 -140.5 64t-46.5 120q0 61 31.5 107t87.5 71.5t129 25.5q146 0 233 -88l-24 -50q-46 43 -96 62.5t-113 19.5
q-84 0 -134.5 -40t-50.5 -107q0 -53 32 -83.5t103 -44.5l102 -21q101 -21 150 -62.5t49 -113.5q0 -57 -30.5 -100.5t-87.5 -68t-135 -24.5zM306 -263l-31 22q21 23 29 43t9 42h-42v73h84v-57q0 -35 -12 -66.5t-37 -56.5z" />
    <glyph glyph-name="uni0219" unicode="&#x219;" horiz-adv-x="478" 
d="M238 -8q-54 0 -103.5 16t-81.5 46l22 45q37 -30 79 -43.5t86 -13.5q62 0 93.5 22.5t31.5 62.5q0 31 -21 49t-66 29l-87 20q-123 28 -123 127q0 64 50 103t132 39q50 0 94 -16.5t72 -47.5l-24 -45q-29 29 -66 43.5t-77 14.5q-58 0 -89.5 -24t-31.5 -65q0 -31 19 -50
t62 -29l87 -20q65 -15 97 -44.5t32 -79.5q0 -65 -51 -102t-136 -37zM231 -263l-31 22q21 23 29 43t9 42h-42v73h84v-57q0 -35 -12 -66.5t-37 -56.5z" />
    <glyph glyph-name="uni021A" unicode="&#x21a;" horiz-adv-x="594" 
d="M266 0v650h-263v55h588v-55h-263v-650h-62zM290 -263l-31 22q21 23 29 43t9 42h-42v73h84v-57q0 -35 -12 -66.5t-37 -56.5z" />
    <glyph glyph-name="uni021B" unicode="&#x21b;" horiz-adv-x="335" 
d="M263 -8q-81 0 -121.5 44t-40.5 126v274h-96v49h96v150h61v-150h157v-49h-157v-266q0 -61 25 -93t83 -32q17 0 33 4t28 9l12 -48q-11 -7 -35 -12.5t-45 -5.5zM202 -263l-31 22q21 23 29 43t9 42h-42v73h84v-57q0 -35 -12 -66.5t-37 -56.5z" />
    <glyph glyph-name="uni021F" unicode="&#x21f;" horiz-adv-x="560" 
d="M80 0v705h61v-304q25 46 69.5 69.5t98.5 23.5q173 0 173 -188v-306h-61v301q0 72 -29 106t-92 34q-72 0 -115.5 -44.5t-43.5 -119.5v-277h-61zM251 765l-122 171h49l104 -126l104 126h49l-122 -171h-62z" />
    <glyph glyph-name="uni0226" unicode="&#x226;" horiz-adv-x="722" 
d="M27 0l307 705h55l306 -705h-64l-81 188h-378l-80 -188h-65zM360 629l-165 -388h332l-165 388h-2zM324 813v75h76v-75h-76z" />
    <glyph glyph-name="uni0227" unicode="&#x227;" horiz-adv-x="522" 
d="M230 -8q-49 0 -87.5 19t-61 52t-22.5 74q0 54 27 84.5t91 43.5t176 13h31v36q0 67 -27 97.5t-86 30.5q-44 0 -84.5 -13t-83.5 -41l-24 47q38 27 90 43t101 16q88 0 130.5 -45t42.5 -138v-311h-58v87q-20 -45 -60.5 -70t-94.5 -25zM238 41q43 0 75.5 20.5t51.5 56.5t19 82
v33h-30q-90 0 -140.5 -8t-70.5 -28t-20 -55q0 -45 31 -73t84 -28zM229 614v75h78v-75h-78z" />
    <glyph glyph-name="uni0228" unicode="&#x228;" horiz-adv-x="576" 
d="M92 0v705h434v-53h-374v-268h353v-53h-353v-278h374v-53h-434zM326 -191q-52 0 -83 19l11 39q18 -9 34 -13t39 -4q27 0 43.5 10.5t16.5 29.5q0 30 -38 30q-11 0 -22.5 -1.5t-26.5 -7.5l-16 14l14 95h45l-11 -66q12 2 22 2q34 0 57.5 -17.5t23.5 -49.5q0 -36 -30 -58
t-79 -22z" />
    <glyph glyph-name="uni022A" unicode="&#x22a;" horiz-adv-x="759" 
d="M379 -8q-97 0 -167.5 44t-109 125t-38.5 192t38 192t109 124.5t168 43.5q98 0 168.5 -43.5t109 -124t38.5 -191.5q0 -112 -38.5 -193t-109.5 -125t-168 -44zM379 48q119 0 185 80t66 225t-65.5 224.5t-185.5 79.5q-119 0 -184.5 -80t-65.5 -224t65.5 -224.5t184.5 -80.5z
M235 926v47h288v-47h-288zM259 802v66h73v-66h-73zM426 802v66h73v-66h-73z" />
    <glyph glyph-name="uni022B" unicode="&#x22b;" horiz-adv-x="547" 
d="M273 -8q-68 0 -118 30.5t-77.5 87t-27.5 133.5q0 76 27.5 132.5t77.5 87.5t118 31q69 0 119 -31t77.5 -87.5t27.5 -132.5q0 -77 -27.5 -133.5t-77.5 -87t-119 -30.5zM273 43q74 0 118 52.5t44 147.5t-44 147t-118 52t-117.5 -52t-43.5 -147t43.5 -147.5t117.5 -52.5z
M129 706v47h288v-47h-288zM153 582v66h73v-66h-73zM320 582v66h73v-66h-73z" />
    <glyph glyph-name="uni022C" unicode="&#x22c;" horiz-adv-x="759" 
d="M379 -8q-97 0 -167.5 44t-109 125t-38.5 192t38 192t109 124.5t168 43.5q98 0 168.5 -43.5t109 -124t38.5 -191.5q0 -112 -38.5 -193t-109.5 -125t-168 -44zM379 48q119 0 185 80t66 225t-65.5 224.5t-185.5 79.5q-119 0 -184.5 -80t-65.5 -224t65.5 -224.5t184.5 -80.5z
M235 926v47h288v-47h-288zM444 768q-18 0 -35 7.5t-40 24.5q-20 15 -31.5 19.5t-21.5 4.5q-22 0 -33.5 -13.5t-16.5 -44.5l-39 2q4 50 28 74.5t60 24.5q17 0 32.5 -6.5t38.5 -23.5q21 -15 33 -20.5t23 -5.5q23 0 34 13.5t16 44.5l39 -2q-4 -50 -27.5 -74.5t-59.5 -24.5z" />
    <glyph glyph-name="uni022D" unicode="&#x22d;" horiz-adv-x="547" 
d="M273 -8q-68 0 -118 30.5t-77.5 87t-27.5 133.5q0 76 27.5 132.5t77.5 87.5t118 31q69 0 119 -31t77.5 -87.5t27.5 -132.5q0 -77 -27.5 -133.5t-77.5 -87t-119 -30.5zM273 43q74 0 118 52.5t44 147.5t-44 147t-118 52t-117.5 -52t-43.5 -147t43.5 -147.5t117.5 -52.5z
M129 706v47h288v-47h-288zM160 546l-39 2q4 50 28 74.5t60 24.5q17 0 33.5 -7t39.5 -24q33 -25 54 -25q23 0 34 13.5t16 44.5l39 -2q-4 -50 -27.5 -74.5t-59.5 -24.5q-18 0 -35 7.5t-39 23.5q-34 25 -54 25q-22 0 -33.5 -13.5t-16.5 -44.5z" />
    <glyph glyph-name="uni0230" unicode="&#x230;" horiz-adv-x="759" 
d="M379 -8q-97 0 -167.5 44t-109 125t-38.5 192t38 192t109 124.5t168 43.5q98 0 168.5 -43.5t109 -124t38.5 -191.5q0 -112 -38.5 -193t-109.5 -125t-168 -44zM379 48q119 0 185 80t66 225t-65.5 224.5t-185.5 79.5q-119 0 -184.5 -80t-65.5 -224t65.5 -224.5t184.5 -80.5z
M235 926v47h288v-47h-288zM343 802v66h73v-66h-73z" />
    <glyph glyph-name="uni0231" unicode="&#x231;" horiz-adv-x="547" 
d="M273 -8q-68 0 -118 30.5t-77.5 87t-27.5 133.5q0 76 27.5 132.5t77.5 87.5t118 31q69 0 119 -31t77.5 -87.5t27.5 -132.5q0 -77 -27.5 -133.5t-77.5 -87t-119 -30.5zM273 43q74 0 118 52.5t44 147.5t-44 147t-118 52t-117.5 -52t-43.5 -147t43.5 -147.5t117.5 -52.5z
M129 706v47h288v-47h-288zM237 582v66h73v-66h-73z" />
    <glyph glyph-name="uni0232" unicode="&#x232;" horiz-adv-x="586" 
d="M262 0v338l-269 367h72l229 -313l230 313h69l-269 -368v-337h-62zM134 818v47h318v-47h-318z" />
    <glyph glyph-name="uni0233" unicode="&#x233;" horiz-adv-x="509" 
d="M142 -180l80 182l-206 483h68l171 -418l173 418h66l-286 -665h-66zM111 629v46h288v-46h-288z" />
    <glyph glyph-name="uni0237" unicode="&#x237;" horiz-adv-x="225" 
d="M-53 -193l-4 50l42 4q99 8 99 120v504h61v-499q0 -166 -155 -176z" />
    <glyph glyph-name="uni0253" unicode="&#x253;" horiz-adv-x="575" 
d="M311 -8q-59 0 -103.5 26.5t-66.5 73.5v-92h-61v554q0 77 39.5 118t115.5 41q28 0 51 -7l-8 -50q-13 3 -21 4t-18 1q-49 0 -73.5 -27t-24.5 -78v-161q22 46 66.5 72.5t103.5 26.5q98 0 156.5 -68t58.5 -183q0 -77 -26.5 -133.5t-75 -87t-113.5 -30.5zM302 43
q74 0 118 52.5t44 147.5t-44 147t-118 52t-118 -52t-44 -147t44 -147.5t118 -52.5z" />
    <glyph glyph-name="uni0257" unicode="&#x257;" horiz-adv-x="575" 
d="M265 -8q-66 0 -114 30.5t-74.5 87t-26.5 133.5q0 115 58 183t157 68q58 0 102.5 -26.5t66.5 -72.5v159q0 77 39.5 118t114.5 41q29 0 52 -7l-8 -50q-14 3 -22 4t-17 1q-98 0 -98 -105v-556h-60v92q-22 -47 -66.5 -73.5t-103.5 -26.5zM273 43q74 0 118 52.5t44 147.5
t-44 147t-118 52t-117.5 -52t-43.5 -147t43.5 -147.5t117.5 -52.5z" />
    <glyph glyph-name="uni0259" unicode="&#x259;" horiz-adv-x="528" 
d="M255 -8q-100 0 -155 62t-55 176v25h373q-4 90 -50.5 138.5t-128.5 48.5q-87 0 -163 -60l-23 45q33 31 83 49t102 18q111 0 175.5 -67t64.5 -182q0 -77 -28 -134t-78.5 -88t-116.5 -31zM255 40q68 0 111.5 44.5t50.5 125.5h-315q3 -83 41.5 -126.5t111.5 -43.5z" />
    <glyph glyph-name="uni0292" unicode="&#x292;" horiz-adv-x="485" 
d="M226 -188q-65 0 -118 16t-88 45l24 46q70 -56 179 -56q83 0 125 40t42 116q0 66 -41 103t-116 37h-106v31l218 244h-308v51h384v-42l-211 -236h32q99 0 154.5 -49t55.5 -138q0 -97 -60 -152.5t-166 -55.5z" />
    <glyph glyph-name="uni02B9" unicode="&#x2b9;" horiz-adv-x="211" 
d="M86 434l-17 271h73l-15 -271h-41z" />
    <glyph glyph-name="uni02BA" unicode="&#x2ba;" horiz-adv-x="366" 
d="M86 434l-17 271h73l-15 -271h-41zM241 434l-17 271h73l-15 -271h-41z" />
    <glyph glyph-name="uni02BB" unicode="&#x2bb;" horiz-adv-x="500" 
d="M208 569v58q0 33 10 62.5t37 55.5l31 -23q-20 -21 -26.5 -39.5t-7.5 -35.5h39v-78h-83z" />
    <glyph glyph-name="uni02BC" unicode="&#x2bc;" horiz-adv-x="311" 
d="M151 573l-31 23q19 21 26 39t8 36h-39v78h83v-58q0 -33 -10 -62.5t-37 -55.5z" />
    <glyph glyph-name="uni02BE" unicode="&#x2be;" horiz-adv-x="500" 
d="M250 555v40q25 0 40 16.5t15 39.5q0 24 -15 40.5t-40 16.5v41q43 0 71 -28.5t28 -69.5q0 -40 -28 -68t-71 -28z" />
    <glyph glyph-name="uni02BF" unicode="&#x2bf;" horiz-adv-x="500" 
d="M250 555q-43 0 -71 28t-28 68q0 41 28 69.5t71 28.5v-41q-24 0 -39.5 -16.5t-15.5 -40.5q0 -23 15.5 -39.5t39.5 -16.5v-40z" />
    <glyph glyph-name="circumflex" unicode="&#x2c6;" horiz-adv-x="500" 
d="M110 550l109 201h62l109 -201h-45l-95 155l-95 -155h-45z" />
    <glyph glyph-name="caron" unicode="&#x2c7;" horiz-adv-x="500" 
d="M219 550l-109 201h45l95 -155l95 155h45l-109 -201h-62z" />
    <glyph glyph-name="uni02C8" unicode="&#x2c8;" horiz-adv-x="500" 
d="M225 596v199h50v-199h-50z" />
    <glyph glyph-name="uni02C9" unicode="&#x2c9;" horiz-adv-x="500" 
d="M106 629v46h288v-46h-288z" />
    <glyph glyph-name="uni02CA" unicode="&#x2ca;" horiz-adv-x="500" 
d="M227 550l103 201h70l-127 -201h-46z" />
    <glyph glyph-name="fourthtofinechinese" unicode="&#x2cb;" horiz-adv-x="500" 
d="M227 550l-127 201h70l103 -201h-46z" />
    <glyph glyph-name="uni02CC" unicode="&#x2cc;" horiz-adv-x="500" 
d="M225 -270v199h50v-199h-50z" />
    <glyph glyph-name="breve" unicode="&#x2d8;" horiz-adv-x="500" 
d="M250 548q-65 0 -104.5 50t-44.5 138l42 5q3 -71 31 -109.5t76 -38.5t76 38.5t31 109.5l42 -5q-5 -88 -44.5 -138t-104.5 -50z" />
    <glyph glyph-name="dotaccent" unicode="&#x2d9;" horiz-adv-x="500" 
d="M211 614v75h78v-75h-78z" />
    <glyph glyph-name="ring" unicode="&#x2da;" horiz-adv-x="500" 
d="M250 547q-49 0 -82 33t-33 80t33 79.5t82 32.5t82 -32.5t33 -79.5t-33 -80t-82 -33zM250 584q33 0 54 22t21 54t-21 53.5t-54 21.5t-54 -21.5t-21 -53.5t21 -54t54 -22z" />
    <glyph glyph-name="ogonek" unicode="&#x2db;" horiz-adv-x="500" 
d="M232 -191q-44 0 -71.5 25.5t-27.5 69.5q0 38 24.5 73t67.5 57l25 -34q-23 -10 -46 -33.5t-23 -56.5q0 -30 17 -44t42 -14t53 12l14 -38q-28 -17 -75 -17z" />
    <glyph glyph-name="tilde" unicode="&#x2dc;" horiz-adv-x="500" 
d="M115 592l-39 3q6 60 32.5 93.5t69.5 33.5q21 0 39.5 -11t42.5 -34q22 -20 35.5 -28t26.5 -8q51 0 63 84l39 -3q-6 -60 -32.5 -93.5t-68.5 -33.5q-20 0 -38.5 10.5t-44.5 34.5q-21 19 -34.5 27.5t-27.5 8.5q-51 0 -63 -84z" />
    <glyph glyph-name="hungarumlaut" unicode="&#x2dd;" horiz-adv-x="500" 
d="M291 550l56 201h61l-81 -201h-36zM173 550l56 201h61l-81 -201h-36z" />
    <glyph glyph-name="gravecomb" unicode="&#x300;" 
d="M-23 550l-127 201h70l103 -201h-46z" />
    <glyph glyph-name="acutecomb" unicode="&#x301;" 
d="M-23 550l103 201h70l-127 -201h-46z" />
    <glyph glyph-name="uni0302" unicode="&#x302;" 
d="M-140 550l109 201h62l109 -201h-45l-95 155l-95 -155h-45z" />
    <glyph glyph-name="tildecomb" unicode="&#x303;" 
d="M-135 592l-39 3q6 60 32.5 93.5t69.5 33.5q21 0 39.5 -11t42.5 -34q22 -20 35.5 -28t26.5 -8q51 0 63 84l39 -3q-6 -60 -32.5 -93.5t-68.5 -33.5q-20 0 -38.5 10.5t-44.5 34.5q-21 19 -34.5 27.5t-27.5 8.5q-51 0 -63 -84z" />
    <glyph glyph-name="uni0304" unicode="&#x304;" 
d="M-144 629v46h288v-46h-288z" />
    <glyph glyph-name="uni0306" unicode="&#x306;" 
d="M0 548q-65 0 -104.5 50t-44.5 138l42 5q3 -71 31 -109.5t76 -38.5t76 38.5t31 109.5l42 -5q-5 -88 -44.5 -138t-104.5 -50z" />
    <glyph glyph-name="uni0307" unicode="&#x307;" 
d="M-39 614v75h78v-75h-78z" />
    <glyph glyph-name="uni0308" unicode="&#x308;" 
d="M47 615v72h73v-72h-73zM-120 615v72h73v-72h-73z" />
    <glyph glyph-name="hookabovecomb" unicode="&#x309;" 
d="M-23 550v20q0 24 10 39.5t23 26.5t23 22t10 27q0 29 -50 29q-15 0 -30 -3.5t-33 -11.5l-12 37q33 21 85 21q44 0 68.5 -17.5t24.5 -49.5q0 -25 -11 -40t-25.5 -26t-25.5 -24t-11 -35v-15h-46z" />
    <glyph glyph-name="uni030A" unicode="&#x30a;" 
d="M0 547q-49 0 -82 33t-33 80t33 79.5t82 32.5t82 -32.5t33 -79.5t-33 -80t-82 -33zM0 584q33 0 54 22t21 54t-21 53.5t-54 21.5t-54 -21.5t-21 -53.5t21 -54t54 -22z" />
    <glyph glyph-name="uni030B" unicode="&#x30b;" 
d="M41 550l56 201h61l-81 -201h-36zM-77 550l56 201h61l-81 -201h-36z" />
    <glyph glyph-name="uni030C" unicode="&#x30c;" 
d="M-31 550l-109 201h45l95 -155l95 155h45l-109 -201h-62z" />
    <glyph glyph-name="uni030F" unicode="&#x30f;" 
d="M41 550l-81 201h61l56 -201h-36zM-76 550l-82 201h61l56 -201h-35z" />
    <glyph glyph-name="uni0311" unicode="&#x311;" 
d="M-107 548l-42 4q5 88 44.5 138.5t104.5 50.5t104.5 -50.5t44.5 -138.5l-42 -4q-3 71 -31 109.5t-76 38.5t-76 -38.5t-31 -109.5z" />
    <glyph glyph-name="uni0312" unicode="&#x312;" 
d="M-42 569v57q0 35 12 66.5t37 56.5l31 -23q-21 -23 -29 -42.5t-9 -41.5h42v-73h-84z" />
    <glyph glyph-name="uni031B" unicode="&#x31b;" 
d="M27 441l-28 21v23q68 1 91.5 30t23.5 87v14h56v-24q0 -69 -37 -108t-106 -43z" />
    <glyph glyph-name="dotbelowcomb" unicode="&#x323;" 
d="M-39 -179v75h78v-75h-78z" />
    <glyph glyph-name="uni0324" unicode="&#x324;" 
d="M47 -176v73h73v-73h-73zM-120 -176v73h73v-73h-73z" />
    <glyph glyph-name="uni0326" unicode="&#x326;" 
d="M-7 -263l-31 22q21 23 29 43t9 42h-42v73h84v-57q0 -35 -12 -66.5t-37 -56.5z" />
    <glyph glyph-name="uni0327" unicode="&#x327;" 
d="M4 -191q-52 0 -83 19l11 39q18 -9 34 -13t39 -4q27 0 43.5 10.5t16.5 29.5q0 30 -38 30q-11 0 -22.5 -1.5t-26.5 -7.5l-16 14l14 95h45l-11 -66q12 2 22 2q34 0 57.5 -17.5t23.5 -49.5q0 -36 -30 -58t-79 -22z" />
    <glyph glyph-name="uni0328" unicode="&#x328;" 
d="M-18 -191q-44 0 -71.5 25.5t-27.5 69.5q0 38 24.5 73t67.5 57l25 -34q-23 -10 -46 -33.5t-23 -56.5q0 -30 17 -44t42 -14t53 12l14 -38q-28 -17 -75 -17z" />
    <glyph glyph-name="uni032E" unicode="&#x32e;" 
d="M0 -215q-65 0 -104.5 39.5t-44.5 108.5l42 5q3 -51 31 -79.5t76 -28.5t76 28.5t31 79.5l42 -5q-5 -69 -44.5 -108.5t-104.5 -39.5z" />
    <glyph glyph-name="uni0331" unicode="&#x331;" 
d="M-144 -152v46h288v-46h-288z" />
    <glyph glyph-name="uni0335" unicode="&#x335;" 
d="M-175 524v48h350v-48h-350z" />
    <glyph glyph-name="uni0337" unicode="&#x337;" 
d="M-109 263l-27 45l245 143l27 -45z" />
    <glyph glyph-name="uni0338" unicode="&#x338;" 
d="M-140 -41l-39 24l319 548l39 -23z" />
    <glyph glyph-name="uni0394" unicode="&#x394;" horiz-adv-x="722" 
d="M46 0v39l288 666h55l287 -666v-39h-630zM360 628l-246 -575h495l-247 575h-2z" />
    <glyph glyph-name="Sigma" unicode="&#x3a3;" horiz-adv-x="600" 
d="M50 -180v45l279 398l-279 397v45h500v-54h-421l257 -368v-41l-257 -368h421v-54h-500z" />
    <glyph glyph-name="uni03A9" unicode="&#x3a9;" horiz-adv-x="769" 
d="M43 0v54h208q-99 67 -146 153t-47 189q0 99 40.5 170t114 109t172.5 38q98 0 171.5 -37.5t113.5 -109t40 -170.5q0 -103 -46.5 -189t-145.5 -153h208v-54h-282v51q103 72 152 156.5t49 184.5q0 127 -69.5 196t-190.5 69q-122 0 -191.5 -69.5t-69.5 -195.5
q0 -100 49 -184.5t152 -156.5v-51h-282z" />
    <glyph glyph-name="uni03BC" unicode="&#x3bc;" horiz-adv-x="553" 
d="M78 -180v665h61v-302q0 -71 29 -105t91 -34q67 0 109.5 45t42.5 120v276h61v-485h-59v89q-22 -48 -63 -72.5t-92 -24.5q-39 0 -71 11.5t-53 41.5l5 -225h-61z" />
    <glyph glyph-name="pi" unicode="&#x3c0;" horiz-adv-x="573" 
d="M500 -4q-82 0 -117.5 46.5t-35.5 126.5v267h-182q-2 -134 -19 -241.5t-48 -194.5h-66q69 187 72 436h-99v49h526v-49h-123v-265q0 -61 23.5 -91t78.5 -30q23 0 52 5l-3 -53q-33 -6 -59 -6z" />
    <glyph glyph-name="uni0400" unicode="&#x400;" horiz-adv-x="576" 
d="M92 0v705h434v-53h-374v-268h353v-53h-353v-278h374v-53h-434zM297 765l-141 171h73l118 -171h-50z" />
    <glyph glyph-name="uni0401" unicode="&#x401;" horiz-adv-x="576" 
d="M92 0v705h434v-53h-374v-268h353v-53h-353v-278h374v-53h-434zM369 813v73h73v-73h-73zM202 813v73h73v-73h-73z" />
    <glyph glyph-name="uni0402" unicode="&#x402;" horiz-adv-x="829" 
d="M573 -188q-33 0 -63 5.5t-51 15.5l15 50q40 -18 95 -18q67 0 103 45t36 135v95q0 120 -52.5 177.5t-160.5 57.5q-101 0 -167 -43v-332h-62v650h-263v55h588v-55h-263v-257q29 18 75 28.5t96 10.5q270 0 270 -286v-99q0 -115 -51.5 -175t-144.5 -60z" />
    <glyph glyph-name="uni0403" unicode="&#x403;" horiz-adv-x="534" 
d="M92 0v705h429v-55h-368v-650h-61zM251 765l118 171h73l-141 -171h-50z" />
    <glyph glyph-name="uni0404" unicode="&#x404;" horiz-adv-x="670" 
d="M386 -8q-101 0 -173 43.5t-110.5 124.5t-38.5 193q0 111 38.5 192t110.5 124.5t173 43.5q73 0 134.5 -23.5t104.5 -68.5l-27 -51q-47 46 -97.5 66t-113.5 20q-119 0 -184.5 -72t-72.5 -199h369v-54h-369q5 -134 71 -208t186 -74q63 0 113.5 20t97.5 66l27 -51
q-43 -45 -104.5 -68.5t-134.5 -23.5z" />
    <glyph glyph-name="uni0405" unicode="&#x405;" horiz-adv-x="607" 
d="M312 -8q-82 0 -147.5 21.5t-113.5 63.5l24 51q52 -41 106.5 -60.5t130.5 -19.5q95 0 142.5 37t47.5 97q0 50 -34.5 78t-113.5 44l-101 21q-94 19 -140.5 64t-46.5 120q0 61 31.5 107t87.5 71.5t129 25.5q146 0 233 -88l-24 -50q-46 43 -96 62.5t-113 19.5
q-84 0 -134.5 -40t-50.5 -107q0 -53 32 -83.5t103 -44.5l102 -21q101 -21 150 -62.5t49 -113.5q0 -57 -30.5 -100.5t-87.5 -68t-135 -24.5z" />
    <glyph glyph-name="uni0406" unicode="&#x406;" horiz-adv-x="245" 
d="M92 0v705h61v-705h-61z" />
    <glyph glyph-name="uni0407" unicode="&#x407;" horiz-adv-x="245" 
d="M92 0v705h61v-705h-61zM169 813v73h73v-73h-73zM2 813v73h73v-73h-73z" />
    <glyph glyph-name="uni0408" unicode="&#x408;" horiz-adv-x="310" 
d="M-5 -7l-5 54l56 4q53 4 82 39t29 93v522h62v-523q0 -83 -43 -131t-124 -54z" />
    <glyph glyph-name="uni0409" unicode="&#x409;" horiz-adv-x="1128" 
d="M46 -14l-27 51q39 21 70.5 50.5t54 79t35 129t12.5 198.5v211h435v-319h221q110 0 170 -47.5t60 -144.5q0 -96 -60 -145t-170 -49h-282v650h-316v-171q0 -153 -23.5 -250t-68.5 -153.5t-111 -89.5zM626 53h216q173 0 173 141q0 139 -173 139h-216v-280z" />
    <glyph glyph-name="uni040A" unicode="&#x40a;" horiz-adv-x="1166" 
d="M92 0v705h61v-320h450v320h61v-319h221q110 0 170 -47.5t60 -144.5q0 -96 -60 -145t-170 -49h-282v330h-450v-330h-61zM664 53h216q173 0 173 141q0 139 -173 139h-216v-280z" />
    <glyph glyph-name="uni040B" unicode="&#x40b;" horiz-adv-x="841" 
d="M266 0v650h-263v55h588v-55h-263v-257q33 19 82.5 29t98.5 10q133 0 202.5 -72t69.5 -214v-146h-62v140q0 121 -54 178t-159 57q-48 0 -93.5 -9.5t-84.5 -33.5v-332h-62z" />
    <glyph glyph-name="uni040C" unicode="&#x40c;" horiz-adv-x="626" 
d="M92 0v705h61v-321h135l215 321h70l-222 -329q46 -12 81 -46t61 -88l119 -242h-68l-99 208q-32 66 -71.5 94t-96.5 28h-124v-330h-61zM296 765l118 171h73l-141 -171h-50z" />
    <glyph glyph-name="uni040D" unicode="&#x40d;" horiz-adv-x="736" 
d="M92 0v705h57v-603l446 603h49v-705h-57v604l-447 -604h-48zM343 765l-141 171h73l118 -171h-50z" />
    <glyph glyph-name="uni040E" unicode="&#x40e;" horiz-adv-x="635" 
d="M206 0l109 210l-310 495h67l273 -436l225 436h64l-362 -705h-66zM319 760q-59 0 -110 30t-75 98l40 15q21 -51 57 -75t87 -24q53 0 87.5 21.5t65.5 76.5l39 -14q-33 -73 -83.5 -100.5t-107.5 -27.5z" />
    <glyph glyph-name="uni040F" unicode="&#x40f;" horiz-adv-x="751" 
d="M347 -153v153h-255v705h61v-650h444v650h62v-705h-255v-153h-57z" />
    <glyph glyph-name="uni0410" unicode="&#x410;" horiz-adv-x="722" 
d="M27 0l307 705h55l306 -705h-64l-81 188h-378l-80 -188h-65zM360 629l-165 -388h332l-165 388h-2z" />
    <glyph glyph-name="uni0411" unicode="&#x411;" horiz-adv-x="654" 
d="M92 0v705h447v-53h-387v-266h222q110 0 170 -47.5t60 -144.5q0 -96 -60 -145t-170 -49h-282zM152 53h217q173 0 173 141q0 139 -173 139h-217v-280z" />
    <glyph glyph-name="uni0412" unicode="&#x412;" horiz-adv-x="671" 
d="M92 0v705h269q108 0 167.5 -48t59.5 -137q0 -58 -31 -99t-84 -60q61 -15 96 -58.5t35 -110.5q0 -94 -60 -143t-170 -49h-282zM152 383h202q84 0 128 34.5t44 100.5t-44 100.5t-128 34.5h-202v-270zM152 52h217q173 0 173 139q0 72 -43 106t-130 34h-217v-279z" />
    <glyph glyph-name="uni0413" unicode="&#x413;" horiz-adv-x="534" 
d="M92 0v705h429v-55h-368v-650h-61z" />
    <glyph glyph-name="uni0414" unicode="&#x414;" horiz-adv-x="769" 
d="M18 -153v206h68q55 69 81 184t26 287v181h453v-652h100v-206h-57v153h-614v-153h-57zM152 53h432v599h-333v-131q0 -169 -23.5 -281t-75.5 -187z" />
    <glyph glyph-name="uni0415" unicode="&#x415;" horiz-adv-x="576" 
d="M92 0v705h434v-53h-374v-268h353v-53h-353v-278h374v-53h-434z" />
    <glyph glyph-name="uni0416" unicode="&#x416;" horiz-adv-x="948" 
d="M14 0l117 242q53 110 144 134l-222 329h70l215 -321h106v321h60v-321h106l215 321h70l-222 -329q46 -12 81 -46t62 -88l118 -242h-67l-100 208q-32 66 -71.5 94t-96.5 28h-95v-330h-60v330h-95q-59 0 -99 -28.5t-71 -93.5l-98 -208h-67z" />
    <glyph glyph-name="uni0417" unicode="&#x417;" horiz-adv-x="642" 
d="M316 -8q-90 0 -160 25t-112 68l25 50q50 -45 108 -66t136 -21q103 0 151.5 36.5t48.5 108.5q0 70 -43 103.5t-130 33.5h-172v53h157q84 0 128 34.5t44 99.5t-46.5 102.5t-136.5 37.5q-65 0 -122.5 -20.5t-105.5 -63.5l-26 50q47 44 115 67t142 23q120 0 181.5 -52
t61.5 -141q0 -58 -31 -99t-84 -60q61 -15 96 -58.5t35 -110.5q0 -94 -64 -147t-196 -53z" />
    <glyph glyph-name="uni0418" unicode="&#x418;" horiz-adv-x="736" 
d="M92 0v705h57v-603l446 603h49v-705h-57v604l-447 -604h-48z" />
    <glyph glyph-name="uni0419" unicode="&#x419;" horiz-adv-x="736" 
d="M92 0v705h57v-603l446 603h49v-705h-57v604l-447 -604h-48zM368 760q-59 0 -110 30t-75 98l40 15q21 -51 57 -75t87 -24q53 0 87.5 21.5t65.5 76.5l39 -14q-33 -73 -83.5 -100.5t-107.5 -27.5z" />
    <glyph glyph-name="uni041A" unicode="&#x41a;" horiz-adv-x="626" 
d="M92 0v705h61v-321h135l215 321h70l-222 -329q46 -12 81 -46t61 -88l119 -242h-68l-99 208q-32 66 -71.5 94t-96.5 28h-124v-330h-61z" />
    <glyph glyph-name="uni041B" unicode="&#x41b;" horiz-adv-x="736" 
d="M46 -14l-27 51q39 21 70.5 50.5t54 79t35 129t12.5 198.5v211h453v-705h-62v650h-333v-171q0 -153 -23.5 -250t-68.5 -153.5t-111 -89.5z" />
    <glyph glyph-name="uni041C" unicode="&#x41c;" horiz-adv-x="849" 
d="M94 0v705h52l280 -531l278 531h52v-705h-57v586l-251 -477h-44l-254 476v-585h-56z" />
    <glyph glyph-name="uni041D" unicode="&#x41d;" horiz-adv-x="756" 
d="M92 0v705h61v-320h450v320h61v-705h-61v330h-450v-330h-61z" />
    <glyph glyph-name="uni041E" unicode="&#x41e;" horiz-adv-x="759" 
d="M379 -8q-97 0 -167.5 44t-109 125t-38.5 192t38 192t109 124.5t168 43.5q98 0 168.5 -43.5t109 -124t38.5 -191.5q0 -112 -38.5 -193t-109.5 -125t-168 -44zM379 48q119 0 185 80t66 225t-65.5 224.5t-185.5 79.5q-119 0 -184.5 -80t-65.5 -224t65.5 -224.5t184.5 -80.5z
" />
    <glyph glyph-name="uni041F" unicode="&#x41f;" horiz-adv-x="751" 
d="M92 0v705h567v-705h-62v650h-444v-650h-61z" />
    <glyph glyph-name="uni0420" unicode="&#x420;" horiz-adv-x="624" 
d="M92 0v705h266q113 0 172.5 -54t59.5 -154q0 -99 -59.5 -153.5t-172.5 -54.5h-205v-289h-61zM153 343h200q175 0 175 154q0 155 -175 155h-200v-309z" />
    <glyph glyph-name="uni0421" unicode="&#x421;" horiz-adv-x="670" 
d="M386 -8q-101 0 -173 43.5t-110.5 124.5t-38.5 193q0 111 38.5 192t110.5 124.5t173 43.5q73 0 134.5 -23.5t104.5 -68.5l-27 -51q-47 46 -97.5 66t-113.5 20q-124 0 -190.5 -79.5t-66.5 -223.5q0 -145 66.5 -224.5t190.5 -79.5q63 0 113.5 20t97.5 66l27 -51
q-43 -45 -104.5 -68.5t-134.5 -23.5z" />
    <glyph glyph-name="uni0422" unicode="&#x422;" horiz-adv-x="594" 
d="M266 0v650h-263v55h588v-55h-263v-650h-62z" />
    <glyph glyph-name="uni0423" unicode="&#x423;" horiz-adv-x="635" 
d="M206 0l109 210l-310 495h67l273 -436l225 436h64l-362 -705h-66z" />
    <glyph glyph-name="uni0424" unicode="&#x424;" horiz-adv-x="827" 
d="M383 -21v78h-7q-97 0 -167 36.5t-107.5 104.5t-37.5 160q0 140 81.5 220.5t230.5 80.5h7v72h62v-72h6q149 0 230.5 -80.5t81.5 -220.5q0 -92 -37.5 -160t-107.5 -104.5t-167 -36.5h-6v-78h-62zM462 606h-18v-497h18q71 0 124.5 30.5t82.5 86t29 132.5q0 118 -63.5 183
t-172.5 65zM366 109h17v497h-17q-110 0 -173.5 -65t-63.5 -183q0 -77 29 -132.5t82.5 -86t125.5 -30.5z" />
    <glyph glyph-name="uni0425" unicode="&#x425;" horiz-adv-x="640" 
d="M17 0l268 361l-254 344h73l217 -297l216 297h73l-254 -344l267 -361h-73l-230 313l-229 -313h-74z" />
    <glyph glyph-name="uni0426" unicode="&#x426;" horiz-adv-x="782" 
d="M702 -153v153h-610v705h61v-650h444v650h62v-650h100v-208h-57z" />
    <glyph glyph-name="uni0427" unicode="&#x427;" horiz-adv-x="666" 
d="M513 0v308q-33 -19 -82.5 -29t-99.5 -10q-132 0 -201.5 72t-69.5 214v150h62v-144q0 -121 53.5 -178t158.5 -57q48 0 93.5 9.5t85.5 33.5v336h62v-705h-62z" />
    <glyph glyph-name="uni0428" unicode="&#x428;" horiz-adv-x="1045" 
d="M92 0v705h61v-650h339v650h61v-650h339v650h62v-705h-862z" />
    <glyph glyph-name="uni0429" unicode="&#x429;" horiz-adv-x="1076" 
d="M996 -153v153h-904v705h61v-650h339v650h61v-650h339v650h62v-650h99v-208h-57z" />
    <glyph glyph-name="uni042A" unicode="&#x42a;" horiz-adv-x="783" 
d="M220 0v650h-217v55h279v-319h220q110 0 170.5 -47.5t60.5 -144.5q0 -96 -60.5 -145t-170.5 -49h-282zM282 53h216q173 0 173 141q0 139 -173 139h-216v-280z" />
    <glyph glyph-name="uni042B" unicode="&#x42b;" horiz-adv-x="833" 
d="M92 0v705h61v-319h191q110 0 170 -47.5t60 -144.5q0 -96 -60 -145t-170 -49h-252zM680 0v705h61v-705h-61zM153 53h186q173 0 173 141q0 139 -173 139h-186v-280z" />
    <glyph glyph-name="uni042C" unicode="&#x42c;" horiz-adv-x="654" 
d="M92 0v705h61v-319h221q110 0 170 -47.5t60 -144.5q0 -96 -60 -145t-170 -49h-282zM153 53h216q173 0 173 141q0 139 -173 139h-216v-280z" />
    <glyph glyph-name="uni042D" unicode="&#x42d;" horiz-adv-x="670" 
d="M283 -8q-72 0 -133.5 23.5t-104.5 68.5l27 51q46 -46 97 -66t114 -20q120 0 185.5 74t71.5 208h-369v54h368q-7 127 -71 199t-175 72q-63 0 -115 -20t-106 -66l-27 51q102 92 248 92q97 0 167 -43.5t108 -124.5t38 -192q0 -112 -38.5 -193t-110.5 -124.5t-174 -43.5z" />
    <glyph glyph-name="uni042E" unicode="&#x42e;" horiz-adv-x="998" 
d="M627 -8q-91 0 -158.5 41t-106 117t-42.5 180h-167v-330h-61v705h61v-320h167q6 102 44.5 175.5t105 113t157.5 39.5q95 0 164 -43.5t106 -124.5t37 -192t-37.5 -192t-106.5 -125t-163 -44zM627 48q115 0 178.5 80t63.5 225t-63 224.5t-179 79.5t-179.5 -80t-63.5 -224
t63.5 -224.5t179.5 -80.5z" />
    <glyph glyph-name="uni042F" unicode="&#x42f;" horiz-adv-x="662" 
d="M42 0l128 236q32 60 74 77q-82 13 -127.5 62.5t-45.5 129.5q0 96 60 148t172 52h267v-705h-61v305h-133q-54 0 -86 -16t-58 -63l-122 -226h-68zM312 357h197v295h-197q-178 0 -178 -147q0 -148 178 -148z" />
    <glyph glyph-name="uni0430" unicode="&#x430;" horiz-adv-x="529" 
d="M234 -8q-49 0 -87.5 19t-61 52t-22.5 74q0 54 27 84.5t91 43.5t176 13h31v36q0 67 -27 97.5t-86 30.5q-44 0 -84.5 -13t-83.5 -41l-24 47q38 27 90 43t101 16q88 0 130.5 -45t42.5 -138v-311h-58v87q-20 -45 -60.5 -70t-94.5 -25zM242 41q43 0 75.5 20.5t51.5 56.5t19 82
v33h-30q-90 0 -140.5 -8t-70.5 -28t-20 -55q0 -45 31 -73t84 -28z" />
    <glyph glyph-name="uni0431" unicode="&#x431;" horiz-adv-x="555" 
d="M278 -8q-104 0 -164.5 70t-60.5 203v76q0 96 24.5 160.5t73.5 104t124 61.5l174 51l22 -52l-192 -54q-83 -24 -124.5 -84t-41.5 -145v-1q23 51 69.5 79.5t106.5 28.5q64 0 111.5 -30.5t74 -86t26.5 -131.5t-27.5 -132.5t-77 -87t-118.5 -30.5zM276 43q77 0 120 51t43 147
q0 93 -43 145t-119 52q-75 0 -118.5 -50.5t-43.5 -137.5q0 -102 42.5 -154.5t118.5 -52.5z" />
    <glyph glyph-name="uni0432" unicode="&#x432;" horiz-adv-x="537" 
d="M84 0v485h225q163 0 163 -128q0 -38 -21.5 -66.5t-58.5 -41.5q44 -10 70 -41t26 -75q0 -62 -45 -97.5t-126 -35.5h-233zM143 269h166q49 0 76.5 22.5t27.5 63.5q0 40 -27.5 62.5t-76.5 22.5h-166v-171zM143 45h174q54 0 82.5 23t28.5 67q0 43 -28.5 66t-82.5 23h-174
v-179z" />
    <glyph glyph-name="uni0433" unicode="&#x433;" horiz-adv-x="425" 
d="M84 0v485h328v-51h-267v-434h-61z" />
    <glyph glyph-name="uni0434" unicode="&#x434;" horiz-adv-x="580" 
d="M27 -130v180h49q37 53 53.5 123.5t16.5 165.5v146h328v-435h75v-180h-53v130h-416v-130h-53zM139 50h276v385h-213v-102q0 -81 -16.5 -155.5t-46.5 -127.5z" />
    <glyph glyph-name="uni0435" unicode="&#x435;" horiz-adv-x="535" 
d="M295 -8q-112 0 -176.5 66.5t-64.5 182.5q0 75 29 132t80.5 89t118.5 32q97 0 151 -63t54 -173v-28h-373q3 -90 49.5 -138.5t129.5 -48.5q45 0 84.5 14t77.5 47l24 -46q-32 -31 -82 -48.5t-102 -17.5zM283 445q-76 0 -118.5 -47.5t-49.5 -122.5h317q-2 80 -40 125t-109 45
z" />
    <glyph glyph-name="uni0436" unicode="&#x436;" horiz-adv-x="766" 
d="M4 0l98 162q31 49 53 72t50 32l-174 219h68l168 -209h86v209h61v-209h86l167 209h68l-174 -219q28 -9 50.5 -32t52.5 -72l98 -162h-66l-91 149q-18 30 -35 47t-37.5 23.5t-50.5 6.5h-68v-226h-61v226h-69q-30 0 -50.5 -6.5t-37.5 -23.5t-35 -47l-91 -149h-66z" />
    <glyph glyph-name="uni0437" unicode="&#x437;" horiz-adv-x="487" 
d="M236 -8q-62 0 -115.5 17t-85.5 47l23 46q34 -30 80 -45t97 -15q76 0 109 24t33 68q0 43 -28.5 65.5t-81.5 22.5h-108v48h99q47 0 75 22.5t28 61.5q0 40 -29.5 64.5t-92.5 24.5q-51 0 -93 -13.5t-81 -42.5l-23 46q81 61 201 61q90 0 134 -36.5t44 -100.5q0 -38 -22 -66.5
t-59 -41.5q44 -10 70.5 -41t26.5 -75q0 -64 -50 -102.5t-151 -38.5z" />
    <glyph glyph-name="uni0438" unicode="&#x438;" horiz-adv-x="575" 
d="M84 0v485h56v-398l297 398h54v-485h-56v398l-298 -398h-53z" />
    <glyph glyph-name="uni0439" unicode="&#x439;" horiz-adv-x="575" 
d="M84 0v485h56v-398l297 398h54v-485h-56v398l-298 -398h-53zM287 548q-53 0 -99 30t-67 97l40 16q18 -51 49.5 -75.5t76.5 -24.5q46 0 76 22t57 77l38 -15q-29 -72 -74.5 -99.5t-96.5 -27.5z" />
    <glyph glyph-name="uni043A" unicode="&#x43a;" horiz-adv-x="511" 
d="M84 0v485h61v-209h100l167 209h69l-174 -219q28 -9 50 -32t52 -72l98 -162h-66l-90 149q-19 30 -35.5 47t-37 23.5t-51.5 6.5h-82v-226h-61z" />
    <glyph glyph-name="uni043B" unicode="&#x43b;" horiz-adv-x="564" 
d="M50 -10l-26 48q47 22 73.5 59t37 102.5t10.5 173.5v112h335v-485h-61v435h-216v-64q0 -118 -14.5 -193.5t-48 -119.5t-90.5 -68z" />
    <glyph glyph-name="uni043C" unicode="&#x43c;" horiz-adv-x="647" 
d="M84 0v485h51l189 -342l189 342h50v-485h-54v377l-169 -299h-33l-168 299v-377h-55z" />
    <glyph glyph-name="uni043D" unicode="&#x43d;" horiz-adv-x="577" 
d="M84 0v485h61v-209h287v209h61v-485h-61v225h-287v-225h-61z" />
    <glyph glyph-name="uni043E" unicode="&#x43e;" horiz-adv-x="555" 
d="M277 -8q-68 0 -118 30.5t-77.5 87t-27.5 133.5q0 76 27.5 132.5t77.5 87.5t118 31q69 0 119 -31t77.5 -87.5t27.5 -132.5q0 -77 -27.5 -133.5t-77.5 -87t-119 -30.5zM277 43q74 0 118 52.5t44 147.5t-44 147t-118 52t-117.5 -52t-43.5 -147t43.5 -147.5t117.5 -52.5z" />
    <glyph glyph-name="uni043F" unicode="&#x43f;" horiz-adv-x="574" 
d="M84 0v485h406v-485h-61v435h-284v-435h-61z" />
    <glyph glyph-name="uni0440" unicode="&#x440;" horiz-adv-x="583" 
d="M84 -180v665h61v-91q22 46 66.5 73t103.5 27q65 0 113.5 -31t75 -87t26.5 -133t-26.5 -133.5t-75 -87t-113.5 -30.5q-59 0 -103.5 26t-66.5 72v-270h-61zM306 43q74 0 118 52.5t44 147.5t-44 147t-118 52t-118 -52t-44 -147t44 -147.5t118 -52.5z" />
    <glyph glyph-name="uni0441" unicode="&#x441;" horiz-adv-x="467" 
d="M282 -8q-71 0 -122 31.5t-78.5 89t-27.5 133.5q0 115 60.5 181.5t167.5 66.5q44 0 87 -17t72 -47l-24 -46q-31 30 -66 43.5t-67 13.5q-81 0 -124.5 -51t-43.5 -145t43.5 -147.5t124.5 -53.5q32 0 67 13.5t66 43.5l24 -46q-29 -29 -72.5 -46t-86.5 -17z" />
    <glyph glyph-name="uni0442" unicode="&#x442;" horiz-adv-x="431" 
d="M185 0v434h-181v51h423v-51h-181v-434h-61z" />
    <glyph glyph-name="uni0443" unicode="&#x443;" horiz-adv-x="517" 
d="M146 -180l80 182l-206 483h68l171 -418l173 418h66l-286 -665h-66z" />
    <glyph glyph-name="uni0444" unicode="&#x444;" horiz-adv-x="775" 
d="M357 -180v264q-18 -44 -51 -68t-80 -24q-78 0 -125.5 68t-47.5 183t47 183t126 68q47 0 80.5 -24.5t50.5 -69.5v305h61v-304q18 44 51 68.5t79 24.5q79 0 126 -68t47 -183t-46.5 -183t-126.5 -68q-46 0 -79 24t-51 68v-264h-61zM236 42q57 0 89.5 51.5t32.5 149.5
q0 96 -32.5 148t-89.5 52q-56 0 -89 -52t-33 -148q0 -98 33 -149.5t89 -51.5zM538 42q56 0 89 51.5t33 149.5q0 96 -33 148t-89 52q-57 0 -89 -52t-32 -148q0 -98 32 -149.5t89 -51.5z" />
    <glyph glyph-name="uni0445" unicode="&#x445;" horiz-adv-x="523" 
d="M26 0l200 251l-189 234h73l152 -192l153 192h72l-189 -235l201 -250h-74l-163 205l-164 -205h-72z" />
    <glyph glyph-name="uni0446" unicode="&#x446;" horiz-adv-x="586" 
d="M501 -130v130h-417v485h61v-435h274v435h61v-435h75v-180h-54z" />
    <glyph glyph-name="uni0447" unicode="&#x447;" horiz-adv-x="542" 
d="M397 0v206q-58 -38 -136 -38q-101 0 -149.5 48.5t-48.5 147.5v121h61v-118q0 -76 34 -111t108 -35q40 0 70.5 9t60.5 30v225h61v-485h-61z" />
    <glyph glyph-name="uni0448" unicode="&#x448;" horiz-adv-x="784" 
d="M84 0v485h60v-435h218v435h60v-435h219v435h59v-485h-616z" />
    <glyph glyph-name="uni0449" unicode="&#x449;" horiz-adv-x="806" 
d="M722 -130v130h-638v485h60v-435h218v435h60v-435h219v435h59v-435h75v-180h-53z" />
    <glyph glyph-name="uni044A" unicode="&#x44a;" horiz-adv-x="606" 
d="M160 0v434h-156v51h217v-179h155q92 0 139 -39.5t47 -112.5q0 -72 -48 -113t-138 -41h-216zM221 47h153q60 0 93.5 26t33.5 80q0 55 -33.5 81t-93.5 26h-153v-213z" />
    <glyph glyph-name="uni044B" unicode="&#x44b;" horiz-adv-x="709" 
d="M84 0v485h61v-179h155q91 0 138.5 -39.5t47.5 -112.5q0 -72 -48 -113t-138 -41h-216zM564 0v485h61v-485h-61zM145 47h153q60 0 93.5 26t33.5 80q0 55 -33.5 81t-93.5 26h-153v-213z" />
    <glyph glyph-name="uni044C" unicode="&#x44c;" horiz-adv-x="530" 
d="M84 0v485h61v-179h155q91 0 138.5 -39.5t47.5 -112.5q0 -72 -48 -113t-138 -41h-216zM145 47h153q60 0 93.5 26t33.5 80q0 55 -33.5 81t-93.5 26h-153v-213z" />
    <glyph glyph-name="uni044D" unicode="&#x44d;" horiz-adv-x="480" 
d="M197 -8q-48 0 -97 17.5t-73 46.5l23 46q30 -30 69 -45t77 -15q78 0 121.5 48t49.5 134h-253v48h253q-4 47 -22.5 85.5t-55 62t-93.5 23.5q-37 0 -76.5 -14.5t-69.5 -45.5l-23 46q29 30 76.5 47.5t95.5 17.5q106 0 167 -66.5t61 -181.5q0 -77 -27.5 -134.5t-79 -88.5
t-123.5 -31z" />
    <glyph glyph-name="uni044E" unicode="&#x44e;" horiz-adv-x="747" 
d="M470 -8q-98 0 -157.5 63t-65.5 171h-103v-226h-60v485h60v-209h104q10 101 68.5 159.5t153.5 58.5q68 0 118.5 -31t78 -87.5t27.5 -132.5q0 -77 -27.5 -133.5t-78 -87t-118.5 -30.5zM470 43q74 0 118 52.5t44 147.5t-44 147t-118 52t-118 -52t-44 -147t44 -147.5
t118 -52.5z" />
    <glyph glyph-name="uni044F" unicode="&#x44f;" horiz-adv-x="529" 
d="M45 0l76 132q31 53 78 70q-63 8 -98 44.5t-35 95.5q0 64 43 103.5t130 39.5h206v-485h-59v193h-79q-45 0 -75 -22t-49 -54l-67 -117h-71zM250 240h136v199h-136q-64 0 -94 -26.5t-30 -72.5q0 -47 30 -73.5t94 -26.5z" />
    <glyph glyph-name="uni0450" unicode="&#x450;" horiz-adv-x="535" 
d="M295 -8q-112 0 -176.5 66.5t-64.5 182.5q0 75 29 132t80.5 89t118.5 32q97 0 151 -63t54 -173v-28h-373q3 -90 49.5 -138.5t129.5 -48.5q45 0 84.5 14t77.5 47l24 -46q-32 -31 -82 -48.5t-102 -17.5zM283 445q-76 0 -118.5 -47.5t-49.5 -122.5h317q-2 80 -40 125t-109 45
zM260 550l-127 201h70l103 -201h-46z" />
    <glyph glyph-name="uni0451" unicode="&#x451;" horiz-adv-x="535" 
d="M295 -8q-112 0 -176.5 66.5t-64.5 182.5q0 75 29 132t80.5 89t118.5 32q97 0 151 -63t54 -173v-28h-373q3 -90 49.5 -138.5t129.5 -48.5q45 0 84.5 14t77.5 47l24 -46q-32 -31 -82 -48.5t-102 -17.5zM283 445q-76 0 -118.5 -47.5t-49.5 -122.5h317q-2 80 -40 125t-109 45
zM330 615v72h73v-72h-73zM163 615v72h73v-72h-73z" />
    <glyph glyph-name="uni0452" unicode="&#x452;" horiz-adv-x="568" 
d="M307 -185l-16 49q55 13 84 36.5t39.5 61.5t10.5 92v247q0 72 -28.5 106t-92.5 34q-72 0 -115 -44.5t-43 -119.5v-277h-61v558h-94v48h94v99h61v-99h195v-48h-195v-156q23 44 67.5 68t97.5 24q175 0 175 -188v-249q0 -68 -15.5 -116.5t-55 -79.5t-108.5 -46z" />
    <glyph glyph-name="uni0453" unicode="&#x453;" horiz-adv-x="425" 
d="M84 0v485h328v-51h-267v-434h-61zM211 550l103 201h70l-127 -201h-46z" />
    <glyph glyph-name="uni0454" unicode="&#x454;" horiz-adv-x="481" 
d="M283 -8q-71 0 -122.5 31t-79.5 88.5t-28 134.5q0 115 62 181.5t171 66.5q49 0 96.5 -17.5t71.5 -47.5l-24 -46q-29 31 -69 45.5t-76 14.5q-58 0 -94 -23.5t-55 -62t-22 -85.5h253v-48h-253q5 -86 48.5 -134t122.5 -48q37 0 76.5 15t68.5 45l24 -46q-24 -29 -73.5 -46.5
t-97.5 -17.5z" />
    <glyph glyph-name="uni0455" unicode="&#x455;" horiz-adv-x="486" 
d="M242 -8q-54 0 -103.5 16t-81.5 46l22 45q37 -30 79 -43.5t86 -13.5q62 0 93.5 22.5t31.5 62.5q0 31 -21 49t-66 29l-87 20q-123 28 -123 127q0 64 50 103t132 39q50 0 94 -16.5t72 -47.5l-24 -45q-29 29 -66 43.5t-77 14.5q-58 0 -89.5 -24t-31.5 -65q0 -31 19 -50
t62 -29l87 -20q65 -15 97 -44.5t32 -79.5q0 -65 -51 -102t-136 -37z" />
    <glyph glyph-name="uni0456" unicode="&#x456;" horiz-adv-x="230" 
d="M74 613v77h82v-77h-82zM84 0v485h61v-485h-61z" />
    <glyph glyph-name="uni0457" unicode="&#x457;" horiz-adv-x="230" 
d="M84 0v485h61v-485h-61zM162 615v72h73v-72h-73zM-5 615v72h73v-72h-73z" />
    <glyph glyph-name="uni0458" unicode="&#x458;" horiz-adv-x="233" 
d="M77 613v77h82v-77h-82zM-49 -193l-4 50l42 4q99 8 99 120v504h61v-499q0 -166 -155 -176z" />
    <glyph glyph-name="uni0459" unicode="&#x459;" horiz-adv-x="864" 
d="M50 -10l-26 48q47 22 73.5 59t37 102.5t10.5 173.5v112h334v-179h155q91 0 138 -39.5t47 -112.5q0 -72 -47.5 -113t-137.5 -41h-215v435h-216v-64q0 -118 -14.5 -193.5t-48 -119.5t-90.5 -68zM479 47h152q61 0 94.5 26t33.5 80q0 55 -33.5 81t-94.5 26h-152v-213z" />
    <glyph glyph-name="uni045A" unicode="&#x45a;" horiz-adv-x="878" 
d="M84 0v485h61v-209h287v209h61v-179h155q91 0 138 -39.5t47 -112.5q0 -72 -47.5 -113t-137.5 -41h-216v225h-287v-225h-61zM493 47h152q61 0 94.5 26t33.5 80q0 55 -33.5 81t-94.5 26h-152v-213z" />
    <glyph glyph-name="uni045B" unicode="&#x45b;" horiz-adv-x="568" 
d="M84 0v558h-93v48h93v99h61v-99h196v-48h-196v-157q25 46 69.5 69.5t98.5 23.5q173 0 173 -188v-306h-61v301q0 72 -29 106t-92 34q-72 0 -115.5 -44.5t-43.5 -119.5v-277h-61z" />
    <glyph glyph-name="uni045C" unicode="&#x45c;" horiz-adv-x="511" 
d="M84 0v485h61v-209h100l167 209h69l-174 -219q28 -9 50 -32t52 -72l98 -162h-66l-90 149q-19 30 -35.5 47t-37 23.5t-51.5 6.5h-82v-226h-61zM259 550l103 201h70l-127 -201h-46z" />
    <glyph glyph-name="uni045D" unicode="&#x45d;" horiz-adv-x="575" 
d="M84 0v485h56v-398l297 398h54v-485h-56v398l-298 -398h-53zM264 550l-127 201h70l103 -201h-46z" />
    <glyph glyph-name="uni045E" unicode="&#x45e;" horiz-adv-x="517" 
d="M146 -180l80 182l-206 483h68l171 -418l173 418h66l-286 -665h-66zM259 548q-53 0 -99 30t-67 97l40 16q18 -51 49.5 -75.5t76.5 -24.5q46 0 76 22t57 77l38 -15q-29 -72 -74.5 -99.5t-96.5 -27.5z" />
    <glyph glyph-name="uni045F" unicode="&#x45f;" horiz-adv-x="574" 
d="M260 -130v130h-176v485h61v-435h284v435h61v-485h-177v-130h-53z" />
    <glyph glyph-name="uni0462" unicode="&#x462;" horiz-adv-x="715" 
d="M154 0v542h-174v52h174v111h60v-111h239v-52h-239v-156h220q111 0 171 -47.5t60 -144.5q0 -96 -60 -145t-171 -49h-280zM214 53h216q173 0 173 141q0 139 -173 139h-216v-280z" />
    <glyph glyph-name="uni0463" unicode="&#x463;" horiz-adv-x="606" 
d="M160 0v437h-156v48h156v220h61v-220h162v-48h-162v-131h156q91 0 138 -39.5t47 -112.5q0 -72 -48 -113t-137 -41h-217zM221 47h153q60 0 93.5 26t33.5 80q0 55 -33.5 81t-93.5 26h-153v-213z" />
    <glyph glyph-name="uni046A" unicode="&#x46a;" horiz-adv-x="931" 
d="M14 0l119 243q20 41 48.5 73t70.5 50t103 18h44l-276 321h685l-276 -321h44q61 0 103 -18t70.5 -50t48.5 -73l119 -243h-66l-101 208q-31 66 -70.5 94t-97.5 28h-86v-330h-61v330h-86q-58 0 -97.5 -28t-70.5 -94l-101 -208h-66zM464 387h2l228 268h-457z" />
    <glyph glyph-name="uni046B" unicode="&#x46b;" horiz-adv-x="766" 
d="M4 0l98 159q27 43 48.5 68t47.5 35.5t66 10.5h60l-183 212h485l-184 -212h60q40 0 66 -10.5t47.5 -35.5t48.5 -68l98 -159h-66l-91 146q-19 30 -35.5 47t-37 23.5t-50.5 6.5h-68v-223h-61v223h-69q-30 0 -50.5 -6.5t-37 -23.5t-35.5 -47l-91 -146h-66zM382 281h2l134 158
h-270z" />
    <glyph glyph-name="uni0472" unicode="&#x472;" horiz-adv-x="759" 
d="M379 -8q-97 0 -167.5 44t-109 125t-38.5 192t38 192t109 124.5t168 43.5q98 0 168.5 -43.5t109 -124t38.5 -191.5q0 -112 -38.5 -193t-109.5 -125t-168 -44zM379 657q-112 0 -177 -71.5t-72 -201.5h499q-7 130 -71.5 201.5t-178.5 71.5zM379 48q115 0 180 74.5t70 209.5
h-499q5 -134 70 -209t179 -75z" />
    <glyph glyph-name="uni0473" unicode="&#x473;" horiz-adv-x="555" 
d="M277 -8q-68 0 -118.5 30.5t-78 87t-27.5 133.5q0 76 27.5 132.5t78 87.5t118.5 31t118.5 -31t78 -87.5t27.5 -132.5q0 -77 -27.5 -133.5t-78 -87t-118.5 -30.5zM277 442q-69 0 -112 -46t-49 -130h322q-5 84 -48 130t-113 46zM277 43q70 0 113 46t48 131h-322
q6 -85 49 -131t112 -46z" />
    <glyph glyph-name="uni0474" unicode="&#x474;" horiz-adv-x="730" 
d="M308 0l-304 705h66l268 -628l186 451q29 71 59.5 111.5t71.5 57t101 16.5l6 -52q-45 0 -76 -12.5t-54.5 -44t-47.5 -88.5l-216 -516h-60z" />
    <glyph glyph-name="uni0475" unicode="&#x475;" horiz-adv-x="540" 
d="M228 0l-208 485h67l172 -418l130 313q26 64 62 89t101 25l6 -50q-48 -1 -72.5 -21t-45.5 -71l-151 -352h-61z" />
    <glyph glyph-name="uni048A" unicode="&#x48a;" horiz-adv-x="749" 
d="M368 760q-59 0 -110 30t-75 98l40 15q21 -51 56.5 -75t87.5 -24q53 0 87.5 21.5t64.5 76.5l39 -14q-32 -73 -82.5 -100.5t-107.5 -27.5zM624 -153l51 153h-88v604l-447 -604h-48v705h57v-602l446 602h49v-651h103l-69 -207h-54z" />
    <glyph glyph-name="uni048B" unicode="&#x48b;" horiz-adv-x="597" 
d="M287 548q-53 0 -98.5 30t-67.5 97l40 16q19 -51 50 -75.5t76 -24.5q46 0 76 22t57 77l39 -15q-30 -72 -75 -99.5t-97 -27.5zM84 0v485h56v-398l297 398h54v-435h81l-64 -180h-54l46 130h-65v398l-298 -398h-53z" />
    <glyph glyph-name="uni048C" unicode="&#x48c;" horiz-adv-x="705" 
d="M144 0v542h-144v52h144v111h60v-111h144v-52h-144v-156h220q111 0 171 -47.5t60 -144.5q0 -96 -60 -145t-171 -49h-280zM204 53h216q173 0 173 141q0 139 -173 139h-216v-280z" />
    <glyph glyph-name="uni048D" unicode="&#x48d;" horiz-adv-x="606" 
d="M160 0v437h-156v48h156v220h61v-220h162v-48h-162v-131h156q91 0 138 -39.5t47 -112.5q0 -72 -48 -113t-137 -41h-217zM221 47h153q60 0 93.5 26t33.5 80q0 55 -33.5 81t-93.5 26h-153v-213z" />
    <glyph glyph-name="uni048E" unicode="&#x48e;" horiz-adv-x="624" 
d="M92 0v705h266q113 0 172.5 -54t59.5 -154q0 -69 -29 -116t-84 -70l51 -78l-40 -27l-59 90q-32 -7 -71 -7h-205v-289h-61zM153 343h200q22 0 43 2l-51 77l42 27l59 -90q82 34 82 138q0 155 -175 155h-200v-309z" />
    <glyph glyph-name="uni048F" unicode="&#x48f;" horiz-adv-x="583" 
d="M84 -180v665h61v-91q21 46 65.5 73t103.5 27q66 0 114 -31t74.5 -87t26.5 -133q0 -69 -21 -121t-56 -82l45 -57l-34 -24l-45 58q-21 -12 -46.5 -18.5t-57.5 -6.5q-58 0 -102.5 26t-66.5 72v-270h-61zM306 43q23 0 42.5 5.5t33.5 13.5l-48 62l34 25l48 -61q23 23 37 62
t14 93q0 95 -43.5 147t-117.5 52q-75 0 -118.5 -52t-43.5 -147t43.5 -147.5t118.5 -52.5z" />
    <glyph glyph-name="uni0490" unicode="&#x490;" horiz-adv-x="534" 
d="M92 0v705h372v152h57v-207h-368v-650h-61z" />
    <glyph glyph-name="uni0491" unicode="&#x491;" horiz-adv-x="425" 
d="M84 0v485h274v117h54v-168h-267v-434h-61z" />
    <glyph glyph-name="uni0492" unicode="&#x492;" horiz-adv-x="568" 
d="M125 0v330h-99v50h99v325h429v-55h-367v-270h188v-50h-188v-330h-62z" />
    <glyph glyph-name="uni0493" unicode="&#x493;" horiz-adv-x="443" 
d="M103 0v215h-98v49h98v221h327v-51h-266v-170h147v-49h-147v-215h-61z" />
    <glyph glyph-name="uni0494" unicode="&#x494;" horiz-adv-x="655" 
d="M400 -188q-35 0 -65 5.5t-50 15.5l14 50q40 -18 95 -18q68 0 103.5 45t35.5 135v95q0 120 -52.5 177.5t-160.5 57.5q-101 0 -167 -43v-332h-61v705h447v-55h-386v-257q29 18 75 28.5t96 10.5q271 0 271 -286v-99q0 -115 -51.5 -175t-143.5 -60z" />
    <glyph glyph-name="uni0495" unicode="&#x495;" horiz-adv-x="540" 
d="M311 -185l-16 49q55 13 84 36.5t40 61.5t11 92v67q0 79 -29 114t-95 35q-73 0 -117 -45t-44 -119v-106h-61v485h328v-51h-267v-203q24 44 69 67.5t101 23.5q87 0 131.5 -47.5t44.5 -149.5v-68q0 -68 -16 -116.5t-55 -79.5t-109 -46z" />
    <glyph glyph-name="uni0496" unicode="&#x496;" horiz-adv-x="951" 
d="M14 0l117 242q53 110 144 134l-222 329h70l215 -321h106v321h60v-321h106l215 321h70l-222 -329q46 -12 81 -46t62 -88l91 -188h81v-207h-57v153h-64l-100 208q-32 66 -71.5 94t-96.5 28h-95v-330h-60v330h-95q-59 0 -99 -28.5t-71 -93.5l-98 -208h-67z" />
    <glyph glyph-name="uni0497" unicode="&#x497;" horiz-adv-x="807" 
d="M4 0l98 162q31 49 53 72t50 32l-174 219h68l168 -209h86v209h61v-209h86l167 209h68l-174 -219q28 -9 50.5 -32t52.5 -72l67 -112h58v-180h-55v130h-38l-91 149q-18 30 -35 47t-37.5 23.5t-50.5 6.5h-68v-226h-61v226h-69q-30 0 -50.5 -6.5t-37.5 -23.5t-35 -47l-91 -149
h-66z" />
    <glyph glyph-name="uni0498" unicode="&#x498;" horiz-adv-x="642" 
d="M291 -153v145q-81 4 -144.5 28.5t-102.5 64.5l25 50q50 -45 108 -66t136 -21q103 0 151.5 36.5t48.5 108.5q0 70 -43 103.5t-130 33.5h-172v53h157q84 0 128 34.5t44 99.5t-46.5 102.5t-136.5 37.5q-65 0 -122.5 -20.5t-105.5 -63.5l-26 50q47 44 115 67t142 23
q120 0 181.5 -52t61.5 -141q0 -58 -31.5 -99t-83.5 -60q60 -15 95.5 -58.5t35.5 -110.5q0 -88 -56 -140.5t-172 -59.5v-145h-57z" />
    <glyph glyph-name="uni0499" unicode="&#x499;" horiz-adv-x="487" 
d="M214 -130v122q-55 3 -102.5 19.5t-76.5 44.5l23 46q34 -30 80 -45t97 -15q76 0 109 24t33 68q0 43 -28.5 65.5t-81.5 22.5h-108v48h99q47 0 75 22.5t28 61.5q0 40 -29.5 64.5t-92.5 24.5q-51 0 -93 -13.5t-81 -42.5l-23 46q81 61 201 61q90 0 134 -36.5t44 -100.5
q0 -38 -22 -66.5t-59 -41.5q44 -10 70.5 -41t26.5 -75q0 -58 -42 -96t-127 -44v-123h-54z" />
    <glyph glyph-name="uni049A" unicode="&#x49a;" horiz-adv-x="650" 
d="M92 0v705h61v-321h135l215 321h70l-222 -329q46 -12 81 -46t61 -88l92 -188h80v-207h-57v153h-64l-99 208q-32 66 -71.5 94t-96.5 28h-124v-330h-61z" />
    <glyph glyph-name="uni049B" unicode="&#x49b;" horiz-adv-x="547" 
d="M84 0v485h61v-209h100l167 209h69l-174 -219q28 -9 50 -32t52 -72l68 -112h58v-180h-56v130h-38l-90 149q-19 30 -35.5 47t-37 23.5t-51.5 6.5h-82v-226h-61z" />
    <glyph glyph-name="uni049C" unicode="&#x49c;" horiz-adv-x="645" 
d="M92 0v705h61v-321h77v170h48v-170h29l216 321h70l-222 -329q45 -12 80.5 -46t61.5 -88l118 -242h-67l-99 208q-31 65 -71 93.5t-97 28.5h-19v-168h-48v168h-77v-330h-61z" />
    <glyph glyph-name="uni049D" unicode="&#x49d;" horiz-adv-x="526" 
d="M84 0v485h61v-209h58v114h47v-114h10l167 209h68l-174 -219q28 -9 50.5 -32t52.5 -72l98 -162h-66l-90 149q-26 42 -49 59t-67 18v-122h-47v122h-58v-226h-61z" />
    <glyph glyph-name="uni049E" unicode="&#x49e;" horiz-adv-x="653" 
d="M127 0v544h-140v51h140v110h62v-110h140v-51h-140v-160h131l216 321h70l-225 -331q85 -22 139 -132l119 -242h-68l-99 208q-32 66 -71.5 94t-96.5 28h-115v-330h-62z" />
    <glyph glyph-name="uni049F" unicode="&#x49f;" horiz-adv-x="512" 
d="M85 0v558h-94v48h94v99h61v-99h195v-48h-195v-282h99l168 209h68l-175 -219q29 -9 51 -32t52 -72l99 -162h-67l-90 149q-19 30 -35.5 47t-37 23.5t-50.5 6.5h-82v-226h-61z" />
    <glyph glyph-name="uni04A0" unicode="&#x4a0;" horiz-adv-x="754" 
d="M220 0v651h-217v54h279v-321h135l215 321h70l-222 -329q45 -12 80 -46t62 -88l118 -242h-67l-99 208q-32 66 -71.5 94t-96.5 28h-124v-330h-62z" />
    <glyph glyph-name="uni04A1" unicode="&#x4a1;" horiz-adv-x="587" 
d="M160 0v434h-156v51h217v-209h100l167 209h69l-175 -219q28 -9 50.5 -32t52.5 -72l98 -162h-66l-90 149q-19 30 -35.5 47t-37 23.5t-50.5 6.5h-83v-226h-61z" />
    <glyph glyph-name="uni04A2" unicode="&#x4a2;" horiz-adv-x="793" 
d="M92 0v705h61v-320h450v320h61v-651h100v-207h-57v153h-104v330h-450v-330h-61z" />
    <glyph glyph-name="uni04A3" unicode="&#x4a3;" horiz-adv-x="599" 
d="M513 -130v130h-81v225h-287v-225h-61v485h61v-209h287v209h61v-435h75v-180h-55z" />
    <glyph glyph-name="uni04A4" unicode="&#x4a4;" horiz-adv-x="930" 
d="M92 0v705h61v-320h450v320h324v-55h-263v-650h-61v330h-450v-330h-61z" />
    <glyph glyph-name="uni04A5" unicode="&#x4a5;" horiz-adv-x="735" 
d="M84 0v485h61v-209h287v209h290v-51h-229v-434h-61v225h-287v-225h-61z" />
    <glyph glyph-name="uni04A8" unicode="&#x4a8;" horiz-adv-x="794" 
d="M381 -8q-98 0 -169 43t-109.5 123.5t-38.5 192.5q0 114 37.5 195t108 124t168.5 43q43 0 68 -7l-8 -54q-18 3 -33 4t-26 1q-119 0 -184.5 -79.5t-65.5 -224.5q0 -147 65.5 -227t186.5 -80q44 0 82 11q-58 45 -91 114.5t-33 156.5q0 106 49.5 166.5t135.5 60.5
q85 0 134.5 -60.5t49.5 -166.5q0 -86 -33 -156t-92 -115q39 -11 83 -11q72 0 126 29l16 -51q-51 -32 -144 -32q-76 0 -141 29q-65 -29 -142 -29zM401 328q0 -85 32 -148t91 -98q58 35 90.5 98t32.5 148q0 82 -32.5 127t-90.5 45q-59 0 -91 -45t-32 -127z" />
    <glyph glyph-name="uni04A9" unicode="&#x4a9;" horiz-adv-x="615" 
d="M299 -8q-115 0 -180.5 68.5t-65.5 185.5q0 76 28 131.5t78.5 86t118.5 30.5q67 0 105 -23l-15 -49q-15 9 -40 14.5t-49 5.5q-77 0 -121 -52t-44 -144q0 -99 48.5 -152t135.5 -53q26 0 49 4q-38 31 -60 75t-22 97q0 70 38 112.5t101 42.5q62 0 100 -42.5t38 -112.5
q0 -53 -22 -97.5t-60 -74.5q23 -4 48 -4q59 0 105 25l16 -47q-53 -27 -119 -27q-57 0 -106 20q-49 -20 -105 -20zM320 216q0 -52 22 -91t61 -60q40 21 62 60t22 91q0 50 -23 78.5t-60 28.5q-38 0 -61 -28.5t-23 -78.5z" />
    <glyph glyph-name="uni04AA" unicode="&#x4aa;" horiz-adv-x="670" 
d="M350 -153v146q-136 12 -211 107.5t-75 252.5q0 111 38.5 192t110.5 124.5t173 43.5q73 0 134.5 -23.5t104.5 -68.5l-27 -51q-47 46 -97.5 66t-113.5 20q-124 0 -190.5 -79.5t-66.5 -223.5q0 -145 66.5 -224.5t190.5 -79.5q63 0 113.5 20t97.5 66l27 -51
q-40 -42 -96 -65.5t-122 -26.5v-145h-57z" />
    <glyph glyph-name="uni04AB" unicode="&#x4ab;" horiz-adv-x="467" 
d="M252 -130v123q-93 10 -146 78.5t-53 174.5q0 115 61 181.5t168 66.5q44 0 87 -17t72 -47l-24 -46q-31 30 -66 43.5t-67 13.5q-81 0 -124.5 -51t-43.5 -145t43.5 -147.5t124.5 -53.5q32 0 67 13.5t66 43.5l24 -46q-25 -25 -61 -41.5t-74 -20.5v-123h-54z" />
    <glyph glyph-name="uni04AC" unicode="&#x4ac;" horiz-adv-x="573" 
d="M361 -153v153h-105v650h-253v55h567v-55h-252v-596h100v-207h-57z" />
    <glyph glyph-name="uni04AD" unicode="&#x4ad;" horiz-adv-x="431" 
d="M266 -130v130h-81v434h-181v51h423v-51h-181v-384h75v-180h-55z" />
    <glyph glyph-name="uni04AE" unicode="&#x4ae;" horiz-adv-x="586" 
d="M262 0v338l-269 367h72l229 -313l230 313h69l-269 -368v-337h-62z" />
    <glyph glyph-name="uni04AF" unicode="&#x4af;" horiz-adv-x="514" 
d="M226 -180v178l-207 487h67l172 -418l173 418h65l-209 -486v-179h-61z" />
    <glyph glyph-name="uni04B0" unicode="&#x4b0;" horiz-adv-x="586" 
d="M262 0v338l-269 367h72l229 -313l230 313h69l-269 -368v-337h-62zM98 298v48h391v-48h-391z" />
    <glyph glyph-name="uni04B1" unicode="&#x4b1;" horiz-adv-x="514" 
d="M226 -180v139h-119v51h115l-203 475h67l172 -418l173 418h65l-204 -475h115v-51h-120v-139h-61z" />
    <glyph glyph-name="uni04B2" unicode="&#x4b2;" horiz-adv-x="665" 
d="M17 0l268 361l-254 344h73l217 -297l216 297h73l-254 -344l228 -307h73v-207h-57v153h-50l-230 313l-229 -313h-74z" />
    <glyph glyph-name="uni04B3" unicode="&#x4b3;" horiz-adv-x="517" 
d="M26 0l200 251l-189 234h73l152 -192l152 192h73l-189 -235l160 -200h62v-180h-55v130h-40l-163 205l-164 -205h-72z" />
    <glyph glyph-name="uni04B4" unicode="&#x4b4;" horiz-adv-x="911" 
d="M831 -153v153h-611v650h-217v55h495v-55h-216v-595h444v650h62v-650h100v-208h-57z" />
    <glyph glyph-name="uni04B5" unicode="&#x4b5;" horiz-adv-x="673" 
d="M589 -130v130h-429v434h-156v51h374v-51h-157v-384h285v435h61v-435h75v-180h-53z" />
    <glyph glyph-name="uni04B6" unicode="&#x4b6;" horiz-adv-x="703" 
d="M618 -153v153h-105v308q-33 -19 -82.5 -29t-99.5 -10q-132 0 -201.5 72t-69.5 214v150h62v-144q0 -121 53.5 -178t158.5 -57q48 0 93.5 9.5t85.5 33.5v336h62v-651h100v-207h-57z" />
    <glyph glyph-name="uni04B7" unicode="&#x4b7;" horiz-adv-x="564" 
d="M397 0v206q-58 -38 -136 -38q-101 0 -149.5 48.5t-48.5 147.5v121h61v-118q0 -76 34 -111t108 -35q40 0 70.5 9t60.5 30v225h61v-435h75v-180h-55v130h-81z" />
    <glyph glyph-name="uni04B8" unicode="&#x4b8;" horiz-adv-x="666" 
d="M513 0v308q-31 -18 -75 -27.5t-89 -10.5v-157h-48v157q-116 10 -178.5 78.5t-62.5 206.5v150h62v-144q0 -114 46 -169.5t133 -64.5v176h48v-177q44 1 86 11t78 32v336h62v-705h-62z" />
    <glyph glyph-name="uni04B9" unicode="&#x4b9;" horiz-adv-x="549" 
d="M404 0v206q-25 -16 -54 -25t-56 -12v-101h-48v101q-94 4 -138.5 52.5t-44.5 142.5v121h61v-119q0 -71 30.5 -105.5t91.5 -38.5v126h48v-127q29 2 56.5 11t53.5 27v226h61v-485h-61z" />
    <glyph glyph-name="uni04BA" unicode="&#x4ba;" horiz-adv-x="666" 
d="M92 0v705h61v-308q33 19 82.5 29t99.5 10q132 0 201.5 -72t69.5 -214v-150h-61v144q0 121 -54 178t-159 57q-48 0 -93.5 -9.5t-85.5 -33.5v-336h-61z" />
    <glyph glyph-name="uni04BB" unicode="&#x4bb;" horiz-adv-x="568" 
d="M84 0v705h61v-304q25 46 69.5 69.5t98.5 23.5q173 0 173 -188v-306h-61v301q0 72 -29 106t-92 34q-72 0 -115.5 -44.5t-43.5 -119.5v-277h-61z" />
    <glyph glyph-name="uni04BC" unicode="&#x4bc;" horiz-adv-x="905" 
d="M568 -8q-163 0 -255.5 87.5t-101.5 242.5h-19q-170 0 -170 162v58h62v-55q0 -59 27 -85t83 -26h17q4 104 44 180t110 116.5t167 40.5q101 0 170 -44.5t104 -125t35 -189.5v-32h-565q8 -131 82 -202.5t212 -71.5q60 0 114 18t104 61l26 -49q-48 -44 -112.5 -65t-133.5 -21
zM533 658q-118 0 -184.5 -73.5t-72.5 -208.5h503q-5 138 -67.5 210t-178.5 72z" />
    <glyph glyph-name="uni04BD" unicode="&#x4bd;" horiz-adv-x="613" 
d="M395 -8q-111 0 -175.5 64.5t-65.5 173.5h-9q-64 0 -94.5 32.5t-30.5 90.5v36h53v-37q0 -41 16.5 -59t57.5 -18h8q7 66 37 115.5t79 76.5t111 27q97 0 151 -63t54 -173v-28h-373q3 -90 50 -138.5t130 -48.5q44 0 83.5 14t77.5 47l24 -46q-32 -31 -82.5 -48.5t-101.5 -17.5
zM383 445q-77 0 -119.5 -48.5t-48.5 -121.5h317q-2 79 -40 124.5t-109 45.5z" />
    <glyph glyph-name="uni04BE" unicode="&#x4be;" horiz-adv-x="905" 
d="M568 -8q-163 0 -255.5 87.5t-101.5 242.5h-19q-170 0 -170 162v58h62v-55q0 -59 27 -85t83 -26h17q4 104 44 180t110 116.5t167 40.5q101 0 170 -44.5t104 -125t35 -189.5v-32h-565q8 -131 82 -202.5t212 -71.5q60 0 114 18t104 61l26 -49q-48 -44 -112.5 -65t-133.5 -21
zM533 658q-118 0 -184.5 -73.5t-72.5 -208.5h503q-5 138 -67.5 210t-178.5 72zM578 -191q-44 0 -71.5 25.5t-27.5 69.5q0 38 24.5 73t67.5 57l25 -34q-23 -10 -46 -33.5t-23 -56.5q0 -30 17 -44t42 -14t53 12l14 -38q-28 -17 -75 -17z" />
    <glyph glyph-name="uni04BF" unicode="&#x4bf;" horiz-adv-x="613" 
d="M395 -8q-111 0 -175.5 64.5t-65.5 173.5h-9q-64 0 -94.5 32.5t-30.5 90.5v36h53v-37q0 -41 16.5 -59t57.5 -18h8q7 66 37 115.5t79 76.5t111 27q97 0 151 -63t54 -173v-28h-373q3 -90 50 -138.5t130 -48.5q44 0 83.5 14t77.5 47l24 -46q-32 -31 -82.5 -48.5t-101.5 -17.5
zM383 445q-77 0 -119.5 -48.5t-48.5 -121.5h317q-2 79 -40 124.5t-109 45.5zM424 -191q-44 0 -71.5 25.5t-27.5 69.5q0 38 24.5 73t67.5 57l25 -34q-23 -10 -46 -33.5t-23 -56.5q0 -30 17 -44t42 -14t53 12l14 -38q-28 -17 -75 -17z" />
    <glyph glyph-name="uni04C0" unicode="&#x4c0;" horiz-adv-x="245" 
d="M92 0v705h61v-705h-61z" />
    <glyph glyph-name="uni04C1" unicode="&#x4c1;" horiz-adv-x="948" 
d="M14 0l117 242q53 110 144 134l-222 329h70l215 -321h106v321h60v-321h106l215 321h70l-222 -329q46 -12 81 -46t62 -88l118 -242h-67l-100 208q-32 66 -71.5 94t-96.5 28h-95v-330h-60v330h-95q-59 0 -99 -28.5t-71 -93.5l-98 -208h-67zM474 760q-59 0 -110 30t-75 98
l40 15q21 -51 57 -75t87 -24q53 0 87.5 21.5t65.5 76.5l39 -14q-33 -73 -83.5 -100.5t-107.5 -27.5z" />
    <glyph glyph-name="uni04C2" unicode="&#x4c2;" horiz-adv-x="766" 
d="M4 0l98 162q31 49 53 72t50 32l-174 219h68l168 -209h86v209h61v-209h86l167 209h68l-174 -219q28 -9 50.5 -32t52.5 -72l98 -162h-66l-91 149q-18 30 -35 47t-37.5 23.5t-50.5 6.5h-68v-226h-61v226h-69q-30 0 -50.5 -6.5t-37.5 -23.5t-35 -47l-91 -149h-66zM383 548
q-53 0 -99 30t-67 97l40 16q18 -51 49.5 -75.5t76.5 -24.5q46 0 76 22t57 77l38 -15q-29 -72 -74.5 -99.5t-96.5 -27.5z" />
    <glyph glyph-name="uni04C3" unicode="&#x4c3;" horiz-adv-x="655" 
d="M400 -188q-35 0 -67.5 5.5t-46.5 15.5l13 50q40 -18 95 -18q68 0 103.5 45t35.5 135v49q0 125 -56 181t-172 56h-152v-331h-61v705h61v-319h138l214 319h70l-218 -322q238 -17 238 -283v-53q0 -115 -51.5 -175t-143.5 -60z" />
    <glyph glyph-name="uni04C4" unicode="&#x4c4;" horiz-adv-x="527" 
d="M298 -185l-16 49q55 13 84 36t39.5 59t10.5 86v28q0 79 -36 116t-110 37h-125v-226h-61v485h61v-209h100l167 209h69l-169 -212q77 -9 121 -57.5t44 -137.5v-30q0 -63 -15.5 -109.5t-54.5 -77.5t-109 -46z" />
    <glyph glyph-name="uni04C5" unicode="&#x4c5;" horiz-adv-x="749" 
d="M621 -153l51 153h-90v650h-333v-171q0 -153 -23.5 -250t-68.5 -153.5t-111 -89.5l-27 51q39 21 70.5 50.5t54 79t35 129t12.5 198.5v211h453v-651h101l-70 -207h-54z" />
    <glyph glyph-name="uni04C6" unicode="&#x4c6;" horiz-adv-x="586" 
d="M50 -10l-26 48q47 22 73.5 59t37 102.5t10.5 173.5v112h335v-435h78l-64 -180h-54l46 130h-67v435h-216v-64q0 -118 -14.5 -193.5t-48 -119.5t-90.5 -68z" />
    <glyph glyph-name="uni04C7" unicode="&#x4c7;" horiz-adv-x="756" 
d="M466 -193l-4 50l42 4q99 8 99 120v349h-450v-330h-61v705h61v-320h450v320h61v-719q0 -166 -155 -176z" />
    <glyph glyph-name="uni04C8" unicode="&#x4c8;" horiz-adv-x="577" 
d="M296 -193l-5 50l42 4q99 7 99 120v244h-287v-225h-61v485h61v-209h287v209h61v-499q0 -166 -154 -176z" />
    <glyph glyph-name="uni04C9" unicode="&#x4c9;" horiz-adv-x="769" 
d="M92 0v705h61v-320h450v320h61v-651h101l-69 -207h-55l51 153h-89v330h-450v-330h-61z" />
    <glyph glyph-name="uni04CA" unicode="&#x4ca;" horiz-adv-x="599" 
d="M84 0v485h61v-209h287v209h61v-435h78l-64 -180h-54l47 130h-68v225h-287v-225h-61z" />
    <glyph glyph-name="uni04CB" unicode="&#x4cb;" horiz-adv-x="670" 
d="M470 -153h-57v207h100v254q-33 -19 -82.5 -29t-99.5 -10q-132 0 -201.5 72t-69.5 214v150h62v-144q0 -121 53.5 -178t158.5 -57q48 0 93.5 9.5t85.5 33.5v336h62v-705h-105v-153z" />
    <glyph glyph-name="uni04CC" unicode="&#x4cc;" horiz-adv-x="542" 
d="M376 -130h-54v173h75v163q-58 -38 -136 -38q-101 0 -149.5 48.5t-48.5 147.5v121h61v-118q0 -76 34 -111t108 -35q40 0 70.5 9t60.5 30v225h61v-485h-82v-130z" />
    <glyph glyph-name="uni04CD" unicode="&#x4cd;" horiz-adv-x="863" 
d="M736 -153l52 153h-89v585l-251 -476h-44l-254 476v-585h-56v705h52l280 -530l278 530h52v-651h104l-69 -207h-55z" />
    <glyph glyph-name="uni04CE" unicode="&#x4ce;" horiz-adv-x="670" 
d="M84 0v485h51l189 -342l189 342h50v-435h83l-64 -180h-54l46 130h-65v377l-169 -299h-33l-168 299v-377h-55z" />
    <glyph glyph-name="uni04CF" unicode="&#x4cf;" horiz-adv-x="229" 
d="M84 0v705h61v-705h-61z" />
    <glyph glyph-name="uni04D0" unicode="&#x4d0;" horiz-adv-x="722" 
d="M27 0l307 705h55l306 -705h-64l-81 188h-378l-80 -188h-65zM360 629l-165 -388h332l-165 388h-2zM360 760q-59 0 -110 30t-75 98l40 15q21 -51 57 -75t87 -24q53 0 87.5 21.5t65.5 76.5l39 -14q-33 -73 -83.5 -100.5t-107.5 -27.5z" />
    <glyph glyph-name="uni04D1" unicode="&#x4d1;" horiz-adv-x="529" 
d="M234 -8q-49 0 -87.5 19t-61 52t-22.5 74q0 54 27 84.5t91 43.5t176 13h31v36q0 67 -27 97.5t-86 30.5q-44 0 -84.5 -13t-83.5 -41l-24 47q38 27 90 43t101 16q88 0 130.5 -45t42.5 -138v-311h-58v87q-20 -45 -60.5 -70t-94.5 -25zM242 41q43 0 75.5 20.5t51.5 56.5t19 82
v33h-30q-90 0 -140.5 -8t-70.5 -28t-20 -55q0 -45 31 -73t84 -28zM272 548q-53 0 -99 30t-67 97l40 16q18 -51 49.5 -75.5t76.5 -24.5q46 0 76 22t57 77l38 -15q-29 -72 -74.5 -99.5t-96.5 -27.5z" />
    <glyph glyph-name="uni04D2" unicode="&#x4d2;" horiz-adv-x="722" 
d="M27 0l307 705h55l306 -705h-64l-81 188h-378l-80 -188h-65zM360 629l-165 -388h332l-165 388h-2zM407 813v73h73v-73h-73zM240 813v73h73v-73h-73z" />
    <glyph glyph-name="uni04D3" unicode="&#x4d3;" horiz-adv-x="529" 
d="M234 -8q-49 0 -87.5 19t-61 52t-22.5 74q0 54 27 84.5t91 43.5t176 13h31v36q0 67 -27 97.5t-86 30.5q-44 0 -84.5 -13t-83.5 -41l-24 47q38 27 90 43t101 16q88 0 130.5 -45t42.5 -138v-311h-58v87q-20 -45 -60.5 -70t-94.5 -25zM242 41q43 0 75.5 20.5t51.5 56.5t19 82
v33h-30q-90 0 -140.5 -8t-70.5 -28t-20 -55q0 -45 31 -73t84 -28zM319 615v72h73v-72h-73zM152 615v72h73v-72h-73z" />
    <glyph glyph-name="uni04D4" unicode="&#x4d4;" horiz-adv-x="976" 
d="M-7 0l424 705h509v-53h-439l56 -268h362v-53h-350l59 -278h312v-53h-358l-40 188h-356l-111 -188h-68zM433 628l-229 -387h313l-82 387h-2z" />
    <glyph glyph-name="uni04D5" unicode="&#x4d5;" horiz-adv-x="867" 
d="M238 -8q-51 0 -90 19t-62 52t-23 74q0 54 27.5 84.5t92 43.5t174.5 13h35v34q0 68 -28.5 99t-86.5 31q-46 0 -86.5 -12.5t-83.5 -40.5l-24 46q38 27 90 43t103 16q127 0 161 -101q28 49 75 75t106 26q93 0 146.5 -63t53.5 -173v-25h-366q3 -91 47.5 -140.5t127.5 -49.5
q86 0 160 61l23 -46q-32 -31 -81.5 -48.5t-98.5 -17.5q-77 0 -131 32t-80 96q-20 -60 -67 -94t-114 -34zM616 445q-70 0 -113 -45t-50 -122h311q-3 77 -40.5 122t-107.5 45zM244 41q66 0 107 46.5t41 118.5v27h-34q-90 0 -140.5 -8t-70.5 -27.5t-20 -55.5q0 -45 31 -73
t86 -28z" />
    <glyph glyph-name="uni04D6" unicode="&#x4d6;" horiz-adv-x="576" 
d="M92 0v705h434v-53h-374v-268h353v-53h-353v-278h374v-53h-434zM322 760q-59 0 -110 30t-75 98l40 15q21 -51 57 -75t87 -24q53 0 87.5 21.5t65.5 76.5l39 -14q-33 -73 -83.5 -100.5t-107.5 -27.5z" />
    <glyph glyph-name="uni04D7" unicode="&#x4d7;" horiz-adv-x="535" 
d="M295 -8q-112 0 -176.5 66.5t-64.5 182.5q0 75 29 132t80.5 89t118.5 32q97 0 151 -63t54 -173v-28h-373q3 -90 49.5 -138.5t129.5 -48.5q45 0 84.5 14t77.5 47l24 -46q-32 -31 -82 -48.5t-102 -17.5zM283 445q-76 0 -118.5 -47.5t-49.5 -122.5h317q-2 80 -40 125t-109 45
zM283 548q-53 0 -99 30t-67 97l40 16q18 -51 49.5 -75.5t76.5 -24.5q46 0 76 22t57 77l38 -15q-29 -72 -74.5 -99.5t-96.5 -27.5z" />
    <glyph glyph-name="uni04D8" unicode="&#x4d8;" horiz-adv-x="759" 
d="M385 -8q-107 0 -178.5 44.5t-107 125t-35.5 189.5v32h565q-8 131 -79 202.5t-196 71.5q-76 0 -131 -20t-106 -65l-26 49q100 92 267 92q104 0 179.5 -43t116.5 -124t41 -193t-38.5 -193t-108 -124.5t-163.5 -43.5zM382 47q111 0 176.5 73.5t70.5 208.5h-501
q5 -138 68.5 -210t185.5 -72z" />
    <glyph glyph-name="uni04D9" unicode="&#x4d9;" horiz-adv-x="535" 
d="M259 -8q-100 0 -155 62t-55 176v25h373q-4 90 -50.5 138.5t-128.5 48.5q-87 0 -163 -60l-23 45q33 31 83 49t102 18q111 0 175.5 -67t64.5 -182q0 -77 -28 -134t-78.5 -88t-116.5 -31zM259 40q68 0 111.5 44.5t50.5 125.5h-315q3 -83 41.5 -126.5t111.5 -43.5z" />
    <glyph glyph-name="uni04DA" unicode="&#x4da;" horiz-adv-x="759" 
d="M385 -8q-107 0 -178.5 44.5t-107 125t-35.5 189.5v32h565q-8 131 -79 202.5t-196 71.5q-76 0 -131 -20t-106 -65l-26 49q100 92 267 92q104 0 179.5 -43t116.5 -124t41 -193t-38.5 -193t-108 -124.5t-163.5 -43.5zM382 47q111 0 176.5 73.5t70.5 208.5h-501
q5 -138 68.5 -210t185.5 -72zM421 813v73h73v-73h-73zM254 813v73h73v-73h-73z" />
    <glyph glyph-name="uni04DB" unicode="&#x4db;" horiz-adv-x="535" 
d="M259 -8q-100 0 -155 62t-55 176v25h373q-4 90 -50.5 138.5t-128.5 48.5q-87 0 -163 -60l-23 45q33 31 83 49t102 18q111 0 175.5 -67t64.5 -182q0 -77 -28 -134t-78.5 -88t-116.5 -31zM259 40q68 0 111.5 44.5t50.5 125.5h-315q3 -83 41.5 -126.5t111.5 -43.5zM296 615
v72h73v-72h-73zM129 615v72h73v-72h-73z" />
    <glyph glyph-name="uni04DC" unicode="&#x4dc;" horiz-adv-x="948" 
d="M14 0l117 242q53 110 144 134l-222 329h70l215 -321h106v321h60v-321h106l215 321h70l-222 -329q46 -12 81 -46t62 -88l118 -242h-67l-100 208q-32 66 -71.5 94t-96.5 28h-95v-330h-60v330h-95q-59 0 -99 -28.5t-71 -93.5l-98 -208h-67zM521 813v73h73v-73h-73zM354 813
v73h73v-73h-73z" />
    <glyph glyph-name="uni04DD" unicode="&#x4dd;" horiz-adv-x="766" 
d="M4 0l98 162q31 49 53 72t50 32l-174 219h68l168 -209h86v209h61v-209h86l167 209h68l-174 -219q28 -9 50.5 -32t52.5 -72l98 -162h-66l-91 149q-18 30 -35 47t-37.5 23.5t-50.5 6.5h-68v-226h-61v226h-69q-30 0 -50.5 -6.5t-37.5 -23.5t-35 -47l-91 -149h-66zM430 615v72
h73v-72h-73zM263 615v72h73v-72h-73z" />
    <glyph glyph-name="uni04DE" unicode="&#x4de;" horiz-adv-x="642" 
d="M316 -8q-90 0 -160 25t-112 68l25 50q50 -45 108 -66t136 -21q103 0 151.5 36.5t48.5 108.5q0 70 -43 103.5t-130 33.5h-172v53h157q84 0 128 34.5t44 99.5t-46.5 102.5t-136.5 37.5q-65 0 -122.5 -20.5t-105.5 -63.5l-26 50q47 44 115 67t142 23q120 0 181.5 -52
t61.5 -141q0 -58 -31 -99t-84 -60q61 -15 96 -58.5t35 -110.5q0 -94 -64 -147t-196 -53zM364 813v73h73v-73h-73zM197 813v73h73v-73h-73z" />
    <glyph glyph-name="uni04DF" unicode="&#x4df;" horiz-adv-x="487" 
d="M236 -8q-62 0 -115.5 17t-85.5 47l23 46q34 -30 80 -45t97 -15q76 0 109 24t33 68q0 43 -28.5 65.5t-81.5 22.5h-108v48h99q47 0 75 22.5t28 61.5q0 40 -29.5 64.5t-92.5 24.5q-51 0 -93 -13.5t-81 -42.5l-23 46q81 61 201 61q90 0 134 -36.5t44 -100.5q0 -38 -22 -66.5
t-59 -41.5q44 -10 70.5 -41t26.5 -75q0 -64 -50 -102.5t-151 -38.5zM288 616v72h73v-72h-73zM121 616v72h73v-72h-73z" />
    <glyph glyph-name="uni04E0" unicode="&#x4e0;" horiz-adv-x="642" 
d="M316 -8q-90 0 -160 25t-112 68l26 50q49 -45 108 -66t135 -21q103 0 151.5 36.5t48.5 107.5t-45.5 104.5t-147.5 33.5h-98v46l245 275h-408v54h489v-44l-247 -278h35q112 0 176 -46t64 -142t-64.5 -149.5t-195.5 -53.5z" />
    <glyph glyph-name="uni04E1" unicode="&#x4e1;" horiz-adv-x="485" 
d="M226 -188q-65 0 -118 16t-88 45l24 46q70 -56 179 -56q83 0 125 40t42 116q0 66 -41 103t-116 37h-106v31l218 244h-308v51h384v-42l-211 -236h32q99 0 154.5 -49t55.5 -138q0 -97 -60 -152.5t-166 -55.5z" />
    <glyph glyph-name="uni04E2" unicode="&#x4e2;" horiz-adv-x="736" 
d="M92 0v705h57v-603l446 603h49v-705h-57v604l-447 -604h-48zM209 818v47h318v-47h-318z" />
    <glyph glyph-name="uni04E3" unicode="&#x4e3;" horiz-adv-x="575" 
d="M84 0v485h56v-398l297 398h54v-485h-56v398l-298 -398h-53zM143 629v46h288v-46h-288z" />
    <glyph glyph-name="uni04E4" unicode="&#x4e4;" horiz-adv-x="736" 
d="M92 0v705h57v-603l446 603h49v-705h-57v604l-447 -604h-48zM415 813v73h73v-73h-73zM248 813v73h73v-73h-73z" />
    <glyph glyph-name="uni04E5" unicode="&#x4e5;" horiz-adv-x="575" 
d="M84 0v485h56v-398l297 398h54v-485h-56v398l-298 -398h-53zM334 615v72h73v-72h-73zM167 615v72h73v-72h-73z" />
    <glyph glyph-name="uni04E6" unicode="&#x4e6;" horiz-adv-x="759" 
d="M379 -8q-97 0 -167.5 44t-109 125t-38.5 192t38 192t109 124.5t168 43.5q98 0 168.5 -43.5t109 -124t38.5 -191.5q0 -112 -38.5 -193t-109.5 -125t-168 -44zM379 48q119 0 185 80t66 225t-65.5 224.5t-185.5 79.5q-119 0 -184.5 -80t-65.5 -224t65.5 -224.5t184.5 -80.5z
M426 813v73h73v-73h-73zM259 813v73h73v-73h-73z" />
    <glyph glyph-name="uni04E7" unicode="&#x4e7;" horiz-adv-x="555" 
d="M277 -8q-68 0 -118 30.5t-77.5 87t-27.5 133.5q0 76 27.5 132.5t77.5 87.5t118 31q69 0 119 -31t77.5 -87.5t27.5 -132.5q0 -77 -27.5 -133.5t-77.5 -87t-119 -30.5zM277 43q74 0 118 52.5t44 147.5t-44 147t-118 52t-117.5 -52t-43.5 -147t43.5 -147.5t117.5 -52.5z
M324 615v72h73v-72h-73zM157 615v72h73v-72h-73z" />
    <glyph glyph-name="uni04E8" unicode="&#x4e8;" horiz-adv-x="759" 
d="M379 -8q-97 0 -167.5 44t-109 125t-38.5 192t38 192t109 124.5t168 43.5q98 0 168.5 -43.5t109 -124t38.5 -191.5q0 -112 -38.5 -193t-109.5 -125t-168 -44zM379 657q-112 0 -177 -71.5t-72 -201.5h499q-7 130 -71.5 201.5t-178.5 71.5zM379 48q115 0 180 74.5t70 209.5
h-499q5 -134 70 -209t179 -75z" />
    <glyph glyph-name="uni04E9" unicode="&#x4e9;" horiz-adv-x="555" 
d="M277 -8q-68 0 -118.5 30.5t-78 87t-27.5 133.5q0 76 27.5 132.5t78 87.5t118.5 31t118.5 -31t78 -87.5t27.5 -132.5q0 -77 -27.5 -133.5t-78 -87t-118.5 -30.5zM277 442q-69 0 -112 -46t-49 -130h322q-5 84 -48 130t-113 46zM277 43q70 0 113 46t48 131h-322
q6 -85 49 -131t112 -46z" />
    <glyph glyph-name="uni04EA" unicode="&#x4ea;" horiz-adv-x="759" 
d="M379 -8q-97 0 -167.5 44t-109 125t-38.5 192t38 192t109 124.5t168 43.5q98 0 168.5 -43.5t109 -124t38.5 -191.5q0 -112 -38.5 -193t-109.5 -125t-168 -44zM379 657q-112 0 -177 -71.5t-72 -201.5h499q-7 130 -71.5 201.5t-178.5 71.5zM379 48q115 0 180 74.5t70 209.5
h-499q5 -134 70 -209t179 -75zM426 813v73h73v-73h-73zM259 813v73h73v-73h-73z" />
    <glyph glyph-name="uni04EB" unicode="&#x4eb;" horiz-adv-x="555" 
d="M277 -8q-68 0 -118.5 30.5t-78 87t-27.5 133.5q0 76 27.5 132.5t78 87.5t118.5 31t118.5 -31t78 -87.5t27.5 -132.5q0 -77 -27.5 -133.5t-78 -87t-118.5 -30.5zM277 442q-69 0 -112 -46t-49 -130h322q-5 84 -48 130t-113 46zM277 43q70 0 113 46t48 131h-322
q6 -85 49 -131t112 -46zM324 615v72h73v-72h-73zM157 615v72h73v-72h-73z" />
    <glyph glyph-name="uni04EC" unicode="&#x4ec;" horiz-adv-x="670" 
d="M283 -8q-72 0 -133.5 23.5t-104.5 68.5l27 51q46 -46 97 -66t114 -20q120 0 185.5 74t71.5 208h-369v54h368q-7 127 -71 199t-175 72q-63 0 -115 -20t-106 -66l-27 51q102 92 248 92q97 0 167 -43.5t108 -124.5t38 -192q0 -112 -38.5 -193t-110.5 -124.5t-174 -43.5z
M342 813v73h73v-73h-73zM175 813v73h73v-73h-73z" />
    <glyph glyph-name="uni04ED" unicode="&#x4ed;" horiz-adv-x="480" 
d="M197 -8q-48 0 -97 17.5t-73 46.5l23 46q30 -30 69 -45t77 -15q78 0 121.5 48t49.5 134h-253v48h253q-4 47 -22.5 85.5t-55 62t-93.5 23.5q-37 0 -76.5 -14.5t-69.5 -45.5l-23 46q29 30 76.5 47.5t95.5 17.5q106 0 167 -66.5t61 -181.5q0 -77 -27.5 -134.5t-79 -88.5
t-123.5 -31zM259 615v72h73v-72h-73zM92 615v72h73v-72h-73z" />
    <glyph glyph-name="uni04EE" unicode="&#x4ee;" horiz-adv-x="635" 
d="M206 0l109 210l-310 495h67l273 -436l225 436h64l-362 -705h-66zM160 818v47h318v-47h-318z" />
    <glyph glyph-name="uni04EF" unicode="&#x4ef;" horiz-adv-x="517" 
d="M146 -180l80 182l-206 483h68l171 -418l173 418h66l-286 -665h-66zM115 629v46h288v-46h-288z" />
    <glyph glyph-name="uni04F0" unicode="&#x4f0;" horiz-adv-x="635" 
d="M206 0l109 210l-310 495h67l273 -436l225 436h64l-362 -705h-66zM366 813v73h73v-73h-73zM199 813v73h73v-73h-73z" />
    <glyph glyph-name="uni04F1" unicode="&#x4f1;" horiz-adv-x="517" 
d="M146 -180l80 182l-206 483h68l171 -418l173 418h66l-286 -665h-66zM306 615v72h73v-72h-73zM139 615v72h73v-72h-73z" />
    <glyph glyph-name="uni04F2" unicode="&#x4f2;" horiz-adv-x="635" 
d="M206 0l109 210l-310 495h67l273 -436l225 436h64l-362 -705h-66zM242 765l86 171h65l-114 -171h-37zM359 765l88 171h65l-116 -171h-37z" />
    <glyph glyph-name="uni04F3" unicode="&#x4f3;" horiz-adv-x="517" 
d="M146 -180l80 182l-206 483h68l171 -418l173 418h66l-286 -665h-66zM300 550l56 201h61l-81 -201h-36zM182 550l56 201h61l-81 -201h-36z" />
    <glyph glyph-name="uni04F4" unicode="&#x4f4;" horiz-adv-x="666" 
d="M513 0v308q-33 -19 -82.5 -29t-99.5 -10q-132 0 -201.5 72t-69.5 214v150h62v-144q0 -121 53.5 -178t158.5 -57q48 0 93.5 9.5t85.5 33.5v336h62v-705h-62zM359 813v73h73v-73h-73zM192 813v73h73v-73h-73z" />
    <glyph glyph-name="uni04F5" unicode="&#x4f5;" horiz-adv-x="542" 
d="M397 0v206q-58 -38 -136 -38q-101 0 -149.5 48.5t-48.5 147.5v121h61v-118q0 -76 34 -111t108 -35q40 0 70.5 9t60.5 30v225h61v-485h-61zM308 615v72h73v-72h-73zM141 615v72h73v-72h-73z" />
    <glyph glyph-name="uni04F6" unicode="&#x4f6;" horiz-adv-x="534" 
d="M92 0v705h429v-55h-368v-596h100v-207h-57v153h-104z" />
    <glyph glyph-name="uni04F7" unicode="&#x4f7;" horiz-adv-x="425" 
d="M84 0v485h328v-51h-267v-384h75v-180h-55v130h-81z" />
    <glyph glyph-name="uni04F8" unicode="&#x4f8;" horiz-adv-x="833" 
d="M92 0v705h61v-319h191q110 0 170 -47.5t60 -144.5q0 -96 -60 -145t-170 -49h-252zM680 0v705h61v-705h-61zM153 53h186q173 0 173 141q0 139 -173 139h-186v-280zM464 813v73h73v-73h-73zM297 813v73h73v-73h-73z" />
    <glyph glyph-name="uni04F9" unicode="&#x4f9;" horiz-adv-x="709" 
d="M84 0v485h61v-179h155q91 0 138.5 -39.5t47.5 -112.5q0 -72 -48 -113t-138 -41h-216zM564 0v485h61v-485h-61zM145 47h153q60 0 93.5 26t33.5 80q0 55 -33.5 81t-93.5 26h-153v-213zM402 615v72h73v-72h-73zM235 615v72h73v-72h-73z" />
    <glyph glyph-name="uni04FA" unicode="&#x4fa;" horiz-adv-x="568" 
d="M93 -181l-5 49l38 3q58 5 81 36t23 93h-105v330h-99v50h99v325h429v-55h-367v-270h188v-50h-188v-276h100v-49q0 -89 -38.5 -134t-116.5 -50z" />
    <glyph glyph-name="uni04FB" unicode="&#x4fb;" horiz-adv-x="443" 
d="M69 -181l-4 48l39 4q42 5 61 36t19 93h-81v216h-98v48h98v221h327v-51h-266v-170h147v-48h-147v-166h75v-45q0 -89 -35 -133t-95 -50z" />
    <glyph glyph-name="uni04FC" unicode="&#x4fc;" horiz-adv-x="640" 
d="M411 -184l-12 51q67 8 96.5 35t29.5 80q0 51 -68 144l-137 187l-229 -313h-74l268 361l-254 344h73l217 -297l216 297h73l-254 -344l159 -216q38 -51 54.5 -92t16.5 -74q0 -142 -175 -163z" />
    <glyph glyph-name="uni04FD" unicode="&#x4fd;" horiz-adv-x="523" 
d="M328 -184l-11 47q54 7 81.5 28t27.5 63q0 28 -17.5 58t-58.5 82l-89 111l-163 -205h-72l200 250l-189 235h73l152 -192l152 192h73l-189 -235l100 -125q46 -57 66.5 -94t20.5 -78q0 -60 -40.5 -94.5t-116.5 -42.5z" />
    <glyph glyph-name="uni04FE" unicode="&#x4fe;" horiz-adv-x="640" 
d="M17 0l268 361l-254 344h73l217 -297l216 297h73l-254 -344l267 -361h-73l-230 313l-229 -313h-74zM126 339v48h391v-48h-391z" />
    <glyph glyph-name="uni04FF" unicode="&#x4ff;" horiz-adv-x="523" 
d="M26 0l200 251l-189 234h73l152 -192l153 192h72l-189 -235l201 -250h-74l-163 205l-164 -205h-72zM67 224v48h391v-48h-391z" />
    <glyph glyph-name="uni0510" unicode="&#x510;" horiz-adv-x="642" 
d="M327 -8q-133 0 -196.5 53t-63.5 147q0 67 35 110.5t96 58.5q-53 19 -84 60t-31 99q0 89 63.5 141t183.5 52q74 0 139.5 -23t112.5 -67l-25 -50q-48 43 -105.5 63.5t-122.5 20.5q-91 0 -137 -37.5t-46 -102.5t43.5 -99.5t128.5 -34.5h157v-53h-173q-86 0 -129.5 -33.5
t-43.5 -103.5q0 -72 48.5 -108.5t151.5 -36.5q79 0 137 21t107 66l26 -50q-43 -43 -112.5 -68t-159.5 -25z" />
    <glyph glyph-name="uni0511" unicode="&#x511;" horiz-adv-x="487" 
d="M251 -8q-101 0 -151 38.5t-50 102.5q0 44 26 75t70 41q-37 13 -58.5 41.5t-21.5 66.5q0 64 51 100.5t137 36.5q51 0 100.5 -15.5t89.5 -45.5l-23 -46q-39 29 -80 42.5t-84 13.5q-64 0 -98 -24.5t-34 -64.5t28.5 -62t75.5 -22h99v-48h-108q-53 0 -81.5 -22.5t-28.5 -64.5
q0 -44 33 -68.5t108 -24.5q52 0 97.5 15t80.5 45l23 -46q-32 -30 -86 -47t-115 -17z" />
    <glyph glyph-name="uni0512" unicode="&#x512;" horiz-adv-x="736" 
d="M442 -193l-4 50l43 4q101 8 101 120v669h-333v-171q0 -153 -23.5 -250t-68.5 -153.5t-111 -89.5l-27 51q39 21 70.5 50.5t54 79t35 129t12.5 198.5v211h453v-719q0 -166 -159 -176z" />
    <glyph glyph-name="uni0513" unicode="&#x513;" horiz-adv-x="564" 
d="M282 -193l-4 50l42 4q99 8 99 120v454h-216v-64q0 -118 -14.5 -193.5t-48 -119.5t-90.5 -68l-26 48q47 22 73.5 59t37 102.5t10.5 173.5v112h335v-502q0 -80 -40 -124t-115 -49z" />
    <glyph glyph-name="uni051A" unicode="&#x51a;" horiz-adv-x="759" 
d="M576 -195l-78 125q-38 62 -119 62v0q-97 0 -167.5 44t-109 125t-38.5 192t38 192t109 124.5t168 43.5q98 0 168.5 -43.5t109 -124t38.5 -191.5q0 -133 -55 -223t-152 -123q22 -7 39 -24t34 -47l65 -103zM379 48q119 0 185 80t66 225t-65.5 224.5t-185.5 79.5
q-119 0 -184.5 -80t-65.5 -224t65.5 -224.5t184.5 -80.5z" />
    <glyph glyph-name="uni051B" unicode="&#x51b;" horiz-adv-x="583" 
d="M438 -180v271q-22 -46 -66.5 -72.5t-102.5 -26.5q-66 0 -114.5 30.5t-74.5 87t-26 133.5t26.5 133t74.5 87t114 31q59 0 103.5 -27t66.5 -74v92h60v-665h-61zM277 43q74 0 118 52.5t44 147.5t-44 147t-118 52t-117.5 -52t-43.5 -147t43.5 -147.5t117.5 -52.5z" />
    <glyph glyph-name="uni051C" unicode="&#x51c;" horiz-adv-x="1096" 
d="M279 0l-245 705h64l211 -614l213 614h52l213 -618l213 618h62l-245 -705h-58l-211 612l-213 -612h-56z" />
    <glyph glyph-name="uni051D" unicode="&#x51d;" horiz-adv-x="843" 
d="M212 0l-176 485h65l143 -413l149 413h60l146 -414l146 414h63l-177 -485h-63l-146 406l-147 -406h-63z" />
    <glyph glyph-name="uni0524" unicode="&#x524;" horiz-adv-x="787" 
d="M702 -153v153h-105v650h-444v-650h-61v705h567v-651h100v-207h-57z" />
    <glyph glyph-name="uni0525" unicode="&#x525;" horiz-adv-x="596" 
d="M510 -130v130h-81v435h-284v-435h-61v485h406v-435h75v-180h-55z" />
    <glyph glyph-name="uni0526" unicode="&#x526;" horiz-adv-x="702" 
d="M649 -153v153h-104v144q0 121 -54 178t-159 57q-48 0 -93.5 -9.5t-85.5 -33.5v-336h-61v705h61v-308q33 19 82.5 29t99.5 10q132 0 201.5 -72t69.5 -214v-96h100v-207h-57z" />
    <glyph glyph-name="uni0527" unicode="&#x527;" horiz-adv-x="573" 
d="M84 0v705h61v-304q25 46 69 69.5t99 23.5q173 0 173 -188v-256h75v-180h-55v130h-81v301q0 72 -29 106t-92 34q-72 0 -115.5 -44.5t-43.5 -119.5v-277h-61z" />
    <glyph glyph-name="uni0528" unicode="&#x528;" horiz-adv-x="756" 
d="M-45 -193l-4 50l42 4q99 8 99 120v724h61v-320h450v320h61v-705h-61v330h-450v-345q0 -165 -155 -175z" />
    <glyph glyph-name="uni0529" unicode="&#x529;" horiz-adv-x="577" 
d="M-52 -193l-5 50l43 4q98 8 98 120v504h61v-209h287v209h61v-485h-61v225h-287v-239q0 -165 -154 -176z" />
    <glyph glyph-name="uni052E" unicode="&#x52e;" horiz-adv-x="772" 
d="M687 -153v153h-105v650h-333v-171q0 -153 -23.5 -250t-68.5 -153.5t-111 -89.5l-27 51q39 21 70.5 50.5t54 79t35 129t12.5 198.5v211h453v-651h100v-207h-57z" />
    <glyph glyph-name="uni052F" unicode="&#x52f;" horiz-adv-x="586" 
d="M50 -10l-26 48q47 22 73.5 59t37 102.5t10.5 173.5v112h335v-435h75v-180h-55v130h-81v435h-216v-64q0 -118 -14.5 -193.5t-48 -119.5t-90.5 -68z" />
    <glyph glyph-name="uni1E08" unicode="&#x1e08;" horiz-adv-x="670" 
d="M386 -8q-101 0 -173 43.5t-110.5 124.5t-38.5 193q0 111 38.5 192t110.5 124.5t173 43.5q73 0 134.5 -23.5t104.5 -68.5l-27 -51q-47 46 -97.5 66t-113.5 20q-124 0 -190.5 -79.5t-66.5 -223.5q0 -145 66.5 -224.5t190.5 -79.5q63 0 113.5 20t97.5 66l27 -51
q-43 -45 -104.5 -68.5t-134.5 -23.5zM387 -191q-52 0 -83 19l11 39q18 -9 34 -13t39 -4q27 0 43.5 10.5t16.5 29.5q0 30 -38 30q-11 0 -22.5 -1.5t-26.5 -7.5l-16 14l14 95h45l-11 -66q12 2 22 2q34 0 57.5 -17.5t23.5 -49.5q0 -36 -30 -58t-79 -22zM359 765l118 171h73
l-141 -171h-50z" />
    <glyph glyph-name="uni1E09" unicode="&#x1e09;" horiz-adv-x="459" 
d="M278 -8q-71 0 -122 31.5t-78.5 89t-27.5 133.5q0 115 60.5 181.5t167.5 66.5q44 0 87 -17t72 -47l-24 -46q-31 30 -66 43.5t-67 13.5q-81 0 -124.5 -51t-43.5 -145t43.5 -147.5t124.5 -53.5q32 0 67 13.5t66 43.5l24 -46q-29 -29 -72.5 -46t-86.5 -17zM279 -191
q-52 0 -83 19l11 39q18 -9 34 -13t39 -4q27 0 43.5 10.5t16.5 29.5q0 30 -38 30q-11 0 -22.5 -1.5t-26.5 -7.5l-16 14l14 95h45l-11 -66q12 2 22 2q34 0 57.5 -17.5t23.5 -49.5q0 -36 -30 -58t-79 -22zM252 550l103 201h70l-127 -201h-46z" />
    <glyph glyph-name="uni1E0C" unicode="&#x1e0c;" horiz-adv-x="733" 
d="M92 0v705h227q168 0 259.5 -90t91.5 -262t-91.5 -262.5t-259.5 -90.5h-227zM153 54h161q290 0 290 299q0 298 -290 298h-161v-597zM328 -179v75h78v-75h-78z" />
    <glyph glyph-name="uni1E0D" unicode="&#x1e0d;" horiz-adv-x="575" 
d="M265 -8q-66 0 -114 30.5t-74.5 87t-26.5 133.5q0 115 58 183t157 68q58 0 102.5 -26.5t66.5 -72.5v310h61v-705h-60v92q-22 -47 -66.5 -73.5t-103.5 -26.5zM273 43q74 0 118 52.5t44 147.5t-44 147t-118 52t-117.5 -52t-43.5 -147t43.5 -147.5t117.5 -52.5zM250 -179v75
h78v-75h-78z" />
    <glyph glyph-name="uni1E0E" unicode="&#x1e0e;" horiz-adv-x="733" 
d="M92 0v705h227q168 0 259.5 -90t91.5 -262t-91.5 -262.5t-259.5 -90.5h-227zM153 54h161q290 0 290 299q0 298 -290 298h-161v-597zM223 -152v46h288v-46h-288z" />
    <glyph glyph-name="uni1E0F" unicode="&#x1e0f;" horiz-adv-x="575" 
d="M265 -8q-66 0 -114 30.5t-74.5 87t-26.5 133.5q0 115 58 183t157 68q58 0 102.5 -26.5t66.5 -72.5v310h61v-705h-60v92q-22 -47 -66.5 -73.5t-103.5 -26.5zM273 43q74 0 118 52.5t44 147.5t-44 147t-118 52t-117.5 -52t-43.5 -147t43.5 -147.5t117.5 -52.5zM145 -152v46
h288v-46h-288z" />
    <glyph glyph-name="uni1E14" unicode="&#x1e14;" horiz-adv-x="576" 
d="M92 0v705h434v-53h-374v-268h353v-53h-353v-278h374v-53h-434zM299 876l-115 146h69l92 -146h-46zM178 793v46h288v-46h-288z" />
    <glyph glyph-name="uni1E15" unicode="&#x1e15;" horiz-adv-x="527" 
d="M291 -8q-112 0 -176.5 66.5t-64.5 182.5q0 75 29 132t80.5 89t118.5 32q97 0 151 -63t54 -173v-28h-373q3 -90 49.5 -138.5t129.5 -48.5q45 0 84.5 14t77.5 47l24 -46q-32 -31 -82 -48.5t-102 -17.5zM279 445q-76 0 -118.5 -47.5t-49.5 -122.5h317q-2 80 -40 125t-109 45
zM256 656l-115 146h69l92 -146h-46zM135 573v46h288v-46h-288z" />
    <glyph glyph-name="uni1E16" unicode="&#x1e16;" horiz-adv-x="576" 
d="M92 0v705h434v-53h-374v-268h353v-53h-353v-278h374v-53h-434zM299 876l92 146h70l-116 -146h-46zM178 793v46h288v-46h-288z" />
    <glyph glyph-name="uni1E17" unicode="&#x1e17;" horiz-adv-x="527" 
d="M291 -8q-112 0 -176.5 66.5t-64.5 182.5q0 75 29 132t80.5 89t118.5 32q97 0 151 -63t54 -173v-28h-373q3 -90 49.5 -138.5t129.5 -48.5q45 0 84.5 14t77.5 47l24 -46q-32 -31 -82 -48.5t-102 -17.5zM279 445q-76 0 -118.5 -47.5t-49.5 -122.5h317q-2 80 -40 125t-109 45
zM256 656l92 146h70l-116 -146h-46zM135 573v46h288v-46h-288z" />
    <glyph glyph-name="uni1E1C" unicode="&#x1e1c;" horiz-adv-x="576" 
d="M92 0v705h434v-53h-374v-268h353v-53h-353v-278h374v-53h-434zM326 -191q-52 0 -83 19l11 39q18 -9 34 -13t39 -4q27 0 43.5 10.5t16.5 29.5q0 30 -38 30q-11 0 -22.5 -1.5t-26.5 -7.5l-16 14l14 95h45l-11 -66q12 2 22 2q34 0 57.5 -17.5t23.5 -49.5q0 -36 -30 -58
t-79 -22zM322 760q-67 0 -111.5 45t-51.5 123l42 5q4 -61 36.5 -94.5t84.5 -33.5t84.5 33.5t36.5 94.5l42 -5q-7 -78 -51.5 -123t-111.5 -45z" />
    <glyph glyph-name="uni1E1D" unicode="&#x1e1d;" horiz-adv-x="527" 
d="M291 -8q-112 0 -176.5 66.5t-64.5 182.5q0 75 29 132t80.5 89t118.5 32q97 0 151 -63t54 -173v-28h-373q3 -90 49.5 -138.5t129.5 -48.5q45 0 84.5 14t77.5 47l24 -46q-32 -31 -82 -48.5t-102 -17.5zM279 445q-76 0 -118.5 -47.5t-49.5 -122.5h317q-2 80 -40 125t-109 45
zM283 -191q-52 0 -83 19l11 39q18 -9 34 -13t39 -4q27 0 43.5 10.5t16.5 29.5q0 30 -38 30q-11 0 -22.5 -1.5t-26.5 -7.5l-16 14l14 95h45l-11 -66q12 2 22 2q34 0 57.5 -17.5t23.5 -49.5q0 -36 -30 -58t-79 -22zM279 548q-65 0 -104.5 50t-44.5 138l42 5q3 -71 31 -109.5
t76 -38.5t76 38.5t31 109.5l42 -5q-5 -88 -44.5 -138t-104.5 -50z" />
    <glyph glyph-name="uni1E20" unicode="&#x1e20;" horiz-adv-x="722" 
d="M405 -8q-167 0 -254 95t-87 266q0 111 38.5 192t111 124.5t175.5 43.5q153 0 244 -91l-27 -50q-49 45 -101 64.5t-117 19.5q-125 0 -192 -79.5t-67 -223.5q0 -149 69.5 -227t207.5 -78q94 0 175 32v229h-187v52h242v-321q-26 -14 -64.5 -25t-82 -17t-84.5 -6zM228 818v47
h318v-47h-318z" />
    <glyph glyph-name="uni1E21" unicode="&#x1e21;" horiz-adv-x="578" 
d="M291 -188q-127 0 -211 67l23 46q46 -33 89 -47.5t97 -14.5q73 0 111 40t38 116v94q-21 -48 -66.5 -75t-103.5 -27q-68 0 -116.5 30.5t-75 85t-26.5 126.5t26.5 126t75 84.5t116.5 30.5q58 0 103 -27t66 -74v92h60v-457q0 -216 -206 -216zM275 63q75 0 119 51.5t44 138.5
t-44 138t-119 51q-76 0 -119.5 -51t-43.5 -138t43.5 -138.5t119.5 -51.5zM147 629v46h288v-46h-288z" />
    <glyph glyph-name="uni1E24" unicode="&#x1e24;" horiz-adv-x="756" 
d="M92 0v705h61v-320h450v320h61v-705h-61v330h-450v-330h-61zM340 -179v75h78v-75h-78z" />
    <glyph glyph-name="uni1E25" unicode="&#x1e25;" horiz-adv-x="560" 
d="M80 0v705h61v-304q25 46 69.5 69.5t98.5 23.5q173 0 173 -188v-306h-61v301q0 72 -29 106t-92 34q-72 0 -115.5 -44.5t-43.5 -119.5v-277h-61zM242 -179v75h78v-75h-78z" />
    <glyph glyph-name="uni1E2A" unicode="&#x1e2a;" horiz-adv-x="756" 
d="M92 0v705h61v-320h450v320h61v-705h-61v330h-450v-330h-61zM379 -215q-65 0 -104.5 39.5t-44.5 108.5l42 5q3 -51 31 -79.5t76 -28.5t76 28.5t31 79.5l42 -5q-5 -69 -44.5 -108.5t-104.5 -39.5z" />
    <glyph glyph-name="uni1E2B" unicode="&#x1e2b;" horiz-adv-x="560" 
d="M80 0v705h61v-304q25 46 69.5 69.5t98.5 23.5q173 0 173 -188v-306h-61v301q0 72 -29 106t-92 34q-72 0 -115.5 -44.5t-43.5 -119.5v-277h-61zM281 -215q-65 0 -104.5 39.5t-44.5 108.5l42 5q3 -51 31 -79.5t76 -28.5t76 28.5t31 79.5l42 -5q-5 -69 -44.5 -108.5
t-104.5 -39.5z" />
    <glyph glyph-name="uni1E2E" unicode="&#x1e2e;" horiz-adv-x="245" 
d="M92 0v705h61v-705h-61zM99 876l92 146h70l-116 -146h-46zM2 771v66h73v-66h-73zM169 771v66h73v-66h-73z" />
    <glyph glyph-name="uni1E2F" unicode="&#x1e2f;" horiz-adv-x="222" 
d="M80 0v485h61v-485h-61zM88 656l92 146h70l-116 -146h-46zM-9 551v66h73v-66h-73zM158 551v66h73v-66h-73z" />
    <glyph glyph-name="uni1E36" unicode="&#x1e36;" horiz-adv-x="535" 
d="M92 0v705h61v-650h368v-55h-429zM267 -179v75h78v-75h-78z" />
    <glyph glyph-name="uni1E37" unicode="&#x1e37;" horiz-adv-x="285" 
d="M221 -8q-68 0 -104.5 41.5t-36.5 119.5v552h61v-545q0 -115 90 -115q25 0 46 6l-2 -53q-29 -6 -54 -6zM145 -179v75h78v-75h-78z" />
    <glyph glyph-name="uni1E3A" unicode="&#x1e3a;" horiz-adv-x="535" 
d="M92 0v705h61v-650h368v-55h-429zM162 -152v46h288v-46h-288z" />
    <glyph glyph-name="uni1E3B" unicode="&#x1e3b;" horiz-adv-x="285" 
d="M221 -8q-68 0 -104.5 41.5t-36.5 119.5v552h61v-545q0 -115 90 -115q25 0 46 6l-2 -53q-29 -6 -54 -6zM40 -152v46h288v-46h-288z" />
    <glyph glyph-name="uni1E42" unicode="&#x1e42;" horiz-adv-x="849" 
d="M94 0v705h52l280 -531l278 531h52v-705h-57v586l-251 -477h-44l-254 476v-585h-56zM386 -179v75h78v-75h-78z" />
    <glyph glyph-name="uni1E43" unicode="&#x1e43;" horiz-adv-x="847" 
d="M82 0v485h60v-85q45 94 153 94q116 0 147 -101q21 47 64 74t100 27q161 0 161 -188v-306h-61v301q0 72 -25.5 106t-85.5 34q-64 0 -102 -44.5t-38 -120.5v-276h-61v301q0 72 -25.5 106t-84.5 34q-65 0 -103 -44.5t-38 -120.5v-276h-61zM386 -179v75h78v-75h-78z" />
    <glyph glyph-name="uni1E44" unicode="&#x1e44;" horiz-adv-x="736" 
d="M92 0v705h49l446 -601v601h57v-705h-48l-447 602v-602h-57zM330 813v75h76v-75h-76z" />
    <glyph glyph-name="uni1E45" unicode="&#x1e45;" horiz-adv-x="560" 
d="M80 0v485h60v-87q24 48 69 72t100 24q173 0 173 -188v-306h-61v301q0 72 -29 106t-92 34q-72 0 -115.5 -44.5t-43.5 -119.5v-277h-61zM242 614v75h78v-75h-78z" />
    <glyph glyph-name="uni1E46" unicode="&#x1e46;" horiz-adv-x="736" 
d="M92 0v705h49l446 -601v601h57v-705h-48l-447 602v-602h-57zM329 -179v75h78v-75h-78z" />
    <glyph glyph-name="uni1E47" unicode="&#x1e47;" horiz-adv-x="560" 
d="M80 0v485h60v-87q24 48 69 72t100 24q173 0 173 -188v-306h-61v301q0 72 -29 106t-92 34q-72 0 -115.5 -44.5t-43.5 -119.5v-277h-61zM242 -179v75h78v-75h-78z" />
    <glyph glyph-name="uni1E48" unicode="&#x1e48;" horiz-adv-x="736" 
d="M92 0v705h49l446 -601v601h57v-705h-48l-447 602v-602h-57zM224 -152v46h288v-46h-288z" />
    <glyph glyph-name="uni1E49" unicode="&#x1e49;" horiz-adv-x="560" 
d="M80 0v485h60v-87q24 48 69 72t100 24q173 0 173 -188v-306h-61v301q0 72 -29 106t-92 34q-72 0 -115.5 -44.5t-43.5 -119.5v-277h-61zM137 -152v46h288v-46h-288z" />
    <glyph glyph-name="uni1E4C" unicode="&#x1e4c;" horiz-adv-x="759" 
d="M379 -8q-97 0 -167.5 44t-109 125t-38.5 192t38 192t109 124.5t168 43.5q98 0 168.5 -43.5t109 -124t38.5 -191.5q0 -112 -38.5 -193t-109.5 -125t-168 -44zM379 48q119 0 185 80t66 225t-65.5 224.5t-185.5 79.5q-119 0 -184.5 -80t-65.5 -224t65.5 -224.5t184.5 -80.5z
M356 876l92 146h70l-116 -146h-46zM444 768q-18 0 -35 7.5t-40 24.5q-20 15 -31.5 19.5t-21.5 4.5q-22 0 -33.5 -13.5t-16.5 -44.5l-39 2q4 50 28 74.5t60 24.5q17 0 32.5 -6.5t38.5 -23.5q21 -15 33 -20.5t23 -5.5q23 0 34 13.5t16 44.5l39 -2q-4 -50 -27.5 -74.5
t-59.5 -24.5z" />
    <glyph glyph-name="uni1E4D" unicode="&#x1e4d;" horiz-adv-x="547" 
d="M273 -8q-68 0 -118 30.5t-77.5 87t-27.5 133.5q0 76 27.5 132.5t77.5 87.5t118 31q69 0 119 -31t77.5 -87.5t27.5 -132.5q0 -77 -27.5 -133.5t-77.5 -87t-119 -30.5zM273 43q74 0 118 52.5t44 147.5t-44 147t-118 52t-117.5 -52t-43.5 -147t43.5 -147.5t117.5 -52.5z
M250 656l92 146h70l-116 -146h-46zM160 546l-39 2q4 50 28 74.5t60 24.5q17 0 33.5 -7t39.5 -24q33 -25 54 -25q23 0 34 13.5t16 44.5l39 -2q-4 -50 -27.5 -74.5t-59.5 -24.5q-18 0 -35 7.5t-39 23.5q-34 25 -54 25q-22 0 -33.5 -13.5t-16.5 -44.5z" />
    <glyph glyph-name="uni1E4E" unicode="&#x1e4e;" horiz-adv-x="759" 
d="M379 -8q-97 0 -167.5 44t-109 125t-38.5 192t38 192t109 124.5t168 43.5q98 0 168.5 -43.5t109 -124t38.5 -191.5q0 -112 -38.5 -193t-109.5 -125t-168 -44zM379 48q119 0 185 80t66 225t-65.5 224.5t-185.5 79.5q-119 0 -184.5 -80t-65.5 -224t65.5 -224.5t184.5 -80.5z
M259 911v66h73v-66h-73zM426 911v66h73v-66h-73zM444 768q-18 0 -35 7.5t-40 24.5q-20 15 -31.5 19.5t-21.5 4.5q-22 0 -33.5 -13.5t-16.5 -44.5l-39 2q4 50 28 74.5t60 24.5q17 0 32.5 -6.5t38.5 -23.5q21 -15 33 -20.5t23 -5.5q23 0 34 13.5t16 44.5l39 -2
q-4 -50 -27.5 -74.5t-59.5 -24.5z" />
    <glyph glyph-name="uni1E4F" unicode="&#x1e4f;" horiz-adv-x="547" 
d="M273 -8q-68 0 -118 30.5t-77.5 87t-27.5 133.5q0 76 27.5 132.5t77.5 87.5t118 31q69 0 119 -31t77.5 -87.5t27.5 -132.5q0 -77 -27.5 -133.5t-77.5 -87t-119 -30.5zM273 43q74 0 118 52.5t44 147.5t-44 147t-118 52t-117.5 -52t-43.5 -147t43.5 -147.5t117.5 -52.5z
M153 691v66h73v-66h-73zM320 691v66h73v-66h-73zM160 546l-39 2q4 50 28 74.5t60 24.5q17 0 33.5 -7t39.5 -24q33 -25 54 -25q23 0 34 13.5t16 44.5l39 -2q-4 -50 -27.5 -74.5t-59.5 -24.5q-18 0 -35 7.5t-39 23.5q-34 25 -54 25q-22 0 -33.5 -13.5t-16.5 -44.5z" />
    <glyph glyph-name="uni1E50" unicode="&#x1e50;" horiz-adv-x="759" 
d="M379 -8q-97 0 -167.5 44t-109 125t-38.5 192t38 192t109 124.5t168 43.5q98 0 168.5 -43.5t109 -124t38.5 -191.5q0 -112 -38.5 -193t-109.5 -125t-168 -44zM379 48q119 0 185 80t66 225t-65.5 224.5t-185.5 79.5q-119 0 -184.5 -80t-65.5 -224t65.5 -224.5t184.5 -80.5z
M356 876l-115 146h69l92 -146h-46zM235 793v46h288v-46h-288z" />
    <glyph glyph-name="uni1E51" unicode="&#x1e51;" horiz-adv-x="547" 
d="M273 -8q-68 0 -118 30.5t-77.5 87t-27.5 133.5q0 76 27.5 132.5t77.5 87.5t118 31q69 0 119 -31t77.5 -87.5t27.5 -132.5q0 -77 -27.5 -133.5t-77.5 -87t-119 -30.5zM273 43q74 0 118 52.5t44 147.5t-44 147t-118 52t-117.5 -52t-43.5 -147t43.5 -147.5t117.5 -52.5z
M250 656l-115 146h69l92 -146h-46zM129 573v46h288v-46h-288z" />
    <glyph glyph-name="uni1E52" unicode="&#x1e52;" horiz-adv-x="759" 
d="M379 -8q-97 0 -167.5 44t-109 125t-38.5 192t38 192t109 124.5t168 43.5q98 0 168.5 -43.5t109 -124t38.5 -191.5q0 -112 -38.5 -193t-109.5 -125t-168 -44zM379 48q119 0 185 80t66 225t-65.5 224.5t-185.5 79.5q-119 0 -184.5 -80t-65.5 -224t65.5 -224.5t184.5 -80.5z
M356 876l92 146h70l-116 -146h-46zM235 793v46h288v-46h-288z" />
    <glyph glyph-name="uni1E53" unicode="&#x1e53;" horiz-adv-x="547" 
d="M273 -8q-68 0 -118 30.5t-77.5 87t-27.5 133.5q0 76 27.5 132.5t77.5 87.5t118 31q69 0 119 -31t77.5 -87.5t27.5 -132.5q0 -77 -27.5 -133.5t-77.5 -87t-119 -30.5zM273 43q74 0 118 52.5t44 147.5t-44 147t-118 52t-117.5 -52t-43.5 -147t43.5 -147.5t117.5 -52.5z
M250 656l92 146h70l-116 -146h-46zM129 573v46h288v-46h-288z" />
    <glyph glyph-name="uni1E5A" unicode="&#x1e5a;" horiz-adv-x="661" 
d="M92 0v705h266q113 0 172.5 -52t59.5 -148q0 -79 -43 -128t-122 -63q43 -16 76 -78l128 -236h-67l-122 226q-26 47 -58 63t-86 16h-143v-305h-61zM153 357h197q178 0 178 148q0 147 -178 147h-197v-295zM298 -179v75h78v-75h-78z" />
    <glyph glyph-name="uni1E5B" unicode="&#x1e5b;" horiz-adv-x="342" 
d="M80 0v485h60v-88q21 46 61 70t102 28l25 2l6 -53l-43 -5q-71 -6 -110 -46.5t-39 -108.5v-284h-62zM72 -179v75h78v-75h-78z" />
    <glyph glyph-name="uni1E5E" unicode="&#x1e5e;" horiz-adv-x="661" 
d="M92 0v705h266q113 0 172.5 -52t59.5 -148q0 -79 -43 -128t-122 -63q43 -16 76 -78l128 -236h-67l-122 226q-26 47 -58 63t-86 16h-143v-305h-61zM153 357h197q178 0 178 148q0 147 -178 147h-197v-295zM193 -152v46h288v-46h-288z" />
    <glyph glyph-name="uni1E5F" unicode="&#x1e5f;" horiz-adv-x="342" 
d="M80 0v485h60v-88q21 46 61 70t102 28l25 2l6 -53l-43 -5q-71 -6 -110 -46.5t-39 -108.5v-284h-62zM-33 -152v46h288v-46h-288z" />
    <glyph glyph-name="uni1E60" unicode="&#x1e60;" horiz-adv-x="607" 
d="M312 -8q-82 0 -147.5 21.5t-113.5 63.5l24 51q52 -41 106.5 -60.5t130.5 -19.5q95 0 142.5 37t47.5 97q0 50 -34.5 78t-113.5 44l-101 21q-94 19 -140.5 64t-46.5 120q0 61 31.5 107t87.5 71.5t129 25.5q146 0 233 -88l-24 -50q-46 43 -96 62.5t-113 19.5
q-84 0 -134.5 -40t-50.5 -107q0 -53 32 -83.5t103 -44.5l102 -21q101 -21 150 -62.5t49 -113.5q0 -57 -30.5 -100.5t-87.5 -68t-135 -24.5zM271 813v75h76v-75h-76z" />
    <glyph glyph-name="uni1E61" unicode="&#x1e61;" horiz-adv-x="478" 
d="M238 -8q-54 0 -103.5 16t-81.5 46l22 45q37 -30 79 -43.5t86 -13.5q62 0 93.5 22.5t31.5 62.5q0 31 -21 49t-66 29l-87 20q-123 28 -123 127q0 64 50 103t132 39q50 0 94 -16.5t72 -47.5l-24 -45q-29 29 -66 43.5t-77 14.5q-58 0 -89.5 -24t-31.5 -65q0 -31 19 -50
t62 -29l87 -20q65 -15 97 -44.5t32 -79.5q0 -65 -51 -102t-136 -37zM209 614v75h78v-75h-78z" />
    <glyph glyph-name="uni1E62" unicode="&#x1e62;" horiz-adv-x="607" 
d="M312 -8q-82 0 -147.5 21.5t-113.5 63.5l24 51q52 -41 106.5 -60.5t130.5 -19.5q95 0 142.5 37t47.5 97q0 50 -34.5 78t-113.5 44l-101 21q-94 19 -140.5 64t-46.5 120q0 61 31.5 107t87.5 71.5t129 25.5q146 0 233 -88l-24 -50q-46 43 -96 62.5t-113 19.5
q-84 0 -134.5 -40t-50.5 -107q0 -53 32 -83.5t103 -44.5l102 -21q101 -21 150 -62.5t49 -113.5q0 -57 -30.5 -100.5t-87.5 -68t-135 -24.5zM274 -179v75h78v-75h-78z" />
    <glyph glyph-name="uni1E63" unicode="&#x1e63;" horiz-adv-x="478" 
d="M238 -8q-54 0 -103.5 16t-81.5 46l22 45q37 -30 79 -43.5t86 -13.5q62 0 93.5 22.5t31.5 62.5q0 31 -21 49t-66 29l-87 20q-123 28 -123 127q0 64 50 103t132 39q50 0 94 -16.5t72 -47.5l-24 -45q-29 29 -66 43.5t-77 14.5q-58 0 -89.5 -24t-31.5 -65q0 -31 19 -50
t62 -29l87 -20q65 -15 97 -44.5t32 -79.5q0 -65 -51 -102t-136 -37zM199 -179v75h78v-75h-78z" />
    <glyph glyph-name="uni1E64" unicode="&#x1e64;" horiz-adv-x="607" 
d="M312 -8q-82 0 -147.5 21.5t-113.5 63.5l24 51q52 -41 106.5 -60.5t130.5 -19.5q95 0 142.5 37t47.5 97q0 50 -34.5 78t-113.5 44l-101 21q-94 19 -140.5 64t-46.5 120q0 61 31.5 107t87.5 71.5t129 25.5q146 0 233 -88l-24 -50q-46 43 -96 62.5t-113 19.5
q-84 0 -134.5 -40t-50.5 -107q0 -53 32 -83.5t103 -44.5l102 -21q101 -21 150 -62.5t49 -113.5q0 -57 -30.5 -100.5t-87.5 -68t-135 -24.5zM235 943v66h74v-66h-74zM284 765l118 171h73l-141 -171h-50z" />
    <glyph glyph-name="uni1E65" unicode="&#x1e65;" horiz-adv-x="478" 
d="M238 -8q-54 0 -103.5 16t-81.5 46l22 45q37 -30 79 -43.5t86 -13.5q62 0 93.5 22.5t31.5 62.5q0 31 -21 49t-66 29l-87 20q-123 28 -123 127q0 64 50 103t132 39q50 0 94 -16.5t72 -47.5l-24 -45q-29 29 -66 43.5t-77 14.5q-58 0 -89.5 -24t-31.5 -65q0 -31 19 -50
t62 -29l87 -20q65 -15 97 -44.5t32 -79.5q0 -65 -51 -102t-136 -37zM175 758v66h73v-66h-73zM225 550l104 201h70l-128 -201h-46z" />
    <glyph glyph-name="uni1E66" unicode="&#x1e66;" horiz-adv-x="607" 
d="M312 -8q-82 0 -147.5 21.5t-113.5 63.5l24 51q52 -41 106.5 -60.5t130.5 -19.5q95 0 142.5 37t47.5 97q0 50 -34.5 78t-113.5 44l-101 21q-94 19 -140.5 64t-46.5 120q0 61 31.5 107t87.5 71.5t129 25.5q146 0 233 -88l-24 -50q-46 43 -96 62.5t-113 19.5
q-84 0 -134.5 -40t-50.5 -107q0 -53 32 -83.5t103 -44.5l102 -21q101 -21 150 -62.5t49 -113.5q0 -57 -30.5 -100.5t-87.5 -68t-135 -24.5zM273 973v66h73v-66h-73zM278 765l-109 160h45l95 -114l95 114h45l-109 -160h-62z" />
    <glyph glyph-name="uni1E67" unicode="&#x1e67;" horiz-adv-x="478" 
d="M238 -8q-54 0 -103.5 16t-81.5 46l22 45q37 -30 79 -43.5t86 -13.5q62 0 93.5 22.5t31.5 62.5q0 31 -21 49t-66 29l-87 20q-123 28 -123 127q0 64 50 103t132 39q50 0 94 -16.5t72 -47.5l-24 -45q-29 29 -66 43.5t-77 14.5q-58 0 -89.5 -24t-31.5 -65q0 -31 19 -50
t62 -29l87 -20q65 -15 97 -44.5t32 -79.5q0 -65 -51 -102t-136 -37zM212 758v67h73v-67h-73zM217 550l-109 160h45l95 -114l95 114h45l-109 -160h-62z" />
    <glyph glyph-name="uni1E68" unicode="&#x1e68;" horiz-adv-x="607" 
d="M312 -8q-82 0 -147.5 21.5t-113.5 63.5l24 51q52 -41 106.5 -60.5t130.5 -19.5q95 0 142.5 37t47.5 97q0 50 -34.5 78t-113.5 44l-101 21q-94 19 -140.5 64t-46.5 120q0 61 31.5 107t87.5 71.5t129 25.5q146 0 233 -88l-24 -50q-46 43 -96 62.5t-113 19.5
q-84 0 -134.5 -40t-50.5 -107q0 -53 32 -83.5t103 -44.5l102 -21q101 -21 150 -62.5t49 -113.5q0 -57 -30.5 -100.5t-87.5 -68t-135 -24.5zM274 -179v75h78v-75h-78zM271 813v75h76v-75h-76z" />
    <glyph glyph-name="uni1E69" unicode="&#x1e69;" horiz-adv-x="478" 
d="M238 -8q-54 0 -103.5 16t-81.5 46l22 45q37 -30 79 -43.5t86 -13.5q62 0 93.5 22.5t31.5 62.5q0 31 -21 49t-66 29l-87 20q-123 28 -123 127q0 64 50 103t132 39q50 0 94 -16.5t72 -47.5l-24 -45q-29 29 -66 43.5t-77 14.5q-58 0 -89.5 -24t-31.5 -65q0 -31 19 -50
t62 -29l87 -20q65 -15 97 -44.5t32 -79.5q0 -65 -51 -102t-136 -37zM199 -179v75h78v-75h-78zM209 614v75h78v-75h-78z" />
    <glyph glyph-name="uni1E6C" unicode="&#x1e6c;" horiz-adv-x="594" 
d="M266 0v650h-263v55h588v-55h-263v-650h-62zM258 -179v75h78v-75h-78z" />
    <glyph glyph-name="uni1E6D" unicode="&#x1e6d;" horiz-adv-x="335" 
d="M263 -8q-81 0 -121.5 44t-40.5 126v274h-96v49h96v150h61v-150h157v-49h-157v-266q0 -61 25 -93t83 -32q17 0 33 4t28 9l12 -48q-11 -7 -35 -12.5t-45 -5.5zM170 -179v75h78v-75h-78z" />
    <glyph glyph-name="uni1E6E" unicode="&#x1e6e;" horiz-adv-x="594" 
d="M266 0v650h-263v55h588v-55h-263v-650h-62zM153 -152v46h288v-46h-288z" />
    <glyph glyph-name="uni1E6F" unicode="&#x1e6f;" horiz-adv-x="335" 
d="M263 -8q-81 0 -121.5 44t-40.5 126v274h-96v49h96v150h61v-150h157v-49h-157v-266q0 -61 25 -93t83 -32q17 0 33 4t28 9l12 -48q-11 -7 -35 -12.5t-45 -5.5zM65 -152v46h288v-46h-288z" />
    </font>
</defs>
</svg>
