<?xml version="1.0" standalone="no"?>
<!DOCTYPE svg PUBLIC "-//W3C//DTD SVG 1.1//EN" "http://www.w3.org/Graphics/SVG/1.1/DTD/svg11.dtd" >
<svg xmlns="http://www.w3.org/2000/svg" xmlns:xlink="http://www.w3.org/1999/xlink" version="1.1">
<metadata>
Created by FontForge 20170731 at Mon Jun 29 15:02:24 2020
 By Aleksey,,,
Copyright 2016 The Nunito Sans Project Authors (https://github.com/Fonthausen/NunitoSans)
</metadata>
<defs>
<font id="NunitoSans-SemiBold" horiz-adv-x="0" >
  <font-face 
    font-family="Nunito Sans SemiBold"
    font-weight="600"
    font-stretch="normal"
    units-per-em="1000"
    panose-1="0 0 0 0 0 0 0 0 0 0"
    ascent="800"
    descent="-200"
    x-height="488"
    cap-height="705"
    bbox="-259 -273 1311 1047"
    underline-thickness="39"
    underline-position="-141"
    unicode-range="U+000D-FB02"
  />
<missing-glyph horiz-adv-x="500" 
d="M50 -180v885h400v-885h-400zM100 -130h300v785h-300v-785z" />
    <glyph glyph-name="fi" unicode="fi" horiz-adv-x="582" 
d="M100 0v410h-95v78h95v9q0 101 51.5 152t158.5 57l40 2l6 -76l-41 -2q-61 -4 -87.5 -33t-26.5 -86v-23h311v-488h-101v410h-210v-410h-101zM402 601v105h118v-105h-118z" />
    <glyph glyph-name="fl" unicode="fl" horiz-adv-x="654" 
d="M100 0v410h-95v78h95v9q0 101 51.5 152t158.5 57l44 3l7 -76l-46 -3q-61 -4 -87.5 -33t-26.5 -86v-23h137v-78h-137v-410h-101zM577 -9q-80 0 -119.5 45t-39.5 132v537h101v-531q0 -99 81 -99q12 0 22.5 1t21.5 4l-2 -81q-34 -8 -65 -8z" />
    <glyph glyph-name=".notdef" horiz-adv-x="500" 
d="M50 -180v885h400v-885h-400zM100 -130h300v785h-300v-785z" />
    <glyph glyph-name=".null" 
 />
    <glyph glyph-name="nonmarkingreturn" horiz-adv-x="333" 
 />
    <glyph glyph-name="NULL" 
 />
    <glyph glyph-name="NULL" 
 />
    <glyph glyph-name="CR" unicode="&#xd;" horiz-adv-x="263" 
 />
    <glyph glyph-name="space" unicode=" " horiz-adv-x="263" 
 />
    <glyph glyph-name="exclam" unicode="!" horiz-adv-x="237" 
d="M88 195l-32 510h125l-31 -510h-62zM59 0v119h119v-119h-119z" />
    <glyph glyph-name="quotedbl" unicode="&#x22;" horiz-adv-x="417" 
d="M82 422l-25 283h118l-25 -283h-68zM268 422l-25 283h118l-25 -283h-68z" />
    <glyph glyph-name="numbersign" unicode="#" horiz-adv-x="600" 
d="M85 0l35 177h-81v69h94l43 221h-116v69h128l34 169h74l-34 -169h144l34 169h74l-34 -169h81v-69h-94l-43 -221h116v-69h-128l-35 -177h-74l35 177h-144l-35 -177h-74zM207 246h143l43 221h-143z" />
    <glyph glyph-name="dollar" unicode="$" horiz-adv-x="600" 
d="M269 -115v110q-67 4 -126 24.5t-103 57.5l34 82q48 -38 102.5 -57t123.5 -19q79 0 117.5 30t38.5 77q0 40 -27 63.5t-91 37.5l-103 22q-90 20 -135 65.5t-45 121.5q0 57 26.5 101t74.5 72t113 35v112h82v-112q52 -5 101.5 -25.5t85.5 -56.5l-33 -79q-39 38 -88 56.5
t-108 18.5q-69 0 -110.5 -33t-41.5 -86q0 -41 26 -65t83 -37l103 -22q96 -20 143 -64.5t47 -117.5q0 -83 -58 -135.5t-150 -63.5v-113h-82z" />
    <glyph glyph-name="percent" unicode="%" horiz-adv-x="937" 
d="M296 -26l-68 40l413 717l68 -40zM224 283q-82 0 -128 57.5t-46 158.5t46.5 158t127.5 57t127.5 -57t46.5 -158t-46 -158.5t-128 -57.5zM224 354q42 0 65.5 36t23.5 109t-23.5 109t-65.5 36t-65.5 -36t-23.5 -109q0 -74 23.5 -109.5t65.5 -35.5zM713 -9q-81 0 -127 57
t-46 159q0 100 46 157.5t127 57.5q82 0 128 -57.5t46 -157.5q0 -102 -46 -159t-128 -57zM713 61q42 0 65.5 36t23.5 110q0 72 -23.5 108t-65.5 36t-65.5 -35.5t-23.5 -108.5q0 -74 23.5 -110t65.5 -36z" />
    <glyph glyph-name="ampersand" unicode="&#x26;" horiz-adv-x="708" 
d="M293 -9q-109 0 -171 50t-62 133q0 68 37 118t108 94l12 7q-43 45 -60.5 82.5t-17.5 77.5q0 72 50 116.5t133 44.5q75 0 121 -40t46 -108q0 -52 -30.5 -96.5t-105.5 -91.5l151 -166q20 41 32 94.5t15 111.5h85q-2 -77 -21 -145.5t-51 -121.5l145 -151h-123l-76 83
q-42 -44 -98 -68t-119 -24zM322 640q-40 0 -64.5 -23.5t-24.5 -61.5q0 -29 13.5 -53t50.5 -66q58 36 82 64t24 62q0 37 -22.5 57.5t-58.5 20.5zM298 72q94 0 155 69l-181 193l-6 -4q-58 -37 -82 -69.5t-24 -78.5q0 -52 35.5 -81t102.5 -29z" />
    <glyph glyph-name="quotesingle" unicode="'" horiz-adv-x="230" 
d="M82 422l-25 283h118l-25 -283h-68z" />
    <glyph glyph-name="parenleft" unicode="(" horiz-adv-x="336" 
d="M230 -194q-68 111 -98.5 224.5t-30.5 232.5t30.5 232.5t98.5 224.5l71 -28q-48 -113 -70 -216t-22 -213q0 -109 22 -212.5t70 -216.5z" />
    <glyph glyph-name="parenright" unicode=")" horiz-adv-x="336" 
d="M106 -194l-71 28q47 115 69 218t22 211t-22 211t-69 218l71 28q68 -112 98.5 -225.5t30.5 -231.5q0 -119 -30.5 -232.5t-98.5 -224.5z" />
    <glyph glyph-name="asterisk" unicode="*" horiz-adv-x="451" 
d="M160 346l-64 37l75 118l-139 -6v73l140 -7l-75 119l63 37l66 -131l65 131l64 -38l-76 -118l140 7v-73l-140 6l76 -118l-64 -36l-65 131z" />
    <glyph glyph-name="plus" unicode="+" horiz-adv-x="600" 
d="M262 40v210h-206v74h206v204h76v-204h206v-74h-206v-210h-76z" />
    <glyph glyph-name="comma" unicode="," horiz-adv-x="237" 
d="M110 -123l-44 34q23 25 34 46t14 43h-55v119h119v-81q0 -46 -15 -84.5t-53 -76.5z" />
    <glyph glyph-name="hyphen" unicode="-" horiz-adv-x="429" 
d="M70 226v82h288v-82h-288z" />
    <glyph glyph-name="period" unicode="." horiz-adv-x="237" 
d="M59 0v119h119v-119h-119z" />
    <glyph glyph-name="slash" unicode="/" horiz-adv-x="297" 
d="M58 -66l-77 23l257 798l78 -23z" />
    <glyph glyph-name="zero" unicode="0" horiz-adv-x="600" 
d="M300 -9q-123 0 -187.5 93.5t-64.5 268.5q0 178 64.5 269.5t187.5 91.5q124 0 188 -91.5t64 -268.5q0 -176 -64.5 -269.5t-187.5 -93.5zM300 77q76 0 113 67t37 210t-36.5 208.5t-113.5 65.5q-76 0 -113 -66t-37 -208q0 -143 37 -210t113 -67z" />
    <glyph glyph-name="one" unicode="1" horiz-adv-x="600" 
d="M117 0v87h160v498l-125 -78l-42 77l197 121h73v-618h150v-87h-413z" />
    <glyph glyph-name="two" unicode="2" horiz-adv-x="600" 
d="M85 0v77l235 252q49 53 70.5 96t21.5 87q0 114 -134 114q-102 0 -183 -77l-37 79q40 39 102 62.5t129 23.5q109 0 167.5 -50t58.5 -143q0 -63 -30.5 -123t-95.5 -128l-174 -183h328v-87h-458z" />
    <glyph glyph-name="three" unicode="3" horiz-adv-x="600" 
d="M289 -9q-71 0 -135 21.5t-107 60.5l36 80q47 -38 97 -56t106 -18q72 0 109.5 31t37.5 89t-37.5 86t-108.5 28h-109v87h99q63 0 99.5 32t36.5 88q0 51 -34 78.5t-97 27.5q-107 0 -187 -77l-36 79q41 41 102.5 63.5t128.5 22.5q106 0 165 -48.5t59 -134.5q0 -58 -29.5 -102
t-81.5 -64q63 -16 97 -61.5t34 -111.5q0 -93 -65.5 -147t-179.5 -54z" />
    <glyph glyph-name="four" unicode="4" horiz-adv-x="600" 
d="M364 0v143h-317v77l335 485h85v-475h103v-87h-103v-143h-103zM364 230v313l-214 -313h214z" />
    <glyph glyph-name="five" unicode="5" horiz-adv-x="600" 
d="M311 -9q-68 0 -131.5 21.5t-105.5 60.5l35 80q92 -74 200 -74q69 0 108 37.5t39 98.5q0 63 -37 103t-103 40q-93 0 -149 -77h-72v424h420v-87h-319v-223q56 49 142 49q67 0 116 -28t76 -78.5t27 -117.5q0 -68 -30 -119.5t-85 -80.5t-131 -29z" />
    <glyph glyph-name="six" unicode="6" horiz-adv-x="600" 
d="M325 -9q-128 0 -197.5 91t-69.5 255q0 181 78 279t216 98q54 0 109 -21.5t92 -60.5l-36 -78q-36 36 -79.5 54t-87.5 18q-93 0 -142.5 -67.5t-49.5 -201.5v-40q20 61 69.5 95.5t114.5 34.5q62 0 109.5 -29t74.5 -79.5t27 -115.5q0 -68 -29 -120.5t-80.5 -82t-118.5 -29.5z
M319 75q61 0 99 40t38 104t-38 104t-99 40t-99 -40t-38 -104t38 -104t99 -40z" />
    <glyph glyph-name="seven" unicode="7" horiz-adv-x="600" 
d="M100 0l323 618h-361v87h477v-77l-325 -628h-114z" />
    <glyph glyph-name="eight" unicode="8" horiz-adv-x="600" 
d="M300 -9q-121 0 -188.5 52t-67.5 145q0 65 34.5 110.5t90.5 62.5q-50 21 -79 64.5t-29 100.5q0 88 65 138t174 50q110 0 175 -50t65 -138q0 -57 -29.5 -101t-79.5 -64q57 -17 91 -62.5t34 -110.5q0 -93 -67.5 -145t-188.5 -52zM300 398q67 0 104.5 31.5t37.5 86.5
q0 54 -37.5 85t-104.5 31t-104 -31t-37 -85q0 -55 37 -86.5t104 -31.5zM300 73q159 0 159 122q0 121 -159 121q-78 0 -118.5 -30t-40.5 -91q0 -122 159 -122z" />
    <glyph glyph-name="nine" unicode="9" horiz-adv-x="600" 
d="M249 -9q-55 0 -109.5 22t-92.5 60l36 79q37 -36 80 -54.5t87 -18.5q94 0 143.5 67.5t49.5 201.5v41q-20 -61 -69.5 -96t-115.5 -35q-61 0 -109 29t-75 79.5t-27 115.5q0 68 29 120.5t80.5 82t118.5 29.5q128 0 197.5 -91t69.5 -255q0 -181 -77.5 -279t-215.5 -98z
M282 343q61 0 99 39.5t38 103.5t-38 104.5t-99 40.5t-99 -40.5t-38 -104.5t38 -103.5t99 -39.5z" />
    <glyph glyph-name="colon" unicode=":" horiz-adv-x="237" 
d="M59 369v119h119v-119h-119zM59 0v119h119v-119h-119z" />
    <glyph glyph-name="semicolon" unicode=";" horiz-adv-x="237" 
d="M59 369v119h119v-119h-119zM110 -123l-44 34q23 25 34 46t14 43h-55v119h119v-81q0 -46 -15 -84.5t-53 -76.5z" />
    <glyph glyph-name="less" unicode="&#x3c;" horiz-adv-x="600" 
d="M544 34l-488 214v78l488 215v-82l-395 -172l395 -172v-81z" />
    <glyph glyph-name="equal" unicode="=" horiz-adv-x="600" 
d="M56 350v74h488v-74h-488zM56 151v73h488v-73h-488z" />
    <glyph glyph-name="greater" unicode="&#x3e;" horiz-adv-x="600" 
d="M56 34v81l396 172l-396 172v82l488 -215v-78z" />
    <glyph glyph-name="question" unicode="?" horiz-adv-x="450" 
d="M182 195v35q0 48 18.5 90.5t63.5 94.5q35 40 49 68.5t14 60.5q0 38 -27 60t-76 22q-103 0 -186 -77l-36 79q40 39 101.5 62.5t126.5 23.5q90 0 145 -44.5t55 -116.5q0 -47 -20.5 -87.5t-71.5 -90.5q-47 -47 -66 -82.5t-23 -70.5l-4 -27h-63zM154 0v119h119v-119h-119z
" />
    <glyph glyph-name="at" unicode="@" horiz-adv-x="948" 
d="M485 -164q-127 0 -223.5 53.5t-150 151.5t-53.5 230q0 99 32 180.5t90.5 140.5t140 90.5t179.5 31.5q117 0 204.5 -46t136.5 -129.5t49 -195.5q0 -86 -24 -150t-67 -99t-101 -35q-49 0 -80 23t-39 65q-28 -44 -66.5 -66t-81.5 -22q-79 0 -122.5 49t-43.5 135
q0 73 28 130.5t77 90.5t111 33q92 0 124 -75l12 66h78l-43 -251q-6 -29 -6 -51q0 -64 57 -64q54 0 87 61t33 160q0 94 -39.5 162.5t-112.5 105.5t-172 37q-110 0 -192.5 -46.5t-128.5 -131.5t-46 -199q0 -115 43 -198t122.5 -127t187.5 -44q78 0 142 23.5t108 66.5l36 -56
q-48 -48 -122 -74t-164 -26zM444 126q41 0 73.5 25.5t51 70t18.5 101.5q0 106 -95 106q-42 0 -74.5 -24t-51 -65.5t-18.5 -95.5q0 -57 25 -87.5t71 -30.5z" />
    <glyph glyph-name="A" unicode="A" horiz-adv-x="736" 
d="M11 0l314 705h86l315 -705h-106l-74 172h-357l-73 -172h-105zM367 590l-141 -334h285l-142 334h-2z" />
    <glyph glyph-name="B" unicode="B" horiz-adv-x="682" 
d="M82 0v705h294q110 0 170.5 -48.5t60.5 -135.5q0 -57 -30 -98t-82 -60q61 -16 95 -59t34 -109q0 -94 -62.5 -144.5t-173.5 -50.5h-306zM182 397h178q146 0 146 114t-146 114h-178v-228zM182 80h194q147 0 147 119q0 118 -147 118h-194v-237z" />
    <glyph glyph-name="C" unicode="C" horiz-adv-x="676" 
d="M398 -9q-107 0 -183 44t-116.5 125.5t-40.5 192.5t40.5 192t116.5 125t183 44q72 0 134.5 -22.5t104.5 -64.5l-36 -83q-46 41 -94.5 59.5t-105.5 18.5q-114 0 -174 -70t-60 -199t60 -199.5t174 -70.5q57 0 105.5 18.5t94.5 59.5l36 -83q-42 -41 -104.5 -64t-134.5 -23z
" />
    <glyph glyph-name="D" unicode="D" horiz-adv-x="751" 
d="M82 0v705h249q174 0 268.5 -91t94.5 -261t-94.5 -261.5t-268.5 -91.5h-249zM186 87h139q261 0 261 266q0 265 -261 265h-139v-531z" />
    <glyph glyph-name="E" unicode="E" horiz-adv-x="589" 
d="M82 0v705h456v-84h-356v-221h335v-84h-335v-232h356v-84h-456z" />
    <glyph glyph-name="F" unicode="F" horiz-adv-x="554" 
d="M82 0v705h448v-84h-344v-225h323v-84h-323v-312h-104z" />
    <glyph glyph-name="G" unicode="G" horiz-adv-x="731" 
d="M412 -9q-115 0 -194 43.5t-119.5 124.5t-40.5 193q0 111 41 192.5t119 125.5t187 44q75 0 139 -22t107 -63l-37 -81q-48 40 -98 57.5t-111 17.5q-117 0 -178 -70.5t-61 -200.5q0 -133 62.5 -202t187.5 -69q76 0 151 25v189h-172v78h259v-332q-45 -22 -111.5 -36
t-130.5 -14z" />
    <glyph glyph-name="H" unicode="H" horiz-adv-x="767" 
d="M82 0v705h104v-304h395v304h103v-705h-103v314h-395v-314h-104z" />
    <glyph glyph-name="I" unicode="I" horiz-adv-x="267" 
d="M82 0v705h104v-705h-104z" />
    <glyph glyph-name="J" unicode="J" horiz-adv-x="338" 
d="M-2 -8l-8 85l65 4q98 8 98 112v512h103v-512q0 -91 -47 -141t-139 -56z" />
    <glyph glyph-name="K" unicode="K" horiz-adv-x="643" 
d="M82 0v705h104v-317h2l327 317h128l-356 -341l376 -364h-130l-345 329h-2v-329h-104z" />
    <glyph glyph-name="L" unicode="L" horiz-adv-x="552" 
d="M82 0v705h104v-616h349v-89h-453z" />
    <glyph glyph-name="M" unicode="M" horiz-adv-x="861" 
d="M84 0v705h87l261 -487l260 487h85v-705h-93v517l-221 -409h-63l-222 407v-515h-94z" />
    <glyph glyph-name="N" unicode="N" horiz-adv-x="743" 
d="M82 0v705h79l404 -533v533h96v-705h-77l-406 535v-535h-96z" />
    <glyph glyph-name="O" unicode="O" horiz-adv-x="775" 
d="M388 -9q-101 0 -175 44.5t-114.5 126t-40.5 191.5q0 111 40.5 192t114.5 125t175 44q100 0 174.5 -44t115 -125t40.5 -191q0 -111 -40.5 -192.5t-115 -126t-174.5 -44.5zM388 81q105 0 163.5 71.5t58.5 200.5t-58 200t-164 71q-105 0 -163.5 -71t-58.5 -200t58.5 -200.5
t163.5 -71.5z" />
    <glyph glyph-name="P" unicode="P" horiz-adv-x="642" 
d="M82 0v705h292q114 0 176 -56.5t62 -158.5q0 -103 -62 -159.5t-176 -56.5h-188v-274h-104zM186 357h173q152 0 152 133q0 132 -152 132h-173v-265z" />
    <glyph glyph-name="Q" unicode="Q" horiz-adv-x="775" 
d="M581 -206l-90 145q-32 52 -104 52v0q-100 0 -174 44.5t-114.5 126t-40.5 191.5q0 111 40.5 192t114.5 125t175 44q100 0 174.5 -44t115 -125t40.5 -191q0 -125 -51.5 -212.5t-141.5 -125.5q41 -13 73 -68l70 -111zM388 81q105 0 163.5 71.5t58.5 200.5t-58 200t-164 71
q-105 0 -163.5 -71t-58.5 -200t58.5 -200.5t163.5 -71.5z" />
    <glyph glyph-name="R" unicode="R" horiz-adv-x="677" 
d="M82 0v705h292q114 0 176 -54.5t62 -152.5q0 -79 -42 -129.5t-119 -67.5q48 -16 81 -77l122 -224h-114l-122 225q-21 39 -48.5 52.5t-70.5 13.5h-113v-291h-104zM186 369h171q154 0 154 127q0 126 -154 126h-171v-253z" />
    <glyph glyph-name="S" unicode="S" horiz-adv-x="622" 
d="M317 -9q-83 0 -152 21.5t-117 60.5l33 82q50 -38 107 -57t129 -19q85 0 125.5 30.5t40.5 79.5q0 40 -29 63.5t-97 37.5l-107 22q-95 20 -141.5 66t-46.5 124q0 63 33.5 111t93.5 74.5t138 26.5q72 0 133.5 -21.5t104.5 -62.5l-34 -79q-85 75 -205 75q-74 0 -117.5 -33
t-43.5 -88q0 -42 27 -67t90 -38l106 -22q100 -21 149 -64.5t49 -117.5q0 -62 -33 -108t-93 -71.5t-143 -25.5z" />
    <glyph glyph-name="T" unicode="T" horiz-adv-x="611" 
d="M254 0v618h-250v87h603v-87h-250v-618h-103z" />
    <glyph glyph-name="U" unicode="U" horiz-adv-x="733" 
d="M367 -9q-141 0 -215.5 74.5t-74.5 218.5v421h104v-419q0 -205 186 -205t186 205v419h102v-421q0 -144 -73 -218.5t-215 -74.5z" />
    <glyph glyph-name="V" unicode="V" horiz-adv-x="700" 
d="M305 0l-311 705h111l247 -574l247 574h106l-311 -705h-89z" />
    <glyph glyph-name="W" unicode="W" horiz-adv-x="1107" 
d="M274 0l-247 705h106l189 -555l194 555h79l192 -561l193 561h101l-249 -705h-87l-191 548l-193 -548h-87z" />
    <glyph glyph-name="X" unicode="X" horiz-adv-x="660" 
d="M3 0l269 360l-258 345h120l197 -269l195 269h121l-258 -345l268 -360h-121l-206 282l-205 -282h-122z" />
    <glyph glyph-name="Y" unicode="Y" horiz-adv-x="606" 
d="M251 0v329l-270 376h120l204 -285l204 285h115l-270 -377v-328h-103z" />
    <glyph glyph-name="Z" unicode="Z" horiz-adv-x="596" 
d="M48 0v76l390 542h-390v87h512v-76l-391 -542h406v-87h-527z" />
    <glyph glyph-name="bracketleft" unicode="[" horiz-adv-x="333" 
d="M108 -180v885h215v-78h-114v-729h114v-78h-215z" />
    <glyph glyph-name="backslash" unicode="\" horiz-adv-x="297" 
d="M238 -66l-257 798l77 23l258 -798z" />
    <glyph glyph-name="bracketright" unicode="]" horiz-adv-x="333" 
d="M10 -180v78h114v729h-114v78h215v-885h-215z" />
    <glyph glyph-name="asciicircum" unicode="^" horiz-adv-x="600" 
d="M47 140l214 488h78l214 -488h-81l-172 395l-172 -395h-81z" />
    <glyph glyph-name="underscore" unicode="_" horiz-adv-x="500" 
d="M20 -63v63h460v-63h-460z" />
    <glyph glyph-name="grave" unicode="`" horiz-adv-x="500" 
d="M215 553l-136 202h103l103 -202h-70z" />
    <glyph glyph-name="a" unicode="a" horiz-adv-x="537" 
d="M227 -9q-51 0 -91 20t-63.5 54t-23.5 77q0 54 27.5 85t91 45t171.5 14h34v26q0 57 -24 82t-79 25q-42 0 -84 -12.5t-86 -39.5l-31 71q38 27 95 43t109 16q100 0 148 -47.5t48 -148.5v-301h-95v81q-18 -42 -56 -66t-91 -24zM247 63q54 0 90 38t36 96v27h-33
q-73 0 -114.5 -7t-59 -23.5t-17.5 -45.5q0 -38 26 -61.5t72 -23.5z" />
    <glyph glyph-name="b" unicode="b" horiz-adv-x="591" 
d="M333 -9q-56 0 -99 25t-64 67v-83h-99v705h101v-296q22 40 64.5 64t96.5 24q65 0 113.5 -31t75 -87.5t26.5 -134.5t-26.5 -135t-75 -87.5t-113.5 -30.5zM308 69q63 0 100.5 45t37.5 130t-37.5 129.5t-100.5 44.5t-100.5 -44.5t-37.5 -129.5t37.5 -130t100.5 -45z" />
    <glyph glyph-name="c" unicode="c" horiz-adv-x="467" 
d="M286 -9q-75 0 -129.5 31.5t-84.5 89t-30 135.5q0 116 66 183t178 67q46 0 91 -16t74 -44l-32 -71q-28 26 -61.5 38.5t-63.5 12.5q-71 0 -109.5 -44.5t-38.5 -126.5t38.5 -128.5t109.5 -46.5q30 0 63.5 12.5t61.5 38.5l32 -72q-29 -27 -74.5 -43t-90.5 -16z" />
    <glyph glyph-name="d" unicode="d" horiz-adv-x="591" 
d="M257 -9q-64 0 -112.5 30.5t-75.5 87.5t-27 135t27 134.5t75 87.5t113 31q55 0 98 -24t64 -65v297h101v-705h-99v85q-21 -44 -64.5 -69t-99.5 -25zM283 69q62 0 100 45t38 130t-38 129.5t-100 44.5q-63 0 -101 -44.5t-38 -129.5t38 -130t101 -45z" />
    <glyph glyph-name="e" unicode="e" horiz-adv-x="537" 
d="M300 -9q-120 0 -189 67.5t-69 184.5q0 75 30.5 132.5t84.5 89.5t124 32q101 0 159 -64.5t58 -177.5v-34h-358q11 -152 161 -152q42 0 82.5 13t76.5 43l30 -70q-33 -30 -85 -47t-105 -17zM285 426q-63 0 -100 -39t-45 -104h273q-3 68 -36 105.5t-92 37.5z" />
    <glyph glyph-name="f" unicode="f" horiz-adv-x="347" 
d="M100 0v410h-95v78h95v9q0 101 51.5 152t158.5 57l44 3l7 -76l-46 -3q-61 -4 -87.5 -33t-26.5 -86v-23h137v-78h-137v-410h-101z" />
    <glyph glyph-name="g" unicode="g" horiz-adv-x="594" 
d="M292 -189q-66 0 -123 15.5t-101 48.5l31 72q44 -30 90 -44t96 -14q140 0 140 140v77q-21 -44 -65.5 -69t-99.5 -25q-66 0 -115 30.5t-76 85t-27 127.5q0 72 27 126.5t76 85t115 30.5q56 0 100 -25t65 -69v85h98v-447q0 -115 -59 -172.5t-172 -57.5zM284 91q64 0 102 44
t38 120t-38 119.5t-102 43.5t-102 -43.5t-38 -119.5t38 -120t102 -44z" />
    <glyph glyph-name="h" unicode="h" horiz-adv-x="576" 
d="M71 0v705h101v-293q25 42 67.5 63.5t95.5 21.5q173 0 173 -196v-301h-101v295q0 63 -24.5 92t-76.5 29q-61 0 -97.5 -38.5t-36.5 -101.5v-276h-101z" />
    <glyph glyph-name="i" unicode="i" horiz-adv-x="243" 
d="M62 601v105h118v-105h-118zM71 0v488h101v-488h-101z" />
    <glyph glyph-name="j" unicode="j" horiz-adv-x="246" 
d="M66 601v105h118v-105h-118zM-48 -193l-7 76l44 4q85 9 85 102v499h101v-488q0 -92 -42.5 -137.5t-137.5 -52.5z" />
    <glyph glyph-name="k" unicode="k" horiz-adv-x="516" 
d="M71 0v705h101v-430h2l212 213h125l-234 -235l252 -253h-126l-229 223h-2v-223h-101z" />
    <glyph glyph-name="l" unicode="l" horiz-adv-x="306" 
d="M230 -9q-80 0 -119.5 45t-39.5 132v537h101v-531q0 -99 81 -99q12 0 22.5 1t21.5 4l-2 -81q-34 -8 -65 -8z" />
    <glyph glyph-name="m" unicode="m" horiz-adv-x="866" 
d="M73 0v488h98v-79q22 42 61 65t91 23q112 0 145 -98q23 46 66 72t98 26q164 0 164 -196v-301h-101v296q0 62 -21.5 91t-70.5 29q-55 0 -87 -38.5t-32 -104.5v-273h-101v296q0 62 -21 91t-70 29q-55 0 -86.5 -38.5t-31.5 -104.5v-273h-101z" />
    <glyph glyph-name="n" unicode="n" horiz-adv-x="576" 
d="M71 0v488h98v-81q25 44 68.5 67t97.5 23q173 0 173 -196v-301h-101v295q0 63 -24.5 92t-76.5 29q-61 0 -97.5 -38.5t-36.5 -101.5v-276h-101z" />
    <glyph glyph-name="o" unicode="o" horiz-adv-x="565" 
d="M283 -9q-74 0 -128 31t-83.5 87.5t-29.5 134.5t29.5 134.5t83.5 87.5t128 31q72 0 126 -31t84 -87.5t30 -134.5t-30 -134.5t-84 -87.5t-126 -31zM283 69q62 0 100 45t38 130t-38 129.5t-100 44.5q-63 0 -101 -44.5t-38 -129.5t38 -130t101 -45z" />
    <glyph glyph-name="p" unicode="p" horiz-adv-x="591" 
d="M71 -180v668h99v-83q21 42 64 67t99 25q65 0 113.5 -31t75 -87.5t26.5 -134.5t-26.5 -135t-75 -87.5t-113.5 -30.5q-54 0 -96.5 23.5t-64.5 64.5v-259h-101zM308 69q63 0 100.5 45t37.5 130t-37.5 129.5t-100.5 44.5t-100.5 -44.5t-37.5 -129.5t37.5 -130t100.5 -45z" />
    <glyph glyph-name="q" unicode="q" horiz-adv-x="591" 
d="M419 -180v260q-21 -41 -64 -65t-98 -24q-65 0 -113 30.5t-75 87.5t-27 135t27 134.5t75.5 87.5t112.5 31q56 0 99.5 -25.5t64.5 -68.5v85h99v-668h-101zM283 69q62 0 100 45t38 130t-38 129.5t-100 44.5q-63 0 -101 -44.5t-38 -129.5t38 -130t101 -45z" />
    <glyph glyph-name="r" unicode="r" horiz-adv-x="373" 
d="M71 0v488h98v-87q38 87 158 97l33 2l7 -86l-61 -6q-133 -13 -133 -137v-271h-102z" />
    <glyph glyph-name="s" unicode="s" horiz-adv-x="484" 
d="M242 -9q-60 0 -112 15.5t-87 43.5l29 68q37 -26 81.5 -40t89.5 -14q53 0 80 19t27 51q0 26 -18 40.5t-54 22.5l-95 19q-126 26 -126 130q0 69 55 110t144 41q51 0 97.5 -15t77.5 -45l-29 -68q-30 26 -69 40t-77 14q-52 0 -79 -19.5t-27 -52.5q0 -50 66 -64l95 -19
q65 -13 98.5 -44t33.5 -84q0 -70 -55 -109.5t-146 -39.5z" />
    <glyph glyph-name="t" unicode="t" horiz-adv-x="365" 
d="M279 -9q-92 0 -137 47t-45 136v236h-95v78h95v147h101v-147h151v-78h-151v-228q0 -53 22.5 -80t73.5 -27q16 0 31 3.5t30 8.5l16 -76q-15 -9 -41.5 -14.5t-50.5 -5.5z" />
    <glyph glyph-name="u" unicode="u" horiz-adv-x="569" 
d="M245 -9q-177 0 -177 197v300h101v-301q0 -59 24 -87t76 -28q57 0 92.5 38t35.5 102v276h101v-488h-98v78q-24 -43 -64 -65t-91 -22z" />
    <glyph glyph-name="v" unicode="v" horiz-adv-x="520" 
d="M214 0l-210 488h109l149 -371l153 371h103l-213 -488h-91z" />
    <glyph glyph-name="w" unicode="w" horiz-adv-x="846" 
d="M203 0l-186 488h104l131 -370l135 370h78l133 -372l133 372h99l-186 -488h-92l-129 349l-128 -349h-92z" />
    <glyph glyph-name="x" unicode="x" horiz-adv-x="534" 
d="M6 0l203 252l-190 236h118l131 -167l131 167h118l-191 -237l204 -251h-120l-143 180l-142 -180h-119z" />
    <glyph glyph-name="y" unicode="y" horiz-adv-x="520" 
d="M121 -180l87 193l-204 475h108l150 -371l152 371h104l-291 -668h-106z" />
    <glyph glyph-name="z" unicode="z" horiz-adv-x="468" 
d="M52 0v66l266 344h-266v78h377v-67l-266 -344h277v-77h-388z" />
    <glyph glyph-name="braceleft" unicode="{" horiz-adv-x="370" 
d="M254 -180q-52 0 -80.5 28.5t-28.5 82.5v212q0 41 -15.5 59t-52.5 21l-31 2v75l31 3q37 2 52.5 20.5t15.5 58.5v212q0 54 28.5 82.5t80.5 28.5h106v-78h-71q-43 0 -43 -44v-212q0 -41 -21.5 -71t-53.5 -38q32 -7 53.5 -37t21.5 -71v-212q0 -44 43 -44h71v-78h-106z" />
    <glyph glyph-name="bar" unicode="|" horiz-adv-x="276" 
d="M87 -180v885h101v-885h-101z" />
    <glyph glyph-name="braceright" unicode="}" horiz-adv-x="370" 
d="M10 -180v78h71q43 0 43 44v212q0 41 21.5 71t54.5 37q-33 8 -54.5 38t-21.5 71v212q0 44 -43 44h-71v78h105q53 0 81.5 -29t28.5 -82v-212q0 -41 15.5 -59t52.5 -20l31 -3v-75l-31 -2q-37 -3 -52.5 -21t-15.5 -59v-212q0 -53 -28.5 -82t-81.5 -29h-105z" />
    <glyph glyph-name="asciitilde" unicode="~" horiz-adv-x="600" 
d="M413 213q-24 0 -53 9.5t-69 31.5q-39 21 -61.5 28.5t-37.5 7.5q-54 0 -78 -62l-58 32q19 48 53 74.5t79 26.5q25 0 52.5 -8.5t67.5 -29.5q37 -20 60 -29.5t40 -9.5q55 0 80 62l56 -32q-18 -48 -52.5 -74.5t-78.5 -26.5z" />
    <glyph glyph-name="uni00A0" unicode="&#xa0;" horiz-adv-x="263" 
 />
    <glyph glyph-name="exclamdown" unicode="&#xa1;" horiz-adv-x="237" 
d="M59 369v119h119v-119h-119zM56 -180l32 472h62l31 -472h-125z" />
    <glyph glyph-name="cent" unicode="&#xa2;" horiz-adv-x="600" 
d="M278 -115v112q-87 16 -139 83t-52 164q0 63 23.5 114t66.5 85t101 45v120h83v-116q43 -3 83 -19t65 -42l-30 -70q-59 52 -138 52q-70 0 -110.5 -46.5t-40.5 -120.5q0 -77 40 -123.5t110 -46.5q38 0 74 13.5t65 38.5l30 -70q-26 -25 -65 -42t-83 -22v-109h-83z" />
    <glyph glyph-name="sterling" unicode="&#xa3;" horiz-adv-x="600" 
d="M46 0v86h92v231h-92v73h92v114q0 97 56 153.5t169 56.5q58 0 113.5 -19.5t93.5 -55.5l-38 -77q-33 35 -76.5 51t-90.5 16q-124 0 -124 -121v-118h173v-73h-173v-231h315v-86h-510z" />
    <glyph glyph-name="currency" unicode="&#xa4;" horiz-adv-x="600" 
d="M80 -28l-47 48l74 75q-23 31 -36 69.5t-13 80.5t12.5 80.5t36.5 70.5l-74 75l47 47l74 -76q30 24 67.5 37.5t78.5 13.5q40 0 77 -13t67 -36l73 75l48 -49l-73 -75q48 -66 48 -150q0 -42 -12.5 -80.5t-36.5 -70.5l74 -74l-47 -47l-73 75q-30 -24 -67 -37.5t-78 -13.5
q-42 0 -79.5 13.5t-67.5 36.5zM299 81q43 0 77.5 22t55.5 59.5t21 82.5q0 46 -21 83t-55.5 59t-77.5 22q-42 0 -77 -22t-56 -59t-21 -83q0 -45 20.5 -82.5t55.5 -59.5t78 -22z" />
    <glyph glyph-name="yen" unicode="&#xa5;" horiz-adv-x="600" 
d="M248 0v168h-178v73h178v81h-178v73h140l-220 310h114l196 -284l197 284h113l-219 -310h139v-73h-178v-81h178v-73h-178v-168h-104z" />
    <glyph glyph-name="brokenbar" unicode="&#xa6;" horiz-adv-x="276" 
d="M87 372v333h101v-333h-101zM87 -180v334h101v-334h-101z" />
    <glyph glyph-name="section" unicode="&#xa7;" horiz-adv-x="556" 
d="M255 -189q-66 0 -119.5 16.5t-87.5 45.5l31 70q31 -26 79.5 -42t96.5 -16q56 0 90 26t34 75q0 34 -18 58.5t-65 46.5l-118 54q-78 36 -108.5 77t-30.5 96q0 38 16.5 73t45.5 60q-10 15 -16 35t-6 46q0 57 28.5 97.5t77.5 62.5t113 22q61 0 112.5 -15.5t83.5 -44.5
l-31 -68q-32 25 -77.5 39.5t-88.5 14.5q-52 0 -86 -26.5t-34 -74.5q0 -34 18 -58.5t66 -46.5l117 -54q78 -37 109 -77.5t31 -95.5q0 -39 -17 -73.5t-46 -60.5q10 -14 16 -34.5t6 -46.5q0 -56 -28.5 -97t-78.5 -62.5t-115 -21.5zM130 334q0 -34 21.5 -61t76.5 -53l101 -47
q25 -11 44 -24t32 -26q22 30 22 67q0 34 -21.5 61.5t-77.5 53.5l-101 46q-25 12 -43.5 25t-32.5 25q-21 -29 -21 -67z" />
    <glyph glyph-name="dieresis" unicode="&#xa8;" horiz-adv-x="500" 
d="M290 604v99h100v-99h-100zM110 604v99h100v-99h-100z" />
    <glyph glyph-name="copyright" unicode="&#xa9;" horiz-adv-x="815" 
d="M408 -9q-77 0 -143 27.5t-115.5 76.5t-76.5 115t-27 143t27 142.5t76.5 115t115.5 76.5t143 27t142.5 -27t115 -76.5t76.5 -115t27 -142.5t-27 -143t-76.5 -115t-115 -76.5t-142.5 -27.5zM408 39q67 0 123.5 23.5t98.5 66.5t65.5 100t23.5 124q0 89 -40.5 160t-111 112
t-159.5 41q-67 0 -123.5 -23.5t-99 -66t-66 -99.5t-23.5 -124t23.5 -124t66 -100t99 -66.5t123.5 -23.5zM423 137q-98 0 -155 59.5t-57 158.5t57 156t155 57q40 0 79 -13.5t65 -37.5l-28 -63q-24 22 -53 32.5t-57 10.5q-61 0 -95.5 -37.5t-34.5 -105.5t34.5 -107t95.5 -39
q28 0 57 10.5t53 32.5l28 -63q-26 -23 -65.5 -37t-78.5 -14z" />
    <glyph glyph-name="ordfeminine" unicode="&#xaa;" horiz-adv-x="332" 
d="M136 409q-49 0 -80 26.5t-31 66.5q0 46 41.5 66t116.5 20h48v14q0 60 -69 60q-26 0 -54 -7t-52 -21l-18 49q25 16 60 23.5t68 7.5q132 0 132 -115v-184h-64v55h-2q-17 -31 -39.5 -46t-56.5 -15zM152 458q34 0 56.5 23t22.5 63v4h-45q-93 0 -93 -45q0 -19 14 -32t45 -13z
" />
    <glyph glyph-name="guillemotleft" unicode="&#xab;" horiz-adv-x="465" 
d="M160 80l-99 160v51l97 160l70 -30l-75 -155l75 -156zM353 80l-99 160v51l97 160l70 -30l-75 -155l75 -156z" />
    <glyph glyph-name="logicalnot" unicode="&#xac;" horiz-adv-x="600" 
d="M467 145v207h-411v73h488v-280h-77z" />
    <glyph glyph-name="uni00AD" unicode="&#xad;" horiz-adv-x="429" 
d="M70 226v82h288v-82h-288z" />
    <glyph glyph-name="registered" unicode="&#xae;" horiz-adv-x="815" 
d="M408 -9q-77 0 -143 27.5t-115.5 76.5t-76.5 115t-27 143t27 142.5t76.5 115t115.5 76.5t143 27t142.5 -27t115 -76.5t76.5 -115t27 -142.5t-27 -143t-76.5 -115t-115 -76.5t-142.5 -27.5zM408 39q67 0 123.5 23.5t98.5 66.5t65.5 100t23.5 124q0 89 -40.5 160t-111 112
t-159.5 41q-67 0 -123.5 -23.5t-99 -66t-66 -99.5t-23.5 -124t23.5 -124t66 -100t99 -66.5t123.5 -23.5zM259 142v422h177q69 0 106 -33.5t37 -89.5q0 -46 -23.5 -74.5t-66.5 -38.5q18 -6 30.5 -21.5t20.5 -42.5l44 -122h-82l-44 128q-9 23 -25.5 31t-40.5 8h-53v-167h-80z
M338 371h87q77 0 77 66t-77 66h-87v-132z" />
    <glyph glyph-name="macron" unicode="&#xaf;" horiz-adv-x="500" 
d="M98 621v64h305v-64h-305z" />
    <glyph glyph-name="degree" unicode="&#xb0;" horiz-adv-x="375" 
d="M188 413q-44 0 -78.5 20t-54.5 54t-20 77q0 42 20 76.5t54.5 54t78.5 19.5q43 0 77 -19.5t54 -53.5t20 -77t-20 -77.5t-54 -54t-77 -19.5zM188 475q37 0 60.5 25t23.5 64q0 38 -23.5 63t-60.5 25q-38 0 -62 -25t-24 -63q0 -39 24 -64t62 -25z" />
    <glyph glyph-name="plusminus" unicode="&#xb1;" horiz-adv-x="600" 
d="M262 133v161h-206v74h206v162h76v-162h206v-74h-206v-161h-76zM56 0v74h488v-74h-488z" />
    <glyph glyph-name="uni00B2" unicode="&#xb2;" horiz-adv-x="380" 
d="M51 282v60l131 139q26 29 38 52t12 47q0 59 -65 59q-26 0 -53.5 -11.5t-48.5 -32.5l-31 60q26 25 66.5 39.5t83.5 14.5q63 0 100 -32t37 -87q0 -33 -16 -65.5t-50 -67.5l-100 -105h187v-70h-291z" />
    <glyph glyph-name="uni00B3" unicode="&#xb3;" horiz-adv-x="380" 
d="M186 278q-50 0 -90 14.5t-66 39.5l31 59q43 -44 116 -44q34 0 55.5 15t21.5 46q0 29 -20.5 40.5t-55.5 11.5h-80v71h68q36 0 56 13t20 42q0 24 -18 38.5t-52 14.5q-62 0 -107 -44l-31 60q26 25 66.5 39.5t84.5 14.5q64 0 101.5 -30t37.5 -80q0 -36 -19 -61.5t-48 -37.5
q36 -9 57.5 -35t21.5 -67q0 -57 -43 -88.5t-107 -31.5z" />
    <glyph glyph-name="acute" unicode="&#xb4;" horiz-adv-x="500" 
d="M215 553l103 202h103l-136 -202h-70z" />
    <glyph glyph-name="uni00B5" unicode="&#xb5;" horiz-adv-x="600" 
d="M86 -180v668h101v-300q0 -59 23.5 -86.5t74.5 -27.5q58 0 94 37.5t36 101.5v275h101v-488h-99v87q-17 -47 -53 -71.5t-80 -24.5q-34 0 -60.5 10.5t-44.5 37.5l8 -219h-101z" />
    <glyph glyph-name="paragraph" unicode="&#xb6;" horiz-adv-x="605" 
d="M246 -180v477q-62 0 -108 26t-71.5 72t-25.5 107q0 60 25.5 105.5t72 71.5t109.5 26h275v-885h-77v811h-123v-811h-77z" />
    <glyph glyph-name="periodcentered" unicode="&#xb7;" horiz-adv-x="237" 
d="M59 207v119h119v-119h-119z" />
    <glyph glyph-name="cedilla" unicode="&#xb8;" horiz-adv-x="500" 
d="M252 -194q-27 0 -52.5 5.5t-42.5 15.5l15 49q19 -8 35.5 -12t38.5 -4q27 0 42 8.5t15 24.5q0 26 -38 26q-10 0 -20 -1.5t-24 -5.5l-18 16l14 92h58l-10 -61q8 1 15 1q39 0 63 -18.5t24 -51.5q0 -37 -32 -60.5t-83 -23.5z" />
    <glyph glyph-name="uni00B9" unicode="&#xb9;" horiz-adv-x="380" 
d="M77 282v70h97v259l-78 -47l-36 62l135 79h61v-353h80v-70h-259z" />
    <glyph glyph-name="ordmasculine" unicode="&#xba;" horiz-adv-x="345" 
d="M173 410q-66 0 -109 41.5t-43 111.5q0 69 43 110t109 41q65 0 108 -41t43 -110q0 -70 -43 -111.5t-108 -41.5zM173 464q37 0 59.5 25.5t22.5 73.5t-22.5 73t-59.5 25q-38 0 -60.5 -24.5t-22.5 -73.5t22.5 -74t60.5 -25z" />
    <glyph glyph-name="guillemotright" unicode="&#xbb;" horiz-adv-x="465" 
d="M113 80l-69 30l76 156l-76 155l70 30l98 -160v-51zM306 80l-69 30l76 156l-76 155l70 30l98 -160v-51z" />
    <glyph glyph-name="onequarter" unicode="&#xbc;" horiz-adv-x="901" 
d="M77 282v70h97v259l-78 -47l-36 62l135 79h61v-353h80v-70h-259zM302 -26l-66 40l415 717l66 -40zM741 0v78h-190v58l197 287h75v-275h56v-70h-56v-78h-82zM741 148v158l-108 -158h108z" />
    <glyph glyph-name="onehalf" unicode="&#xbd;" horiz-adv-x="947" 
d="M77 282v70h97v259l-78 -47l-36 62l135 79h61v-353h80v-70h-259zM302 -26l-66 40l415 717l66 -40zM618 0v60l131 139q26 29 38 52t12 47q0 59 -65 59q-26 0 -53.5 -11.5t-48.5 -32.5l-31 60q26 25 66.5 39.5t83.5 14.5q63 0 100 -32t37 -87q0 -33 -16 -65.5t-50 -67.5
l-100 -105h187v-70h-291z" />
    <glyph glyph-name="threequarters" unicode="&#xbe;" horiz-adv-x="901" 
d="M186 278q-50 0 -90 14.5t-66 39.5l31 59q43 -44 116 -44q34 0 55.5 15t21.5 46q0 29 -20.5 40.5t-55.5 11.5h-80v71h68q36 0 56 13t20 42q0 24 -18 38.5t-52 14.5q-62 0 -107 -44l-31 60q26 25 66.5 39.5t84.5 14.5q64 0 101.5 -30t37.5 -80q0 -36 -19 -61.5t-48 -37.5
q36 -9 57.5 -35t21.5 -67q0 -57 -43 -88.5t-107 -31.5zM302 -26l-66 40l415 717l66 -40zM741 0v78h-190v58l197 287h75v-275h56v-70h-56v-78h-82zM741 148v158l-108 -158h108z" />
    <glyph glyph-name="questiondown" unicode="&#xbf;" horiz-adv-x="450" 
d="M178 369v119h118v-119h-118zM221 -189q-90 0 -145 42t-55 110q0 42 19.5 80t71.5 85q48 42 66.5 74t23.5 66l4 24h62v-31q0 -44 -17.5 -84t-63.5 -85q-37 -36 -50 -61.5t-13 -52.5q0 -36 27 -57.5t75 -21.5q53 0 99 17.5t88 52.5l36 -78q-40 -37 -101.5 -58.5
t-126.5 -21.5z" />
    <glyph glyph-name="Agrave" unicode="&#xc0;" horiz-adv-x="736" 
d="M11 0l314 705h86l315 -705h-106l-74 172h-357l-73 -172h-105zM367 590l-141 -334h285l-142 334h-2zM332 765l-153 173h109l118 -173h-74z" />
    <glyph glyph-name="Aacute" unicode="&#xc1;" horiz-adv-x="736" 
d="M11 0l314 705h86l315 -705h-106l-74 172h-357l-73 -172h-105zM367 590l-141 -334h285l-142 334h-2zM332 765l118 173h109l-153 -173h-74z" />
    <glyph glyph-name="Acircumflex" unicode="&#xc2;" horiz-adv-x="736" 
d="M11 0l314 705h86l315 -705h-106l-74 172h-357l-73 -172h-105zM367 590l-141 -334h285l-142 334h-2zM201 765l123 173h90l123 -173h-73l-95 112l-95 -112h-73z" />
    <glyph glyph-name="Atilde" unicode="&#xc3;" horiz-adv-x="736" 
d="M11 0l314 705h86l315 -705h-106l-74 172h-357l-73 -172h-105zM367 590l-141 -334h285l-142 334h-2zM207 778l-53 3q6 68 40 104t86 36q24 0 48 -9.5t55 -28.5q32 -20 48.5 -26.5t29.5 -6.5q57 0 70 75l53 -4q-5 -67 -39.5 -103.5t-85.5 -36.5q-24 0 -49.5 10.5
t-56.5 29.5q-28 18 -45 25t-31 7q-56 0 -70 -75z" />
    <glyph glyph-name="Adieresis" unicode="&#xc4;" horiz-adv-x="736" 
d="M11 0l314 705h86l315 -705h-106l-74 172h-357l-73 -172h-105zM367 590l-141 -334h285l-142 334h-2zM409 799v99h100v-99h-100zM229 799v99h100v-99h-100z" />
    <glyph glyph-name="Aring" unicode="&#xc5;" horiz-adv-x="736" 
d="M11 0l314 705h86l315 -705h-106l-74 172h-357l-73 -172h-105zM367 590l-141 -334h285l-142 334h-2zM369 756q-52 0 -87 35t-35 85t35 84t87 34t87 -34t35 -84t-35 -85t-87 -35zM369 806q30 0 49.5 20t19.5 50q0 29 -19.5 48.5t-49.5 19.5t-49.5 -19.5t-19.5 -48.5
q0 -30 19.5 -50t49.5 -20z" />
    <glyph glyph-name="AE" unicode="&#xc6;" horiz-adv-x="986" 
d="M-25 0l433 705h527v-84h-415l48 -221h347v-84h-329l50 -232h299v-84h-375l-36 172h-336l-103 -172h-110zM433 587l-196 -331h269l-71 331h-2z" />
    <glyph glyph-name="Ccedilla" unicode="&#xc7;" horiz-adv-x="676" 
d="M398 -9q-107 0 -183 44t-116.5 125.5t-40.5 192.5t40.5 192t116.5 125t183 44q72 0 134.5 -22.5t104.5 -64.5l-36 -83q-46 41 -94.5 59.5t-105.5 18.5q-114 0 -174 -70t-60 -199t60 -199.5t174 -70.5q57 0 105.5 18.5t94.5 59.5l36 -83q-42 -41 -104.5 -64t-134.5 -23z
M390 -194q-27 0 -52.5 5.5t-42.5 15.5l15 49q19 -8 35.5 -12t38.5 -4q27 0 42 8.5t15 24.5q0 26 -38 26q-10 0 -20 -1.5t-24 -5.5l-18 16l14 92h58l-10 -61q8 1 15 1q39 0 63 -18.5t24 -51.5q0 -37 -32 -60.5t-83 -23.5z" />
    <glyph glyph-name="Egrave" unicode="&#xc8;" horiz-adv-x="589" 
d="M82 0v705h456v-84h-356v-221h335v-84h-335v-232h356v-84h-456zM289 765l-153 173h109l118 -173h-74z" />
    <glyph glyph-name="Eacute" unicode="&#xc9;" horiz-adv-x="589" 
d="M82 0v705h456v-84h-356v-221h335v-84h-335v-232h356v-84h-456zM289 765l118 173h109l-153 -173h-74z" />
    <glyph glyph-name="Ecircumflex" unicode="&#xca;" horiz-adv-x="589" 
d="M82 0v705h456v-84h-356v-221h335v-84h-335v-232h356v-84h-456zM158 765l123 173h90l123 -173h-73l-95 112l-95 -112h-73z" />
    <glyph glyph-name="Edieresis" unicode="&#xcb;" horiz-adv-x="589" 
d="M82 0v705h456v-84h-356v-221h335v-84h-335v-232h356v-84h-456zM366 799v99h100v-99h-100zM186 799v99h100v-99h-100z" />
    <glyph glyph-name="Igrave" unicode="&#xcc;" horiz-adv-x="267" 
d="M82 0v705h104v-705h-104zM97 765l-153 173h109l118 -173h-74z" />
    <glyph glyph-name="Iacute" unicode="&#xcd;" horiz-adv-x="267" 
d="M82 0v705h104v-705h-104zM97 765l118 173h109l-153 -173h-74z" />
    <glyph glyph-name="Icircumflex" unicode="&#xce;" horiz-adv-x="267" 
d="M82 0v705h104v-705h-104zM-34 765l123 173h90l123 -173h-73l-95 112l-95 -112h-73z" />
    <glyph glyph-name="Idieresis" unicode="&#xcf;" horiz-adv-x="267" 
d="M82 0v705h104v-705h-104zM174 799v99h100v-99h-100zM-6 799v99h100v-99h-100z" />
    <glyph glyph-name="Eth" unicode="&#xd0;" horiz-adv-x="751" 
d="M82 0v705h249q174 0 268.5 -91t94.5 -261t-94.5 -261.5t-268.5 -91.5h-249zM186 87h139q261 0 261 266q0 265 -261 265h-139v-531zM-5 319v77h384v-77h-384z" />
    <glyph glyph-name="Ntilde" unicode="&#xd1;" horiz-adv-x="743" 
d="M82 0v705h79l404 -533v533h96v-705h-77l-406 535v-535h-96zM210 778l-53 3q6 68 40 104t86 36q24 0 48 -9.5t55 -28.5q32 -20 48.5 -26.5t29.5 -6.5q57 0 70 75l53 -4q-5 -67 -39.5 -103.5t-85.5 -36.5q-24 0 -49.5 10.5t-56.5 29.5q-28 18 -45 25t-31 7q-56 0 -70 -75z
" />
    <glyph glyph-name="Ograve" unicode="&#xd2;" horiz-adv-x="775" 
d="M388 -9q-101 0 -175 44.5t-114.5 126t-40.5 191.5q0 111 40.5 192t114.5 125t175 44q100 0 174.5 -44t115 -125t40.5 -191q0 -111 -40.5 -192.5t-115 -126t-174.5 -44.5zM388 81q105 0 163.5 71.5t58.5 200.5t-58 200t-164 71q-105 0 -163.5 -71t-58.5 -200t58.5 -200.5
t163.5 -71.5zM350 765l-153 173h109l118 -173h-74z" />
    <glyph glyph-name="Oacute" unicode="&#xd3;" horiz-adv-x="775" 
d="M388 -9q-101 0 -175 44.5t-114.5 126t-40.5 191.5q0 111 40.5 192t114.5 125t175 44q100 0 174.5 -44t115 -125t40.5 -191q0 -111 -40.5 -192.5t-115 -126t-174.5 -44.5zM388 81q105 0 163.5 71.5t58.5 200.5t-58 200t-164 71q-105 0 -163.5 -71t-58.5 -200t58.5 -200.5
t163.5 -71.5zM350 765l118 173h109l-153 -173h-74z" />
    <glyph glyph-name="Ocircumflex" unicode="&#xd4;" horiz-adv-x="775" 
d="M388 -9q-101 0 -175 44.5t-114.5 126t-40.5 191.5q0 111 40.5 192t114.5 125t175 44q100 0 174.5 -44t115 -125t40.5 -191q0 -111 -40.5 -192.5t-115 -126t-174.5 -44.5zM388 81q105 0 163.5 71.5t58.5 200.5t-58 200t-164 71q-105 0 -163.5 -71t-58.5 -200t58.5 -200.5
t163.5 -71.5zM219 765l123 173h90l123 -173h-73l-95 112l-95 -112h-73z" />
    <glyph glyph-name="Otilde" unicode="&#xd5;" horiz-adv-x="775" 
d="M388 -9q-101 0 -175 44.5t-114.5 126t-40.5 191.5q0 111 40.5 192t114.5 125t175 44q100 0 174.5 -44t115 -125t40.5 -191q0 -111 -40.5 -192.5t-115 -126t-174.5 -44.5zM388 81q105 0 163.5 71.5t58.5 200.5t-58 200t-164 71q-105 0 -163.5 -71t-58.5 -200t58.5 -200.5
t163.5 -71.5zM225 778l-53 3q6 68 40 104t86 36q24 0 48 -9.5t55 -28.5q32 -20 48.5 -26.5t29.5 -6.5q57 0 70 75l53 -4q-5 -67 -39.5 -103.5t-85.5 -36.5q-24 0 -49.5 10.5t-56.5 29.5q-28 18 -45 25t-31 7q-56 0 -70 -75z" />
    <glyph glyph-name="Odieresis" unicode="&#xd6;" horiz-adv-x="775" 
d="M388 -9q-101 0 -175 44.5t-114.5 126t-40.5 191.5q0 111 40.5 192t114.5 125t175 44q100 0 174.5 -44t115 -125t40.5 -191q0 -111 -40.5 -192.5t-115 -126t-174.5 -44.5zM388 81q105 0 163.5 71.5t58.5 200.5t-58 200t-164 71q-105 0 -163.5 -71t-58.5 -200t58.5 -200.5
t163.5 -71.5zM427 799v99h100v-99h-100zM247 799v99h100v-99h-100z" />
    <glyph glyph-name="multiply" unicode="&#xd7;" horiz-adv-x="600" 
d="M118 51l-52 52l182 182l-182 182l52 52l182 -181l182 181l52 -52l-182 -182l182 -182l-52 -52l-182 182z" />
    <glyph glyph-name="Oslash" unicode="&#xd8;" horiz-adv-x="775" 
d="M388 -9q-101 0 -175 44.5t-114.5 126t-40.5 191.5q0 111 40.5 192t114.5 125t175 44q100 0 174.5 -44t115 -125t40.5 -191q0 -111 -40.5 -192.5t-115 -126t-174.5 -44.5zM388 81q105 0 163.5 71.5t58.5 200.5t-58 200t-164 71q-105 0 -163.5 -71t-58.5 -200t58.5 -200.5
t163.5 -71.5zM198 -53l-69 40l58 101l30 49l280 481l23 40l58 100l69 -40l-59 -101l-29 -49l-281 -480l-22 -41z" />
    <glyph glyph-name="Ugrave" unicode="&#xd9;" horiz-adv-x="733" 
d="M367 -9q-141 0 -215.5 74.5t-74.5 218.5v421h104v-419q0 -205 186 -205t186 205v419h102v-421q0 -144 -73 -218.5t-215 -74.5zM330 765l-153 173h109l118 -173h-74z" />
    <glyph glyph-name="Uacute" unicode="&#xda;" horiz-adv-x="733" 
d="M367 -9q-141 0 -215.5 74.5t-74.5 218.5v421h104v-419q0 -205 186 -205t186 205v419h102v-421q0 -144 -73 -218.5t-215 -74.5zM330 765l118 173h109l-153 -173h-74z" />
    <glyph glyph-name="Ucircumflex" unicode="&#xdb;" horiz-adv-x="733" 
d="M367 -9q-141 0 -215.5 74.5t-74.5 218.5v421h104v-419q0 -205 186 -205t186 205v419h102v-421q0 -144 -73 -218.5t-215 -74.5zM199 765l123 173h90l123 -173h-73l-95 112l-95 -112h-73z" />
    <glyph glyph-name="Udieresis" unicode="&#xdc;" horiz-adv-x="733" 
d="M367 -9q-141 0 -215.5 74.5t-74.5 218.5v421h104v-419q0 -205 186 -205t186 205v419h102v-421q0 -144 -73 -218.5t-215 -74.5zM407 799v99h100v-99h-100zM227 799v99h100v-99h-100z" />
    <glyph glyph-name="Yacute" unicode="&#xdd;" horiz-adv-x="606" 
d="M251 0v329l-270 376h120l204 -285l204 285h115l-270 -377v-328h-103zM266 765l118 173h109l-153 -173h-74z" />
    <glyph glyph-name="Thorn" unicode="&#xde;" horiz-adv-x="643" 
d="M82 0v705h104v-123h189q115 0 176.5 -56.5t61.5 -159.5q0 -102 -61.5 -159t-176.5 -57h-189v-150h-104zM186 233h175q152 0 152 133t-152 133h-175v-266z" />
    <glyph glyph-name="germandbls" unicode="&#xdf;" horiz-adv-x="632" 
d="M418 -9q-52 0 -103.5 16.5t-86.5 46.5l32 69q37 -28 80 -41.5t79 -13.5q44 0 68.5 18.5t24.5 50.5q0 27 -22 44.5t-79 34.5q-80 25 -112 57.5t-32 80.5q0 31 16 60.5t60 68.5q29 26 40.5 46.5t11.5 43.5q0 30 -21.5 47.5t-62.5 17.5q-68 0 -103.5 -40t-35.5 -114v-484
h-101v471q0 116 62.5 179.5t177.5 63.5q85 0 132.5 -36t47.5 -97q0 -36 -16.5 -66.5t-55.5 -65.5q-34 -30 -45.5 -47.5t-11.5 -36.5q0 -24 22 -41.5t81 -35.5q76 -23 108.5 -58t32.5 -88q0 -68 -51.5 -109.5t-136.5 -41.5z" />
    <glyph glyph-name="agrave" unicode="&#xe0;" horiz-adv-x="537" 
d="M227 -9q-51 0 -91 20t-63.5 54t-23.5 77q0 54 27.5 85t91 45t171.5 14h34v26q0 57 -24 82t-79 25q-42 0 -84 -12.5t-86 -39.5l-31 71q38 27 95 43t109 16q100 0 148 -47.5t48 -148.5v-301h-95v81q-18 -42 -56 -66t-91 -24zM247 63q54 0 90 38t36 96v27h-33
q-73 0 -114.5 -7t-59 -23.5t-17.5 -45.5q0 -38 26 -61.5t72 -23.5zM240 553l-136 202h103l103 -202h-70z" />
    <glyph glyph-name="aacute" unicode="&#xe1;" horiz-adv-x="537" 
d="M227 -9q-51 0 -91 20t-63.5 54t-23.5 77q0 54 27.5 85t91 45t171.5 14h34v26q0 57 -24 82t-79 25q-42 0 -84 -12.5t-86 -39.5l-31 71q38 27 95 43t109 16q100 0 148 -47.5t48 -148.5v-301h-95v81q-18 -42 -56 -66t-91 -24zM247 63q54 0 90 38t36 96v27h-33
q-73 0 -114.5 -7t-59 -23.5t-17.5 -45.5q0 -38 26 -61.5t72 -23.5zM240 553l103 202h103l-136 -202h-70z" />
    <glyph glyph-name="acircumflex" unicode="&#xe2;" horiz-adv-x="537" 
d="M227 -9q-51 0 -91 20t-63.5 54t-23.5 77q0 54 27.5 85t91 45t171.5 14h34v26q0 57 -24 82t-79 25q-42 0 -84 -12.5t-86 -39.5l-31 71q38 27 95 43t109 16q100 0 148 -47.5t48 -148.5v-301h-95v81q-18 -42 -56 -66t-91 -24zM247 63q54 0 90 38t36 96v27h-33
q-73 0 -114.5 -7t-59 -23.5t-17.5 -45.5q0 -38 26 -61.5t72 -23.5zM119 553l110 202h92l110 -202h-67l-89 140l-89 -140h-67z" />
    <glyph glyph-name="atilde" unicode="&#xe3;" horiz-adv-x="537" 
d="M227 -9q-51 0 -91 20t-63.5 54t-23.5 77q0 54 27.5 85t91 45t171.5 14h34v26q0 57 -24 82t-79 25q-42 0 -84 -12.5t-86 -39.5l-31 71q38 27 95 43t109 16q100 0 148 -47.5t48 -148.5v-301h-95v81q-18 -42 -56 -66t-91 -24zM247 63q54 0 90 38t36 96v27h-33
q-73 0 -114.5 -7t-59 -23.5t-17.5 -45.5q0 -38 26 -61.5t72 -23.5zM142 587l-53 4q5 65 35 102.5t78 37.5q22 0 40.5 -10t42.5 -30q22 -18 35.5 -25t25.5 -7q51 0 62 75l53 -3q-4 -66 -34 -103t-78 -37q-20 0 -38.5 9t-45.5 30q-21 18 -34 25t-27 7q-50 0 -62 -75z" />
    <glyph glyph-name="adieresis" unicode="&#xe4;" horiz-adv-x="537" 
d="M227 -9q-51 0 -91 20t-63.5 54t-23.5 77q0 54 27.5 85t91 45t171.5 14h34v26q0 57 -24 82t-79 25q-42 0 -84 -12.5t-86 -39.5l-31 71q38 27 95 43t109 16q100 0 148 -47.5t48 -148.5v-301h-95v81q-18 -42 -56 -66t-91 -24zM247 63q54 0 90 38t36 96v27h-33
q-73 0 -114.5 -7t-59 -23.5t-17.5 -45.5q0 -38 26 -61.5t72 -23.5zM315 604v99h100v-99h-100zM135 604v99h100v-99h-100z" />
    <glyph glyph-name="aring" unicode="&#xe5;" horiz-adv-x="537" 
d="M227 -9q-51 0 -91 20t-63.5 54t-23.5 77q0 54 27.5 85t91 45t171.5 14h34v26q0 57 -24 82t-79 25q-42 0 -84 -12.5t-86 -39.5l-31 71q38 27 95 43t109 16q100 0 148 -47.5t48 -148.5v-301h-95v81q-18 -42 -56 -66t-91 -24zM247 63q54 0 90 38t36 96v27h-33
q-73 0 -114.5 -7t-59 -23.5t-17.5 -45.5q0 -38 26 -61.5t72 -23.5zM275 546q-52 0 -87 35t-35 85t35 84t87 34t87 -34t35 -84t-35 -85t-87 -35zM275 596q30 0 49.5 20t19.5 50q0 29 -19.5 48.5t-49.5 19.5t-49.5 -19.5t-19.5 -48.5q0 -30 19.5 -50t49.5 -20z" />
    <glyph glyph-name="ae" unicode="&#xe6;" horiz-adv-x="863" 
d="M235 -9q-55 0 -97 20t-65.5 54t-23.5 77q0 54 28 85t92 44.5t172 13.5h33v26q0 57 -24.5 82.5t-77.5 25.5q-44 0 -86 -12t-86 -40l-31 71q38 27 95 43t110 16q124 0 165 -85q28 42 74 63.5t98 21.5q99 0 156.5 -64.5t57.5 -177.5v-32h-352q10 -154 156 -154q86 0 157 56
l31 -70q-34 -30 -85.5 -47t-102.5 -17q-75 0 -130.5 29t-83.5 87q-20 -55 -67 -85.5t-113 -30.5zM612 426q-59 0 -95.5 -37t-43.5 -104h266q-3 67 -35.5 104t-91.5 37zM248 63q56 0 91 39t35 100v21h-34q-73 0 -114.5 -6.5t-59 -23t-17.5 -45.5q0 -38 26 -61.5t73 -23.5z
" />
    <glyph glyph-name="ccedilla" unicode="&#xe7;" horiz-adv-x="467" 
d="M286 -9q-75 0 -129.5 31.5t-84.5 89t-30 135.5q0 116 66 183t178 67q46 0 91 -16t74 -44l-32 -71q-28 26 -61.5 38.5t-63.5 12.5q-71 0 -109.5 -44.5t-38.5 -126.5t38.5 -128.5t109.5 -46.5q30 0 63.5 12.5t61.5 38.5l32 -72q-29 -27 -74.5 -43t-90.5 -16zM282 -194
q-27 0 -52.5 5.5t-42.5 15.5l15 49q19 -8 35.5 -12t38.5 -4q27 0 42 8.5t15 24.5q0 26 -38 26q-10 0 -20 -1.5t-24 -5.5l-18 16l14 92h58l-10 -61q8 1 15 1q39 0 63 -18.5t24 -51.5q0 -37 -32 -60.5t-83 -23.5z" />
    <glyph glyph-name="egrave" unicode="&#xe8;" horiz-adv-x="537" 
d="M300 -9q-120 0 -189 67.5t-69 184.5q0 75 30.5 132.5t84.5 89.5t124 32q101 0 159 -64.5t58 -177.5v-34h-358q11 -152 161 -152q42 0 82.5 13t76.5 43l30 -70q-33 -30 -85 -47t-105 -17zM285 426q-63 0 -100 -39t-45 -104h273q-3 68 -36 105.5t-92 37.5zM247 553
l-136 202h103l103 -202h-70z" />
    <glyph glyph-name="eacute" unicode="&#xe9;" horiz-adv-x="537" 
d="M300 -9q-120 0 -189 67.5t-69 184.5q0 75 30.5 132.5t84.5 89.5t124 32q101 0 159 -64.5t58 -177.5v-34h-358q11 -152 161 -152q42 0 82.5 13t76.5 43l30 -70q-33 -30 -85 -47t-105 -17zM285 426q-63 0 -100 -39t-45 -104h273q-3 68 -36 105.5t-92 37.5zM247 553l103 202
h103l-136 -202h-70z" />
    <glyph glyph-name="ecircumflex" unicode="&#xea;" horiz-adv-x="537" 
d="M300 -9q-120 0 -189 67.5t-69 184.5q0 75 30.5 132.5t84.5 89.5t124 32q101 0 159 -64.5t58 -177.5v-34h-358q11 -152 161 -152q42 0 82.5 13t76.5 43l30 -70q-33 -30 -85 -47t-105 -17zM285 426q-63 0 -100 -39t-45 -104h273q-3 68 -36 105.5t-92 37.5zM126 553l110 202
h92l110 -202h-67l-89 140l-89 -140h-67z" />
    <glyph glyph-name="edieresis" unicode="&#xeb;" horiz-adv-x="537" 
d="M300 -9q-120 0 -189 67.5t-69 184.5q0 75 30.5 132.5t84.5 89.5t124 32q101 0 159 -64.5t58 -177.5v-34h-358q11 -152 161 -152q42 0 82.5 13t76.5 43l30 -70q-33 -30 -85 -47t-105 -17zM285 426q-63 0 -100 -39t-45 -104h273q-3 68 -36 105.5t-92 37.5zM322 604v99h100
v-99h-100zM142 604v99h100v-99h-100z" />
    <glyph glyph-name="igrave" unicode="&#xec;" horiz-adv-x="243" 
d="M71 0v488h101v-488h-101zM86 553l-136 202h103l103 -202h-70z" />
    <glyph glyph-name="iacute" unicode="&#xed;" horiz-adv-x="243" 
d="M71 0v488h101v-488h-101zM86 553l103 202h103l-136 -202h-70z" />
    <glyph glyph-name="icircumflex" unicode="&#xee;" horiz-adv-x="243" 
d="M71 0v488h101v-488h-101zM-35 553l110 202h92l110 -202h-67l-89 140l-89 -140h-67z" />
    <glyph glyph-name="idieresis" unicode="&#xef;" horiz-adv-x="243" 
d="M71 0v488h101v-488h-101zM161 604v99h100v-99h-100zM-19 604v99h100v-99h-100z" />
    <glyph glyph-name="eth" unicode="&#xf0;" horiz-adv-x="569" 
d="M279 -9q-71 0 -124 29t-83 81t-30 121t29 120.5t81 80t120 28.5q48 0 87 -16t65 -52q-13 62 -45.5 110t-78.5 80l-163 -73l-28 61l121 53q-19 9 -42.5 17.5t-50.5 14.5l20 68q49 -11 89 -27t71 -34l135 61l27 -61l-98 -44q70 -58 108 -140t38 -183q0 -142 -64 -218.5
t-184 -76.5zM282 70q64 0 101 41t37 111t-36.5 110.5t-101.5 40.5q-64 0 -101 -40.5t-37 -110.5q0 -71 36.5 -111.5t101.5 -40.5z" />
    <glyph glyph-name="ntilde" unicode="&#xf1;" horiz-adv-x="576" 
d="M71 0v488h98v-81q25 44 68.5 67t97.5 23q173 0 173 -196v-301h-101v295q0 63 -24.5 92t-76.5 29q-61 0 -97.5 -38.5t-36.5 -101.5v-276h-101zM156 587l-53 4q5 65 35 102.5t78 37.5q22 0 40.5 -10t42.5 -30q22 -18 35.5 -25t25.5 -7q51 0 62 75l53 -3q-4 -66 -34 -103
t-78 -37q-20 0 -38.5 9t-45.5 30q-21 18 -34 25t-27 7q-50 0 -62 -75z" />
    <glyph glyph-name="ograve" unicode="&#xf2;" horiz-adv-x="565" 
d="M283 -9q-74 0 -128 31t-83.5 87.5t-29.5 134.5t29.5 134.5t83.5 87.5t128 31q72 0 126 -31t84 -87.5t30 -134.5t-30 -134.5t-84 -87.5t-126 -31zM283 69q62 0 100 45t38 130t-38 129.5t-100 44.5q-63 0 -101 -44.5t-38 -129.5t38 -130t101 -45zM248 553l-136 202h103
l103 -202h-70z" />
    <glyph glyph-name="oacute" unicode="&#xf3;" horiz-adv-x="565" 
d="M283 -9q-74 0 -128 31t-83.5 87.5t-29.5 134.5t29.5 134.5t83.5 87.5t128 31q72 0 126 -31t84 -87.5t30 -134.5t-30 -134.5t-84 -87.5t-126 -31zM283 69q62 0 100 45t38 130t-38 129.5t-100 44.5q-63 0 -101 -44.5t-38 -129.5t38 -130t101 -45zM248 553l103 202h103
l-136 -202h-70z" />
    <glyph glyph-name="ocircumflex" unicode="&#xf4;" horiz-adv-x="565" 
d="M283 -9q-74 0 -128 31t-83.5 87.5t-29.5 134.5t29.5 134.5t83.5 87.5t128 31q72 0 126 -31t84 -87.5t30 -134.5t-30 -134.5t-84 -87.5t-126 -31zM283 69q62 0 100 45t38 130t-38 129.5t-100 44.5q-63 0 -101 -44.5t-38 -129.5t38 -130t101 -45zM127 553l110 202h92
l110 -202h-67l-89 140l-89 -140h-67z" />
    <glyph glyph-name="otilde" unicode="&#xf5;" horiz-adv-x="565" 
d="M283 -9q-74 0 -128 31t-83.5 87.5t-29.5 134.5t29.5 134.5t83.5 87.5t128 31q72 0 126 -31t84 -87.5t30 -134.5t-30 -134.5t-84 -87.5t-126 -31zM283 69q62 0 100 45t38 130t-38 129.5t-100 44.5q-63 0 -101 -44.5t-38 -129.5t38 -130t101 -45zM150 587l-53 4
q5 65 35 102.5t78 37.5q22 0 40.5 -10t42.5 -30q22 -18 35.5 -25t25.5 -7q51 0 62 75l53 -3q-4 -66 -34 -103t-78 -37q-20 0 -38.5 9t-45.5 30q-21 18 -34 25t-27 7q-50 0 -62 -75z" />
    <glyph glyph-name="odieresis" unicode="&#xf6;" horiz-adv-x="565" 
d="M283 -9q-74 0 -128 31t-83.5 87.5t-29.5 134.5t29.5 134.5t83.5 87.5t128 31q72 0 126 -31t84 -87.5t30 -134.5t-30 -134.5t-84 -87.5t-126 -31zM283 69q62 0 100 45t38 130t-38 129.5t-100 44.5q-63 0 -101 -44.5t-38 -129.5t38 -130t101 -45zM323 604v99h100v-99h-100z
M143 604v99h100v-99h-100z" />
    <glyph glyph-name="divide" unicode="&#xf7;" horiz-adv-x="600" 
d="M247 438v94h94v-94h-94zM56 250v74h488v-74h-488zM247 42v94h94v-94h-94z" />
    <glyph glyph-name="oslash" unicode="&#xf8;" horiz-adv-x="565" 
d="M148 -53l-58 34l36 61q-40 33 -62 84.5t-22 117.5q0 78 29.5 134.5t83.5 87.5t128 31q53 0 98 -18l36 62l58 -33l-36 -62q40 -33 62 -84.5t22 -117.5q0 -78 -30 -134.5t-84 -87.5t-126 -31q-55 0 -99 17zM144 244q0 -74 30 -119l165 282q-25 11 -56 11q-63 0 -101 -44.5
t-38 -129.5zM283 69q62 0 100 45t38 130q0 74 -30 119l-165 -282q25 -12 57 -12z" />
    <glyph glyph-name="ugrave" unicode="&#xf9;" horiz-adv-x="569" 
d="M245 -9q-177 0 -177 197v300h101v-301q0 -59 24 -87t76 -28q57 0 92.5 38t35.5 102v276h101v-488h-98v78q-24 -43 -64 -65t-91 -22zM249 554l-136 202h103l103 -202h-70z" />
    <glyph glyph-name="uacute" unicode="&#xfa;" horiz-adv-x="569" 
d="M245 -9q-177 0 -177 197v300h101v-301q0 -59 24 -87t76 -28q57 0 92.5 38t35.5 102v276h101v-488h-98v78q-24 -43 -64 -65t-91 -22zM249 554l103 202h103l-136 -202h-70z" />
    <glyph glyph-name="ucircumflex" unicode="&#xfb;" horiz-adv-x="569" 
d="M245 -9q-177 0 -177 197v300h101v-301q0 -59 24 -87t76 -28q57 0 92.5 38t35.5 102v276h101v-488h-98v78q-24 -43 -64 -65t-91 -22zM128 554l110 202h92l110 -202h-67l-89 140l-89 -140h-67z" />
    <glyph glyph-name="udieresis" unicode="&#xfc;" horiz-adv-x="569" 
d="M245 -9q-177 0 -177 197v300h101v-301q0 -59 24 -87t76 -28q57 0 92.5 38t35.5 102v276h101v-488h-98v78q-24 -43 -64 -65t-91 -22zM324 605v99h100v-99h-100zM144 605v99h100v-99h-100z" />
    <glyph glyph-name="yacute" unicode="&#xfd;" horiz-adv-x="520" 
d="M121 -180l87 193l-204 475h108l150 -371l152 371h104l-291 -668h-106zM226 553l103 202h103l-136 -202h-70z" />
    <glyph glyph-name="thorn" unicode="&#xfe;" horiz-adv-x="591" 
d="M71 -180v885h101v-296q22 40 64.5 64t96.5 24q65 0 113.5 -31t75 -87.5t26.5 -134.5t-26.5 -135t-75 -87.5t-113.5 -30.5q-54 0 -96.5 23.5t-64.5 64.5v-259h-101zM308 69q63 0 100.5 45t37.5 130t-37.5 129.5t-100.5 44.5t-100.5 -44.5t-37.5 -129.5t37.5 -130
t100.5 -45z" />
    <glyph glyph-name="ydieresis" unicode="&#xff;" horiz-adv-x="520" 
d="M121 -180l87 193l-204 475h108l150 -371l152 371h104l-291 -668h-106zM301 604v99h100v-99h-100zM121 604v99h100v-99h-100z" />
    <glyph glyph-name="Amacron" unicode="&#x100;" horiz-adv-x="736" 
d="M11 0l314 705h86l315 -705h-106l-74 172h-357l-73 -172h-105zM367 590l-141 -334h285l-142 334h-2zM202 811v63h335v-63h-335z" />
    <glyph glyph-name="amacron" unicode="&#x101;" horiz-adv-x="537" 
d="M227 -9q-51 0 -91 20t-63.5 54t-23.5 77q0 54 27.5 85t91 45t171.5 14h34v26q0 57 -24 82t-79 25q-42 0 -84 -12.5t-86 -39.5l-31 71q38 27 95 43t109 16q100 0 148 -47.5t48 -148.5v-301h-95v81q-18 -42 -56 -66t-91 -24zM247 63q54 0 90 38t36 96v27h-33
q-73 0 -114.5 -7t-59 -23.5t-17.5 -45.5q0 -38 26 -61.5t72 -23.5zM123 621v64h305v-64h-305z" />
    <glyph glyph-name="Abreve" unicode="&#x102;" horiz-adv-x="736" 
d="M11 0l314 705h86l315 -705h-106l-74 172h-357l-73 -172h-105zM367 590l-141 -334h285l-142 334h-2zM369 760q-73 0 -121 45.5t-54 123.5l60 8q5 -54 35 -83.5t80 -29.5t80.5 29.5t34.5 83.5l60 -8q-6 -78 -53.5 -123.5t-121.5 -45.5z" />
    <glyph glyph-name="abreve" unicode="&#x103;" horiz-adv-x="537" 
d="M227 -9q-51 0 -91 20t-63.5 54t-23.5 77q0 54 27.5 85t91 45t171.5 14h34v26q0 57 -24 82t-79 25q-42 0 -84 -12.5t-86 -39.5l-31 71q38 27 95 43t109 16q100 0 148 -47.5t48 -148.5v-301h-95v81q-18 -42 -56 -66t-91 -24zM247 63q54 0 90 38t36 96v27h-33
q-73 0 -114.5 -7t-59 -23.5t-17.5 -45.5q0 -38 26 -61.5t72 -23.5zM275 550q-70 0 -113 51t-47 140l60 6q4 -64 30 -98.5t70 -34.5t70 34.5t30 98.5l60 -6q-3 -89 -46.5 -140t-113.5 -51z" />
    <glyph glyph-name="Aogonek" unicode="&#x104;" horiz-adv-x="736" 
d="M11 0l314 705h86l315 -705h-106l-74 172h-357l-73 -172h-105zM367 590l-141 -334h285l-142 334h-2zM678 -194q-51 0 -81 27.5t-30 73.5q0 41 26.5 76t72.5 56l32 -39q-24 -10 -43.5 -31.5t-19.5 -50.5q0 -27 16 -40.5t41 -13.5q24 0 53 12l15 -53q-34 -17 -82 -17z" />
    <glyph glyph-name="aogonek" unicode="&#x105;" horiz-adv-x="537" 
d="M227 -9q-51 0 -91 20t-63.5 54t-23.5 77q0 54 27.5 85t91 45t171.5 14h34v26q0 57 -24 82t-79 25q-42 0 -84 -12.5t-86 -39.5l-31 71q38 27 95 43t109 16q100 0 148 -47.5t48 -148.5v-301h-95v81q-18 -42 -56 -66t-91 -24zM247 63q54 0 90 38t36 96v27h-33
q-73 0 -114.5 -7t-59 -23.5t-17.5 -45.5q0 -38 26 -61.5t72 -23.5zM425 -194q-51 0 -81 27.5t-30 73.5q0 41 26.5 76t72.5 56l32 -39q-24 -10 -43.5 -31.5t-19.5 -50.5q0 -27 16 -40.5t41 -13.5q24 0 53 12l15 -53q-34 -17 -82 -17z" />
    <glyph glyph-name="Cacute" unicode="&#x106;" horiz-adv-x="676" 
d="M398 -9q-107 0 -183 44t-116.5 125.5t-40.5 192.5t40.5 192t116.5 125t183 44q72 0 134.5 -22.5t104.5 -64.5l-36 -83q-46 41 -94.5 59.5t-105.5 18.5q-114 0 -174 -70t-60 -199t60 -199.5t174 -70.5q57 0 105.5 18.5t94.5 59.5l36 -83q-42 -41 -104.5 -64t-134.5 -23z
M352 765l118 173h109l-153 -173h-74z" />
    <glyph glyph-name="cacute" unicode="&#x107;" horiz-adv-x="467" 
d="M286 -9q-75 0 -129.5 31.5t-84.5 89t-30 135.5q0 116 66 183t178 67q46 0 91 -16t74 -44l-32 -71q-28 26 -61.5 38.5t-63.5 12.5q-71 0 -109.5 -44.5t-38.5 -126.5t38.5 -128.5t109.5 -46.5q30 0 63.5 12.5t61.5 38.5l32 -72q-29 -27 -74.5 -43t-90.5 -16zM245 553
l103 202h103l-136 -202h-70z" />
    <glyph glyph-name="Ccircumflex" unicode="&#x108;" horiz-adv-x="676" 
d="M398 -9q-107 0 -183 44t-116.5 125.5t-40.5 192.5t40.5 192t116.5 125t183 44q72 0 134.5 -22.5t104.5 -64.5l-36 -83q-46 41 -94.5 59.5t-105.5 18.5q-114 0 -174 -70t-60 -199t60 -199.5t174 -70.5q57 0 105.5 18.5t94.5 59.5l36 -83q-42 -41 -104.5 -64t-134.5 -23z
M221 765l123 173h90l123 -173h-73l-95 112l-95 -112h-73z" />
    <glyph glyph-name="ccircumflex" unicode="&#x109;" horiz-adv-x="467" 
d="M286 -9q-75 0 -129.5 31.5t-84.5 89t-30 135.5q0 116 66 183t178 67q46 0 91 -16t74 -44l-32 -71q-28 26 -61.5 38.5t-63.5 12.5q-71 0 -109.5 -44.5t-38.5 -126.5t38.5 -128.5t109.5 -46.5q30 0 63.5 12.5t61.5 38.5l32 -72q-29 -27 -74.5 -43t-90.5 -16zM124 553
l110 202h92l110 -202h-67l-89 140l-89 -140h-67z" />
    <glyph glyph-name="Cdotaccent" unicode="&#x10a;" horiz-adv-x="676" 
d="M398 -9q-107 0 -183 44t-116.5 125.5t-40.5 192.5t40.5 192t116.5 125t183 44q72 0 134.5 -22.5t104.5 -64.5l-36 -83q-46 41 -94.5 59.5t-105.5 18.5q-114 0 -174 -70t-60 -199t60 -199.5t174 -70.5q57 0 105.5 18.5t94.5 59.5l36 -83q-42 -41 -104.5 -64t-134.5 -23z
M337 801v101h104v-101h-104z" />
    <glyph glyph-name="cdotaccent" unicode="&#x10b;" horiz-adv-x="467" 
d="M286 -9q-75 0 -129.5 31.5t-84.5 89t-30 135.5q0 116 66 183t178 67q46 0 91 -16t74 -44l-32 -71q-28 26 -61.5 38.5t-63.5 12.5q-71 0 -109.5 -44.5t-38.5 -126.5t38.5 -128.5t109.5 -46.5q30 0 63.5 12.5t61.5 38.5l32 -72q-29 -27 -74.5 -43t-90.5 -16zM227 603v101
h106v-101h-106z" />
    <glyph glyph-name="Ccaron" unicode="&#x10c;" horiz-adv-x="676" 
d="M398 -9q-107 0 -183 44t-116.5 125.5t-40.5 192.5t40.5 192t116.5 125t183 44q72 0 134.5 -22.5t104.5 -64.5l-36 -83q-46 41 -94.5 59.5t-105.5 18.5q-114 0 -174 -70t-60 -199t60 -199.5t174 -70.5q57 0 105.5 18.5t94.5 59.5l36 -83q-42 -41 -104.5 -64t-134.5 -23z
M344 765l-123 173h73l95 -112l95 112h73l-123 -173h-90z" />
    <glyph glyph-name="ccaron" unicode="&#x10d;" horiz-adv-x="467" 
d="M286 -9q-75 0 -129.5 31.5t-84.5 89t-30 135.5q0 116 66 183t178 67q46 0 91 -16t74 -44l-32 -71q-28 26 -61.5 38.5t-63.5 12.5q-71 0 -109.5 -44.5t-38.5 -126.5t38.5 -128.5t109.5 -46.5q30 0 63.5 12.5t61.5 38.5l32 -72q-29 -27 -74.5 -43t-90.5 -16zM234 553
l-110 202h67l89 -141l89 141h67l-110 -202h-92z" />
    <glyph glyph-name="Dcaron" unicode="&#x10e;" horiz-adv-x="751" 
d="M82 0v705h249q174 0 268.5 -91t94.5 -261t-94.5 -261.5t-268.5 -91.5h-249zM186 87h139q261 0 261 266q0 265 -261 265h-139v-531zM329 765l-123 173h73l95 -112l95 112h73l-123 -173h-90z" />
    <glyph glyph-name="dcaron" unicode="&#x10f;" horiz-adv-x="591" 
d="M257 -9q-64 0 -112.5 30.5t-75.5 87.5t-27 135t27 134.5t75 87.5t113 31q55 0 98 -24t64 -65v297h101v-705h-99v85q-21 -44 -64.5 -69t-99.5 -25zM283 69q62 0 100 45t38 130t-38 129.5t-100 44.5q-63 0 -101 -44.5t-38 -129.5t38 -130t101 -45zM563 514v191h74l-25 -191
h-49z" />
    <glyph glyph-name="Dcroat" unicode="&#x110;" horiz-adv-x="751" 
d="M82 0v705h249q174 0 268.5 -91t94.5 -261t-94.5 -261.5t-268.5 -91.5h-249zM186 87h139q261 0 261 266q0 265 -261 265h-139v-531zM-5 319v77h384v-77h-384z" />
    <glyph glyph-name="dcroat" unicode="&#x111;" horiz-adv-x="591" 
d="M258 -9q-64 0 -112.5 30.5t-75.5 87.5t-27 135t26.5 134.5t75 87.5t113.5 31q55 0 97.5 -24t64.5 -65v141h-192v73h192v83h101v-83h89v-73h-89v-549h-101v82q-21 -42 -64 -66.5t-98 -24.5zM283 69q63 0 100.5 45t37.5 130t-37.5 129.5t-100.5 44.5t-100.5 -44.5
t-37.5 -129.5t37.5 -130t100.5 -45z" />
    <glyph glyph-name="Emacron" unicode="&#x112;" horiz-adv-x="589" 
d="M82 0v705h456v-84h-356v-221h335v-84h-335v-232h356v-84h-456zM159 811v63h335v-63h-335z" />
    <glyph glyph-name="emacron" unicode="&#x113;" horiz-adv-x="537" 
d="M300 -9q-120 0 -189 67.5t-69 184.5q0 75 30.5 132.5t84.5 89.5t124 32q101 0 159 -64.5t58 -177.5v-34h-358q11 -152 161 -152q42 0 82.5 13t76.5 43l30 -70q-33 -30 -85 -47t-105 -17zM285 426q-63 0 -100 -39t-45 -104h273q-3 68 -36 105.5t-92 37.5zM130 621v64h305
v-64h-305z" />
    <glyph glyph-name="Ebreve" unicode="&#x114;" horiz-adv-x="589" 
d="M82 0v705h456v-84h-356v-221h335v-84h-335v-232h356v-84h-456zM326 760q-73 0 -121 45.5t-54 123.5l60 8q5 -54 35 -83.5t80 -29.5t80.5 29.5t34.5 83.5l60 -8q-6 -78 -53.5 -123.5t-121.5 -45.5z" />
    <glyph glyph-name="ebreve" unicode="&#x115;" horiz-adv-x="537" 
d="M300 -9q-120 0 -189 67.5t-69 184.5q0 75 30.5 132.5t84.5 89.5t124 32q101 0 159 -64.5t58 -177.5v-34h-358q11 -152 161 -152q42 0 82.5 13t76.5 43l30 -70q-33 -30 -85 -47t-105 -17zM285 426q-63 0 -100 -39t-45 -104h273q-3 68 -36 105.5t-92 37.5zM282 550
q-70 0 -113 51t-47 140l60 6q4 -64 30 -98.5t70 -34.5t70 34.5t30 98.5l60 -6q-3 -89 -46.5 -140t-113.5 -51z" />
    <glyph glyph-name="Edotaccent" unicode="&#x116;" horiz-adv-x="589" 
d="M82 0v705h456v-84h-356v-221h335v-84h-335v-232h356v-84h-456zM274 801v101h104v-101h-104z" />
    <glyph glyph-name="edotaccent" unicode="&#x117;" horiz-adv-x="537" 
d="M300 -9q-120 0 -189 67.5t-69 184.5q0 75 30.5 132.5t84.5 89.5t124 32q101 0 159 -64.5t58 -177.5v-34h-358q11 -152 161 -152q42 0 82.5 13t76.5 43l30 -70q-33 -30 -85 -47t-105 -17zM285 426q-63 0 -100 -39t-45 -104h273q-3 68 -36 105.5t-92 37.5zM229 603v101h106
v-101h-106z" />
    <glyph glyph-name="Eogonek" unicode="&#x118;" horiz-adv-x="589" 
d="M82 0v705h456v-84h-356v-221h335v-84h-335v-232h356v-84h-456zM476 -194q-51 0 -81 27.5t-30 73.5q0 41 26.5 76t72.5 56l32 -39q-24 -10 -43.5 -31.5t-19.5 -50.5q0 -27 16 -40.5t41 -13.5q24 0 53 12l15 -53q-34 -17 -82 -17z" />
    <glyph glyph-name="eogonek" unicode="&#x119;" horiz-adv-x="537" 
d="M300 -9q-120 0 -189 67.5t-69 184.5q0 75 30.5 132.5t84.5 89.5t124 32q101 0 159 -64.5t58 -177.5v-34h-358q11 -152 161 -152q42 0 82.5 13t76.5 43l30 -70q-33 -30 -85 -47t-105 -17zM285 426q-63 0 -100 -39t-45 -104h273q-3 68 -36 105.5t-92 37.5zM343 -194
q-51 0 -81 27.5t-30 73.5q0 41 26.5 76t72.5 56l32 -39q-24 -10 -43.5 -31.5t-19.5 -50.5q0 -27 16 -40.5t41 -13.5q24 0 53 12l15 -53q-34 -17 -82 -17z" />
    <glyph glyph-name="Ecaron" unicode="&#x11a;" horiz-adv-x="589" 
d="M82 0v705h456v-84h-356v-221h335v-84h-335v-232h356v-84h-456zM281 765l-123 173h73l95 -112l95 112h73l-123 -173h-90z" />
    <glyph glyph-name="ecaron" unicode="&#x11b;" horiz-adv-x="537" 
d="M300 -9q-120 0 -189 67.5t-69 184.5q0 75 30.5 132.5t84.5 89.5t124 32q101 0 159 -64.5t58 -177.5v-34h-358q11 -152 161 -152q42 0 82.5 13t76.5 43l30 -70q-33 -30 -85 -47t-105 -17zM285 426q-63 0 -100 -39t-45 -104h273q-3 68 -36 105.5t-92 37.5zM236 553
l-110 202h67l89 -141l89 141h67l-110 -202h-92z" />
    <glyph glyph-name="Gcircumflex" unicode="&#x11c;" horiz-adv-x="731" 
d="M412 -9q-115 0 -194 43.5t-119.5 124.5t-40.5 193q0 111 41 192.5t119 125.5t187 44q75 0 139 -22t107 -63l-37 -81q-48 40 -98 57.5t-111 17.5q-117 0 -178 -70.5t-61 -200.5q0 -133 62.5 -202t187.5 -69q76 0 151 25v189h-172v78h259v-332q-45 -22 -111.5 -36
t-130.5 -14zM228 765l123 173h90l123 -173h-73l-95 112l-95 -112h-73z" />
    <glyph glyph-name="gcircumflex" unicode="&#x11d;" horiz-adv-x="594" 
d="M292 -189q-66 0 -123 15.5t-101 48.5l31 72q44 -30 90 -44t96 -14q140 0 140 140v77q-21 -44 -65.5 -69t-99.5 -25q-66 0 -115 30.5t-76 85t-27 127.5q0 72 27 126.5t76 85t115 30.5q56 0 100 -25t65 -69v85h98v-447q0 -115 -59 -172.5t-172 -57.5zM284 91q64 0 102 44
t38 120t-38 119.5t-102 43.5t-102 -43.5t-38 -119.5t38 -120t102 -44zM142 553l110 202h92l110 -202h-67l-89 140l-89 -140h-67z" />
    <glyph glyph-name="Gbreve" unicode="&#x11e;" horiz-adv-x="731" 
d="M412 -9q-115 0 -194 43.5t-119.5 124.5t-40.5 193q0 111 41 192.5t119 125.5t187 44q75 0 139 -22t107 -63l-37 -81q-48 40 -98 57.5t-111 17.5q-117 0 -178 -70.5t-61 -200.5q0 -133 62.5 -202t187.5 -69q76 0 151 25v189h-172v78h259v-332q-45 -22 -111.5 -36
t-130.5 -14zM396 760q-73 0 -121 45.5t-54 123.5l60 8q5 -54 35 -83.5t80 -29.5t80.5 29.5t34.5 83.5l60 -8q-6 -78 -53.5 -123.5t-121.5 -45.5z" />
    <glyph glyph-name="gbreve" unicode="&#x11f;" horiz-adv-x="594" 
d="M292 -189q-66 0 -123 15.5t-101 48.5l31 72q44 -30 90 -44t96 -14q140 0 140 140v77q-21 -44 -65.5 -69t-99.5 -25q-66 0 -115 30.5t-76 85t-27 127.5q0 72 27 126.5t76 85t115 30.5q56 0 100 -25t65 -69v85h98v-447q0 -115 -59 -172.5t-172 -57.5zM284 91q64 0 102 44
t38 120t-38 119.5t-102 43.5t-102 -43.5t-38 -119.5t38 -120t102 -44zM298 550q-70 0 -113 51t-47 140l60 6q4 -64 30 -98.5t70 -34.5t70 34.5t30 98.5l60 -6q-3 -89 -46.5 -140t-113.5 -51z" />
    <glyph glyph-name="Gdotaccent" unicode="&#x120;" horiz-adv-x="731" 
d="M412 -9q-115 0 -194 43.5t-119.5 124.5t-40.5 193q0 111 41 192.5t119 125.5t187 44q75 0 139 -22t107 -63l-37 -81q-48 40 -98 57.5t-111 17.5q-117 0 -178 -70.5t-61 -200.5q0 -133 62.5 -202t187.5 -69q76 0 151 25v189h-172v78h259v-332q-45 -22 -111.5 -36
t-130.5 -14zM344 801v101h104v-101h-104z" />
    <glyph glyph-name="gdotaccent" unicode="&#x121;" horiz-adv-x="594" 
d="M292 -189q-66 0 -123 15.5t-101 48.5l31 72q44 -30 90 -44t96 -14q140 0 140 140v77q-21 -44 -65.5 -69t-99.5 -25q-66 0 -115 30.5t-76 85t-27 127.5q0 72 27 126.5t76 85t115 30.5q56 0 100 -25t65 -69v85h98v-447q0 -115 -59 -172.5t-172 -57.5zM284 91q64 0 102 44
t38 120t-38 119.5t-102 43.5t-102 -43.5t-38 -119.5t38 -120t102 -44zM245 603v101h106v-101h-106z" />
    <glyph glyph-name="uni0122" unicode="&#x122;" horiz-adv-x="731" 
d="M412 -9q-115 0 -194 43.5t-119.5 124.5t-40.5 193q0 111 41 192.5t119 125.5t187 44q75 0 139 -22t107 -63l-37 -81q-48 40 -98 57.5t-111 17.5q-117 0 -178 -70.5t-61 -200.5q0 -133 62.5 -202t187.5 -69q76 0 151 25v189h-172v78h259v-332q-45 -22 -111.5 -36
t-130.5 -14zM405 -273l-41 29q19 20 27.5 38t10.5 38h-55v91h112v-63q0 -39 -12.5 -72.5t-41.5 -60.5z" />
    <glyph glyph-name="uni0123" unicode="&#x123;" horiz-adv-x="594" 
d="M292 -189q-66 0 -123 15.5t-101 48.5l31 72q44 -30 90 -44t96 -14q140 0 140 140v77q-21 -44 -65.5 -69t-99.5 -25q-66 0 -115 30.5t-76 85t-27 127.5q0 72 27 126.5t76 85t115 30.5q56 0 100 -25t65 -69v85h98v-447q0 -115 -59 -172.5t-172 -57.5zM284 91q64 0 102 44
t38 120t-38 119.5t-102 43.5t-102 -43.5t-38 -119.5t38 -120t102 -44zM242 566v63q0 39 12.5 72.5t41.5 59.5l41 -28q-19 -20 -27.5 -38t-10.5 -38h55v-91h-112z" />
    <glyph glyph-name="Hcircumflex" unicode="&#x124;" horiz-adv-x="767" 
d="M82 0v705h104v-304h395v304h103v-705h-103v314h-395v-314h-104zM215 765l123 173h90l123 -173h-73l-95 112l-95 -112h-73z" />
    <glyph glyph-name="hcircumflex" unicode="&#x125;" horiz-adv-x="576" 
d="M71 0v705h101v-293q25 42 67.5 63.5t95.5 21.5q173 0 173 -196v-301h-101v295q0 63 -24.5 92t-76.5 29q-61 0 -97.5 -38.5t-36.5 -101.5v-276h-101zM121 765l123 173h90l123 -173h-73l-95 112l-95 -112h-73z" />
    <glyph glyph-name="Hbar" unicode="&#x126;" horiz-adv-x="807" 
d="M102 0v516h-88v77h88v112h104v-112h395v112h103v-112h88v-77h-88v-516h-103v307h-395v-307h-104zM206 394h395v122h-395v-122z" />
    <glyph glyph-name="hbar" unicode="&#x127;" horiz-adv-x="576" 
d="M71 0v549h-90v73h90v83h101v-83h191v-73h-191v-137q25 42 67.5 63.5t95.5 21.5q173 0 173 -196v-301h-101v295q0 63 -24.5 92t-76.5 29q-61 0 -97.5 -38.5t-36.5 -101.5v-276h-101z" />
    <glyph glyph-name="Itilde" unicode="&#x128;" horiz-adv-x="267" 
d="M82 0v705h104v-705h-104zM-28 778l-53 3q6 68 40 104t86 36q24 0 48 -9.5t55 -28.5q32 -20 48.5 -26.5t29.5 -6.5q57 0 70 75l53 -4q-5 -67 -39.5 -103.5t-85.5 -36.5q-24 0 -49.5 10.5t-56.5 29.5q-28 18 -45 25t-31 7q-56 0 -70 -75z" />
    <glyph glyph-name="itilde" unicode="&#x129;" horiz-adv-x="243" 
d="M71 0v488h101v-488h-101zM-12 587l-53 4q5 65 35 102.5t78 37.5q22 0 40.5 -10t42.5 -30q22 -18 35.5 -25t25.5 -7q51 0 62 75l53 -3q-4 -66 -34 -103t-78 -37q-20 0 -38.5 9t-45.5 30q-21 18 -34 25t-27 7q-50 0 -62 -75z" />
    <glyph glyph-name="Imacron" unicode="&#x12a;" horiz-adv-x="267" 
d="M82 0v705h104v-705h-104zM-33 811v63h335v-63h-335z" />
    <glyph glyph-name="imacron" unicode="&#x12b;" horiz-adv-x="243" 
d="M71 0v488h101v-488h-101zM-31 621v64h305v-64h-305z" />
    <glyph glyph-name="Ibreve" unicode="&#x12c;" horiz-adv-x="267" 
d="M82 0v705h104v-705h-104zM134 760q-73 0 -121 45.5t-54 123.5l60 8q5 -54 35 -83.5t80 -29.5t80.5 29.5t34.5 83.5l60 -8q-6 -78 -53.5 -123.5t-121.5 -45.5z" />
    <glyph glyph-name="ibreve" unicode="&#x12d;" horiz-adv-x="243" 
d="M71 0v488h101v-488h-101zM121 550q-70 0 -113 51t-47 140l60 6q4 -64 30 -98.5t70 -34.5t70 34.5t30 98.5l60 -6q-3 -89 -46.5 -140t-113.5 -51z" />
    <glyph glyph-name="Iogonek" unicode="&#x12e;" horiz-adv-x="267" 
d="M82 0v705h104v-705h-104zM146 -194q-51 0 -81 27.5t-30 73.5q0 41 26.5 76t72.5 56l32 -39q-24 -10 -43.5 -31.5t-19.5 -50.5q0 -27 16 -40.5t41 -13.5q24 0 53 12l15 -53q-34 -17 -82 -17z" />
    <glyph glyph-name="iogonek" unicode="&#x12f;" horiz-adv-x="243" 
d="M71 0v488h101v-488h-101zM62 601v105h118v-105h-118zM133 -194q-51 0 -81 27.5t-30 73.5q0 41 26.5 76t72.5 56l32 -39q-24 -10 -43.5 -31.5t-19.5 -50.5q0 -27 16 -40.5t41 -13.5q24 0 53 12l15 -53q-34 -17 -82 -17z" />
    <glyph glyph-name="Idotaccent" unicode="&#x130;" horiz-adv-x="267" 
d="M82 0v705h104v-705h-104zM82 801v101h104v-101h-104z" />
    <glyph glyph-name="dotlessi" unicode="&#x131;" horiz-adv-x="243" 
d="M71 0v488h101v-488h-101z" />
    <glyph glyph-name="IJ" unicode="&#x132;" horiz-adv-x="606" 
d="M82 0v705h104v-705h-104zM265 -8l-8 85l65 4q98 8 98 112v512h103v-512q0 -91 -47 -141t-139 -56z" />
    <glyph glyph-name="Jcircumflex" unicode="&#x134;" horiz-adv-x="338" 
d="M-2 -8l-8 85l65 4q98 8 98 112v512h103v-512q0 -91 -47 -141t-139 -56zM35 765l123 173h90l123 -173h-73l-95 112l-95 -112h-73z" />
    <glyph glyph-name="jcircumflex" unicode="&#x135;" horiz-adv-x="246" 
d="M-48 -193l-7 76l44 4q85 9 85 102v499h101v-488q0 -92 -42.5 -137.5t-137.5 -52.5zM-31 553l110 202h92l110 -202h-67l-89 140l-89 -140h-67z" />
    <glyph glyph-name="uni0136" unicode="&#x136;" horiz-adv-x="643" 
d="M82 0v705h104v-317h2l327 317h128l-356 -341l376 -364h-130l-345 329h-2v-329h-104zM325 -273l-41 29q19 20 27.5 38t10.5 38h-55v91h112v-63q0 -39 -12.5 -72.5t-41.5 -60.5z" />
    <glyph glyph-name="uni0137" unicode="&#x137;" horiz-adv-x="516" 
d="M71 0v705h101v-430h2l212 213h125l-234 -235l252 -253h-126l-229 223h-2v-223h-101zM260 -273l-41 29q19 20 27.5 38t10.5 38h-55v91h112v-63q0 -39 -12.5 -72.5t-41.5 -60.5z" />
    <glyph glyph-name="kgreenlandic" unicode="&#x138;" horiz-adv-x="516" 
d="M71 0v488h101v-213h2l212 213h125l-234 -235l252 -253h-126l-229 223h-2v-223h-101z" />
    <glyph glyph-name="Lacute" unicode="&#x139;" horiz-adv-x="552" 
d="M82 0v705h104v-616h349v-89h-453zM97 765l118 173h109l-153 -173h-74z" />
    <glyph glyph-name="lacute" unicode="&#x13a;" horiz-adv-x="306" 
d="M230 -9q-80 0 -119.5 45t-39.5 132v537h101v-531q0 -99 81 -99q12 0 22.5 1t21.5 4l-2 -81q-34 -8 -65 -8zM84 765l118 173h109l-153 -173h-74z" />
    <glyph glyph-name="uni013B" unicode="&#x13b;" horiz-adv-x="552" 
d="M82 0v705h104v-616h349v-89h-453zM311 -273l-41 29q19 20 27.5 38t10.5 38h-55v91h112v-63q0 -39 -12.5 -72.5t-41.5 -60.5z" />
    <glyph glyph-name="uni013C" unicode="&#x13c;" horiz-adv-x="306" 
d="M230 -9q-80 0 -119.5 45t-39.5 132v537h101v-531q0 -99 81 -99q12 0 22.5 1t21.5 4l-2 -81q-34 -8 -65 -8zM191 -273l-41 29q19 20 27.5 38t10.5 38h-55v91h112v-63q0 -39 -12.5 -72.5t-41.5 -60.5z" />
    <glyph glyph-name="Lcaron" unicode="&#x13d;" horiz-adv-x="552" 
d="M82 0v705h104v-616h349v-89h-453zM296 475v230h83l-22 -230h-61z" />
    <glyph glyph-name="lcaron" unicode="&#x13e;" horiz-adv-x="306" 
d="M230 -9q-80 0 -119.5 45t-39.5 132v537h101v-531q0 -99 81 -99q12 0 22.5 1t21.5 4l-2 -81q-34 -8 -65 -8zM215 514v191h74l-25 -191h-49z" />
    <glyph glyph-name="Ldot" unicode="&#x13f;" horiz-adv-x="552" 
d="M82 0v705h104v-616h349v-89h-453zM353 337v107h120v-107h-120z" />
    <glyph glyph-name="ldot" unicode="&#x140;" horiz-adv-x="343" 
d="M230 -9q-80 0 -119.5 45t-39.5 132v537h101v-531q0 -99 81 -99q12 0 22.5 1t21.5 4l-2 -81q-34 -8 -65 -8zM233 303v107h120v-107h-120z" />
    <glyph glyph-name="Lslash" unicode="&#x141;" horiz-adv-x="552" 
d="M82 0v705h104v-616h349v-89h-453zM10 243l-40 70l378 218l40 -70z" />
    <glyph glyph-name="lslash" unicode="&#x142;" horiz-adv-x="306" 
d="M230 -9q-80 0 -119.5 45t-39.5 132v537h101v-531q0 -99 81 -99q12 0 22.5 1t21.5 4l-2 -81q-34 -8 -65 -8zM11 240l-40 70l281 163l40 -69z" />
    <glyph glyph-name="Nacute" unicode="&#x143;" horiz-adv-x="743" 
d="M82 0v705h79l404 -533v533h96v-705h-77l-406 535v-535h-96zM335 765l118 173h109l-153 -173h-74z" />
    <glyph glyph-name="nacute" unicode="&#x144;" horiz-adv-x="576" 
d="M71 0v488h98v-81q25 44 68.5 67t97.5 23q173 0 173 -196v-301h-101v295q0 63 -24.5 92t-76.5 29q-61 0 -97.5 -38.5t-36.5 -101.5v-276h-101zM254 553l103 202h103l-136 -202h-70z" />
    <glyph glyph-name="uni0145" unicode="&#x145;" horiz-adv-x="743" 
d="M82 0v705h79l404 -533v533h96v-705h-77l-406 535v-535h-96zM374 -273l-41 29q19 20 27.5 38t10.5 38h-55v91h112v-63q0 -39 -12.5 -72.5t-41.5 -60.5z" />
    <glyph glyph-name="uni0146" unicode="&#x146;" horiz-adv-x="576" 
d="M71 0v488h98v-81q25 44 68.5 67t97.5 23q173 0 173 -196v-301h-101v295q0 63 -24.5 92t-76.5 29q-61 0 -97.5 -38.5t-36.5 -101.5v-276h-101zM291 -273l-41 29q19 20 27.5 38t10.5 38h-55v91h112v-63q0 -39 -12.5 -72.5t-41.5 -60.5z" />
    <glyph glyph-name="Ncaron" unicode="&#x147;" horiz-adv-x="743" 
d="M82 0v705h79l404 -533v533h96v-705h-77l-406 535v-535h-96zM327 765l-123 173h73l95 -112l95 112h73l-123 -173h-90z" />
    <glyph glyph-name="ncaron" unicode="&#x148;" horiz-adv-x="576" 
d="M71 0v488h98v-81q25 44 68.5 67t97.5 23q173 0 173 -196v-301h-101v295q0 63 -24.5 92t-76.5 29q-61 0 -97.5 -38.5t-36.5 -101.5v-276h-101zM243 553l-110 202h67l89 -141l89 141h67l-110 -202h-92z" />
    <glyph glyph-name="napostrophe" unicode="&#x149;" horiz-adv-x="576" 
d="M41 569l-41 29q18 18 25.5 35t8.5 34h-53v94h112v-63q0 -38 -11 -69.5t-41 -59.5zM71 0v488h98v-81q25 44 68.5 67t97.5 23q173 0 173 -196v-301h-101v295q0 63 -24.5 92t-76.5 29q-61 0 -97.5 -38.5t-36.5 -101.5v-276h-101z" />
    <glyph glyph-name="Eng" unicode="&#x14a;" horiz-adv-x="743" 
d="M437 -193l-6 76l46 4q88 9 88 102v35l-387 511v-535h-96v705h79l404 -533v533h96v-705q0 -92 -43 -137.5t-137 -52.5z" />
    <glyph glyph-name="eng" unicode="&#x14b;" horiz-adv-x="576" 
d="M284 -193l-6 76l44 4q85 9 85 102v306q0 63 -24.5 92t-76.5 29q-61 0 -97.5 -38.5t-36.5 -101.5v-276h-101v488h98v-81q25 44 68.5 67t97.5 23q173 0 173 -196v-301q0 -92 -43 -137.5t-137 -52.5z" />
    <glyph glyph-name="Omacron" unicode="&#x14c;" horiz-adv-x="775" 
d="M388 -9q-101 0 -175 44.5t-114.5 126t-40.5 191.5q0 111 40.5 192t114.5 125t175 44q100 0 174.5 -44t115 -125t40.5 -191q0 -111 -40.5 -192.5t-115 -126t-174.5 -44.5zM388 81q105 0 163.5 71.5t58.5 200.5t-58 200t-164 71q-105 0 -163.5 -71t-58.5 -200t58.5 -200.5
t163.5 -71.5zM220 811v63h335v-63h-335z" />
    <glyph glyph-name="omacron" unicode="&#x14d;" horiz-adv-x="565" 
d="M283 -9q-74 0 -128 31t-83.5 87.5t-29.5 134.5t29.5 134.5t83.5 87.5t128 31q72 0 126 -31t84 -87.5t30 -134.5t-30 -134.5t-84 -87.5t-126 -31zM283 69q62 0 100 45t38 130t-38 129.5t-100 44.5q-63 0 -101 -44.5t-38 -129.5t38 -130t101 -45zM131 621v64h305v-64h-305z
" />
    <glyph glyph-name="Obreve" unicode="&#x14e;" horiz-adv-x="775" 
d="M388 -9q-101 0 -175 44.5t-114.5 126t-40.5 191.5q0 111 40.5 192t114.5 125t175 44q100 0 174.5 -44t115 -125t40.5 -191q0 -111 -40.5 -192.5t-115 -126t-174.5 -44.5zM388 81q105 0 163.5 71.5t58.5 200.5t-58 200t-164 71q-105 0 -163.5 -71t-58.5 -200t58.5 -200.5
t163.5 -71.5zM387 760q-73 0 -121 45.5t-54 123.5l60 8q5 -54 35 -83.5t80 -29.5t80.5 29.5t34.5 83.5l60 -8q-6 -78 -53.5 -123.5t-121.5 -45.5z" />
    <glyph glyph-name="obreve" unicode="&#x14f;" horiz-adv-x="565" 
d="M283 -9q-74 0 -128 31t-83.5 87.5t-29.5 134.5t29.5 134.5t83.5 87.5t128 31q72 0 126 -31t84 -87.5t30 -134.5t-30 -134.5t-84 -87.5t-126 -31zM283 69q62 0 100 45t38 130t-38 129.5t-100 44.5q-63 0 -101 -44.5t-38 -129.5t38 -130t101 -45zM283 550q-70 0 -113 51
t-47 140l60 6q4 -64 30 -98.5t70 -34.5t70 34.5t30 98.5l60 -6q-3 -89 -46.5 -140t-113.5 -51z" />
    <glyph glyph-name="Ohungarumlaut" unicode="&#x150;" horiz-adv-x="775" 
d="M388 -9q-101 0 -175 44.5t-114.5 126t-40.5 191.5q0 111 40.5 192t114.5 125t175 44q100 0 174.5 -44t115 -125t40.5 -191q0 -111 -40.5 -192.5t-115 -126t-174.5 -44.5zM388 81q105 0 163.5 71.5t58.5 200.5t-58 200t-164 71q-105 0 -163.5 -71t-58.5 -200t58.5 -200.5
t163.5 -71.5zM291 765l85 173h95l-123 -173h-57zM426 765l92 173h95l-129 -173h-58z" />
    <glyph glyph-name="ohungarumlaut" unicode="&#x151;" horiz-adv-x="565" 
d="M283 -9q-74 0 -128 31t-83.5 87.5t-29.5 134.5t29.5 134.5t83.5 87.5t128 31q72 0 126 -31t84 -87.5t30 -134.5t-30 -134.5t-84 -87.5t-126 -31zM283 69q62 0 100 45t38 130t-38 129.5t-100 44.5q-63 0 -101 -44.5t-38 -129.5t38 -130t101 -45zM323 553l52 202h88
l-85 -202h-55zM186 553l52 202h89l-86 -202h-55z" />
    <glyph glyph-name="OE" unicode="&#x152;" horiz-adv-x="1051" 
d="M421 0q-174 0 -268.5 91.5t-94.5 261.5t94.5 261t268.5 91h579v-84h-356v-221h335v-84h-335v-232h356v-84h-579zM427 87h117v531h-117q-261 0 -261 -265q0 -266 261 -266z" />
    <glyph glyph-name="oe" unicode="&#x153;" horiz-adv-x="912" 
d="M280 -9q-73 0 -126 31t-82.5 88t-29.5 135q0 77 29.5 133.5t82.5 87.5t126 31q65 0 114 -28t77 -80q27 49 76.5 78.5t112.5 29.5q99 0 156.5 -64.5t57.5 -177.5v-34h-352q5 -74 44 -113t113 -39q85 0 156 56l31 -70q-34 -30 -85 -47t-103 -17q-73 0 -127 27.5t-82 79.5
q-28 -51 -76.5 -79t-112.5 -28zM661 426q-60 0 -96 -38t-43 -105h266q-2 68 -35 105.5t-92 37.5zM283 69q62 0 100 45t38 130t-38 129.5t-100 44.5q-63 0 -101 -44.5t-38 -129.5t38 -130t101 -45z" />
    <glyph glyph-name="Racute" unicode="&#x154;" horiz-adv-x="677" 
d="M82 0v705h292q114 0 176 -54.5t62 -152.5q0 -79 -42 -129.5t-119 -67.5q48 -16 81 -77l122 -224h-114l-122 225q-21 39 -48.5 52.5t-70.5 13.5h-113v-291h-104zM186 369h171q154 0 154 127q0 126 -154 126h-171v-253zM307 765l118 173h109l-153 -173h-74z" />
    <glyph glyph-name="racute" unicode="&#x155;" horiz-adv-x="373" 
d="M71 0v488h98v-87q38 87 158 97l33 2l7 -86l-61 -6q-133 -13 -133 -137v-271h-102zM185 553l103 202h103l-136 -202h-70z" />
    <glyph glyph-name="uni0156" unicode="&#x156;" horiz-adv-x="677" 
d="M82 0v705h292q114 0 176 -54.5t62 -152.5q0 -79 -42 -129.5t-119 -67.5q48 -16 81 -77l122 -224h-114l-122 225q-21 39 -48.5 52.5t-70.5 13.5h-113v-291h-104zM186 369h171q154 0 154 127q0 126 -154 126h-171v-253zM347 -273l-41 29q19 20 27.5 38t10.5 38h-55v91h112
v-63q0 -39 -12.5 -72.5t-41.5 -60.5z" />
    <glyph glyph-name="uni0157" unicode="&#x157;" horiz-adv-x="373" 
d="M71 0v488h98v-87q38 87 158 97l33 2l7 -86l-61 -6q-133 -13 -133 -137v-271h-102zM124 -273l-41 29q19 20 27.5 38t10.5 38h-55v91h112v-63q0 -39 -12.5 -72.5t-41.5 -60.5z" />
    <glyph glyph-name="Rcaron" unicode="&#x158;" horiz-adv-x="677" 
d="M82 0v705h292q114 0 176 -54.5t62 -152.5q0 -79 -42 -129.5t-119 -67.5q48 -16 81 -77l122 -224h-114l-122 225q-21 39 -48.5 52.5t-70.5 13.5h-113v-291h-104zM186 369h171q154 0 154 127q0 126 -154 126h-171v-253zM299 765l-123 173h73l95 -112l95 112h73l-123 -173
h-90z" />
    <glyph glyph-name="rcaron" unicode="&#x159;" horiz-adv-x="373" 
d="M71 0v488h98v-87q38 87 158 97l33 2l7 -86l-61 -6q-133 -13 -133 -137v-271h-102zM174 553l-110 202h67l89 -141l89 141h67l-110 -202h-92z" />
    <glyph glyph-name="Sacute" unicode="&#x15a;" horiz-adv-x="622" 
d="M317 -9q-83 0 -152 21.5t-117 60.5l33 82q50 -38 107 -57t129 -19q85 0 125.5 30.5t40.5 79.5q0 40 -29 63.5t-97 37.5l-107 22q-95 20 -141.5 66t-46.5 124q0 63 33.5 111t93.5 74.5t138 26.5q72 0 133.5 -21.5t104.5 -62.5l-34 -79q-85 75 -205 75q-74 0 -117.5 -33
t-43.5 -88q0 -42 27 -67t90 -38l106 -22q100 -21 149 -64.5t49 -117.5q0 -62 -33 -108t-93 -71.5t-143 -25.5zM282 765l118 173h109l-153 -173h-74z" />
    <glyph glyph-name="sacute" unicode="&#x15b;" horiz-adv-x="484" 
d="M242 -9q-60 0 -112 15.5t-87 43.5l29 68q37 -26 81.5 -40t89.5 -14q53 0 80 19t27 51q0 26 -18 40.5t-54 22.5l-95 19q-126 26 -126 130q0 69 55 110t144 41q51 0 97.5 -15t77.5 -45l-29 -68q-30 26 -69 40t-77 14q-52 0 -79 -19.5t-27 -52.5q0 -50 66 -64l95 -19
q65 -13 98.5 -44t33.5 -84q0 -70 -55 -109.5t-146 -39.5zM216 553l103 202h103l-136 -202h-70z" />
    <glyph glyph-name="Scircumflex" unicode="&#x15c;" horiz-adv-x="622" 
d="M317 -9q-83 0 -152 21.5t-117 60.5l33 82q50 -38 107 -57t129 -19q85 0 125.5 30.5t40.5 79.5q0 40 -29 63.5t-97 37.5l-107 22q-95 20 -141.5 66t-46.5 124q0 63 33.5 111t93.5 74.5t138 26.5q72 0 133.5 -21.5t104.5 -62.5l-34 -79q-85 75 -205 75q-74 0 -117.5 -33
t-43.5 -88q0 -42 27 -67t90 -38l106 -22q100 -21 149 -64.5t49 -117.5q0 -62 -33 -108t-93 -71.5t-143 -25.5zM151 765l123 173h90l123 -173h-73l-95 112l-95 -112h-73z" />
    <glyph glyph-name="scircumflex" unicode="&#x15d;" horiz-adv-x="484" 
d="M242 -9q-60 0 -112 15.5t-87 43.5l29 68q37 -26 81.5 -40t89.5 -14q53 0 80 19t27 51q0 26 -18 40.5t-54 22.5l-95 19q-126 26 -126 130q0 69 55 110t144 41q51 0 97.5 -15t77.5 -45l-29 -68q-30 26 -69 40t-77 14q-52 0 -79 -19.5t-27 -52.5q0 -50 66 -64l95 -19
q65 -13 98.5 -44t33.5 -84q0 -70 -55 -109.5t-146 -39.5zM95 553l110 202h92l110 -202h-67l-89 140l-89 -140h-67z" />
    <glyph glyph-name="Scedilla" unicode="&#x15e;" horiz-adv-x="622" 
d="M317 -9q-83 0 -152 21.5t-117 60.5l33 82q50 -38 107 -57t129 -19q85 0 125.5 30.5t40.5 79.5q0 40 -29 63.5t-97 37.5l-107 22q-95 20 -141.5 66t-46.5 124q0 63 33.5 111t93.5 74.5t138 26.5q72 0 133.5 -21.5t104.5 -62.5l-34 -79q-85 75 -205 75q-74 0 -117.5 -33
t-43.5 -88q0 -42 27 -67t90 -38l106 -22q100 -21 149 -64.5t49 -117.5q0 -62 -33 -108t-93 -71.5t-143 -25.5zM321 -194q-27 0 -52.5 5.5t-42.5 15.5l15 49q19 -8 35.5 -12t38.5 -4q27 0 42 8.5t15 24.5q0 26 -38 26q-10 0 -20 -1.5t-24 -5.5l-18 16l14 92h58l-10 -61
q8 1 15 1q39 0 63 -18.5t24 -51.5q0 -37 -32 -60.5t-83 -23.5z" />
    <glyph glyph-name="scedilla" unicode="&#x15f;" horiz-adv-x="484" 
d="M242 -9q-60 0 -112 15.5t-87 43.5l29 68q37 -26 81.5 -40t89.5 -14q53 0 80 19t27 51q0 26 -18 40.5t-54 22.5l-95 19q-126 26 -126 130q0 69 55 110t144 41q51 0 97.5 -15t77.5 -45l-29 -68q-30 26 -69 40t-77 14q-52 0 -79 -19.5t-27 -52.5q0 -50 66 -64l95 -19
q65 -13 98.5 -44t33.5 -84q0 -70 -55 -109.5t-146 -39.5zM244 -194q-27 0 -52.5 5.5t-42.5 15.5l15 49q19 -8 35.5 -12t38.5 -4q27 0 42 8.5t15 24.5q0 26 -38 26q-10 0 -20 -1.5t-24 -5.5l-18 16l14 92h58l-10 -61q8 1 15 1q39 0 63 -18.5t24 -51.5q0 -37 -32 -60.5
t-83 -23.5z" />
    <glyph glyph-name="Scaron" unicode="&#x160;" horiz-adv-x="622" 
d="M317 -9q-83 0 -152 21.5t-117 60.5l33 82q50 -38 107 -57t129 -19q85 0 125.5 30.5t40.5 79.5q0 40 -29 63.5t-97 37.5l-107 22q-95 20 -141.5 66t-46.5 124q0 63 33.5 111t93.5 74.5t138 26.5q72 0 133.5 -21.5t104.5 -62.5l-34 -79q-85 75 -205 75q-74 0 -117.5 -33
t-43.5 -88q0 -42 27 -67t90 -38l106 -22q100 -21 149 -64.5t49 -117.5q0 -62 -33 -108t-93 -71.5t-143 -25.5zM274 765l-123 173h73l95 -112l95 112h73l-123 -173h-90z" />
    <glyph glyph-name="scaron" unicode="&#x161;" horiz-adv-x="484" 
d="M242 -9q-60 0 -112 15.5t-87 43.5l29 68q37 -26 81.5 -40t89.5 -14q53 0 80 19t27 51q0 26 -18 40.5t-54 22.5l-95 19q-126 26 -126 130q0 69 55 110t144 41q51 0 97.5 -15t77.5 -45l-29 -68q-30 26 -69 40t-77 14q-52 0 -79 -19.5t-27 -52.5q0 -50 66 -64l95 -19
q65 -13 98.5 -44t33.5 -84q0 -70 -55 -109.5t-146 -39.5zM205 553l-110 202h67l89 -141l89 141h67l-110 -202h-92z" />
    <glyph glyph-name="uni0162" unicode="&#x162;" horiz-adv-x="611" 
d="M254 0v618h-250v87h603v-87h-250v-618h-103zM308 -194q-27 0 -52.5 5.5t-42.5 15.5l15 49q19 -8 35.5 -12t38.5 -4q27 0 42 8.5t15 24.5q0 26 -38 26q-10 0 -20 -1.5t-24 -5.5l-18 16l14 92h58l-10 -61q8 1 15 1q39 0 63 -18.5t24 -51.5q0 -37 -32 -60.5t-83 -23.5z" />
    <glyph glyph-name="uni0163" unicode="&#x163;" horiz-adv-x="365" 
d="M279 -9q-92 0 -137 47t-45 136v236h-95v78h95v147h101v-147h151v-78h-151v-228q0 -53 22.5 -80t73.5 -27q16 0 31 3.5t30 8.5l16 -76q-15 -9 -41.5 -14.5t-50.5 -5.5zM224 -194q-27 0 -52.5 5.5t-42.5 15.5l15 49q19 -8 35.5 -12t38.5 -4q27 0 42 8.5t15 24.5
q0 26 -38 26q-10 0 -20 -1.5t-24 -5.5l-18 16l14 92h58l-10 -61q8 1 15 1q39 0 63 -18.5t24 -51.5q0 -37 -32 -60.5t-83 -23.5z" />
    <glyph glyph-name="Tcaron" unicode="&#x164;" horiz-adv-x="611" 
d="M254 0v618h-250v87h603v-87h-250v-618h-103zM261 765l-123 173h73l95 -112l95 112h73l-123 -173h-90z" />
    <glyph glyph-name="tcaron" unicode="&#x165;" horiz-adv-x="365" 
d="M279 -9q-92 0 -137 47t-45 136v236h-95v78h95v147h101v-147h151v-78h-151v-228q0 -53 22.5 -80t73.5 -27q16 0 31 3.5t30 8.5l16 -76q-15 -9 -41.5 -14.5t-50.5 -5.5zM261 532v173h74l-25 -173h-49z" />
    <glyph glyph-name="Tbar" unicode="&#x166;" horiz-adv-x="611" 
d="M254 0v618h-250v87h603v-87h-250v-618h-103zM114 319v77h384v-77h-384z" />
    <glyph glyph-name="tbar" unicode="&#x167;" horiz-adv-x="365" 
d="M279 -9q-92 0 -137 47t-45 136v236h-95v78h95v147h101v-147h151v-78h-151v-228q0 -53 22.5 -80t73.5 -27q16 0 31 3.5t30 8.5l16 -76q-15 -9 -41.5 -14.5t-50.5 -5.5zM27 232v64h289v-64h-289z" />
    <glyph glyph-name="Utilde" unicode="&#x168;" horiz-adv-x="733" 
d="M367 -9q-141 0 -215.5 74.5t-74.5 218.5v421h104v-419q0 -205 186 -205t186 205v419h102v-421q0 -144 -73 -218.5t-215 -74.5zM205 778l-53 3q6 68 40 104t86 36q24 0 48 -9.5t55 -28.5q32 -20 48.5 -26.5t29.5 -6.5q57 0 70 75l53 -4q-5 -67 -39.5 -103.5t-85.5 -36.5
q-24 0 -49.5 10.5t-56.5 29.5q-28 18 -45 25t-31 7q-56 0 -70 -75z" />
    <glyph glyph-name="utilde" unicode="&#x169;" horiz-adv-x="569" 
d="M245 -9q-177 0 -177 197v300h101v-301q0 -59 24 -87t76 -28q57 0 92.5 38t35.5 102v276h101v-488h-98v78q-24 -43 -64 -65t-91 -22zM151 588l-53 4q5 65 35 102.5t78 37.5q22 0 40.5 -10t42.5 -30q22 -18 35.5 -25t25.5 -7q51 0 62 75l53 -3q-4 -66 -34 -103t-78 -37
q-20 0 -38.5 9t-45.5 30q-21 18 -34 25t-27 7q-50 0 -62 -75z" />
    <glyph glyph-name="Umacron" unicode="&#x16a;" horiz-adv-x="733" 
d="M367 -9q-141 0 -215.5 74.5t-74.5 218.5v421h104v-419q0 -205 186 -205t186 205v419h102v-421q0 -144 -73 -218.5t-215 -74.5zM200 811v63h335v-63h-335z" />
    <glyph glyph-name="umacron" unicode="&#x16b;" horiz-adv-x="569" 
d="M245 -9q-177 0 -177 197v300h101v-301q0 -59 24 -87t76 -28q57 0 92.5 38t35.5 102v276h101v-488h-98v78q-24 -43 -64 -65t-91 -22zM132 622v64h305v-64h-305z" />
    <glyph glyph-name="Ubreve" unicode="&#x16c;" horiz-adv-x="733" 
d="M367 -9q-141 0 -215.5 74.5t-74.5 218.5v421h104v-419q0 -205 186 -205t186 205v419h102v-421q0 -144 -73 -218.5t-215 -74.5zM367 760q-73 0 -121 45.5t-54 123.5l60 8q5 -54 35 -83.5t80 -29.5t80.5 29.5t34.5 83.5l60 -8q-6 -78 -53.5 -123.5t-121.5 -45.5z" />
    <glyph glyph-name="ubreve" unicode="&#x16d;" horiz-adv-x="569" 
d="M245 -9q-177 0 -177 197v300h101v-301q0 -59 24 -87t76 -28q57 0 92.5 38t35.5 102v276h101v-488h-98v78q-24 -43 -64 -65t-91 -22zM284 551q-70 0 -113 51t-47 140l60 6q4 -64 30 -98.5t70 -34.5t70 34.5t30 98.5l60 -6q-3 -89 -46.5 -140t-113.5 -51z" />
    <glyph glyph-name="Uring" unicode="&#x16e;" horiz-adv-x="733" 
d="M367 -9q-141 0 -215.5 74.5t-74.5 218.5v421h104v-419q0 -205 186 -205t186 205v419h102v-421q0 -144 -73 -218.5t-215 -74.5zM367 756q-52 0 -87 35t-35 85t35 84t87 34t87 -34t35 -84t-35 -85t-87 -35zM367 806q30 0 49.5 20t19.5 50q0 29 -19.5 48.5t-49.5 19.5
t-49.5 -19.5t-19.5 -48.5q0 -30 19.5 -50t49.5 -20z" />
    <glyph glyph-name="uring" unicode="&#x16f;" horiz-adv-x="569" 
d="M245 -9q-177 0 -177 197v300h101v-301q0 -59 24 -87t76 -28q57 0 92.5 38t35.5 102v276h101v-488h-98v78q-24 -43 -64 -65t-91 -22zM284 547q-52 0 -87 35t-35 85t35 84t87 34t87 -34t35 -84t-35 -85t-87 -35zM284 597q30 0 49.5 20t19.5 50q0 29 -19.5 48.5t-49.5 19.5
t-49.5 -19.5t-19.5 -48.5q0 -30 19.5 -50t49.5 -20z" />
    <glyph glyph-name="Uhungarumlaut" unicode="&#x170;" horiz-adv-x="733" 
d="M367 -9q-141 0 -215.5 74.5t-74.5 218.5v421h104v-419q0 -205 186 -205t186 205v419h102v-421q0 -144 -73 -218.5t-215 -74.5zM271 765l85 173h95l-123 -173h-57zM406 765l92 173h95l-129 -173h-58z" />
    <glyph glyph-name="uhungarumlaut" unicode="&#x171;" horiz-adv-x="569" 
d="M245 -9q-177 0 -177 197v300h101v-301q0 -59 24 -87t76 -28q57 0 92.5 38t35.5 102v276h101v-488h-98v78q-24 -43 -64 -65t-91 -22zM324 554l52 202h88l-85 -202h-55zM187 554l52 202h89l-86 -202h-55z" />
    <glyph glyph-name="Uogonek" unicode="&#x172;" horiz-adv-x="733" 
d="M367 -9q-141 0 -215.5 74.5t-74.5 218.5v421h104v-419q0 -205 186 -205t186 205v419h102v-421q0 -144 -73 -218.5t-215 -74.5zM404 -194q-51 0 -81 27.5t-30 73.5q0 41 26.5 76t72.5 56l32 -39q-24 -10 -43.5 -31.5t-19.5 -50.5q0 -27 16 -40.5t41 -13.5q24 0 53 12
l15 -53q-34 -17 -82 -17z" />
    <glyph glyph-name="uogonek" unicode="&#x173;" horiz-adv-x="569" 
d="M245 -9q-177 0 -177 197v300h101v-301q0 -59 24 -87t76 -28q57 0 92.5 38t35.5 102v276h101v-488h-98v78q-24 -43 -64 -65t-91 -22zM454 -194q-51 0 -81 27.5t-30 73.5q0 41 26.5 76t72.5 56l32 -39q-24 -10 -43.5 -31.5t-19.5 -50.5q0 -27 16 -40.5t41 -13.5q24 0 53 12
l15 -53q-34 -17 -82 -17z" />
    <glyph glyph-name="Wcircumflex" unicode="&#x174;" horiz-adv-x="1107" 
d="M274 0l-247 705h106l189 -555l194 555h79l192 -561l193 561h101l-249 -705h-87l-191 548l-193 -548h-87zM386 765l123 173h90l123 -173h-73l-95 112l-95 -112h-73z" />
    <glyph glyph-name="wcircumflex" unicode="&#x175;" horiz-adv-x="846" 
d="M203 0l-186 488h104l131 -370l135 370h78l133 -372l133 372h99l-186 -488h-92l-129 349l-128 -349h-92zM268 553l110 202h92l110 -202h-67l-89 140l-89 -140h-67z" />
    <glyph glyph-name="Ycircumflex" unicode="&#x176;" horiz-adv-x="606" 
d="M251 0v329l-270 376h120l204 -285l204 285h115l-270 -377v-328h-103zM135 765l123 173h90l123 -173h-73l-95 112l-95 -112h-73z" />
    <glyph glyph-name="ycircumflex" unicode="&#x177;" horiz-adv-x="520" 
d="M121 -180l87 193l-204 475h108l150 -371l152 371h104l-291 -668h-106zM105 553l110 202h92l110 -202h-67l-89 140l-89 -140h-67z" />
    <glyph glyph-name="Ydieresis" unicode="&#x178;" horiz-adv-x="606" 
d="M251 0v329l-270 376h120l204 -285l204 285h115l-270 -377v-328h-103zM343 799v99h100v-99h-100zM163 799v99h100v-99h-100z" />
    <glyph glyph-name="Zacute" unicode="&#x179;" horiz-adv-x="596" 
d="M48 0v76l390 542h-390v87h512v-76l-391 -542h406v-87h-527zM272 765l118 173h109l-153 -173h-74z" />
    <glyph glyph-name="zacute" unicode="&#x17a;" horiz-adv-x="468" 
d="M52 0v66l266 344h-266v78h377v-67l-266 -344h277v-77h-388zM206 553l103 202h103l-136 -202h-70z" />
    <glyph glyph-name="Zdotaccent" unicode="&#x17b;" horiz-adv-x="596" 
d="M48 0v76l390 542h-390v87h512v-76l-391 -542h406v-87h-527zM257 801v101h104v-101h-104z" />
    <glyph glyph-name="zdotaccent" unicode="&#x17c;" horiz-adv-x="468" 
d="M52 0v66l266 344h-266v78h377v-67l-266 -344h277v-77h-388zM188 603v101h106v-101h-106z" />
    <glyph glyph-name="Zcaron" unicode="&#x17d;" horiz-adv-x="596" 
d="M48 0v76l390 542h-390v87h512v-76l-391 -542h406v-87h-527zM264 765l-123 173h73l95 -112l95 112h73l-123 -173h-90z" />
    <glyph glyph-name="zcaron" unicode="&#x17e;" horiz-adv-x="468" 
d="M52 0v66l266 344h-266v78h377v-67l-266 -344h277v-77h-388zM195 553l-110 202h67l89 -141l89 141h67l-110 -202h-92z" />
    <glyph glyph-name="uni0181" unicode="&#x181;" horiz-adv-x="817" 
d="M218 0v629h-29q-53 0 -78 -25t-25 -79v-45h-86v50q0 175 197 175h315q110 0 170.5 -48.5t60.5 -135.5q0 -57 -30 -98t-82 -60q61 -16 95 -59t34 -109q0 -94 -62.5 -144.5t-174.5 -50.5h-305zM318 397h177q147 0 147 114t-147 114h-177v-228zM318 80h194q147 0 147 119
q0 118 -147 118h-194v-237z" />
    <glyph glyph-name="uni018A" unicode="&#x18a;" horiz-adv-x="887" 
d="M218 0v629h-29q-53 0 -78 -25t-25 -79v-45h-86v50q0 175 191 175h276q174 0 268.5 -91t94.5 -261t-94.5 -261.5t-268.5 -91.5h-249zM321 87h139q262 0 262 266q0 265 -262 265h-139v-531z" />
    <glyph glyph-name="uni018F" unicode="&#x18f;" horiz-adv-x="775" 
d="M394 -9q-111 0 -186 45.5t-112.5 127.5t-37.5 192v41h550q-11 110 -76 168.5t-177 58.5q-71 0 -126 -18t-105 -58l-38 80q51 42 122 64t158 22q107 0 186 -43.5t122.5 -124.5t43.5 -194q0 -111 -40.5 -192t-113.5 -125t-170 -44zM390 78q95 0 152 60t66 174h-443
q16 -234 225 -234z" />
    <glyph glyph-name="florin" unicode="&#x192;" horiz-adv-x="600" 
d="M37 -189v81h52q40 0 66 21.5t37 76.5l89 420h-115v78h132l11 50q18 84 67 130t132 46h54v-82h-45q-45 0 -71 -21.5t-38 -76.5l-10 -46h120v-78h-136l-91 -424q-18 -84 -66.5 -129.5t-129.5 -45.5h-58z" />
    <glyph glyph-name="Ohorn" unicode="&#x1a0;" horiz-adv-x="775" 
d="M388 -9q-101 0 -175 44.5t-114.5 126t-40.5 191.5q0 111 40.5 192t114.5 125t175 44q100 0 174.5 -44t115 -125t40.5 -191q0 -111 -40.5 -192.5t-115 -126t-174.5 -44.5zM388 81q105 0 163.5 71.5t58.5 200.5t-58 200t-164 71q-105 0 -163.5 -71t-58.5 -200t58.5 -200.5
t163.5 -71.5zM491 649l-47 60q21 -2 41 -3t36 -1q59 0 82 25t23 85v18h89v-32q0 -66 -39 -109t-104 -43h-81z" />
    <glyph glyph-name="ohorn" unicode="&#x1a1;" horiz-adv-x="565" 
d="M283 -9q-74 0 -128 31t-83.5 87.5t-29.5 134.5t29.5 134.5t83.5 87.5t128 31q72 0 126 -31t84 -87.5t30 -134.5t-30 -134.5t-84 -87.5t-126 -31zM283 69q62 0 100 45t38 130t-38 129.5t-100 44.5q-63 0 -101 -44.5t-38 -129.5t38 -130t101 -45zM393 431l-55 36v21
q58 0 81 25t23 85v18h88v-32q0 -66 -36.5 -107t-100.5 -46z" />
    <glyph glyph-name="Uhorn" unicode="&#x1af;" horiz-adv-x="733" 
d="M367 -9q-141 0 -215.5 74.5t-74.5 218.5v421h104v-419q0 -205 186 -205t186 205v419h102v-421q0 -144 -73 -218.5t-215 -74.5zM632 649l-55 35v21q59 1 81.5 26t22.5 84v18h89v-32q0 -66 -36.5 -106.5t-101.5 -45.5z" />
    <glyph glyph-name="uhorn" unicode="&#x1b0;" horiz-adv-x="569" 
d="M245 -9q-177 0 -177 197v300h101v-301q0 -59 24 -87t76 -28q57 0 92.5 38t35.5 102v276h101v-488h-98v78q-24 -43 -64 -65t-91 -22zM476 431l-55 36v21q58 0 81 25t23 85v18h88v-32q0 -66 -36.5 -107t-100.5 -46z" />
    <glyph glyph-name="uni01B3" unicode="&#x1b3;" horiz-adv-x="616" 
d="M251 0v329l-270 376h120l204 -285l144 207q31 45 69 65.5t89 20.5q38 0 64 -10v-74q-20 8 -49 8q-24 0 -45.5 -11t-41.5 -39l-181 -258v-329h-103z" />
    <glyph glyph-name="uni01B4" unicode="&#x1b4;" horiz-adv-x="560" 
d="M375 389q21 52 56.5 80t96.5 28q41 0 65 -10l-13 -77q-10 4 -19.5 5t-19.5 1q-29 0 -49 -16t-39 -58l-226 -522h-106l87 193l-204 475h108l150 -371z" />
    <glyph glyph-name="uni01C4" unicode="&#x1c4;" horiz-adv-x="1333" 
d="M82 0v705h249q174 0 268.5 -91t94.5 -261t-94.5 -261.5t-268.5 -91.5h-249zM186 87h139q261 0 261 266q0 265 -261 265h-139v-531zM784 0v76l390 542h-390v87h512v-76l-391 -542h406v-87h-527zM1000 765l-123 173h73l95 -112l95 112h73l-123 -173h-90z" />
    <glyph glyph-name="uni01C5" unicode="&#x1c5;" horiz-adv-x="1220" 
d="M82 0v705h249q174 0 268.5 -91t94.5 -261t-94.5 -261.5t-268.5 -91.5h-249zM186 87h139q261 0 261 266q0 265 -261 265h-139v-531zM803 0v66l266 344h-266v78h377v-67l-266 -344h277v-77h-388zM946 553l-110 202h67l89 -141l89 141h67l-110 -202h-92z" />
    <glyph glyph-name="uni01C6" unicode="&#x1c6;" horiz-adv-x="1059" 
d="M257 -9q-64 0 -112.5 30.5t-75.5 87.5t-27 135t27 134.5t75 87.5t113 31q55 0 98 -24t64 -65v297h101v-705h-99v85q-21 -44 -64.5 -69t-99.5 -25zM283 69q62 0 100 45t38 130t-38 129.5t-100 44.5q-63 0 -101 -44.5t-38 -129.5t38 -130t101 -45zM643 0v66l266 344h-266
v78h377v-67l-266 -344h277v-77h-388zM786 553l-110 202h67l89 -141l89 141h67l-110 -202h-92z" />
    <glyph glyph-name="uni01C7" unicode="&#x1c7;" horiz-adv-x="930" 
d="M82 0v705h104v-616h349v-89h-453zM590 -8l-8 85l65 4q98 8 98 112v512h103v-512q0 -91 -47 -141t-139 -56z" />
    <glyph glyph-name="uni01C8" unicode="&#x1c8;" horiz-adv-x="798" 
d="M82 0v705h104v-616h349v-89h-453zM618 601v105h118v-105h-118zM504 -193l-7 76l44 4q85 9 85 102v499h101v-488q0 -92 -42.5 -137.5t-137.5 -52.5z" />
    <glyph glyph-name="uni01C9" unicode="&#x1c9;" horiz-adv-x="553" 
d="M230 -9q-80 0 -119.5 45t-39.5 132v537h101v-531q0 -99 81 -99q12 0 22.5 1t21.5 4l-2 -81q-34 -8 -65 -8zM372 601v105h118v-105h-118zM258 -193l-7 76l44 4q85 9 85 102v499h101v-488q0 -92 -42.5 -137.5t-137.5 -52.5z" />
    <glyph glyph-name="uni01CA" unicode="&#x1ca;" horiz-adv-x="1082" 
d="M82 0v705h79l404 -533v533h96v-705h-77l-406 535v-535h-96zM741 -8l-8 85l65 4q98 8 98 112v512h103v-512q0 -91 -47 -141t-139 -56z" />
    <glyph glyph-name="uni01CB" unicode="&#x1cb;" horiz-adv-x="990" 
d="M82 0v705h79l404 -533v533h96v-705h-77l-406 535v-535h-96zM809 601v105h118v-105h-118zM695 -193l-7 76l44 4q85 9 85 102v499h101v-488q0 -92 -42.5 -137.5t-137.5 -52.5z" />
    <glyph glyph-name="uni01CC" unicode="&#x1cc;" horiz-adv-x="822" 
d="M71 0v488h98v-81q25 44 68.5 67t97.5 23q173 0 173 -196v-301h-101v295q0 63 -24.5 92t-76.5 29q-61 0 -97.5 -38.5t-36.5 -101.5v-276h-101zM642 601v105h118v-105h-118zM528 -193l-7 76l44 4q85 9 85 102v499h101v-488q0 -92 -42.5 -137.5t-137.5 -52.5z" />
    <glyph glyph-name="uni01CD" unicode="&#x1cd;" horiz-adv-x="736" 
d="M11 0l314 705h86l315 -705h-106l-74 172h-357l-73 -172h-105zM367 590l-141 -334h285l-142 334h-2zM324 765l-123 173h73l95 -112l95 112h73l-123 -173h-90z" />
    <glyph glyph-name="uni01CE" unicode="&#x1ce;" horiz-adv-x="537" 
d="M227 -9q-51 0 -91 20t-63.5 54t-23.5 77q0 54 27.5 85t91 45t171.5 14h34v26q0 57 -24 82t-79 25q-42 0 -84 -12.5t-86 -39.5l-31 71q38 27 95 43t109 16q100 0 148 -47.5t48 -148.5v-301h-95v81q-18 -42 -56 -66t-91 -24zM247 63q54 0 90 38t36 96v27h-33
q-73 0 -114.5 -7t-59 -23.5t-17.5 -45.5q0 -38 26 -61.5t72 -23.5zM229 553l-110 202h67l89 -141l89 141h67l-110 -202h-92z" />
    <glyph glyph-name="uni01D4" unicode="&#x1d4;" horiz-adv-x="569" 
d="M245 -9q-177 0 -177 197v300h101v-301q0 -59 24 -87t76 -28q57 0 92.5 38t35.5 102v276h101v-488h-98v78q-24 -43 -64 -65t-91 -22zM238 554l-110 202h67l89 -141l89 141h67l-110 -202h-92z" />
    <glyph glyph-name="uni01E5" unicode="&#x1e5;" horiz-adv-x="594" 
d="M292 -189q-66 0 -123 15.5t-101 48.5l31 72q44 -30 90 -43.5t96 -13.5q83 0 117 51h-104v66h126q1 10 1 22v104q-20 -44 -63.5 -68.5t-100.5 -24.5q-65 0 -114.5 29.5t-77 81t-27.5 117.5q0 67 27.5 118.5t77 81t114.5 29.5q57 0 100 -24.5t64 -68.5v84h98v-447
q0 -17 -1 -34h65v-66h-78q-46 -130 -217 -130zM284 118q63 0 101 41t38 109t-37.5 109t-101.5 41q-63 0 -101.5 -40.5t-38.5 -109.5q0 -68 39 -109t101 -41z" />
    <glyph glyph-name="Gcaron" unicode="&#x1e6;" horiz-adv-x="731" 
d="M412 -9q-115 0 -194 43.5t-119.5 124.5t-40.5 193q0 111 41 192.5t119 125.5t187 44q75 0 139 -22t107 -63l-37 -81q-48 40 -98 57.5t-111 17.5q-117 0 -178 -70.5t-61 -200.5q0 -133 62.5 -202t187.5 -69q76 0 151 25v189h-172v78h259v-332q-45 -22 -111.5 -36
t-130.5 -14zM351 765l-123 173h73l95 -112l95 112h73l-123 -173h-90z" />
    <glyph glyph-name="gcaron" unicode="&#x1e7;" horiz-adv-x="594" 
d="M292 -189q-66 0 -123 15.5t-101 48.5l31 72q44 -30 90 -44t96 -14q140 0 140 140v77q-21 -44 -65.5 -69t-99.5 -25q-66 0 -115 30.5t-76 85t-27 127.5q0 72 27 126.5t76 85t115 30.5q56 0 100 -25t65 -69v85h98v-447q0 -115 -59 -172.5t-172 -57.5zM284 91q64 0 102 44
t38 120t-38 119.5t-102 43.5t-102 -43.5t-38 -119.5t38 -120t102 -44zM252 553l-110 202h67l89 -141l89 141h67l-110 -202h-92z" />
    <glyph glyph-name="uni01E9" unicode="&#x1e9;" horiz-adv-x="516" 
d="M71 0v705h101v-430h2l212 213h125l-234 -235l252 -253h-126l-229 223h-2v-223h-101zM244 765l-123 173h73l95 -112l95 112h73l-123 -173h-90z" />
    <glyph glyph-name="uni01EA" unicode="&#x1ea;" horiz-adv-x="775" 
d="M388 -9q-101 0 -175 44.5t-114.5 126t-40.5 191.5q0 111 40.5 192t114.5 125t175 44q100 0 174.5 -44t115 -125t40.5 -191q0 -111 -40.5 -192.5t-115 -126t-174.5 -44.5zM388 81q105 0 163.5 71.5t58.5 200.5t-58 200t-164 71q-105 0 -163.5 -71t-58.5 -200t58.5 -200.5
t163.5 -71.5zM426 -194q-51 0 -81 27.5t-30 73.5q0 41 26.5 76t72.5 56l32 -39q-24 -10 -43.5 -31.5t-19.5 -50.5q0 -27 16 -40.5t41 -13.5q24 0 53 12l15 -53q-34 -17 -82 -17z" />
    <glyph glyph-name="uni01EB" unicode="&#x1eb;" horiz-adv-x="565" 
d="M283 -9q-74 0 -128 31t-83.5 87.5t-29.5 134.5t29.5 134.5t83.5 87.5t128 31q72 0 126 -31t84 -87.5t30 -134.5t-30 -134.5t-84 -87.5t-126 -31zM283 69q62 0 100 45t38 130t-38 129.5t-100 44.5q-63 0 -101 -44.5t-38 -129.5t38 -130t101 -45zM322 -194q-51 0 -81 27.5
t-30 73.5q0 41 26.5 76t72.5 56l32 -39q-24 -10 -43.5 -31.5t-19.5 -50.5q0 -27 16 -40.5t41 -13.5q24 0 53 12l15 -53q-34 -17 -82 -17z" />
    <glyph glyph-name="uni01EF" unicode="&#x1ef;" horiz-adv-x="504" 
d="M230 -189q-138 0 -217 60l32 72q70 -54 175 -54q76 0 114.5 34.5t38.5 98.5q0 58 -38 89.5t-110 31.5h-100v49l202 215h-293v81h409v-69l-191 -204h7q101 0 158 -49.5t57 -137.5q0 -101 -65.5 -159t-178.5 -58zM192 553l-110 202h67l89 -141l89 141h67l-110 -202h-92z
" />
    <glyph glyph-name="Aringacute" unicode="&#x1fa;" horiz-adv-x="736" 
d="M11 0l314 705h86l315 -705h-106l-74 172h-357l-73 -172h-105zM367 590l-141 -334h285l-142 334h-2zM369 756q-50 0 -84 34t-34 82q0 49 34 82t84 33q36 0 65 -18l68 63h89l-119 -102q15 -26 15 -58q0 -48 -34 -82t-84 -34zM369 803q30 0 49.5 19.5t19.5 49.5
q0 29 -19.5 49t-49.5 20t-49.5 -20t-19.5 -49q0 -30 19.5 -49.5t49.5 -19.5z" />
    <glyph glyph-name="aringacute" unicode="&#x1fb;" horiz-adv-x="537" 
d="M227 -9q-51 0 -91 20t-63.5 54t-23.5 77q0 54 27.5 85t91 45t171.5 14h34v26q0 57 -24 82t-79 25q-42 0 -84 -12.5t-86 -39.5l-31 71q38 27 95 43t109 16q100 0 148 -47.5t48 -148.5v-301h-95v81q-18 -42 -56 -66t-91 -24zM247 63q54 0 90 38t36 96v27h-33
q-73 0 -114.5 -7t-59 -23.5t-17.5 -45.5q0 -38 26 -61.5t72 -23.5zM275 543q-50 0 -84 33t-34 82q0 48 34 81.5t84 33.5q18 0 34.5 -5t30.5 -14l68 63h89l-119 -101q15 -27 15 -58q0 -49 -34 -82t-84 -33zM275 590q30 0 49.5 19t19.5 49t-19.5 49t-49.5 19t-49.5 -19
t-19.5 -49t19.5 -49t49.5 -19z" />
    <glyph glyph-name="AEacute" unicode="&#x1fc;" horiz-adv-x="986" 
d="M-25 0l433 705h527v-84h-415l48 -221h347v-84h-329l50 -232h299v-84h-375l-36 172h-336l-103 -172h-110zM433 587l-196 -331h269l-71 331h-2zM450 765l118 173h109l-153 -173h-74z" />
    <glyph glyph-name="aeacute" unicode="&#x1fd;" horiz-adv-x="863" 
d="M235 -9q-55 0 -97 20t-65.5 54t-23.5 77q0 54 28 85t92 44.5t172 13.5h33v26q0 57 -24.5 82.5t-77.5 25.5q-44 0 -86 -12t-86 -40l-31 71q38 27 95 43t110 16q124 0 165 -85q28 42 74 63.5t98 21.5q99 0 156.5 -64.5t57.5 -177.5v-32h-352q10 -154 156 -154q86 0 157 56
l31 -70q-34 -30 -85.5 -47t-102.5 -17q-75 0 -130.5 29t-83.5 87q-20 -55 -67 -85.5t-113 -30.5zM612 426q-59 0 -95.5 -37t-43.5 -104h266q-3 67 -35.5 104t-91.5 37zM248 63q56 0 91 39t35 100v21h-34q-73 0 -114.5 -6.5t-59 -23t-17.5 -45.5q0 -38 26 -61.5t73 -23.5z
M380 553l103 202h103l-136 -202h-70z" />
    <glyph glyph-name="Oslashacute" unicode="&#x1fe;" horiz-adv-x="775" 
d="M388 -9q-101 0 -175 44.5t-114.5 126t-40.5 191.5q0 111 40.5 192t114.5 125t175 44q100 0 174.5 -44t115 -125t40.5 -191q0 -111 -40.5 -192.5t-115 -126t-174.5 -44.5zM388 81q105 0 163.5 71.5t58.5 200.5t-58 200t-164 71q-105 0 -163.5 -71t-58.5 -200t58.5 -200.5
t163.5 -71.5zM198 -53l-69 40l58 101l30 49l280 481l23 40l58 100l69 -40l-59 -101l-29 -49l-281 -480l-22 -41zM350 765l118 173h109l-153 -173h-74z" />
    <glyph glyph-name="oslashacute" unicode="&#x1ff;" horiz-adv-x="565" 
d="M148 -53l-58 34l36 61q-40 33 -62 84.5t-22 117.5q0 78 29.5 134.5t83.5 87.5t128 31q53 0 98 -18l36 62l58 -33l-36 -62q40 -33 62 -84.5t22 -117.5q0 -78 -30 -134.5t-84 -87.5t-126 -31q-55 0 -99 17zM144 244q0 -74 30 -119l165 282q-25 11 -56 11q-63 0 -101 -44.5
t-38 -129.5zM283 69q62 0 100 45t38 130q0 74 -30 119l-165 -282q25 -12 57 -12zM247 553l103 202h103l-136 -202h-70z" />
    <glyph glyph-name="uni0200" unicode="&#x200;" horiz-adv-x="736" 
d="M11 0l314 705h86l315 -705h-106l-74 172h-357l-73 -172h-105zM367 590l-141 -334h285l-142 334h-2zM408 765l-122 173h95l85 -173h-58zM273 765l-129 173h95l91 -173h-57z" />
    <glyph glyph-name="uni0201" unicode="&#x201;" horiz-adv-x="537" 
d="M227 -9q-51 0 -91 20t-63.5 54t-23.5 77q0 54 27.5 85t91 45t171.5 14h34v26q0 57 -24 82t-79 25q-42 0 -84 -12.5t-86 -39.5l-31 71q38 27 95 43t109 16q100 0 148 -47.5t48 -148.5v-301h-95v81q-18 -42 -56 -66t-91 -24zM247 63q54 0 90 38t36 96v27h-33
q-73 0 -114.5 -7t-59 -23.5t-17.5 -45.5q0 -38 26 -61.5t72 -23.5zM317 553l-85 202h89l51 -202h-55zM181 553l-86 202h88l52 -202h-54z" />
    <glyph glyph-name="uni0202" unicode="&#x202;" horiz-adv-x="736" 
d="M11 0l314 705h86l315 -705h-106l-74 172h-357l-73 -172h-105zM367 590l-141 -334h285l-142 334h-2zM254 760l-60 8q6 78 54 123.5t121 45.5q74 0 121.5 -45.5t53.5 -123.5l-60 -8q-4 54 -34.5 84t-80.5 30t-80 -30t-35 -84z" />
    <glyph glyph-name="uni0203" unicode="&#x203;" horiz-adv-x="537" 
d="M227 -9q-51 0 -91 20t-63.5 54t-23.5 77q0 54 27.5 85t91 45t171.5 14h34v26q0 57 -24 82t-79 25q-42 0 -84 -12.5t-86 -39.5l-31 71q38 27 95 43t109 16q100 0 148 -47.5t48 -148.5v-301h-95v81q-18 -42 -56 -66t-91 -24zM247 63q54 0 90 38t36 96v27h-33
q-73 0 -114.5 -7t-59 -23.5t-17.5 -45.5q0 -38 26 -61.5t72 -23.5zM175 550l-60 5q4 89 47 140.5t113 51.5t113.5 -51.5t46.5 -140.5l-60 -5q-4 63 -30 98t-70 35t-70 -35t-30 -98z" />
    <glyph glyph-name="uni0204" unicode="&#x204;" horiz-adv-x="589" 
d="M82 0v705h456v-84h-356v-221h335v-84h-335v-232h356v-84h-456zM365 765l-122 173h95l85 -173h-58zM230 765l-129 173h95l91 -173h-57z" />
    <glyph glyph-name="uni0205" unicode="&#x205;" horiz-adv-x="537" 
d="M300 -9q-120 0 -189 67.5t-69 184.5q0 75 30.5 132.5t84.5 89.5t124 32q101 0 159 -64.5t58 -177.5v-34h-358q11 -152 161 -152q42 0 82.5 13t76.5 43l30 -70q-33 -30 -85 -47t-105 -17zM285 426q-63 0 -100 -39t-45 -104h273q-3 68 -36 105.5t-92 37.5zM324 553l-85 202
h89l51 -202h-55zM188 553l-86 202h88l52 -202h-54z" />
    <glyph glyph-name="uni0206" unicode="&#x206;" horiz-adv-x="589" 
d="M82 0v705h456v-84h-356v-221h335v-84h-335v-232h356v-84h-456zM211 760l-60 8q6 78 54 123.5t121 45.5q74 0 121.5 -45.5t53.5 -123.5l-60 -8q-4 54 -34.5 84t-80.5 30t-80 -30t-35 -84z" />
    <glyph glyph-name="uni0207" unicode="&#x207;" horiz-adv-x="537" 
d="M300 -9q-120 0 -189 67.5t-69 184.5q0 75 30.5 132.5t84.5 89.5t124 32q101 0 159 -64.5t58 -177.5v-34h-358q11 -152 161 -152q42 0 82.5 13t76.5 43l30 -70q-33 -30 -85 -47t-105 -17zM285 426q-63 0 -100 -39t-45 -104h273q-3 68 -36 105.5t-92 37.5zM182 550l-60 5
q4 89 47 140.5t113 51.5t113.5 -51.5t46.5 -140.5l-60 -5q-4 63 -30 98t-70 35t-70 -35t-30 -98z" />
    <glyph glyph-name="uni0208" unicode="&#x208;" horiz-adv-x="267" 
d="M82 0v705h104v-705h-104zM173 765l-122 173h95l85 -173h-58zM38 765l-129 173h95l91 -173h-57z" />
    <glyph glyph-name="uni0209" unicode="&#x209;" horiz-adv-x="243" 
d="M71 0v488h101v-488h-101zM163 553l-85 202h89l51 -202h-55zM27 553l-86 202h88l52 -202h-54z" />
    <glyph glyph-name="uni020A" unicode="&#x20a;" horiz-adv-x="267" 
d="M82 0v705h104v-705h-104zM19 760l-60 8q6 78 54 123.5t121 45.5q74 0 121.5 -45.5t53.5 -123.5l-60 -8q-4 54 -34.5 84t-80.5 30t-80 -30t-35 -84z" />
    <glyph glyph-name="uni020B" unicode="&#x20b;" horiz-adv-x="243" 
d="M71 0v488h101v-488h-101zM21 550l-60 5q4 89 47 140.5t113 51.5t113.5 -51.5t46.5 -140.5l-60 -5q-4 63 -30 98t-70 35t-70 -35t-30 -98z" />
    <glyph glyph-name="uni020C" unicode="&#x20c;" horiz-adv-x="775" 
d="M388 -9q-101 0 -175 44.5t-114.5 126t-40.5 191.5q0 111 40.5 192t114.5 125t175 44q100 0 174.5 -44t115 -125t40.5 -191q0 -111 -40.5 -192.5t-115 -126t-174.5 -44.5zM388 81q105 0 163.5 71.5t58.5 200.5t-58 200t-164 71q-105 0 -163.5 -71t-58.5 -200t58.5 -200.5
t163.5 -71.5zM426 765l-122 173h95l85 -173h-58zM291 765l-129 173h95l91 -173h-57z" />
    <glyph glyph-name="uni020D" unicode="&#x20d;" horiz-adv-x="565" 
d="M283 -9q-74 0 -128 31t-83.5 87.5t-29.5 134.5t29.5 134.5t83.5 87.5t128 31q72 0 126 -31t84 -87.5t30 -134.5t-30 -134.5t-84 -87.5t-126 -31zM283 69q62 0 100 45t38 130t-38 129.5t-100 44.5q-63 0 -101 -44.5t-38 -129.5t38 -130t101 -45zM325 553l-85 202h89
l51 -202h-55zM189 553l-86 202h88l52 -202h-54z" />
    <glyph glyph-name="uni020E" unicode="&#x20e;" horiz-adv-x="775" 
d="M388 -9q-101 0 -175 44.5t-114.5 126t-40.5 191.5q0 111 40.5 192t114.5 125t175 44q100 0 174.5 -44t115 -125t40.5 -191q0 -111 -40.5 -192.5t-115 -126t-174.5 -44.5zM388 81q105 0 163.5 71.5t58.5 200.5t-58 200t-164 71q-105 0 -163.5 -71t-58.5 -200t58.5 -200.5
t163.5 -71.5zM272 760l-60 8q6 78 54 123.5t121 45.5q74 0 121.5 -45.5t53.5 -123.5l-60 -8q-4 54 -34.5 84t-80.5 30t-80 -30t-35 -84z" />
    <glyph glyph-name="uni020F" unicode="&#x20f;" horiz-adv-x="565" 
d="M283 -9q-74 0 -128 31t-83.5 87.5t-29.5 134.5t29.5 134.5t83.5 87.5t128 31q72 0 126 -31t84 -87.5t30 -134.5t-30 -134.5t-84 -87.5t-126 -31zM283 69q62 0 100 45t38 130t-38 129.5t-100 44.5q-63 0 -101 -44.5t-38 -129.5t38 -130t101 -45zM183 550l-60 5
q4 89 47 140.5t113 51.5t113.5 -51.5t46.5 -140.5l-60 -5q-4 63 -30 98t-70 35t-70 -35t-30 -98z" />
    <glyph glyph-name="uni0210" unicode="&#x210;" horiz-adv-x="677" 
d="M82 0v705h292q114 0 176 -54.5t62 -152.5q0 -79 -42 -129.5t-119 -67.5q48 -16 81 -77l122 -224h-114l-122 225q-21 39 -48.5 52.5t-70.5 13.5h-113v-291h-104zM186 369h171q154 0 154 127q0 126 -154 126h-171v-253zM383 765l-122 173h95l85 -173h-58zM248 765l-129 173
h95l91 -173h-57z" />
    <glyph glyph-name="uni0211" unicode="&#x211;" horiz-adv-x="373" 
d="M71 0v488h98v-87q38 87 158 97l33 2l7 -86l-61 -6q-133 -13 -133 -137v-271h-102zM262 553l-85 202h89l51 -202h-55zM126 553l-86 202h88l52 -202h-54z" />
    <glyph glyph-name="uni0212" unicode="&#x212;" horiz-adv-x="677" 
d="M82 0v705h292q114 0 176 -54.5t62 -152.5q0 -79 -42 -129.5t-119 -67.5q48 -16 81 -77l122 -224h-114l-122 225q-21 39 -48.5 52.5t-70.5 13.5h-113v-291h-104zM186 369h171q154 0 154 127q0 126 -154 126h-171v-253zM229 760l-60 8q6 78 54 123.5t121 45.5
q74 0 121.5 -45.5t53.5 -123.5l-60 -8q-4 54 -34.5 84t-80.5 30t-80 -30t-35 -84z" />
    <glyph glyph-name="uni0213" unicode="&#x213;" horiz-adv-x="373" 
d="M71 0v488h98v-87q38 87 158 97l33 2l7 -86l-61 -6q-133 -13 -133 -137v-271h-102zM120 550l-60 5q4 89 47 140.5t113 51.5t113.5 -51.5t46.5 -140.5l-60 -5q-4 63 -30 98t-70 35t-70 -35t-30 -98z" />
    <glyph glyph-name="uni0214" unicode="&#x214;" horiz-adv-x="733" 
d="M367 -9q-141 0 -215.5 74.5t-74.5 218.5v421h104v-419q0 -205 186 -205t186 205v419h102v-421q0 -144 -73 -218.5t-215 -74.5zM406 765l-122 173h95l85 -173h-58zM271 765l-129 173h95l91 -173h-57z" />
    <glyph glyph-name="uni0215" unicode="&#x215;" horiz-adv-x="569" 
d="M245 -9q-177 0 -177 197v300h101v-301q0 -59 24 -87t76 -28q57 0 92.5 38t35.5 102v276h101v-488h-98v78q-24 -43 -64 -65t-91 -22zM326 554l-85 202h89l51 -202h-55zM190 554l-86 202h88l52 -202h-54z" />
    <glyph glyph-name="uni0216" unicode="&#x216;" horiz-adv-x="733" 
d="M367 -9q-141 0 -215.5 74.5t-74.5 218.5v421h104v-419q0 -205 186 -205t186 205v419h102v-421q0 -144 -73 -218.5t-215 -74.5zM252 760l-60 8q6 78 54 123.5t121 45.5q74 0 121.5 -45.5t53.5 -123.5l-60 -8q-4 54 -34.5 84t-80.5 30t-80 -30t-35 -84z" />
    <glyph glyph-name="uni0217" unicode="&#x217;" horiz-adv-x="569" 
d="M245 -9q-177 0 -177 197v300h101v-301q0 -59 24 -87t76 -28q57 0 92.5 38t35.5 102v276h101v-488h-98v78q-24 -43 -64 -65t-91 -22zM184 551l-60 5q4 89 47 140.5t113 51.5t113.5 -51.5t46.5 -140.5l-60 -5q-4 63 -30 98t-70 35t-70 -35t-30 -98z" />
    <glyph glyph-name="uni0218" unicode="&#x218;" horiz-adv-x="622" 
d="M317 -9q-83 0 -152 21.5t-117 60.5l33 82q50 -38 107 -57t129 -19q85 0 125.5 30.5t40.5 79.5q0 40 -29 63.5t-97 37.5l-107 22q-95 20 -141.5 66t-46.5 124q0 63 33.5 111t93.5 74.5t138 26.5q72 0 133.5 -21.5t104.5 -62.5l-34 -79q-85 75 -205 75q-74 0 -117.5 -33
t-43.5 -88q0 -42 27 -67t90 -38l106 -22q100 -21 149 -64.5t49 -117.5q0 -62 -33 -108t-93 -71.5t-143 -25.5zM321 -273l-41 29q19 20 27.5 38t10.5 38h-55v91h112v-63q0 -39 -12.5 -72.5t-41.5 -60.5z" />
    <glyph glyph-name="uni0219" unicode="&#x219;" horiz-adv-x="484" 
d="M242 -9q-60 0 -112 15.5t-87 43.5l29 68q37 -26 81.5 -40t89.5 -14q53 0 80 19t27 51q0 26 -18 40.5t-54 22.5l-95 19q-126 26 -126 130q0 69 55 110t144 41q51 0 97.5 -15t77.5 -45l-29 -68q-30 26 -69 40t-77 14q-52 0 -79 -19.5t-27 -52.5q0 -50 66 -64l95 -19
q65 -13 98.5 -44t33.5 -84q0 -70 -55 -109.5t-146 -39.5zM244 -273l-41 29q19 20 27.5 38t10.5 38h-55v91h112v-63q0 -39 -12.5 -72.5t-41.5 -60.5z" />
    <glyph glyph-name="uni021A" unicode="&#x21a;" horiz-adv-x="611" 
d="M254 0v618h-250v87h603v-87h-250v-618h-103zM308 -273l-41 29q19 20 27.5 38t10.5 38h-55v91h112v-63q0 -39 -12.5 -72.5t-41.5 -60.5z" />
    <glyph glyph-name="uni021B" unicode="&#x21b;" horiz-adv-x="365" 
d="M279 -9q-92 0 -137 47t-45 136v236h-95v78h95v147h101v-147h151v-78h-151v-228q0 -53 22.5 -80t73.5 -27q16 0 31 3.5t30 8.5l16 -76q-15 -9 -41.5 -14.5t-50.5 -5.5zM224 -273l-41 29q19 20 27.5 38t10.5 38h-55v91h112v-63q0 -39 -12.5 -72.5t-41.5 -60.5z" />
    <glyph glyph-name="uni021F" unicode="&#x21f;" horiz-adv-x="576" 
d="M71 0v705h101v-293q25 42 67.5 63.5t95.5 21.5q173 0 173 -196v-301h-101v295q0 63 -24.5 92t-76.5 29q-61 0 -97.5 -38.5t-36.5 -101.5v-276h-101zM244 765l-123 173h73l95 -112l95 112h73l-123 -173h-90z" />
    <glyph glyph-name="uni0226" unicode="&#x226;" horiz-adv-x="736" 
d="M11 0l314 705h86l315 -705h-106l-74 172h-357l-73 -172h-105zM367 590l-141 -334h285l-142 334h-2zM317 801v101h104v-101h-104z" />
    <glyph glyph-name="uni0227" unicode="&#x227;" horiz-adv-x="537" 
d="M227 -9q-51 0 -91 20t-63.5 54t-23.5 77q0 54 27.5 85t91 45t171.5 14h34v26q0 57 -24 82t-79 25q-42 0 -84 -12.5t-86 -39.5l-31 71q38 27 95 43t109 16q100 0 148 -47.5t48 -148.5v-301h-95v81q-18 -42 -56 -66t-91 -24zM247 63q54 0 90 38t36 96v27h-33
q-73 0 -114.5 -7t-59 -23.5t-17.5 -45.5q0 -38 26 -61.5t72 -23.5zM222 603v101h106v-101h-106z" />
    <glyph glyph-name="uni0228" unicode="&#x228;" horiz-adv-x="589" 
d="M82 0v705h456v-84h-356v-221h335v-84h-335v-232h356v-84h-456zM328 -194q-27 0 -52.5 5.5t-42.5 15.5l15 49q19 -8 35.5 -12t38.5 -4q27 0 42 8.5t15 24.5q0 26 -38 26q-10 0 -20 -1.5t-24 -5.5l-18 16l14 92h58l-10 -61q8 1 15 1q39 0 63 -18.5t24 -51.5
q0 -37 -32 -60.5t-83 -23.5z" />
    <glyph glyph-name="uni022A" unicode="&#x22a;" horiz-adv-x="775" 
d="M388 -9q-101 0 -175 44.5t-114.5 126t-40.5 191.5q0 111 40.5 192t114.5 125t175 44q100 0 174.5 -44t115 -125t40.5 -191q0 -111 -40.5 -192.5t-115 -126t-174.5 -44.5zM388 81q105 0 163.5 71.5t58.5 200.5t-58 200t-164 71q-105 0 -163.5 -71t-58.5 -200t58.5 -200.5
t163.5 -71.5zM235 925v63h305v-63h-305zM247 792v80h100v-80h-100zM427 792v80h100v-80h-100z" />
    <glyph glyph-name="uni022B" unicode="&#x22b;" horiz-adv-x="565" 
d="M283 -9q-74 0 -128 31t-83.5 87.5t-29.5 134.5t29.5 134.5t83.5 87.5t128 31q72 0 126 -31t84 -87.5t30 -134.5t-30 -134.5t-84 -87.5t-126 -31zM283 69q62 0 100 45t38 130t-38 129.5t-100 44.5q-63 0 -101 -44.5t-38 -129.5t38 -130t101 -45zM130 707v64h306v-64h-306z
M143 576v79h100v-79h-100zM323 576v79h100v-79h-100z" />
    <glyph glyph-name="uni022C" unicode="&#x22c;" horiz-adv-x="775" 
d="M388 -9q-101 0 -175 44.5t-114.5 126t-40.5 191.5q0 111 40.5 192t114.5 125t175 44q100 0 174.5 -44t115 -125t40.5 -191q0 -111 -40.5 -192.5t-115 -126t-174.5 -44.5zM388 81q105 0 163.5 71.5t58.5 200.5t-58 200t-164 71q-105 0 -163.5 -71t-58.5 -200t58.5 -200.5
t163.5 -71.5zM234 925v63h306v-63h-306zM453 767q-18 0 -35.5 7t-40.5 21q-19 12 -31 16.5t-21 4.5q-23 0 -34.5 -12t-17.5 -38l-50 3q3 52 30.5 78t68.5 26q16 0 32.5 -5.5t41.5 -20.5q19 -13 31.5 -17.5t22.5 -4.5q42 0 51 50l50 -3q-3 -52 -30 -78.5t-68 -26.5z" />
    <glyph glyph-name="uni022D" unicode="&#x22d;" horiz-adv-x="565" 
d="M283 -9q-74 0 -128 31t-83.5 87.5t-29.5 134.5t29.5 134.5t83.5 87.5t128 31q72 0 126 -31t84 -87.5t30 -134.5t-30 -134.5t-84 -87.5t-126 -31zM283 69q62 0 100 45t38 130t-38 129.5t-100 44.5q-63 0 -101 -44.5t-38 -129.5t38 -130t101 -45zM131 707v64h305v-64h-305z
M169 549l-50 2q3 53 30.5 79t68.5 26q16 0 33.5 -6.5t41.5 -21.5q32 -21 53 -21q42 0 51 50l50 -3q-3 -52 -30 -78t-68 -26q-32 0 -76 27q-34 21 -52 21q-23 0 -34.5 -11.5t-17.5 -37.5z" />
    <glyph glyph-name="uni0230" unicode="&#x230;" horiz-adv-x="775" 
d="M388 -9q-101 0 -175 44.5t-114.5 126t-40.5 191.5q0 111 40.5 192t114.5 125t175 44q100 0 174.5 -44t115 -125t40.5 -191q0 -111 -40.5 -192.5t-115 -126t-174.5 -44.5zM388 81q105 0 163.5 71.5t58.5 200.5t-58 200t-164 71q-105 0 -163.5 -71t-58.5 -200t58.5 -200.5
t163.5 -71.5zM234 925v63h306v-63h-306zM337 792v80h100v-80h-100z" />
    <glyph glyph-name="uni0231" unicode="&#x231;" horiz-adv-x="565" 
d="M283 -9q-74 0 -128 31t-83.5 87.5t-29.5 134.5t29.5 134.5t83.5 87.5t128 31q72 0 126 -31t84 -87.5t30 -134.5t-30 -134.5t-84 -87.5t-126 -31zM283 69q62 0 100 45t38 130t-38 129.5t-100 44.5q-63 0 -101 -44.5t-38 -129.5t38 -130t101 -45zM130 707v64h306v-64h-306z
M233 576v79h100v-79h-100z" />
    <glyph glyph-name="uni0232" unicode="&#x232;" horiz-adv-x="606" 
d="M251 0v329l-270 376h120l204 -285l204 285h115l-270 -377v-328h-103zM136 811v63h335v-63h-335z" />
    <glyph glyph-name="uni0233" unicode="&#x233;" horiz-adv-x="520" 
d="M121 -180l87 193l-204 475h108l150 -371l152 371h104l-291 -668h-106zM109 621v64h305v-64h-305z" />
    <glyph glyph-name="uni0237" unicode="&#x237;" horiz-adv-x="246" 
d="M-48 -193l-7 76l44 4q85 9 85 102v499h101v-488q0 -92 -42.5 -137.5t-137.5 -52.5z" />
    <glyph glyph-name="uni0253" unicode="&#x253;" horiz-adv-x="591" 
d="M333 -9q-56 0 -99 25t-64 67v-83h-99v534q0 85 45.5 132.5t135.5 47.5q32 0 60 -9l-12 -77q-13 3 -21 4t-19 1q-44 0 -66 -25.5t-22 -73.5v-125q22 40 64.5 64t96.5 24q65 0 113.5 -31t75 -87.5t26.5 -134.5t-26.5 -135t-75 -87.5t-113.5 -30.5zM308 69q63 0 100.5 45
t37.5 130t-37.5 129.5t-100.5 44.5t-100.5 -44.5t-37.5 -129.5t37.5 -130t100.5 -45z" />
    <glyph glyph-name="uni0257" unicode="&#x257;" horiz-adv-x="591" 
d="M257 -9q-64 0 -112.5 30.5t-75.5 87.5t-27 135t27 134.5t75 87.5t113 31q55 0 98 -24t64 -65v126q0 85 45.5 132.5t135.5 47.5q34 0 60 -9l-12 -77q-13 3 -21 4t-19 1q-41 0 -64.5 -24t-23.5 -75v-534h-99v85q-21 -44 -64.5 -69t-99.5 -25zM283 69q62 0 100 45t38 130
t-38 129.5t-100 44.5q-63 0 -101 -44.5t-38 -129.5t38 -130t101 -45z" />
    <glyph glyph-name="uni0259" unicode="&#x259;" horiz-adv-x="537" 
d="M261 -9q-105 0 -164 63.5t-59 180.5v31h360q-6 76 -47 114t-113 38q-85 0 -161 -55l-31 70q37 31 89 47.5t105 16.5q78 0 135.5 -30.5t88.5 -87t31 -133.5t-30 -134.5t-83 -89t-121 -31.5zM259 62q57 0 94 36.5t44 105.5h-269q6 -142 131 -142z" />
    <glyph glyph-name="uni0292" unicode="&#x292;" horiz-adv-x="504" 
d="M230 -189q-138 0 -217 60l32 72q70 -54 175 -54q76 0 114.5 34.5t38.5 98.5q0 58 -38 89.5t-110 31.5h-100v49l202 215h-293v81h409v-69l-191 -204h7q101 0 158 -49.5t57 -137.5q0 -101 -65.5 -159t-178.5 -58z" />
    <glyph glyph-name="uni02B9" unicode="&#x2b9;" horiz-adv-x="230" 
d="M82 422l-25 283h118l-25 -283h-68z" />
    <glyph glyph-name="uni02BA" unicode="&#x2ba;" horiz-adv-x="417" 
d="M82 422l-25 283h118l-25 -283h-68zM268 422l-25 283h118l-25 -283h-68z" />
    <glyph glyph-name="uni02BB" unicode="&#x2bb;" horiz-adv-x="500" 
d="M194 566v64q0 37 11 69t41 60l41 -30q-18 -18 -25.5 -34.5t-8.5 -33.5h53v-95h-112z" />
    <glyph glyph-name="uni02BC" unicode="&#x2bc;" horiz-adv-x="336" 
d="M172 569l-41 29q18 18 25.5 35t8.5 34h-53v94h112v-63q0 -38 -11 -69.5t-41 -59.5z" />
    <glyph glyph-name="uni02BE" unicode="&#x2be;" horiz-adv-x="500" 
d="M250 553v49q23 0 37 15.5t14 36.5q0 22 -14 37.5t-37 15.5v49q45 0 74.5 -29.5t29.5 -72.5t-29.5 -72t-74.5 -29z" />
    <glyph glyph-name="uni02BF" unicode="&#x2bf;" horiz-adv-x="500" 
d="M250 553q-44 0 -73.5 29t-29.5 72t29.5 72.5t73.5 29.5v-49q-22 0 -36.5 -15.5t-14.5 -37.5q0 -21 14.5 -36.5t36.5 -15.5v-49z" />
    <glyph glyph-name="circumflex" unicode="&#x2c6;" horiz-adv-x="500" 
d="M94 553l110 202h92l110 -202h-67l-89 140l-89 -140h-67z" />
    <glyph glyph-name="caron" unicode="&#x2c7;" horiz-adv-x="500" 
d="M204 553l-110 202h67l89 -141l89 141h67l-110 -202h-92z" />
    <glyph glyph-name="uni02C8" unicode="&#x2c8;" horiz-adv-x="500" 
d="M215 595v201h70v-201h-70z" />
    <glyph glyph-name="uni02C9" unicode="&#x2c9;" horiz-adv-x="500" 
d="M98 621v64h305v-64h-305z" />
    <glyph glyph-name="uni02CA" unicode="&#x2ca;" horiz-adv-x="500" 
d="M215 553l103 202h103l-136 -202h-70z" />
    <glyph glyph-name="fourthtofinechinese" unicode="&#x2cb;" horiz-adv-x="500" 
d="M215 553l-136 202h103l103 -202h-70z" />
    <glyph glyph-name="uni02CC" unicode="&#x2cc;" horiz-adv-x="500" 
d="M215 -270v202h70v-202h-70z" />
    <glyph glyph-name="breve" unicode="&#x2d8;" horiz-adv-x="500" 
d="M250 550q-70 0 -113 51t-47 140l60 6q4 -64 30 -98.5t70 -34.5t70 34.5t30 98.5l60 -6q-3 -89 -46.5 -140t-113.5 -51z" />
    <glyph glyph-name="dotaccent" unicode="&#x2d9;" horiz-adv-x="500" 
d="M197 603v101h106v-101h-106z" />
    <glyph glyph-name="ring" unicode="&#x2da;" horiz-adv-x="500" 
d="M250 546q-52 0 -87 35t-35 85t35 84t87 34t87 -34t35 -84t-35 -85t-87 -35zM250 596q30 0 49.5 20t19.5 50q0 29 -19.5 48.5t-49.5 19.5t-49.5 -19.5t-19.5 -48.5q0 -30 19.5 -50t49.5 -20z" />
    <glyph glyph-name="ogonek" unicode="&#x2db;" horiz-adv-x="500" 
d="M230 -194q-51 0 -81 27.5t-30 73.5q0 41 26.5 76t72.5 56l32 -39q-24 -10 -43.5 -31.5t-19.5 -50.5q0 -27 16 -40.5t41 -13.5q24 0 53 12l15 -53q-34 -17 -82 -17z" />
    <glyph glyph-name="tilde" unicode="&#x2dc;" horiz-adv-x="500" 
d="M117 587l-53 4q5 65 35 102.5t78 37.5q22 0 40.5 -10t42.5 -30q22 -18 35.5 -25t25.5 -7q51 0 62 75l53 -3q-4 -66 -34 -103t-78 -37q-20 0 -38.5 9t-45.5 30q-21 18 -34 25t-27 7q-50 0 -62 -75z" />
    <glyph glyph-name="hungarumlaut" unicode="&#x2dd;" horiz-adv-x="500" 
d="M290 553l52 202h88l-85 -202h-55zM153 553l52 202h89l-86 -202h-55z" />
    <glyph glyph-name="gravecomb" unicode="&#x300;" 
d="M-35 553l-136 202h103l103 -202h-70z" />
    <glyph glyph-name="acutecomb" unicode="&#x301;" 
d="M-35 553l103 202h103l-136 -202h-70z" />
    <glyph glyph-name="uni0302" unicode="&#x302;" 
d="M-156 553l110 202h92l110 -202h-67l-89 140l-89 -140h-67z" />
    <glyph glyph-name="tildecomb" unicode="&#x303;" 
d="M-133 587l-53 4q5 65 35 102.5t78 37.5q22 0 40.5 -10t42.5 -30q22 -18 35.5 -25t25.5 -7q51 0 62 75l53 -3q-4 -66 -34 -103t-78 -37q-20 0 -38.5 9t-45.5 30q-21 18 -34 25t-27 7q-50 0 -62 -75z" />
    <glyph glyph-name="uni0304" unicode="&#x304;" 
d="M-152 621v64h305v-64h-305z" />
    <glyph glyph-name="uni0306" unicode="&#x306;" 
d="M0 550q-70 0 -113 51t-47 140l60 6q4 -64 30 -98.5t70 -34.5t70 34.5t30 98.5l60 -6q-3 -89 -46.5 -140t-113.5 -51z" />
    <glyph glyph-name="uni0307" unicode="&#x307;" 
d="M-53 603v101h106v-101h-106z" />
    <glyph glyph-name="uni0308" unicode="&#x308;" 
d="M40 604v99h100v-99h-100zM-140 604v99h100v-99h-100z" />
    <glyph glyph-name="hookabovecomb" unicode="&#x309;" 
d="M-32 553v20q0 22 9 36.5t20.5 25t20.5 21t9 24.5q0 27 -43 27q-16 0 -30.5 -3.5t-31.5 -12.5l-16 48q39 23 99 23q48 0 75 -18.5t27 -51.5q0 -25 -11.5 -40.5t-26 -26.5t-26 -23.5t-11.5 -33.5v-15h-64z" />
    <glyph glyph-name="uni030A" unicode="&#x30a;" 
d="M0 546q-52 0 -87 35t-35 85t35 84t87 34t87 -34t35 -84t-35 -85t-87 -35zM0 596q30 0 49.5 20t19.5 50q0 29 -19.5 48.5t-49.5 19.5t-49.5 -19.5t-19.5 -48.5q0 -30 19.5 -50t49.5 -20z" />
    <glyph glyph-name="uni030B" unicode="&#x30b;" 
d="M40 553l52 202h88l-85 -202h-55zM-97 553l52 202h89l-86 -202h-55z" />
    <glyph glyph-name="uni030C" unicode="&#x30c;" 
d="M-46 553l-110 202h67l89 -141l89 141h67l-110 -202h-92z" />
    <glyph glyph-name="uni030F" unicode="&#x30f;" 
d="M42 553l-85 202h89l51 -202h-55zM-94 553l-86 202h88l52 -202h-54z" />
    <glyph glyph-name="uni0311" unicode="&#x311;" 
d="M-100 550l-60 5q4 89 47 140.5t113 51.5t113.5 -51.5t46.5 -140.5l-60 -5q-4 63 -30 98t-70 35t-70 -35t-30 -98z" />
    <glyph glyph-name="uni0312" unicode="&#x312;" 
d="M-56 566v63q0 39 12.5 72.5t41.5 59.5l41 -28q-19 -20 -27.5 -38t-10.5 -38h55v-91h-112z" />
    <glyph glyph-name="uni031B" unicode="&#x31b;" 
d="M55 431l-55 36v21q58 0 81 25t23 85v18h88v-32q0 -66 -36.5 -107t-100.5 -46z" />
    <glyph glyph-name="dotbelowcomb" unicode="&#x323;" 
d="M-53 -195v101h106v-101h-106z" />
    <glyph glyph-name="uni0324" unicode="&#x324;" 
d="M40 -187v99h100v-99h-100zM-140 -187v99h100v-99h-100z" />
    <glyph glyph-name="uni0326" unicode="&#x326;" 
d="M2 -273l-41 29q19 20 27.5 38t10.5 38h-55v91h112v-63q0 -39 -12.5 -72.5t-41.5 -60.5z" />
    <glyph glyph-name="uni0327" unicode="&#x327;" 
d="M2 -194q-27 0 -52.5 5.5t-42.5 15.5l15 49q19 -8 35.5 -12t38.5 -4q27 0 42 8.5t15 24.5q0 26 -38 26q-10 0 -20 -1.5t-24 -5.5l-18 16l14 92h58l-10 -61q8 1 15 1q39 0 63 -18.5t24 -51.5q0 -37 -32 -60.5t-83 -23.5z" />
    <glyph glyph-name="uni0328" unicode="&#x328;" 
d="M-20 -194q-51 0 -81 27.5t-30 73.5q0 41 26.5 76t72.5 56l32 -39q-24 -10 -43.5 -31.5t-19.5 -50.5q0 -27 16 -40.5t41 -13.5q24 0 53 12l15 -53q-34 -17 -82 -17z" />
    <glyph glyph-name="uni032E" unicode="&#x32e;" 
d="M0 -215q-70 0 -113 40.5t-47 110.5l60 6q4 -44 30 -69t70 -25t70 25t30 69l60 -6q-3 -70 -46.5 -110.5t-113.5 -40.5z" />
    <glyph glyph-name="uni0331" unicode="&#x331;" 
d="M-152 -160v64h305v-64h-305z" />
    <glyph glyph-name="uni0335" unicode="&#x335;" 
d="M-190 528v73h381v-73h-381z" />
    <glyph glyph-name="uni0337" unicode="&#x337;" 
d="M-120 241l-40 70l281 163l40 -69z" />
    <glyph glyph-name="uni0338" unicode="&#x338;" 
d="M-135 -52l-58 34l328 561l58 -34z" />
    <glyph glyph-name="uni0394" unicode="&#x394;" horiz-adv-x="736" 
d="M42 0v60l283 645h86l283 -645v-60h-652zM367 589l-215 -505h433l-216 505h-2z" />
    <glyph glyph-name="Sigma" unicode="&#x3a3;" horiz-adv-x="600" 
d="M41 -180v73l268 370l-268 369v73h518v-87h-390l236 -326v-59l-236 -326h390v-87h-518z" />
    <glyph glyph-name="uni03A9" unicode="&#x3a9;" horiz-adv-x="788" 
d="M39 0v86h189q-91 61 -133 139.5t-42 174.5q0 98 43 168.5t120 108t178 37.5t177.5 -37.5t120 -108t43.5 -168.5q0 -96 -41.5 -174.5t-133.5 -139.5h188v-86h-298v82q89 64 132.5 140.5t43.5 165.5q0 113 -62 174.5t-170 61.5t-170.5 -61.5t-62.5 -174.5
q0 -89 43.5 -165.5t133.5 -140.5v-82h-299z" />
    <glyph glyph-name="uni03BC" unicode="&#x3bc;" horiz-adv-x="569" 
d="M68 -180v668h101v-300q0 -59 24 -87.5t76 -28.5q57 0 92.5 38.5t35.5 102.5v275h101v-488h-98v87q-17 -47 -53 -71.5t-80 -24.5q-35 0 -61.5 10.5t-43.5 37.5l7 -219h-101z" />
    <glyph glyph-name="pi" unicode="&#x3c0;" horiz-adv-x="601" 
d="M522 -7q-93 0 -134 51.5t-41 140.5v225h-145q-2 -125 -17.5 -224t-46.5 -186h-105q34 102 50.5 201.5t17.5 208.5h-97v78h558v-78h-114v-218q0 -58 22 -86t74 -28q20 0 47 5l-4 -84q-38 -6 -65 -6z" />
    <glyph glyph-name="uni0400" unicode="&#x400;" horiz-adv-x="589" 
d="M82 0v705h456v-84h-356v-221h335v-84h-335v-232h356v-84h-456zM289 765l-153 173h109l118 -173h-74z" />
    <glyph glyph-name="uni0401" unicode="&#x401;" horiz-adv-x="589" 
d="M82 0v705h456v-84h-356v-221h335v-84h-335v-232h356v-84h-456zM366 799v99h100v-99h-100zM186 799v99h100v-99h-100z" />
    <glyph glyph-name="uni0402" unicode="&#x402;" horiz-adv-x="855" 
d="M584 -189q-35 0 -66 5.5t-54 15.5l19 78q39 -16 90 -16q59 0 91.5 40t32.5 117v89q0 108 -49 158t-145 50q-86 0 -146 -35v-313h-103v618h-250v87h603v-87h-250v-213q27 15 69 24t87 9q140 0 213.5 -72.5t73.5 -219.5v-91q0 -118 -58.5 -181t-157.5 -63z" />
    <glyph glyph-name="uni0403" unicode="&#x403;" horiz-adv-x="550" 
d="M82 0v705h453v-87h-349v-618h-104zM242 765l118 173h109l-153 -173h-74z" />
    <glyph glyph-name="uni0404" unicode="&#x404;" horiz-adv-x="676" 
d="M398 -9q-107 0 -183 44t-116.5 125.5t-40.5 192.5t40.5 192t116.5 125t183 44q72 0 134.5 -22.5t104.5 -64.5l-36 -83q-46 41 -94.5 59.5t-105.5 18.5q-103 0 -162.5 -58.5t-69.5 -163.5h337v-83h-339q10 -114 70 -174t164 -60q57 0 105.5 18.5t94.5 59.5l36 -83
q-42 -41 -104.5 -64t-134.5 -23z" />
    <glyph glyph-name="uni0405" unicode="&#x405;" horiz-adv-x="622" 
d="M317 -9q-83 0 -152 21.5t-117 60.5l33 82q50 -38 107 -57t129 -19q85 0 125.5 30.5t40.5 79.5q0 40 -29 63.5t-97 37.5l-107 22q-95 20 -141.5 66t-46.5 124q0 63 33.5 111t93.5 74.5t138 26.5q72 0 133.5 -21.5t104.5 -62.5l-34 -79q-85 75 -205 75q-74 0 -117.5 -33
t-43.5 -88q0 -42 27 -67t90 -38l106 -22q100 -21 149 -64.5t49 -117.5q0 -62 -33 -108t-93 -71.5t-143 -25.5z" />
    <glyph glyph-name="uni0406" unicode="&#x406;" horiz-adv-x="267" 
d="M82 0v705h104v-705h-104z" />
    <glyph glyph-name="uni0407" unicode="&#x407;" horiz-adv-x="267" 
d="M82 0v705h104v-705h-104zM174 799v99h100v-99h-100zM-6 799v99h100v-99h-100z" />
    <glyph glyph-name="uni0408" unicode="&#x408;" horiz-adv-x="338" 
d="M-2 -8l-8 85l65 4q98 8 98 112v512h103v-512q0 -91 -47 -141t-139 -56z" />
    <glyph glyph-name="uni0409" unicode="&#x409;" horiz-adv-x="1131" 
d="M65 -16l-49 79q39 21 70 51.5t52.5 78.5t32.5 120.5t11 178.5v213h469v-303h202q111 0 173.5 -50.5t62.5 -149.5t-62.5 -150.5t-173.5 -51.5h-306v618h-269v-152q0 -142 -25 -236.5t-72.5 -153t-115.5 -92.5zM651 84h190q147 0 147 117t-147 117h-190v-234z" />
    <glyph glyph-name="uni040A" unicode="&#x40a;" horiz-adv-x="1165" 
d="M82 0v705h104v-304h395v304h103v-303h202q112 0 174.5 -50.5t62.5 -149.5t-62.5 -150.5t-174.5 -51.5h-305v314h-395v-314h-104zM684 84h190q148 0 148 117t-148 117h-190v-234z" />
    <glyph glyph-name="uni040B" unicode="&#x40b;" horiz-adv-x="856" 
d="M254 0v618h-250v87h603v-87h-250v-213q30 16 74.5 24.5t89.5 8.5q136 0 208.5 -72.5t72.5 -219.5v-146h-104v140q0 109 -48 158.5t-139 49.5q-40 0 -80 -7.5t-74 -27.5v-313h-103z" />
    <glyph glyph-name="uni040C" unicode="&#x40c;" horiz-adv-x="656" 
d="M82 0v705h104v-307h113l198 307h115l-215 -324q42 -16 74 -49.5t57 -83.5l121 -248h-112l-96 205q-27 57 -63 81.5t-89 24.5h-103v-311h-104zM295 765l118 173h109l-153 -173h-74z" />
    <glyph glyph-name="uni040D" unicode="&#x40d;" horiz-adv-x="743" 
d="M82 0v705h96v-536l405 536h78v-705h-96v538l-405 -538h-78zM335 765l-153 173h109l118 -173h-74z" />
    <glyph glyph-name="uni040E" unicode="&#x40e;" horiz-adv-x="651" 
d="M190 0l109 212l-306 493h111l244 -398l204 398h107l-361 -705h-108zM328 760q-72 0 -122.5 35t-70.5 100l55 20q20 -50 53.5 -72.5t85.5 -22.5t84.5 22t57.5 72l54 -19q-27 -70 -78.5 -102.5t-118.5 -32.5z" />
    <glyph glyph-name="uni040F" unicode="&#x40f;" horiz-adv-x="761" 
d="M334 -161v161h-252v705h104v-618h389v618h103v-705h-252v-161h-92z" />
    <glyph glyph-name="uni0410" unicode="&#x410;" horiz-adv-x="736" 
d="M11 0l314 705h86l315 -705h-106l-74 172h-357l-73 -172h-105zM367 590l-141 -334h285l-142 334h-2z" />
    <glyph glyph-name="uni0411" unicode="&#x411;" horiz-adv-x="666" 
d="M82 0v705h475v-84h-375v-219h206q111 0 173.5 -50.5t62.5 -149.5t-62.5 -150.5t-173.5 -51.5h-306zM182 84h194q147 0 147 117t-147 117h-194v-234z" />
    <glyph glyph-name="uni0412" unicode="&#x412;" horiz-adv-x="682" 
d="M82 0v705h294q110 0 170.5 -48.5t60.5 -135.5q0 -57 -30 -98t-82 -60q61 -16 95 -59t34 -109q0 -94 -62.5 -144.5t-173.5 -50.5h-306zM182 397h178q146 0 146 114t-146 114h-178v-228zM182 80h194q147 0 147 119q0 118 -147 118h-194v-237z" />
    <glyph glyph-name="uni0413" unicode="&#x413;" horiz-adv-x="550" 
d="M82 0v705h453v-87h-349v-618h-104z" />
    <glyph glyph-name="uni0414" unicode="&#x414;" horiz-adv-x="788" 
d="M15 -161v245h70q50 63 74 170.5t24 267.5v183h482v-621h100v-245h-92v161h-565v-161h-93zM191 84h371v537h-282v-107q0 -154 -22 -257.5t-67 -172.5z" />
    <glyph glyph-name="uni0415" unicode="&#x415;" horiz-adv-x="589" 
d="M82 0v705h456v-84h-356v-221h335v-84h-335v-232h356v-84h-456z" />
    <glyph glyph-name="uni0416" unicode="&#x416;" horiz-adv-x="989" 
d="M8 0l120 248q49 102 132 133l-215 324h115l199 -307h86v307h100v-307h86l199 307h115l-215 -324q42 -16 74 -49.5t57 -83.5l120 -248h-111l-97 205q-27 57 -62.5 81.5t-88.5 24.5h-77v-311h-100v311h-77q-54 0 -90 -25t-63 -81l-95 -205h-112z" />
    <glyph glyph-name="uni0417" unicode="&#x417;" horiz-adv-x="637" 
d="M308 -9q-89 0 -157.5 23.5t-115.5 64.5l35 79q45 -39 101.5 -58.5t129.5 -19.5q91 0 133.5 30.5t42.5 91.5q0 114 -147 114h-172v83h156q146 0 146 111q0 53 -39 84.5t-119 31.5q-61 0 -116.5 -19t-100.5 -57l-34 79q47 41 116 63t145 22q125 0 188 -53t63 -140
q0 -57 -30 -98t-81 -60q60 -16 94 -59t34 -109q0 -94 -66.5 -149t-205.5 -55z" />
    <glyph glyph-name="uni0418" unicode="&#x418;" horiz-adv-x="743" 
d="M82 0v705h96v-536l405 536h78v-705h-96v538l-405 -538h-78z" />
    <glyph glyph-name="uni0419" unicode="&#x419;" horiz-adv-x="743" 
d="M82 0v705h96v-536l405 536h78v-705h-96v538l-405 -538h-78zM371 760q-72 0 -122.5 35t-70.5 100l55 20q20 -50 53.5 -72.5t85.5 -22.5t84.5 22t57.5 72l54 -19q-27 -70 -78.5 -102.5t-118.5 -32.5z" />
    <glyph glyph-name="uni041A" unicode="&#x41a;" horiz-adv-x="656" 
d="M82 0v705h104v-307h113l198 307h115l-215 -324q42 -16 74 -49.5t57 -83.5l121 -248h-112l-96 205q-27 57 -63 81.5t-89 24.5h-103v-311h-104z" />
    <glyph glyph-name="uni041B" unicode="&#x41b;" horiz-adv-x="746" 
d="M65 -16l-49 79q39 21 70 51.5t52.5 78.5t32.5 120.5t11 178.5v213h481v-705h-103v618h-282v-152q0 -142 -25 -236.5t-72.5 -153t-115.5 -92.5z" />
    <glyph glyph-name="uni041C" unicode="&#x41c;" horiz-adv-x="861" 
d="M84 0v705h87l261 -487l260 487h85v-705h-93v517l-221 -409h-63l-222 407v-515h-94z" />
    <glyph glyph-name="uni041D" unicode="&#x41d;" horiz-adv-x="767" 
d="M82 0v705h104v-304h395v304h103v-705h-103v314h-395v-314h-104z" />
    <glyph glyph-name="uni041E" unicode="&#x41e;" horiz-adv-x="775" 
d="M388 -9q-101 0 -175 44.5t-114.5 126t-40.5 191.5q0 111 40.5 192t114.5 125t175 44q100 0 174.5 -44t115 -125t40.5 -191q0 -111 -40.5 -192.5t-115 -126t-174.5 -44.5zM388 81q105 0 163.5 71.5t58.5 200.5t-58 200t-164 71q-105 0 -163.5 -71t-58.5 -200t58.5 -200.5
t163.5 -71.5z" />
    <glyph glyph-name="uni041F" unicode="&#x41f;" horiz-adv-x="761" 
d="M82 0v705h596v-705h-103v618h-389v-618h-104z" />
    <glyph glyph-name="uni0420" unicode="&#x420;" horiz-adv-x="642" 
d="M82 0v705h292q114 0 176 -56.5t62 -158.5q0 -103 -62 -159.5t-176 -56.5h-188v-274h-104zM186 357h173q152 0 152 133q0 132 -152 132h-173v-265z" />
    <glyph glyph-name="uni0421" unicode="&#x421;" horiz-adv-x="676" 
d="M398 -9q-107 0 -183 44t-116.5 125.5t-40.5 192.5t40.5 192t116.5 125t183 44q72 0 134.5 -22.5t104.5 -64.5l-36 -83q-46 41 -94.5 59.5t-105.5 18.5q-114 0 -174 -70t-60 -199t60 -199.5t174 -70.5q57 0 105.5 18.5t94.5 59.5l36 -83q-42 -41 -104.5 -64t-134.5 -23z
" />
    <glyph glyph-name="uni0422" unicode="&#x422;" horiz-adv-x="611" 
d="M254 0v618h-250v87h603v-87h-250v-618h-103z" />
    <glyph glyph-name="uni0423" unicode="&#x423;" horiz-adv-x="651" 
d="M190 0l109 212l-306 493h111l244 -398l204 398h107l-361 -705h-108z" />
    <glyph glyph-name="uni0424" unicode="&#x424;" horiz-adv-x="863" 
d="M380 -24v80q-100 0 -172.5 36t-111 104t-38.5 162q0 143 84.5 222.5t237.5 79.5v74h104v-74q153 0 237.5 -79.5t84.5 -222.5q0 -95 -39 -162.5t-111 -103.5t-172 -36v-80h-104zM494 579h-11v-442h11q91 0 148 57.5t57 163.5q0 109 -56 165t-149 56zM369 137h11v442h-11
q-93 0 -149 -56t-56 -165q0 -106 57.5 -163.5t147.5 -57.5z" />
    <glyph glyph-name="uni0425" unicode="&#x425;" horiz-adv-x="660" 
d="M3 0l269 360l-258 345h120l197 -269l195 269h121l-258 -345l268 -360h-121l-206 282l-205 -282h-122z" />
    <glyph glyph-name="uni0426" unicode="&#x426;" horiz-adv-x="801" 
d="M686 -161v161h-604v705h104v-618h389v618h103v-618h100v-248h-92z" />
    <glyph glyph-name="uni0427" unicode="&#x427;" horiz-adv-x="685" 
d="M500 0v287q-29 -15 -74.5 -23.5t-90.5 -8.5q-135 0 -207 73t-72 219v158h103v-152q0 -108 47 -158t139 -50q41 0 81 8t74 27v325h103v-705h-103z" />
    <glyph glyph-name="uni0428" unicode="&#x428;" horiz-adv-x="1061" 
d="M82 0v705h102v-618h296v618h101v-618h296v618h101v-705h-896z" />
    <glyph glyph-name="uni0429" unicode="&#x429;" horiz-adv-x="1100" 
d="M985 -161v161h-903v705h102v-618h296v618h101v-618h296v618h101v-618h100v-248h-93z" />
    <glyph glyph-name="uni042A" unicode="&#x42a;" horiz-adv-x="797" 
d="M214 0v618h-210v87h314v-303h201q112 0 174 -50.5t62 -149.5t-62 -150.5t-174 -51.5h-305zM318 84h190q147 0 147 117t-147 117h-190v-234z" />
    <glyph glyph-name="uni042B" unicode="&#x42b;" horiz-adv-x="876" 
d="M82 0v705h104v-303h172q111 0 173.5 -50.5t62.5 -149.5t-62.5 -150.5t-173.5 -51.5h-276zM690 0v705h103v-705h-103zM186 84h160q147 0 147 117t-147 117h-160v-234z" />
    <glyph glyph-name="uni042C" unicode="&#x42c;" horiz-adv-x="666" 
d="M82 0v705h104v-303h202q111 0 173.5 -50.5t62.5 -149.5t-62.5 -150.5t-173.5 -51.5h-306zM186 84h190q147 0 147 117t-147 117h-190v-234z" />
    <glyph glyph-name="uni042D" unicode="&#x42d;" horiz-adv-x="676" 
d="M277 -9q-71 0 -133.5 23t-104.5 64l36 83q46 -41 94 -59.5t106 -18.5q103 0 163.5 60t69.5 174h-338v83h337q-11 105 -69 163.5t-153 58.5q-58 0 -107.5 -18t-102.5 -60l-36 83q49 42 113 64.5t135 22.5q102 0 176 -44t114.5 -125t40.5 -192t-40.5 -192.5t-117 -125.5
t-183.5 -44z" />
    <glyph glyph-name="uni042E" unicode="&#x42e;" horiz-adv-x="1028" 
d="M649 -9q-91 0 -160 39t-110 111.5t-48 172.5h-145v-314h-104v705h104v-304h145q9 97 50 167.5t109.5 108t158.5 37.5q99 0 171 -44t111.5 -125t39.5 -192t-39.5 -192.5t-112 -125.5t-170.5 -44zM649 81q102 0 158 71.5t56 200.5t-55.5 200t-158.5 71q-101 0 -157 -71
t-56 -200t56 -200.5t157 -71.5z" />
    <glyph glyph-name="uni042F" unicode="&#x42f;" horiz-adv-x="679" 
d="M35 0l121 224q32 59 78 76q-80 16 -124 67t-44 131q0 98 62 152.5t176 54.5h292v-705h-103v291h-103q-43 0 -70.5 -13.5t-48.5 -52.5l-123 -225h-113zM321 369h172v253h-172q-154 0 -154 -126q0 -127 154 -127z" />
    <glyph glyph-name="uni0430" unicode="&#x430;" horiz-adv-x="549" 
d="M233 -9q-51 0 -91 20t-63.5 54t-23.5 77q0 54 27.5 85t91 45t171.5 14h34v26q0 57 -24 82t-79 25q-42 0 -84 -12.5t-86 -39.5l-31 71q38 27 95 43t109 16q100 0 148 -47.5t48 -148.5v-301h-95v81q-18 -42 -56 -66t-91 -24zM253 63q54 0 90 38t36 96v27h-33
q-73 0 -114.5 -7t-59 -23.5t-17.5 -45.5q0 -38 26 -61.5t72 -23.5z" />
    <glyph glyph-name="uni0431" unicode="&#x431;" horiz-adv-x="577" 
d="M292 -9q-113 0 -178.5 71t-65.5 209v74q0 146 62 222.5t185 108.5l172 45l32 -81l-197 -50q-78 -20 -118 -73t-40 -131v-4q23 48 67.5 76t106.5 28t109.5 -29.5t74.5 -84.5t27 -130q0 -77 -29.5 -133.5t-83 -87t-124.5 -30.5zM288 69q66 0 102.5 43.5t36.5 125.5
q0 81 -37 125.5t-102 44.5q-64 0 -101 -43.5t-37 -119.5q0 -87 36.5 -131.5t101.5 -44.5z" />
    <glyph glyph-name="uni0432" unicode="&#x432;" horiz-adv-x="556" 
d="M76 0v488h249q90 0 131.5 -33.5t41.5 -94.5q0 -38 -21.5 -66.5t-58.5 -41.5q46 -11 71 -42t25 -74q0 -63 -47 -99.5t-134 -36.5h-257zM171 281h147q41 0 63.5 19t22.5 52q0 34 -22.5 52t-63.5 18h-147v-141zM171 65h156q94 0 94 76q0 75 -94 75h-156v-151z" />
    <glyph glyph-name="uni0433" unicode="&#x433;" horiz-adv-x="445" 
d="M76 0v488h354v-81h-253v-407h-101z" />
    <glyph glyph-name="uni0434" unicode="&#x434;" horiz-adv-x="604" 
d="M26 -130v210h54q32 48 46 111.5t14 154.5v142h361v-408h78v-210h-86v130h-380v-130h-87zM174 80h231v329h-177v-84q0 -69 -14 -134t-40 -111z" />
    <glyph glyph-name="uni0435" unicode="&#x435;" horiz-adv-x="548" 
d="M306 -9q-120 0 -189 67.5t-69 184.5q0 75 30.5 132.5t84.5 89.5t124 32q101 0 159 -64.5t58 -177.5v-34h-358q11 -152 161 -152q42 0 82.5 13t76.5 43l30 -70q-33 -30 -85 -47t-105 -17zM291 426q-63 0 -100 -39t-45 -104h273q-3 68 -36 105.5t-92 37.5z" />
    <glyph glyph-name="uni0436" unicode="&#x436;" horiz-adv-x="803" 
d="M-2 0l101 174q23 40 43.5 62.5t45.5 32.5l-167 219h110l151 -198h70v198h101v-198h69l151 198h109l-166 -219q25 -10 45.5 -33t43.5 -62l101 -174h-108l-85 146q-23 39 -44.5 52t-58.5 13h-57v-211h-101v211h-57q-38 0 -59.5 -13t-44.5 -52l-85 -146h-108z" />
    <glyph glyph-name="uni0437" unicode="&#x437;" horiz-adv-x="507" 
d="M246 -9q-64 0 -121 15.5t-93 45.5l29 68q35 -27 83.5 -40.5t99.5 -13.5q67 0 97 18t30 55q0 71 -92 71h-122v74h111q40 0 63 17.5t23 49.5q0 33 -26.5 52t-87.5 19q-50 0 -92 -12.5t-80 -37.5l-29 67q84 58 216 58q95 0 143.5 -36.5t48.5 -100.5q0 -38 -21 -66.5
t-58 -41.5q45 -10 71 -40.5t26 -75.5q0 -67 -56 -106t-163 -39z" />
    <glyph glyph-name="uni0438" unicode="&#x438;" horiz-adv-x="593" 
d="M76 0v488h92v-354l264 354h85v-488h-92v353l-264 -353h-85z" />
    <glyph glyph-name="uni0439" unicode="&#x439;" horiz-adv-x="593" 
d="M76 0v488h92v-354l264 354h85v-488h-92v353l-264 -353h-85zM296 550q-65 0 -111.5 34.5t-64.5 100.5l55 19q18 -49 47.5 -72t74.5 -23q46 0 74.5 22t50.5 72l53 -18q-24 -71 -71 -103t-108 -32z" />
    <glyph glyph-name="uni043A" unicode="&#x43a;" horiz-adv-x="541" 
d="M76 0v488h101v-198h82l151 198h110l-165 -219q24 -11 44.5 -33.5t42.5 -61.5l101 -174h-108l-85 146q-23 39 -44.5 52t-59.5 13h-69v-211h-101z" />
    <glyph glyph-name="uni043B" unicode="&#x43b;" horiz-adv-x="585" 
d="M55 -13l-34 80q44 18 69 49.5t36 88t11 146.5v137h372v-488h-101v407h-177v-59q0 -110 -18 -183t-56.5 -115.5t-101.5 -62.5z" />
    <glyph glyph-name="uni043C" unicode="&#x43c;" horiz-adv-x="671" 
d="M76 0v488h83l177 -309l176 309h83v-488h-89v331l-146 -252h-49l-146 252v-331h-89z" />
    <glyph glyph-name="uni043D" unicode="&#x43d;" horiz-adv-x="596" 
d="M76 0v488h101v-197h243v197h101v-488h-101v211h-243v-211h-101z" />
    <glyph glyph-name="uni043E" unicode="&#x43e;" horiz-adv-x="577" 
d="M289 -9q-74 0 -128 31t-83.5 87.5t-29.5 134.5t29.5 134.5t83.5 87.5t128 31q72 0 126 -31t84 -87.5t30 -134.5t-30 -134.5t-84 -87.5t-126 -31zM289 69q62 0 100 45t38 130t-38 129.5t-100 44.5q-63 0 -101 -44.5t-38 -129.5t38 -130t101 -45z" />
    <glyph glyph-name="uni043F" unicode="&#x43f;" horiz-adv-x="593" 
d="M76 0v488h442v-488h-101v407h-240v-407h-101z" />
    <glyph glyph-name="uni0440" unicode="&#x440;" horiz-adv-x="602" 
d="M77 -180v668h99v-83q21 42 64 67t99 25q65 0 113.5 -31t75 -87.5t26.5 -134.5t-26.5 -135t-75 -87.5t-113.5 -30.5q-54 0 -96.5 23.5t-64.5 64.5v-259h-101zM314 69q63 0 100.5 45t37.5 130t-37.5 129.5t-100.5 44.5t-100.5 -44.5t-37.5 -129.5t37.5 -130t100.5 -45z" />
    <glyph glyph-name="uni0441" unicode="&#x441;" horiz-adv-x="479" 
d="M292 -9q-75 0 -129.5 31.5t-84.5 89t-30 135.5q0 116 66 183t178 67q46 0 91 -16t74 -44l-32 -71q-28 26 -61.5 38.5t-63.5 12.5q-71 0 -109.5 -44.5t-38.5 -126.5t38.5 -128.5t109.5 -46.5q30 0 63.5 12.5t61.5 38.5l32 -72q-29 -27 -74.5 -43t-90.5 -16z" />
    <glyph glyph-name="uni0442" unicode="&#x442;" horiz-adv-x="457" 
d="M178 0v407h-172v81h446v-81h-173v-407h-101z" />
    <glyph glyph-name="uni0443" unicode="&#x443;" horiz-adv-x="531" 
d="M127 -180l87 193l-204 475h108l150 -371l152 371h104l-291 -668h-106z" />
    <glyph glyph-name="uni0444" unicode="&#x444;" horiz-adv-x="814" 
d="M357 -180v254q-38 -83 -130 -83q-53 0 -93.5 31t-63 88t-22.5 134q0 78 22.5 134.5t63 87.5t93.5 31q46 0 79 -22t51 -61v291h101v-290q18 39 51 60.5t78 21.5q53 0 93.5 -31t63 -87.5t22.5 -134.5q0 -77 -22.5 -134t-62.5 -88t-94 -31q-90 0 -129 82v-253h-101zM254 68
q48 0 76.5 44t28.5 132q0 87 -28.5 131t-76.5 44q-47 0 -76 -44t-29 -131q0 -88 28.5 -132t76.5 -44zM560 68q48 0 76.5 44t28.5 132q0 87 -28.5 131t-76.5 44t-76 -44t-28 -131q0 -88 28 -132t76 -44z" />
    <glyph glyph-name="uni0445" unicode="&#x445;" horiz-adv-x="546" 
d="M12 0l203 252l-190 236h118l131 -167l131 167h118l-191 -237l204 -251h-120l-143 180l-142 -180h-119z" />
    <glyph glyph-name="uni0446" unicode="&#x446;" horiz-adv-x="609" 
d="M498 -130v130h-422v488h101v-408h228v408h101v-408h78v-210h-86z" />
    <glyph glyph-name="uni0447" unicode="&#x447;" horiz-adv-x="562" 
d="M386 0v188q-54 -31 -122 -31q-106 0 -157 51t-51 155v125h101v-117q0 -69 28.5 -100t94.5 -31q32 0 57 7t48 24v217h101v-488h-100z" />
    <glyph glyph-name="uni0448" unicode="&#x448;" horiz-adv-x="814" 
d="M76 0v488h96v-408h187v408h96v-408h187v408h96v-488h-662z" />
    <glyph glyph-name="uni0449" unicode="&#x449;" horiz-adv-x="841" 
d="M730 -130v130h-654v488h96v-408h187v408h96v-408h187v408h96v-408h78v-210h-86z" />
    <glyph glyph-name="uni044A" unicode="&#x44a;" horiz-adv-x="623" 
d="M155 0v407h-149v81h250v-169h138q95 0 143.5 -40.5t48.5 -117.5q0 -74 -50.5 -117.5t-141.5 -43.5h-239zM256 69h125q52 0 81 22.5t29 69.5q0 46 -28.5 67.5t-81.5 21.5h-125v-181z" />
    <glyph glyph-name="uni044B" unicode="&#x44b;" horiz-adv-x="751" 
d="M76 0v488h101v-169h139q94 0 143 -40.5t49 -117.5q0 -74 -51 -117.5t-141 -43.5h-240zM574 0v488h101v-488h-101zM177 69h126q52 0 81 22.5t29 69.5q0 46 -29 67.5t-81 21.5h-126v-181z" />
    <glyph glyph-name="uni044C" unicode="&#x44c;" horiz-adv-x="544" 
d="M76 0v488h101v-169h139q94 0 143 -40.5t49 -117.5q0 -74 -51 -117.5t-141 -43.5h-240zM177 69h126q52 0 81 22.5t29 69.5q0 46 -29 67.5t-81 21.5h-126v-181z" />
    <glyph glyph-name="uni044D" unicode="&#x44d;" horiz-adv-x="500" 
d="M204 -9q-51 0 -102 16t-78 45l31 67q29 -26 67.5 -40t75.5 -14q67 0 107.5 37.5t49.5 107.5h-238v74h238q-9 60 -46.5 99t-110.5 39q-36 0 -75 -13t-68 -40l-31 67q31 28 81 44.5t100 16.5q114 0 180.5 -67t66.5 -183q0 -79 -30 -136.5t-86 -88.5t-132 -31z" />
    <glyph glyph-name="uni044E" unicode="&#x44e;" horiz-adv-x="790" 
d="M502 -9q-101 0 -164 59t-73 161h-91v-211h-98v488h98v-197h92q14 96 76 151t160 55q73 0 127 -31t83.5 -87.5t29.5 -134.5t-29.5 -134.5t-83.5 -87.5t-127 -31zM502 69q63 0 100.5 45t37.5 130t-37.5 129.5t-100.5 44.5t-100.5 -44.5t-37.5 -129.5t37.5 -130t100.5 -45z
" />
    <glyph glyph-name="uni044F" unicode="&#x44f;" horiz-adv-x="549" 
d="M35 0l74 128q29 52 76 69q-62 10 -95 46.5t-33 95.5q0 68 46 108.5t137 40.5h233v-488h-94v178h-63q-35 0 -60 -18.5t-41 -45.5l-65 -114h-115zM261 247h118v172h-118q-55 0 -81 -22.5t-26 -62.5q0 -41 26 -64t81 -23z" />
    <glyph glyph-name="uni0450" unicode="&#x450;" horiz-adv-x="548" 
d="M306 -9q-120 0 -189 67.5t-69 184.5q0 75 30.5 132.5t84.5 89.5t124 32q101 0 159 -64.5t58 -177.5v-34h-358q11 -152 161 -152q42 0 82.5 13t76.5 43l30 -70q-33 -30 -85 -47t-105 -17zM291 426q-63 0 -100 -39t-45 -104h273q-3 68 -36 105.5t-92 37.5zM253 553
l-136 202h103l103 -202h-70z" />
    <glyph glyph-name="uni0451" unicode="&#x451;" horiz-adv-x="548" 
d="M306 -9q-120 0 -189 67.5t-69 184.5q0 75 30.5 132.5t84.5 89.5t124 32q101 0 159 -64.5t58 -177.5v-34h-358q11 -152 161 -152q42 0 82.5 13t76.5 43l30 -70q-33 -30 -85 -47t-105 -17zM291 426q-63 0 -100 -39t-45 -104h273q-3 68 -36 105.5t-92 37.5zM328 604v99h100
v-99h-100zM148 604v99h100v-99h-100z" />
    <glyph glyph-name="uni0452" unicode="&#x452;" horiz-adv-x="588" 
d="M322 -186l-29 76q49 12 75 32.5t35.5 54t9.5 81.5v237q0 63 -24 92t-76 29q-61 0 -98 -38.5t-37 -101.5v-276h-101v549h-90v73h90v83h101v-83h192v-73h-192v-137q25 41 67.5 63t94.5 22q174 0 174 -196v-240q0 -65 -16.5 -114t-58.5 -82t-117 -51z" />
    <glyph glyph-name="uni0453" unicode="&#x453;" horiz-adv-x="445" 
d="M76 0v488h354v-81h-253v-407h-101zM203 553l103 202h103l-136 -202h-70z" />
    <glyph glyph-name="uni0454" unicode="&#x454;" horiz-adv-x="501" 
d="M297 -9q-77 0 -132.5 31t-86 88.5t-30.5 136.5q0 116 67.5 183t186.5 67q50 0 99 -16.5t76 -44.5l-31 -67q-30 27 -68.5 40t-74.5 13q-73 0 -111 -39t-47 -99h239v-74h-239q9 -70 49.5 -107.5t108.5 -37.5q36 0 74.5 14t68.5 40l31 -67q-28 -29 -78.5 -45t-101.5 -16z
" />
    <glyph glyph-name="uni0455" unicode="&#x455;" horiz-adv-x="496" 
d="M248 -9q-60 0 -112 15.5t-87 43.5l29 68q37 -26 81.5 -40t89.5 -14q53 0 80 19t27 51q0 26 -18 40.5t-54 22.5l-95 19q-126 26 -126 130q0 69 55 110t144 41q51 0 97.5 -15t77.5 -45l-29 -68q-30 26 -69 40t-77 14q-52 0 -79 -19.5t-27 -52.5q0 -50 66 -64l95 -19
q65 -13 98.5 -44t33.5 -84q0 -70 -55 -109.5t-146 -39.5z" />
    <glyph glyph-name="uni0456" unicode="&#x456;" horiz-adv-x="254" 
d="M68 601v105h118v-105h-118zM77 0v488h101v-488h-101z" />
    <glyph glyph-name="uni0457" unicode="&#x457;" horiz-adv-x="254" 
d="M77 0v488h101v-488h-101zM167 604v99h100v-99h-100zM-13 604v99h100v-99h-100z" />
    <glyph glyph-name="uni0458" unicode="&#x458;" horiz-adv-x="258" 
d="M72 601v105h118v-105h-118zM-42 -193l-7 76l44 4q85 9 85 102v499h101v-488q0 -92 -42.5 -137.5t-137.5 -52.5z" />
    <glyph glyph-name="uni0459" unicode="&#x459;" horiz-adv-x="874" 
d="M55 -13l-34 80q44 18 69 49.5t36 88t11 146.5v137h370v-169h138q95 0 143.5 -40.5t48.5 -117.5q0 -74 -50.5 -117.5t-141.5 -43.5h-237v407h-177v-59q0 -110 -18 -183t-56.5 -115.5t-101.5 -62.5zM507 69h125q52 0 81 22.5t29 69.5q0 46 -28.5 67.5t-81.5 21.5h-125v-181
z" />
    <glyph glyph-name="uni045A" unicode="&#x45a;" horiz-adv-x="887" 
d="M76 0v488h101v-197h243v197h101v-169h138q95 0 143.5 -40.5t48.5 -117.5q0 -74 -51 -117.5t-141 -43.5h-239v211h-243v-211h-101zM521 69h125q51 0 80 22.5t29 69.5q0 46 -28.5 67.5t-80.5 21.5h-125v-181z" />
    <glyph glyph-name="uni045B" unicode="&#x45b;" horiz-adv-x="587" 
d="M77 0v549h-90v73h90v83h101v-83h191v-73h-191v-137q25 42 67.5 63.5t95.5 21.5q173 0 173 -196v-301h-101v295q0 63 -24.5 92t-76.5 29q-61 0 -97.5 -38.5t-36.5 -101.5v-276h-101z" />
    <glyph glyph-name="uni045C" unicode="&#x45c;" horiz-adv-x="541" 
d="M76 0v488h101v-198h82l151 198h110l-165 -219q24 -11 44.5 -33.5t42.5 -61.5l101 -174h-108l-85 146q-23 39 -44.5 52t-59.5 13h-69v-211h-101zM263 553l103 202h103l-136 -202h-70z" />
    <glyph glyph-name="uni045D" unicode="&#x45d;" horiz-adv-x="593" 
d="M76 0v488h92v-354l264 354h85v-488h-92v353l-264 -353h-85zM262 553l-136 202h103l103 -202h-70z" />
    <glyph glyph-name="uni045E" unicode="&#x45e;" horiz-adv-x="531" 
d="M127 -180l87 193l-204 475h108l150 -371l152 371h104l-291 -668h-106zM265 550q-65 0 -111.5 34.5t-64.5 100.5l55 19q18 -49 47.5 -72t74.5 -23q46 0 74.5 22t50.5 72l53 -18q-24 -71 -71 -103t-108 -32z" />
    <glyph glyph-name="uni045F" unicode="&#x45f;" horiz-adv-x="593" 
d="M253 -130v130h-177v488h101v-408h240v408h101v-488h-179v-130h-86z" />
    <glyph glyph-name="uni0462" unicode="&#x462;" horiz-adv-x="733" 
d="M153 0v530h-173v78h173v97h99v-97h238v-78h-238v-128h202q112 0 174.5 -50.5t62.5 -149.5t-62.5 -150.5t-174.5 -51.5h-301zM252 84h191q148 0 148 117t-148 117h-191v-234z" />
    <glyph glyph-name="uni0463" unicode="&#x463;" horiz-adv-x="624" 
d="M155 0v415h-149v73h149v217h101v-217h164v-73h-164v-96h139q95 0 143.5 -40.5t48.5 -117.5q0 -74 -51 -117.5t-141 -43.5h-240zM256 69h126q52 0 81 22.5t29 69.5q0 46 -29 67.5t-81 21.5h-126v-181z" />
    <glyph glyph-name="uni046A" unicode="&#x46a;" horiz-adv-x="979" 
d="M8 0l122 250q32 67 88 106.5t147 39.5h24l-265 309h731l-265 -309h25q90 0 146 -39.5t88 -106.5l122 -250h-111l-98 205q-26 55 -60 80.5t-90 25.5h-71v-311h-103v311h-71q-56 0 -90 -25.5t-60 -80.5l-98 -205h-111zM489 398h2l197 232h-397z" />
    <glyph glyph-name="uni046B" unicode="&#x46b;" horiz-adv-x="803" 
d="M-2 0l101 166q26 43 48.5 68t51 36.5t72.5 11.5h29l-177 206h558l-177 -206h29q44 0 72.5 -11.5t51.5 -37t49 -67.5l100 -166h-108l-85 137q-24 39 -45 52t-58 13h-57v-202h-101v202h-57q-38 0 -59 -13t-45 -52l-85 -137h-108zM401 277h2l121 143h-245z" />
    <glyph glyph-name="uni0472" unicode="&#x472;" horiz-adv-x="775" 
d="M388 -9q-101 0 -175 44.5t-114.5 126t-40.5 191.5q0 111 40.5 192t114.5 125t175 44q100 0 174.5 -44t115 -125t40.5 -191q0 -111 -40.5 -192.5t-115 -126t-174.5 -44.5zM388 624q-96 0 -153 -59t-67 -167h440q-10 108 -67 167t-153 59zM388 81q98 0 155.5 62t65.5 175
h-442q8 -112 65.5 -174.5t155.5 -62.5z" />
    <glyph glyph-name="uni0473" unicode="&#x473;" horiz-adv-x="577" 
d="M288 -9q-73 0 -127 31t-83.5 87.5t-29.5 134.5t29.5 134.5t83.5 87.5t127 31t127 -31t84 -87.5t30 -134.5t-30 -134.5t-84 -87.5t-127 -31zM288 418q-56 0 -92.5 -35.5t-43.5 -104.5h273q-8 69 -44.5 104.5t-92.5 35.5zM288 69q56 0 92.5 36t44.5 105h-273
q7 -69 43.5 -105t92.5 -36z" />
    <glyph glyph-name="uni0474" unicode="&#x474;" horiz-adv-x="755" 
d="M305 0l-311 705h111l246 -573l159 387q31 75 64.5 117.5t79.5 60t114 17.5l9 -85q-47 0 -77.5 -12.5t-53.5 -44t-47 -88.5l-205 -484h-89z" />
    <glyph glyph-name="uni0475" unicode="&#x475;" horiz-adv-x="561" 
d="M220 0l-210 488h108l150 -371l105 256q20 47 44 74t59.5 38.5t87.5 11.5l9 -81q-47 -1 -73 -20t-46 -66l-143 -330h-91z" />
    <glyph glyph-name="uni048A" unicode="&#x48a;" horiz-adv-x="764" 
d="M371 760q-72 0 -123 35t-70 100l55 20q20 -50 53.5 -72.5t84.5 -22.5q53 0 85.5 22t57.5 72l54 -19q-27 -70 -79 -102.5t-118 -32.5zM596 -161l53 161h-84v538l-405 -538h-78v705h96v-536l405 536h78v-621h106l-82 -245h-89z" />
    <glyph glyph-name="uni048B" unicode="&#x48b;" horiz-adv-x="620" 
d="M296 550q-66 0 -112.5 34.5t-63.5 100.5l55 19q18 -49 47.5 -72t74.5 -23t74 22t51 72l52 -18q-24 -71 -70.5 -103t-107.5 -32zM76 0v488h92v-354l264 354h85v-410h88l-72 -208h-86l45 130h-67v353l-264 -353h-85z" />
    <glyph glyph-name="uni048C" unicode="&#x48c;" horiz-adv-x="723" 
d="M143 0v530h-143v78h143v97h99v-97h143v-78h-143v-128h202q112 0 174.5 -50.5t62.5 -149.5t-62.5 -150.5t-174.5 -51.5h-301zM242 84h191q148 0 148 117t-148 117h-191v-234z" />
    <glyph glyph-name="uni048D" unicode="&#x48d;" horiz-adv-x="624" 
d="M155 0v415h-149v73h149v217h101v-217h164v-73h-164v-96h139q95 0 143.5 -40.5t48.5 -117.5q0 -74 -51 -117.5t-141 -43.5h-240zM256 69h126q52 0 81 22.5t29 69.5q0 46 -29 67.5t-81 21.5h-126v-181z" />
    <glyph glyph-name="uni048E" unicode="&#x48e;" horiz-adv-x="642" 
d="M82 0v705h292q114 0 176 -56.5t62 -158.5q0 -69 -28.5 -117.5t-80.5 -73.5l47 -71l-61 -41l-59 91q-12 -2 -26 -3t-30 -1h-188v-274h-104zM186 357h173h17l-45 68l61 39l59 -88q60 31 60 114q0 132 -152 132h-173v-265z" />
    <glyph glyph-name="uni048F" unicode="&#x48f;" horiz-adv-x="602" 
d="M76 -180v668h99v-82q22 42 65 66.5t99 24.5q64 0 112.5 -31t75.5 -87.5t27 -134.5q0 -67 -20.5 -119t-55.5 -83l44 -58l-51 -37l-47 61q-18 -8 -39.5 -12.5t-45.5 -4.5q-55 0 -97.5 23.5t-64.5 64.5v-259h-101zM313 69q31 0 55 11l-52 68l51 37l50 -65q16 21 25.5 52
t9.5 72q0 85 -38 129.5t-101 44.5t-100.5 -44.5t-37.5 -129.5t37.5 -130t100.5 -45z" />
    <glyph glyph-name="uni0490" unicode="&#x490;" horiz-adv-x="550" 
d="M82 0v705h360v157h93v-244h-349v-618h-104z" />
    <glyph glyph-name="uni0491" unicode="&#x491;" horiz-adv-x="445" 
d="M76 0v488h268v114h86v-195h-253v-407h-101z" />
    <glyph glyph-name="uni0492" unicode="&#x492;" horiz-adv-x="589" 
d="M121 0v312h-96v77h96v316h452v-87h-349v-229h183v-77h-183v-312h-103z" />
    <glyph glyph-name="uni0493" unicode="&#x493;" horiz-adv-x="467" 
d="M98 0v194h-93v73h93v221h354v-81h-253v-140h143v-73h-143v-194h-101z" />
    <glyph glyph-name="uni0494" unicode="&#x494;" horiz-adv-x="683" 
d="M415 -189q-37 0 -68.5 5.5t-54.5 15.5l19 78q39 -16 91 -16q59 0 91 40t32 117v89q0 108 -49 158t-145 50q-86 0 -145 -35v-313h-104v705h475v-87h-371v-213q26 15 68.5 24t87.5 9q140 0 213 -72.5t73 -219.5v-91q0 -118 -58 -181t-155 -63z" />
    <glyph glyph-name="uni0495" unicode="&#x495;" horiz-adv-x="562" 
d="M328 -186l-30 76q49 12 75 32.5t36 54t10 81.5v54q0 68 -23.5 97.5t-80.5 29.5q-63 0 -100.5 -38t-37.5 -102v-99h-101v488h354v-81h-253v-171q25 40 68.5 62t98.5 22q87 0 131.5 -49t44.5 -153v-57q0 -65 -17 -114t-58.5 -82t-116.5 -51z" />
    <glyph glyph-name="uni0496" unicode="&#x496;" horiz-adv-x="1001" 
d="M8 0l120 248q49 102 132 133l-215 324h115l199 -307h86v307h100v-307h86l199 307h115l-215 -324q42 -16 74 -49.5t57 -83.5l79 -164h92v-245h-93v161h-69l-97 205q-27 57 -62.5 81.5t-88.5 24.5h-77v-311h-100v311h-77q-54 0 -90 -25t-63 -81l-95 -205h-112z" />
    <glyph glyph-name="uni0497" unicode="&#x497;" horiz-adv-x="848" 
d="M-2 0l101 174q23 40 43.5 62.5t45.5 32.5l-167 219h110l151 -198h70v198h101v-198h69l151 198h109l-166 -219q25 -10 45.5 -33t43.5 -62l56 -96h69v-208h-86v130h-46l-85 146q-23 39 -44.5 52t-58.5 13h-57v-211h-101v211h-57q-38 0 -59.5 -13t-44.5 -52l-85 -146h-108z
" />
    <glyph glyph-name="uni0498" unicode="&#x498;" horiz-adv-x="637" 
d="M270 -161v153q-75 5 -134 27.5t-101 59.5l35 79q45 -39 101.5 -58.5t129.5 -19.5q91 0 133.5 30.5t42.5 91.5q0 114 -147 114h-172v83h156q146 0 146 111q0 53 -39 84.5t-119 31.5q-61 0 -116.5 -19t-100.5 -57l-34 79q47 41 116 63t145 22q125 0 188 -53t63 -140
q0 -57 -30 -98t-82 -60q60 -16 94.5 -59t34.5 -109q0 -84 -53.5 -137.5t-164.5 -64.5v-154h-92z" />
    <glyph glyph-name="uni0499" unicode="&#x499;" horiz-adv-x="507" 
d="M209 -130v122q-53 4 -99.5 19.5t-77.5 40.5l29 68q35 -27 83.5 -40.5t99.5 -13.5q67 0 97 18t30 55q0 71 -92 71h-122v74h111q40 0 63 17.5t23 49.5q0 33 -26.5 52t-87.5 19q-50 0 -92 -12.5t-80 -37.5l-29 67q84 58 216 58q95 0 143.5 -36.5t48.5 -100.5
q0 -38 -21.5 -66.5t-58.5 -41.5q46 -11 72 -41t26 -75q0 -59 -44 -97t-129 -46v-123h-83z" />
    <glyph glyph-name="uni049A" unicode="&#x49a;" horiz-adv-x="690" 
d="M82 0v705h104v-307h113l198 307h115l-215 -324q42 -16 74 -49.5t57 -83.5l80 -164h91v-245h-93v161h-69l-96 205q-27 57 -63 81.5t-89 24.5h-103v-311h-104z" />
    <glyph glyph-name="uni049B" unicode="&#x49b;" horiz-adv-x="582" 
d="M76 0v488h101v-198h82l151 198h110l-165 -219q24 -11 44.5 -33.5t42.5 -61.5l56 -96h69v-208h-87v130h-45l-85 146q-23 39 -44.5 52t-59.5 13h-69v-211h-101z" />
    <glyph glyph-name="uni049C" unicode="&#x49c;" horiz-adv-x="697" 
d="M82 0v705h104v-308h64v167h76v-167h12l199 308h115l-215 -324q42 -16 74.5 -49.5t57.5 -83.5l120 -248h-112l-97 205q-26 57 -62 82t-89 25h-3v-164h-76v164h-64v-312h-104z" />
    <glyph glyph-name="uni049D" unicode="&#x49d;" horiz-adv-x="587" 
d="M76 0v488h101v-198h52v112h72v-112h5l150 198h110l-167 -219q25 -11 45.5 -33.5t44.5 -61.5l101 -174h-108l-86 146q-21 35 -40.5 49.5t-54.5 15.5v-120h-72v120h-52v-211h-101z" />
    <glyph glyph-name="uni049E" unicode="&#x49e;" horiz-adv-x="696" 
d="M128 0v533h-140v77h140v95h104v-95h140v-77h-140v-135h120l203 307h114l-221 -329q34 -14 64.5 -46t55.5 -82l120 -248h-112l-96 205q-27 57 -62.5 81.5t-88.5 24.5h-97v-311h-104z" />
    <glyph glyph-name="uni049F" unicode="&#x49f;" horiz-adv-x="542" 
d="M77 0v549h-90v73h90v83h101v-83h192v-73h-192v-259h82l152 198h109l-167 -219q25 -10 45.5 -33t43.5 -62l102 -174h-109l-85 146q-23 38 -44 51.5t-59 13.5h-70v-211h-101z" />
    <glyph glyph-name="uni04A0" unicode="&#x4a0;" horiz-adv-x="788" 
d="M214 0v619h-210v86h314v-307h113l198 307h115l-215 -324q42 -16 74 -49.5t57 -83.5l121 -248h-112l-96 205q-27 57 -63 81.5t-89 24.5h-103v-311h-104z" />
    <glyph glyph-name="uni04A1" unicode="&#x4a1;" horiz-adv-x="620" 
d="M155 0v407h-149v81h250v-198h82l151 198h109l-166 -219q24 -11 45 -33.5t44 -61.5l101 -174h-108l-85 146q-23 38 -44.5 51.5t-58.5 13.5h-70v-211h-101z" />
    <glyph glyph-name="uni04A2" unicode="&#x4a2;" horiz-adv-x="808" 
d="M82 0v705h104v-304h395v304h103v-621h100v-245h-92v161h-111v314h-395v-314h-104z" />
    <glyph glyph-name="uni04A3" unicode="&#x4a3;" horiz-adv-x="624" 
d="M512 -130v130h-92v211h-243v-211h-101v488h101v-197h243v197h101v-410h78v-208h-87z" />
    <glyph glyph-name="uni04A4" unicode="&#x4a4;" horiz-adv-x="938" 
d="M82 0v705h104v-304h395v304h353v-87h-250v-618h-103v314h-395v-314h-104z" />
    <glyph glyph-name="uni04A5" unicode="&#x4a5;" horiz-adv-x="751" 
d="M76 0v488h101v-197h243v197h316v-81h-215v-407h-101v211h-243v-211h-101z" />
    <glyph glyph-name="uni04A8" unicode="&#x4a8;" horiz-adv-x="824" 
d="M393 -9q-157 0 -246 94t-89 264q0 115 39.5 196.5t114 125t178.5 43.5q23 0 40 -2t30 -5l-12 -85q-18 2 -32 3.5t-25 1.5q-108 0 -167 -71t-59 -203q0 -136 59 -207.5t171 -71.5q25 0 48 3q-49 45 -76.5 108.5t-27.5 140.5q0 106 53.5 168t146.5 62q94 0 148 -62t54 -168
q0 -77 -28 -140.5t-77 -108.5q23 -3 49 -3q72 0 132 30l24 -77q-59 -36 -159 -36q-78 0 -143 26q-67 -26 -146 -26zM438 326q0 -156 101 -217q50 30 76.5 85t26.5 132q0 69 -27 107t-76 38q-48 0 -74.5 -38t-26.5 -107z" />
    <glyph glyph-name="uni04A9" unicode="&#x4a9;" horiz-adv-x="666" 
d="M320 -9q-130 0 -201 68.5t-71 187.5q0 77 30.5 133t85.5 86.5t128 30.5q62 0 101 -19l-20 -74q-33 16 -80 16q-67 0 -106.5 -46t-39.5 -127q0 -89 45 -136t127 -47q12 0 22 1q-30 28 -46.5 66t-16.5 82q0 73 42.5 118t111.5 45t111.5 -45t42.5 -118q0 -45 -17 -82.5
t-47 -65.5q9 -1 18 -1q69 0 119 29l21 -72q-29 -15 -63 -22.5t-70 -7.5q-62 0 -115 19q-53 -19 -112 -19zM361 209q0 -89 70 -124q73 35 73 124q0 46 -20 70.5t-52 24.5t-51.5 -24.5t-19.5 -70.5z" />
    <glyph glyph-name="uni04AA" unicode="&#x4aa;" horiz-adv-x="676" 
d="M338 -161v156q-133 18 -206.5 113t-73.5 245q0 111 40.5 192t116.5 125t183 44q72 0 134.5 -22.5t104.5 -64.5l-36 -83q-46 41 -94.5 59.5t-105.5 18.5q-114 0 -174 -70t-60 -199t60 -199.5t174 -70.5q57 0 105.5 18.5t94.5 59.5l36 -83q-37 -37 -91 -59t-116 -27v-153
h-92z" />
    <glyph glyph-name="uni04AB" unicode="&#x4ab;" horiz-adv-x="479" 
d="M245 -130v124q-92 15 -144.5 82t-52.5 171q0 116 65.5 183t178.5 67q46 0 91 -16t74 -44l-32 -71q-28 26 -61.5 38.5t-64.5 12.5q-71 0 -109 -44.5t-38 -126.5t38 -128.5t109 -46.5q31 0 64.5 12.5t61.5 38.5l32 -72q-24 -22 -58.5 -37t-71.5 -20v-123h-82z" />
    <glyph glyph-name="uni04AC" unicode="&#x4ac;" horiz-adv-x="588" 
d="M353 -161v161h-110v618h-239v87h580v-87h-238v-534h100v-245h-93z" />
    <glyph glyph-name="uni04AD" unicode="&#x4ad;" horiz-adv-x="457" 
d="M270 -130v130h-92v407h-172v81h446v-81h-173v-329h78v-208h-87z" />
    <glyph glyph-name="uni04AE" unicode="&#x4ae;" horiz-adv-x="606" 
d="M251 0v329l-270 376h120l204 -285l204 285h115l-270 -377v-328h-103z" />
    <glyph glyph-name="uni04AF" unicode="&#x4af;" horiz-adv-x="521" 
d="M211 -180v190l-206 478h108l150 -371l152 371h103l-206 -475v-193h-101z" />
    <glyph glyph-name="uni04B0" unicode="&#x4b0;" horiz-adv-x="606" 
d="M251 0v329l-270 376h120l204 -285l204 285h115l-270 -377v-328h-103zM88 278v73h431v-73h-431z" />
    <glyph glyph-name="uni04B1" unicode="&#x4b1;" horiz-adv-x="521" 
d="M211 -180v129h-124v81h115l-197 458h108l150 -371l152 371h103l-199 -458h116v-81h-123v-129h-101z" />
    <glyph glyph-name="uni04B2" unicode="&#x4b2;" horiz-adv-x="694" 
d="M3 0l269 360l-258 345h120l197 -269l195 269h121l-258 -345l205 -276h93v-245h-92v161h-59l-206 282l-205 -282h-122z" />
    <glyph glyph-name="uni04B3" unicode="&#x4b3;" horiz-adv-x="562" 
d="M12 0l203 252l-190 236h118l131 -167l131 167h118l-192 -237l141 -173h76v-208h-87v130h-45l-143 180l-142 -180h-119z" />
    <glyph glyph-name="uni04B4" unicode="&#x4b4;" horiz-adv-x="933" 
d="M818 -161v161h-604v618h-210v87h522v-87h-209v-531h390v618h103v-618h100v-248h-92z" />
    <glyph glyph-name="uni04B5" unicode="&#x4b5;" horiz-adv-x="709" 
d="M598 -130v130h-443v407h-149v81h400v-81h-150v-327h249v408h101v-408h79v-210h-87z" />
    <glyph glyph-name="uni04B6" unicode="&#x4b6;" horiz-adv-x="727" 
d="M610 -161v161h-110v287q-29 -15 -74.5 -23.5t-90.5 -8.5q-135 0 -207 73t-72 219v158h103v-152q0 -108 47 -158t139 -50q41 0 81 8t74 27v325h103v-621h100v-245h-93z" />
    <glyph glyph-name="uni04B7" unicode="&#x4b7;" horiz-adv-x="589" 
d="M386 0v188q-54 -31 -122 -31q-106 0 -157 51t-51 155v125h101v-117q0 -69 28.5 -100t94.5 -31q32 0 57 7t48 24v217h101v-410h78v-208h-87v130h-91z" />
    <glyph glyph-name="uni04B8" unicode="&#x4b8;" horiz-adv-x="685" 
d="M500 0v287q-25 -13 -59 -20.5t-67 -10.5v-147h-76v147q-115 11 -178.5 81t-63.5 210v158h103v-152q0 -93 34.5 -143t104.5 -62v167h76v-169q33 2 66 10.5t60 23.5v325h103v-705h-103z" />
    <glyph glyph-name="uni04B9" unicode="&#x4b9;" horiz-adv-x="585" 
d="M408 0v189q-19 -11 -41 -18t-43 -9v-98h-71v96q-197 11 -197 203v125h101v-119q0 -61 24 -91t72 -36v120h71v-122q22 2 43 9t41 20v219h101v-488h-101z" />
    <glyph glyph-name="uni04BA" unicode="&#x4ba;" horiz-adv-x="685" 
d="M82 0v705h104v-287q29 15 74 23.5t89 8.5q136 0 208.5 -72.5t72.5 -219.5v-158h-103v152q0 109 -47.5 158.5t-140.5 49.5q-40 0 -79.5 -7.5t-73.5 -27.5v-325h-104z" />
    <glyph glyph-name="uni04BB" unicode="&#x4bb;" horiz-adv-x="587" 
d="M77 0v705h101v-293q25 42 67.5 63.5t95.5 21.5q173 0 173 -196v-301h-101v295q0 63 -24.5 92t-76.5 29q-61 0 -97.5 -38.5t-36.5 -101.5v-276h-101z" />
    <glyph glyph-name="uni04BC" unicode="&#x4bc;" horiz-adv-x="941" 
d="M599 -9q-166 0 -263 84t-111 233h-23q-93 0 -139 46t-46 133v56h103v-53q0 -53 21.5 -75t69.5 -22h14q8 98 50.5 170t115 111.5t170.5 39.5q104 0 176 -45.5t109.5 -127.5t37.5 -192v-41h-550q11 -110 78.5 -168.5t190.5 -58.5q58 0 112.5 17t101.5 55l38 -80
q-48 -40 -116 -61t-140 -21zM562 628q-100 0 -160 -60.5t-69 -174.5h447q-16 235 -218 235z" />
    <glyph glyph-name="uni04BD" unicode="&#x4bd;" horiz-adv-x="643" 
d="M421 -9q-115 0 -183.5 62.5t-73.5 167.5h-11q-73 0 -105 34.5t-32 97.5v34h82v-34q0 -39 14.5 -54.5t49.5 -15.5h4q8 64 39.5 112.5t82 75t114.5 26.5q101 0 159 -64.5t58 -177.5v-34h-358q5 -75 46.5 -113.5t114.5 -38.5q43 0 83 13t76 43l30 -70q-34 -30 -86 -47
t-104 -17zM405 426q-64 0 -101 -39.5t-43 -103.5h273q-3 68 -36 105.5t-93 37.5z" />
    <glyph glyph-name="uni04BE" unicode="&#x4be;" horiz-adv-x="941" 
d="M599 -9q-166 0 -263 84t-111 233h-23q-93 0 -139 46t-46 133v56h103v-53q0 -53 21.5 -75t69.5 -22h14q8 98 50.5 170t115 111.5t170.5 39.5q104 0 176 -45.5t109.5 -127.5t37.5 -192v-41h-550q11 -110 78.5 -168.5t190.5 -58.5q58 0 112.5 17t101.5 55l38 -80
q-48 -40 -116 -61t-140 -21zM562 628q-100 0 -160 -60.5t-69 -174.5h447q-16 235 -218 235zM619 -194q-51 0 -81 27.5t-30 73.5q0 41 26.5 76t72.5 56l32 -39q-24 -10 -43.5 -31.5t-19.5 -50.5q0 -27 16 -40.5t41 -13.5q24 0 53 12l15 -53q-34 -17 -82 -17z" />
    <glyph glyph-name="uni04BF" unicode="&#x4bf;" horiz-adv-x="643" 
d="M421 -9q-115 0 -183.5 62.5t-73.5 167.5h-11q-73 0 -105 34.5t-32 97.5v34h82v-34q0 -39 14.5 -54.5t49.5 -15.5h4q8 64 39.5 112.5t82 75t114.5 26.5q101 0 159 -64.5t58 -177.5v-34h-358q5 -75 46.5 -113.5t114.5 -38.5q43 0 83 13t76 43l30 -70q-34 -30 -86 -47
t-104 -17zM405 426q-64 0 -101 -39.5t-43 -103.5h273q-3 68 -36 105.5t-93 37.5zM448 -194q-51 0 -81 27.5t-30 73.5q0 41 26.5 76t72.5 56l32 -39q-24 -10 -43.5 -31.5t-19.5 -50.5q0 -27 16 -40.5t41 -13.5q24 0 53 12l15 -53q-34 -17 -82 -17z" />
    <glyph glyph-name="uni04C0" unicode="&#x4c0;" horiz-adv-x="267" 
d="M82 0v705h104v-705h-104z" />
    <glyph glyph-name="uni04C1" unicode="&#x4c1;" horiz-adv-x="989" 
d="M8 0l120 248q49 102 132 133l-215 324h115l199 -307h86v307h100v-307h86l199 307h115l-215 -324q42 -16 74 -49.5t57 -83.5l120 -248h-111l-97 205q-27 57 -62.5 81.5t-88.5 24.5h-77v-311h-100v311h-77q-54 0 -90 -25t-63 -81l-95 -205h-112zM494 760q-72 0 -122.5 35
t-70.5 100l55 20q20 -50 53.5 -72.5t85.5 -22.5t84.5 22t57.5 72l54 -19q-27 -70 -78.5 -102.5t-118.5 -32.5z" />
    <glyph glyph-name="uni04C2" unicode="&#x4c2;" horiz-adv-x="803" 
d="M-2 0l101 174q23 40 43.5 62.5t45.5 32.5l-167 219h110l151 -198h70v198h101v-198h69l151 198h109l-166 -219q25 -10 45.5 -33t43.5 -62l101 -174h-108l-85 146q-23 39 -44.5 52t-58.5 13h-57v-211h-101v211h-57q-38 0 -59.5 -13t-44.5 -52l-85 -146h-108zM401 550
q-65 0 -111.5 34.5t-64.5 100.5l55 19q18 -49 47.5 -72t74.5 -23q46 0 74.5 22t50.5 72l53 -18q-24 -71 -71 -103t-108 -32z" />
    <glyph glyph-name="uni04C3" unicode="&#x4c3;" horiz-adv-x="683" 
d="M415 -189q-37 0 -70.5 5.5t-50.5 15.5l17 78q39 -16 91 -16q59 0 91 40t32 117v53q0 110 -51.5 160.5t-152.5 50.5h-135v-315h-104v705h104v-303h120l196 303h115l-206 -311q106 -16 161.5 -86t55.5 -198v-55q0 -118 -58 -181t-155 -63z" />
    <glyph glyph-name="uni04C4" unicode="&#x4c4;" horiz-adv-x="554" 
d="M319 -186l-31 76q49 12 75 32.5t36 52t10 77.5v25q0 70 -33 102t-97 32h-102v-211h-101v488h101v-198h82l151 198h110l-159 -207q71 -16 110 -65.5t39 -132.5v-29q0 -61 -17 -108.5t-58.5 -80.5t-115.5 -51z" />
    <glyph glyph-name="uni04C5" unicode="&#x4c5;" horiz-adv-x="767" 
d="M595 -161l54 161h-89v618h-282v-152q0 -142 -25 -236.5t-72.5 -153t-115.5 -92.5l-49 79q39 21 70 51.5t52.5 78.5t32.5 120.5t11 178.5v213h481v-621h104l-82 -245h-90z" />
    <glyph glyph-name="uni04C6" unicode="&#x4c6;" horiz-adv-x="612" 
d="M55 -13l-34 80q44 18 69 49.5t36 88t11 146.5v137h372v-410h85l-72 -208h-86l44 130h-72v407h-177v-59q0 -110 -18 -183t-56.5 -115.5t-101.5 -62.5z" />
    <glyph glyph-name="uni04C7" unicode="&#x4c7;" horiz-adv-x="767" 
d="M459 -193l-8 76l45 4q85 9 85 102v325h-395v-314h-104v705h104v-304h395v304h103v-705q0 -92 -43 -137.5t-139 -52.5z" />
    <glyph glyph-name="uni04C8" unicode="&#x4c8;" horiz-adv-x="596" 
d="M297 -193l-7 76l44 4q86 7 86 102v222h-243v-211h-101v488h101v-197h243v197h101v-488q0 -92 -43.5 -138t-137.5 -52z" />
    <glyph glyph-name="uni04C9" unicode="&#x4c9;" horiz-adv-x="787" 
d="M82 0v705h104v-304h395v304h103v-621h103l-82 -245h-89l54 161h-89v314h-395v-314h-104z" />
    <glyph glyph-name="uni04CA" unicode="&#x4ca;" horiz-adv-x="624" 
d="M76 0v488h101v-197h243v197h101v-410h84l-72 -208h-86l45 130h-72v211h-243v-211h-101z" />
    <glyph glyph-name="uni04CB" unicode="&#x4cb;" horiz-adv-x="697" 
d="M492 -161h-92v245h100v203q-29 -15 -74.5 -23.5t-90.5 -8.5q-135 0 -207 73t-72 219v158h103v-152q0 -108 47 -158t139 -50q41 0 81 8t74 27v325h103v-705h-111v-161z" />
    <glyph glyph-name="uni04CC" unicode="&#x4cc;" horiz-adv-x="562" 
d="M395 -130h-87v188h78v130q-54 -31 -122 -31q-106 0 -157 51t-51 155v125h101v-117q0 -69 28.5 -100t94.5 -31q32 0 57 7t48 24v217h101v-488h-91v-130z" />
    <glyph glyph-name="uni04CD" unicode="&#x4cd;" horiz-adv-x="882" 
d="M714 -161l54 161h-84v515l-221 -407h-63l-222 406v-514h-94v705h87l261 -487l260 487h85v-621h109l-83 -245h-89z" />
    <glyph glyph-name="uni04CE" unicode="&#x4ce;" horiz-adv-x="698" 
d="M76 0v488h83l177 -309l176 309h83v-410h90l-72 -208h-86l45 130h-66v331l-146 -252h-49l-146 252v-331h-89z" />
    <glyph glyph-name="uni04CF" unicode="&#x4cf;" horiz-adv-x="254" 
d="M77 0v705h101v-705h-101z" />
    <glyph glyph-name="uni04D0" unicode="&#x4d0;" horiz-adv-x="736" 
d="M11 0l314 705h86l315 -705h-106l-74 172h-357l-73 -172h-105zM367 590l-141 -334h285l-142 334h-2zM367 760q-72 0 -122.5 35t-70.5 100l55 20q20 -50 53.5 -72.5t85.5 -22.5t84.5 22t57.5 72l54 -19q-27 -70 -78.5 -102.5t-118.5 -32.5z" />
    <glyph glyph-name="uni04D1" unicode="&#x4d1;" horiz-adv-x="549" 
d="M233 -9q-51 0 -91 20t-63.5 54t-23.5 77q0 54 27.5 85t91 45t171.5 14h34v26q0 57 -24 82t-79 25q-42 0 -84 -12.5t-86 -39.5l-31 71q38 27 95 43t109 16q100 0 148 -47.5t48 -148.5v-301h-95v81q-18 -42 -56 -66t-91 -24zM253 63q54 0 90 38t36 96v27h-33
q-73 0 -114.5 -7t-59 -23.5t-17.5 -45.5q0 -38 26 -61.5t72 -23.5zM280 550q-65 0 -111.5 34.5t-64.5 100.5l55 19q18 -49 47.5 -72t74.5 -23q46 0 74.5 22t50.5 72l53 -18q-24 -71 -71 -103t-108 -32z" />
    <glyph glyph-name="uni04D2" unicode="&#x4d2;" horiz-adv-x="736" 
d="M11 0l314 705h86l315 -705h-106l-74 172h-357l-73 -172h-105zM367 590l-141 -334h285l-142 334h-2zM408 799v99h100v-99h-100zM228 799v99h100v-99h-100z" />
    <glyph glyph-name="uni04D3" unicode="&#x4d3;" horiz-adv-x="549" 
d="M233 -9q-51 0 -91 20t-63.5 54t-23.5 77q0 54 27.5 85t91 45t171.5 14h34v26q0 57 -24 82t-79 25q-42 0 -84 -12.5t-86 -39.5l-31 71q38 27 95 43t109 16q100 0 148 -47.5t48 -148.5v-301h-95v81q-18 -42 -56 -66t-91 -24zM253 63q54 0 90 38t36 96v27h-33
q-73 0 -114.5 -7t-59 -23.5t-17.5 -45.5q0 -38 26 -61.5t72 -23.5zM321 604v99h100v-99h-100zM141 604v99h100v-99h-100z" />
    <glyph glyph-name="uni04D4" unicode="&#x4d4;" horiz-adv-x="986" 
d="M-25 0l433 705h527v-84h-415l48 -221h347v-84h-329l50 -232h299v-84h-375l-36 172h-336l-103 -172h-110zM433 587l-196 -331h269l-71 331h-2z" />
    <glyph glyph-name="uni04D5" unicode="&#x4d5;" horiz-adv-x="874" 
d="M241 -9q-55 0 -97 20t-65.5 54t-23.5 77q0 54 28 85t92 44.5t172 13.5h33v26q0 57 -24.5 82.5t-77.5 25.5q-44 0 -86 -12t-86 -40l-31 71q38 27 95 43t110 16q124 0 165 -85q28 42 74 63.5t98 21.5q99 0 156.5 -64.5t57.5 -177.5v-32h-352q10 -154 156 -154q86 0 157 56
l31 -70q-34 -30 -85.5 -47t-102.5 -17q-75 0 -130.5 29t-83.5 87q-20 -55 -67 -85.5t-113 -30.5zM618 426q-59 0 -95.5 -37t-43.5 -104h266q-3 67 -35.5 104t-91.5 37zM254 63q56 0 91 39t35 100v21h-34q-73 0 -114.5 -6.5t-59 -23t-17.5 -45.5q0 -38 26 -61.5t73 -23.5z
" />
    <glyph glyph-name="uni04D6" unicode="&#x4d6;" horiz-adv-x="589" 
d="M82 0v705h456v-84h-356v-221h335v-84h-335v-232h356v-84h-456zM325 760q-72 0 -122.5 35t-70.5 100l55 20q20 -50 53.5 -72.5t85.5 -22.5t84.5 22t57.5 72l54 -19q-27 -70 -78.5 -102.5t-118.5 -32.5z" />
    <glyph glyph-name="uni04D7" unicode="&#x4d7;" horiz-adv-x="548" 
d="M306 -9q-120 0 -189 67.5t-69 184.5q0 75 30.5 132.5t84.5 89.5t124 32q101 0 159 -64.5t58 -177.5v-34h-358q11 -152 161 -152q42 0 82.5 13t76.5 43l30 -70q-33 -30 -85 -47t-105 -17zM291 426q-63 0 -100 -39t-45 -104h273q-3 68 -36 105.5t-92 37.5zM287 550
q-65 0 -111.5 34.5t-64.5 100.5l55 19q18 -49 47.5 -72t74.5 -23q46 0 74.5 22t50.5 72l53 -18q-24 -71 -71 -103t-108 -32z" />
    <glyph glyph-name="uni04D8" unicode="&#x4d8;" horiz-adv-x="775" 
d="M394 -9q-111 0 -186 45.5t-112.5 127.5t-37.5 192v41h550q-11 110 -76 168.5t-177 58.5q-71 0 -126 -18t-105 -58l-38 80q51 42 122 64t158 22q107 0 186 -43.5t122.5 -124.5t43.5 -194q0 -111 -40.5 -192t-113.5 -125t-170 -44zM390 78q95 0 152 60t66 174h-443
q16 -234 225 -234z" />
    <glyph glyph-name="uni04D9" unicode="&#x4d9;" horiz-adv-x="549" 
d="M267 -9q-105 0 -164 63.5t-59 180.5v31h360q-6 76 -47 114t-113 38q-85 0 -161 -55l-31 70q37 31 89 47.5t105 16.5q78 0 135.5 -30.5t88.5 -87t31 -133.5t-30 -134.5t-83 -89t-121 -31.5zM265 62q57 0 94 36.5t44 105.5h-269q6 -142 131 -142z" />
    <glyph glyph-name="uni04DA" unicode="&#x4da;" horiz-adv-x="775" 
d="M394 -9q-111 0 -186 45.5t-112.5 127.5t-37.5 192v41h550q-11 110 -76 168.5t-177 58.5q-71 0 -126 -18t-105 -58l-38 80q51 42 122 64t158 22q107 0 186 -43.5t122.5 -124.5t43.5 -194q0 -111 -40.5 -192t-113.5 -125t-170 -44zM390 78q95 0 152 60t66 174h-443
q16 -234 225 -234zM419 799v99h100v-99h-100zM239 799v99h100v-99h-100z" />
    <glyph glyph-name="uni04DB" unicode="&#x4db;" horiz-adv-x="549" 
d="M267 -9q-105 0 -164 63.5t-59 180.5v31h360q-6 76 -47 114t-113 38q-85 0 -161 -55l-31 70q37 31 89 47.5t105 16.5q78 0 135.5 -30.5t88.5 -87t31 -133.5t-30 -134.5t-83 -89t-121 -31.5zM265 62q57 0 94 36.5t44 105.5h-269q6 -142 131 -142zM289 604v99h100v-99h-100z
M109 604v99h100v-99h-100z" />
    <glyph glyph-name="uni04DC" unicode="&#x4dc;" horiz-adv-x="989" 
d="M8 0l120 248q49 102 132 133l-215 324h115l199 -307h86v307h100v-307h86l199 307h115l-215 -324q42 -16 74 -49.5t57 -83.5l120 -248h-111l-97 205q-27 57 -62.5 81.5t-88.5 24.5h-77v-311h-100v311h-77q-54 0 -90 -25t-63 -81l-95 -205h-112zM535 799v99h100v-99h-100z
M355 799v99h100v-99h-100z" />
    <glyph glyph-name="uni04DD" unicode="&#x4dd;" horiz-adv-x="803" 
d="M-2 0l101 174q23 40 43.5 62.5t45.5 32.5l-167 219h110l151 -198h70v198h101v-198h69l151 198h109l-166 -219q25 -10 45.5 -33t43.5 -62l101 -174h-108l-85 146q-23 39 -44.5 52t-58.5 13h-57v-211h-101v211h-57q-38 0 -59.5 -13t-44.5 -52l-85 -146h-108zM442 604v99
h100v-99h-100zM262 604v99h100v-99h-100z" />
    <glyph glyph-name="uni04DE" unicode="&#x4de;" horiz-adv-x="637" 
d="M308 -9q-89 0 -157.5 23.5t-115.5 64.5l35 79q45 -39 101.5 -58.5t129.5 -19.5q91 0 133.5 30.5t42.5 91.5q0 114 -147 114h-172v83h156q146 0 146 111q0 53 -39 84.5t-119 31.5q-61 0 -116.5 -19t-100.5 -57l-34 79q47 41 116 63t145 22q125 0 188 -53t63 -140
q0 -57 -30 -98t-81 -60q60 -16 94 -59t34 -109q0 -94 -66.5 -149t-205.5 -55zM351 799v99h100v-99h-100zM171 799v99h100v-99h-100z" />
    <glyph glyph-name="uni04DF" unicode="&#x4df;" horiz-adv-x="507" 
d="M246 -9q-64 0 -121 15.5t-93 45.5l29 68q35 -27 83.5 -40.5t99.5 -13.5q67 0 97 18t30 55q0 71 -92 71h-122v74h111q40 0 63 17.5t23 49.5q0 33 -26.5 52t-87.5 19q-50 0 -92 -12.5t-80 -37.5l-29 67q84 58 216 58q95 0 143.5 -36.5t48.5 -100.5q0 -38 -21 -66.5
t-58 -41.5q45 -10 71 -40.5t26 -75.5q0 -67 -56 -106t-163 -39zM290 608v99h100v-99h-100zM110 608v99h100v-99h-100z" />
    <glyph glyph-name="uni04E0" unicode="&#x4e0;" horiz-adv-x="637" 
d="M308 -9q-89 0 -157.5 23.5t-115.5 64.5l38 79q91 -79 228 -79q91 0 133.5 30.5t42.5 90.5t-38.5 88t-128.5 28h-108v67l222 235h-373v87h499v-72l-222 -236h13q113 0 176 -49.5t63 -143.5q0 -101 -68 -157t-204 -56z" />
    <glyph glyph-name="uni04E1" unicode="&#x4e1;" horiz-adv-x="504" 
d="M230 -189q-138 0 -217 60l32 72q70 -54 175 -54q76 0 114.5 34.5t38.5 98.5q0 58 -38 89.5t-110 31.5h-100v49l202 215h-293v81h409v-69l-191 -204h7q101 0 158 -49.5t57 -137.5q0 -101 -65.5 -159t-178.5 -58z" />
    <glyph glyph-name="uni04E2" unicode="&#x4e2;" horiz-adv-x="743" 
d="M82 0v705h96v-536l405 536h78v-705h-96v538l-405 -538h-78zM205 811v63h335v-63h-335z" />
    <glyph glyph-name="uni04E3" unicode="&#x4e3;" horiz-adv-x="593" 
d="M76 0v488h92v-354l264 354h85v-488h-92v353l-264 -353h-85zM145 621v64h305v-64h-305z" />
    <glyph glyph-name="uni04E4" unicode="&#x4e4;" horiz-adv-x="743" 
d="M82 0v705h96v-536l405 536h78v-705h-96v538l-405 -538h-78zM412 799v99h100v-99h-100zM232 799v99h100v-99h-100z" />
    <glyph glyph-name="uni04E5" unicode="&#x4e5;" horiz-adv-x="593" 
d="M76 0v488h92v-354l264 354h85v-488h-92v353l-264 -353h-85zM337 604v99h100v-99h-100zM157 604v99h100v-99h-100z" />
    <glyph glyph-name="uni04E6" unicode="&#x4e6;" horiz-adv-x="775" 
d="M388 -9q-101 0 -175 44.5t-114.5 126t-40.5 191.5q0 111 40.5 192t114.5 125t175 44q100 0 174.5 -44t115 -125t40.5 -191q0 -111 -40.5 -192.5t-115 -126t-174.5 -44.5zM388 81q105 0 163.5 71.5t58.5 200.5t-58 200t-164 71q-105 0 -163.5 -71t-58.5 -200t58.5 -200.5
t163.5 -71.5zM426 799v99h100v-99h-100zM246 799v99h100v-99h-100z" />
    <glyph glyph-name="uni04E7" unicode="&#x4e7;" horiz-adv-x="577" 
d="M289 -9q-74 0 -128 31t-83.5 87.5t-29.5 134.5t29.5 134.5t83.5 87.5t128 31q72 0 126 -31t84 -87.5t30 -134.5t-30 -134.5t-84 -87.5t-126 -31zM289 69q62 0 100 45t38 130t-38 129.5t-100 44.5q-63 0 -101 -44.5t-38 -129.5t38 -130t101 -45zM328 604v99h100v-99h-100z
M148 604v99h100v-99h-100z" />
    <glyph glyph-name="uni04E8" unicode="&#x4e8;" horiz-adv-x="775" 
d="M388 -9q-101 0 -175 44.5t-114.5 126t-40.5 191.5q0 111 40.5 192t114.5 125t175 44q100 0 174.5 -44t115 -125t40.5 -191q0 -111 -40.5 -192.5t-115 -126t-174.5 -44.5zM388 624q-96 0 -153 -59t-67 -167h440q-10 108 -67 167t-153 59zM388 81q98 0 155.5 62t65.5 175
h-442q8 -112 65.5 -174.5t155.5 -62.5z" />
    <glyph glyph-name="uni04E9" unicode="&#x4e9;" horiz-adv-x="577" 
d="M288 -9q-73 0 -127 31t-83.5 87.5t-29.5 134.5t29.5 134.5t83.5 87.5t127 31t127 -31t84 -87.5t30 -134.5t-30 -134.5t-84 -87.5t-127 -31zM288 418q-56 0 -92.5 -35.5t-43.5 -104.5h273q-8 69 -44.5 104.5t-92.5 35.5zM288 69q56 0 92.5 36t44.5 105h-273
q7 -69 43.5 -105t92.5 -36z" />
    <glyph glyph-name="uni04EA" unicode="&#x4ea;" horiz-adv-x="775" 
d="M388 -9q-101 0 -175 44.5t-114.5 126t-40.5 191.5q0 111 40.5 192t114.5 125t175 44q100 0 174.5 -44t115 -125t40.5 -191q0 -111 -40.5 -192.5t-115 -126t-174.5 -44.5zM388 624q-96 0 -153 -59t-67 -167h440q-10 108 -67 167t-153 59zM388 81q98 0 155.5 62t65.5 175
h-442q8 -112 65.5 -174.5t155.5 -62.5zM426 799v99h100v-99h-100zM246 799v99h100v-99h-100z" />
    <glyph glyph-name="uni04EB" unicode="&#x4eb;" horiz-adv-x="577" 
d="M288 -9q-73 0 -127 31t-83.5 87.5t-29.5 134.5t29.5 134.5t83.5 87.5t127 31t127 -31t84 -87.5t30 -134.5t-30 -134.5t-84 -87.5t-127 -31zM288 418q-56 0 -92.5 -35.5t-43.5 -104.5h273q-8 69 -44.5 104.5t-92.5 35.5zM288 69q56 0 92.5 36t44.5 105h-273
q7 -69 43.5 -105t92.5 -36zM328 604v99h100v-99h-100zM148 604v99h100v-99h-100z" />
    <glyph glyph-name="uni04EC" unicode="&#x4ec;" horiz-adv-x="676" 
d="M277 -9q-71 0 -133.5 23t-104.5 64l36 83q46 -41 94 -59.5t106 -18.5q103 0 163.5 60t69.5 174h-338v83h337q-11 105 -69 163.5t-153 58.5q-58 0 -107.5 -18t-102.5 -60l-36 83q49 42 113 64.5t135 22.5q102 0 176 -44t114.5 -125t40.5 -192t-40.5 -192.5t-117 -125.5
t-183.5 -44zM341 799v99h100v-99h-100zM161 799v99h100v-99h-100z" />
    <glyph glyph-name="uni04ED" unicode="&#x4ed;" horiz-adv-x="500" 
d="M204 -9q-51 0 -102 16t-78 45l31 67q29 -26 67.5 -40t75.5 -14q67 0 107.5 37.5t49.5 107.5h-238v74h238q-9 60 -46.5 99t-110.5 39q-36 0 -75 -13t-68 -40l-31 67q31 28 81 44.5t100 16.5q114 0 180.5 -67t66.5 -183q0 -79 -30 -136.5t-86 -88.5t-132 -31zM261 604v99
h100v-99h-100zM81 604v99h100v-99h-100z" />
    <glyph glyph-name="uni04EE" unicode="&#x4ee;" horiz-adv-x="651" 
d="M190 0l109 212l-306 493h111l244 -398l204 398h107l-361 -705h-108zM162 811v63h335v-63h-335z" />
    <glyph glyph-name="uni04EF" unicode="&#x4ef;" horiz-adv-x="531" 
d="M127 -180l87 193l-204 475h108l150 -371l152 371h104l-291 -668h-106zM114 621v64h305v-64h-305z" />
    <glyph glyph-name="uni04F0" unicode="&#x4f0;" horiz-adv-x="651" 
d="M190 0l109 212l-306 493h111l244 -398l204 398h107l-361 -705h-108zM369 799v99h100v-99h-100zM189 799v99h100v-99h-100z" />
    <glyph glyph-name="uni04F1" unicode="&#x4f1;" horiz-adv-x="531" 
d="M127 -180l87 193l-204 475h108l150 -371l152 371h104l-291 -668h-106zM306 604v99h100v-99h-100zM126 604v99h100v-99h-100z" />
    <glyph glyph-name="uni04F2" unicode="&#x4f2;" horiz-adv-x="651" 
d="M190 0l109 212l-306 493h111l244 -398l204 398h107l-361 -705h-108zM233 765l85 173h95l-123 -173h-57zM368 765l92 173h95l-129 -173h-58z" />
    <glyph glyph-name="uni04F3" unicode="&#x4f3;" horiz-adv-x="531" 
d="M127 -180l87 193l-204 475h108l150 -371l152 371h104l-291 -668h-106zM306 553l52 202h88l-85 -202h-55zM169 553l52 202h89l-86 -202h-55z" />
    <glyph glyph-name="uni04F4" unicode="&#x4f4;" horiz-adv-x="685" 
d="M500 0v287q-29 -15 -74.5 -23.5t-90.5 -8.5q-135 0 -207 73t-72 219v158h103v-152q0 -108 47 -158t139 -50q41 0 81 8t74 27v325h103v-705h-103zM364 799v99h100v-99h-100zM184 799v99h100v-99h-100z" />
    <glyph glyph-name="uni04F5" unicode="&#x4f5;" horiz-adv-x="562" 
d="M386 0v188q-54 -31 -122 -31q-106 0 -157 51t-51 155v125h101v-117q0 -69 28.5 -100t94.5 -31q32 0 57 7t48 24v217h101v-488h-100zM311 604v99h100v-99h-100zM131 604v99h100v-99h-100z" />
    <glyph glyph-name="uni04F6" unicode="&#x4f6;" horiz-adv-x="550" 
d="M82 0v705h453v-87h-349v-534h100v-245h-93v161h-111z" />
    <glyph glyph-name="uni04F7" unicode="&#x4f7;" horiz-adv-x="445" 
d="M76 0v488h354v-81h-253v-329h78v-208h-87v130h-92z" />
    <glyph glyph-name="uni04F8" unicode="&#x4f8;" horiz-adv-x="876" 
d="M82 0v705h104v-303h172q111 0 173.5 -50.5t62.5 -149.5t-62.5 -150.5t-173.5 -51.5h-276zM690 0v705h103v-705h-103zM186 84h160q147 0 147 117t-147 117h-160v-234zM478 799v99h100v-99h-100zM298 799v99h100v-99h-100z" />
    <glyph glyph-name="uni04F9" unicode="&#x4f9;" horiz-adv-x="751" 
d="M76 0v488h101v-169h139q94 0 143 -40.5t49 -117.5q0 -74 -51 -117.5t-141 -43.5h-240zM574 0v488h101v-488h-101zM177 69h126q52 0 81 22.5t29 69.5q0 46 -29 67.5t-81 21.5h-126v-181zM416 604v99h100v-99h-100zM236 604v99h100v-99h-100z" />
    <glyph glyph-name="uni04FA" unicode="&#x4fa;" horiz-adv-x="589" 
d="M91 -184l-7 73l46 4q54 4 77 30.5t23 76.5h-109v312h-96v77h96v316h452v-87h-349v-229h183v-77h-183v-228h100v-68q0 -95 -43.5 -142.5t-136.5 -53.5z" />
    <glyph glyph-name="uni04FB" unicode="&#x4fb;" horiz-adv-x="467" 
d="M73 -184l-7 72l50 5q38 4 54.5 30.5t16.5 76.5h-89v197h-93v73h93v218h354v-81h-253v-137h143v-73h-143v-117h78v-64q0 -95 -40 -142t-110 -53z" />
    <glyph glyph-name="uni04FC" unicode="&#x4fc;" horiz-adv-x="660" 
d="M413 -186l-19 83q64 7 89.5 30.5t25.5 67.5q0 42 -57 120l-122 167l-205 -282h-122l269 360l-258 345h120l197 -269l195 269h121l-258 -346l154 -206q39 -52 55 -93.5t16 -74.5q0 -74 -49 -117t-152 -54z" />
    <glyph glyph-name="uni04FD" unicode="&#x4fd;" horiz-adv-x="546" 
d="M332 -186l-16 73q51 6 75 24t24 53q0 23 -14.5 48.5t-48.5 68.5l-79 99l-142 -180h-119l204 251l-192 237h118l132 -167l131 167h118l-192 -237l103 -125q44 -55 63 -90t19 -75q0 -62 -45 -100t-139 -47z" />
    <glyph glyph-name="uni04FE" unicode="&#x4fe;" horiz-adv-x="660" 
d="M3 0l269 360l-258 345h120l197 -269l195 269h121l-258 -345l268 -360h-121l-206 282l-205 -282h-122zM115 327v73h431v-73h-431z" />
    <glyph glyph-name="uni04FF" unicode="&#x4ff;" horiz-adv-x="546" 
d="M12 0l203 252l-190 236h118l131 -167l131 167h118l-191 -237l204 -251h-120l-143 180l-142 -180h-119zM59 212v73h431v-73h-431z" />
    <glyph glyph-name="uni0510" unicode="&#x510;" horiz-adv-x="637" 
d="M329 -9q-138 0 -205 55t-67 149q0 66 34 109t95 59q-52 19 -82 60t-30 98q0 87 66 140t191 53q77 0 142.5 -22t112.5 -63l-34 -79q-45 38 -100.5 57t-116.5 19q-80 0 -119 -31.5t-39 -84.5q0 -111 147 -111h155v-84h-172q-147 0 -147 -113q0 -61 42.5 -91.5t133.5 -30.5
q73 0 129.5 19.5t101.5 58.5l35 -79q-47 -41 -115.5 -64.5t-157.5 -23.5z" />
    <glyph glyph-name="uni0511" unicode="&#x511;" horiz-adv-x="507" 
d="M261 -9q-107 0 -163 39t-56 106q0 45 26 75.5t71 40.5q-37 13 -58 41.5t-21 66.5q0 64 55.5 100.5t149.5 36.5q55 0 108.5 -14.5t94.5 -43.5l-29 -67q-77 50 -166 50q-61 0 -90.5 -20t-29.5 -52t23 -49t63 -17h111v-74h-122q-92 0 -92 -69q0 -37 30 -56t97 -19
q51 0 99.5 13.5t83.5 40.5l29 -68q-36 -30 -93 -45.5t-121 -15.5z" />
    <glyph glyph-name="uni0512" unicode="&#x512;" horiz-adv-x="746" 
d="M432 -193l-6 76l45 4q89 9 89 102v629h-282v-152q0 -142 -25 -236.5t-72.5 -153t-115.5 -92.5l-49 79q39 21 70 51.5t52.5 78.5t32.5 120.5t11 178.5v213h481v-705q0 -92 -44 -137.5t-143 -52.5z" />
    <glyph glyph-name="uni0513" unicode="&#x513;" horiz-adv-x="585" 
d="M285 -193l-7 76l45 4q85 9 85 102v418h-177v-59q0 -110 -18 -183t-56.5 -115.5t-101.5 -62.5l-34 80q44 18 69 49.5t36 88t11 146.5v137h372v-497q0 -87 -46 -131t-135 -50z" />
    <glyph glyph-name="uni051A" unicode="&#x51a;" horiz-adv-x="775" 
d="M581 -206l-90 145q-32 52 -104 52v0q-100 0 -174 44.5t-114.5 126t-40.5 191.5q0 111 40.5 192t114.5 125t175 44q100 0 174.5 -44t115 -125t40.5 -191q0 -125 -51.5 -212.5t-141.5 -125.5q41 -13 73 -68l70 -111zM388 81q105 0 163.5 71.5t58.5 200.5t-58 200t-164 71
q-105 0 -163.5 -71t-58.5 -200t58.5 -200.5t163.5 -71.5z" />
    <glyph glyph-name="uni051B" unicode="&#x51b;" horiz-adv-x="602" 
d="M425 -180v260q-21 -41 -64 -65t-98 -24q-65 0 -113 30.5t-75 87.5t-27 135t27 134.5t75.5 87.5t112.5 31q56 0 99.5 -25.5t64.5 -68.5v85h99v-668h-101zM289 69q62 0 100 45t38 130t-38 129.5t-100 44.5q-63 0 -101 -44.5t-38 -129.5t38 -130t101 -45z" />
    <glyph glyph-name="uni051C" unicode="&#x51c;" horiz-adv-x="1107" 
d="M274 0l-247 705h106l189 -555l194 555h79l192 -561l193 561h101l-249 -705h-87l-191 548l-193 -548h-87z" />
    <glyph glyph-name="uni051D" unicode="&#x51d;" horiz-adv-x="858" 
d="M209 0l-186 488h104l131 -370l135 370h78l133 -372l133 372h99l-186 -488h-92l-129 349l-128 -349h-92z" />
    <glyph glyph-name="uni0524" unicode="&#x524;" horiz-adv-x="803" 
d="M686 -161v161h-111v618h-389v-618h-104v705h596v-621h100v-245h-92z" />
    <glyph glyph-name="uni0525" unicode="&#x525;" horiz-adv-x="621" 
d="M509 -130v130h-92v407h-240v-407h-101v488h442v-410h78v-208h-87z" />
    <glyph glyph-name="uni0526" unicode="&#x526;" horiz-adv-x="727" 
d="M637 -161v161h-110v152q0 109 -47.5 158.5t-140.5 49.5q-40 0 -79.5 -7.5t-73.5 -27.5v-325h-104v705h104v-287q29 15 74 23.5t89 8.5q136 0 208.5 -72.5t72.5 -219.5v-74h100v-245h-93z" />
    <glyph glyph-name="uni0527" unicode="&#x527;" horiz-adv-x="602" 
d="M77 0v705h101v-293q24 42 67 63.5t96 21.5q173 0 173 -196v-223h78v-208h-87v130h-92v295q0 63 -24.5 92t-76.5 29q-61 0 -97.5 -38.5t-36.5 -101.5v-276h-101z" />
    <glyph glyph-name="uni0528" unicode="&#x528;" horiz-adv-x="767" 
d="M-41 -193l-7 76l45 4q85 9 85 102v716h104v-304h395v304h103v-705h-103v314h-395v-317q0 -90 -44 -135.5t-139 -51.5z" />
    <glyph glyph-name="uni0529" unicode="&#x529;" horiz-adv-x="596" 
d="M-46 -193l-8 76l45 4q85 9 85 102v499h101v-197h243v197h101v-488h-101v211h-243v-211q0 -92 -43 -137.5t-137 -52.5z" />
    <glyph glyph-name="uni052E" unicode="&#x52e;" horiz-adv-x="788" 
d="M671 -161v161h-111v618h-282v-152q0 -142 -25 -236.5t-72.5 -153t-115.5 -92.5l-49 79q39 21 70 51.5t52.5 78.5t32.5 120.5t11 178.5v213h481v-621h100v-245h-92z" />
    <glyph glyph-name="uni052F" unicode="&#x52f;" horiz-adv-x="612" 
d="M55 -13l-34 80q44 18 69 49.5t36 88t11 146.5v137h372v-410h78v-208h-87v130h-92v407h-177v-59q0 -110 -18 -183t-56.5 -115.5t-101.5 -62.5z" />
    <glyph glyph-name="uni1E08" unicode="&#x1e08;" horiz-adv-x="676" 
d="M398 -9q-107 0 -183 44t-116.5 125.5t-40.5 192.5t40.5 192t116.5 125t183 44q72 0 134.5 -22.5t104.5 -64.5l-36 -83q-46 41 -94.5 59.5t-105.5 18.5q-114 0 -174 -70t-60 -199t60 -199.5t174 -70.5q57 0 105.5 18.5t94.5 59.5l36 -83q-42 -41 -104.5 -64t-134.5 -23z
M390 -194q-27 0 -52.5 5.5t-42.5 15.5l15 49q19 -8 35.5 -12t38.5 -4q27 0 42 8.5t15 24.5q0 26 -38 26q-10 0 -20 -1.5t-24 -5.5l-18 16l14 92h58l-10 -61q8 1 15 1q39 0 63 -18.5t24 -51.5q0 -37 -32 -60.5t-83 -23.5zM352 765l118 173h109l-153 -173h-74z" />
    <glyph glyph-name="uni1E09" unicode="&#x1e09;" horiz-adv-x="467" 
d="M286 -9q-75 0 -129.5 31.5t-84.5 89t-30 135.5q0 116 66 183t178 67q46 0 91 -16t74 -44l-32 -71q-28 26 -61.5 38.5t-63.5 12.5q-71 0 -109.5 -44.5t-38.5 -126.5t38.5 -128.5t109.5 -46.5q30 0 63.5 12.5t61.5 38.5l32 -72q-29 -27 -74.5 -43t-90.5 -16zM282 -194
q-27 0 -52.5 5.5t-42.5 15.5l15 49q19 -8 35.5 -12t38.5 -4q27 0 42 8.5t15 24.5q0 26 -38 26q-10 0 -20 -1.5t-24 -5.5l-18 16l14 92h58l-10 -61q8 1 15 1q39 0 63 -18.5t24 -51.5q0 -37 -32 -60.5t-83 -23.5zM245 553l103 202h103l-136 -202h-70z" />
    <glyph glyph-name="uni1E0C" unicode="&#x1e0c;" horiz-adv-x="751" 
d="M82 0v705h249q174 0 268.5 -91t94.5 -261t-94.5 -261.5t-268.5 -91.5h-249zM186 87h139q261 0 261 266q0 265 -261 265h-139v-531zM321 -195v101h106v-101h-106z" />
    <glyph glyph-name="uni1E0D" unicode="&#x1e0d;" horiz-adv-x="591" 
d="M257 -9q-64 0 -112.5 30.5t-75.5 87.5t-27 135t27 134.5t75 87.5t113 31q55 0 98 -24t64 -65v297h101v-705h-99v85q-21 -44 -64.5 -69t-99.5 -25zM283 69q62 0 100 45t38 130t-38 129.5t-100 44.5q-63 0 -101 -44.5t-38 -129.5t38 -130t101 -45zM244 -195v101h106v-101
h-106z" />
    <glyph glyph-name="uni1E0E" unicode="&#x1e0e;" horiz-adv-x="751" 
d="M82 0v705h249q174 0 268.5 -91t94.5 -261t-94.5 -261.5t-268.5 -91.5h-249zM186 87h139q261 0 261 266q0 265 -261 265h-139v-531zM222 -160v64h305v-64h-305z" />
    <glyph glyph-name="uni1E0F" unicode="&#x1e0f;" horiz-adv-x="591" 
d="M257 -9q-64 0 -112.5 30.5t-75.5 87.5t-27 135t27 134.5t75 87.5t113 31q55 0 98 -24t64 -65v297h101v-705h-99v85q-21 -44 -64.5 -69t-99.5 -25zM283 69q62 0 100 45t38 130t-38 129.5t-100 44.5q-63 0 -101 -44.5t-38 -129.5t38 -130t101 -45zM145 -160v64h305v-64
h-305z" />
    <glyph glyph-name="uni1E14" unicode="&#x1e14;" horiz-adv-x="589" 
d="M82 0v705h456v-84h-356v-221h335v-84h-335v-232h356v-84h-456zM293 887l-115 138h101l80 -138h-66zM174 787v63h305v-63h-305z" />
    <glyph glyph-name="uni1E15" unicode="&#x1e15;" horiz-adv-x="537" 
d="M300 -9q-120 0 -189 67.5t-69 184.5q0 75 30.5 132.5t84.5 89.5t124 32q101 0 159 -64.5t58 -177.5v-34h-358q11 -152 161 -152q42 0 82.5 13t76.5 43l30 -70q-33 -30 -85 -47t-105 -17zM285 426q-63 0 -100 -39t-45 -104h273q-3 68 -36 105.5t-92 37.5zM249 670
l-115 137h101l80 -137h-66zM130 569v64h305v-64h-305z" />
    <glyph glyph-name="uni1E16" unicode="&#x1e16;" horiz-adv-x="589" 
d="M82 0v705h456v-84h-356v-221h335v-84h-335v-232h356v-84h-456zM293 887l80 138h101l-115 -138h-66zM174 787v63h305v-63h-305z" />
    <glyph glyph-name="uni1E17" unicode="&#x1e17;" horiz-adv-x="537" 
d="M300 -9q-120 0 -189 67.5t-69 184.5q0 75 30.5 132.5t84.5 89.5t124 32q101 0 159 -64.5t58 -177.5v-34h-358q11 -152 161 -152q42 0 82.5 13t76.5 43l30 -70q-33 -30 -85 -47t-105 -17zM285 426q-63 0 -100 -39t-45 -104h273q-3 68 -36 105.5t-92 37.5zM249 670l80 137
h101l-115 -137h-66zM130 569v64h305v-64h-305z" />
    <glyph glyph-name="uni1E1C" unicode="&#x1e1c;" horiz-adv-x="589" 
d="M82 0v705h456v-84h-356v-221h335v-84h-335v-232h356v-84h-456zM328 -194q-27 0 -52.5 5.5t-42.5 15.5l15 49q19 -8 35.5 -12t38.5 -4q27 0 42 8.5t15 24.5q0 26 -38 26q-10 0 -20 -1.5t-24 -5.5l-18 16l14 92h58l-10 -61q8 1 15 1q39 0 63 -18.5t24 -51.5
q0 -37 -32 -60.5t-83 -23.5zM326 760q-73 0 -121 45.5t-54 123.5l60 8q5 -54 35 -83.5t80 -29.5t80.5 29.5t34.5 83.5l60 -8q-6 -78 -53.5 -123.5t-121.5 -45.5z" />
    <glyph glyph-name="uni1E1D" unicode="&#x1e1d;" horiz-adv-x="537" 
d="M300 -9q-120 0 -189 67.5t-69 184.5q0 75 30.5 132.5t84.5 89.5t124 32q101 0 159 -64.5t58 -177.5v-34h-358q11 -152 161 -152q42 0 82.5 13t76.5 43l30 -70q-33 -30 -85 -47t-105 -17zM285 426q-63 0 -100 -39t-45 -104h273q-3 68 -36 105.5t-92 37.5zM284 -194
q-27 0 -52.5 5.5t-42.5 15.5l15 49q19 -8 35.5 -12t38.5 -4q27 0 42 8.5t15 24.5q0 26 -38 26q-10 0 -20 -1.5t-24 -5.5l-18 16l14 92h58l-10 -61q8 1 15 1q39 0 63 -18.5t24 -51.5q0 -37 -32 -60.5t-83 -23.5zM282 550q-70 0 -113 51t-47 140l60 6q4 -64 30 -98.5t70 -34.5
t70 34.5t30 98.5l60 -6q-3 -89 -46.5 -140t-113.5 -51z" />
    <glyph glyph-name="uni1E20" unicode="&#x1e20;" horiz-adv-x="731" 
d="M412 -9q-115 0 -194 43.5t-119.5 124.5t-40.5 193q0 111 41 192.5t119 125.5t187 44q75 0 139 -22t107 -63l-37 -81q-48 40 -98 57.5t-111 17.5q-117 0 -178 -70.5t-61 -200.5q0 -133 62.5 -202t187.5 -69q76 0 151 25v189h-172v78h259v-332q-45 -22 -111.5 -36
t-130.5 -14zM229 811v63h335v-63h-335z" />
    <glyph glyph-name="uni1E21" unicode="&#x1e21;" horiz-adv-x="594" 
d="M292 -189q-66 0 -123 15.5t-101 48.5l31 72q44 -30 90 -44t96 -14q140 0 140 140v77q-21 -44 -65.5 -69t-99.5 -25q-66 0 -115 30.5t-76 85t-27 127.5q0 72 27 126.5t76 85t115 30.5q56 0 100 -25t65 -69v85h98v-447q0 -115 -59 -172.5t-172 -57.5zM284 91q64 0 102 44
t38 120t-38 119.5t-102 43.5t-102 -43.5t-38 -119.5t38 -120t102 -44zM146 621v64h305v-64h-305z" />
    <glyph glyph-name="uni1E24" unicode="&#x1e24;" horiz-adv-x="767" 
d="M82 0v705h104v-304h395v304h103v-705h-103v314h-395v-314h-104zM331 -195v101h106v-101h-106z" />
    <glyph glyph-name="uni1E25" unicode="&#x1e25;" horiz-adv-x="576" 
d="M71 0v705h101v-293q25 42 67.5 63.5t95.5 21.5q173 0 173 -196v-301h-101v295q0 63 -24.5 92t-76.5 29q-61 0 -97.5 -38.5t-36.5 -101.5v-276h-101zM236 -195v101h106v-101h-106z" />
    <glyph glyph-name="uni1E2A" unicode="&#x1e2a;" horiz-adv-x="767" 
d="M82 0v705h104v-304h395v304h103v-705h-103v314h-395v-314h-104zM384 -215q-70 0 -113 40.5t-47 110.5l60 6q4 -44 30 -69t70 -25t70 25t30 69l60 -6q-3 -70 -46.5 -110.5t-113.5 -40.5z" />
    <glyph glyph-name="uni1E2B" unicode="&#x1e2b;" horiz-adv-x="576" 
d="M71 0v705h101v-293q25 42 67.5 63.5t95.5 21.5q173 0 173 -196v-301h-101v295q0 63 -24.5 92t-76.5 29q-61 0 -97.5 -38.5t-36.5 -101.5v-276h-101zM289 -215q-70 0 -113 40.5t-47 110.5l60 6q4 -44 30 -69t70 -25t70 25t30 69l60 -6q-3 -70 -46.5 -110.5t-113.5 -40.5z
" />
    <glyph glyph-name="uni1E2E" unicode="&#x1e2e;" horiz-adv-x="267" 
d="M82 0v705h104v-705h-104zM101 887l80 138h101l-115 -138h-66zM-6 770v80h100v-80h-100zM174 770v80h100v-80h-100z" />
    <glyph glyph-name="uni1E2F" unicode="&#x1e2f;" horiz-adv-x="243" 
d="M71 0v488h101v-488h-101zM88 670l80 137h101l-115 -137h-66zM-19 553v80h100v-80h-100zM161 553v80h100v-80h-100z" />
    <glyph glyph-name="uni1E36" unicode="&#x1e36;" horiz-adv-x="552" 
d="M82 0v705h104v-616h349v-89h-453zM256 -195v101h106v-101h-106z" />
    <glyph glyph-name="uni1E37" unicode="&#x1e37;" horiz-adv-x="306" 
d="M230 -9q-80 0 -119.5 45t-39.5 132v537h101v-531q0 -99 81 -99q12 0 22.5 1t21.5 4l-2 -81q-34 -8 -65 -8zM136 -195v101h106v-101h-106z" />
    <glyph glyph-name="uni1E3A" unicode="&#x1e3a;" horiz-adv-x="552" 
d="M82 0v705h104v-616h349v-89h-453zM157 -160v64h305v-64h-305z" />
    <glyph glyph-name="uni1E3B" unicode="&#x1e3b;" horiz-adv-x="306" 
d="M230 -9q-80 0 -119.5 45t-39.5 132v537h101v-531q0 -99 81 -99q12 0 22.5 1t21.5 4l-2 -81q-34 -8 -65 -8zM37 -160v64h305v-64h-305z" />
    <glyph glyph-name="uni1E42" unicode="&#x1e42;" horiz-adv-x="861" 
d="M84 0v705h87l261 -487l260 487h85v-705h-93v517l-221 -409h-63l-222 407v-515h-94zM378 -195v101h106v-101h-106z" />
    <glyph glyph-name="uni1E43" unicode="&#x1e43;" horiz-adv-x="866" 
d="M73 0v488h98v-79q22 42 61 65t91 23q112 0 145 -98q23 46 66 72t98 26q164 0 164 -196v-301h-101v296q0 62 -21.5 91t-70.5 29q-55 0 -87 -38.5t-32 -104.5v-273h-101v296q0 62 -21 91t-70 29q-55 0 -86.5 -38.5t-31.5 -104.5v-273h-101zM381 -195v101h106v-101h-106z
" />
    <glyph glyph-name="uni1E44" unicode="&#x1e44;" horiz-adv-x="743" 
d="M82 0v705h79l404 -533v533h96v-705h-77l-406 535v-535h-96zM320 801v101h104v-101h-104z" />
    <glyph glyph-name="uni1E45" unicode="&#x1e45;" horiz-adv-x="576" 
d="M71 0v488h98v-81q25 44 68.5 67t97.5 23q173 0 173 -196v-301h-101v295q0 63 -24.5 92t-76.5 29q-61 0 -97.5 -38.5t-36.5 -101.5v-276h-101zM236 603v101h106v-101h-106z" />
    <glyph glyph-name="uni1E46" unicode="&#x1e46;" horiz-adv-x="743" 
d="M82 0v705h79l404 -533v533h96v-705h-77l-406 535v-535h-96zM319 -195v101h106v-101h-106z" />
    <glyph glyph-name="uni1E47" unicode="&#x1e47;" horiz-adv-x="576" 
d="M71 0v488h98v-81q25 44 68.5 67t97.5 23q173 0 173 -196v-301h-101v295q0 63 -24.5 92t-76.5 29q-61 0 -97.5 -38.5t-36.5 -101.5v-276h-101zM236 -195v101h106v-101h-106z" />
    <glyph glyph-name="uni1E48" unicode="&#x1e48;" horiz-adv-x="743" 
d="M82 0v705h79l404 -533v533h96v-705h-77l-406 535v-535h-96zM220 -160v64h305v-64h-305z" />
    <glyph glyph-name="uni1E49" unicode="&#x1e49;" horiz-adv-x="576" 
d="M71 0v488h98v-81q25 44 68.5 67t97.5 23q173 0 173 -196v-301h-101v295q0 63 -24.5 92t-76.5 29q-61 0 -97.5 -38.5t-36.5 -101.5v-276h-101zM137 -160v64h305v-64h-305z" />
    <glyph glyph-name="uni1E4C" unicode="&#x1e4c;" horiz-adv-x="775" 
d="M388 -9q-101 0 -175 44.5t-114.5 126t-40.5 191.5q0 111 40.5 192t114.5 125t175 44q100 0 174.5 -44t115 -125t40.5 -191q0 -111 -40.5 -192.5t-115 -126t-174.5 -44.5zM388 81q105 0 163.5 71.5t58.5 200.5t-58 200t-164 71q-105 0 -163.5 -71t-58.5 -200t58.5 -200.5
t163.5 -71.5zM354 887l80 138h101l-115 -138h-66zM453 767q-18 0 -35.5 7t-40.5 21q-19 12 -31 16.5t-21 4.5q-23 0 -34.5 -12t-17.5 -38l-50 3q3 52 30.5 78t68.5 26q16 0 32.5 -5.5t41.5 -20.5q19 -13 31.5 -17.5t22.5 -4.5q42 0 51 50l50 -3q-3 -52 -30 -78.5t-68 -26.5z
" />
    <glyph glyph-name="uni1E4D" unicode="&#x1e4d;" horiz-adv-x="565" 
d="M283 -9q-74 0 -128 31t-83.5 87.5t-29.5 134.5t29.5 134.5t83.5 87.5t128 31q72 0 126 -31t84 -87.5t30 -134.5t-30 -134.5t-84 -87.5t-126 -31zM283 69q62 0 100 45t38 130t-38 129.5t-100 44.5q-63 0 -101 -44.5t-38 -129.5t38 -130t101 -45zM250 670l80 137h101
l-115 -137h-66zM169 549l-50 2q3 53 30.5 79t68.5 26q16 0 33.5 -6.5t41.5 -21.5q32 -21 53 -21q42 0 51 50l50 -3q-3 -52 -30 -78t-68 -26q-32 0 -76 27q-34 21 -52 21q-23 0 -34.5 -11.5t-17.5 -37.5z" />
    <glyph glyph-name="uni1E4E" unicode="&#x1e4e;" horiz-adv-x="775" 
d="M388 -9q-101 0 -175 44.5t-114.5 126t-40.5 191.5q0 111 40.5 192t114.5 125t175 44q100 0 174.5 -44t115 -125t40.5 -191q0 -111 -40.5 -192.5t-115 -126t-174.5 -44.5zM388 81q105 0 163.5 71.5t58.5 200.5t-58 200t-164 71q-105 0 -163.5 -71t-58.5 -200t58.5 -200.5
t163.5 -71.5zM247 912v80h100v-80h-100zM427 912v80h100v-80h-100zM453 767q-18 0 -35.5 7t-40.5 21q-19 12 -31 16.5t-21 4.5q-23 0 -34.5 -12t-17.5 -38l-50 3q3 52 30.5 78t68.5 26q16 0 32.5 -5.5t41.5 -20.5q19 -13 31.5 -17.5t22.5 -4.5q42 0 51 50l50 -3
q-3 -52 -30 -78.5t-68 -26.5z" />
    <glyph glyph-name="uni1E4F" unicode="&#x1e4f;" horiz-adv-x="565" 
d="M283 -9q-74 0 -128 31t-83.5 87.5t-29.5 134.5t29.5 134.5t83.5 87.5t128 31q72 0 126 -31t84 -87.5t30 -134.5t-30 -134.5t-84 -87.5t-126 -31zM283 69q62 0 100 45t38 130t-38 129.5t-100 44.5q-63 0 -101 -44.5t-38 -129.5t38 -130t101 -45zM144 695v80h98v-80h-98z
M324 695v80h99v-80h-99zM169 549l-50 2q3 53 30.5 79t68.5 26q16 0 33.5 -6.5t41.5 -21.5q32 -21 53 -21q42 0 51 50l50 -3q-3 -52 -30 -78t-68 -26q-32 0 -76 27q-34 21 -52 21q-23 0 -34.5 -11.5t-17.5 -37.5z" />
    <glyph glyph-name="uni1E50" unicode="&#x1e50;" horiz-adv-x="775" 
d="M388 -9q-101 0 -175 44.5t-114.5 126t-40.5 191.5q0 111 40.5 192t114.5 125t175 44q100 0 174.5 -44t115 -125t40.5 -191q0 -111 -40.5 -192.5t-115 -126t-174.5 -44.5zM388 81q105 0 163.5 71.5t58.5 200.5t-58 200t-164 71q-105 0 -163.5 -71t-58.5 -200t58.5 -200.5
t163.5 -71.5zM354 887l-115 138h101l80 -138h-66zM235 787v63h305v-63h-305z" />
    <glyph glyph-name="uni1E51" unicode="&#x1e51;" horiz-adv-x="565" 
d="M283 -9q-74 0 -128 31t-83.5 87.5t-29.5 134.5t29.5 134.5t83.5 87.5t128 31q72 0 126 -31t84 -87.5t30 -134.5t-30 -134.5t-84 -87.5t-126 -31zM283 69q62 0 100 45t38 130t-38 129.5t-100 44.5q-63 0 -101 -44.5t-38 -129.5t38 -130t101 -45zM250 670l-115 137h101
l80 -137h-66zM131 569v64h305v-64h-305z" />
    <glyph glyph-name="uni1E52" unicode="&#x1e52;" horiz-adv-x="775" 
d="M388 -9q-101 0 -175 44.5t-114.5 126t-40.5 191.5q0 111 40.5 192t114.5 125t175 44q100 0 174.5 -44t115 -125t40.5 -191q0 -111 -40.5 -192.5t-115 -126t-174.5 -44.5zM388 81q105 0 163.5 71.5t58.5 200.5t-58 200t-164 71q-105 0 -163.5 -71t-58.5 -200t58.5 -200.5
t163.5 -71.5zM354 887l80 138h101l-115 -138h-66zM235 787v63h305v-63h-305z" />
    <glyph glyph-name="uni1E53" unicode="&#x1e53;" horiz-adv-x="565" 
d="M283 -9q-74 0 -128 31t-83.5 87.5t-29.5 134.5t29.5 134.5t83.5 87.5t128 31q72 0 126 -31t84 -87.5t30 -134.5t-30 -134.5t-84 -87.5t-126 -31zM283 69q62 0 100 45t38 130t-38 129.5t-100 44.5q-63 0 -101 -44.5t-38 -129.5t38 -130t101 -45zM250 670l80 137h101
l-115 -137h-66zM131 569v64h305v-64h-305z" />
    <glyph glyph-name="uni1E5A" unicode="&#x1e5a;" horiz-adv-x="677" 
d="M82 0v705h292q114 0 176 -54.5t62 -152.5q0 -79 -42 -129.5t-119 -67.5q48 -16 81 -77l122 -224h-114l-122 225q-21 39 -48.5 52.5t-70.5 13.5h-113v-291h-104zM186 369h171q154 0 154 127q0 126 -154 126h-171v-253zM292 -195v101h106v-101h-106z" />
    <glyph glyph-name="uni1E5B" unicode="&#x1e5b;" horiz-adv-x="373" 
d="M71 0v488h98v-87q38 87 158 97l33 2l7 -86l-61 -6q-133 -13 -133 -137v-271h-102zM69 -195v101h106v-101h-106z" />
    <glyph glyph-name="uni1E5E" unicode="&#x1e5e;" horiz-adv-x="677" 
d="M82 0v705h292q114 0 176 -54.5t62 -152.5q0 -79 -42 -129.5t-119 -67.5q48 -16 81 -77l122 -224h-114l-122 225q-21 39 -48.5 52.5t-70.5 13.5h-113v-291h-104zM186 369h171q154 0 154 127q0 126 -154 126h-171v-253zM193 -160v64h305v-64h-305z" />
    <glyph glyph-name="uni1E5F" unicode="&#x1e5f;" horiz-adv-x="373" 
d="M71 0v488h98v-87q38 87 158 97l33 2l7 -86l-61 -6q-133 -13 -133 -137v-271h-102zM-30 -160v64h305v-64h-305z" />
    <glyph glyph-name="uni1E60" unicode="&#x1e60;" horiz-adv-x="622" 
d="M317 -9q-83 0 -152 21.5t-117 60.5l33 82q50 -38 107 -57t129 -19q85 0 125.5 30.5t40.5 79.5q0 40 -29 63.5t-97 37.5l-107 22q-95 20 -141.5 66t-46.5 124q0 63 33.5 111t93.5 74.5t138 26.5q72 0 133.5 -21.5t104.5 -62.5l-34 -79q-85 75 -205 75q-74 0 -117.5 -33
t-43.5 -88q0 -42 27 -67t90 -38l106 -22q100 -21 149 -64.5t49 -117.5q0 -62 -33 -108t-93 -71.5t-143 -25.5zM267 801v101h104v-101h-104z" />
    <glyph glyph-name="uni1E61" unicode="&#x1e61;" horiz-adv-x="484" 
d="M242 -9q-60 0 -112 15.5t-87 43.5l29 68q37 -26 81.5 -40t89.5 -14q53 0 80 19t27 51q0 26 -18 40.5t-54 22.5l-95 19q-126 26 -126 130q0 69 55 110t144 41q51 0 97.5 -15t77.5 -45l-29 -68q-30 26 -69 40t-77 14q-52 0 -79 -19.5t-27 -52.5q0 -50 66 -64l95 -19
q65 -13 98.5 -44t33.5 -84q0 -70 -55 -109.5t-146 -39.5zM198 603v101h106v-101h-106z" />
    <glyph glyph-name="uni1E62" unicode="&#x1e62;" horiz-adv-x="622" 
d="M317 -9q-83 0 -152 21.5t-117 60.5l33 82q50 -38 107 -57t129 -19q85 0 125.5 30.5t40.5 79.5q0 40 -29 63.5t-97 37.5l-107 22q-95 20 -141.5 66t-46.5 124q0 63 33.5 111t93.5 74.5t138 26.5q72 0 133.5 -21.5t104.5 -62.5l-34 -79q-85 75 -205 75q-74 0 -117.5 -33
t-43.5 -88q0 -42 27 -67t90 -38l106 -22q100 -21 149 -64.5t49 -117.5q0 -62 -33 -108t-93 -71.5t-143 -25.5zM266 -195v101h106v-101h-106z" />
    <glyph glyph-name="uni1E63" unicode="&#x1e63;" horiz-adv-x="484" 
d="M242 -9q-60 0 -112 15.5t-87 43.5l29 68q37 -26 81.5 -40t89.5 -14q53 0 80 19t27 51q0 26 -18 40.5t-54 22.5l-95 19q-126 26 -126 130q0 69 55 110t144 41q51 0 97.5 -15t77.5 -45l-29 -68q-30 26 -69 40t-77 14q-52 0 -79 -19.5t-27 -52.5q0 -50 66 -64l95 -19
q65 -13 98.5 -44t33.5 -84q0 -70 -55 -109.5t-146 -39.5zM189 -195v101h106v-101h-106z" />
    <glyph glyph-name="uni1E64" unicode="&#x1e64;" horiz-adv-x="622" 
d="M317 -9q-83 0 -152 21.5t-117 60.5l33 82q50 -38 107 -57t129 -19q85 0 125.5 30.5t40.5 79.5q0 40 -29 63.5t-97 37.5l-107 22q-95 20 -141.5 66t-46.5 124q0 63 33.5 111t93.5 74.5t138 26.5q72 0 133.5 -21.5t104.5 -62.5l-34 -79q-85 75 -205 75q-74 0 -117.5 -33
t-43.5 -88q0 -42 27 -67t90 -38l106 -22q100 -21 149 -64.5t49 -117.5q0 -62 -33 -108t-93 -71.5t-143 -25.5zM219 937v80h100v-80h-100zM282 765l118 173h109l-153 -173h-74z" />
    <glyph glyph-name="uni1E65" unicode="&#x1e65;" horiz-adv-x="484" 
d="M242 -9q-60 0 -112 15.5t-87 43.5l29 68q37 -26 81.5 -40t89.5 -14q53 0 80 19t27 51q0 26 -18 40.5t-54 22.5l-95 19q-126 26 -126 130q0 69 55 110t144 41q51 0 97.5 -15t77.5 -45l-29 -68q-30 26 -69 40t-77 14q-52 0 -79 -19.5t-27 -52.5q0 -50 66 -64l95 -19
q65 -13 98.5 -44t33.5 -84q0 -70 -55 -109.5t-146 -39.5zM152 754v80h100v-80h-100zM216 553l107 202h103l-140 -202h-70z" />
    <glyph glyph-name="uni1E66" unicode="&#x1e66;" horiz-adv-x="622" 
d="M317 -9q-83 0 -152 21.5t-117 60.5l33 82q50 -38 107 -57t129 -19q85 0 125.5 30.5t40.5 79.5q0 40 -29 63.5t-97 37.5l-107 22q-95 20 -141.5 66t-46.5 124q0 63 33.5 111t93.5 74.5t138 26.5q72 0 133.5 -21.5t104.5 -62.5l-34 -79q-85 75 -205 75q-74 0 -117.5 -33
t-43.5 -88q0 -42 27 -67t90 -38l106 -22q100 -21 149 -64.5t49 -117.5q0 -62 -33 -108t-93 -71.5t-143 -25.5zM269 967v80h100v-80h-100zM273 765l-110 159h67l89 -99l89 99h67l-110 -159h-92z" />
    <glyph glyph-name="uni1E67" unicode="&#x1e67;" horiz-adv-x="484" 
d="M242 -9q-60 0 -112 15.5t-87 43.5l29 68q37 -26 81.5 -40t89.5 -14q53 0 80 19t27 51q0 26 -18 40.5t-54 22.5l-95 19q-126 26 -126 130q0 69 55 110t144 41q51 0 97.5 -15t77.5 -45l-29 -68q-30 26 -69 40t-77 14q-52 0 -79 -19.5t-27 -52.5q0 -50 66 -64l95 -19
q65 -13 98.5 -44t33.5 -84q0 -70 -55 -109.5t-146 -39.5zM201 754v80h100v-80h-100zM205 553l-110 159h67l89 -99l89 99h67l-110 -159h-92z" />
    <glyph glyph-name="uni1E68" unicode="&#x1e68;" horiz-adv-x="622" 
d="M317 -9q-83 0 -152 21.5t-117 60.5l33 82q50 -38 107 -57t129 -19q85 0 125.5 30.5t40.5 79.5q0 40 -29 63.5t-97 37.5l-107 22q-95 20 -141.5 66t-46.5 124q0 63 33.5 111t93.5 74.5t138 26.5q72 0 133.5 -21.5t104.5 -62.5l-34 -79q-85 75 -205 75q-74 0 -117.5 -33
t-43.5 -88q0 -42 27 -67t90 -38l106 -22q100 -21 149 -64.5t49 -117.5q0 -62 -33 -108t-93 -71.5t-143 -25.5zM266 -195v101h106v-101h-106zM267 801v101h104v-101h-104z" />
    <glyph glyph-name="uni1E69" unicode="&#x1e69;" horiz-adv-x="484" 
d="M242 -9q-60 0 -112 15.5t-87 43.5l29 68q37 -26 81.5 -40t89.5 -14q53 0 80 19t27 51q0 26 -18 40.5t-54 22.5l-95 19q-126 26 -126 130q0 69 55 110t144 41q51 0 97.5 -15t77.5 -45l-29 -68q-30 26 -69 40t-77 14q-52 0 -79 -19.5t-27 -52.5q0 -50 66 -64l95 -19
q65 -13 98.5 -44t33.5 -84q0 -70 -55 -109.5t-146 -39.5zM189 -195v101h106v-101h-106zM198 603v101h106v-101h-106z" />
    <glyph glyph-name="uni1E6C" unicode="&#x1e6c;" horiz-adv-x="611" 
d="M254 0v618h-250v87h603v-87h-250v-618h-103zM253 -195v101h106v-101h-106z" />
    <glyph glyph-name="uni1E6D" unicode="&#x1e6d;" horiz-adv-x="365" 
d="M279 -9q-92 0 -137 47t-45 136v236h-95v78h95v147h101v-147h151v-78h-151v-228q0 -53 22.5 -80t73.5 -27q16 0 31 3.5t30 8.5l16 -76q-15 -9 -41.5 -14.5t-50.5 -5.5zM169 -195v101h106v-101h-106z" />
    <glyph glyph-name="uni1E6E" unicode="&#x1e6e;" horiz-adv-x="611" 
d="M254 0v618h-250v87h603v-87h-250v-618h-103zM154 -160v64h305v-64h-305z" />
    <glyph glyph-name="uni1E6F" unicode="&#x1e6f;" horiz-adv-x="365" 
d="M279 -9q-92 0 -137 47t-45 136v236h-95v78h95v147h101v-147h151v-78h-151v-228q0 -53 22.5 -80t73.5 -27q16 0 31 3.5t30 8.5l16 -76q-15 -9 -41.5 -14.5t-50.5 -5.5zM70 -160v64h305v-64h-305z" />
    </font>
</defs>
</svg>
