<?xml version="1.0" standalone="no"?>
<!DOCTYPE svg PUBLIC "-//W3C//DTD SVG 1.1//EN" "http://www.w3.org/Graphics/SVG/1.1/DTD/svg11.dtd" >
<svg xmlns="http://www.w3.org/2000/svg" xmlns:xlink="http://www.w3.org/1999/xlink" version="1.1">
<metadata>
Created by FontForge 20170731 at Thu Aug 17 12:58:23 2017
 By Aleksey,,,
Copyright 2014-2017 Indian Type Foundry (info@indiantypefoundry.com)
</metadata>
<defs>
<font id="Poppins-MediumItalic" horiz-adv-x="301" >
  <font-face 
    font-family="Poppins Medium"
    font-weight="500"
    font-style="italic"
    font-stretch="normal"
    units-per-em="1000"
    panose-1="0 0 6 0 0 0 0 0 0 0"
    ascent="800"
    descent="-200"
    x-height="551"
    cap-height="706"
    bbox="-539 -582 2603 1077"
    underline-thickness="50"
    underline-position="-150"
    slope="-10"
    unicode-range="U+000D-FB02"
  />
<missing-glyph horiz-adv-x="500" 
d="M500 700v-700h-500v700h500zM80 650l170 -255l170 255h-340zM220 350l-170 255v-510zM450 605l-170 -255l170 -255v510zM250 305l-170 -255h340z" />
    <glyph glyph-name=".notdef" horiz-adv-x="500" 
d="M500 700v-700h-500v700h500zM80 650l170 -255l170 255h-340zM220 350l-170 255v-510zM450 605l-170 -255l170 -255v510zM250 305l-170 -255h340z" />
    <glyph glyph-name=".null" horiz-adv-x="0" 
 />
    <glyph glyph-name="nonmarkingreturn" horiz-adv-x="333" 
 />
    <glyph glyph-name="NULL" horiz-adv-x="0" 
 />
    <glyph glyph-name="NULL" horiz-adv-x="0" 
 />
    <glyph glyph-name="CR" unicode="&#xd;" horiz-adv-x="234" 
 />
    <glyph glyph-name="space" unicode=" " horiz-adv-x="234" 
 />
    <glyph glyph-name="exclam" unicode="!" horiz-adv-x="323" 
d="M294 728l-106 -507h-95l74 507h127zM190 126l-22 -126h-130l22 126h130z" />
    <glyph glyph-name="quotedbl" unicode="&#x22;" horiz-adv-x="334" 
d="M159 798l-46 -206h-78l26 206h98zM310 798l-46 -206h-78l26 206h98z" />
    <glyph glyph-name="numbersign" unicode="#" horiz-adv-x="832" 
d="M659 444l-59 -150h135l-19 -104h-156l-74 -190h-107l74 190h-199l-74 -190h-107l74 190h-153l19 104h174l59 150h-148l18 105h171l74 191h107l-74 -191h199l74 191h107l-74 -191h138l-18 -105h-161zM552 444h-199l-59 -150h199z" />
    <glyph glyph-name="dollar" unicode="$" horiz-adv-x="597" 
d="M444 527q1 35 -20 62t-63 35l-39 -220q11 -3 20 -7q59 -19 96 -36t62.5 -49.5t25.5 -83.5q0 -21 -4 -40q-9 -52 -43 -96.5t-92 -71.5t-135 -27h-2l-14 -80h-34l14 82q-91 8 -144 56t-53 124q0 14 1 21h122q-2 -39 20.5 -71t69.5 -40l40 227q-72 23 -107.5 38.5t-64 48.5
t-28.5 87q0 11 4 39q10 56 47 99t94 67t126 24l15 85h34l-15 -86q97 -7 146 -58t44 -129h-123zM197 510q0 -35 24 -56.5t69 -38.5l38 212q-52 -1 -86.5 -26.5t-42.5 -71.5q-2 -14 -2 -19zM402 204q0 37 -25 58.5t-73 38.5l-38 -219q54 0 89.5 29t44.5 74q2 14 2 19z" />
    <glyph glyph-name="percent" unicode="%" horiz-adv-x="701" 
d="M340 683.5q35 -32.5 35 -89.5q0 -15 -3 -32q-13 -71 -62.5 -112t-116.5 -41q-58 0 -93 32t-35 88q0 15 3 33q12 71 61.5 112.5t116.5 41.5q59 0 94 -32.5zM669 707l-525 -707h-111l524 707h112zM145 540q0 -28 16 -44.5t43 -16.5q34 0 58 22.5t31 60.5q2 14 2 20
q0 30 -16 47t-45 17q-33 0 -57 -23t-30 -61q-2 -8 -2 -22zM602 266.5q35 -31.5 35 -87.5q0 -16 -3 -34q-12 -71 -61.5 -112.5t-116.5 -41.5q-59 0 -94 32.5t-35 89.5q0 16 3 32q13 71 63 112t116 41q58 0 93 -31.5zM423 78q16 -17 44 -17q33 0 57.5 23t30.5 61q2 7 2 21
q0 29 -16 45.5t-44 16.5q-38 0 -64 -29.5t-26 -74.5q0 -29 16 -46z" />
    <glyph glyph-name="ampersand" unicode="&#x26;" horiz-adv-x="685" 
d="M501 0l-107 151q-5 -15 -22 -41q-23 -53 -73 -85t-113 -32q-85 0 -134 46t-49 123q0 23 4 43q11 62 44 108.5t79 70.5t96 24h8q-4 6 -6.5 11l-4.5 9q-15 26 -22.5 47t-7.5 46q0 15 3 31q7 42 35 79t74.5 59.5t106.5 22.5q88 0 127 -42t39 -106q1 -6 1 -19q0 -22 -7 -52
h-107q5 32 5 33q1 7 1 19q0 34 -19 52.5t-55 18.5q-39 0 -64 -22t-31 -54q-2 -14 -2 -20q0 -19 7 -34.5t22 -39.5l289 -447h-117zM307.5 293q-30.5 28 -73.5 28q-48 0 -83 -29.5t-44 -83.5q-2 -18 -2 -25q0 -44 27.5 -68.5t71.5 -24.5q36 0 67 17t49 47.5t18 67.5
q0 43 -30.5 71z" />
    <glyph glyph-name="quotesingle" unicode="'" horiz-adv-x="188" 
d="M164 798l-49 -206h-78l24 206h103z" />
    <glyph glyph-name="parenleft" unicode="(" horiz-adv-x="391" 
d="M172 745.5q100 151.5 236 244.5h111l-2 -12q-305 -218 -368 -575q-14 -79 -14 -148q0 -257 179 -429l-2 -11h-111q-82 74 -129 185.5t-47 252.5q0 73 13 150q34 191 134 342.5z" />
    <glyph glyph-name="parenright" unicode=")" horiz-adv-x="392" 
d="M220 59q-100 -151 -236 -244h-112l2 11q306 219 369 577q14 79 14 147q0 257 -180 428l2 12h112q82 -73 129.5 -184.5t47.5 -252.5q0 -68 -14 -150q-34 -193 -134 -344z" />
    <glyph glyph-name="asterisk" unicode="*" horiz-adv-x="491" 
d="M414 679l30 -80l-146 -51l128 -50l-61 -83l-97 91l-4 -146h-93l46 146l-132 -93l-33 85l146 51l-128 50l61 81l101 -90l4 146h94l-47 -146z" />
    <glyph glyph-name="plus" unicode="+" horiz-adv-x="571" 
d="M531 308h-199l-36 -202h-111l36 202h-200l19 105h199l36 203h111l-36 -203h200z" />
    <glyph glyph-name="comma" unicode="," horiz-adv-x="193" 
d="M147 25q0 -71 -36 -120t-106 -49l8 46q25 0 39 13t19 44l2 9h-57l19 110h107q5 -21 5 -53z" />
    <glyph glyph-name="hyphen" unicode="-" horiz-adv-x="506" 
d="M487 410l-17 -96h-412l17 96h412z" />
    <glyph glyph-name="period" unicode="." horiz-adv-x="190" 
d="M171 126l-23 -126h-129l22 126h130z" />
    <glyph glyph-name="slash" unicode="/" horiz-adv-x="378" 
d="M481 944l-470 -1120h-111l470 1120h111z" />
    <glyph glyph-name="zero" unicode="0" horiz-adv-x="607" 
d="M39 229q0 -231 210 -231q140 0 217 96t106 264q12 68 12 128q0 230 -209 230q-140 0 -217 -95t-106 -263q-13 -75 -13 -129zM395 171q-41 -65 -127 -65q-63 0 -89 35.5t-26 100.5q0 44 12 116q22 121 63 185t128 64q62 0 88.5 -34.5t26.5 -98.5q0 -48 -13 -116
q-22 -122 -63 -187z" />
    <glyph glyph-name="one" unicode="1" horiz-adv-x="307" 
d="M56 599l19 107h226l-124 -706h-120l105 599h-106z" />
    <glyph glyph-name="two" unicode="2" horiz-adv-x="561" 
d="M427 493q3 18 3 36q0 43 -24 68t-75 25q-60 0 -97.5 -38.5t-51.5 -113.5h-111q21 123 98.5 186t182.5 63q95 0 146.5 -44.5t51.5 -124.5q0 -21 -5 -51q-18 -108 -134 -215.5t-258 -185.5h335l-16 -93h-491l15 84q402 244 431 404z" />
    <glyph glyph-name="three" unicode="3" horiz-adv-x="563" 
d="M505 683.5q50 -44.5 50 -116.5q0 -17 -3 -37q-11 -63 -57 -104.5t-116 -50.5l-1 -5q60 -18 94.5 -56.5t34.5 -101.5q0 -23 -4 -43q-13 -79 -77.5 -127.5t-170.5 -48.5q-113 0 -174.5 52.5t-61.5 152.5q0 15 1 23h112q-4 -61 28 -96t103 -35q53 0 87.5 26.5t41.5 69.5
q3 15 3 28q0 52 -40.5 80t-117.5 28h-26l17 94h26q164 -2 184 105q2 16 2 23q0 42 -25.5 65t-72.5 23q-53 0 -94.5 -32t-54.5 -91h-112q21 103 95 161t185 58q94 0 144 -44.5z" />
    <glyph glyph-name="four" unicode="4" horiz-adv-x="610" 
d="M-1 152l17 96l432 464h123l-81 -460h99l-18 -100h-99l-26 -152h-116l27 152h-358zM440 576l-305 -324h248z" />
    <glyph glyph-name="five" unicode="5" horiz-adv-x="596" 
d="M573 616h-349l-38 -210q30 31 77.5 49.5t100.5 18.5q93 0 138 -51t45 -133q0 -25 -5 -57q-19 -106 -91 -171.5t-186 -65.5q-107 0 -166.5 50.5t-59.5 137.5q0 10 2 28h112q0 -54 32 -85t91 -31q65 0 104.5 38t50.5 101q3 20 3 38q0 52 -29.5 81t-84.5 29q-43 0 -83 -20.5
t-62 -52.5h-111l72 407h454z" />
    <glyph glyph-name="six" unicode="6" horiz-adv-x="602" 
d="M439 603.5q-25 30.5 -81 30.5q-78 0 -126.5 -68.5t-69.5 -215.5q24 54 80 86t124 32q89 0 138 -46.5t49 -133.5q0 -29 -6 -62q-18 -102 -89.5 -167.5t-184.5 -65.5q-122 0 -174.5 62.5t-52.5 173.5q0 56 13 129q33 186 107.5 277.5t209.5 91.5q108 0 154.5 -59t43.5 -152
h-108q-2 57 -27 87.5zM151 210q0 -52 31.5 -85t94.5 -33t107 36t55 100q4 19 4 39q0 55 -31 83.5t-87 28.5q-60 0 -110 -34.5t-61 -99.5q-3 -18 -3 -35z" />
    <glyph glyph-name="seven" unicode="7" horiz-adv-x="481" 
d="M517 624l-372 -624h-120l374 611h-350l18 99h466z" />
    <glyph glyph-name="eight" unicode="8" horiz-adv-x="616" 
d="M146 642q36 41 96.5 65.5t138.5 24.5q104 0 159 -46.5t55 -119.5q0 -16 -3 -34q-9 -54 -47 -93t-102 -58q56 -20 86 -60t30 -97q0 -13 -4 -41q-17 -96 -99.5 -148.5t-207.5 -52.5q-104 0 -166 48t-62 135q0 24 4 45q11 63 55 106t115 65q-48 16 -72 50.5t-24 82.5
q0 19 3 38q9 49 45 90zM240.5 435q30.5 -24 83.5 -24q69 0 111.5 35t42.5 98q0 45 -30.5 69.5t-83.5 24.5q-68 0 -111 -35.5t-43 -99.5q0 -44 30.5 -68zM168.5 104q35.5 -28 96.5 -28q78 0 128 41t50 110q0 52 -36.5 78t-96.5 26q-75 0 -126 -37.5t-51 -110.5
q0 -51 35.5 -79z" />
    <glyph glyph-name="nine" unicode="9" horiz-adv-x="592" 
d="M172.5 116q25.5 -31 79.5 -31q81 0 130.5 68.5t70.5 216.5q-25 -54 -81 -86.5t-123 -32.5q-89 0 -138 46.5t-49 132.5q0 30 6 63q11 66 47 119t95 84t137 31q121 0 172 -60t51 -168q0 -62 -14 -138q-31 -183 -103 -276t-212 -93q-106 0 -155 60.5t-45 151.5h108
q-2 -57 23.5 -88zM464 510q0 53 -31 85.5t-95 32.5q-63 0 -107 -37t-55 -104q-4 -19 -4 -38q0 -53 31 -81t87 -28q59 0 109.5 35.5t61.5 100.5q3 18 3 34z" />
    <glyph glyph-name="colon" unicode=":" horiz-adv-x="216" 
d="M224 550l-22 -126h-130l22 126h130zM149 126l-22 -126h-130l22 126h130z" />
    <glyph glyph-name="semicolon" unicode=";" horiz-adv-x="278" 
d="M262 546l-23 -126h-129l22 126h130zM168 25q0 -71 -36 -120t-106 -49l8 46q25 0 39 13t19 44l2 9h-57l19 110h107q5 -21 5 -53z" />
    <glyph glyph-name="less" unicode="&#x3c;" horiz-adv-x="436" 
d="M221 135l-190 226l271 228h143l-271 -228l191 -226h-144z" />
    <glyph glyph-name="equal" unicode="=" horiz-adv-x="593" 
d="M591 526l-18 -104h-532l18 104h532zM552 301l-18 -104h-532l18 104h532z" />
    <glyph glyph-name="greater" unicode="&#x3e;" horiz-adv-x="436" 
d="M71 589h143l191 -228l-271 -226h-144l271 226z" />
    <glyph glyph-name="question" unicode="?" horiz-adv-x="508" 
d="M460 696q51 -44 51 -124q0 -25 -4 -46q-17 -99 -92 -149t-184 -52l-20 -110h-109l34 186h48q84 0 141 26.5t69 98.5q3 15 3 29q0 43 -26.5 67t-72.5 24q-55 0 -88.5 -30t-46.5 -82h-109q19 93 87.5 149.5t177.5 56.5q90 0 141 -44zM207 126l-22 -126h-130l22 126h130z
" />
    <glyph glyph-name="at" unicode="@" horiz-adv-x="1179" 
d="M971 755.5q95 -42.5 144 -122.5t49 -191q0 -46 -9 -99q-17 -98 -68 -178.5t-120 -127t-140 -46.5q-56 0 -88 23.5t-32 75.5q0 15 3 33q-95 -132 -235 -132q-81 0 -127.5 49.5t-46.5 133.5q0 40 10 81q20 88 73 157.5t128 108.5t157 39q95 0 148 -47.5t53 -127.5
q0 -45 -16 -93l-40 -121q-9 -25 -9 -42q0 -21 12 -29.5t35 -8.5q37 0 75 29t67.5 85.5t43.5 133.5q8 46 8 82q0 132 -86 207.5t-253 75.5q-148 0 -265.5 -62.5t-192 -170t-97.5 -241.5q-9 -51 -9 -95q0 -147 93.5 -223.5t272.5 -77.5l-38 -95q-214 3 -328 99.5t-114 276.5
q0 51 11 115q29 165 129 294.5t249.5 201.5t321.5 72q136 0 231 -42.5zM753 350q0 52 -31 80.5t-90 28.5q-48 0 -91.5 -24.5t-75 -70.5t-44.5 -107q-6 -25 -6 -49q0 -54 31.5 -85.5t84.5 -31.5q46 0 90.5 24.5t78 71.5t47.5 112q6 27 6 51z" />
    <glyph glyph-name="A" unicode="A" horiz-adv-x="682" 
d="M456 153h-298l-81 -153h-122l382 695h131l137 -695h-122zM440 241l-59 330l-176 -330h235z" />
    <glyph glyph-name="B" unicode="B" horiz-adv-x="618" 
d="M541 420q-43 -42 -102 -56q54 -12 85 -50t31 -91q0 -15 -3 -32q-15 -88 -83.5 -139.5t-180.5 -51.5h-281l124 706h276q94 0 142.5 -37.5t48.5 -104.5q0 -16 -3 -36q-11 -66 -54 -108zM477 531q0 39 -27 60.5t-84 21.5h-137l-37 -211h140q61 0 97.5 28t45.5 78q2 16 2 23z
M439 229q0 42 -30.5 66t-87.5 24h-143l-40 -225h144q65 0 105.5 29.5t49.5 82.5q2 16 2 23z" />
    <glyph glyph-name="C" unicode="C" horiz-adv-x="761" 
d="M651.5 647q74.5 -66 83.5 -179h-120q-13 64 -61 101.5t-127 37.5q-63 0 -118.5 -31t-94 -88.5t-51.5 -134.5q-6 -31 -6 -61q0 -89 49.5 -140.5t131.5 -51.5q78 0 139.5 37.5t97.5 100.5h120q-50 -113 -147 -178.5t-227 -65.5q-87 0 -151 35t-97.5 98t-33.5 147q0 41 7 79
q18 105 74.5 186.5t141.5 127.5t185 46q130 0 204.5 -66z" />
    <glyph glyph-name="D" unicode="D" horiz-adv-x="721" 
d="M598.5 167.5q-57.5 -79.5 -148.5 -123.5t-207 -44h-236l124 706h236q152 0 233.5 -72.5t81.5 -200.5q0 -40 -7 -79q-19 -107 -76.5 -186.5zM458.5 168.5q79.5 65.5 100.5 185.5q6 32 6 60q0 92 -57.5 141.5t-167.5 49.5h-112l-89 -502h112q128 0 207.5 65.5z" />
    <glyph glyph-name="E" unicode="E" horiz-adv-x="515" 
d="M229 614l-37 -214h259l-16 -88h-259l-38 -219h289l-16 -93h-404l124 706h404l-16 -92h-290z" />
    <glyph glyph-name="F" unicode="F" horiz-adv-x="519" 
d="M548 706l-16 -92h-303l-38 -219h250l-16 -88h-250l-54 -307h-114l124 706h417z" />
    <glyph glyph-name="G" unicode="G" horiz-adv-x="773" 
d="M651.5 649q72.5 -63 84.5 -168h-121q-12 57 -58.5 91t-118.5 34q-66 0 -124 -31t-98 -88.5t-53 -133.5q-6 -33 -6 -63q0 -93 54 -144t148 -51q88 0 160 54t102 150h-259l15 84h356l-19 -109q-25 -82 -79 -145.5t-132 -99.5t-173 -36q-90 0 -155.5 35.5t-100.5 100.5
t-35 150q0 40 7 79q18 103 75.5 183.5t144 125.5t189.5 45q124 0 196.5 -63z" />
    <glyph glyph-name="H" unicode="H" horiz-adv-x="699" 
d="M692 706l-124 -706h-115l56 317h-332l-56 -317h-114l124 706h114l-52 -296h332l52 296h115z" />
    <glyph glyph-name="I" unicode="I" horiz-adv-x="252" 
d="M245 706l-124 -706h-114l124 706h114z" />
    <glyph glyph-name="J" unicode="J" horiz-adv-x="503" 
d="M502 706l-90 -512q-17 -95 -79.5 -148t-156.5 -53q-87 0 -135 43.5t-48 125.5q0 32 5 57h113q-4 -28 -4 -38q0 -40 20 -62t62 -22q47 0 74 27t34 70l91 512h114z" />
    <glyph glyph-name="K" unicode="K" horiz-adv-x="617" 
d="M291 357l248 -357h-139l-221 328l-58 -328h-114l124 706h114l-57 -324l337 324h138z" />
    <glyph glyph-name="L" unicode="L" horiz-adv-x="447" 
d="M137 89h243l-15 -89h-358l124 706h114z" />
    <glyph glyph-name="M" unicode="M" horiz-adv-x="869" 
d="M862 695l-122 -695h-115l92 521l-293 -521h-100l-110 520l-91 -520h-115l121 695h139l132 -555l324 555h138z" />
    <glyph glyph-name="N" unicode="N" horiz-adv-x="709" 
d="M578 0h-114l-251 521l-92 -521h-114l124 705h114l251 -523l92 523h114z" />
    <glyph glyph-name="O" unicode="O" horiz-adv-x="783" 
d="M602 678q68 -37 104.5 -105t36.5 -157q0 -42 -7 -81q-17 -100 -72 -178t-138.5 -121.5t-183.5 -43.5q-94 0 -162 37t-104.5 104t-36.5 156q0 38 8 84q17 100 72.5 177.5t138.5 121t183 43.5q93 0 161 -37zM308.5 578.5q-57.5 -30.5 -96.5 -87t-53 -132.5q-5 -26 -5 -59
q0 -94 53 -147.5t145 -53.5q66 0 123 30.5t96.5 87t52.5 132.5q5 26 5 60q0 93 -53 146.5t-144 53.5q-66 0 -123.5 -30.5z" />
    <glyph glyph-name="P" unicode="P" horiz-adv-x="585" 
d="M170 274l-49 -274h-114l124 706h240q106 0 159 -45t53 -124q0 -25 -4 -48q-18 -100 -91.5 -157.5t-192.5 -57.5h-125zM462 489q3 17 3 31q0 45 -29 68.5t-93 23.5h-114l-43 -245h114q141 0 162 122z" />
    <glyph glyph-name="Q" unicode="Q" horiz-adv-x="783" 
d="M665.5 158.5q-54.5 -77.5 -135.5 -120.5l137 -171h-142l-98 133q-43 -8 -84 -8q-94 0 -162 37t-104.5 104t-36.5 156q0 38 8 84q17 100 72.5 177.5t138.5 121t183 43.5q93 0 161 -37t104.5 -105t36.5 -157q0 -42 -7 -81q-17 -99 -71.5 -176.5zM476 129.5q57 30.5 96.5 87
t52.5 132.5q5 26 5 60q0 93 -53 146.5t-144 53.5q-66 0 -123.5 -30.5t-96.5 -87t-53 -132.5q-5 -26 -5 -59q0 -94 53 -147.5t145 -53.5q66 0 123 30.5z" />
    <glyph glyph-name="R" unicode="R" horiz-adv-x="598" 
d="M539 660.5q53 -45.5 53 -123.5q0 -25 -4 -46q-14 -83 -70 -136t-147 -68l135 -287h-128l-126 282h-81l-50 -282h-114l124 706h249q106 0 159 -45.5zM474 514q0 94 -120 94h-125l-44 -245h125q140 0 161 122q3 15 3 29z" />
    <glyph glyph-name="S" unicode="S" horiz-adv-x="576" 
d="M463.5 82q-31.5 -40 -84 -64.5t-122.5 -24.5q-75 0 -129 26.5t-81.5 72.5t-26.5 104h121q-2 -46 27.5 -79t90.5 -33q57 0 90 34t33 84q0 34 -18 56.5t-45.5 37t-74.5 32.5q-56 22 -90.5 40.5t-58.5 52.5t-24 87q0 23 4 46q13 73 79.5 117t162.5 44q113 0 170.5 -52.5
t60.5 -135.5h-123q0 40 -27 68.5t-83 28.5q-52 0 -85 -27.5t-33 -78.5q0 -31 17.5 -52t43.5 -34t72 -31q56 -21 91.5 -40.5t60.5 -54.5t25 -90q0 -25 -4 -48q-8 -46 -39.5 -86z" />
    <glyph glyph-name="T" unicode="T" horiz-adv-x="539" 
d="M585 706l-16 -92h-197l-108 -614h-115l108 614h-196l16 92h508z" />
    <glyph glyph-name="U" unicode="U" horiz-adv-x="671" 
d="M241 706l-73 -419q-6 -31 -6 -57q0 -65 34 -97t96 -32q74 0 123.5 46t66.5 140l74 419h114l-73 -419q-26 -145 -114.5 -219.5t-211.5 -74.5q-104 0 -164.5 54.5t-60.5 161.5q0 39 7 78l74 419h114z" />
    <glyph glyph-name="V" unicode="V" horiz-adv-x="687" 
d="M202 706l100 -584l307 584h124l-379 -706h-146l-130 706h124z" />
    <glyph glyph-name="W" unicode="W" horiz-adv-x="996" 
d="M1025 706l-300 -706h-140l-53 546l-245 -546h-140l-52 706h125l21 -574l256 574h126l54 -576l223 576h125z" />
    <glyph glyph-name="X" unicode="X" horiz-adv-x="624" 
d="M381 352l165 -352h-136l-123 262l-197 -262h-131l281 361l-162 345h136l121 -256l195 256h131z" />
    <glyph glyph-name="Y" unicode="Y" horiz-adv-x="618" 
d="M664 706l-314 -449l-45 -257h-115l45 257l-157 449h132l104 -327l220 327h130z" />
    <glyph glyph-name="Z" unicode="Z" horiz-adv-x="554" 
d="M123 93h343l-16 -93h-470l15 89l429 524h-329l16 93h458l-15 -89z" />
    <glyph glyph-name="bracketleft" unicode="[" horiz-adv-x="367" 
d="M418 944l-17 -93h-121l-164 -933h121l-17 -94h-229l198 1120h229z" />
    <glyph glyph-name="backslash" unicode="\" horiz-adv-x="664" 
d="M312 -176l-103 1120h112l101 -1120h-110z" />
    <glyph glyph-name="bracketright" unicode="]" horiz-adv-x="365" 
d="M-52 -176l16 94h122l164 933h-121l16 93h230l-198 -1120h-229z" />
    <glyph glyph-name="asciicircum" unicode="^" horiz-adv-x="649" 
d="M101 168h-114l330 528h109l143 -528h-114l-107 394z" />
    <glyph glyph-name="underscore" unicode="_" horiz-adv-x="627" 
d="M583 -36l-20 -111h-557l20 111h557z" />
    <glyph glyph-name="grave" unicode="`" horiz-adv-x="294" 
d="M303 674l-14 -80l-201 113l16 89z" />
    <glyph glyph-name="a" unicode="a" horiz-adv-x="677" 
d="M461.5 521q47.5 -37 58.5 -98l23 128h114l-98 -551h-114l23 128q-32 -61 -91.5 -98t-134.5 -37q-96 0 -151 58t-55 160q0 38 7 74q15 84 57.5 145.5t104 94.5t132.5 33q77 0 124.5 -37zM228.5 409q-54.5 -49 -69.5 -133q-4 -21 -4 -45q0 -65 37 -101t102 -36
q73 0 129 49.5t71 132.5q4 20 4 42q0 64 -38 102t-101 38q-76 0 -130.5 -49z" />
    <glyph glyph-name="b" unicode="b" horiz-adv-x="676" 
d="M11 0l131 740h114l-56 -317q32 61 91.5 98t134.5 37q94 0 149.5 -57t55.5 -157q0 -32 -6 -68q-15 -87 -58.5 -151t-106 -98t-134.5 -34q-75 0 -121 37t-57 98l-23 -128h-114zM439.5 142.5q54.5 48.5 69.5 133.5q4 21 4 44q0 65 -37 101.5t-102 36.5q-74 0 -130 -50
t-71 -132q-4 -20 -4 -41q0 -65 38 -103t102 -38q76 0 130.5 48.5z" />
    <glyph glyph-name="c" unicode="c" horiz-adv-x="622" 
d="M530.5 501.5q61.5 -56.5 60.5 -153.5h-121q0 52 -33.5 81.5t-91.5 29.5q-65 0 -118 -47t-69 -136q-4 -23 -4 -48q0 -67 35.5 -101.5t91.5 -34.5q57 0 101 30t63 82h121q-34 -97 -114 -154t-187 -57q-105 0 -167 60t-62 165q0 31 6 67q15 84 60.5 145.5t112.5 94.5t146 33
q108 0 169.5 -56.5z" />
    <glyph glyph-name="d" unicode="d" horiz-adv-x="673" 
d="M681 740l-131 -740h-115l23 128q-32 -61 -91.5 -98t-134.5 -37q-93 0 -149.5 59t-56.5 162q0 27 7 71q15 84 57.5 145.5t104 94.5t132.5 33q77 0 124.5 -37t58.5 -98l56 317h115zM218.5 409q-54.5 -49 -69.5 -133q-4 -21 -4 -45q0 -65 37 -101t102 -36q74 0 130 49.5
t71 132.5q4 28 4 40q0 66 -38 104t-102 38q-76 0 -130.5 -49z" />
    <glyph glyph-name="e" unicode="e" horiz-adv-x="623" 
d="M486 532q51 -26 77.5 -72.5t26.5 -105.5q0 -22 -5 -52q-6 -29 -13 -49h-424q-2 -13 -2 -35q0 -67 35.5 -99.5t93.5 -32.5q57 0 101.5 29t62.5 77h122q-32 -89 -111 -144t-186 -55q-104 0 -166 59t-62 162q0 33 6 67q15 85 61 147.5t113.5 96t147.5 33.5q71 0 122 -26z
M476 349q0 58 -36.5 88t-91.5 30q-67 0 -119.5 -41t-69.5 -121h312q5 20 5 44z" />
    <glyph glyph-name="f" unicode="f" horiz-adv-x="349" 
d="M209 720.5q68 50.5 185 44.5l-18 -100q-67 3 -98 -21.5t-42 -83.5l-2 -9h122l-17 -98h-122l-79 -453h-115l80 453h-75l17 98h75l3 18q18 101 86 151.5z" />
    <glyph glyph-name="g" unicode="g" horiz-adv-x="675" 
d="M93.5 51q-56.5 59 -56.5 163q0 27 7 71q15 84 57.5 146t104.5 95t133 33q77 0 124.5 -37t58.5 -99l23 128h113l-98 -557q-14 -77 -55 -136.5t-105.5 -93.5t-143.5 -34q-114 0 -177 55t-69 149h113q6 -49 41 -76.5t98 -27.5q68 0 119 42t65 122l24 134
q-32 -61 -91.5 -98.5t-134.5 -37.5q-94 0 -150.5 59zM230 409.5q-54 -48.5 -69 -133.5q-4 -21 -4 -45q0 -65 37 -101t102 -36q73 0 129 49.5t71 132.5q4 19 4 41q0 65 -38.5 103t-101.5 38q-76 0 -130 -48.5z" />
    <glyph glyph-name="h" unicode="h" horiz-adv-x="653" 
d="M556.5 514.5q47.5 -45.5 47.5 -131.5q0 -29 -6 -62l-56 -321h-114l54 309q4 19 4 40q0 56 -31.5 85.5t-87.5 29.5q-65 0 -112 -39.5t-65 -116.5l-54 -308h-115l130 740h115l-54 -309q33 61 90.5 95t125.5 34q81 0 128.5 -45.5z" />
    <glyph glyph-name="i" unicode="i" horiz-adv-x="251" 
d="M152 755q25 23 62 23q29 0 45.5 -15t16.5 -39q0 -34 -24.5 -56t-61.5 -22q-30 0 -46.5 15t-16.5 39q0 32 25 55zM231 551l-98 -551h-114l97 551h115z" />
    <glyph glyph-name="j" unicode="j" horiz-adv-x="256" 
d="M150.5 660q-16.5 14 -16.5 38q0 33 25 56.5t62 23.5q29 0 45.5 -15t16.5 -39q0 -34 -24.5 -56t-61.5 -22q-30 0 -46.5 14zM-107 -162h40q33 0 50.5 14.5t24.5 49.5l114 649h115l-115 -650q-29 -163 -192 -163h-54z" />
    <glyph glyph-name="k" unicode="k" horiz-adv-x="527" 
d="M267 281l192 -281h-136l-153 248l-44 -248h-115l130 740h115l-73 -418l234 229h138z" />
    <glyph glyph-name="l" unicode="l" horiz-adv-x="250" 
d="M266 740l-130 -740h-115l130 740h115z" />
    <glyph glyph-name="m" unicode="m" horiz-adv-x="1037" 
d="M939 514q48 -46 48 -132q0 -28 -6 -61l-57 -321h-114l54 309q4 19 4 40q0 53 -30 82t-83 29q-66 0 -112 -41.5t-61 -121.5l-53 -297h-114l55 309q4 28 4 39q0 54 -30.5 83t-83.5 29q-66 0 -112.5 -42.5t-61.5 -124.5v4l-52 -297h-115l97 551h115l-20 -116q31 60 86 92.5
t121 32.5q68 0 112.5 -34t56.5 -98q36 62 95 97t125 35q84 0 132 -46z" />
    <glyph glyph-name="n" unicode="n" horiz-adv-x="653" 
d="M555 514.5q47 -45.5 47 -130.5q0 -30 -6 -63l-56 -321h-114l54 309q4 19 4 40q0 56 -31.5 85.5t-87.5 29.5q-68 0 -116 -43.5t-63 -127.5v3l-52 -296h-115l97 551h115l-21 -122q32 63 89.5 97t127.5 34q81 0 128 -45.5z" />
    <glyph glyph-name="o" unicode="o" horiz-adv-x="643" 
d="M542 497.5q65 -60.5 65 -166.5q0 -30 -6 -65q-15 -83 -62 -145t-115.5 -95t-147.5 -33q-71 0 -125.5 27t-84.5 78.5t-30 122.5q0 30 6 64q15 83 62 145t116.5 95t148.5 33q108 0 173 -60.5zM230 412q-56 -47 -72 -136q-4 -23 -4 -46q0 -68 38 -102.5t97 -34.5
q69 0 124.5 46.5t71.5 136.5q4 21 4 45q0 68 -38 103t-97 35q-68 0 -124 -47z" />
    <glyph glyph-name="p" unicode="p" horiz-adv-x="676" 
d="M585.5 501q55.5 -57 55.5 -157q0 -32 -6 -68q-16 -87 -59 -151t-105.5 -98t-134.5 -34q-75 0 -121.5 37t-56.5 98l-69 -390h-115l144 813h114l-23 -128q33 61 92.5 98t134.5 37q94 0 149.5 -57zM449 142.5q54 48.5 69 133.5q4 21 4 44q0 65 -37 101.5t-102 36.5
q-74 0 -129.5 -50t-70.5 -132q-4 -20 -4 -42q0 -65 38 -102.5t102 -37.5q76 0 130 48.5z" />
    <glyph glyph-name="q" unicode="q" horiz-adv-x="673" 
d="M652 551l-143 -813h-114l68 383q-37 -60 -93 -94t-125 -34q-100 0 -156.5 59t-56.5 161q0 33 6 70q15 85 59 147t107.5 94.5t135.5 32.5q71 0 117 -32t61 -89l20 115h114zM224.5 408.5q-55.5 -48.5 -70.5 -134.5q-4 -21 -4 -44q0 -66 38.5 -101t101.5 -35q46 0 88 21.5
t71.5 62.5t39.5 98q4 20 4 42q0 65 -39.5 102t-100.5 37q-73 0 -128.5 -48.5z" />
    <glyph glyph-name="r" unicode="r" horiz-adv-x="399" 
d="M307.5 528.5q57.5 31.5 125.5 31.5l-22 -124h-34q-75 0 -127 -36.5t-66 -120.5l-1 1l-49 -280h-115l97 551h115l-19 -108q38 54 95.5 85.5z" />
    <glyph glyph-name="s" unicode="s" horiz-adv-x="518" 
d="M435.5 508.5q56.5 -49.5 58.5 -132.5h-113q1 45 -29.5 72.5t-89.5 27.5q-45 0 -72 -20.5t-27 -55.5q0 -23 16 -38.5t39.5 -24.5t67.5 -22q56 -15 91.5 -30.5t60.5 -45t25 -76.5q0 -19 -4 -38q-11 -59 -65 -95.5t-143 -36.5q-107 0 -169.5 48t-63.5 134h113
q-4 -45 30.5 -73t99.5 -28q45 0 69.5 22t24.5 56q0 26 -17 42.5t-41.5 26t-68.5 22.5q-55 16 -88.5 30t-57 42t-23.5 73q0 16 3 35q11 61 66 98t144 37q107 0 163.5 -49.5z" />
    <glyph glyph-name="t" unicode="t" horiz-adv-x="384" 
d="M183 182q-3 -16 -3 -30q0 -29 16 -41t52 -12h56l-19 -99h-70q-74 0 -112.5 30t-38.5 98q0 30 5 56l48 270h-80l17 97h80l24 137h115l-24 -137h133l-17 -97h-134z" />
    <glyph glyph-name="u" unicode="u" horiz-adv-x="640" 
d="M621 551l-97 -551h-115l21 120q-33 -61 -90.5 -94.5t-125.5 -33.5q-82 0 -129 46t-47 132q0 28 6 61l57 320h114l-55 -308q-4 -20 -4 -41q0 -56 31.5 -85.5t87.5 -29.5q68 0 116 44t63 128v-4l52 296h115z" />
    <glyph glyph-name="v" unicode="v" horiz-adv-x="574" 
d="M253 118l233 433h122l-308 -551h-138l-112 551h122z" />
    <glyph glyph-name="w" unicode="w" horiz-adv-x="841" 
d="M880 551l-251 -551h-125l-61 428l-213 -428h-126l-54 551h115l25 -446l217 446h121l60 -446l184 446h108z" />
    <glyph glyph-name="x" unicode="x" horiz-adv-x="525" 
d="M325 273l141 -273h-130l-100 194l-153 -194h-126l232 286l-137 265h130l98 -190l150 190h127z" />
    <glyph glyph-name="y" unicode="y" horiz-adv-x="580" 
d="M171 551l94 -405l224 405h127l-477 -813h-127l168 275l-137 538h128z" />
    <glyph glyph-name="z" unicode="z" horiz-adv-x="459" 
d="M119 96h284l-18 -96h-409l17 91l332 364h-262l18 96h392l-17 -91z" />
    <glyph glyph-name="braceleft" unicode="{" horiz-adv-x="396" 
d="M212.5 333q22.5 -29 22.5 -73q0 -18 -3 -36q-7 -38 -26 -88q-23 -67 -31 -111q-5 -33 -5 -56q0 -65 26.5 -110t65.5 -66l-1 -10h-118q-30 17 -59 63t-29 119q0 30 6 65q7 38 30 108q20 56 26 89q3 14 3 29q0 76 -85 93l7 46q109 21 127 122q5 29 5 86q0 69 7 111
q13 71 44.5 123.5t65.5 81.5t60 42h118l-2 -10q-58 -26 -106.5 -85.5t-63.5 -146.5q-7 -42 -7 -106q0 -59 -6 -93q-10 -58 -45 -96.5t-95 -50.5v-2q46 -9 68.5 -38z" />
    <glyph glyph-name="bar" unicode="|" horiz-adv-x="224" 
d="M89 -113h-115l161 915h115z" />
    <glyph glyph-name="braceright" unicode="}" horiz-adv-x="390" 
d="M189 410.5q-23 27.5 -23 69.5q0 15 3 31q7 38 26 88q23 67 31 111q5 32 5 55q0 66 -26.5 116t-64.5 70l2 10h117q31 -17 60 -63t29 -121q0 -28 -6 -63q-8 -44 -31 -106l-12.5 -37.5t-13.5 -53.5q-3 -13 -3 -30q0 -77 85 -92l-7 -46q-62 -9 -90.5 -44t-36.5 -78
q-5 -31 -5 -74q0 -28 -1 -60t-6 -63q-13 -71 -44.5 -123.5t-65.5 -81.5t-60 -42h-117l2 10q56 25 106 90.5t65 150.5q8 45 8 98v36q0 35 5 65q9 54 44 90t95 48v2q-47 10 -70 37.5z" />
    <glyph glyph-name="asciitilde" unicode="~" horiz-adv-x="553" 
d="M253.5 394.5q21.5 -9.5 49.5 -28.5q23 -15 38 -22t33 -7q26 0 44.5 18t29.5 50h89q-29 -85 -77.5 -128t-110.5 -43q-29 0 -50.5 9.5t-48.5 27.5q-21 15 -37.5 22.5t-34.5 7.5q-51 0 -75 -68h-87q29 85 77 128t110 43q29 0 50.5 -9.5z" />
    <glyph glyph-name="uni00A0" unicode="&#xa0;" horiz-adv-x="234" 
 />
    <glyph glyph-name="exclamdown" unicode="&#xa1;" horiz-adv-x="336" 
d="M22.4863 -167l112.314 507h100.659l-78.4082 -507h-134.565zM132.682 435l23.3105 126h137.744l-23.3105 -126h-137.744z" />
    <glyph glyph-name="cent" unicode="&#xa2;" horiz-adv-x="584" 
d="M215 381.5q-49 -41.5 -63 -119.5q-4 -28 -4 -39q0 -59 34.5 -90t90.5 -31q52 0 94.5 28.5t60.5 78.5h106q-25 -87 -95 -140.5t-161 -59.5l-17 -97h-54l17 97q-87 8 -137 59t-50 136q0 33 5 58q19 111 92 177.5t179 75.5l16 92h54l-16 -92q89 -6 140.5 -59.5t45.5 -140.5
h-106q-1 51 -33.5 79.5t-84.5 28.5q-65 0 -114 -41.5z" />
    <glyph glyph-name="sterling" unicode="&#xa3;" horiz-adv-x="596" 
d="M489 526q4 53 -23 86t-80 33q-50 0 -87.5 -31.5t-47.5 -90.5q-4 -19 -4 -42q0 -32 12 -100h182l-14 -78h-160q2 -25 -3 -49q-8 -43 -33.5 -86t-70.5 -80h356l-16 -91h-468l-4 59q55 45 85.5 89.5t41.5 106.5q4 20 2 51h-118l14 78h93q-8 58 -8 91q0 36 5 63
q16 93 85.5 148.5t170.5 55.5q97 0 147 -51.5t50 -134.5q0 -18 -1 -27h-106z" />
    <glyph glyph-name="currency" unicode="&#xa4;" horiz-adv-x="549" 
d="M444 491q22 -33 22 -79q0 -16 -3 -34q-12 -65 -57 -112l46 -55l-53 -45l-49 59q-49 -26 -107 -26q-59 0 -99 26l-70 -59l-37 45l67 56q-19 32 -19 74q0 11 4 37q12 66 55 111l-48 58l53 45l51 -61q51 24 106 24q56 0 97 -24l71 61l37 -45zM176 350q0 -39 22 -60t58 -21
q40 0 73.5 28.5t42.5 79.5q2 18 2 25q0 40 -22.5 62t-57.5 22q-41 0 -73.5 -29t-41.5 -80q-3 -15 -3 -27z" />
    <glyph glyph-name="yen" unicode="&#xa5;" horiz-adv-x="641" 
d="M460 396h127l-13 -77h-168l-43 -62l-1 -8h199l-13 -78h-200l-30 -171h-115l30 171h-200l13 78h201l1 8l-22 62h-167l13 77h127l-108 310h132l102 -344l222 344h130z" />
    <glyph glyph-name="brokenbar" unicode="&#xa6;" horiz-adv-x="304" 
d="M175 802h115l-69 -388h-114zM129 -113h-115l68 388h115z" />
    <glyph glyph-name="section" unicode="&#xa7;" horiz-adv-x="580" 
d="M439 549q1 5 1 15q0 40 -24.5 64.5t-75.5 24.5q-44 0 -71.5 -20t-27.5 -61q0 -33 32 -59t108 -55q77 -28 118.5 -64t41.5 -92q0 -62 -41.5 -111.5t-123.5 -73.5q80 -48 80 -125q0 -18 -2 -27q-12 -69 -72 -111t-158 -42q-94 0 -146 45.5t-52 123.5l1 17h113
q-3 -47 20.5 -75.5t80.5 -28.5q39 0 65 17t31 49q2 12 2 18q0 34 -31.5 58.5t-108.5 53.5q-77 27 -118.5 63t-41.5 92q0 62 42.5 114t124.5 70q-83 50 -83 127q0 17 2 26q12 70 72.5 112t158.5 42q100 0 151 -50.5t46 -136.5h-114zM390.5 354q-28.5 23 -82.5 23
q-44 0 -77 -17t-51 -45t-18 -61q0 -38 29 -61t82 -23q44 0 77 17t51 45.5t18 60.5q0 38 -28.5 61z" />
    <glyph glyph-name="dieresis" unicode="&#xa8;" horiz-adv-x="365" 
d="M117 716.5q20 19.5 47 19.5q21 0 34.5 -12.5t13.5 -32.5q0 -27 -20.5 -47t-47.5 -20q-20 0 -33.5 13t-13.5 33q0 27 20 46.5zM294 716.5q20 19.5 46 19.5q21 0 34.5 -12.5t13.5 -32.5q0 -27 -20 -47t-47 -20q-21 0 -34 12.5t-13 32.5q0 28 20 47.5z" />
    <glyph glyph-name="copyright" unicode="&#xa9;" horiz-adv-x="788" 
d="M267 665q-87 -45 -145 -125.5t-76 -184.5q-7 -36 -7 -75q0 -84 35.5 -147.5t102 -99t155.5 -35.5q103 0 190 45.5t144.5 126.5t75.5 185q7 36 7 75q0 84 -35.5 147t-101.5 98t-155 35q-103 0 -190 -45zM638.5 604q67.5 -66 67.5 -178q0 -27 -7 -71q-16 -92 -66.5 -164
t-126.5 -112.5t-168 -40.5q-121 0 -188.5 67t-67.5 180q0 28 7 70q16 93 66.5 164.5t126.5 111t169 39.5q120 0 187.5 -66zM564.5 539.5q49.5 -44.5 51.5 -121.5h-97q-5 41 -32 64.5t-67 23.5q-53 0 -95.5 -39.5t-55.5 -112.5q-4 -19 -4 -39q0 -54 28.5 -83t73.5 -29
q40 0 74.5 23t54.5 65h98q-30 -78 -95.5 -122.5t-141.5 -44.5q-83 0 -133.5 47t-50.5 131q0 21 5 53q13 71 51 123t92.5 79t117.5 27q76 0 125.5 -44.5z" />
    <glyph glyph-name="ordfeminine" unicode="&#xaa;" horiz-adv-x="446" 
d="M304.5 688.5q29.5 -21.5 38.5 -61.5l14 78h87l-62 -351h-87l13 78q-48 -84 -146 -84q-62 0 -98.5 36.5t-36.5 101.5q0 23 4 43q15 83 68.5 132t126.5 49q49 0 78.5 -21.5zM163.5 609.5q-33.5 -30.5 -42.5 -81.5q-3 -13 -3 -26q0 -39 23 -60.5t61 -21.5q46 0 80.5 29.5
t43.5 80.5q2 16 2 23q0 41 -23.5 64t-63.5 23q-44 0 -77.5 -30.5z" />
    <glyph glyph-name="guillemotleft" unicode="&#xab;" horiz-adv-x="489" 
d="M107 120l-62 175l124 175h109l-126 -175l64 -175h-109zM304 120l-62 175l124 175h108l-126 -175l64 -175h-108z" />
    <glyph glyph-name="logicalnot" unicode="&#xac;" horiz-adv-x="748" 
d="M714 435l-40 -227h-114l25 139h-539l15 88h653z" />
    <glyph glyph-name="uni00AD" unicode="&#xad;" horiz-adv-x="506" 
d="M487 410l-17 -96h-412l17 96h412z" />
    <glyph glyph-name="registered" unicode="&#xae;" horiz-adv-x="802" 
d="M623.5 676.5q67.5 -34.5 103.5 -97.5t36 -148q0 -38 -7 -76q-18 -103 -77 -184.5t-147.5 -127t-192.5 -45.5q-92 0 -159.5 35.5t-104 99.5t-36.5 148q0 39 7 74q19 105 78 186t147.5 125.5t192.5 44.5q92 0 159.5 -34.5zM720 427q0 113 -69 178.5t-193 65.5
q-95 0 -173 -39t-128.5 -110.5t-67.5 -166.5q-6 -36 -6 -69q0 -112 69.5 -177.5t193.5 -65.5q95 0 172.5 39t128 109.5t66.5 163.5q7 44 7 72zM565.5 557.5q33.5 -27.5 33.5 -73.5q0 -59 -37 -100t-104 -51l87 -187h-82l-82 184h-51l-32 -184h-74l77 439h162
q69 0 102.5 -27.5zM521 467q0 51 -76 51h-82l-24 -139h82q86 0 98 70q2 12 2 18z" />
    <glyph glyph-name="macron" unicode="&#xaf;" horiz-adv-x="418" 
d="M459 720l-14 -78h-366l14 78h366z" />
    <glyph glyph-name="degree" unicode="&#xb0;" horiz-adv-x="422" 
d="M357 665.5q42 -36.5 42 -100.5q0 -20 -4 -39q-14 -82 -72 -130.5t-141 -48.5q-73 0 -115.5 38.5t-42.5 103.5q0 18 3 37q14 81 72.5 128.5t142.5 47.5q73 0 115 -36.5zM158 609q-32 -30 -41 -84q-3 -15 -3 -29q0 -41 21.5 -62.5t57.5 -21.5q41 0 72 29.5t40 83.5
q3 17 3 30q0 40 -21 62t-55 22q-42 0 -74 -30z" />
    <glyph glyph-name="plusminus" unicode="&#xb1;" horiz-adv-x="571" 
d="M347 369l-31 -172h200l-18 -104h-510l18 104h199l31 172h-199l18 104h199l28 160h111l-28 -160h200l-19 -104h-199z" />
    <glyph glyph-name="twosuperior" unicode="&#xb2;" horiz-adv-x="358" 
d="M295.5 538.5q-32.5 -31.5 -97.5 -66.5l-89 -52h195l-12 -68h-280l11 63l140 92q34 24 54 46.5t25 49.5q1 4 1 10q0 18 -11 27t-28 9q-25 0 -42.5 -16.5t-25.5 -48.5h-87q14 56 60.5 92t116.5 36q54 0 82.5 -23t28.5 -60q0 -7 -2 -19q-7 -40 -39.5 -71.5z" />
    <glyph glyph-name="threesuperior" unicode="&#xb3;" horiz-adv-x="349" 
d="M299.5 689q31.5 -23 31.5 -62q0 -11 -1 -16q-13 -64 -85 -79l-1 -3q63 -16 63 -66t-43 -82.5t-115 -32.5q-76 0 -107 29t-27 85h92q-3 -29 9 -40t37 -11q26 0 42 12.5t20 36.5q1 4 1 12q0 20 -14 30t-39 10h-46l5 35h44q28 0 46.5 13.5t22.5 39.5q1 4 1 10
q0 17 -11.5 27.5t-32.5 10.5q-49 0 -65 -49h-84q14 49 55.5 81t113.5 32q56 0 87.5 -23z" />
    <glyph glyph-name="acute" unicode="&#xb4;" horiz-adv-x="273" 
d="M309 707l-241 -113l14 80l243 122z" />
    <glyph glyph-name="uni00B5" unicode="&#xb5;" horiz-adv-x="658" 
d="M649 551l-97 -551h-115l20 114q-32 -58 -86 -90t-118 -32q-73 0 -100 50l-54 -304h-114l144 813h114l-51 -287q-4 -23 -4 -47q0 -61 32.5 -93t89.5 -32q65 0 111.5 43t60.5 124v-5l52 297h115z" />
    <glyph glyph-name="paragraph" unicode="&#xb6;" horiz-adv-x="625" 
d="M484 0h-94l106 608h-84l-107 -608h-93l49 282h-15q-103 0 -153.5 45t-50.5 119q0 23 4 42q16 91 86 149t187 58h286z" />
    <glyph glyph-name="periodcentered" unicode="&#xb7;" horiz-adv-x="204" 
d="M198 395l-23 -126h-129l22 126h130z" />
    <glyph glyph-name="cedilla" unicode="&#xb8;" horiz-adv-x="293" 
d="M232.5 -78.5q31.5 -20.5 31.5 -64.5q0 -7 -2 -21q-9 -50 -49 -74t-95 -24h-116l11 64h103q67 0 67 46q0 36 -53 36h-59l22 123h70l-11 -67q49 2 80.5 -18.5z" />
    <glyph glyph-name="onesuperior" unicode="&#xb9;" horiz-adv-x="216" 
d="M50 635l12 69h147l-62 -352h-88l50 283h-59z" />
    <glyph glyph-name="ordmasculine" unicode="&#xba;" horiz-adv-x="430" 
d="M370 669q43 -40 43 -106q0 -18 -3 -36q-9 -52 -40.5 -93.5t-78.5 -65t-103 -23.5q-74 0 -117 40.5t-43 105.5q0 17 3 36q14 81 75 131.5t146 50.5q75 0 118 -40zM162.5 610.5q-33.5 -29.5 -42.5 -83.5q-3 -15 -3 -29q0 -39 23 -61t60 -22q44 0 77.5 29.5t43.5 82.5
q3 15 3 28q0 41 -23 63t-61 22q-44 0 -77.5 -29.5z" />
    <glyph glyph-name="guillemotright" unicode="&#xbb;" horiz-adv-x="489" 
d="M146 295l-65 175h110l61 -175l-123 -175h-110zM343 295l-65 175h109l61 -175l-123 -175h-109z" />
    <glyph glyph-name="onequarter" unicode="&#xbc;" horiz-adv-x="704" 
d="M629 706l-491 -706h-113l492 706h112zM64 635l12 69h147l-62 -352h-88l50 283h-59zM622 68h-46l-11 -68h-88l11 68h-186l9 49l202 236h114l-41 -233h46zM530 281l-134 -159h107z" />
    <glyph glyph-name="onehalf" unicode="&#xbd;" horiz-adv-x="750" 
d="M634 707l-496 -707h-113l497 707h112zM144 635h-59l12 69h147l-62 -352h-88zM650.5 185.5q-32.5 -31.5 -97.5 -66.5l-89 -52h195l-12 -68h-280l11 63l140 92q34 24 54 46.5t25 49.5q1 4 1 10q0 18 -11 27t-28 9q-25 0 -42.5 -16.5t-25.5 -48.5h-87q14 56 60.5 92
t116.5 36q54 0 82.5 -23t28.5 -60q0 -7 -2 -19q-7 -40 -39.5 -71.5z" />
    <glyph glyph-name="threequarters" unicode="&#xbe;" horiz-adv-x="763" 
d="M323.5 689q31.5 -23 31.5 -62q0 -11 -1 -16q-13 -64 -85 -79l-1 -3q63 -16 63 -66t-43 -82.5t-115 -32.5q-76 0 -107 29t-27 85h92q-3 -29 9 -40t37 -11q26 0 42 12.5t20 36.5q1 4 1 12q0 20 -14 30t-39 10h-46l5 35h44q28 0 46.5 13.5t22.5 39.5q1 4 1 10
q0 17 -11.5 27.5t-32.5 10.5q-49 0 -65 -49h-84q14 49 55.5 81t113.5 32q56 0 87.5 -23zM703 707l-483 -707h-112l482 707h113zM695 68h-46l-11 -68h-88l11 68h-187l9 49l192 236h125l-41 -233h45zM605 291l-136 -171h106z" />
    <glyph glyph-name="questiondown" unicode="&#xbf;" horiz-adv-x="498" 
d="M45 -142q-51 44 -51 124q0 25 4 46q17 99 92 149t184 52l20 110h109l-34 -186h-48q-84 0 -141 -26.5t-69 -98.5q-3 -15 -3 -29q0 -43 26.5 -67t72.5 -24q55 0 88.5 30t46.5 82h109q-19 -93 -87.5 -149.5t-177.5 -56.5q-90 0 -141 44zM298 428l22 126h130l-22 -126h-130z
" />
    <glyph glyph-name="Agrave" unicode="&#xc0;" horiz-adv-x="682" 
d="M456 153h-298l-81 -153h-122l382 695h131l137 -695h-122zM440 241l-59 330l-176 -330h235zM483 829l-14 -80l-201 113l16 89z" />
    <glyph glyph-name="Aacute" unicode="&#xc1;" horiz-adv-x="682" 
d="M457 153h-298l-81 -153h-122l382 695h131l137 -695h-122zM441 241l-59 330l-176 -330h235zM589 862l-241 -113l14 80l243 122z" />
    <glyph glyph-name="Acircumflex" unicode="&#xc2;" horiz-adv-x="682" 
d="M459 153h-298l-81 -153h-122l382 695h131l137 -695h-122zM443 241l-59 330l-176 -330h235zM432 846l-158 -84l14 78l158 83l128 -83l-14 -78z" />
    <glyph glyph-name="Atilde" unicode="&#xc3;" horiz-adv-x="682" 
d="M463 153h-298l-81 -153h-122l382 695h131l137 -695h-122zM447 241l-59 330l-176 -330h235zM418 873.5q14 -6.5 33 -20.5q14 -11 25 -16t24 -5q18 0 32 12t21 35h61q-19 -58 -52.5 -87t-76.5 -29q-21 0 -36.5 7t-33.5 20q-17 11 -25.5 15.5t-21.5 4.5q-36 0 -52 -47h-60
q39 117 128 117q20 0 34 -6.5z" />
    <glyph glyph-name="Adieresis" unicode="&#xc4;" horiz-adv-x="682" 
d="M462 153h-298l-81 -153h-122l382 695h131l137 -695h-122zM446 241l-59 330l-176 -330h235zM308 871.5q20 19.5 47 19.5q21 0 34.5 -12.5t13.5 -32.5q0 -27 -20.5 -47t-47.5 -20q-20 0 -33.5 13t-13.5 33q0 27 20 46.5zM485 871.5q20 19.5 46 19.5q21 0 34.5 -12.5
t13.5 -32.5q0 -27 -20 -47t-47 -20q-21 0 -34 12.5t-13 32.5q0 28 20 47.5z" />
    <glyph glyph-name="Aring" unicode="&#xc5;" horiz-adv-x="682" 
d="M455 153h-298l-81 -153h-122l382 695h131l137 -695h-122zM439 241l-59 330l-176 -330h235zM511.5 955.5q25.5 -23.5 25.5 -63.5t-18 -70t-48.5 -46t-64.5 -16q-41 0 -66.5 23.5t-25.5 63.5q0 6 2 22q9 50 45.5 80t83.5 30q41 0 66.5 -23.5zM391.5 913.5
q-19.5 -16.5 -24.5 -44.5q-1 -5 -1 -13q0 -22 13.5 -34.5t35.5 -12.5q29 0 49.5 20.5t20.5 53.5q0 22 -13 34.5t-36 12.5q-25 0 -44.5 -16.5z" />
    <glyph glyph-name="AE" unicode="&#xc6;" horiz-adv-x="907" 
d="M626 614l-37 -213h254l-16 -88h-254l-39 -220h285l-16 -93h-400l26 148h-252l-108 -148h-126l513 706h471l-17 -92h-284zM510 606l-269 -370h204z" />
    <glyph glyph-name="Ccedilla" unicode="&#xc7;" horiz-adv-x="761" 
d="M661.5 647q74.5 -66 83.5 -179h-120q-13 64 -61 101.5t-127 37.5q-63 0 -118.5 -31t-94 -88.5t-51.5 -134.5q-6 -31 -6 -61q0 -89 49.5 -140.5t131.5 -51.5q78 0 139.5 37.5t97.5 100.5h120q-50 -113 -147 -178.5t-227 -65.5q-87 0 -151 35t-97.5 98t-33.5 147q0 41 7 79
q18 105 74.5 186.5t141.5 127.5t185 46q130 0 204.5 -66zM453.5 -78.5q31.5 -20.5 31.5 -64.5q0 -7 -2 -21q-9 -50 -49 -74t-95 -24h-116l11 64h103q67 0 67 46q0 36 -53 36h-59l22 123h70l-11 -67q49 2 80.5 -18.5z" />
    <glyph glyph-name="Egrave" unicode="&#xc8;" horiz-adv-x="515" 
d="M225 614l-37 -214h259l-16 -88h-259l-38 -219h289l-16 -93h-404l124 706h404l-16 -92h-290zM408 829l-14 -80l-201 113l16 89z" />
    <glyph glyph-name="Eacute" unicode="&#xc9;" horiz-adv-x="515" 
d="M225 614l-37 -214h259l-16 -88h-259l-38 -219h289l-16 -93h-404l124 706h404l-16 -92h-290zM515 862l-241 -113l14 80l243 122z" />
    <glyph glyph-name="Ecircumflex" unicode="&#xca;" horiz-adv-x="515" 
d="M228 614l-37 -214h259l-16 -88h-259l-38 -219h289l-16 -93h-404l124 706h404l-16 -92h-290zM358 846l-158 -84l14 78l158 83l128 -83l-14 -78z" />
    <glyph glyph-name="Edieresis" unicode="&#xcb;" horiz-adv-x="515" 
d="M230 614l-37 -214h259l-16 -88h-259l-38 -219h289l-16 -93h-404l124 706h404l-16 -92h-290zM234 871.5q20 19.5 47 19.5q21 0 34.5 -12.5t13.5 -32.5q0 -27 -20.5 -47t-47.5 -20q-20 0 -33.5 13t-13.5 33q0 27 20 46.5zM411 871.5q20 19.5 46 19.5q21 0 34.5 -12.5
t13.5 -32.5q0 -27 -20 -47t-47 -20q-21 0 -34 12.5t-13 32.5q0 28 20 47.5z" />
    <glyph glyph-name="Igrave" unicode="&#xcc;" horiz-adv-x="252" 
d="M246 706l-124 -706h-114l124 706h114zM268 829l-14 -80l-201 113l16 89z" />
    <glyph glyph-name="Iacute" unicode="&#xcd;" horiz-adv-x="252" 
d="M246 706l-124 -706h-114l124 706h114zM375 862l-241 -113l14 80l243 122z" />
    <glyph glyph-name="Icircumflex" unicode="&#xce;" horiz-adv-x="252" 
d="M248 706l-124 -706h-114l124 706h114zM218 846l-158 -84l14 78l158 83l128 -83l-14 -78z" />
    <glyph glyph-name="Idieresis" unicode="&#xcf;" horiz-adv-x="252" 
d="M251 706l-124 -706h-114l124 706h114zM94 871.5q20 19.5 47 19.5q21 0 34.5 -12.5t13.5 -32.5q0 -27 -20.5 -47t-47.5 -20q-20 0 -33.5 13t-13.5 33q0 27 20 46.5zM271 871.5q20 19.5 46 19.5q21 0 34.5 -12.5t13.5 -32.5q0 -27 -20 -47t-47 -20q-21 0 -34 12.5t-13 32.5
q0 28 20 47.5z" />
    <glyph glyph-name="Eth" unicode="&#xd0;" horiz-adv-x="742" 
d="M622.5 633q81.5 -73 81.5 -201q0 -40 -7 -78q-19 -107 -76.5 -187t-148.5 -123.5t-208 -43.5h-236l54 308h-85l17 92h84l54 306h236q153 0 234.5 -73zM586 415q0 91 -57.5 140.5t-167.5 49.5h-112l-36 -205h185l-17 -92h-185l-36 -205h113q127 0 207 66t100 185
q6 32 6 61z" />
    <glyph glyph-name="Ntilde" unicode="&#xd1;" horiz-adv-x="709" 
d="M580 0h-114l-251 521l-92 -521h-114l124 705h114l251 -523l92 523h114zM427 873.5q14 -6.5 33 -20.5q14 -11 25 -16t24 -5q18 0 32 12t21 35h61q-19 -58 -52.5 -87t-76.5 -29q-21 0 -36.5 7t-33.5 20q-17 11 -25.5 15.5t-21.5 4.5q-36 0 -52 -47h-60q39 117 128 117
q20 0 34 -6.5z" />
    <glyph glyph-name="Ograve" unicode="&#xd2;" horiz-adv-x="783" 
d="M599 678q68 -37 104.5 -105t36.5 -157q0 -42 -7 -81q-17 -100 -72 -178t-138.5 -121.5t-183.5 -43.5q-94 0 -162 37t-104.5 104t-36.5 156q0 38 8 84q17 100 72.5 177.5t138.5 121t183 43.5q93 0 161 -37zM305.5 578.5q-57.5 -30.5 -96.5 -87t-53 -132.5q-5 -26 -5 -59
q0 -94 53 -147.5t145 -53.5q66 0 123 30.5t96.5 87t52.5 132.5q5 26 5 60q0 93 -53 146.5t-144 53.5q-66 0 -123.5 -30.5zM534 829l-14 -80l-201 113l16 89z" />
    <glyph glyph-name="Oacute" unicode="&#xd3;" horiz-adv-x="783" 
d="M595 678q68 -37 104.5 -105t36.5 -157q0 -42 -7 -81q-17 -100 -72 -178t-138.5 -121.5t-183.5 -43.5q-94 0 -162 37t-104.5 104t-36.5 156q0 38 8 84q17 100 72.5 177.5t138.5 121t183 43.5q93 0 161 -37zM301.5 578.5q-57.5 -30.5 -96.5 -87t-53 -132.5q-5 -26 -5 -59
q0 -94 53 -147.5t145 -53.5q66 0 123 30.5t96.5 87t52.5 132.5q5 26 5 60q0 93 -53 146.5t-144 53.5q-66 0 -123.5 -30.5zM636 862l-241 -113l14 80l243 122z" />
    <glyph glyph-name="Ocircumflex" unicode="&#xd4;" horiz-adv-x="783" 
d="M598 678q68 -37 104.5 -105t36.5 -157q0 -42 -7 -81q-17 -100 -72 -178t-138.5 -121.5t-183.5 -43.5q-94 0 -162 37t-104.5 104t-36.5 156q0 38 8 84q17 100 72.5 177.5t138.5 121t183 43.5q93 0 161 -37zM304.5 578.5q-57.5 -30.5 -96.5 -87t-53 -132.5q-5 -26 -5 -59
q0 -94 53 -147.5t145 -53.5q66 0 123 30.5t96.5 87t52.5 132.5q5 26 5 60q0 93 -53 146.5t-144 53.5q-66 0 -123.5 -30.5zM479 846l-158 -84l14 78l158 83l128 -83l-14 -78z" />
    <glyph glyph-name="Otilde" unicode="&#xd5;" horiz-adv-x="783" 
d="M602 678q68 -37 104.5 -105t36.5 -157q0 -42 -7 -81q-17 -100 -72 -178t-138.5 -121.5t-183.5 -43.5q-94 0 -162 37t-104.5 104t-36.5 156q0 38 8 84q17 100 72.5 177.5t138.5 121t183 43.5q93 0 161 -37zM308.5 578.5q-57.5 -30.5 -96.5 -87t-53 -132.5q-5 -26 -5 -59
q0 -94 53 -147.5t145 -53.5q66 0 123 30.5t96.5 87t52.5 132.5q5 26 5 60q0 93 -53 146.5t-144 53.5q-66 0 -123.5 -30.5zM465 873.5q14 -6.5 33 -20.5q14 -11 25 -16t24 -5q18 0 32 12t21 35h61q-19 -58 -52.5 -87t-76.5 -29q-21 0 -36.5 7t-33.5 20q-17 11 -25.5 15.5
t-21.5 4.5q-36 0 -52 -47h-60q39 117 128 117q20 0 34 -6.5z" />
    <glyph glyph-name="Odieresis" unicode="&#xd6;" horiz-adv-x="783" 
d="M600 678q68 -37 104.5 -105t36.5 -157q0 -42 -7 -81q-17 -100 -72 -178t-138.5 -121.5t-183.5 -43.5q-94 0 -162 37t-104.5 104t-36.5 156q0 38 8 84q17 100 72.5 177.5t138.5 121t183 43.5q93 0 161 -37zM306.5 578.5q-57.5 -30.5 -96.5 -87t-53 -132.5q-5 -26 -5 -59
q0 -94 53 -147.5t145 -53.5q66 0 123 30.5t96.5 87t52.5 132.5q5 26 5 60q0 93 -53 146.5t-144 53.5q-66 0 -123.5 -30.5zM356 871.5q20 19.5 47 19.5q21 0 34.5 -12.5t13.5 -32.5q0 -27 -20.5 -47t-47.5 -20q-20 0 -33.5 13t-13.5 33q0 27 20 46.5zM533 871.5
q20 19.5 46 19.5q21 0 34.5 -12.5t13.5 -32.5q0 -27 -20 -47t-47 -20q-21 0 -34 12.5t-13 32.5q0 28 20 47.5z" />
    <glyph glyph-name="multiply" unicode="&#xd7;" horiz-adv-x="522" 
d="M340 366l128 -156l-89 -75l-128 155l-181 -154l-61 73l181 155l-126 152l90 76l125 -152l177 151l61 -73z" />
    <glyph glyph-name="Oslash" unicode="&#xd8;" horiz-adv-x="790" 
d="M692 598q51 -73 51 -181q0 -41 -7 -82q-17 -100 -72 -178t-138.5 -121.5t-183.5 -43.5q-69 0 -124.5 20.5t-95.5 58.5l-76 -71h-68l114 106q-53 76 -53 183q0 38 8 84q17 100 72.5 177.5t138.5 121t183 43.5q70 0 126.5 -21.5t95.5 -61.5l82 76h66zM154 300
q0 -66 27 -113l397 367q-55 55 -146 55q-66 0 -123.5 -30.5t-96.5 -87t-53 -132.5q-5 -26 -5 -59zM630 409q0 61 -25 108l-396 -366q52 -52 143 -52q66 0 123 30.5t96.5 87t52.5 132.5q6 32 6 60z" />
    <glyph glyph-name="Ugrave" unicode="&#xd9;" horiz-adv-x="671" 
d="M238 706l-73 -419q-6 -31 -6 -57q0 -65 34 -97t96 -32q74 0 123.5 46t66.5 140l74 419h114l-73 -419q-26 -145 -114.5 -219.5t-211.5 -74.5q-104 0 -164.5 54.5t-60.5 161.5q0 39 7 78l74 419h114zM473 829l-14 -80l-201 113l16 89z" />
    <glyph glyph-name="Uacute" unicode="&#xda;" horiz-adv-x="671" 
d="M238 706l-73 -419q-6 -31 -6 -57q0 -65 34 -97t96 -32q74 0 123.5 46t66.5 140l74 419h114l-73 -419q-26 -145 -114.5 -219.5t-211.5 -74.5q-104 0 -164.5 54.5t-60.5 161.5q0 39 7 78l74 419h114zM580 862l-241 -113l14 80l243 122z" />
    <glyph glyph-name="Ucircumflex" unicode="&#xdb;" horiz-adv-x="671" 
d="M240 706l-73 -419q-6 -31 -6 -57q0 -65 34 -97t96 -32q74 0 123.5 46t66.5 140l74 419h114l-73 -419q-26 -145 -114.5 -219.5t-211.5 -74.5q-104 0 -164.5 54.5t-60.5 161.5q0 39 7 78l74 419h114zM423 846l-158 -84l14 78l158 83l128 -83l-14 -78z" />
    <glyph glyph-name="Udieresis" unicode="&#xdc;" horiz-adv-x="671" 
d="M243 706l-73 -419q-6 -31 -6 -57q0 -65 34 -97t96 -32q74 0 123.5 46t66.5 140l74 419h114l-73 -419q-26 -145 -114.5 -219.5t-211.5 -74.5q-104 0 -164.5 54.5t-60.5 161.5q0 39 7 78l74 419h114zM299 871.5q20 19.5 47 19.5q21 0 34.5 -12.5t13.5 -32.5
q0 -27 -20.5 -47t-47.5 -20q-20 0 -33.5 13t-13.5 33q0 27 20 46.5zM476 871.5q20 19.5 46 19.5q21 0 34.5 -12.5t13.5 -32.5q0 -27 -20 -47t-47 -20q-21 0 -34 12.5t-13 32.5q0 28 20 47.5z" />
    <glyph glyph-name="Yacute" unicode="&#xdd;" horiz-adv-x="618" 
d="M660 706l-314 -449l-45 -257h-115l45 257l-157 449h132l104 -327l220 327h130zM553 862l-241 -113l14 80l243 122z" />
    <glyph glyph-name="Thorn" unicode="&#xde;" horiz-adv-x="585" 
d="M147 143l-26 -143h-114l124 706h114l-25 -140h126q106 0 159.5 -44t53.5 -121q0 -20 -5 -48q-17 -98 -90 -154t-192 -56h-125zM438 353q3 17 3 32q0 44 -29 67.5t-93 23.5h-113l-44 -244h114q140 0 162 121z" />
    <glyph glyph-name="germandbls" unicode="&#xdf;" horiz-adv-x="670" 
d="M591.5 299q27.5 -43 27.5 -97q0 -20 -5 -48q-13 -71 -70.5 -117t-143.5 -46q-85 0 -134 43.5t-49 120.5q0 11 2 33h95q-1 -7 -1 -20q0 -36 20.5 -56.5t62.5 -20.5q45 0 73 25t35 60q2 14 2 21q0 28 -15 51t-50 49l-139 101l9 43l32 15q32 16 50 37.5t23 52.5q2 14 2 19
q0 36 -22 57.5t-62 21.5q-49 0 -81.5 -28.5t-40.5 -80.5l-94 -535h-115l96 539q17 100 85 155.5t177 55.5q86 0 134 -39t48 -102q0 -54 -33.5 -96t-97.5 -68l95 -66q57 -37 84.5 -80z" />
    <glyph glyph-name="agrave" unicode="&#xe0;" horiz-adv-x="676" 
d="M463.5 521q47.5 -37 58.5 -98l23 128h114l-98 -551h-114l23 128q-32 -61 -91.5 -98t-134.5 -37q-96 0 -151 58t-55 160q0 38 7 74q15 84 57.5 145.5t104 94.5t132.5 33q77 0 124.5 -37zM230.5 409q-54.5 -49 -69.5 -133q-4 -21 -4 -45q0 -65 37 -101t102 -36
q73 0 129 49.5t71 132.5q4 20 4 42q0 64 -38 102t-101 38q-76 0 -130.5 -49zM440 674l-14 -80l-201 113l16 89z" />
    <glyph glyph-name="aacute" unicode="&#xe1;" horiz-adv-x="676" 
d="M463.5 521q47.5 -37 58.5 -98l23 128h114l-98 -551h-114l23 128q-32 -61 -91.5 -98t-134.5 -37q-96 0 -151 58t-55 160q0 38 7 74q15 84 57.5 145.5t104 94.5t132.5 33q77 0 124.5 -37zM230.5 409q-54.5 -49 -69.5 -133q-4 -21 -4 -45q0 -65 37 -101t102 -36
q73 0 129 49.5t71 132.5q4 20 4 42q0 64 -38 102t-101 38q-76 0 -130.5 -49zM547 707l-241 -113l14 80l243 122z" />
    <glyph glyph-name="acircumflex" unicode="&#xe2;" horiz-adv-x="676" 
d="M456.5 521q47.5 -37 58.5 -98l23 128h114l-98 -551h-114l23 128q-32 -61 -91.5 -98t-134.5 -37q-96 0 -151 58t-55 160q0 38 7 74q15 84 57.5 145.5t104 94.5t132.5 33q77 0 124.5 -37zM223.5 409q-54.5 -49 -69.5 -133q-4 -21 -4 -45q0 -65 37 -101t102 -36
q73 0 129 49.5t71 132.5q4 20 4 42q0 64 -38 102t-101 38q-76 0 -130.5 -49zM381 691l-158 -84l14 78l158 83l128 -83l-14 -78z" />
    <glyph glyph-name="atilde" unicode="&#xe3;" horiz-adv-x="676" 
d="M469.5 521q47.5 -37 58.5 -98l23 128h114l-98 -551h-114l23 128q-32 -61 -91.5 -98t-134.5 -37q-96 0 -151 58t-55 160q0 38 7 74q15 84 57.5 145.5t104 94.5t132.5 33q77 0 124.5 -37zM236.5 409q-54.5 -49 -69.5 -133q-4 -21 -4 -45q0 -65 37 -101t102 -36
q73 0 129 49.5t71 132.5q4 20 4 42q0 64 -38 102t-101 38q-76 0 -130.5 -49zM375 718.5q14 -6.5 33 -20.5q14 -11 25 -16t24 -5q18 0 32 12t21 35h61q-19 -58 -52.5 -87t-76.5 -29q-21 0 -36.5 7t-33.5 20q-17 11 -25.5 15.5t-21.5 4.5q-36 0 -52 -47h-60q39 117 128 117
q20 0 34 -6.5z" />
    <glyph glyph-name="adieresis" unicode="&#xe4;" horiz-adv-x="676" 
d="M468.5 521q47.5 -37 58.5 -98l23 128h114l-98 -551h-114l23 128q-32 -61 -91.5 -98t-134.5 -37q-96 0 -151 58t-55 160q0 38 7 74q15 84 57.5 145.5t104 94.5t132.5 33q77 0 124.5 -37zM235.5 409q-54.5 -49 -69.5 -133q-4 -21 -4 -45q0 -65 37 -101t102 -36
q73 0 129 49.5t71 132.5q4 20 4 42q0 64 -38 102t-101 38q-76 0 -130.5 -49zM266 716.5q20 19.5 47 19.5q21 0 34.5 -12.5t13.5 -32.5q0 -27 -20.5 -47t-47.5 -20q-20 0 -33.5 13t-13.5 33q0 27 20 46.5zM443 716.5q20 19.5 46 19.5q21 0 34.5 -12.5t13.5 -32.5
q0 -27 -20 -47t-47 -20q-21 0 -34 12.5t-13 32.5q0 28 20 47.5z" />
    <glyph glyph-name="aring" unicode="&#xe5;" horiz-adv-x="676" 
d="M452.5 521q47.5 -37 58.5 -98l23 128h114l-98 -551h-114l23 128q-32 -61 -91.5 -98t-134.5 -37q-96 0 -151 58t-55 160q0 38 7 74q15 84 57.5 145.5t104 94.5t132.5 33q77 0 124.5 -37zM219.5 409q-54.5 -49 -69.5 -133q-4 -21 -4 -45q0 -65 37 -101t102 -36
q73 0 129 49.5t71 132.5q4 20 4 42q0 64 -38 102t-101 38q-76 0 -130.5 -49zM460.5 800.5q25.5 -23.5 25.5 -63.5t-18 -70t-48.5 -46t-64.5 -16q-41 0 -66.5 23.5t-25.5 63.5q0 6 2 22q9 50 45.5 80t83.5 30q41 0 66.5 -23.5zM340.5 758.5q-19.5 -16.5 -24.5 -44.5
q-1 -5 -1 -13q0 -22 13.5 -34.5t35.5 -12.5q29 0 49.5 20.5t20.5 53.5q0 22 -13 34.5t-36 12.5q-25 0 -44.5 -16.5z" />
    <glyph glyph-name="ae" unicode="&#xe6;" horiz-adv-x="1098" 
d="M1011.5 503q53.5 -55 53.5 -145q0 -32 -5 -56q-6 -29 -13 -49h-440q-2 -24 -2 -33q0 -68 38 -102t99 -34t107.5 29t65.5 79h121q-32 -89 -105.5 -144t-168.5 -55q-75 0 -123.5 35.5t-57.5 100.5l-23 -129h-114l23 128q-32 -61 -92 -98t-135 -37q-94 0 -149.5 57
t-55.5 158q0 32 6 68q15 86 58.5 150t106 98t134.5 34q75 0 121.5 -37t57.5 -98l23 128h114l-23 -129q32 66 91.5 101t137.5 35q96 0 149.5 -55zM951 347q0 59 -39.5 89.5t-99.5 30.5q-71 0 -124.5 -40t-72.5 -122h331q5 25 5 42zM497 318q0 64 -38.5 102t-101.5 38
q-76 0 -130 -48.5t-69 -133.5q-4 -21 -4 -45q0 -65 37 -101t102 -36q73 0 129 49.5t71 132.5q4 20 4 42z" />
    <glyph glyph-name="ccedilla" unicode="&#xe7;" horiz-adv-x="620" 
d="M534.5 501.5q61.5 -56.5 60.5 -153.5h-121q0 52 -33.5 81.5t-91.5 29.5q-65 0 -118 -47t-69 -136q-4 -23 -4 -48q0 -67 35.5 -101.5t91.5 -34.5q57 0 101 30t63 82h121q-34 -97 -114 -154t-187 -57q-105 0 -167 60t-62 165q0 31 6 67q15 84 60.5 145.5t112.5 94.5t146 33
q108 0 169.5 -56.5zM375.5 -78.5q31.5 -20.5 31.5 -64.5q0 -7 -2 -21q-9 -50 -49 -74t-95 -24h-116l11 64h103q67 0 67 46q0 36 -53 36h-59l22 123h70l-11 -67q49 2 80.5 -18.5z" />
    <glyph glyph-name="egrave" unicode="&#xe8;" horiz-adv-x="621" 
d="M483 532q51 -26 77.5 -72.5t26.5 -105.5q0 -22 -5 -52q-6 -29 -13 -49h-424q-2 -13 -2 -35q0 -67 35.5 -99.5t93.5 -32.5q57 0 101.5 29t62.5 77h122q-32 -89 -111 -144t-186 -55q-104 0 -166 59t-62 162q0 33 6 67q15 85 61 147.5t113.5 96t147.5 33.5q71 0 122 -26z
M473 349q0 58 -36.5 88t-91.5 30q-67 0 -119.5 -41t-69.5 -121h312q5 20 5 44zM423 674l-14 -80l-201 113l16 89z" />
    <glyph glyph-name="eacute" unicode="&#xe9;" horiz-adv-x="621" 
d="M483 532q51 -26 77.5 -72.5t26.5 -105.5q0 -22 -5 -52q-6 -29 -13 -49h-424q-2 -13 -2 -35q0 -67 35.5 -99.5t93.5 -32.5q57 0 101.5 29t62.5 77h122q-32 -89 -111 -144t-186 -55q-104 0 -166 59t-62 162q0 33 6 67q15 85 61 147.5t113.5 96t147.5 33.5q71 0 122 -26z
M473 349q0 58 -36.5 88t-91.5 30q-67 0 -119.5 -41t-69.5 -121h312q5 20 5 44zM529 707l-241 -113l14 80l243 122z" />
    <glyph glyph-name="ecircumflex" unicode="&#xea;" horiz-adv-x="622" 
d="M486 532q51 -26 77.5 -72.5t26.5 -105.5q0 -22 -5 -52q-6 -29 -13 -49h-424q-2 -13 -2 -35q0 -67 35.5 -99.5t93.5 -32.5q57 0 101.5 29t62.5 77h122q-32 -89 -111 -144t-186 -55q-104 0 -166 59t-62 162q0 33 6 67q15 85 61 147.5t113.5 96t147.5 33.5q71 0 122 -26z
M476 349q0 58 -36.5 88t-91.5 30q-67 0 -119.5 -41t-69.5 -121h312q5 20 5 44zM373 691l-158 -84l14 78l158 83l128 -83l-14 -78z" />
    <glyph glyph-name="edieresis" unicode="&#xeb;" horiz-adv-x="621" 
d="M489 532q51 -26 77.5 -72.5t26.5 -105.5q0 -22 -5 -52q-6 -29 -13 -49h-424q-2 -13 -2 -35q0 -67 35.5 -99.5t93.5 -32.5q57 0 101.5 29t62.5 77h122q-32 -89 -111 -144t-186 -55q-104 0 -166 59t-62 162q0 33 6 67q15 85 61 147.5t113.5 96t147.5 33.5q71 0 122 -26z
M479 349q0 58 -36.5 88t-91.5 30q-67 0 -119.5 -41t-69.5 -121h312q5 20 5 44zM249 716.5q20 19.5 47 19.5q21 0 34.5 -12.5t13.5 -32.5q0 -27 -20.5 -47t-47.5 -20q-20 0 -33.5 13t-13.5 33q0 27 20 46.5zM426 716.5q20 19.5 46 19.5q21 0 34.5 -12.5t13.5 -32.5
q0 -27 -20 -47t-47 -20q-21 0 -34 12.5t-13 32.5q0 28 20 47.5z" />
    <glyph glyph-name="igrave" unicode="&#xec;" horiz-adv-x="252" 
d="M231 551l-98 -551h-115l98 551h115zM253 674l-14 -80l-201 113l16 89z" />
    <glyph glyph-name="iacute" unicode="&#xed;" horiz-adv-x="252" 
d="M231 551l-98 -551h-115l98 551h115zM360 707l-241 -113l14 80l243 122z" />
    <glyph glyph-name="icircumflex" unicode="&#xee;" horiz-adv-x="252" 
d="M234 551l-98 -551h-115l98 551h115zM193 691l-158 -84l14 78l158 83l128 -83l-14 -78z" />
    <glyph glyph-name="idieresis" unicode="&#xef;" horiz-adv-x="252" 
d="M237 551l-98 -551h-115l98 551h115zM79 716.5q20 19.5 47 19.5q21 0 34.5 -12.5t13.5 -32.5q0 -27 -20.5 -47t-47.5 -20q-20 0 -33.5 13t-13.5 33q0 27 20 46.5zM256 716.5q20 19.5 46 19.5q21 0 34.5 -12.5t13.5 -32.5q0 -27 -20 -47t-47 -20q-21 0 -34 12.5t-13 32.5
q0 28 20 47.5z" />
    <glyph glyph-name="eth" unicode="&#xf0;" horiz-adv-x="639" 
d="M606 695l-86 -27q86 -121 86 -266q0 -40 -8 -90q-18 -102 -66.5 -174t-118 -108.5t-149.5 -36.5q-72 0 -126 28t-83.5 80t-29.5 122q0 31 6 62q15 83 60.5 145t113 96t146.5 34q55 0 95.5 -28t53.5 -83q-6 109 -61 194l-136 -42l8 43l105 32q-23 29 -59 64h103
q13 -13 35 -39l119 37zM479 321q0 67 -38 103t-97 36q-71 0 -126 -45.5t-70 -130.5q-4 -23 -4 -47q0 -69 38.5 -106.5t99.5 -37.5q69 0 123 48t70 135q4 21 4 45z" />
    <glyph glyph-name="ntilde" unicode="&#xf1;" horiz-adv-x="653" 
d="M558 514.5q47 -45.5 47 -130.5q0 -30 -6 -63l-56 -321h-114l54 309q4 19 4 40q0 56 -31.5 85.5t-87.5 29.5q-68 0 -116 -43.5t-63 -127.5v3l-52 -296h-115l97 551h115l-21 -122q32 63 89.5 97t127.5 34q81 0 128 -45.5zM374 718.5q14 -6.5 33 -20.5q14 -11 25 -16t24 -5
q18 0 32 12t21 35h61q-19 -58 -52.5 -87t-76.5 -29q-21 0 -36.5 7t-33.5 20q-17 11 -25.5 15.5t-21.5 4.5q-36 0 -52 -47h-60q39 117 128 117q20 0 34 -6.5z" />
    <glyph glyph-name="ograve" unicode="&#xf2;" horiz-adv-x="642" 
d="M544 497.5q65 -60.5 65 -166.5q0 -30 -6 -65q-15 -83 -62 -145t-115.5 -95t-147.5 -33q-71 0 -125.5 27t-84.5 78.5t-30 122.5q0 30 6 64q15 83 62 145t116.5 95t148.5 33q108 0 173 -60.5zM232 412q-56 -47 -72 -136q-4 -23 -4 -46q0 -68 38 -102.5t97 -34.5
q69 0 124.5 46.5t71.5 136.5q4 21 4 45q0 68 -38 103t-97 35q-68 0 -124 -47zM437 674l-14 -80l-201 113l16 89z" />
    <glyph glyph-name="oacute" unicode="&#xf3;" horiz-adv-x="642" 
d="M544 497.5q65 -60.5 65 -166.5q0 -30 -6 -65q-15 -83 -62 -145t-115.5 -95t-147.5 -33q-71 0 -125.5 27t-84.5 78.5t-30 122.5q0 30 6 64q15 83 62 145t116.5 95t148.5 33q108 0 173 -60.5zM232 412q-56 -47 -72 -136q-4 -23 -4 -46q0 -68 38 -102.5t97 -34.5
q69 0 124.5 46.5t71.5 136.5q4 21 4 45q0 68 -38 103t-97 35q-68 0 -124 -47zM544 707l-241 -113l14 80l243 122z" />
    <glyph glyph-name="ocircumflex" unicode="&#xf4;" horiz-adv-x="642" 
d="M542 497.5q65 -60.5 65 -166.5q0 -30 -6 -65q-15 -83 -62 -145t-115.5 -95t-147.5 -33q-71 0 -125.5 27t-84.5 78.5t-30 122.5q0 30 6 64q15 83 62 145t116.5 95t148.5 33q108 0 173 -60.5zM230 412q-56 -47 -72 -136q-4 -23 -4 -46q0 -68 38 -102.5t97 -34.5
q69 0 124.5 46.5t71.5 136.5q4 21 4 45q0 68 -38 103t-97 35q-68 0 -124 -47zM382 691l-158 -84l14 78l158 83l128 -83l-14 -78z" />
    <glyph glyph-name="otilde" unicode="&#xf5;" horiz-adv-x="642" 
d="M551 497.5q65 -60.5 65 -166.5q0 -30 -6 -65q-15 -83 -62 -145t-115.5 -95t-147.5 -33q-71 0 -125.5 27t-84.5 78.5t-30 122.5q0 30 6 64q15 83 62 145t116.5 95t148.5 33q108 0 173 -60.5zM239 412q-56 -47 -72 -136q-4 -23 -4 -46q0 -68 38 -102.5t97 -34.5
q69 0 124.5 46.5t71.5 136.5q4 21 4 45q0 68 -38 103t-97 35q-68 0 -124 -47zM372 718.5q14 -6.5 33 -20.5q14 -11 25 -16t24 -5q18 0 32 12t21 35h61q-19 -58 -52.5 -87t-76.5 -29q-21 0 -36.5 7t-33.5 20q-17 11 -25.5 15.5t-21.5 4.5q-36 0 -52 -47h-60q39 117 128 117
q20 0 34 -6.5z" />
    <glyph glyph-name="odieresis" unicode="&#xf6;" horiz-adv-x="642" 
d="M549 497.5q65 -60.5 65 -166.5q0 -30 -6 -65q-15 -83 -62 -145t-115.5 -95t-147.5 -33q-71 0 -125.5 27t-84.5 78.5t-30 122.5q0 30 6 64q15 83 62 145t116.5 95t148.5 33q108 0 173 -60.5zM237 412q-56 -47 -72 -136q-4 -23 -4 -46q0 -68 38 -102.5t97 -34.5
q69 0 124.5 46.5t71.5 136.5q4 21 4 45q0 68 -38 103t-97 35q-68 0 -124 -47zM263 716.5q20 19.5 47 19.5q21 0 34.5 -12.5t13.5 -32.5q0 -27 -20.5 -47t-47.5 -20q-20 0 -33.5 13t-13.5 33q0 27 20 46.5zM440 716.5q20 19.5 46 19.5q21 0 34.5 -12.5t13.5 -32.5
q0 -27 -20 -47t-47 -20q-21 0 -34 12.5t-13 32.5q0 28 20 47.5z" />
    <glyph glyph-name="divide" unicode="&#xf7;" horiz-adv-x="571" 
d="M401 648l-23 -126h-130l23 126h130zM550 413l-19 -104h-510l19 104h510zM322 202l-22 -125h-130l22 125h130z" />
    <glyph glyph-name="oslash" unicode="&#xf8;" horiz-adv-x="635" 
d="M559 471q42 -56 42 -139q0 -31 -6 -66q-15 -83 -62 -145t-115.5 -95t-147.5 -33q-52 0 -95 14.5t-75 42.5l-55 -50h-60l87 80q-42 58 -42 140q0 31 6 65q15 83 62 145t116.5 95t148.5 33q104 0 169 -57l54 50h60zM147 230q0 -36 14 -68l285 261q-37 36 -98 36
q-68 0 -124 -47t-72 -136q-5 -28 -5 -46zM483 321q0 40 -14 68l-284 -260q36 -36 98 -36q69 0 124.5 46.5t71.5 136.5q4 21 4 45z" />
    <glyph glyph-name="ugrave" unicode="&#xf9;" horiz-adv-x="645" 
d="M623 551l-97 -551h-115l21 120q-33 -61 -90.5 -94.5t-125.5 -33.5q-82 0 -129 46t-47 132q0 28 6 61l57 320h114l-55 -308q-4 -20 -4 -41q0 -56 31.5 -85.5t87.5 -29.5q68 0 116 44t63 128v-4l52 296h115zM432 674l-14 -80l-201 113l16 89z" />
    <glyph glyph-name="uacute" unicode="&#xfa;" horiz-adv-x="645" 
d="M623 551l-97 -551h-115l21 120q-33 -61 -90.5 -94.5t-125.5 -33.5q-82 0 -129 46t-47 132q0 28 6 61l57 320h114l-55 -308q-4 -20 -4 -41q0 -56 31.5 -85.5t87.5 -29.5q68 0 116 44t63 128v-4l52 296h115zM539 707l-241 -113l14 80l243 122z" />
    <glyph glyph-name="ucircumflex" unicode="&#xfb;" horiz-adv-x="645" 
d="M626 551l-97 -551h-115l21 120q-33 -61 -90.5 -94.5t-125.5 -33.5q-82 0 -129 46t-47 132q0 28 6 61l57 320h114l-55 -308q-4 -20 -4 -41q0 -56 31.5 -85.5t87.5 -29.5q68 0 116 44t63 128v-4l52 296h115zM382 691l-158 -84l14 78l158 83l128 -83l-14 -78z" />
    <glyph glyph-name="udieresis" unicode="&#xfc;" horiz-adv-x="645" 
d="M629 551l-97 -551h-115l21 120q-33 -61 -90.5 -94.5t-125.5 -33.5q-82 0 -129 46t-47 132q0 28 6 61l57 320h114l-55 -308q-4 -20 -4 -41q0 -56 31.5 -85.5t87.5 -29.5q68 0 116 44t63 128v-4l52 296h115zM258 716.5q20 19.5 47 19.5q21 0 34.5 -12.5t13.5 -32.5
q0 -27 -20.5 -47t-47.5 -20q-20 0 -33.5 13t-13.5 33q0 27 20 46.5zM435 716.5q20 19.5 46 19.5q21 0 34.5 -12.5t13.5 -32.5q0 -27 -20 -47t-47 -20q-21 0 -34 12.5t-13 32.5q0 28 20 47.5z" />
    <glyph glyph-name="yacute" unicode="&#xfd;" horiz-adv-x="585" 
d="M155 551l94 -405l224 405h127l-477 -813h-127l168 275l-137 538h128zM520 707l-241 -113l14 80l243 122z" />
    <glyph glyph-name="thorn" unicode="&#xfe;" horiz-adv-x="675" 
d="M584 497.5q57 -59.5 57 -161.5q0 -34 -5 -62q-15 -88 -58.5 -151.5t-105.5 -96.5t-133 -33q-73 0 -120 34t-62 94l-67 -383h-115l177 1002h115l-54 -304q35 57 90.5 89t125.5 32q98 0 155 -59.5zM449 141q55 47 70 133q4 21 4 44q0 67 -38 103t-101 36q-46 0 -88 -21.5
t-71.5 -62.5t-39.5 -97q-4 -20 -4 -42q0 -66 39.5 -103t100.5 -37q73 0 128 47z" />
    <glyph glyph-name="ydieresis" unicode="&#xff;" horiz-adv-x="585" 
d="M171 551l94 -405l224 405h127l-477 -813h-127l168 275l-137 538h128zM227 716.5q20 19.5 47 19.5q21 0 34.5 -12.5t13.5 -32.5q0 -27 -20.5 -47t-47.5 -20q-20 0 -33.5 13t-13.5 33q0 27 20 46.5zM404 716.5q20 19.5 46 19.5q21 0 34.5 -12.5t13.5 -32.5q0 -27 -20 -47
t-47 -20q-21 0 -34 12.5t-13 32.5q0 28 20 47.5z" />
    <glyph glyph-name="Amacron" unicode="&#x100;" horiz-adv-x="682" 
d="M463 153h-298l-81 -153h-122l382 695h131l137 -695h-122zM447 241l-59 330l-176 -330h235zM625 875l-14 -78h-366l14 78h366z" />
    <glyph glyph-name="amacron" unicode="&#x101;" horiz-adv-x="676" 
d="M461.5 521q47.5 -37 58.5 -98l23 128h114l-98 -551h-114l23 128q-32 -61 -91.5 -98t-134.5 -37q-96 0 -151 58t-55 160q0 38 7 74q15 84 57.5 145.5t104 94.5t132.5 33q77 0 124.5 -37zM228.5 409q-54.5 -49 -69.5 -133q-4 -21 -4 -45q0 -65 37 -101t102 -36
q73 0 129 49.5t71 132.5q4 20 4 42q0 64 -38 102t-101 38q-76 0 -130.5 -49zM574 720l-14 -78h-366l14 78h366z" />
    <glyph glyph-name="Abreve" unicode="&#x102;" horiz-adv-x="682" 
d="M459 153h-298l-81 -153h-122l382 695h131l137 -695h-122zM443 241l-59 330l-176 -330h235zM322.5 794.5q-33.5 31.5 -33.5 85.5q0 16 3 34l2 10h59q-2 -12 -2 -18q0 -59 80 -59q92 0 106 77h59l-2 -10q-12 -68 -59.5 -109.5t-117.5 -41.5q-61 0 -94.5 31.5z" />
    <glyph glyph-name="abreve" unicode="&#x103;" horiz-adv-x="676" 
d="M466.5 521q47.5 -37 58.5 -98l23 128h114l-98 -551h-114l23 128q-32 -61 -91.5 -98t-134.5 -37q-96 0 -151 58t-55 160q0 38 7 74q15 84 57.5 145.5t104 94.5t132.5 33q77 0 124.5 -37zM233.5 409q-54.5 -49 -69.5 -133q-4 -21 -4 -45q0 -65 37 -101t102 -36
q73 0 129 49.5t71 132.5q4 20 4 42q0 64 -38 102t-101 38q-76 0 -130.5 -49zM280.5 639.5q-33.5 31.5 -33.5 85.5q0 16 3 34l2 10h59q-2 -12 -2 -18q0 -59 80 -59q92 0 106 77h59l-2 -10q-12 -68 -59.5 -109.5t-117.5 -41.5q-61 0 -94.5 31.5z" />
    <glyph glyph-name="Aogonek" unicode="&#x104;" horiz-adv-x="682" 
d="M634 -140l-11 -64h-115q-51 0 -82.5 22t-31.5 65q0 44 25.5 75.5t76.5 44.5l-26 150h-297l-82 -153h-121l382 695h131l135 -688l-9 -53h-62q-29 0 -48 -12.5t-23 -34.5q-1 -3 -1 -9q0 -18 14.5 -28t40.5 -10h104zM454 241l-59 329l-175 -329h234z" />
    <glyph glyph-name="aogonek" unicode="&#x105;" horiz-adv-x="676" 
d="M466.5 521q47.5 -37 58.5 -98l23 128h114l-98 -551h-114l23 128q-32 -61 -91.5 -98t-134.5 -37q-96 0 -151 58t-55 160q0 38 7 74q15 84 57.5 145.5t104 94.5t132.5 33q77 0 124.5 -37zM233.5 409q-54.5 -49 -69.5 -133q-4 -21 -4 -45q0 -65 37 -101t102 -36
q73 0 129 49.5t71 132.5q4 20 4 42q0 64 -38 102t-101 38q-76 0 -130.5 -49zM566 15l-11 -58h-62q-32 0 -52 -14t-20 -38q0 -20 15 -31t41 -11h104l-12 -64h-115q-51 0 -82.5 23.5t-31.5 66.5q0 60 42 93t102 33h82z" />
    <glyph glyph-name="Cacute" unicode="&#x106;" horiz-adv-x="761" 
d="M652.5 647q74.5 -66 83.5 -179h-120q-13 64 -61 101.5t-127 37.5q-63 0 -118.5 -31t-94 -88.5t-51.5 -134.5q-6 -31 -6 -61q0 -89 49.5 -140.5t131.5 -51.5q78 0 139.5 37.5t97.5 100.5h120q-50 -113 -147 -178.5t-227 -65.5q-87 0 -151 35t-97.5 98t-33.5 147q0 41 7 79
q18 105 74.5 186.5t141.5 127.5t185 46q130 0 204.5 -66zM630 862l-241 -113l14 80l243 122z" />
    <glyph glyph-name="cacute" unicode="&#x107;" horiz-adv-x="620" 
d="M527.5 501.5q61.5 -56.5 60.5 -153.5h-121q0 52 -33.5 81.5t-91.5 29.5q-65 0 -118 -47t-69 -136q-4 -23 -4 -48q0 -67 35.5 -101.5t91.5 -34.5q57 0 101 30t63 82h121q-34 -97 -114 -154t-187 -57q-105 0 -167 60t-62 165q0 31 6 67q15 84 60.5 145.5t112.5 94.5t146 33
q108 0 169.5 -56.5zM527 707l-241 -113l14 80l243 122z" />
    <glyph glyph-name="Cdotaccent" unicode="&#x10a;" horiz-adv-x="761" 
d="M658.5 647q74.5 -66 83.5 -179h-120q-13 64 -61 101.5t-127 37.5q-63 0 -118.5 -31t-94 -88.5t-51.5 -134.5q-6 -31 -6 -61q0 -89 49.5 -140.5t131.5 -51.5q78 0 139.5 37.5t97.5 100.5h120q-50 -113 -147 -178.5t-227 -65.5q-87 0 -151 35t-97.5 98t-33.5 147q0 41 7 79
q18 105 74.5 186.5t141.5 127.5t185 46q130 0 204.5 -66zM441 875q19 16 42 16q21 0 34.5 -12.5t13.5 -32.5q0 -27 -20 -47t-47 -20q-20 0 -33.5 13t-13.5 33q0 6 1 10q4 24 23 40z" />
    <glyph glyph-name="cdotaccent" unicode="&#x10b;" horiz-adv-x="620" 
d="M532.5 501.5q61.5 -56.5 60.5 -153.5h-121q0 52 -33.5 81.5t-91.5 29.5q-65 0 -118 -47t-69 -136q-4 -23 -4 -48q0 -67 35.5 -101.5t91.5 -34.5q57 0 101 30t63 82h121q-34 -97 -114 -154t-187 -57q-105 0 -167 60t-62 165q0 31 6 67q15 84 60.5 145.5t112.5 94.5t146 33
q108 0 169.5 -56.5zM339 720q19 16 42 16q21 0 34.5 -12.5t13.5 -32.5q0 -27 -20 -47t-47 -20q-20 0 -33.5 13t-13.5 33q0 6 1 10q4 24 23 40z" />
    <glyph glyph-name="Ccaron" unicode="&#x10c;" horiz-adv-x="761" 
d="M655.5 647q74.5 -66 83.5 -179h-120q-13 64 -61 101.5t-127 37.5q-63 0 -118.5 -31t-94 -88.5t-51.5 -134.5q-6 -31 -6 -61q0 -89 49.5 -140.5t131.5 -51.5q78 0 139.5 37.5t97.5 100.5h120q-50 -113 -147 -178.5t-227 -65.5q-87 0 -151 35t-97.5 98t-33.5 147q0 41 7 79
q18 105 74.5 186.5t141.5 127.5t185 46q130 0 204.5 -66zM616 843l-158 -83l-129 83l14 78l129 -84l158 84z" />
    <glyph glyph-name="ccaron" unicode="&#x10d;" horiz-adv-x="620" 
d="M530.5 501.5q61.5 -56.5 60.5 -153.5h-121q0 52 -33.5 81.5t-91.5 29.5q-65 0 -118 -47t-69 -136q-4 -23 -4 -48q0 -67 35.5 -101.5t91.5 -34.5q57 0 101 30t63 82h121q-34 -97 -114 -154t-187 -57q-105 0 -167 60t-62 165q0 31 6 67q15 84 60.5 145.5t112.5 94.5t146 33
q108 0 169.5 -56.5zM513 688l-158 -83l-129 83l14 78l129 -84l158 84z" />
    <glyph glyph-name="Dcaron" unicode="&#x10e;" horiz-adv-x="721" 
d="M597.5 167.5q-57.5 -79.5 -148.5 -123.5t-207 -44h-236l124 706h236q152 0 233.5 -72.5t81.5 -200.5q0 -40 -7 -79q-19 -107 -76.5 -186.5zM457.5 168.5q79.5 65.5 100.5 185.5q6 32 6 60q0 92 -57.5 141.5t-167.5 49.5h-112l-89 -502h112q128 0 207.5 65.5zM602 843
l-158 -83l-129 83l14 78l129 -84l158 84z" />
    <glyph glyph-name="dcaron" unicode="&#x10f;" horiz-adv-x="758" 
d="M685 740l-131 -740h-115l23 128q-32 -61 -91.5 -98t-134.5 -37q-93 0 -149.5 59t-56.5 162q0 27 7 71q15 84 57.5 145.5t104 94.5t132.5 33q77 0 124.5 -37t58.5 -98l56 317h115zM830 706q0 -33 -5 -66q-10 -60 -44.5 -92t-90.5 -32l8 48q26 0 41 14.5t20 43.5l4 21h-54
l17 97h103q1 -12 1 -34zM222.5 409q-54.5 -49 -69.5 -133q-4 -21 -4 -45q0 -65 37 -101t102 -36q74 0 130 49.5t71 132.5q4 28 4 40q0 66 -38 104t-102 38q-76 0 -130.5 -49z" />
    <glyph glyph-name="Dcroat" unicode="&#x110;" horiz-adv-x="742" 
d="M635.5 633q81.5 -73 81.5 -201q0 -40 -7 -78q-19 -107 -76.5 -187t-148.5 -123.5t-208 -43.5h-236l54 308h-85l17 92h84l54 306h236q153 0 234.5 -73zM599 415q0 91 -57.5 140.5t-167.5 49.5h-112l-36 -205h185l-17 -92h-185l-36 -205h113q127 0 207 66t100 185
q6 32 6 61z" />
    <glyph glyph-name="dcroat" unicode="&#x111;" horiz-adv-x="671" 
d="M716 623h-52l-110 -623h-115l23 128q-32 -61 -91.5 -98t-134.5 -37q-93 0 -149.5 59t-56.5 162q0 27 7 71q15 84 57.5 145.5t104 94.5t132.5 33q77 0 124.5 -37t58.5 -98l35 200h-150l9 54h151l11 63h115l-11 -63h51zM493 316q0 66 -38 104t-102 38q-76 0 -130.5 -49
t-69.5 -133q-4 -21 -4 -45q0 -65 37 -101t102 -36q74 0 130 49.5t71 132.5q4 28 4 40z" />
    <glyph glyph-name="Emacron" unicode="&#x112;" horiz-adv-x="515" 
d="M232 614l-37 -214h259l-16 -88h-259l-38 -219h289l-16 -93h-404l124 706h404l-16 -92h-290zM551 875l-14 -78h-366l14 78h366z" />
    <glyph glyph-name="emacron" unicode="&#x113;" horiz-adv-x="621" 
d="M490 532q51 -26 77.5 -72.5t26.5 -105.5q0 -22 -5 -52q-6 -29 -13 -49h-424q-2 -13 -2 -35q0 -67 35.5 -99.5t93.5 -32.5q57 0 101.5 29t62.5 77h122q-32 -89 -111 -144t-186 -55q-104 0 -166 59t-62 162q0 33 6 67q15 85 61 147.5t113.5 96t147.5 33.5q71 0 122 -26z
M480 349q0 58 -36.5 88t-91.5 30q-67 0 -119.5 -41t-69.5 -121h312q5 20 5 44zM566 720l-14 -78h-366l14 78h366z" />
    <glyph glyph-name="Ebreve" unicode="&#x114;" horiz-adv-x="515" 
d="M228 614l-37 -214h259l-16 -88h-259l-38 -219h289l-16 -93h-404l124 706h404l-16 -92h-290zM247.5 794.5q-33.5 31.5 -33.5 85.5q0 16 3 34l2 10h59q-2 -12 -2 -18q0 -59 80 -59q92 0 106 77h59l-2 -10q-12 -68 -59.5 -109.5t-117.5 -41.5q-61 0 -94.5 31.5z" />
    <glyph glyph-name="ebreve" unicode="&#x115;" horiz-adv-x="622" 
d="M486 532q51 -26 77.5 -72.5t26.5 -105.5q0 -22 -5 -52q-6 -29 -13 -49h-424q-2 -13 -2 -35q0 -67 35.5 -99.5t93.5 -32.5q57 0 101.5 29t62.5 77h122q-32 -89 -111 -144t-186 -55q-104 0 -166 59t-62 162q0 33 6 67q15 85 61 147.5t113.5 96t147.5 33.5q71 0 122 -26z
M476 349q0 58 -36.5 88t-91.5 30q-67 0 -119.5 -41t-69.5 -121h312q5 20 5 44zM262.5 639.5q-33.5 31.5 -33.5 85.5q0 16 3 34l2 10h59q-2 -12 -2 -18q0 -59 80 -59q92 0 106 77h59l-2 -10q-12 -68 -59.5 -109.5t-117.5 -41.5q-61 0 -94.5 31.5z" />
    <glyph glyph-name="Edotaccent" unicode="&#x116;" horiz-adv-x="515" 
d="M230 614l-37 -214h259l-16 -88h-259l-38 -219h289l-16 -93h-404l124 706h404l-16 -92h-290zM326 875q19 16 42 16q21 0 34.5 -12.5t13.5 -32.5q0 -27 -20 -47t-47 -20q-20 0 -33.5 13t-13.5 33q0 6 1 10q4 24 23 40z" />
    <glyph glyph-name="edotaccent" unicode="&#x117;" horiz-adv-x="621" 
d="M489 532q51 -26 77.5 -72.5t26.5 -105.5q0 -22 -5 -52q-6 -29 -13 -49h-424q-2 -13 -2 -35q0 -67 35.5 -99.5t93.5 -32.5q57 0 101.5 29t62.5 77h122q-32 -89 -111 -144t-186 -55q-104 0 -166 59t-62 162q0 33 6 67q15 85 61 147.5t113.5 96t147.5 33.5q71 0 122 -26z
M479 349q0 58 -36.5 88t-91.5 30q-67 0 -119.5 -41t-69.5 -121h312q5 20 5 44zM341 720q19 16 42 16q21 0 34.5 -12.5t13.5 -32.5q0 -27 -20 -47t-47 -20q-20 0 -33.5 13t-13.5 33q0 6 1 10q4 24 23 40z" />
    <glyph glyph-name="Eogonek" unicode="&#x118;" horiz-adv-x="515" 
d="M226 614l-37 -214h259l-16 -88h-259l-38 -219h289l-16 -93h-404l124 706h404l-16 -92h-290zM417 51l-11 -58h-62q-32 0 -52 -14t-20 -38q0 -20 15 -31t41 -11h104l-12 -64h-115q-51 0 -82.5 23.5t-31.5 66.5q0 60 42 93t102 33h82z" />
    <glyph glyph-name="eogonek" unicode="&#x119;" horiz-adv-x="622" 
d="M541.5 501q59.5 -57 59.5 -149q0 -27 -4 -50q-4 -19 -13 -49h-424q-2 -12 -2 -34q0 -67 36.5 -100t92.5 -33q58 0 102 29t62 77h121q-27 -75 -91 -127.5t-148 -65.5q-23 -4 -27 -24q-3 -19 12.5 -31t47.5 -12h95l-11 -64h-111q-51 0 -82.5 22t-31.5 65q0 7 2 21l4 22
q-85 11 -134.5 67t-49.5 146q0 31 6 65q15 86 60.5 150t113.5 98t148 34q107 0 166.5 -57zM488 350q0 57 -37 87t-92 30q-67 0 -119 -41t-69 -121h311q6 24 6 45z" />
    <glyph glyph-name="Ecaron" unicode="&#x11a;" horiz-adv-x="515" 
d="M228 614l-37 -214h259l-16 -88h-259l-38 -219h289l-16 -93h-404l124 706h404l-16 -92h-290zM501 843l-158 -83l-129 83l14 78l129 -84l158 84z" />
    <glyph glyph-name="ecaron" unicode="&#x11b;" horiz-adv-x="622" 
d="M486 532q51 -26 77.5 -72.5t26.5 -105.5q0 -22 -5 -52q-6 -29 -13 -49h-424q-2 -13 -2 -35q0 -67 35.5 -99.5t93.5 -32.5q57 0 101.5 29t62.5 77h122q-32 -89 -111 -144t-186 -55q-104 0 -166 59t-62 162q0 33 6 67q15 85 61 147.5t113.5 96t147.5 33.5q71 0 122 -26z
M476 349q0 58 -36.5 88t-91.5 30q-67 0 -119.5 -41t-69.5 -121h312q5 20 5 44zM516 688l-158 -83l-129 83l14 78l129 -84l158 84z" />
    <glyph glyph-name="Gbreve" unicode="&#x11e;" horiz-adv-x="773" 
d="M650.5 649q72.5 -63 84.5 -168h-121q-12 57 -58.5 91t-118.5 34q-66 0 -124 -31t-98 -88.5t-53 -133.5q-6 -33 -6 -63q0 -93 54 -144t148 -51q88 0 160 54t102 150h-259l15 84h356l-19 -109q-25 -82 -79 -145.5t-132 -99.5t-173 -36q-90 0 -155.5 35.5t-100.5 100.5
t-35 150q0 40 7 79q18 103 75.5 183.5t144 125.5t189.5 45q124 0 196.5 -63zM364.5 794.5q-33.5 31.5 -33.5 85.5q0 16 3 34l2 10h59q-2 -12 -2 -18q0 -59 80 -59q92 0 106 77h59l-2 -10q-12 -68 -59.5 -109.5t-117.5 -41.5q-61 0 -94.5 31.5z" />
    <glyph glyph-name="gbreve" unicode="&#x11f;" horiz-adv-x="675" 
d="M79.5 51q-56.5 59 -56.5 163q0 27 7 71q15 84 57.5 146t104.5 95t133 33q77 0 124.5 -37t58.5 -99l23 128h113l-98 -557q-14 -77 -55 -136.5t-105.5 -93.5t-143.5 -34q-114 0 -177 55t-69 149h113q6 -49 41 -76.5t98 -27.5q68 0 119 42t65 122l24 134
q-32 -61 -91.5 -98.5t-134.5 -37.5q-94 0 -150.5 59zM216 409.5q-54 -48.5 -69 -133.5q-4 -21 -4 -45q0 -65 37 -101t102 -36q73 0 129 49.5t71 132.5q4 19 4 41q0 65 -38.5 103t-101.5 38q-76 0 -130 -48.5zM284.5 639.5q-33.5 31.5 -33.5 85.5q0 16 3 34l2 10h59
q-2 -12 -2 -18q0 -59 80 -59q92 0 106 77h59l-2 -10q-12 -68 -59.5 -109.5t-117.5 -41.5q-61 0 -94.5 31.5z" />
    <glyph glyph-name="Gdotaccent" unicode="&#x120;" horiz-adv-x="773" 
d="M653.5 649q72.5 -63 84.5 -168h-121q-12 57 -58.5 91t-118.5 34q-66 0 -124 -31t-98 -88.5t-53 -133.5q-6 -33 -6 -63q0 -93 54 -144t148 -51q88 0 160 54t102 150h-259l15 84h356l-19 -109q-25 -82 -79 -145.5t-132 -99.5t-173 -36q-90 0 -155.5 35.5t-100.5 100.5
t-35 150q0 40 7 79q18 103 75.5 183.5t144 125.5t189.5 45q124 0 196.5 -63zM443 875q19 16 42 16q21 0 34.5 -12.5t13.5 -32.5q0 -27 -20 -47t-47 -20q-20 0 -33.5 13t-13.5 33q0 6 1 10q4 24 23 40z" />
    <glyph glyph-name="gdotaccent" unicode="&#x121;" horiz-adv-x="675" 
d="M82.5 51q-56.5 59 -56.5 163q0 27 7 71q15 84 57.5 146t104.5 95t133 33q77 0 124.5 -37t58.5 -99l23 128h113l-98 -557q-14 -77 -55 -136.5t-105.5 -93.5t-143.5 -34q-114 0 -177 55t-69 149h113q6 -49 41 -76.5t98 -27.5q68 0 119 42t65 122l24 134
q-32 -61 -91.5 -98.5t-134.5 -37.5q-94 0 -150.5 59zM219 409.5q-54 -48.5 -69 -133.5q-4 -21 -4 -45q0 -65 37 -101t102 -36q73 0 129 49.5t71 132.5q4 19 4 41q0 65 -38.5 103t-101.5 38q-76 0 -130 -48.5zM364 720q19 16 42 16q21 0 34.5 -12.5t13.5 -32.5q0 -27 -20 -47
t-47 -20q-20 0 -33.5 13t-13.5 33q0 6 1 10q4 24 23 40z" />
    <glyph glyph-name="uni0122" unicode="&#x122;" horiz-adv-x="776" 
d="M652.5 649q72.5 -63 84.5 -168h-121q-12 57 -58.5 91t-118.5 34q-66 0 -124 -31t-98 -88.5t-53 -133.5q-6 -33 -6 -63q0 -93 54 -144t148 -51q88 0 160 54t102 150h-259l15 84h356l-19 -109q-25 -82 -79 -145.5t-132 -99.5t-173 -36q-90 0 -155.5 35.5t-100.5 100.5
t-35 150q0 40 7 79q18 103 75.5 183.5t144 125.5t189.5 45q124 0 196.5 -63zM395 -84q0 -16 -4 -44q-11 -62 -45.5 -95t-89.5 -33l8 46q49 0 61 64l1 9h-50l16 89h100q3 -18 3 -36z" />
    <glyph glyph-name="uni0123" unicode="&#x123;" horiz-adv-x="675" 
d="M348 631q0 32 5 65q11 59 45.5 91.5t89.5 32.5l-9 -47q-49 0 -60 -59l-4 -21h54l-17 -97h-103q-1 12 -1 35zM79.5 51q-56.5 59 -56.5 163q0 27 7 71q15 84 57.5 146t104.5 95t133 33q77 0 124.5 -37t58.5 -99l23 128h113l-98 -557q-14 -77 -55 -136.5t-105.5 -93.5
t-143.5 -34q-114 0 -177 55t-69 149h113q6 -49 41 -76.5t98 -27.5q68 0 119 42t65 122l24 134q-32 -61 -91.5 -98.5t-134.5 -37.5q-94 0 -150.5 59zM216 409.5q-54 -48.5 -69 -133.5q-4 -21 -4 -45q0 -65 37 -101t102 -36q73 0 129 49.5t71 132.5q4 19 4 41q0 65 -38.5 103
t-101.5 38q-76 0 -130 -48.5z" />
    <glyph glyph-name="Itilde" unicode="&#x128;" horiz-adv-x="252" 
d="M252 706l-124 -706h-114l124 706h114zM204 873.5q14 -6.5 33 -20.5q14 -11 25 -16t24 -5q18 0 32 12t21 35h61q-19 -58 -52.5 -87t-76.5 -29q-21 0 -36.5 7t-33.5 20q-17 11 -25.5 15.5t-21.5 4.5q-36 0 -52 -47h-60q39 117 128 117q20 0 34 -6.5z" />
    <glyph glyph-name="itilde" unicode="&#x129;" horiz-adv-x="252" 
d="M237 551l-98 -551h-115l98 551h115zM188 718.5q14 -6.5 33 -20.5q14 -11 25 -16t24 -5q18 0 32 12t21 35h61q-19 -58 -52.5 -87t-76.5 -29q-21 0 -36.5 7t-33.5 20q-17 11 -25.5 15.5t-21.5 4.5q-36 0 -52 -47h-60q39 117 128 117q20 0 34 -6.5z" />
    <glyph glyph-name="Imacron" unicode="&#x12a;" horiz-adv-x="252" 
d="M253 706l-124 -706h-114l124 706h114zM411 875l-14 -78h-366l14 78h366z" />
    <glyph glyph-name="imacron" unicode="&#x12b;" horiz-adv-x="257" 
d="M238 551l-98 -551h-115l98 551h115zM387 720l-14 -78h-366l14 78h366z" />
    <glyph glyph-name="uni012C" unicode="&#x12c;" horiz-adv-x="252" 
d="M248 706l-124 -706h-114l124 706h114zM108.5 794.5q-33.5 31.5 -33.5 85.5q0 16 3 34l2 10h59q-2 -12 -2 -18q0 -59 80 -59q92 0 106 77h59l-2 -10q-12 -68 -59.5 -109.5t-117.5 -41.5q-61 0 -94.5 31.5z" />
    <glyph glyph-name="uni012D" unicode="&#x12d;" horiz-adv-x="252" 
d="M234 551l-98 -551h-115l98 551h115zM93.5 639.5q-33.5 31.5 -33.5 85.5q0 16 3 34l2 10h59q-2 -12 -2 -18q0 -59 80 -59q92 0 106 77h59l-2 -10q-12 -68 -59.5 -109.5t-117.5 -41.5q-61 0 -94.5 31.5z" />
    <glyph glyph-name="Iogonek" unicode="&#x12e;" horiz-adv-x="252" 
d="M244 706l-124 -706h-114l124 706h114zM124 15l-11 -58h-62q-32 0 -52 -14t-20 -38q0 -20 15 -31t41 -11h104l-12 -64h-115q-51 0 -82.5 23.5t-31.5 66.5q0 60 42 93t102 33h82z" />
    <glyph glyph-name="iogonek" unicode="&#x12f;" horiz-adv-x="247" 
d="M147 755q25 23 62 23q29 0 45.5 -15t16.5 -39q0 -34 -24.5 -56t-61.5 -22q-30 0 -46.5 15t-16.5 39q0 32 25 55zM226 551l-98 -551h-114l97 551h115zM135 15l-11 -58h-62q-32 0 -52 -14t-20 -38q0 -20 15 -31t41 -11h104l-12 -64h-115q-51 0 -82.5 23.5t-31.5 66.5
q0 60 42 93t102 33h82z" />
    <glyph glyph-name="Idotaccent" unicode="&#x130;" horiz-adv-x="252" 
d="M251 706l-124 -706h-114l124 706h114zM187 875q19 16 42 16q21 0 34.5 -12.5t13.5 -32.5q0 -27 -20 -47t-47 -20q-20 0 -33.5 13t-13.5 33q0 6 1 10q4 24 23 40z" />
    <glyph glyph-name="dotlessi" unicode="&#x131;" horiz-adv-x="247" 
d="M230 551l-98 -551h-115l98 551h115z" />
    <glyph glyph-name="uni0136" unicode="&#x136;" horiz-adv-x="613" 
d="M286 357l248 -357h-139l-221 328l-58 -328h-114l124 706h114l-57 -324l337 324h138zM317 -48q3 -18 3 -36q0 -16 -4 -44q-11 -62 -45.5 -95t-88.5 -33l8 46q48 0 60 64l1 9h-50l16 89h100z" />
    <glyph glyph-name="uni0137" unicode="&#x137;" horiz-adv-x="527" 
d="M272 281l192 -281h-136l-153 248l-44 -248h-115l130 740h115l-73 -418l234 229h138zM257 -48q2 -11 2 -34q0 -26 -4 -46q-11 -62 -45.5 -95t-88.5 -33l8 46q49 0 60 64l2 9h-50l15 89h101z" />
    <glyph glyph-name="Lacute" unicode="&#x139;" horiz-adv-x="447" 
d="M133 89h243l-15 -89h-358l124 706h114zM417 862l-241 -113l14 80l243 122z" />
    <glyph glyph-name="lacute" unicode="&#x13a;" horiz-adv-x="252" 
d="M262 740l-130 -740h-115l130 740h115zM388 884l-241 -113l14 80l243 122z" />
    <glyph glyph-name="uni013B" unicode="&#x13b;" horiz-adv-x="450" 
d="M132 89h243l-15 -89h-358l124 706h114zM263 -89q0 -21 -3 -39q-11 -62 -46 -95t-89 -33l8 46q25 0 39.5 16t20.5 48l2 9h-51l16 89h100q3 -21 3 -41z" />
    <glyph glyph-name="uni013C" unicode="&#x13c;" horiz-adv-x="252" 
d="M265 740l-130 -740h-115l130 740h115zM128 -79q0 -19 -4 -49q-11 -62 -45.5 -95t-88.5 -33l8 46q49 0 60 64l2 9h-51l16 89h101q2 -10 2 -31z" />
    <glyph glyph-name="Lcaron" unicode="&#x13d;" horiz-adv-x="481" 
d="M135 89h243l-15 -89h-358l124 706h114zM463 667q0 -29 -5 -61q-11 -60 -45.5 -92t-89.5 -32l9 48q25 0 39.5 14t20.5 44l3 21h-54l17 97h103q2 -28 2 -39z" />
    <glyph glyph-name="lcaron" unicode="&#x13e;" horiz-adv-x="334" 
d="M263 740l-130 -740h-115l130 740h115zM419 702q0 -33 -6 -62q-10 -60 -44.5 -92t-89.5 -32l9 48q50 0 60 58l3 21h-54l17 97h103q2 -26 2 -38z" />
    <glyph glyph-name="Ldot" unicode="&#x13f;" horiz-adv-x="447" 
d="M135 89h243l-15 -89h-358l124 706h114zM306 393q19 16 42 16q21 0 34.5 -12.5t13.5 -32.5q0 -27 -20 -47t-47 -20q-20 0 -33.5 13t-13.5 33q0 6 1 10q4 24 23 40z" />
    <glyph glyph-name="ldot" unicode="&#x140;" horiz-adv-x="325" 
d="M257 740l-130 -740h-115l130 740h115zM268 410q19 16 42 16q21 0 34.5 -12.5t13.5 -32.5q0 -27 -20 -47t-47 -20q-20 0 -33.5 13t-13.5 33q0 6 1 10q4 24 23 40z" />
    <glyph glyph-name="Lslash" unicode="&#x141;" horiz-adv-x="465" 
d="M398 89l-15 -89h-359l52 297l-81 -28l20 113l81 28l52 296h115l-45 -254l129 45l-20 -113l-129 -45l-44 -250h244z" />
    <glyph glyph-name="lslash" unicode="&#x142;" horiz-adv-x="263" 
d="M282 431l-80 -29l-71 -402h-115l63 357l-81 -29l20 111l80 29l48 272h115l-40 -227l81 29z" />
    <glyph glyph-name="Nacute" unicode="&#x143;" horiz-adv-x="709" 
d="M574 0h-114l-251 521l-92 -521h-114l124 705h114l251 -523l92 523h114zM598 862l-241 -113l14 80l243 122z" />
    <glyph glyph-name="nacute" unicode="&#x144;" horiz-adv-x="653" 
d="M556 514.5q47 -45.5 47 -130.5q0 -30 -6 -63l-56 -321h-114l54 309q4 19 4 40q0 56 -31.5 85.5t-87.5 29.5q-68 0 -116 -43.5t-63 -127.5v3l-52 -296h-115l97 551h115l-21 -122q32 63 89.5 97t127.5 34q81 0 128 -45.5zM550 707l-241 -113l14 80l243 122z" />
    <glyph glyph-name="uni0145" unicode="&#x145;" horiz-adv-x="710" 
d="M575 0h-114l-251 521l-92 -521h-114l124 705h114l251 -523l92 523h114zM366 -85q0 -24 -4 -43q-11 -62 -45.5 -95t-88.5 -33l8 46q48 0 59 64l2 9h-50l16 89h100q3 -18 3 -37z" />
    <glyph glyph-name="uni0146" unicode="&#x146;" horiz-adv-x="653" 
d="M553 514.5q47 -45.5 47 -130.5q0 -30 -6 -63l-56 -321h-114l54 309q4 19 4 40q0 56 -31.5 85.5t-87.5 29.5q-68 0 -116 -43.5t-63 -127.5v3l-52 -296h-115l97 551h115l-21 -122q32 63 89.5 97t127.5 34q81 0 128 -45.5zM350 -48q3 -18 3 -37q0 -24 -4 -43
q-11 -62 -45.5 -95t-88.5 -33l8 46q49 0 60 64l1 9h-50l16 89h100z" />
    <glyph glyph-name="Ncaron" unicode="&#x147;" horiz-adv-x="709" 
d="M577 0h-114l-251 521l-92 -521h-114l124 705h114l251 -523l92 523h114zM584 843l-158 -83l-129 83l14 78l129 -84l158 84z" />
    <glyph glyph-name="ncaron" unicode="&#x148;" horiz-adv-x="653" 
d="M559 514.5q47 -45.5 47 -130.5q0 -30 -6 -63l-56 -321h-114l54 309q4 19 4 40q0 56 -31.5 85.5t-87.5 29.5q-68 0 -116 -43.5t-63 -127.5v3l-52 -296h-115l97 551h115l-21 -122q32 63 89.5 97t127.5 34q81 0 128 -45.5zM537 688l-158 -83l-129 83l14 78l129 -84l158 84z
" />
    <glyph glyph-name="Omacron" unicode="&#x14c;" horiz-adv-x="783" 
d="M605 678q68 -37 104.5 -105t36.5 -157q0 -42 -7 -81q-17 -100 -72 -178t-138.5 -121.5t-183.5 -43.5q-94 0 -162 37t-104.5 104t-36.5 156q0 38 8 84q17 100 72.5 177.5t138.5 121t183 43.5q93 0 161 -37zM311.5 578.5q-57.5 -30.5 -96.5 -87t-53 -132.5q-5 -26 -5 -59
q0 -94 53 -147.5t145 -53.5q66 0 123 30.5t96.5 87t52.5 132.5q5 26 5 60q0 93 -53 146.5t-144 53.5q-66 0 -123.5 -30.5zM677 875l-14 -78h-366l14 78h366z" />
    <glyph glyph-name="omacron" unicode="&#x14d;" horiz-adv-x="642" 
d="M551 497.5q65 -60.5 65 -166.5q0 -30 -6 -65q-15 -83 -62 -145t-115.5 -95t-147.5 -33q-71 0 -125.5 27t-84.5 78.5t-30 122.5q0 30 6 64q15 83 62 145t116.5 95t148.5 33q108 0 173 -60.5zM239 412q-56 -47 -72 -136q-4 -23 -4 -46q0 -68 38 -102.5t97 -34.5
q69 0 124.5 46.5t71.5 136.5q4 21 4 45q0 68 -38 103t-97 35q-68 0 -124 -47zM580 720l-14 -78h-366l14 78h366z" />
    <glyph glyph-name="uni014E" unicode="&#x14e;" horiz-adv-x="783" 
d="M598 678q68 -37 104.5 -105t36.5 -157q0 -42 -7 -81q-17 -100 -72 -178t-138.5 -121.5t-183.5 -43.5q-94 0 -162 37t-104.5 104t-36.5 156q0 38 8 84q17 100 72.5 177.5t138.5 121t183 43.5q93 0 161 -37zM304.5 578.5q-57.5 -30.5 -96.5 -87t-53 -132.5q-5 -26 -5 -59
q0 -94 53 -147.5t145 -53.5q66 0 123 30.5t96.5 87t52.5 132.5q5 26 5 60q0 93 -53 146.5t-144 53.5q-66 0 -123.5 -30.5zM369.5 794.5q-33.5 31.5 -33.5 85.5q0 16 3 34l2 10h59q-2 -12 -2 -18q0 -59 80 -59q92 0 106 77h59l-2 -10q-12 -68 -59.5 -109.5t-117.5 -41.5
q-61 0 -94.5 31.5z" />
    <glyph glyph-name="uni014F" unicode="&#x14f;" horiz-adv-x="642" 
d="M542 497.5q65 -60.5 65 -166.5q0 -30 -6 -65q-15 -83 -62 -145t-115.5 -95t-147.5 -33q-71 0 -125.5 27t-84.5 78.5t-30 122.5q0 30 6 64q15 83 62 145t116.5 95t148.5 33q108 0 173 -60.5zM230 412q-56 -47 -72 -136q-4 -23 -4 -46q0 -68 38 -102.5t97 -34.5
q69 0 124.5 46.5t71.5 136.5q4 21 4 45q0 68 -38 103t-97 35q-68 0 -124 -47zM272.5 639.5q-33.5 31.5 -33.5 85.5q0 16 3 34l2 10h59q-2 -12 -2 -18q0 -59 80 -59q92 0 106 77h59l-2 -10q-12 -68 -59.5 -109.5t-117.5 -41.5q-61 0 -94.5 31.5z" />
    <glyph glyph-name="Ohungarumlaut" unicode="&#x150;" horiz-adv-x="783" 
d="M598 678q68 -37 104.5 -105t36.5 -157q0 -42 -7 -81q-17 -100 -72 -178t-138.5 -121.5t-183.5 -43.5q-94 0 -162 37t-104.5 104t-36.5 156q0 38 8 84q17 100 72.5 177.5t138.5 121t183 43.5q93 0 161 -37zM304.5 578.5q-57.5 -30.5 -96.5 -87t-53 -132.5q-5 -26 -5 -59
q0 -94 53 -147.5t145 -53.5q66 0 123 30.5t96.5 87t52.5 132.5q5 26 5 60q0 93 -53 146.5t-144 53.5q-66 0 -123.5 -30.5zM411 756h-73l99 170h92zM574 756h-73l114 170h91z" />
    <glyph glyph-name="ohungarumlaut" unicode="&#x151;" horiz-adv-x="642" 
d="M547 497.5q65 -60.5 65 -166.5q0 -30 -6 -65q-15 -83 -62 -145t-115.5 -95t-147.5 -33q-71 0 -125.5 27t-84.5 78.5t-30 122.5q0 30 6 64q15 83 62 145t116.5 95t148.5 33q108 0 173 -60.5zM235 412q-56 -47 -72 -136q-4 -23 -4 -46q0 -68 38 -102.5t97 -34.5
q69 0 124.5 46.5t71.5 136.5q4 21 4 45q0 68 -38 103t-97 35q-68 0 -124 -47zM324 601h-73l99 170h92zM487 601h-73l114 170h91z" />
    <glyph glyph-name="OE" unicode="&#x152;" horiz-adv-x="1080" 
d="M756 400h259l-15 -88h-259l-39 -219h289l-16 -93h-404l25 145q-40 -70 -114 -111.5t-158 -43.5q-86 0 -150.5 36.5t-99.5 103t-35 153.5q0 40 7 79q18 103 74 183t141 125t186 45q85 0 146 -42t77 -113l25 146h404l-16 -92h-289zM476.5 127q58.5 31 98 89t53.5 136
q5 26 5 59q0 92 -52 145t-140 53q-67 0 -125 -30.5t-97.5 -88t-52.5 -133.5q-6 -33 -6 -62q0 -92 51.5 -145.5t139.5 -53.5q67 0 125.5 31z" />
    <glyph glyph-name="oe" unicode="&#x153;" horiz-adv-x="1066" 
d="M929 532q51 -26 77.5 -72.5t26.5 -105.5q0 -22 -5 -52q-6 -29 -13 -49h-423q-3 -19 -3 -37q0 -66 36 -98t93 -32t101.5 29t63.5 77h121q-32 -88 -112.5 -143.5t-184.5 -55.5q-75 0 -126 33.5t-70 94.5q-40 -61 -104.5 -94.5t-139.5 -33.5q-107 0 -171.5 59t-64.5 162
q0 29 6 62q15 86 62.5 150t117 98t149.5 34q75 0 128 -33.5t72 -94.5q40 61 103 94.5t138 33.5q71 0 122 -26zM919 349q0 58 -36.5 88t-91.5 30q-67 0 -119.5 -41t-69.5 -121h312q5 20 5 44zM484 321q0 68 -38 103t-97 35q-44 0 -85 -20t-70.5 -61.5t-40.5 -101.5
q-4 -23 -4 -46q0 -68 38 -102.5t97 -34.5q69 0 124.5 46.5t71.5 136.5q4 21 4 45z" />
    <glyph glyph-name="Racute" unicode="&#x154;" horiz-adv-x="598" 
d="M535 660.5q53 -45.5 53 -123.5q0 -25 -4 -46q-14 -83 -70 -136t-147 -68l135 -287h-128l-126 282h-81l-50 -282h-114l124 706h249q106 0 159 -45.5zM470 514q0 94 -120 94h-125l-44 -245h125q140 0 161 122q3 15 3 29zM562 862l-241 -113l14 80l243 122z" />
    <glyph glyph-name="racute" unicode="&#x155;" horiz-adv-x="399" 
d="M308.5 528.5q57.5 31.5 125.5 31.5l-22 -124h-34q-75 0 -127 -36.5t-66 -120.5l-1 1l-49 -280h-115l97 551h115l-19 -108q38 54 95.5 85.5zM448 707l-241 -113l14 80l243 122z" />
    <glyph glyph-name="uni0156" unicode="&#x156;" horiz-adv-x="613" 
d="M520 660.5q53 -45.5 53 -123.5q0 -25 -4 -46q-14 -83 -70 -136t-147 -68l135 -287h-128l-126 282h-81l-50 -282h-114l124 706h249q106 0 159 -45.5zM455 514q0 94 -120 94h-125l-44 -245h125q140 0 161 122q3 15 3 29zM305 -48q3 -18 3 -36q0 -16 -4 -44q-11 -62 -46 -95
t-89 -33l9 46q48 0 59 64l2 9h-50l15 89h101z" />
    <glyph glyph-name="uni0157" unicode="&#x157;" horiz-adv-x="398" 
d="M308.5 528.5q57.5 31.5 125.5 31.5l-22 -124h-34q-75 0 -127 -36.5t-66 -120.5l-1 1l-49 -280h-115l97 551h115l-19 -108q38 54 95.5 85.5zM138 -48q3 -18 3 -37q0 -24 -4 -43q-11 -62 -45.5 -95t-88.5 -33l8 46q49 0 60 64l1 9h-50l16 89h100z" />
    <glyph glyph-name="Rcaron" unicode="&#x158;" horiz-adv-x="598" 
d="M538 660.5q53 -45.5 53 -123.5q0 -25 -4 -46q-14 -83 -70 -136t-147 -68l135 -287h-128l-126 282h-81l-50 -282h-114l124 706h249q106 0 159 -45.5zM473 514q0 94 -120 94h-125l-44 -245h125q140 0 161 122q3 15 3 29zM548 843l-158 -83l-129 83l14 78l129 -84l158 84z
" />
    <glyph glyph-name="rcaron" unicode="&#x159;" horiz-adv-x="399" 
d="M311.5 528.5q57.5 31.5 125.5 31.5l-22 -124h-34q-75 0 -127 -36.5t-66 -120.5l-1 1l-49 -280h-115l97 551h115l-19 -108q38 54 95.5 85.5zM434 688l-158 -83l-129 83l14 78l129 -84l158 84z" />
    <glyph glyph-name="Sacute" unicode="&#x15a;" horiz-adv-x="576" 
d="M459.5 82q-31.5 -40 -84 -64.5t-122.5 -24.5q-75 0 -129 26.5t-81.5 72.5t-26.5 104h121q-2 -46 27.5 -79t90.5 -33q57 0 90 34t33 84q0 34 -18 56.5t-45.5 37t-74.5 32.5q-56 22 -90.5 40.5t-58.5 52.5t-24 87q0 23 4 46q13 73 79.5 117t162.5 44q113 0 170.5 -52.5
t60.5 -135.5h-123q0 40 -27 68.5t-83 28.5q-52 0 -85 -27.5t-33 -78.5q0 -31 17.5 -52t43.5 -34t72 -31q56 -21 91.5 -40.5t60.5 -54.5t25 -90q0 -25 -4 -48q-8 -46 -39.5 -86zM533 862l-241 -113l14 80l243 122z" />
    <glyph glyph-name="sacute" unicode="&#x15b;" horiz-adv-x="532" 
d="M437.5 508.5q56.5 -49.5 58.5 -132.5h-113q1 45 -29.5 72.5t-89.5 27.5q-45 0 -72 -20.5t-27 -55.5q0 -23 16 -38.5t39.5 -24.5t67.5 -22q56 -15 91.5 -30.5t60.5 -45t25 -76.5q0 -19 -4 -38q-11 -59 -65 -95.5t-143 -36.5q-107 0 -169.5 48t-63.5 134h113
q-4 -45 30.5 -73t99.5 -28q45 0 69.5 22t24.5 56q0 26 -17 42.5t-41.5 26t-68.5 22.5q-55 16 -88.5 30t-57 42t-23.5 73q0 16 3 35q11 61 66 98t144 37q107 0 163.5 -49.5zM487 707l-241 -113l14 80l243 122z" />
    <glyph glyph-name="uni015E" unicode="&#x15e;" horiz-adv-x="576" 
d="M463.5 82q-31.5 -40 -84 -64.5t-122.5 -24.5q-75 0 -129 26.5t-81.5 72.5t-26.5 104h121q-2 -46 27.5 -79t90.5 -33q57 0 90 34t33 84q0 34 -18 56.5t-45.5 37t-74.5 32.5q-56 22 -90.5 40.5t-58.5 52.5t-24 87q0 23 4 46q13 73 79.5 117t162.5 44q113 0 170.5 -52.5
t60.5 -135.5h-123q0 40 -27 68.5t-83 28.5q-52 0 -85 -27.5t-33 -78.5q0 -31 17.5 -52t43.5 -34t72 -31q56 -21 91.5 -40.5t60.5 -54.5t25 -90q0 -25 -4 -48q-8 -46 -39.5 -86zM354.5 -78.5q31.5 -20.5 31.5 -64.5q0 -7 -2 -21q-9 -50 -49 -74t-95 -24h-116l11 64h103
q67 0 67 46q0 36 -53 36h-59l22 123h70l-11 -67q49 2 80.5 -18.5z" />
    <glyph glyph-name="uni015F" unicode="&#x15f;" horiz-adv-x="532" 
d="M439.5 508.5q56.5 -49.5 58.5 -132.5h-113q1 45 -29.5 72.5t-89.5 27.5q-45 0 -72 -20.5t-27 -55.5q0 -23 16 -38.5t39.5 -24.5t67.5 -22q56 -15 91.5 -30.5t60.5 -45t25 -76.5q0 -19 -4 -38q-11 -59 -65 -95.5t-143 -36.5q-107 0 -169.5 48t-63.5 134h113
q-4 -45 30.5 -73t99.5 -28q45 0 69.5 22t24.5 56q0 26 -17 42.5t-41.5 26t-68.5 22.5q-55 16 -88.5 30t-57 42t-23.5 73q0 16 3 35q11 61 66 98t144 37q107 0 163.5 -49.5zM359.5 -78.5q31.5 -20.5 31.5 -64.5q0 -7 -2 -21q-9 -50 -49 -74t-95 -24h-116l11 64h103
q67 0 67 46q0 36 -53 36h-59l22 123h70l-11 -67q49 2 80.5 -18.5z" />
    <glyph glyph-name="Scaron" unicode="&#x160;" horiz-adv-x="576" 
d="M462.5 82q-31.5 -40 -84 -64.5t-122.5 -24.5q-75 0 -129 26.5t-81.5 72.5t-26.5 104h121q-2 -46 27.5 -79t90.5 -33q57 0 90 34t33 84q0 34 -18 56.5t-45.5 37t-74.5 32.5q-56 22 -90.5 40.5t-58.5 52.5t-24 87q0 23 4 46q13 73 79.5 117t162.5 44q113 0 170.5 -52.5
t60.5 -135.5h-123q0 40 -27 68.5t-83 28.5q-52 0 -85 -27.5t-33 -78.5q0 -31 17.5 -52t43.5 -34t72 -31q56 -21 91.5 -40.5t60.5 -54.5t25 -90q0 -25 -4 -48q-8 -46 -39.5 -86zM519 843l-158 -83l-129 83l14 78l129 -84l158 84z" />
    <glyph glyph-name="scaron" unicode="&#x161;" horiz-adv-x="532" 
d="M439.5 508.5q56.5 -49.5 58.5 -132.5h-113q1 45 -29.5 72.5t-89.5 27.5q-45 0 -72 -20.5t-27 -55.5q0 -23 16 -38.5t39.5 -24.5t67.5 -22q56 -15 91.5 -30.5t60.5 -45t25 -76.5q0 -19 -4 -38q-11 -59 -65 -95.5t-143 -36.5q-107 0 -169.5 48t-63.5 134h113
q-4 -45 30.5 -73t99.5 -28q45 0 69.5 22t24.5 56q0 26 -17 42.5t-41.5 26t-68.5 22.5q-55 16 -88.5 30t-57 42t-23.5 73q0 16 3 35q11 61 66 98t144 37q107 0 163.5 -49.5zM473 688l-158 -83l-129 83l14 78l129 -84l158 84z" />
    <glyph glyph-name="uni0162" unicode="&#x162;" horiz-adv-x="539" 
d="M585 706l-16 -92h-197l-108 -609q77 -19 77 -74q0 -6 -2 -18q-9 -51 -49.5 -77t-95.5 -26h-113l12 63h102q31 0 46 11t19 32l1 8q0 31 -51 31h-69l116 659h-196l16 92h508z" />
    <glyph glyph-name="uni0163" unicode="&#x163;" horiz-adv-x="384" 
d="M187 182q-3 -18 -3 -31q0 -29 15.5 -40.5t51.5 -11.5h56l-18 -99h-71h-1l-11 -60q49 2 81 -18t32 -61q0 -6 -2 -20q-9 -51 -49.5 -77t-95.5 -26h-115l11 64h102q34 0 51 13t17 36q0 15 -13 24t-40 9h-59l21 125q-80 24 -80 119q0 30 5 56l48 270h-80l18 97h79l24 137h115
l-24 -137h133l-17 -97h-133z" />
    <glyph glyph-name="Tcaron" unicode="&#x164;" horiz-adv-x="539" 
d="M584 706l-16 -92h-197l-108 -614h-115l108 614h-196l16 92h508zM500 843l-158 -83l-129 83l14 78l129 -84l158 84z" />
    <glyph glyph-name="tcaron" unicode="&#x165;" horiz-adv-x="379" 
d="M443 766q0 -29 -4 -50q-11 -57 -44.5 -86t-89.5 -29l9 47q49 0 57 42l4 24h-54l17 97h103q2 -32 2 -45zM245 551h133l-17 -97h-134l-48 -272q-3 -16 -3 -30q0 -29 16 -41t52 -12h56l-19 -99h-70q-74 0 -112.5 30t-38.5 98q0 30 5 56l48 270h-80l17 97h80l24 137h115z" />
    <glyph glyph-name="Utilde" unicode="&#x168;" horiz-adv-x="671" 
d="M244 706l-73 -419q-6 -31 -6 -57q0 -65 34 -97t96 -32q74 0 123.5 46t66.5 140l74 419h114l-73 -419q-26 -145 -114.5 -219.5t-211.5 -74.5q-104 0 -164.5 54.5t-60.5 161.5q0 39 7 78l74 419h114zM409 873.5q14 -6.5 33 -20.5q14 -11 25 -16t24 -5q18 0 32 12t21 35h61
q-19 -58 -52.5 -87t-76.5 -29q-21 0 -36.5 7t-33.5 20q-17 11 -25.5 15.5t-21.5 4.5q-36 0 -52 -47h-60q39 117 128 117q20 0 34 -6.5z" />
    <glyph glyph-name="utilde" unicode="&#x169;" horiz-adv-x="645" 
d="M629 551l-97 -551h-115l21 120q-33 -61 -90.5 -94.5t-125.5 -33.5q-82 0 -129 46t-47 132q0 28 6 61l57 320h114l-55 -308q-4 -20 -4 -41q0 -56 31.5 -85.5t87.5 -29.5q68 0 116 44t63 128v-4l52 296h115zM367 718.5q14 -6.5 33 -20.5q14 -11 25 -16t24 -5q18 0 32 12
t21 35h61q-19 -58 -52.5 -87t-76.5 -29q-21 0 -36.5 7t-33.5 20q-17 11 -25.5 15.5t-21.5 4.5q-36 0 -52 -47h-60q39 117 128 117q20 0 34 -6.5z" />
    <glyph glyph-name="Umacron" unicode="&#x16a;" horiz-adv-x="671" 
d="M244 706l-73 -419q-6 -31 -6 -57q0 -65 34 -97t96 -32q74 0 123.5 46t66.5 140l74 419h114l-73 -419q-26 -145 -114.5 -219.5t-211.5 -74.5q-104 0 -164.5 54.5t-60.5 161.5q0 39 7 78l74 419h114zM617 875l-14 -78h-366l14 78h366z" />
    <glyph glyph-name="umacron" unicode="&#x16b;" horiz-adv-x="645" 
d="M630 551l-97 -551h-115l21 120q-33 -61 -90.5 -94.5t-125.5 -33.5q-82 0 -129 46t-47 132q0 28 6 61l57 320h114l-55 -308q-4 -20 -4 -41q0 -56 31.5 -85.5t87.5 -29.5q68 0 116 44t63 128v-4l52 296h115zM575 720l-14 -78h-366l14 78h366z" />
    <glyph glyph-name="Ubreve" unicode="&#x16c;" horiz-adv-x="671" 
d="M240 706l-73 -419q-6 -31 -6 -57q0 -65 34 -97t96 -32q74 0 123.5 46t66.5 140l74 419h114l-73 -419q-26 -145 -114.5 -219.5t-211.5 -74.5q-104 0 -164.5 54.5t-60.5 161.5q0 39 7 78l74 419h114zM313.5 794.5q-33.5 31.5 -33.5 85.5q0 16 3 34l2 10h59q-2 -12 -2 -18
q0 -59 80 -59q92 0 106 77h59l-2 -10q-12 -68 -59.5 -109.5t-117.5 -41.5q-61 0 -94.5 31.5z" />
    <glyph glyph-name="ubreve" unicode="&#x16d;" horiz-adv-x="645" 
d="M625 551l-97 -551h-115l21 120q-33 -61 -90.5 -94.5t-125.5 -33.5q-82 0 -129 46t-47 132q0 28 6 61l57 320h114l-55 -308q-4 -20 -4 -41q0 -56 31.5 -85.5t87.5 -29.5q68 0 116 44t63 128v-4l52 296h115zM271.5 639.5q-33.5 31.5 -33.5 85.5q0 16 3 34l2 10h59
q-2 -12 -2 -18q0 -59 80 -59q92 0 106 77h59l-2 -10q-12 -68 -59.5 -109.5t-117.5 -41.5q-61 0 -94.5 31.5z" />
    <glyph glyph-name="Uring" unicode="&#x16e;" horiz-adv-x="671" 
d="M235 706l-73 -419q-6 -31 -6 -57q0 -65 34 -97t96 -32q74 0 123.5 46t66.5 140l74 419h114l-73 -419q-26 -145 -114.5 -219.5t-211.5 -74.5q-104 0 -164.5 54.5t-60.5 161.5q0 39 7 78l74 419h114zM502.5 955.5q25.5 -23.5 25.5 -63.5t-18 -70t-48.5 -46t-64.5 -16
q-41 0 -66.5 23.5t-25.5 63.5q0 6 2 22q9 50 45.5 80t83.5 30q41 0 66.5 -23.5zM382.5 913.5q-19.5 -16.5 -24.5 -44.5q-1 -5 -1 -13q0 -22 13.5 -34.5t35.5 -12.5q29 0 49.5 20.5t20.5 53.5q0 22 -13 34.5t-36 12.5q-25 0 -44.5 -16.5z" />
    <glyph glyph-name="uring" unicode="&#x16f;" horiz-adv-x="645" 
d="M621 551l-97 -551h-115l21 120q-33 -61 -90.5 -94.5t-125.5 -33.5q-82 0 -129 46t-47 132q0 28 6 61l57 320h114l-55 -308q-4 -20 -4 -41q0 -56 31.5 -85.5t87.5 -29.5q68 0 116 44t63 128v-4l52 296h115zM461.5 800.5q25.5 -23.5 25.5 -63.5t-18 -70t-48.5 -46
t-64.5 -16q-41 0 -66.5 23.5t-25.5 63.5q0 6 2 22q9 50 45.5 80t83.5 30q41 0 66.5 -23.5zM341.5 758.5q-19.5 -16.5 -24.5 -44.5q-1 -5 -1 -13q0 -22 13.5 -34.5t35.5 -12.5q29 0 49.5 20.5t20.5 53.5q0 22 -13 34.5t-36 12.5q-25 0 -44.5 -16.5z" />
    <glyph glyph-name="Uhungarumlaut" unicode="&#x170;" horiz-adv-x="671" 
d="M240 706l-73 -419q-6 -31 -6 -57q0 -65 34 -97t96 -32q74 0 123.5 46t66.5 140l74 419h114l-73 -419q-26 -145 -114.5 -219.5t-211.5 -74.5q-104 0 -164.5 54.5t-60.5 161.5q0 39 7 78l74 419h114zM327 756h-73l99 170h92zM490 756h-73l114 170h91z" />
    <glyph glyph-name="uhungarumlaut" unicode="&#x171;" horiz-adv-x="645" 
d="M625 551l-97 -551h-115l21 120q-33 -61 -90.5 -94.5t-125.5 -33.5q-82 0 -129 46t-47 132q0 28 6 61l57 320h114l-55 -308q-4 -20 -4 -41q0 -56 31.5 -85.5t87.5 -29.5q68 0 116 44t63 128v-4l52 296h115zM286 601h-73l99 170h92zM449 601h-73l114 170h91z" />
    <glyph glyph-name="Uogonek" unicode="&#x172;" horiz-adv-x="671" 
d="M244 706l-74 -419q-5 -26 -5 -57q0 -65 34 -97t96 -32q72 0 122 44t67 142l74 419h115l-74 -419q-22 -127 -95 -199t-171 -87q-33 -5 -50.5 -20.5t-17.5 -38.5q0 -18 14.5 -28.5t41.5 -10.5h99l-12 -63h-118q-48 0 -77 23.5t-29 65.5q0 7 2 21q3 16 13 29.5t23 18.5
q-79 14 -126 69.5t-47 149.5q0 33 6 70l75 419h114z" />
    <glyph glyph-name="uogonek" unicode="&#x173;" horiz-adv-x="645" 
d="M618 551l-97 -551h-115l21 120q-33 -61 -90.5 -94.5t-125.5 -33.5q-82 0 -129 46t-47 132q0 28 6 61l57 320h114l-55 -308q-4 -20 -4 -41q0 -56 31.5 -85.5t87.5 -29.5q68 0 116 44t63 128v-4l52 296h115zM523 15l-11 -58h-62q-32 0 -52 -14t-20 -38q0 -20 15 -31t41 -11
h104l-12 -64h-115q-51 0 -82.5 23.5t-31.5 66.5q0 60 42 93t102 33h82z" />
    <glyph glyph-name="Wcircumflex" unicode="&#x174;" horiz-adv-x="996" 
d="M1024 706l-300 -706h-140l-53 546l-245 -546h-140l-52 706h125l21 -574l256 574h126l54 -576l223 576h125zM586 846l-158 -84l14 78l158 83l128 -83l-14 -78z" />
    <glyph glyph-name="wcircumflex" unicode="&#x175;" horiz-adv-x="850" 
d="M884 551l-251 -551h-125l-61 428l-213 -428h-126l-54 551h115l25 -446l217 446h121l60 -446l184 446h108zM490 691l-158 -84l14 78l158 83l128 -83l-14 -78z" />
    <glyph glyph-name="Ycircumflex" unicode="&#x176;" horiz-adv-x="618" 
d="M663 706l-314 -449l-45 -257h-115l45 257l-157 449h132l104 -327l220 327h130zM396 846l-158 -84l14 78l158 83l128 -83l-14 -78z" />
    <glyph glyph-name="ycircumflex" unicode="&#x177;" horiz-adv-x="585" 
d="M167 551l94 -405l224 405h127l-477 -813h-127l168 275l-137 538h128zM349 691l-158 -84l14 78l158 83l128 -83l-14 -78z" />
    <glyph glyph-name="Ydieresis" unicode="&#x178;" horiz-adv-x="618" 
d="M665 706l-314 -449l-45 -257h-115l45 257l-157 449h132l104 -327l220 327h130zM273 871.5q20 19.5 47 19.5q21 0 34.5 -12.5t13.5 -32.5q0 -27 -20.5 -47t-47.5 -20q-20 0 -33.5 13t-13.5 33q0 27 20 46.5zM450 871.5q20 19.5 46 19.5q21 0 34.5 -12.5t13.5 -32.5
q0 -27 -20 -47t-47 -20q-21 0 -34 12.5t-13 32.5q0 28 20 47.5z" />
    <glyph glyph-name="Zacute" unicode="&#x179;" horiz-adv-x="554" 
d="M119 93h343l-16 -93h-470l15 89l429 524h-329l16 93h458l-15 -89zM521 862l-241 -113l14 80l243 122z" />
    <glyph glyph-name="zacute" unicode="&#x17a;" horiz-adv-x="459" 
d="M120 96h284l-18 -96h-409l17 91l332 364h-262l18 96h392l-17 -91zM442 707l-241 -113l14 80l243 122z" />
    <glyph glyph-name="Zdotaccent" unicode="&#x17b;" horiz-adv-x="554" 
d="M124 93h343l-16 -93h-470l15 89l429 524h-329l16 93h458l-15 -89zM332 875q19 16 42 16q21 0 34.5 -12.5t13.5 -32.5q0 -27 -20 -47t-47 -20q-20 0 -33.5 13t-13.5 33q0 6 1 10q4 24 23 40z" />
    <glyph glyph-name="zdotaccent" unicode="&#x17c;" horiz-adv-x="459" 
d="M121 96h284l-18 -96h-409l17 91l332 364h-262l18 96h392l-17 -91zM254 720q19 16 42 16q21 0 34.5 -12.5t13.5 -32.5q0 -27 -20 -47t-47 -20q-20 0 -33.5 13t-13.5 33q0 6 1 10q4 24 23 40z" />
    <glyph glyph-name="Zcaron" unicode="&#x17d;" horiz-adv-x="554" 
d="M122 93h343l-16 -93h-470l15 89l429 524h-329l16 93h458l-15 -89zM507 843l-158 -83l-129 83l14 78l129 -84l158 84z" />
    <glyph glyph-name="zcaron" unicode="&#x17e;" horiz-adv-x="460" 
d="M123 96h284l-18 -96h-409l17 91l332 364h-262l18 96h392l-17 -91zM438 688l-158 -83l-129 83l14 78l129 -84l158 84z" />
    <glyph glyph-name="florin" unicode="&#x192;" horiz-adv-x="335" 
d="M335 653.5q-31 -19.5 -44 -63.5l-11 -39h112l-27 -96h-112l-146 -519q-23 -82 -75 -118t-134 -36h-31l26 99h32q27 0 42.5 12t24.5 43l147 519h-65l26 96h66l11 39q27 95 93 138.5t175 43.5l-26 -99q-53 0 -84 -19.5z" />
    <glyph glyph-name="uni01FC" unicode="&#x1fc;" horiz-adv-x="907" 
d="M622 614l-37 -213h254l-16 -88h-254l-39 -220h285l-16 -93h-400l26 148h-252l-108 -148h-126l513 706h471l-17 -92h-284zM506 606l-269 -370h204zM805 862l-241 -113l14 80l243 122z" />
    <glyph glyph-name="uni01FD" unicode="&#x1fd;" horiz-adv-x="1097" 
d="M1013.5 503q53.5 -55 53.5 -145q0 -32 -5 -56q-6 -29 -13 -49h-440q-2 -24 -2 -33q0 -68 38 -102t99 -34t107.5 29t65.5 79h121q-32 -89 -105.5 -144t-168.5 -55q-75 0 -123.5 35.5t-57.5 100.5l-23 -129h-114l23 128q-32 -61 -92 -98t-135 -37q-94 0 -149.5 57
t-55.5 158q0 32 6 68q15 86 58.5 150t106 98t134.5 34q75 0 121.5 -37t57.5 -98l23 128h114l-23 -129q32 66 91.5 101t137.5 35q96 0 149.5 -55zM953 347q0 59 -39.5 89.5t-99.5 30.5q-71 0 -124.5 -40t-72.5 -122h331q5 25 5 42zM499 318q0 64 -38.5 102t-101.5 38
q-76 0 -130 -48.5t-69 -133.5q-4 -21 -4 -45q0 -65 37 -101t102 -36q73 0 129 49.5t71 132.5q4 20 4 42zM771 707l-241 -113l14 80l243 122z" />
    <glyph glyph-name="uni0218" unicode="&#x218;" horiz-adv-x="578" 
d="M462.5 82q-31.5 -40 -84 -64.5t-122.5 -24.5q-75 0 -129 26.5t-81.5 72.5t-26.5 104h121q-2 -46 27.5 -79t90.5 -33q57 0 90 34t33 84q0 34 -18 56.5t-45.5 37t-74.5 32.5q-56 22 -90.5 40.5t-58.5 52.5t-24 87q0 23 4 46q13 73 79.5 117t162.5 44q113 0 170.5 -52.5
t60.5 -135.5h-123q0 40 -27 68.5t-83 28.5q-52 0 -85 -27.5t-33 -78.5q0 -31 17.5 -52t43.5 -34t72 -31q56 -21 91.5 -40.5t60.5 -54.5t25 -90q0 -25 -4 -48q-8 -46 -39.5 -86zM319 -89q0 -23 -4 -39q-11 -62 -46 -95t-89 -33l8 46q49 0 60 64l2 9h-50l15 89h100
q4 -19 4 -41z" />
    <glyph glyph-name="uni0219" unicode="&#x219;" horiz-adv-x="532" 
d="M439.5 508.5q56.5 -49.5 58.5 -132.5h-113q1 45 -29.5 72.5t-89.5 27.5q-45 0 -72 -20.5t-27 -55.5q0 -23 16 -38.5t39.5 -24.5t67.5 -22q56 -15 91.5 -30.5t60.5 -45t25 -76.5q0 -19 -4 -38q-11 -59 -65 -95.5t-143 -36.5q-107 0 -169.5 48t-63.5 134h113
q-4 -45 30.5 -73t99.5 -28q45 0 69.5 22t24.5 56q0 26 -17 42.5t-41.5 26t-68.5 22.5q-55 16 -88.5 30t-57 42t-23.5 73q0 16 3 35q11 61 66 98t144 37q107 0 163.5 -49.5zM282 -84q0 -16 -4 -44q-11 -62 -46 -95t-89 -33l9 46q48 0 60 64l1 9h-50l16 89h100q3 -18 3 -36z
" />
    <glyph glyph-name="uni021A" unicode="&#x21a;" horiz-adv-x="539" 
d="M580 706l-16 -92h-197l-108 -614h-115l108 614h-196l16 92h508zM248 -84q0 -16 -4 -44q-11 -62 -46 -95t-89 -33l9 46q48 0 59 64l2 9h-50l16 89h100q3 -18 3 -36z" />
    <glyph glyph-name="uni021B" unicode="&#x21b;" horiz-adv-x="384" 
d="M193 182q-3 -16 -3 -30q0 -29 16 -41t52 -12h56l-19 -99h-70q-74 0 -112.5 30t-38.5 98q0 30 5 56l48 270h-80l17 97h80l24 137h115l-24 -137h133l-17 -97h-134zM236 -48q3 -18 3 -36q0 -16 -4 -44q-11 -62 -46 -95t-89 -33l9 46q48 0 59 64l2 9h-50l15 89h101z" />
    <glyph glyph-name="uni02BC" unicode="&#x2bc;" horiz-adv-x="197" 
d="M165 765q0 -29 -5 -61q-11 -60 -45.5 -92t-89.5 -32l9 48q50 0 60 58l4 21h-54l16 97h103q2 -28 2 -39z" />
    <glyph glyph-name="circumflex" unicode="&#x2c6;" horiz-adv-x="338" 
d="M230 691l-158 -84l14 78l158 83l128 -83l-14 -78z" />
    <glyph glyph-name="caron" unicode="&#x2c7;" horiz-adv-x="338" 
d="M373 688l-158 -83l-129 83l14 78l129 -84l158 84z" />
    <glyph glyph-name="uni02C9" unicode="&#x2c9;" horiz-adv-x="418" 
d="M459 720l-14 -78h-366l14 78h366z" />
    <glyph glyph-name="breve" unicode="&#x2d8;" horiz-adv-x="353" 
d="M128.5 639.5q-33.5 31.5 -33.5 85.5q0 16 3 34l2 10h59q-2 -12 -2 -18q0 -59 80 -59q92 0 106 77h59l-2 -10q-12 -68 -59.5 -109.5t-117.5 -41.5q-61 0 -94.5 31.5z" />
    <glyph glyph-name="dotaccent" unicode="&#x2d9;" horiz-adv-x="172" 
d="M113 720q19 16 42 16q21 0 34.5 -12.5t13.5 -32.5q0 -27 -20 -47t-47 -20q-20 0 -33.5 13t-13.5 33q0 6 1 10q4 24 23 40z" />
    <glyph glyph-name="ring" unicode="&#x2da;" horiz-adv-x="271" 
d="M281.5 800.5q25.5 -23.5 25.5 -63.5t-18 -70t-48.5 -46t-64.5 -16q-41 0 -66.5 23.5t-25.5 63.5q0 6 2 22q9 50 45.5 80t83.5 30q41 0 66.5 -23.5zM161.5 758.5q-19.5 -16.5 -24.5 -44.5q-1 -5 -1 -13q0 -22 13.5 -34.5t35.5 -12.5q29 0 49.5 20.5t20.5 53.5
q0 22 -13 34.5t-36 12.5q-25 0 -44.5 -16.5z" />
    <glyph glyph-name="ogonek" unicode="&#x2db;" horiz-adv-x="289" 
d="M245 -7l-11 -58h-62q-32 0 -52 -14t-20 -38q0 -20 15 -31t41 -11h104l-12 -64h-115q-51 0 -82.5 23.5t-31.5 66.5q0 60 42 93t102 33h82z" />
    <glyph glyph-name="tilde" unicode="&#x2dc;" horiz-adv-x="380" 
d="M233 718.5q14 -6.5 33 -20.5q14 -11 25 -16t24 -5q18 0 32 12t21 35h61q-19 -58 -52.5 -87t-76.5 -29q-21 0 -36.5 7t-33.5 20q-17 11 -25.5 15.5t-21.5 4.5q-36 0 -52 -47h-60q39 117 128 117q20 0 34 -6.5z" />
    <glyph glyph-name="hungarumlaut" unicode="&#x2dd;" horiz-adv-x="390" 
d="M144 601h-73l99 170h92zM307 601h-73l114 170h91z" />
    <glyph glyph-name="pi" unicode="&#x3c0;" horiz-adv-x="715" 
d="M727 551l-16 -87h-77l-82 -464h-114l81 464h-256l-81 -464h-115l82 464h-77l16 87h639z" />
    <glyph glyph-name="dvCandrabindu" unicode="&#x901;" horiz-adv-x="0" 
d="M-72 993.5q-11 10.5 -11 27.5q0 6 1 9q3 19 19 33t36 14q18 0 29 -10.5t11 -27.5q0 -23 -17 -39.5t-40 -16.5q-17 0 -28 10.5zM-206 858.5q-51 42.5 -51 110.5q0 17 3 33h84q-1 -6 -1 -18q0 -39 28 -65.5t83 -26.5q61 0 101 32.5t48 77.5h85q-15 -83 -77 -134.5
t-164 -51.5q-88 0 -139 42.5z" />
    <glyph glyph-name="dvAnusvara" unicode="&#x902;" horiz-adv-x="0" 
d="M-111.5 844.5q-15.5 15.5 -15.5 39.5q0 31 23.5 54t54.5 23q26 0 41.5 -15.5t15.5 -39.5q0 -31 -24 -54t-55 -23q-25 0 -40.5 15.5z" />
    <glyph glyph-name="dvVisarga" unicode="&#x903;" horiz-adv-x="246" 
d="M97.5 434.5q-15.5 15.5 -15.5 38.5q0 31 24 54.5t55 23.5q25 0 40.5 -15.5t15.5 -39.5q0 -31 -24 -54t-55 -23q-25 0 -40.5 15.5zM44.5 134.5q-15.5 15.5 -15.5 39.5q0 31 24 54t55 23q25 0 40.5 -15.5t15.5 -38.5q0 -31 -24 -54.5t-55 -23.5q-25 0 -40.5 15.5z" />
    <glyph glyph-name="dvA" unicode="&#x905;" horiz-adv-x="830" 
d="M918 740l-14 -88h-122l-116 -652h-104l54 308l-138 1q3 -13 3 -28q0 -16 -3 -33q-16 -88 -81.5 -140.5t-157.5 -52.5q-89 0 -141.5 45t-52.5 121q0 11 4 39h99q-2 -16 -2 -22q0 -42 27.5 -67.5t74.5 -25.5q53 0 90 31t45 82q2 14 2 23q0 16 -4 28h-1v3q-9 27 -34.5 43
t-68.5 16h-41l15 85h41q42 0 73 17.5t47.5 45.5t16.5 57q0 39 -25.5 61.5t-66.5 22.5q-48 0 -85.5 -28t-44.5 -73h-97q15 86 82.5 138t160.5 52q80 0 126.5 -39t46.5 -106q0 -16 -3 -34q-10 -56 -47.5 -96.5t-96.5 -56.5l-1 -2q27 -6 49 -20h205l60 345h226z" />
    <glyph glyph-name="dvAA" unicode="&#x906;" horiz-adv-x="1130" 
d="M918 740l-14 -88h-122l-116 -652h-104l54 308l-138 1q3 -13 3 -28q0 -16 -3 -33q-16 -88 -81.5 -140.5t-157.5 -52.5q-89 0 -141.5 45t-52.5 121q0 11 4 39h99q-2 -16 -2 -22q0 -42 27.5 -67.5t74.5 -25.5q53 0 90 31t45 82q2 14 2 23q0 16 -4 28h-1v3q-9 27 -34.5 43
t-68.5 16h-41l15 85h41q42 0 73 17.5t47.5 45.5t16.5 57q0 39 -25.5 61.5t-66.5 22.5q-48 0 -85.5 -28t-44.5 -73h-97q15 86 82.5 138t160.5 52q80 0 126.5 -39t46.5 -106q0 -16 -3 -34q-10 -56 -47.5 -96.5t-96.5 -56.5l-1 -2q27 -6 49 -20h205l60 345h226zM977 652h-122
l15 88h349l-16 -88h-121l-115 -652h-105z" />
    <glyph glyph-name="dvI" unicode="&#x907;" horiz-adv-x="584" 
d="M523 652l-19 -106l-14 -76h-179q-45 0 -78 -16t-40 -57q-2 -10 -2 -15q0 -29 23 -42.5t61 -13.5h44q76 0 127.5 -34t51.5 -106q0 -11 -4 -39q-13 -72 -66.5 -117t-138.5 -45q-63 0 -99 26t-47 55l-25 -145h-99l45 256h94q-4 -51 25.5 -82t88.5 -31t92 32.5t33 78.5
q0 41 -31 58.5t-80 17.5h-55q-62 2 -103.5 32.5t-41.5 88.5q0 14 3 29q13 76 71 110.5t137 34.5h106l18 106h-396l15 88h644l-15 -88h-146z" />
    <glyph glyph-name="dvII" unicode="&#x908;" horiz-adv-x="580" 
d="M769 976q37 -35 37 -96q0 -27 -5 -48h-92q3 14 3 26q0 30 -16.5 47.5t-46.5 17.5q-81 0 -101 -111l-12 -72h149l-15 -88h-146l-24 -132h-1l-9 -50h-179q-45 0 -78 -16t-40 -57q-2 -10 -2 -15q0 -29 23 -42.5t61 -13.5h44q76 0 127.5 -34t51.5 -106q0 -11 -4 -39
q-13 -72 -66.5 -117t-138.5 -45q-63 0 -99 26t-47 55l-25 -145h-99l45 256h94q-4 -51 25.5 -82t88.5 -31q58 0 91.5 32.5t33.5 77.5q0 41 -30.5 59t-80.5 18h-55q-62 2 -103.5 32.5t-41.5 88.5q0 14 3 29q13 76 71 110.5t137 34.5h106l19 106h-396l15 88h398l13 71
q16 89 67.5 144.5t143.5 55.5q69 0 106 -35z" />
    <glyph glyph-name="dvU" unicode="&#x909;" horiz-adv-x="572" 
d="M645 652h-111l-16 -91q-11 -61 -47.5 -101.5t-84.5 -49.5l-1 -2q50 -12 77.5 -52.5t27.5 -97.5q0 -19 -3 -39q-18 -96 -88 -156t-173 -60q-94 0 -150.5 50t-56.5 133q0 24 4 44h100q-2 -9 -2 -25q0 -48 32.5 -78t84.5 -30q58 0 99 36t52 94q2 9 2 27q0 46 -27.5 76
t-86.5 30h-50l16 92h36q57 0 93.5 31t45.5 84l15 85h-407l15 88h620z" />
    <glyph glyph-name="dvUU" unicode="&#x90a;" horiz-adv-x="860" 
d="M470.5 459.5q-36.5 -40.5 -84.5 -49.5l-1 -2h199q93 0 147.5 -38t54.5 -116q0 -23 -4 -43q-16 -90 -77.5 -138t-148.5 -48q-16 0 -50 4l15 80q11 -1 32 -1q49 0 84 26t45 81q2 8 2 24q0 43 -31 64t-82 21h-96q13 -32 13 -68q0 -14 -4 -42q-11 -61 -45.5 -109t-89.5 -75
t-123 -27q-94 0 -150.5 50t-56.5 133q0 24 4 44h100q-2 -9 -2 -25q0 -48 32.5 -78t84.5 -30q58 0 99 36t52 94q2 9 2 27q0 46 -27.5 76t-86.5 30h-50l16 92h36q57 0 93.5 31t45.5 84l15 85h-407l15 88h908l-15 -88h-400l-16 -91q-11 -61 -47.5 -101.5z" />
    <glyph glyph-name="dvvR" unicode="&#x90b;" horiz-adv-x="1030" 
d="M639 652l-37 -210h169q75 0 89 62l6 39l1 3l3 17h91l-62 -353h-21q-58 0 -92 -33.5t-34 -82.5q0 -37 26 -54.5t70 -17.5q26 0 58 8l-15 -84q-36 -8 -71 -8q-77 0 -124 34.5t-47 99.5q0 16 3 34q12 64 56 107t111 57l19 108q-45 -20 -97 -20h-154l-63 -358h-97l43 244
l-291 -244h-132l1 6l441 344q-3 52 -37.5 84.5t-92.5 32.5q-76 0 -130.5 -47.5t-67.5 -126.5h-105q14 78 54.5 137.5t101 92.5t133.5 33q120 0 164 -89l33 185h-516l15 88h1078l-15 -88h-465z" />
    <glyph glyph-name="dvvL" unicode="&#x90c;" horiz-adv-x="902" 
d="M733 652l-21 -118q54 -14 84.5 -58.5t30.5 -111.5q0 -23 -5 -56q-9 -57 -34 -100h-7q-67 0 -102.5 -32.5t-35.5 -83.5q0 -36 27 -54t71 -18q32 0 59 8l-15 -84q-34 -8 -72 -8q-78 0 -125 35t-47 101q0 17 3 35q10 60 55.5 103.5t107.5 54.5q6 16 11 44q3 20 3 37
q0 46 -23.5 74t-69.5 28q-60 0 -99.5 -45t-50.5 -119l-4 -21h-87l3 21q4 34 4 49q0 54 -22 84.5t-69 30.5q-59 0 -97 -39t-50 -102q-4 -19 -4 -40q0 -55 31 -85t89 -30q6 0 30 2l-17 -92q-14 -1 -35 -1q-101 0 -153 51t-52 138q0 25 5 58q13 73 49.5 125.5t89 80t114.5 27.5
q70 0 106 -39.5t42 -97.5h3q23 48 62 84t94 48l21 116h-609l16 88h949l-16 -88h-238z" />
    <glyph glyph-name="dvEcandra" unicode="&#x90d;" horiz-adv-x="652" 
d="M245 873q-46 41 -46 108q0 12 4 38h90q-2 -14 -2 -21q0 -38 26.5 -62.5t80.5 -24.5q60 0 97 31.5t45 76.5h90q-14 -81 -77.5 -134t-168.5 -53q-93 0 -139 41zM699 652h-105l-18 -105q-18 -104 -67 -155.5t-140 -51.5q-22 0 -44 3l16 94q7 -1 21 -1q48 0 75 27.5t38 86.5
l18 102h-269l-67 -383q-4 -21 -4 -44q0 -56 31 -86t89 -30q61 0 100.5 36t50.5 102h102q-18 -108 -86 -168t-176 -60q-105 0 -161 52t-56 142q0 28 6 59l66 380h-119l15 88h700z" />
    <glyph glyph-name="dvE" unicode="&#x90f;" horiz-adv-x="651" 
d="M724 652h-105l-18 -105q-18 -104 -67 -155.5t-140 -51.5q-21 0 -44 3l16 94q7 -1 21 -1q48 0 75 27.5t38 86.5l18 102h-269l-67 -383q-4 -21 -4 -44q0 -56 31 -86t89 -30q61 0 100.5 36t50.5 102h102q-18 -108 -86 -168t-176 -60q-105 0 -161 52t-56 142q0 28 6 59
l66 380h-119l15 88h700z" />
    <glyph glyph-name="dvAI" unicode="&#x910;" horiz-adv-x="651" 
d="M724 652h-105l-18 -105q-18 -104 -67 -155.5t-140 -51.5q-21 0 -44 3l16 94q7 -1 21 -1q48 0 75 27.5t38 86.5l18 102h-269l-67 -383q-4 -21 -4 -44q0 -56 31 -86t89 -30q61 0 100.5 36t50.5 102h102q-18 -108 -86 -168t-176 -60q-105 0 -161 52t-56 142q0 28 6 59
l66 380h-119l15 88h490q-35 75 -60 108t-52.5 43t-79.5 10h-44l15 86h43q76 -1 117.5 -16.5t78 -66.5t81.5 -164h111z" />
    <glyph glyph-name="dvOcandra" unicode="&#x911;" horiz-adv-x="1130" 
d="M918 740l-14 -88h-122l-116 -652h-104l54 308l-138 1q3 -13 3 -28q0 -16 -3 -33q-16 -88 -81.5 -140.5t-157.5 -52.5q-89 0 -141.5 45t-52.5 121q0 11 4 39h99q-2 -16 -2 -22q0 -42 27.5 -67.5t74.5 -25.5q53 0 90 31t45 82q2 14 2 23q0 16 -4 28h-1v3q-9 27 -34.5 43
t-68.5 16h-41l15 85h41q42 0 73 17.5t47.5 45.5t16.5 57q0 39 -25.5 61.5t-66.5 22.5q-48 0 -85.5 -28t-44.5 -73h-97q15 86 82.5 138t160.5 52q80 0 126.5 -39t46.5 -106q0 -16 -3 -34q-10 -56 -47.5 -96.5t-96.5 -56.5l-1 -2q27 -6 49 -20h205l60 345h226zM977 652h-122
l15 88h349l-16 -88h-121l-115 -652h-105zM825 874q-48 42 -48 109q0 17 3 35h91q-2 -14 -2 -21q0 -38 26 -62t80 -24q61 0 98 31.5t45 75.5h90q-15 -82 -75.5 -134t-165.5 -52q-94 0 -142 42z" />
    <glyph glyph-name="dvO" unicode="&#x913;" horiz-adv-x="1130" 
d="M918 740l-14 -88h-122l-116 -652h-104l54 308l-138 1q3 -13 3 -28q0 -16 -3 -33q-16 -88 -81.5 -140.5t-157.5 -52.5q-89 0 -141.5 45t-52.5 121q0 11 4 39h99q-2 -16 -2 -22q0 -42 27.5 -67.5t74.5 -25.5q53 0 90 31t45 82q2 14 2 23q0 16 -4 28h-1v3q-9 27 -34.5 43
t-68.5 16h-41l15 85h41q42 0 73 17.5t47.5 45.5t16.5 57q0 39 -25.5 61.5t-66.5 22.5q-48 0 -85.5 -28t-44.5 -73h-97q15 86 82.5 138t160.5 52q80 0 126.5 -39t46.5 -106q0 -16 -3 -34q-10 -56 -47.5 -96.5t-96.5 -56.5l-1 -2q27 -6 49 -20h205l60 345h226zM977 652h-122
l15 88h349l-16 -88h-121l-115 -652h-105zM978 846.5q-25 33.5 -52.5 44t-79.5 10.5h-45l15 86h43q77 -1 118.5 -16.5t77.5 -67.5t83 -167h-99q-36 77 -61 110.5z" />
    <glyph glyph-name="dvAU" unicode="&#x914;" horiz-adv-x="1130" 
d="M918 740l-14 -88h-122l-116 -652h-104l54 308l-138 1q3 -13 3 -28q0 -16 -3 -33q-16 -88 -81.5 -140.5t-157.5 -52.5q-89 0 -141.5 45t-52.5 121q0 11 4 39h99q-2 -16 -2 -22q0 -42 27.5 -67.5t74.5 -25.5q53 0 90 31t45 82q2 14 2 23q0 16 -4 28h-1v3q-9 27 -34.5 43
t-68.5 16h-41l15 85h41q42 0 73 17.5t47.5 45.5t16.5 57q0 39 -25.5 61.5t-66.5 22.5q-48 0 -85.5 -28t-44.5 -73h-97q15 86 82.5 138t160.5 52q80 0 126.5 -39t46.5 -106q0 -16 -3 -34q-10 -56 -47.5 -96.5t-96.5 -56.5l-1 -2q27 -6 49 -20h205l60 345h226zM977 652h-122
l15 88h349l-16 -88h-121l-115 -652h-105zM977.5 1033q37.5 -17 72 -80.5t86.5 -215.5h-90q-54 46 -81 63t-55 22t-86 5h-46l12 67h44q56 0 84 -4t55.5 -19.5t65.5 -51.5q-29 76 -55.5 110.5t-54 43.5t-75.5 9h-48l12 68h45q77 0 114.5 -17z" />
    <glyph glyph-name="dvKA" unicode="&#x915;" horiz-adv-x="986" 
d="M599 652l-34 -193q29 42 74.5 67t102.5 25q79 0 127 -50.5t48 -131.5q0 -22 -5 -50q-20 -107 -87.5 -166t-160.5 -59q-35 0 -62 7l14 83q13 -4 37 -4q56 0 99 37.5t55 103.5q2 10 2 29q0 50 -30 80.5t-80 30.5q-63 0 -103.5 -40t-54.5 -99l-56 -322h-101l32 181
q-31 -43 -77.5 -68t-106.5 -25q-80 0 -130 50t-50 133q0 22 5 52q12 69 47.5 120.5t89 79.5t116.5 28q62 0 100.5 -25t54.5 -68l34 194h-473l15 88h1033l-15 -88h-460zM440 319q3 15 3 29q0 48 -29.5 80.5t-87.5 32.5q-59 0 -105.5 -38.5t-57.5 -102.5q-3 -16 -3 -32
q0 -52 32 -82t85 -30q66 1 108.5 42.5t53.5 94.5z" />
    <glyph glyph-name="dvKHA" unicode="&#x916;" horiz-adv-x="941" 
d="M1030 740l-16 -88h-121l-114 -652h-105l35 200q-26 -33 -65 -52t-88 -19q-18 0 -35 3q-43 -61 -107.5 -98.5t-142.5 -37.5q-103 0 -161 51.5t-58 145.5q0 29 6 60l26 147h32q66 0 109.5 33t56.5 111l18 108h-274l16 88h988zM788 652h-383l-20 -121q-19 -103 -75 -153.5
t-136 -53.5l-14 -83q-3 -18 -3 -34q0 -55 35 -87.5t98 -32.5q52 0 91.5 23t65.5 60q-24 23 -37.5 56.5t-13.5 73.5q0 25 4 46q10 58 42 101.5t78.5 67.5t99.5 24t86.5 -19t49.5 -52zM668.5 233q32.5 23 49 58t16.5 69q0 41 -25.5 69.5t-76.5 28.5q-52 0 -92 -33t-50 -89
q-2 -10 -2 -27q0 -47 28.5 -73t74.5 -26q45 0 77.5 23z" />
    <glyph glyph-name="dvGA" unicode="&#x917;" horiz-adv-x="766" 
d="M854 740l-15 -88h-122l-115 -652h-104l114 652h-163l-45 -257q-14 -83 -65 -135t-139 -52q-73 0 -114.5 38t-41.5 103q0 21 4 40l6 31h102l-6 -31q-2 -9 -2 -26q0 -65 60 -65q41 0 62.5 26.5t27.5 66.5l47 261h-319l15 88h813z" />
    <glyph glyph-name="dvGHA" unicode="&#x918;" horiz-adv-x="707" 
d="M780 652h-121l-114 -652h-106l36 205q-40 -49 -98 -76t-125 -27q-85 0 -139 40t-54 111q0 16 3 32q11 60 54.5 100t98.5 50v2q-40 8 -64 34.5t-24 73.5q0 20 4 39l12 68h-117l15 88h755zM553 652h-305l-12 -63q-2 -10 -2 -27q0 -40 25.5 -61t80.5 -21h45l-15 -85h-53
q-73 0 -110.5 -34t-37.5 -87q0 -42 33.5 -64t88.5 -22q50 0 94.5 21t75.5 59.5t40 87.5z" />
    <glyph glyph-name="dvNGA" unicode="&#x919;" horiz-adv-x="673" 
d="M762 740l-15 -88h-227l-20 -107h1l-13 -75h-179q-45 0 -78 -16t-40 -56q-1 -5 -1 -14q0 -30 23 -44t59 -14h44q78 0 128.5 -34.5t50.5 -104.5q0 -15 -3 -35q-14 -77 -76 -122.5t-165 -45.5q-101 0 -161 44.5t-60 119.5q0 19 2 29h104q-1 -6 -1 -18q0 -44 32 -69.5
t91 -25.5q62 0 99 32t37 80q0 39 -30 57t-79 18h-39q-64 0 -113 29t-49 93q0 13 3 28q13 74 71 109t135 35h106l19 107h-390l15 88h719zM645.5 433q14.5 -14 14.5 -36q0 -28 -22 -49.5t-51 -21.5q-22 0 -36.5 14t-14.5 35q0 29 22.5 50.5t50.5 21.5q22 0 36.5 -14z" />
    <glyph glyph-name="dvCA" unicode="&#x91a;" horiz-adv-x="740" 
d="M813 652h-121l-115 -652h-105l34 191q-36 -45 -90 -70.5t-115 -25.5q-79 0 -129 42.5t-50 115.5q0 11 4 39q8 48 34.5 86t67.5 62h-166l15 83h365l-15 -83h-37q-62 0 -106.5 -36.5t-55.5 -94.5q-2 -9 -2 -25q0 -48 34 -75t87 -27q70 1 121.5 49.5t65.5 121.5l53 299h-561
l15 88h788z" />
    <glyph glyph-name="dvCHA" unicode="&#x91b;" horiz-adv-x="817" 
d="M681 652l-19 -110q51 -13 80 -52t29 -102q0 -21 -5 -51q-17 -95 -75.5 -165.5t-150 -108.5t-204.5 -38q-85 0 -151.5 22.5t-104 65t-37.5 100.5q0 21 4 38q12 63 54.5 103t103.5 53v3q-40 7 -63.5 34t-23.5 76q0 16 3 37l17 95h-114l15 88h867l-16 -88h-209zM584 652
h-341l-16 -91q-3 -16 -3 -30q0 -79 100 -79h22l-15 -85h-20q-76 0 -117.5 -39t-41.5 -96t52.5 -87t147.5 -30q128 0 215.5 60t106.5 166q3 18 3 35q0 44 -22 68.5t-56 24.5q-37 0 -69.5 -26.5t-41.5 -78.5q-3 -19 -3 -40q0 -24 3 -48h-87q-4 28 -4 45q0 24 5 54
q13 72 57 113.5t105 53.5z" />
    <glyph glyph-name="dvJA" unicode="&#x91c;" horiz-adv-x="846" 
d="M919 652h-121l-115 -652h-105l72 406h-168l-14 -76q-16 -93 -79 -150.5t-156 -57.5q-81 0 -128 45t-47 121q0 25 4 45l29 163h105l-29 -164q-3 -16 -3 -32q0 -40 21 -63t60 -23q47 0 79 32t42 86l29 164h270l28 156h-667l15 88h894z" />
    <glyph glyph-name="dvJHA" unicode="&#x91d;" horiz-adv-x="862" 
d="M935 652h-122l-114 -652h-103l43 246l-169 1q22 -30 22 -73q0 -15 -3 -32q-12 -67 -63 -109t-133 -42q-61 0 -95.5 23.5t-49.5 49.5l-25 -143h-100l45 250h94q-2 -45 26.5 -73.5t87.5 -28.5q58 0 89.5 30.5t31.5 73.5q0 37 -28.5 57.5t-81.5 20.5h-56q-63 2 -104.5 33
t-41.5 90q0 14 3 30q13 74 71 108t138 34h106l18 106h-388l16 88h902zM710 652h-187l-19 -106l-14 -76h-179q-44 0 -77.5 -16t-40.5 -57q-2 -10 -2 -15q0 -29 23 -42.5t61 -13.5h44h334z" />
    <glyph glyph-name="dvNYA" unicode="&#x91e;" horiz-adv-x="817" 
d="M890 652h-121l-115 -652h-105l49 276h-99q-27 -89 -96 -143t-164 -54q-64 0 -108.5 23.5t-66.5 64.5t-19 92h99q4 -39 32 -65t78 -26q64 0 106.5 42.5t53.5 105.5q3 18 3 34q0 50 -28 81.5t-82 31.5q-51 0 -88.5 -26.5t-54.5 -64.5h-99q23 79 91.5 129.5t165.5 50.5
q93 0 143 -51.5t49 -135.5h99l51 287h-638l15 88h865z" />
    <glyph glyph-name="dvTTA" unicode="&#x91f;" horiz-adv-x="646" 
d="M228 415.5q-61 -43.5 -76 -126.5q-3 -16 -3 -31q0 -59 40 -95t106 -36q77 0 130.5 47t66.5 123h100q-13 -78 -55 -137t-107 -91.5t-146 -32.5q-71 0 -125.5 26.5t-85 74t-30.5 110.5q0 25 4 46q22 124 112 189.5t223 65.5h15l18 104h-392l16 88h696l-16 -88h-201
l-34 -193h-111q-84 0 -145 -43.5z" />
    <glyph glyph-name="dvTTHA" unicode="&#x920;" horiz-adv-x="671" 
d="M434 652l-20 -110q82 -14 132 -68t50 -137q0 -25 -4 -48q-13 -75 -58 -131t-111 -86t-143 -30q-67 0 -120.5 26t-84 73.5t-30.5 110.5q0 25 4 48q18 103 91 167t172 77l19 108h-309l16 88h722l-16 -88h-310zM491 325q0 60 -38.5 96.5t-103.5 36.5q-73 0 -128 -45
t-68 -116q-3 -16 -3 -33q0 -60 38.5 -97t102.5 -37q73 0 128.5 45.5t68.5 116.5q3 17 3 33z" />
    <glyph glyph-name="dvDDA" unicode="&#x921;" horiz-adv-x="573" 
d="M231 454q-33 -16 -40 -56q-1 -5 -1 -14q0 -30 23 -44t59 -14h44q78 0 128.5 -34.5t50.5 -104.5q0 -15 -3 -35q-14 -77 -76 -122.5t-165 -45.5q-101 0 -161 44.5t-60 119.5q0 19 2 29h104q-1 -6 -1 -18q0 -44 32 -69.5t91 -25.5q62 0 99 32t37 80q0 39 -30 57t-79 18h-39
q-64 0 -113 29t-49 93q0 13 3 28q13 74 71 109t135 35h101l20 107h-386l15 88h619l-15 -88h-131l-33 -182h-174q-45 0 -78 -16z" />
    <glyph glyph-name="dvDDHA" unicode="&#x922;" horiz-adv-x="645" 
d="M239 426.5q-72 -52.5 -89 -149.5q-4 -28 -4 -40q0 -71 46.5 -114t130.5 -43q68 0 117.5 33t59.5 88q2 12 2 18q0 32 -20 51.5t-53 19.5q-34 0 -60 -20.5t-32 -54.5q-2 -12 -2 -20h-76q0 18 3 33q11 65 61.5 101.5t122.5 36.5q66 0 106 -37.5t40 -98.5q0 -15 -3 -32
q-16 -89 -90 -142t-187 -53q-78 0 -138.5 28.5t-94.5 80.5t-34 121q0 22 5 52q16 87 64.5 147t120 90.5t155.5 30.5h34l17 99h-416l16 88h693l-16 -88h-178l-30 -173h-101q-98 0 -170 -52.5z" />
    <glyph glyph-name="dvNNA" unicode="&#x923;" horiz-adv-x="867" 
d="M941 652h-122l-115 -652h-105l115 652h-177l-49 -274q-16 -92 -74 -149t-151 -57q-82 0 -130 44.5t-48 118.5q0 23 4 43l49 274h-112l15 88h915zM434 652h-193l-50 -284q-3 -13 -3 -26q0 -37 21.5 -59t59.5 -22q45 0 76 29.5t39 77.5z" />
    <glyph glyph-name="dvTA" unicode="&#x924;" horiz-adv-x="698" 
d="M771 652h-122l-114 -652h-105l71 406h-140q-85 0 -141.5 -41t-70.5 -119q-4 -28 -4 -39q0 -58 37 -90t108 -32h20l-14 -83h-27q-102 0 -166 51t-64 148q0 26 4 50q21 124 110 184.5t219 60.5h145l27 156h-518l15 88h746z" />
    <glyph glyph-name="dvTHA" unicode="&#x925;" horiz-adv-x="773" 
d="M862 740l-15 -88h-122l-115 -652h-105l39 217q-29 -50 -94 -86.5t-147 -36.5q-110 0 -174 57.5t-64 157.5q0 30 6 61q4 24 14 58h95q199 0 223 133q2 14 2 22q0 34 -20.5 55t-58.5 21q-56 0 -87.5 -41t-30.5 -102h-95q2 65 30 118t79.5 84t119.5 31q76 0 120 -41t44 -110
q0 -12 -4 -40q-18 -100 -96.5 -153t-199.5 -53h-36q-3 -16 -3 -33q0 -62 42.5 -99.5t123.5 -37.5q57 0 108 25t86.5 72t46.5 111l61 350h227z" />
    <glyph glyph-name="dvDA" unicode="&#x926;" horiz-adv-x="612" 
d="M230 423q-54 -38 -66 -108q-3 -16 -3 -31q0 -51 32 -81t86 -30q51 0 95 32t54 91h96l-55 -317h-103l32 179q-27 -33 -69.5 -51t-92.5 -18q-80 0 -131.5 49t-51.5 133q0 21 5 51q20 113 104.5 171t202.5 58h62l18 101h-418l16 88h657l-16 -88h-134l-34 -191h-157
q-75 0 -129 -38z" />
    <glyph glyph-name="dvDHA" unicode="&#x927;" horiz-adv-x="721" 
d="M795 652h-120l-115 -652h-105l36 204q-40 -53 -102 -82.5t-137 -29.5q-83 0 -137 39t-54 108q0 15 3 31q12 62 54 98t92 45v3q-43 11 -71.5 45t-28.5 88q0 17 3 35q13 75 67 120t132 45q70 0 109.5 -35t39.5 -96q0 -32 -10 -66h-79q6 21 6 38q0 33 -19 52t-55 19
q-44 0 -75 -34.5t-31 -81.5q0 -42 30 -64t84 -22h72l-15 -85h-53q-68 0 -106.5 -30.5t-38.5 -80.5q0 -40 33.5 -62t88.5 -22q56 0 104.5 24.5t81 68.5t42.5 101v-1l50 281l14 87h225z" />
    <glyph glyph-name="dvNA" unicode="&#x928;" horiz-adv-x="799" 
d="M873 652h-122l-115 -652h-105l73 414h-174q27 -39 27 -88q0 -11 -4 -37q-10 -57 -43 -99t-81 -64.5t-102 -22.5q-82 0 -132.5 46.5t-50.5 121.5q0 18 3 37q17 93 85.5 143.5t166.5 50.5h320l27 150h-620l15 88h847zM347 389.5q-26 24.5 -69 24.5q-51 0 -89 -31.5
t-47 -80.5q-2 -14 -2 -21q0 -41 26.5 -65t72.5 -24q36 0 67 18t49 48.5t18 66.5q0 40 -26 64.5z" />
    <glyph glyph-name="dvPA" unicode="&#x92a;" horiz-adv-x="661" 
d="M734 652h-121l-115 -652h-104l45 259q-63 -73 -167 -73q-89 0 -138 51t-49 138q0 29 6 62l39 215h-104l15 88h709zM508 652h-274l-38 -215q-4 -21 -4 -44q0 -56 29.5 -87t87.5 -31q60 0 101 36.5t55 94.5z" />
    <glyph glyph-name="dvPHA" unicode="&#x92b;" horiz-adv-x="985" 
d="M595 652l-35 -195q31 43 78.5 68.5t108.5 25.5q79 0 125 -48.5t46 -127.5q0 -26 -4 -49q-13 -72 -49 -124.5t-88.5 -80t-112.5 -27.5q-36 0 -65 8l14 82q20 -5 40 -5q57 0 99.5 38.5t53.5 103.5q3 17 3 31q0 49 -30 79t-80 30q-65 0 -107 -42.5t-57 -105.5l-55 -313h-105
l45 257q-29 -34 -69.5 -52.5t-89.5 -18.5q-85 0 -130.5 48.5t-45.5 132.5q0 31 6 65l39 220h-104l15 88h1033l-16 -88h-463zM490 652h-256l-38 -220q-5 -28 -5 -49q0 -52 27 -80t81 -28q55 0 94 35.5t52 89.5z" />
    <glyph glyph-name="dvBA" unicode="&#x92c;" horiz-adv-x="689" 
d="M777 740l-15 -88h-122l-114 -652h-101l31 177q-31 -43 -82.5 -69t-115.5 -26q-59 0 -105.5 24.5t-72.5 69t-26 103.5q0 25 4 48q12 71 52 124t99 81.5t129 28.5q63 0 105.5 -25.5t63.5 -68.5l32 185h-513l15 88h736zM490 355q0 58 -37 97t-105 39q-69 0 -121 -41
l219 -216q33 41 41 90q3 15 3 31zM146 288q0 -60 41 -95t104 -35q68 0 120 40l-221 217q-33 -42 -41 -93q-3 -18 -3 -34z" />
    <glyph glyph-name="dvBHA" unicode="&#x92d;" horiz-adv-x="811" 
d="M900 740l-15 -88h-122l-116 -652h-105l65 371h-151l-12 -69q-18 -102 -76.5 -157.5t-150.5 -55.5q-78 0 -123 40.5t-45 108.5q0 17 3 36q16 87 81 135t155 48h84l16 89q4 28 4 39q0 74 -65 74q-36 0 -62.5 -25t-34.5 -68q-3 -18 -2 -36h-105v10q0 10 2 30q15 81 71 130
t141 49q79 0 115.5 -40.5t36.5 -113.5q0 -31 -6 -67l-12 -71h151l50 283h228zM357 371h-81q-49 0 -83.5 -26t-42.5 -71q-2 -14 -2 -21q0 -34 22.5 -54.5t58.5 -20.5q45 0 75 31.5t40 87.5z" />
    <glyph glyph-name="dvMA" unicode="&#x92e;" horiz-adv-x="803" 
d="M876 652h-122l-115 -652h-105l66 371h-168l-12 -69q-18 -102 -76.5 -157.5t-150.5 -55.5q-77 0 -122.5 40t-45.5 108q0 11 4 37q14 87 80 135t155 48h85l35 195h-358l15 88h850zM649 652h-167l-35 -195h168zM334 371h-83q-54 0 -90 -32t-36 -85q0 -35 22.5 -55.5
t58.5 -20.5q45 0 74.5 31.5t40.5 87.5z" />
    <glyph glyph-name="dvYA" unicode="&#x92f;" horiz-adv-x="743" 
d="M816 652h-122l-114 -652h-105l34 197q-36 -43 -91 -68.5t-124 -25.5q-108 0 -170.5 59t-62.5 161q0 29 6 62q4 19 13 51h13q85 0 133.5 36.5t63.5 117.5l11 62h-275l15 88h791zM589 652h-184l-15 -80q-32 -182 -220 -193l-1 -4q-4 -19 -4 -41q0 -67 42 -105t118 -38
q82 0 142 50.5t73 130.5z" />
    <glyph glyph-name="dvRA" unicode="&#x930;" horiz-adv-x="535" 
d="M608 652h-109l-14 -83q-21 -116 -88.5 -179t-185.5 -63h-37l-22 -125q-4 -24 -4 -34q0 -40 22 -63.5t63 -23.5q45 0 75 30.5t39 81.5l3 22h101l-2 -19q-16 -95 -74.5 -150t-149.5 -55q-86 0 -133.5 46t-47.5 121q0 21 5 49l36 206h104q83 0 130 39t61 117l14 83h-367
l15 88h582z" />
    <glyph glyph-name="dvRxA" unicode="&#x931;" horiz-adv-x="535" 
d="M608 652h-109l-14 -83q-21 -116 -88.5 -179t-185.5 -63h-37l-22 -125q-4 -24 -4 -34q0 -40 22 -63.5t63 -23.5q45 0 75 30.5t39 81.5l3 22h101l-2 -19q-16 -95 -74.5 -150t-149.5 -55q-86 0 -133.5 46t-47.5 121q0 21 5 49l36 206h104q83 0 130 39t61 117l14 83h-367
l15 88h582zM-17.5 -159.5q-15.5 15.5 -15.5 38.5q0 32 23.5 55t55.5 23q25 0 40.5 -15.5t15.5 -40.5q0 -31 -24 -53.5t-55 -22.5q-25 0 -40.5 15.5z" />
    <glyph glyph-name="dvLA" unicode="&#x932;" horiz-adv-x="902" 
d="M744 652l-21 -125q50 -17 78.5 -62t28.5 -110q0 -31 -5 -56q-19 -109 -92.5 -175.5t-188.5 -66.5l-41 2l17 92q16 -2 28 -2q68 0 113.5 42t57.5 112q3 20 3 37q0 48 -24 76.5t-71 28.5q-60 0 -99 -45t-52 -119l-3 -18h-87l2 18q6 29 6 54q0 51 -23.5 80.5t-70.5 29.5
q-59 0 -96.5 -39t-49.5 -103q-3 -19 -3 -37q0 -54 31 -85.5t91 -31.5q7 0 27 2l-17 -92q-24 -2 -30 -2q-101 0 -155 54t-54 142q0 32 5 56q19 109 87 168.5t162 59.5q72 0 109.5 -39t44.5 -96h2q24 50 65.5 86.5t101.5 45.5l20 118h-620l16 88h954l-16 -88h-231z" />
    <glyph glyph-name="dvLLA" unicode="&#x933;" horiz-adv-x="980" 
d="M803 652l-22 -121q59 -16 93 -61.5t34 -112.5q0 -26 -4 -47q-12 -67 -50 -118.5t-94 -80t-119 -28.5q-73 0 -120.5 36.5t-59.5 96.5h-4q-31 -60 -90 -96.5t-132 -36.5q-85 0 -138.5 49.5t-53.5 132.5q0 24 4 45q12 68 50.5 120.5t94.5 81t119 28.5q71 0 117 -35t64 -96h3
q32 53 80 87t107 42l20 114h-683l16 88h1034l-16 -88h-250zM427 339q0 50 -31 80.5t-84 30.5q-61 0 -106.5 -39t-55.5 -102q-3 -15 -3 -29q0 -49 32 -78t84 -29q61 0 105.5 38t55.5 99q3 15 3 29zM804 338q0 51 -31 81.5t-84 30.5q-61 0 -106 -39t-56 -101q-3 -15 -3 -28
q0 -50 31 -79.5t84 -29.5q61 0 106.5 37.5t56.5 98.5q2 10 2 29z" />
    <glyph glyph-name="dvVA" unicode="&#x935;" horiz-adv-x="672" 
d="M761 740l-16 -88h-121l-115 -652h-102l31 178q-33 -43 -82 -67.5t-109 -24.5q-88 0 -140.5 50.5t-52.5 137.5q0 32 5 57q18 102 89 163t171 61q62 0 105 -24.5t64 -65.5l33 187h-495l15 88h720zM401.5 212.5q46.5 42.5 60.5 99.5l2 16q1 7 1 21q0 52 -32 86.5t-96 34.5
q-65 0 -115.5 -41t-62.5 -108q-3 -16 -3 -31q0 -56 35 -88t94 -32q70 0 116.5 42.5z" />
    <glyph glyph-name="dvSHA" unicode="&#x936;" horiz-adv-x="826" 
d="M501.5 703q51.5 -46 51.5 -125q0 -25 -4 -46q-20 -109 -101 -165.5t-195 -56.5h-75l-17 -98q-3 -18 -3 -35q0 -44 23 -69t70 -25q51 0 84.5 35t44.5 97h102q-14 -102 -75 -162.5t-163 -60.5q-91 0 -142 47t-51 128q0 22 5 52l32 180h144q81 0 140 35.5t72 106.5q2 9 2 26
q0 42 -24.5 66.5t-65.5 24.5q-61 0 -97 -45.5t-36 -112.5h-104q3 75 35.5 131.5t87.5 87t125 30.5q83 0 134.5 -46zM915 740l-16 -88h-121l-115 -652h-106l130 740h228z" />
    <glyph glyph-name="dvSSA" unicode="&#x937;" horiz-adv-x="670" 
d="M743 652h-121l-115 -652h-103l45 257q-31 -37 -75 -57.5t-100 -20.5q-89 0 -139 53t-50 143q0 29 6 62l39 215h-104l15 88h718zM519 652h-287l248 -222zM396.5 292.5q38.5 24.5 60.5 66.5l-240 215l-25 -140q-4 -20 -4 -43q0 -57 31.5 -90t88.5 -33q50 0 88.5 24.5z" />
    <glyph glyph-name="dvSA" unicode="&#x938;" horiz-adv-x="822" 
d="M895 652h-121l-115 -652h-105l59 335h-438l-24 -132q-3 -16 -3 -32q0 -42 22 -66t66 -24q48 0 78 34t39 90h101q-11 -97 -71.5 -155.5t-156.5 -58.5q-86 0 -133.5 47.5t-47.5 126.5q0 25 4 48l35 198h88q81 0 129 42t61 115l15 84h-351l16 88h869zM669 652h-187l-16 -84
q-15 -90 -74 -147h236z" />
    <glyph glyph-name="dvHA" unicode="&#x939;" horiz-adv-x="595" 
d="M684 740l-15 -88h-138l-18 -103l-14 -76h-180q-41 0 -70.5 -17t-35.5 -54q-2 -10 -2 -14q0 -40 44 -56q24 4 54 4q67 0 112 -25t66 -64.5t19 -81.5h-101q-2 34 -30 60.5t-81 26.5q-60 0 -103 -39t-53 -97q-3 -16 -3 -31q0 -47 29.5 -75.5t82.5 -28.5q50 0 87.5 25.5
t53.5 59.5h100q-14 -47 -48.5 -86t-86 -62.5t-115.5 -23.5q-96 0 -150.5 51.5t-54.5 133.5q0 24 4 44q10 60 44.5 106.5t87.5 73.5q-58 34 -58 96q0 8 2 24q11 60 60.5 93t123.5 33h115l19 103h-395l15 88h633z" />
    <glyph glyph-name="dvNukta" unicode="&#x93c;" horiz-adv-x="0" 
d="M-388.5 -165.5q-15.5 15.5 -15.5 38.5q0 32 23.5 55t55.5 23q25 0 40.5 -15.5t15.5 -40.5q0 -31 -24 -53.5t-55 -22.5q-25 0 -40.5 15.5z" />
    <glyph glyph-name="dvAvagraha" unicode="&#x93d;" horiz-adv-x="582" 
d="M32 146h239q37 0 58.5 19t21.5 48q0 26 -19 51t-60 65q-54 51 -83.5 92.5t-29.5 94.5q0 14 3 29q11 64 59.5 95.5t118.5 31.5h211l-16 -89h-184q-75 0 -85 -53q-1 -4 -1 -11q0 -27 19.5 -53t60.5 -66q37 -36 58.5 -60.5t37 -56.5t15.5 -68q0 -69 -47 -113.5t-128 -44.5
h-265z" />
    <glyph glyph-name="dvmAA" unicode="&#x93e;" 
d="M148 652h-122l15 88h349l-16 -88h-121l-115 -652h-105z" />
    <glyph glyph-name="dvmI" unicode="&#x93f;" 
d="M783.5 979.5q79.5 -26.5 124.5 -78.5t45 -125q0 -23 -4 -43l-3 -17h-104l2 15q2 10 2 29q0 82 -75.5 121t-181.5 39q-119 0 -211.5 -42t-111.5 -138h124l-16 -88h-121l-116 -652h-105l116 652h-122l15 88h122q18 88 81 147.5t156.5 89t203.5 29.5q100 0 179.5 -26.5z" />
    <glyph glyph-name="dvmII" unicode="&#x940;" 
d="M390 740l-15 -88h-122l-115 -652h-105l115 652h-122l15 88h125l8 41q4 20 4 46q0 91 -80 91q-99 0 -127 -137l-12 -65h-102l11 60q19 106 79 168t166 62q89 0 129 -43t40 -118q0 -27 -7 -69l-7 -36h122z" />
    <glyph glyph-name="dvmU" unicode="&#x941;" horiz-adv-x="0" 
d="M-466 -269.5q-60 41.5 -60 124.5q0 27 5 50h94q-4 -17 -4 -37q0 -49 33.5 -73t88.5 -24t91 25t43 70q1 6 1 17q0 29 -19.5 48.5t-55.5 19.5h-28l15 82h28q72 0 112 -38.5t40 -101.5q0 -9 -2 -29q-12 -82 -74.5 -128.5t-158.5 -46.5q-89 0 -149 41.5z" />
    <glyph glyph-name="dvmUU" unicode="&#x942;" horiz-adv-x="0" 
d="M-396.5 -266q-45.5 35 -45.5 97q0 15 3 32q13 79 72.5 123t147.5 44q103 0 159.5 -60t56.5 -157q0 -26 -7 -68l-9 -40h-86l9 47q5 24 5 54q0 67 -35.5 106t-100.5 39q-55 0 -92 -29.5t-37 -78.5q0 -31 23.5 -49.5t59.5 -18.5q8 0 30 2l-14 -77q-9 -1 -29 -1
q-65 0 -110.5 35z" />
    <glyph glyph-name="dvmvR" unicode="&#x943;" horiz-adv-x="0" 
d="M-340.5 -300.5q-39.5 17.5 -64 51.5t-24.5 83q0 15 3 33q14 76 74 120t154 44q33 0 40 -1l-12 -72h-33q-56 0 -89.5 -30t-33.5 -79q0 -39 29 -60.5t70 -21.5q39 0 79 11l-15 -82q-44 -14 -95 -14q-43 0 -82.5 17.5z" />
    <glyph glyph-name="dvmvRR" unicode="&#x944;" horiz-adv-x="0" 
d="M-393.5 -428q-46.5 29 -46.5 85q0 54 33.5 91.5t83.5 48.5v3q-34 8 -54.5 29.5t-20.5 56.5q0 15 2 24q11 62 61 91.5t110 29.5h67l-10 -59h-29q-38 0 -65.5 -16t-33.5 -51q-1 -5 -1 -13q0 -27 22 -40t58 -13h50l-14 -78h-47q-41 0 -70.5 -15.5t-35.5 -51.5q-1 -5 -1 -13
q0 -28 25 -42t62 -14q27 0 56 5t45 10l-14 -79q-22 -8 -54.5 -13t-62.5 -5q-69 0 -115.5 29z" />
    <glyph glyph-name="dvmEcandra" unicode="&#x945;" horiz-adv-x="0" 
d="M-209 858q-48 42 -48 109q0 17 3 35h91q-2 -14 -2 -21q0 -38 26 -62t80 -24q61 0 98 31.5t45 75.5h90q-15 -82 -75.5 -134t-165.5 -52q-94 0 -142 42z" />
    <glyph glyph-name="dvmE" unicode="&#x947;" horiz-adv-x="0" 
d="M-194 846.5q-25 33.5 -52.5 44t-79.5 10.5h-45l15 86h43q77 -1 118.5 -16.5t77.5 -67.5t83 -167h-99q-36 77 -61 110.5z" />
    <glyph glyph-name="dvmAI" unicode="&#x948;" horiz-adv-x="0" 
d="M-196.5 1033q37.5 -17 72 -80.5t86.5 -215.5h-90q-54 46 -81 63t-55 22t-86 5h-46l12 67h44q56 0 84 -4t55.5 -19.5t65.5 -51.5q-29 76 -55.5 110.5t-54 43.5t-75.5 9h-48l12 68h45q77 0 114.5 -17z" />
    <glyph glyph-name="dvmOcandra" unicode="&#x949;" horiz-adv-x="302" 
d="M93 858q-48 42 -48 109q0 17 3 35h91q-2 -14 -2 -21q0 -38 26 -62t80 -24q61 0 98 31.5t45 75.5h90q-15 -82 -75.5 -134t-165.5 -52q-94 0 -142 42zM148 652h-122l15 88h349l-16 -88h-121l-115 -652h-105z" />
    <glyph glyph-name="dvmO" unicode="&#x94b;" horiz-adv-x="302" 
d="M390 740l-15 -88h-122l-115 -652h-105l115 652h-122l16 88h124q-34 74 -59 107.5t-53 43.5t-79 10h-45l15 86h43q76 -1 117.5 -16t77.5 -66.5t82 -164.5h125z" />
    <glyph glyph-name="dvmAU" unicode="&#x94c;" 
d="M363 740l-16 -88h-122l-114 -652h-105l114 652h-122l16 88h129q-51 44 -78 61t-55 21.5t-86 4.5h-45l12 67h43q56 0 84 -4t55.5 -19.5t65.5 -51.5q-29 76 -55 111t-53.5 43.5t-76.5 8.5h-47l11 68h45q77 0 115 -17t72.5 -80t85.5 -213h127z" />
    <glyph glyph-name="dvVirama" unicode="&#x94d;" horiz-adv-x="0" 
d="M-274 -59h104l90 -206h-107z" />
    <glyph glyph-name="dvOm" unicode="&#x950;" horiz-adv-x="1061" 
d="M613.5 917q-11.5 11 -11.5 28q0 23 17 39.5t39 16.5q18 0 29 -11t11 -28q0 -6 -1 -9q-3 -20 -19 -33.5t-36 -13.5q-17 0 -28.5 11zM479 781.5q-50 42.5 -50 109.5q0 16 3 34h84q-2 -12 -2 -18q0 -39 29.5 -65.5t85.5 -26.5q62 0 100 32t46 78h85q-13 -84 -73.5 -135
t-163.5 -51q-94 0 -144 42.5zM975 520q0 -36 -8 -82l-23 -132q-25 -141 -101 -212.5t-208 -71.5q-40 0 -98 10l15 88q48 -8 81 -8q97 0 144.5 50t64.5 147l26 142q5 33 5 55q0 44 -18.5 67t-61.5 23q-51 0 -79.5 -31.5t-37.5 -83.5q-19 -103 -70.5 -147t-151.5 -45
q5 -23 5 -44q0 -17 -3 -35q-16 -90 -82.5 -144t-159.5 -54q-89 0 -140.5 45t-51.5 121q0 18 3 39h99q-2 -16 -2 -23q0 -42 27.5 -67t74.5 -25q53 0 90 32.5t47 85.5q2 14 2 21q0 41 -26.5 68t-82.5 27h-41l16 89h41q55 0 91.5 31t43.5 74q2 16 2 22q0 40 -25.5 63.5
t-66.5 23.5q-48 0 -84 -27.5t-44 -73.5h-98q16 86 83 138t161 52q80 0 127 -40t47 -109q0 -17 -3 -35q-11 -60 -48.5 -102t-97.5 -57v-3q20 -5 32 -11h59q54 0 86 24.5t43 86.5q18 98 72.5 150.5t158.5 52.5q166 0 166 -165z" />
    <glyph glyph-name="dvKxA" unicode="&#x958;" horiz-adv-x="986" 
d="M599 652l-34 -193q29 42 74.5 67t102.5 25q79 0 127 -50.5t48 -131.5q0 -22 -5 -50q-20 -107 -87.5 -166t-160.5 -59q-35 0 -62 7l14 83q13 -4 37 -4q56 0 99 37.5t55 103.5q2 10 2 29q0 50 -30 80.5t-80 30.5q-63 0 -103.5 -40t-54.5 -99l-56 -322h-101l32 181
q-31 -43 -77.5 -68t-106.5 -25q-80 0 -130 50t-50 133q0 22 5 52q12 69 47.5 120.5t89 79.5t116.5 28q62 0 100.5 -25t54.5 -68l34 194h-473l15 88h1033l-15 -88h-460zM440 319q3 15 3 29q0 48 -29.5 80.5t-87.5 32.5q-59 0 -105.5 -38.5t-57.5 -102.5q-3 -16 -3 -32
q0 -52 32 -82t85 -30q66 1 108.5 42.5t53.5 94.5zM133.5 -102.5q-15.5 15.5 -15.5 38.5q0 32 23.5 55t55.5 23q25 0 40.5 -15.5t15.5 -40.5q0 -31 -24 -53.5t-55 -22.5q-25 0 -40.5 15.5z" />
    <glyph glyph-name="dvKHxA" unicode="&#x959;" horiz-adv-x="941" 
d="M1030 740l-16 -88h-121l-114 -652h-105l35 200q-26 -33 -65 -52t-88 -19q-18 0 -35 3q-43 -61 -107.5 -98.5t-142.5 -37.5q-103 0 -161 51.5t-58 145.5q0 29 6 60l26 147h32q66 0 109.5 33t56.5 111l18 108h-274l16 88h988zM788 652h-383l-20 -121q-19 -103 -75 -153.5
t-136 -53.5l-14 -83q-3 -18 -3 -34q0 -55 35 -87.5t98 -32.5q52 0 91.5 23t65.5 60q-24 23 -37.5 56.5t-13.5 73.5q0 25 4 46q10 58 42 101.5t78.5 67.5t99.5 24t86.5 -19t49.5 -52zM668.5 233q32.5 23 49 58t16.5 69q0 41 -25.5 69.5t-76.5 28.5q-52 0 -92 -33t-50 -89
q-2 -10 -2 -27q0 -47 28.5 -73t74.5 -26q45 0 77.5 23zM176.5 -191.5q-15.5 15.5 -15.5 38.5q0 32 23.5 55t55.5 23q25 0 40.5 -15.5t15.5 -40.5q0 -31 -24 -53.5t-55 -22.5q-25 0 -40.5 15.5z" />
    <glyph glyph-name="dvGxA" unicode="&#x95a;" horiz-adv-x="766" 
d="M854 740l-15 -88h-122l-115 -652h-104l114 652h-163l-45 -257q-14 -83 -65 -135t-139 -52q-73 0 -114.5 38t-41.5 103q0 21 4 40l6 31h102l-6 -31q-2 -9 -2 -26q0 -65 60 -65q41 0 62.5 26.5t27.5 66.5l47 261h-319l15 88h813zM122.5 14.5q-15.5 15.5 -15.5 38.5
q0 32 23.5 55t55.5 23q25 0 40.5 -15.5t15.5 -40.5q0 -31 -24 -53.5t-55 -22.5q-25 0 -40.5 15.5z" />
    <glyph glyph-name="dvJxA" unicode="&#x95b;" horiz-adv-x="846" 
d="M919 652h-121l-115 -652h-105l72 406h-168l-14 -76q-16 -93 -79 -150.5t-156 -57.5q-81 0 -128 45t-47 121q0 25 4 45l29 163h105l-29 -164q-3 -16 -3 -32q0 -40 21 -63t60 -23q47 0 79 32t42 86l29 164h270l28 156h-667l15 88h894zM155.5 -67.5q-15.5 15.5 -15.5 38.5
q0 32 23.5 55t55.5 23q25 0 40.5 -15.5t15.5 -40.5q0 -31 -24 -53.5t-55 -22.5q-25 0 -40.5 15.5z" />
    <glyph glyph-name="dvDDxA" unicode="&#x95c;" horiz-adv-x="573" 
d="M231 454q-33 -16 -40 -56q-1 -5 -1 -14q0 -30 23 -44t59 -14h44q78 0 128.5 -34.5t50.5 -104.5q0 -15 -3 -35q-14 -77 -76 -122.5t-165 -45.5q-101 0 -161 44.5t-60 119.5q0 19 2 29h104q-1 -6 -1 -18q0 -44 32 -69.5t91 -25.5q62 0 99 32t37 80q0 39 -30 57t-79 18h-39
q-64 0 -113 29t-49 93q0 13 3 28q13 74 71 109t135 35h101l20 107h-386l15 88h619l-15 -88h-131l-33 -182h-174q-45 0 -78 -16zM166.5 -205.5q-15.5 15.5 -15.5 38.5q0 32 23.5 55t55.5 23q25 0 40.5 -15.5t15.5 -40.5q0 -31 -24 -53.5t-55 -22.5q-25 0 -40.5 15.5z" />
    <glyph glyph-name="dvDDHxA" unicode="&#x95d;" horiz-adv-x="645" 
d="M239 426.5q-72 -52.5 -89 -149.5q-4 -28 -4 -40q0 -71 46.5 -114t130.5 -43q68 0 117.5 33t59.5 88q2 12 2 18q0 32 -20 51.5t-53 19.5q-34 0 -60 -20.5t-32 -54.5q-2 -12 -2 -20h-76q0 18 3 33q11 65 61.5 101.5t122.5 36.5q66 0 106 -37.5t40 -98.5q0 -15 -3 -32
q-16 -89 -90 -142t-187 -53q-78 0 -138.5 28.5t-94.5 80.5t-34 121q0 22 5 52q16 87 64.5 147t120 90.5t155.5 30.5h34l17 99h-416l16 88h693l-16 -88h-178l-30 -173h-101q-98 0 -170 -52.5zM207.5 -185.5q-15.5 15.5 -15.5 38.5q0 32 23.5 55t55.5 23q25 0 40.5 -15.5
t15.5 -40.5q0 -31 -24 -53.5t-55 -22.5q-25 0 -40.5 15.5z" />
    <glyph glyph-name="dvPHxA" unicode="&#x95e;" horiz-adv-x="985" 
d="M595 652l-35 -195q31 43 78.5 68.5t108.5 25.5q79 0 125 -48.5t46 -127.5q0 -26 -4 -49q-13 -72 -49 -124.5t-88.5 -80t-112.5 -27.5q-36 0 -65 8l14 82q20 -5 40 -5q57 0 99.5 38.5t53.5 103.5q3 17 3 31q0 49 -30 79t-80 30q-65 0 -107 -42.5t-57 -105.5l-55 -313h-105
l45 257q-29 -34 -69.5 -52.5t-89.5 -18.5q-85 0 -130.5 48.5t-45.5 132.5q0 31 6 65l39 220h-104l15 88h1033l-16 -88h-463zM490 652h-256l-38 -220q-5 -28 -5 -49q0 -52 27 -80t81 -28q55 0 94 35.5t52 89.5zM142.5 0.5q-15.5 15.5 -15.5 38.5q0 32 23.5 55t55.5 23
q25 0 40.5 -15.5t15.5 -40.5q0 -31 -24 -53.5t-55 -22.5q-25 0 -40.5 15.5z" />
    <glyph glyph-name="dvvRR" unicode="&#x960;" horiz-adv-x="1032" 
d="M638 652l-37 -210h169q75 0 90 63l5 31l2 10l3 17h91l-63 -355h-38q-87 0 -100 -67q-1 -4 -1 -12q0 -28 22 -40.5t59 -12.5h49l-14 -79h-47q-41 0 -70 -16t-35 -53q-1 -5 -1 -14q0 -28 24 -40.5t62 -12.5q27 0 55.5 5t45.5 11l-13 -79q-22 -8 -55 -13.5t-63 -5.5
q-69 0 -114.5 28t-45.5 85q0 55 33.5 93t81.5 48l1 3q-34 8 -54.5 29.5t-20.5 56.5q0 15 2 24q10 59 55.5 88.5t101.5 32.5l20 111q-46 -20 -98 -20h-153l-63 -358h-97l43 244l-291 -244h-133l1 6l441 345q-2 52 -36.5 84t-92.5 32q-76 0 -130.5 -47.5t-68.5 -126.5h-105
q14 78 54.5 137.5t101 92.5t133.5 33q61 0 102 -23.5t63 -65.5l32 185h-515l15 88h1079l-15 -88h-467z" />
    <glyph glyph-name="dvvLL" unicode="&#x961;" horiz-adv-x="911" 
d="M733 652l-21 -118q54 -15 85 -58.5t31 -109.5q0 -26 -6 -58q-8 -51 -33 -100h-35q-38 0 -65.5 -15.5t-34.5 -51.5q-1 -4 -1 -12q0 -28 22 -40.5t59 -12.5h50l-14 -79h-48q-41 0 -70 -16t-36 -53q-1 -4 -1 -12q0 -29 24 -42t63 -13q27 0 56 5t46 11l-14 -79
q-21 -8 -53.5 -13.5t-63.5 -5.5q-70 0 -115.5 28t-45.5 86q0 54 33.5 92t81.5 48l1 3q-35 8 -55 30t-20 57q0 7 2 23q10 57 53 86.5t98 33.5q8 22 12 43q3 20 3 37q0 46 -23.5 74t-69.5 28q-61 0 -100.5 -45.5t-49.5 -118.5l-4 -21h-87l3 21q3 26 3 48q0 116 -90 116
q-59 0 -97.5 -39t-49.5 -102q-4 -19 -4 -40q0 -55 31 -85t89 -30q7 0 29 2l-16 -92q-14 -1 -35 -1q-101 0 -153 51t-52 138q0 25 5 58q13 73 49.5 125.5t89 80t114.5 27.5q69 0 105.5 -39.5t42.5 -97.5h3q23 49 62 85t95 47l20 116h-605l15 88h955l-16 -88h-247z" />
    <glyph glyph-name="dvmvL" unicode="&#x962;" horiz-adv-x="0" 
d="M-67.5 -290q-26.5 -23 -26.5 -58q0 -26 20 -39.5t51 -13.5q24 0 44 6l-12 -67q-27 -5 -54 -5q-58 0 -93.5 26t-35.5 75q0 54 34.5 93.5t87.5 50.5l6 28q3 15 3 28q0 33 -16.5 52.5t-49.5 19.5q-42 0 -69 -32t-37 -85l-3 -15h-69l3 15q4 17 4 38q0 37 -16.5 58t-49.5 21
q-42 0 -69.5 -27.5t-35.5 -73.5q-3 -15 -3 -27q0 -39 22 -60.5t64 -21.5q14 0 21 2l-14 -72q-8 -1 -24 -1q-75 0 -114.5 37.5t-39.5 102.5q0 13 4 41q15 82 67.5 127.5t122.5 45.5q51 0 77.5 -28.5t30.5 -70.5h3q21 42 58.5 70.5t91.5 28.5q57 0 91.5 -34.5t34.5 -96.5
q0 -22 -4 -42q-7 -38 -24 -73h-6q-49 0 -75.5 -23z" />
    <glyph glyph-name="dvmvLL" unicode="&#x963;" horiz-adv-x="0" 
d="M-60.5 -278q-19.5 -11 -23.5 -36q-1 -3 -1 -9q0 -19 16 -28.5t42 -9.5h36l-11 -62h-33q-69 0 -78 -49l-1 -8q0 -39 63 -39q38 0 74 11l-11 -62q-15 -5 -39 -8.5t-47 -3.5q-52 0 -85.5 19.5t-33.5 61.5t24.5 70.5t60.5 35.5v2q-25 6 -40 22.5t-15 43.5q0 50 33.5 77
t78.5 30l6 26q3 15 3 28q0 33 -17 52.5t-50 19.5q-42 0 -68.5 -31.5t-36.5 -85.5l-3 -15h-70l3 15q4 17 4 38q0 37 -16.5 58t-49.5 21q-42 0 -69.5 -27.5t-35.5 -73.5q-3 -15 -3 -27q0 -39 22.5 -60.5t63.5 -21.5q15 0 21 2l-13 -72q-8 -1 -25 -1q-75 0 -114 37.5t-39 101.5
q0 22 4 42q15 82 67 127.5t122 45.5q51 0 77.5 -28.5t31.5 -70.5h2q21 42 58.5 70.5t91.5 28.5q57 0 91.5 -34.5t34.5 -95.5q0 -23 -4 -43q-5 -34 -24 -73h-28q-27 0 -46.5 -11z" />
    <glyph glyph-name="danda" unicode="&#x964;" horiz-adv-x="300" 
d="M193 0h-104l130 741h104z" />
    <glyph glyph-name="doubledanda" unicode="&#x965;" horiz-adv-x="529" 
d="M193 0h-104l130 741h104zM421 0h-104l130 741h104z" />
    <glyph glyph-name="dvZero" unicode="&#x966;" horiz-adv-x="607" 
d="M39 229q0 -231 210 -231q140 0 217 96t106 264q12 68 12 128q0 230 -209 230q-140 0 -217 -95t-106 -263q-13 -75 -13 -129zM395 171q-41 -65 -127 -65q-63 0 -89 35.5t-26 100.5q0 44 12 116q22 121 63 185t128 64q62 0 88.5 -34.5t26.5 -98.5q0 -48 -13 -116
q-22 -122 -63 -187z" />
    <glyph glyph-name="dvOne" unicode="&#x967;" horiz-adv-x="307" 
d="M56 599l19 107h226l-124 -706h-120l105 599h-106z" />
    <glyph glyph-name="dvTwo" unicode="&#x968;" horiz-adv-x="561" 
d="M427 493q3 18 3 36q0 43 -24 68t-75 25q-60 0 -97.5 -38.5t-51.5 -113.5h-111q21 123 98.5 186t182.5 63q95 0 146.5 -44.5t51.5 -124.5q0 -21 -5 -51q-18 -108 -134 -215.5t-258 -185.5h335l-16 -93h-491l15 84q402 244 431 404z" />
    <glyph glyph-name="dvThree" unicode="&#x969;" horiz-adv-x="563" 
d="M505 683.5q50 -44.5 50 -116.5q0 -17 -3 -37q-11 -63 -57 -104.5t-116 -50.5l-1 -5q60 -18 94.5 -56.5t34.5 -101.5q0 -23 -4 -43q-13 -79 -77.5 -127.5t-170.5 -48.5q-113 0 -174.5 52.5t-61.5 152.5q0 15 1 23h112q-4 -61 28 -96t103 -35q53 0 87.5 26.5t41.5 69.5
q3 15 3 28q0 52 -40.5 80t-117.5 28h-26l17 94h26q164 -2 184 105q2 16 2 23q0 42 -25.5 65t-72.5 23q-53 0 -94.5 -32t-54.5 -91h-112q21 103 95 161t185 58q94 0 144 -44.5z" />
    <glyph glyph-name="dvFour" unicode="&#x96a;" horiz-adv-x="610" 
d="M-1 152l17 96l432 464h123l-81 -460h99l-18 -100h-99l-26 -152h-116l27 152h-358zM440 576l-305 -324h248z" />
    <glyph glyph-name="dvFive" unicode="&#x96b;" horiz-adv-x="596" 
d="M573 616h-349l-38 -210q30 31 77.5 49.5t100.5 18.5q93 0 138 -51t45 -133q0 -25 -5 -57q-19 -106 -91 -171.5t-186 -65.5q-107 0 -166.5 50.5t-59.5 137.5q0 10 2 28h112q0 -54 32 -85t91 -31q65 0 104.5 38t50.5 101q3 20 3 38q0 52 -29.5 81t-84.5 29q-43 0 -83 -20.5
t-62 -52.5h-111l72 407h454z" />
    <glyph glyph-name="dvSix" unicode="&#x96c;" horiz-adv-x="602" 
d="M439 603.5q-25 30.5 -81 30.5q-78 0 -126.5 -68.5t-69.5 -215.5q24 54 80 86t124 32q89 0 138 -46.5t49 -133.5q0 -29 -6 -62q-18 -102 -89.5 -167.5t-184.5 -65.5q-122 0 -174.5 62.5t-52.5 173.5q0 56 13 129q33 186 107.5 277.5t209.5 91.5q108 0 154.5 -59t43.5 -152
h-108q-2 57 -27 87.5zM151 210q0 -52 31.5 -85t94.5 -33t107 36t55 100q4 19 4 39q0 55 -31 83.5t-87 28.5q-60 0 -110 -34.5t-61 -99.5q-3 -18 -3 -35z" />
    <glyph glyph-name="dvSeven" unicode="&#x96d;" horiz-adv-x="481" 
d="M517 624l-372 -624h-120l374 611h-350l18 99h466z" />
    <glyph glyph-name="dvEight" unicode="&#x96e;" horiz-adv-x="616" 
d="M146 642q36 41 96.5 65.5t138.5 24.5q104 0 159 -46.5t55 -119.5q0 -16 -3 -34q-9 -54 -47 -93t-102 -58q56 -20 86 -60t30 -97q0 -13 -4 -41q-17 -96 -99.5 -148.5t-207.5 -52.5q-104 0 -166 48t-62 135q0 24 4 45q11 63 55 106t115 65q-48 16 -72 50.5t-24 82.5
q0 19 3 38q9 49 45 90zM240.5 435q30.5 -24 83.5 -24q69 0 111.5 35t42.5 98q0 45 -30.5 69.5t-83.5 24.5q-68 0 -111 -35.5t-43 -99.5q0 -44 30.5 -68zM168.5 104q35.5 -28 96.5 -28q78 0 128 41t50 110q0 52 -36.5 78t-96.5 26q-75 0 -126 -37.5t-51 -110.5
q0 -51 35.5 -79z" />
    <glyph glyph-name="dvNine" unicode="&#x96f;" horiz-adv-x="592" 
d="M172.5 116q25.5 -31 79.5 -31q81 0 130.5 68.5t70.5 216.5q-25 -54 -81 -86.5t-123 -32.5q-89 0 -138 46.5t-49 132.5q0 30 6 63q11 66 47 119t95 84t137 31q121 0 172 -60t51 -168q0 -62 -14 -138q-31 -183 -103 -276t-212 -93q-106 0 -155 60.5t-45 151.5h108
q-2 -57 23.5 -88zM464 510q0 53 -31 85.5t-95 32.5q-63 0 -107 -37t-55 -104q-4 -19 -4 -38q0 -53 31 -81t87 -28q59 0 109.5 35.5t61.5 100.5q3 18 3 34z" />
    <glyph glyph-name="dvAbbreviationsign" unicode="&#x970;" horiz-adv-x="488" 
d="M345.5 227q-53.5 -45 -126.5 -45q-66 0 -105.5 36.5t-39.5 95.5q0 15 3 31q13 72 67.5 117.5t129.5 45.5q64 0 102.5 -36t38.5 -95q0 -16 -3 -33q-13 -72 -66.5 -117zM164.5 268q24.5 -22 64.5 -22q49 0 83.5 34t34.5 84q0 36 -22.5 58t-60.5 22q-51 0 -87.5 -34
t-36.5 -84q0 -36 24.5 -58z" />
    <glyph glyph-name="dvAcandra" unicode="&#x972;" horiz-adv-x="830" 
d="M918 740l-14 -88h-122l-116 -652h-104l54 308l-138 1q3 -13 3 -28q0 -16 -3 -33q-16 -88 -81.5 -140.5t-157.5 -52.5q-89 0 -141.5 45t-52.5 121q0 11 4 39h99q-2 -16 -2 -22q0 -42 27.5 -67.5t74.5 -25.5q53 0 90 31t45 82q2 14 2 23q0 16 -4 28h-1v3q-9 27 -34.5 43
t-68.5 16h-41l15 85h41q42 0 73 17.5t47.5 45.5t16.5 57q0 39 -25.5 61.5t-66.5 22.5q-48 0 -85.5 -28t-44.5 -73h-97q15 86 82.5 138t160.5 52q80 0 126.5 -39t46.5 -106q0 -16 -3 -34q-10 -56 -47.5 -96.5t-96.5 -56.5l-1 -2q27 -6 49 -20h205l60 345h226zM682 877
q-48 42 -48 109q0 17 3 35h91q-2 -14 -2 -21q0 -38 26 -62t80 -24q61 0 98 31.5t45 75.5h90q-15 -82 -75.5 -134t-165.5 -52q-94 0 -142 42z" />
    <glyph glyph-name="Wgrave" unicode="&#x1e80;" horiz-adv-x="996" 
d="M1021 706l-300 -706h-140l-53 546l-245 -546h-140l-52 706h125l21 -574l256 574h126l54 -576l223 576h125zM636 829l-14 -80l-201 113l16 89z" />
    <glyph glyph-name="wgrave" unicode="&#x1e81;" horiz-adv-x="850" 
d="M881 551l-251 -551h-125l-61 428l-213 -428h-126l-54 551h115l25 -446l217 446h121l60 -446l184 446h108zM540 674l-14 -80l-201 113l16 89z" />
    <glyph glyph-name="Wacute" unicode="&#x1e82;" horiz-adv-x="996" 
d="M1021 706l-300 -706h-140l-53 546l-245 -546h-140l-52 706h125l21 -574l256 574h126l54 -576l223 576h125zM742 862l-241 -113l14 80l243 122z" />
    <glyph glyph-name="wacute" unicode="&#x1e83;" horiz-adv-x="850" 
d="M881 551l-251 -551h-125l-61 428l-213 -428h-126l-54 551h115l25 -446l217 446h121l60 -446l184 446h108zM647 707l-241 -113l14 80l243 122z" />
    <glyph glyph-name="Wdieresis" unicode="&#x1e84;" horiz-adv-x="996" 
d="M1027 706l-300 -706h-140l-53 546l-245 -546h-140l-52 706h125l21 -574l256 574h126l54 -576l223 576h125zM462 871.5q20 19.5 47 19.5q21 0 34.5 -12.5t13.5 -32.5q0 -27 -20.5 -47t-47.5 -20q-20 0 -33.5 13t-13.5 33q0 27 20 46.5zM639 871.5q20 19.5 46 19.5
q21 0 34.5 -12.5t13.5 -32.5q0 -27 -20 -47t-47 -20q-21 0 -34 12.5t-13 32.5q0 28 20 47.5z" />
    <glyph glyph-name="wdieresis" unicode="&#x1e85;" horiz-adv-x="850" 
d="M887 551l-251 -551h-125l-61 428l-213 -428h-126l-54 551h115l25 -446l217 446h121l60 -446l184 446h108zM366 716.5q20 19.5 47 19.5q21 0 34.5 -12.5t13.5 -32.5q0 -27 -20.5 -47t-47.5 -20q-20 0 -33.5 13t-13.5 33q0 27 20 46.5zM543 716.5q20 19.5 46 19.5
q21 0 34.5 -12.5t13.5 -32.5q0 -27 -20 -47t-47 -20q-21 0 -34 12.5t-13 32.5q0 28 20 47.5z" />
    <glyph glyph-name="uni1EBC" unicode="&#x1ebc;" horiz-adv-x="515" 
d="M231 614l-37 -214h259l-16 -88h-259l-38 -219h289l-16 -93h-404l124 706h404l-16 -92h-290zM343 873.5q14 -6.5 33 -20.5q14 -11 25 -16t24 -5q18 0 32 12t21 35h61q-19 -58 -52.5 -87t-76.5 -29q-21 0 -36.5 7t-33.5 20q-17 11 -25.5 15.5t-21.5 4.5q-36 0 -52 -47h-60
q39 117 128 117q20 0 34 -6.5z" />
    <glyph glyph-name="uni1EBD" unicode="&#x1ebd;" horiz-adv-x="621" 
d="M489 532q51 -26 77.5 -72.5t26.5 -105.5q0 -22 -5 -52q-6 -29 -13 -49h-424q-2 -13 -2 -35q0 -67 35.5 -99.5t93.5 -32.5q57 0 101.5 29t62.5 77h122q-32 -89 -111 -144t-186 -55q-104 0 -166 59t-62 162q0 33 6 67q15 85 61 147.5t113.5 96t147.5 33.5q71 0 122 -26z
M479 349q0 58 -36.5 88t-91.5 30q-67 0 -119.5 -41t-69.5 -121h312q5 20 5 44zM358 718.5q14 -6.5 33 -20.5q14 -11 25 -16t24 -5q18 0 32 12t21 35h61q-19 -58 -52.5 -87t-76.5 -29q-21 0 -36.5 7t-33.5 20q-17 11 -25.5 15.5t-21.5 4.5q-36 0 -52 -47h-60q39 117 128 117
q20 0 34 -6.5z" />
    <glyph glyph-name="Ygrave" unicode="&#x1ef2;" horiz-adv-x="618" 
d="M660 706l-314 -449l-45 -257h-115l45 257l-157 449h132l104 -327l220 327h130zM446 829l-14 -80l-201 113l16 89z" />
    <glyph glyph-name="ygrave" unicode="&#x1ef3;" horiz-adv-x="585" 
d="M164 551l94 -405l224 405h127l-477 -813h-127l168 275l-137 538h128zM399 674l-14 -80l-201 113l16 89z" />
    <glyph glyph-name="uni1EF8" unicode="&#x1ef8;" horiz-adv-x="618" 
d="M666 706l-314 -449l-45 -257h-115l45 257l-157 449h132l104 -327l220 327h130zM382 873.5q14 -6.5 33 -20.5q14 -11 25 -16t24 -5q18 0 32 12t21 35h61q-19 -58 -52.5 -87t-76.5 -29q-21 0 -36.5 7t-33.5 20q-17 11 -25.5 15.5t-21.5 4.5q-36 0 -52 -47h-60
q39 117 128 117q20 0 34 -6.5z" />
    <glyph glyph-name="uni1EF9" unicode="&#x1ef9;" horiz-adv-x="585" 
d="M161 551l94 -405l224 405h127l-477 -813h-127l168 275l-137 538h128zM326 718.5q14 -6.5 33 -20.5q14 -11 25 -16t24 -5q18 0 32 12t21 35h61q-19 -58 -52.5 -87t-76.5 -29q-21 0 -36.5 7t-33.5 20q-17 11 -25.5 15.5t-21.5 4.5q-36 0 -52 -47h-60q39 117 128 117
q20 0 34 -6.5z" />
    <glyph glyph-name="zerowidthnonjoiner" unicode="&#x200c;" horiz-adv-x="0" 
d="M-23 811h47v-1041h-47v1041z" />
    <glyph glyph-name="zerowidthjoiner" unicode="&#x200d;" horiz-adv-x="0" 
d="M23 635v-865h-47v865l-69 -73l-33 33l93 93l-95 95l33 33l95 -95l96 95l32 -32l-96 -96l96 -95l-33 -33z" />
    <glyph glyph-name="endash" unicode="&#x2013;" horiz-adv-x="629" 
d="M590 410l-17 -96h-535l18 96h534z" />
    <glyph glyph-name="emdash" unicode="&#x2014;" horiz-adv-x="845" 
d="M806 410l-17 -96h-751l18 96h750z" />
    <glyph glyph-name="quoteleft" unicode="&#x2018;" horiz-adv-x="197" 
d="M32 620q0 30 5 60q11 59 45 91.5t90 32.5l-8 -47q-26 0 -40.5 -14.5t-20.5 -44.5l-3 -21h54l-17 -97h-103q-2 28 -2 40z" />
    <glyph glyph-name="quoteright" unicode="&#x2019;" horiz-adv-x="197" 
d="M165 765q0 -29 -5 -61q-11 -60 -45.5 -92t-89.5 -32l9 48q50 0 60 58l4 21h-54l16 97h103q2 -28 2 -39z" />
    <glyph glyph-name="quotesinglbase" unicode="&#x201a;" horiz-adv-x="203" 
d="M139 25q0 -71 -36 -120t-106 -49l8 46q25 0 39 13t19 44l2 9h-57l19 110h107q5 -21 5 -53z" />
    <glyph glyph-name="quotedblleft" unicode="&#x201c;" horiz-adv-x="348" 
d="M32 620q0 30 5 60q11 59 45 91.5t90 32.5l-8 -47q-26 0 -40.5 -14.5t-20.5 -44.5l-3 -21h54l-17 -97h-103q-2 28 -2 40zM183 619q0 31 5 61q11 59 45.5 91.5t89.5 32.5l-8 -47q-26 0 -40.5 -14.5t-20.5 -44.5l-3 -21h54l-17 -97h-103q-2 28 -2 39z" />
    <glyph glyph-name="quotedblright" unicode="&#x201d;" horiz-adv-x="348" 
d="M165 765q0 -29 -5 -61q-11 -60 -45.5 -92t-89.5 -32l9 48q50 0 60 58l4 21h-54l16 97h103q2 -28 2 -39zM316 765q0 -29 -5 -61q-11 -60 -45 -92t-90 -32l9 48q26 0 40 14t20 44l3 21h-54l17 97h103q2 -28 2 -39z" />
    <glyph glyph-name="quotedblbase" unicode="&#x201e;" horiz-adv-x="348" 
d="M135 58q0 -29 -5 -61q-11 -60 -45.5 -92t-89.5 -32l9 48q50 0 60 58l4 21h-54l16 97h103q2 -28 2 -39zM286 58q0 -29 -5 -61q-11 -60 -45 -92t-90 -32l9 48q26 0 40 14t20 44l3 21h-54l17 97h103q2 -28 2 -39z" />
    <glyph glyph-name="dagger" unicode="&#x2020;" horiz-adv-x="564" 
d="M560 463l-195 8l-118 -733h-114l140 733l-197 -8l15 88l195 -8l32 240h114l-54 -240l197 8z" />
    <glyph glyph-name="daggerdbl" unicode="&#x2021;" horiz-adv-x="564" 
d="M365 471l-74 -420l198 9l-15 -89l-196 8l-32 -241h-114l54 241l-197 -8l15 89l195 -9l74 420l-198 -8l15 88l196 -8l31 240h114l-53 -240l198 8l-15 -88z" />
    <glyph glyph-name="bullet" unicode="&#x2022;" horiz-adv-x="388" 
d="M83 387q22 36 58 57t76 21q49 0 79.5 -30.5t30.5 -77.5q0 -41 -22 -76.5t-58 -56.5t-76 -21q-49 0 -79.5 30t-30.5 77q0 41 22 77z" />
    <glyph glyph-name="ellipsis" unicode="&#x2026;" horiz-adv-x="592" 
d="M360 126l-23 -126h-129l22 126h130zM561 126l-23 -126h-129l22 126h130zM159 126l-23 -126h-129l22 126h130z" />
    <glyph glyph-name="perthousand" unicode="&#x2030;" horiz-adv-x="1043" 
d="M340 683.5q35 -32.5 35 -89.5q0 -15 -3 -32q-13 -71 -62.5 -112t-116.5 -41q-58 0 -93 32t-35 88q0 15 3 33q12 71 61.5 112.5t116.5 41.5q59 0 94 -32.5zM669 707l-525 -707h-111l524 707h112zM145 540q0 -28 16 -44.5t43 -16.5q34 0 58 22.5t31 60.5q2 14 2 20
q0 30 -16 47t-45 17q-33 0 -57 -23t-30 -61q-2 -8 -2 -22zM602 266.5q35 -31.5 35 -87.5q0 -16 -3 -34q-12 -71 -61.5 -112.5t-116.5 -41.5q-59 0 -94 32.5t-35 89.5q0 16 3 32q13 71 63 112t116 41q58 0 93 -31.5zM943 266q35 -32 35 -88q0 -15 -3 -33
q-12 -71 -61.5 -112.5t-116.5 -41.5q-59 0 -94 32t-35 89q0 15 3 33q12 70 62.5 111.5t117.5 41.5q57 0 92 -32zM423 78q16 -17 44 -17q33 0 57.5 23t30.5 61q2 7 2 21q0 29 -16 45.5t-44 16.5q-38 0 -64 -29.5t-26 -74.5q0 -29 16 -46zM764 78q16 -17 44 -17q34 0 58 23
t31 61q2 14 2 20q0 29 -16.5 46t-44.5 17q-38 0 -64 -29.5t-26 -73.5q0 -30 16 -47z" />
    <glyph glyph-name="guilsinglleft" unicode="&#x2039;" horiz-adv-x="297" 
d="M107 120l-62 175l124 175h109l-126 -175l64 -175h-109z" />
    <glyph glyph-name="guilsinglright" unicode="&#x203a;" horiz-adv-x="297" 
d="M146 295l-65 175h110l61 -175l-123 -175h-110z" />
    <glyph glyph-name="fraction" unicode="&#x2044;" horiz-adv-x="371" 
d="M503 707l-525 -707h-112l524 707h113z" />
    <glyph glyph-name="rupee" unicode="&#x20a8;" horiz-adv-x="1102" 
d="M518 355q-56 -53 -146 -68l134 -287h-128l-126 282h-80l-50 -282h-115l125 706h249q106 0 159 -46t53 -124q0 -25 -4 -45q-15 -83 -71 -136zM474 514q0 94 -120 94h-125l-43 -245h125q138 0 161 122q2 10 2 29zM948 376q1 42 -26.5 69t-79.5 27q-45 0 -74.5 -20.5
t-36.5 -54.5q-1 -4 -1 -11q0 -31 30 -45t94 -29q56 -13 91 -25.5t59.5 -38t24.5 -68.5q0 -52 -28.5 -94.5t-80 -67.5t-116.5 -25q-104 0 -160.5 48t-54.5 134h113q-3 -43 28 -69.5t88 -26.5q44 0 71 20.5t33 54.5q1 4 1 11q0 33 -31 48t-95 30q-54 12 -88.5 24.5t-58.5 37.5
t-24 67q0 52 29 94.5t81.5 67t121.5 24.5q101 0 152.5 -49.5t49.5 -132.5h-112z" />
    <glyph glyph-name="Euro" unicode="&#x20ac;" horiz-adv-x="815" 
d="M531 137.5q61 37.5 97 100.5h121q-50 -113 -147 -178.5t-227 -65.5q-125 0 -199.5 69t-82.5 186h-94l10 56h84q1 24 6 48q3 20 9 40h-83l9 57h92q48 120 148 191.5t227 71.5q130 0 204 -66t84 -179h-121q-13 64 -61 101.5t-127 37.5q-73 0 -135 -41.5t-98 -115.5h225
l-10 -57h-237q-1 -6 -4.5 -18t-4.5 -22q-5 -28 -5 -48h235l-10 -56h-222q12 -70 59 -109.5t118 -39.5q79 0 140 37.5z" />
    <glyph glyph-name="indianrupee" unicode="&#x20b9;" horiz-adv-x="628" 
d="M522 628l-18 -103h117l-12 -68h-119q-28 -94 -99 -137.5t-209 -43.5l-14 -77q-4 -26 -4 -37q0 -41 21.5 -63t64.5 -22q99 0 120 120h107q-20 -98 -81.5 -152.5t-155.5 -54.5q-90 0 -136.5 41t-46.5 121q0 28 6 61l25 139q113 0 169.5 8t84.5 29.5t41 67.5h-306l12 68h308
l18 103h-307l13 78h531l-13 -78h-117z" />
    <glyph glyph-name="uni20BA" unicode="&#x20ba;" horiz-adv-x="793" 
d="M767 428q-40 -226 -145.5 -334.5t-299.5 -108.5q-78 0 -191 22l43 242l-158 -33l13 72l157 33l17 94l-158 -34l12 69l158 35l39 223h117l-35 -196l174 38l-12 -71l-174 -38l-17 -94l176 37l-12 -72l-176 -37l-31 -175q35 -7 76 -7q137 0 210 87t101 248h116z" />
    <glyph glyph-name="uni20BD" unicode="&#x20bd;" horiz-adv-x="645" 
d="M591 662.5q53 -43.5 53 -119.5q0 -24 -4 -44q-17 -99 -90 -153t-192 -54h-125l-17 -92h199l-15 -87h-199l-20 -113h-114l20 113h-90l15 87h90l16 92h-90l17 90h89l57 324h240q107 0 160 -43.5zM527 527q0 90 -118 90h-119l-42 -235h120q70 0 108.5 31t47.5 86q3 15 3 28z
" />
    <glyph glyph-name="uni2113" unicode="&#x2113;" horiz-adv-x="241" 
d="M246 740l-130 -740h-115l130 740h115z" />
    <glyph glyph-name="trademark" unicode="&#x2122;" horiz-adv-x="810" 
d="M324 636h-96l-49 -281h-83l49 281h-96l12 70h275zM806 706l-62 -351h-77l40 240l-147 -240h-59l-61 249l-44 -249h-74l62 351h110l56 -253l155 253h101z" />
    <glyph glyph-name="uni2126" unicode="&#x2126;" horiz-adv-x="793" 
d="M687.5 201.5q-48.5 -72.5 -128.5 -113.5h134l-16 -88h-273l16 93q81 28 138.5 95.5t74.5 164.5q5 26 5 59q0 92 -53 144.5t-144 52.5q-70 0 -129.5 -32t-100.5 -90t-54 -134q-5 -26 -5 -60q0 -74 33.5 -125.5t93.5 -74.5l-17 -93h-273l15 88h135q-51 33 -76.5 85
t-25.5 119q0 40 7 76q19 104 79.5 183t149 121.5t187.5 42.5q87 0 155 -33.5t106 -96t38 -147.5q0 -34 -6 -70q-17 -94 -65.5 -166.5z" />
    <glyph glyph-name="estimated" unicode="&#x212e;" horiz-adv-x="757" 
d="M172.5 24q-65.5 31 -102 90.5t-36.5 142.5q0 38 7 76q19 105 73 189t138 133t189 49q91 0 155 -35.5t96.5 -96t32.5 -133.5q0 -29 -6 -61l-10 -61h-520l-30 -171q31 -41 74 -61t105 -20q71 0 135.5 30.5t137.5 91.5l37 -51q-159 -143 -323 -143q-87 0 -152.5 31zM593 561
q-24 35 -66.5 54t-98.5 19q-118 0 -198 -83l-29 -163h361z" />
    <glyph glyph-name="partialdiff" unicode="&#x2202;" horiz-adv-x="583" 
d="M452 432q6 42 6 78q0 78 -32 120.5t-106 42.5q-33 0 -71 -9l10 61q57 15 111 15q95 0 145 -54.5t50 -163.5q0 -47 -11 -111q-23 -129 -75.5 -223.5t-128 -145.5t-166.5 -51q-79 0 -127.5 45.5t-48.5 133.5q0 34 5 60q16 90 62 164.5t113.5 118t145.5 43.5q119 0 118 -124
zM201.5 395.5q-54.5 -64.5 -72.5 -164.5q-4 -20 -4 -41q0 -49 24 -73.5t62 -24.5q74 0 128.5 66t71.5 166q4 21 4 44q0 47 -22.5 69.5t-64.5 22.5q-72 0 -126.5 -64.5z" />
    <glyph glyph-name="uni2206" unicode="&#x2206;" horiz-adv-x="697" 
d="M457 696l174 -607l-16 -89h-656l15 89l389 607h94zM92 89h421l-127 477z" />
    <glyph glyph-name="product" unicode="&#x220f;" horiz-adv-x="741" 
d="M765 707l-16 -87h-77l-109 -620h-115l109 620h-279l-110 -620h-115l110 620h-77l16 87h663z" />
    <glyph glyph-name="summation" unicode="&#x2211;" horiz-adv-x="480" 
d="M518 608h-328l218 -240l-15 -88l-309 -257h331l-16 -89h-427l24 133l295 254l-207 243l24 132h426z" />
    <glyph glyph-name="minus" unicode="&#x2212;" horiz-adv-x="473" 
d="M456 410l-17 -96h-412l17 96h412z" />
    <glyph glyph-name="uni2215" unicode="&#x2215;" horiz-adv-x="378" 
d="M481 944l-470 -1120h-111l470 1120h111z" />
    <glyph glyph-name="uni2219" unicode="&#x2219;" horiz-adv-x="204" 
d="M198 395l-23 -126h-129l22 126h130z" />
    <glyph glyph-name="radical" unicode="&#x221a;" horiz-adv-x="829" 
d="M887 879l-663 -922h-52l-91 233l-78 -40l-24 56l189 100l84 -217l566 790h69z" />
    <glyph glyph-name="infinity" unicode="&#x221e;" horiz-adv-x="702" 
d="M662.5 472q36.5 -31 36.5 -89q0 -17 -3 -35q-12 -72 -65.5 -114t-123.5 -42q-59 0 -97 25.5t-68 70.5q-35 -43 -81.5 -69.5t-99.5 -26.5q-67 0 -104 31t-37 89q0 17 3 35q13 72 66 114t123 42q60 0 95.5 -27t64.5 -75q36 46 84 74t102 28q68 0 104.5 -31zM246 289.5
q33 19.5 62 54.5q-25 41 -46.5 62t-53.5 21q-37 0 -62 -22t-32 -58q-2 -12 -2 -17q0 -28 17.5 -44t49.5 -16q34 0 67 19.5zM589.5 410q-17.5 16 -49.5 16q-35 0 -70 -21.5t-65 -60.5q22 -37 45.5 -56t60.5 -19q42 0 69 27t27 70q0 28 -17.5 44z" />
    <glyph glyph-name="integral" unicode="&#x222b;" horiz-adv-x="271" 
d="M400 925h19l-27 -99h-20q-21 0 -35 -11t-22 -38l-239 -841q-22 -82 -71.5 -118t-126.5 -36h-21l27 99h23q24 0 35 11.5t21 43.5l238 841q42 148 199 148z" />
    <glyph glyph-name="approxequal" unicode="&#x2248;" horiz-adv-x="552" 
d="M239.5 336.5q21.5 -9.5 49.5 -28.5q23 -15 38 -22t33 -7q26 0 44.5 18t29.5 50h89q-29 -85 -77.5 -128t-110.5 -43q-29 0 -50.5 9.5t-48.5 27.5q-21 15 -37.5 22.5t-34.5 7.5q-51 0 -75 -68h-87q29 85 77 128t110 43q29 0 50.5 -9.5zM278.5 558.5q21.5 -9.5 49.5 -28.5
q23 -15 38 -22t33 -7q26 0 44.5 18t29.5 50h89q-29 -85 -77.5 -128t-110.5 -43q-29 0 -50.5 9.5t-48.5 27.5q-21 15 -37.5 22.5t-34.5 7.5q-51 0 -75 -68h-87q29 85 77 128t110 43q29 0 50.5 -9.5z" />
    <glyph glyph-name="notequal" unicode="&#x2260;" horiz-adv-x="593" 
d="M384 422l-110 -121h280l-18 -104h-357l-96 -106h-63l96 106h-112l18 104h189l110 121h-278l18 104h355l95 105h63l-95 -105h114l-18 -104h-191z" />
    <glyph glyph-name="lessequal" unicode="&#x2264;" horiz-adv-x="439" 
d="M189 398l196 -188h-143l-199 189l266 190h142zM14 153h364l-16 -90h-363z" />
    <glyph glyph-name="greaterequal" unicode="&#x2265;" horiz-adv-x="439" 
d="M14 210l262 188l-196 191h143l198 -190l-265 -189h-142zM0 153h364l-16 -90h-363z" />
    <glyph glyph-name="lozenge" unicode="&#x25ca;" horiz-adv-x="557" 
d="M526 351l-291 -248l-204 248l292 247zM149 351l106 -131l154 131l-106 130z" />
    <glyph glyph-name="dottedcircle" unicode="&#x25cc;" horiz-adv-x="651" 
d="M270 467.5q-12 11.5 -12 30.5t12 30.5t31 11.5t31 -11.5t12 -30.5t-12 -30.5t-31 -11.5t-31 11.5zM391 452.5q-12 11.5 -12 30.5t12 30.5t31 11.5t31 -11.5t12 -30.5t-12 -30.5t-31 -11.5t-31 11.5zM153 425.5q-12 11.5 -12 30.5t12 30.5t31 11.5t31 -11.5t12 -30.5
t-12 -30.5t-31 -11.5t-31 11.5zM483 378.5q-12 11.5 -12 30.5t12 30.5t31 11.5t31 -11.5t12 -30.5t-12 -30.5t-31 -11.5t-31 11.5zM77 326.5q-12 11.5 -12 30.5t12 30.5t31 11.5t31 -11.5t12 -30.5t-12 -30.5t-31 -11.5t-31 11.5zM527 264.5q-12 11.5 -12 30.5t12 30.5
t31 11.5t31 -11.5t12 -30.5t-12 -30.5t-31 -11.5t-31 11.5zM62 205.5q-12 11.5 -12 30.5t12 30.5t31 11.5t31 -11.5t12 -30.5t-12 -30.5t-31 -11.5t-31 11.5zM517 144.5q-12 11.5 -12 30.5t12 30.5t31 11.5t31 -11.5t12 -30.5t-12 -30.5t-31 -11.5t-31 11.5zM107 92.5
q-12 11.5 -12 30.5t12 30.5t31 11.5t31 -11.5t12 -30.5t-12 -30.5t-31 -11.5t-31 11.5zM444 48.5q-12 11.5 -12 30.5t12 30.5t31 11.5t31 -11.5t12 -30.5t-12 -30.5t-31 -11.5t-31 11.5zM205 16.5q-12 11.5 -12 30.5t12 30.5t31 11.5t31 -11.5t12 -30.5t-12 -30.5t-31 -11.5
t-31 11.5zM329 2.5q-12 11.5 -12 30.5t12 30.5t31 11.5t31 -11.5t12 -30.5t-12 -30.5t-31 -11.5t-31 11.5z" />
    <glyph glyph-name="fi" unicode="&#xfb01;" horiz-adv-x="596" 
d="M249 551h316l-97 -551h-115l80 453h-201l-80 -453h-115l80 453h-75l18 98h74l3 18q18 101 83.5 151t180.5 45l-17 -100q-64 2 -93.5 -22t-39.5 -83zM592 749q17 -14 17 -37q0 -33 -24.5 -54.5t-61.5 -21.5q-29 0 -46 14.5t-17 37.5q0 34 24 54.5t62 20.5q29 0 46 -14z
" />
    <glyph glyph-name="fl" unicode="&#xfb02;" horiz-adv-x="596" 
d="M218 720.5q68 50.5 185 44.5l-18 -100q-67 3 -98 -21.5t-42 -83.5l-2 -9h122l-17 -98h-122l-79 -453h-115l80 453h-75l17 98h75l3 18q18 101 86 151.5zM599 740l-130 -740h-115l130 740h115z" />
    <glyph glyph-name="dvK_SSA" horiz-adv-x="821" 
d="M912 740l-16 -88h-122l-115 -652h-101l65 367h-296q-57 -25 -88 -42t-55 -43t-31 -63q-2 -14 -2 -20q0 -36 23.5 -58.5t65.5 -22.5q50 0 85 32.5t44 79.5h88l-51 -287h-96l27 158q-20 -27 -58 -48.5t-89 -21.5q-69 0 -110 37t-41 97q0 15 3 33q9 51 38 88t67.5 61.5
t95.5 50.5q-49 14 -80 50.5t-31 89.5q0 16 3 34q9 54 42.5 94.5t83.5 62t106 21.5q72 0 119.5 -37.5t47.5 -102.5q0 -15 -3 -33q-14 -78 -86 -133h192l52 296h223zM255.5 473q31.5 -26 85.5 -28q42 23 67.5 50t31.5 64q2 14 2 19q0 37 -25.5 59.5t-66.5 22.5
q-31 0 -60 -14.5t-47.5 -42t-18.5 -62.5q0 -42 31.5 -68z" />
    <glyph glyph-name="dvJ_NYA" horiz-adv-x="818" 
d="M906 740l-15 -88h-122l-115 -652h-104l77 434h-188q62 -41 62 -122q0 -15 -3 -33q-13 -81 -70.5 -131t-138.5 -50q-58 0 -98.5 21t-58.5 56l-26 -150h-102l48 278h98q-4 -56 29 -87.5t86 -31.5q41 0 74 19.5t51.5 53t18.5 72.5q0 50 -35.5 77.5t-92.5 27.5h-26l15 84h371
l24 134h-638l15 88h864z" />
    <glyph glyph-name="dvK" horiz-adv-x="728" 
d="M599 652l-34 -193q29 42 74.5 67t102.5 25q79 0 127 -50t48 -131q0 -21 -5 -49h-105q2 10 2 29q0 50 -30 80.5t-80 30.5q-63 0 -103.5 -40t-54.5 -99l-56 -322h-101l32 181q-31 -43 -77.5 -68t-106.5 -25q-80 0 -130 50t-50 133q0 22 5 52q12 69 47.5 120.5t89 79.5
t116.5 28q62 0 100.5 -25t54.5 -68l34 194h-473l15 88h946l-16 -88h-372zM440 319q3 15 3 29q0 48 -29.5 80.5t-87.5 32.5q-59 0 -105.5 -38.5t-57.5 -102.5q-3 -16 -3 -32q0 -52 32 -82t85 -30q66 1 108.5 42.5t53.5 94.5z" />
    <glyph glyph-name="dvKH" horiz-adv-x="673" 
d="M160 241q-3 -18 -3 -34q0 -55 35 -87.5t98 -32.5q52 0 91.5 23t65.5 59q-26 21 -40 52.5t-14 69.5q0 22 4 42q16 94 86.5 149t168.5 55q86 0 136.5 -43t50.5 -119q0 -22 -4 -42q-11 -63 -47.5 -109.5t-90.5 -71t-117 -24.5q-26 0 -54 5q-37 -61 -99 -99t-141 -38
q-109 0 -171 54t-62 149q0 22 5 54l26 147h32q67 0 110 33t56 111l18 108h-274l16 88h864l-15 -88h-486l-20 -121q-19 -103 -75 -153.5t-136 -53.5zM487 305q0 -45 28.5 -71t78.5 -26q58 0 98 34t51 91q2 9 2 27q0 45 -28 71.5t-79 26.5q-57 0 -97.5 -34t-50.5 -91
q-3 -15 -3 -28z" />
    <glyph glyph-name="dvG" horiz-adv-x="517" 
d="M572 652h-123l-45 -257q-14 -83 -65 -135t-139 -52q-73 0 -114.5 38t-41.5 103q0 21 4 40l6 31h102l-6 -31q-2 -9 -2 -26q0 -65 60 -65q41 0 62.5 26.5t27.5 66.5l47 261h-319l15 88h547z" />
    <glyph glyph-name="dvGH" horiz-adv-x="419" 
d="M236 589q-3 -15 -3 -29q0 -80 106 -80h46l-16 -85h-52q-65 0 -102 -27.5t-45 -72.5q-2 -14 -2 -19q0 -43 33.5 -65.5t89.5 -22.5q81 0 139.5 48t71.5 123h89q-13 -72 -56.5 -130.5t-110.5 -92.5t-148 -34q-102 0 -159 40t-57 112q0 16 3 34q11 60 53.5 98.5t97.5 48.5
l1 2q-40 8 -64 34.5t-24 73.5q0 20 4 39l11 68h-116l15 88h617l-15 -88h-396z" />
    <glyph glyph-name="dvNG" horiz-adv-x="672" 
d="M762 740l-16 -88h-226l-20 -107h1l-14 -75h-178q-45 0 -78 -16t-40 -56q-1 -5 -1 -14q0 -30 23 -44t59 -14h44q78 0 128.5 -34.5t50.5 -104.5q0 -15 -3 -35q-14 -77 -76 -122.5t-165 -45.5q-101 0 -161 44.5t-60 119.5q0 19 2 29h104q-1 -6 -1 -18q0 -44 32 -69.5
t91 -25.5q62 0 99 32t37 80q0 39 -30 57t-79 18h-39q-64 0 -113 29t-49 93q0 13 3 28q13 74 71 109t135 35h105l20 107h-391l16 88h719zM644.5 433q14.5 -14 14.5 -36q0 -28 -21.5 -49.5t-50.5 -21.5q-22 0 -36.5 14t-14.5 35q0 29 22 50.5t50 21.5q22 0 36.5 -14zM290 -89
l90 -206h-108l-87 206h105z" />
    <glyph glyph-name="dvC" horiz-adv-x="460" 
d="M692 740l-15 -88h-651l15 88h651zM469 232q52 49 65 123h90q-11 -75 -53 -134.5t-106.5 -93t-143.5 -33.5q-89 0 -144 41.5t-55 117.5q0 11 4 39q9 48 35 86t67 62h-166l15 83h365l-15 -83h-37q-46 0 -83.5 -20.5t-59 -56t-21.5 -79.5q0 -48 34 -75t87 -27q70 1 122 50z
" />
    <glyph glyph-name="dvCH" horiz-adv-x="817" 
d="M227 561q-3 -16 -3 -30q0 -79 100 -79h22l-15 -85h-20q-76 0 -117.5 -39t-41.5 -96t52.5 -87t147.5 -30q128 0 215.5 60t106.5 166q3 18 3 35q0 44 -22 68.5t-56 24.5q-37 0 -69.5 -26.5t-41.5 -78.5q-3 -19 -3 -40q0 -24 3 -48h-87q-4 28 -4 45q0 24 5 54
q15 87 75 129.5t137 42.5q71 0 114 -41t43 -117q0 -22 -5 -52q-17 -95 -75.5 -165.5t-150 -108.5t-204.5 -38q-85 0 -151.5 22.5t-104 65t-37.5 100.5q0 21 4 38q12 63 54.5 103t103.5 53v3q-40 7 -63.5 34t-23.5 76q0 16 3 37l17 95h-114l15 88h867l-16 -88h-647z" />
    <glyph glyph-name="dvJ" horiz-adv-x="558" 
d="M763 740l-16 -88h-720l15 88h721zM705 406h-223l-14 -76q-16 -93 -79 -150.5t-156 -57.5q-81 0 -128 45t-47 121q0 25 4 45l29 163h105l-29 -164q-3 -16 -3 -32q0 -40 21 -63t60 -23q47 0 79 32t42 86l29 164h325z" />
    <glyph glyph-name="dvJH" horiz-adv-x="563" 
d="M523 652l-19 -106l-14 -76h-179q-44 0 -77.5 -16t-40.5 -57q-2 -10 -2 -15q0 -29 23 -42.5t61 -13.5h44h366l-14 -80l-201 1q22 -30 22 -73q0 -15 -3 -32q-12 -67 -63 -109t-133 -42q-61 0 -95.5 23.5t-49.5 49.5l-25 -143h-100l45 250h94q-2 -45 26.5 -73.5t87.5 -28.5
q58 0 89.5 30.5t31.5 73.5q0 37 -28.5 57.5t-81.5 20.5h-56q-63 2 -104.5 33t-41.5 90q0 14 3 30q13 74 71 108t138 34h106l18 106h-388l16 88h709l-15 -88h-220z" />
    <glyph glyph-name="dvNY" horiz-adv-x="546" 
d="M735 740l-15 -88h-694l15 88h694zM465 500.5q50 -51.5 49 -135.5h154l-15 -89h-154q-27 -89 -96 -143t-164 -54q-64 0 -108.5 23.5t-66.5 64.5t-19 92h99q4 -39 32 -65t78 -26q64 0 106.5 42.5t53.5 105.5q3 18 3 34q0 50 -28 81.5t-82 31.5q-51 0 -88.5 -26.5
t-54.5 -64.5h-99q23 79 91.5 129.5t165.5 50.5q93 0 143 -51.5z" />
    <glyph glyph-name="dvTT" horiz-adv-x="646" 
d="M228 415.5q-61 -43.5 -76 -126.5q-3 -16 -3 -31q0 -59 40 -95t106 -36q77 0 130.5 47t66.5 123h100q-13 -78 -55 -137t-107 -91.5t-146 -32.5q-71 0 -125.5 26.5t-85 74t-30.5 110.5q0 25 4 46q22 124 112 189.5t223 65.5h15l18 104h-392l16 88h696l-16 -88h-201
l-34 -193h-111q-84 0 -145 -43.5zM320 -37l91 -206h-107l-88 206h104z" />
    <glyph glyph-name="dvTTH" horiz-adv-x="671" 
d="M434 652l-20 -110q82 -14 132 -68t50 -137q0 -25 -4 -48q-13 -75 -58 -131t-111 -86t-143 -30q-67 0 -120.5 26t-84 73.5t-30.5 110.5q0 25 4 48q18 103 91 167t172 77l19 108h-309l16 88h722l-16 -88h-310zM491 325q0 60 -38.5 96.5t-103.5 36.5q-73 0 -128 -45
t-68 -116q-3 -16 -3 -33q0 -60 38.5 -97t102.5 -37q73 0 128.5 45.5t68.5 116.5q3 17 3 33zM319 -31l91 -206h-107l-88 206h104z" />
    <glyph glyph-name="dvDD" horiz-adv-x="573" 
d="M231 454q-33 -16 -40 -56q-1 -5 -1 -14q0 -30 23 -44t59 -14h44q78 0 128.5 -34.5t50.5 -104.5q0 -15 -3 -35q-14 -77 -76 -122.5t-165 -45.5q-101 0 -161 44.5t-60 119.5q0 19 2 29h104q-1 -6 -1 -18q0 -44 32 -69.5t91 -25.5q62 0 99 32t37 80q0 39 -30 57t-79 18h-39
q-64 0 -113 29t-49 93q0 13 3 28q13 74 71 109t135 35h101l20 107h-386l15 88h619l-15 -88h-131l-33 -182h-174q-45 0 -78 -16zM283 -89l90 -206h-107l-87 206h104z" />
    <glyph glyph-name="dvDDH" horiz-adv-x="645" 
d="M239 426.5q-72 -52.5 -89 -149.5q-4 -28 -4 -40q0 -71 46.5 -114t130.5 -43q68 0 117.5 33t59.5 88q2 12 2 18q0 32 -20 51.5t-53 19.5q-34 0 -60 -20.5t-32 -54.5q-2 -12 -2 -20h-76q0 18 3 33q11 65 61.5 101.5t122.5 36.5q66 0 106 -37.5t40 -98.5q0 -15 -3 -32
q-16 -89 -90 -142t-187 -53q-78 0 -138.5 28.5t-94.5 80.5t-34 121q0 22 5 52q16 87 64.5 147t120 90.5t155.5 30.5h34l17 99h-416l16 88h693l-16 -88h-178l-30 -173h-101q-98 0 -170 -52.5zM326 -70l90 -206h-107l-88 206h105z" />
    <glyph glyph-name="dvNN" horiz-adv-x="580" 
d="M643 652h-106l-49 -274q-16 -92 -74 -149t-151 -57q-82 0 -130 44.5t-48 118.5q0 23 4 43l49 274h-112l15 88h618zM434 652h-193l-50 -284q-3 -13 -3 -26q0 -37 21.5 -59t59.5 -22q45 0 76 29.5t39 77.5z" />
    <glyph glyph-name="dvT" horiz-adv-x="390" 
d="M41 740h571l-16 -88h-570zM103 53q-64 51 -64 148q0 26 4 50q21 124 110 184.5t219 60.5h196l-16 -90h-191q-85 0 -141.5 -41t-70.5 -119q-4 -28 -4 -39q0 -58 37 -90t108 -32h20l-14 -83h-27q-102 0 -166 51z" />
    <glyph glyph-name="dvTH" horiz-adv-x="478" 
d="M657 354q-13 -78 -61 -137.5t-118.5 -91t-147.5 -31.5q-124 0 -192.5 62t-68.5 166q0 47 17 106h94q201 0 223 134q2 14 2 21q0 34 -20.5 55t-57.5 21q-56 0 -88 -40t-31 -103h-95q2 66 30.5 119t80.5 83.5t120 30.5q74 0 117.5 -41.5t43.5 -110.5q0 -19 -3 -39
q-18 -100 -96.5 -153t-198.5 -53h-37q-2 -20 -2 -28q0 -68 46.5 -105t123.5 -37q54 0 103 21.5t83 60.5t43 90h90z" />
    <glyph glyph-name="dvD" horiz-adv-x="609" 
d="M684 652h-134l-34 -191h-157q-75 0 -129 -38t-66 -108q-3 -16 -3 -31q0 -51 32 -81t86 -30q51 0 95 32t54 91h96l-55 -317h-103l32 179q-27 -33 -69.5 -51t-92.5 -18q-80 0 -131.5 49t-51.5 133q0 21 5 51q20 113 104.5 171t202.5 58h62l18 101h-418l16 88h657zM458 -94
l90 -206h-108l-87 206h105z" />
    <glyph glyph-name="dvDH" horiz-adv-x="433" 
d="M122 130q-60 39 -60 111q0 15 3 31q11 62 53 97.5t92 43.5v3q-43 11 -71.5 45t-28.5 88q0 17 3 35q13 75 67 120t131 45q71 0 110.5 -35t39.5 -96q0 -32 -10 -66h-79q5 16 5 38q0 33 -18.5 52t-54.5 19q-46 0 -76 -34.5t-30 -82.5q0 -41 30 -63t83 -22h72l-15 -85h-53
q-68 0 -106 -31.5t-38 -82.5q0 -41 36 -61t91 -20q88 0 146 41.5t69 109.5h92q-19 -109 -104.5 -174t-222.5 -65q-96 0 -156 39z" />
    <glyph glyph-name="dvN" horiz-adv-x="518" 
d="M733 740l-16 -88h-691l15 88h692zM132.5 451.5q68.5 50.5 166.5 50.5h392l-16 -88h-245q26 -37 26 -89q0 -16 -3 -36q-15 -86 -78 -136t-148 -50q-82 0 -132.5 46.5t-50.5 121.5q0 18 3 37q17 93 85.5 143.5zM347 389.5q-26 24.5 -69 24.5q-51 0 -89 -31.5t-47 -80.5
q-2 -14 -2 -21q0 -41 26.5 -65t72.5 -24q36 0 67 18t49 48.5t18 66.5q0 40 -26 64.5z" />
    <glyph glyph-name="dvP" horiz-adv-x="373" 
d="M196 437q-4 -21 -4 -44q0 -56 29.5 -87t87.5 -31q62 0 104 40.5t54 100.5l86 1q-17 -102 -82.5 -166.5t-173.5 -64.5q-99 0 -154.5 54.5t-55.5 146.5q0 29 6 60l37 205h-104l15 88h570l-16 -88h-361z" />
    <glyph glyph-name="dvPH" horiz-adv-x="726" 
d="M595 652l-35 -195q31 43 78.5 68.5t108.5 25.5q79 0 125 -48.5t46 -129.5q0 -22 -5 -52h-107q3 17 3 31q0 49 -30 79t-80 30q-65 0 -107 -42.5t-57 -105.5l-55 -313h-105l45 257q-29 -34 -69.5 -52.5t-89.5 -18.5q-85 0 -130.5 48.5t-45.5 132.5q0 31 6 65l39 220h-104
l15 88h945l-15 -88h-376zM490 652h-256l-38 -220q-5 -28 -5 -49q0 -52 27 -80t81 -28q55 0 94 35.5t52 89.5z" />
    <glyph glyph-name="dvB" horiz-adv-x="411" 
d="M641 740l-16 -88h-599l15 88h600zM470.5 534.5q49.5 -27.5 73.5 -72.5t24 -99q0 -19 -3 -39q-11 -67 -49 -122.5t-100 -88t-141 -32.5q-66 0 -116.5 25t-78 70t-27.5 104q0 21 3 42q11 70 51 124.5t102.5 85t138.5 30.5q73 0 122.5 -27.5zM485 353q0 57 -36.5 96.5
t-105.5 39.5q-67 0 -122 -41l219 -218q34 44 42 91q3 17 3 32zM140 288q0 -61 41 -97t104 -36q69 0 121 41l-221 217q-33 -41 -42 -93q-3 -16 -3 -32z" />
    <glyph glyph-name="dvBH" horiz-adv-x="525" 
d="M655 371h-199l-12 -69q-18 -102 -76.5 -157.5t-150.5 -55.5q-78 0 -123 40.5t-45 108.5q0 17 3 36q16 87 81 135t155 48h84l16 89q4 28 4 39q0 74 -65 74q-36 0 -62.5 -25t-34.5 -68q-3 -18 -2 -36h-105v10q0 10 2 30q15 81 71 130t141 49q79 0 115.5 -40.5t36.5 -113.5
q0 -31 -6 -67l-12 -71h199zM357 371h-81q-49 0 -83.5 -26t-42.5 -71q-2 -14 -2 -21q0 -34 22.5 -54.5t58.5 -20.5q45 0 75 31.5t40 87.5z" />
    <glyph glyph-name="dvM" horiz-adv-x="520" 
d="M482 652l-35 -195h219l-15 -86h-219l-12 -69q-18 -102 -76.5 -157.5t-150.5 -55.5q-77 0 -122.5 40t-45.5 108q0 11 4 37q14 87 80 135t155 48h85l35 195h-358l15 88h675l-16 -88h-218zM334 371h-83q-54 0 -90 -32t-36 -85q0 -35 22.5 -55.5t58.5 -20.5q45 0 74.5 31.5
t40.5 87.5z" />
    <glyph glyph-name="dvY" horiz-adv-x="447" 
d="M169 375q-4 -28 -4 -39q0 -69 44 -107t119 -38q80 0 138.5 47t71.5 121h96q-12 -73 -53.5 -131.5t-109 -92t-153.5 -33.5q-118 0 -187.5 59.5t-69.5 163.5q0 29 6 60q4 19 13 51h13q85 0 134 36.5t64 117.5l10 62h-275l16 88h660l-16 -88h-282l-14 -80
q-32 -184 -220 -193z" />
    <glyph glyph-name="dvR" horiz-adv-x="534" 
d="M608 652h-109l-14 -83q-21 -116 -88.5 -179t-185.5 -63h-37l-22 -125q-4 -24 -4 -34q0 -40 22 -63.5t63 -23.5q45 0 75 30.5t39 81.5l3 22h101l-2 -19q-16 -95 -74.5 -150t-149.5 -55q-86 0 -133.5 46t-47.5 121q0 21 5 49l36 206h104q83 0 130 39t61 117l14 83h-367
l15 88h582zM245 -84l90 -206h-107l-87 206h104z" />
    <glyph glyph-name="dvL" horiz-adv-x="662" 
d="M37 740h865l-15 -88h-866zM98 111q-54 54 -54 142q0 32 5 56q19 109 87 168.5t162 59.5q72 0 109.5 -39t44.5 -96h2q27 58 78 96.5t126 38.5q78 0 125 -50t47 -135q0 -26 -4 -49h-107q3 20 3 37q0 48 -24 76.5t-71 28.5q-60 0 -99 -45t-52 -119l-3 -18h-87l2 18
q6 29 6 54q0 51 -23.5 80.5t-70.5 29.5q-59 0 -96.5 -39t-49.5 -103q-3 -19 -3 -37q0 -54 31 -85.5t91 -31.5q7 0 27 2l-17 -92q-24 -2 -30 -2q-101 0 -155 54z" />
    <glyph glyph-name="dvV" horiz-adv-x="390" 
d="M41 740h598l-15 -88h-598zM156 110.5q-50 24.5 -77 68.5t-27 102q0 26 4 47q12 68 51.5 119t100.5 79.5t137 28.5q73 0 123.5 -28t74.5 -73t24 -98q0 -24 -4 -43q-10 -60 -46 -112t-98 -83.5t-145 -31.5q-68 0 -118 24.5zM373.5 191q38.5 22 61.5 57t29 72q3 15 3 30
q0 52 -32.5 86.5t-95.5 34.5q-67 0 -118.5 -41t-63.5 -109q-3 -16 -3 -31q0 -56 36 -88.5t96 -32.5q49 0 87.5 22z" />
    <glyph glyph-name="dvSH" horiz-adv-x="542" 
d="M161 212q-3 -18 -3 -35q0 -44 23 -69t70 -25q51 0 84.5 35t44.5 97h102q-14 -102 -75 -162.5t-163 -60.5q-91 0 -142 47t-51 128q0 22 5 52l32 180h144q81 0 140 35.5t72 106.5q2 9 2 25q0 42 -24.5 67t-65.5 25q-61 0 -97 -45.5t-36 -112.5h-104q3 75 35.5 131.5
t87.5 87t125 30.5q83 0 134.5 -46t51.5 -125q0 -25 -4 -46q-20 -109 -101.5 -165.5t-194.5 -56.5h-75z" />
    <glyph glyph-name="dvSS" horiz-adv-x="386" 
d="M231 652l324 -283q-13 -48 -44.5 -91.5t-85.5 -71t-127 -27.5q-98 0 -155 54.5t-57 146.5q0 32 5 57l39 215h-104l15 88h579l-15 -88h-374zM217 574l-25 -140q-4 -20 -4 -43q0 -58 31 -90.5t88 -32.5q55 0 92.5 26t57.5 65z" />
    <glyph glyph-name="dvS" horiz-adv-x="520" 
d="M392 421h249l-16 -86h-450l-24 -132q-3 -16 -3 -32q0 -42 22 -66t66 -24q48 0 78 34t39 90h101q-11 -97 -71.5 -155.5t-156.5 -58.5q-86 0 -133.5 47.5t-47.5 126.5q0 25 4 48l35 198h88q81 0 129 42t61 115l15 84h-351l16 88h655l-16 -88h-199l-16 -84q-15 -90 -74 -147
z" />
    <glyph glyph-name="dvH" horiz-adv-x="586" 
d="M684 740l-15 -88h-138l-18 -103l-14 -76h-180q-41 0 -70.5 -17t-35.5 -54q-2 -10 -2 -14q0 -40 44 -56q24 4 54 4q67 0 112 -25t66 -64.5t19 -81.5h-101q-2 34 -30 60.5t-81 26.5q-60 0 -103 -39t-53 -97q-3 -16 -3 -31q0 -47 29.5 -75.5t82.5 -28.5q50 0 87.5 25.5
t53.5 59.5h100q-14 -47 -48.5 -86t-86 -62.5t-115.5 -23.5q-96 0 -150.5 51.5t-54.5 133.5q0 24 4 44q10 60 44.5 106.5t87.5 73.5q-58 34 -58 96q0 8 2 24q11 60 60.5 93t123.5 33h115l19 103h-395l15 88h633zM269 -179l91 -206h-107l-88 206h104z" />
    <glyph glyph-name="dvLL" horiz-adv-x="981" 
d="M35 740h1034l-16 -88h-1034zM96.5 132.5q-53.5 49.5 -53.5 132.5q0 24 4 45q12 68 50.5 120.5t94.5 81t119 28.5q71 0 117 -35t64 -96h3q37 61 94 96t128 35q85 0 138 -49.5t53 -133.5q0 -26 -4 -47q-12 -67 -50 -118.5t-94 -80t-119 -28.5q-73 0 -120.5 36.5t-59.5 96.5
h-4q-31 -60 -90 -96.5t-132 -36.5q-85 0 -138.5 49.5zM368.5 211q44.5 38 55.5 99q3 15 3 29q0 50 -31 80.5t-84 30.5q-61 0 -106.5 -39t-55.5 -102q-3 -15 -3 -29q0 -49 32 -78t84 -29q61 0 105.5 38zM745.5 210.5q45.5 37.5 56.5 98.5q2 10 2 29q0 51 -31 81.5t-84 30.5
q-61 0 -106 -39t-56 -101q-3 -15 -3 -28q0 -50 31 -79.5t84 -29.5q61 0 106.5 37.5z" />
    <glyph glyph-name="dvK_SS" horiz-adv-x="538" 
d="M239 325q-31 -17 -55 -43t-31 -63q-2 -14 -2 -20q0 -36 23.5 -58.5t65.5 -22.5q50 0 85 32.5t44 79.5h88l-51 -287h-96l27 158q-20 -27 -58 -48.5t-89 -21.5q-69 0 -110 37t-41 97q0 15 3 33q9 51 38 88t67.5 61.5t95.5 50.5q-49 14 -80 50.5t-31 89.5q0 16 3 34
q9 54 42.5 94.5t83.5 62t106 21.5q72 0 119.5 -37.5t47.5 -102.5q0 -15 -3 -33q-14 -78 -86 -133h230l-14 -77h-334q-57 -25 -88 -42zM255.5 473q31.5 -26 85.5 -28q42 23 67.5 50t31.5 64q2 14 2 19q0 37 -25.5 59.5t-66.5 22.5q-31 0 -60 -14.5t-47.5 -42t-18.5 -62.5
q0 -42 31.5 -68z" />
    <glyph glyph-name="dvJ_NY" horiz-adv-x="538" 
d="M773 740l-15 -88h-731l15 88h731zM270 518h464l-15 -84h-280q62 -41 62 -122q0 -15 -3 -33q-13 -81 -70.5 -131t-138.5 -50q-58 0 -98.5 21t-58.5 56l-26 -150h-102l48 278h98q-4 -56 29 -87.5t86 -31.5q41 0 74 19.5t51.5 53t18.5 72.5q0 50 -35.5 77.5t-92.5 27.5h-26z
" />
    <glyph glyph-name="dvKx" horiz-adv-x="728" 
d="M599 652l-34 -193q29 42 74.5 67t102.5 25q79 0 127 -50t48 -131q0 -21 -5 -49h-105q2 10 2 29q0 50 -30 80.5t-80 30.5q-63 0 -103.5 -40t-54.5 -99l-56 -322h-101l32 181q-31 -43 -77.5 -68t-106.5 -25q-80 0 -130 50t-50 133q0 22 5 52q12 69 47.5 120.5t89 79.5
t116.5 28q62 0 100.5 -25t54.5 -68l34 194h-473l15 88h946l-16 -88h-372zM440 319q3 15 3 29q0 48 -29.5 80.5t-87.5 32.5q-59 0 -105.5 -38.5t-57.5 -102.5q-3 -16 -3 -32q0 -52 32 -82t85 -30q66 1 108.5 42.5t53.5 94.5zM133.5 -102.5q-15.5 15.5 -15.5 38.5
q0 32 23.5 55t55.5 23q25 0 40.5 -15.5t15.5 -40.5q0 -31 -24 -53.5t-55 -22.5q-25 0 -40.5 15.5z" />
    <glyph glyph-name="dvKHx" horiz-adv-x="673" 
d="M160 241q-3 -18 -3 -34q0 -55 35 -87.5t98 -32.5q52 0 91.5 23t65.5 59q-26 21 -40 52.5t-14 69.5q0 22 4 42q16 94 86.5 149t168.5 55q86 0 136.5 -43t50.5 -119q0 -22 -4 -42q-11 -63 -47.5 -109.5t-90.5 -71t-117 -24.5q-26 0 -54 5q-37 -61 -99 -99t-141 -38
q-109 0 -171 54t-62 149q0 22 5 54l26 147h32q67 0 110 33t56 111l18 108h-274l16 88h864l-15 -88h-486l-20 -121q-19 -103 -75 -153.5t-136 -53.5zM487 305q0 -45 28.5 -71t78.5 -26q58 0 98 34t51 91q2 9 2 27q0 45 -28 71.5t-79 26.5q-57 0 -97.5 -34t-50.5 -91
q-3 -15 -3 -28zM176.5 -191.5q-15.5 15.5 -15.5 38.5q0 32 23.5 55t55.5 23q25 0 40.5 -15.5t15.5 -40.5q0 -31 -24 -53.5t-55 -22.5q-25 0 -40.5 15.5z" />
    <glyph glyph-name="dvGx" horiz-adv-x="517" 
d="M572 652h-123l-45 -257q-14 -83 -65 -135t-139 -52q-73 0 -114.5 38t-41.5 103q0 21 4 40l6 31h102l-6 -31q-2 -9 -2 -26q0 -65 60 -65q41 0 62.5 26.5t27.5 66.5l47 261h-319l15 88h547zM122.5 14.5q-15.5 15.5 -15.5 38.5q0 32 23.5 55t55.5 23q25 0 40.5 -15.5
t15.5 -40.5q0 -31 -24 -53.5t-55 -22.5q-25 0 -40.5 15.5z" />
    <glyph glyph-name="dvJx" horiz-adv-x="558" 
d="M763 740l-16 -88h-720l15 88h721zM705 406h-223l-14 -76q-16 -93 -79 -150.5t-156 -57.5q-81 0 -128 45t-47 121q0 25 4 45l29 163h105l-29 -164q-3 -16 -3 -32q0 -40 21 -63t60 -23q47 0 79 32t42 86l29 164h325zM155.5 -67.5q-15.5 15.5 -15.5 38.5q0 32 23.5 55
t55.5 23q25 0 40.5 -15.5t15.5 -40.5q0 -31 -24 -53.5t-55 -22.5q-25 0 -40.5 15.5z" />
    <glyph glyph-name="dvPHx" horiz-adv-x="726" 
d="M595 652l-35 -195q31 43 78.5 68.5t108.5 25.5q79 0 125 -48.5t46 -129.5q0 -22 -5 -52h-107q3 17 3 31q0 49 -30 79t-80 30q-65 0 -107 -42.5t-57 -105.5l-55 -313h-105l45 257q-29 -34 -69.5 -52.5t-89.5 -18.5q-85 0 -130.5 48.5t-45.5 132.5q0 31 6 65l39 220h-104
l15 88h945l-15 -88h-376zM490 652h-256l-38 -220q-5 -28 -5 -49q0 -52 27 -80t81 -28q55 0 94 35.5t52 89.5zM141.5 0.5q-15.5 15.5 -15.5 38.5q0 32 23.5 55t55.5 23q25 0 40.5 -15.5t15.5 -40.5q0 -31 -24 -53.5t-55 -22.5q-25 0 -40.5 15.5z" />
    <glyph glyph-name="dvReph" horiz-adv-x="0" 
d="M-168 811q16 89 68 144.5t143 55.5q69 0 106.5 -35t37.5 -96q0 -27 -5 -48h-92q3 14 3 26q0 30 -16.5 47.5t-46.5 17.5q-80 0 -100 -111l-16 -90h-97z" />
    <glyph glyph-name="dvEyelash" horiz-adv-x="311" 
d="M11 740h412l-15 -88h-412zM310 352q-37 -9 -75 -9q-88 0 -147.5 40t-59.5 124q0 18 3 39h99q-2 -16 -2 -23q0 -54 38.5 -78.5t96.5 -24.5q25 0 42.5 4t39.5 11l28 -60q-26 -14 -63 -23z" />
    <glyph glyph-name="dvRashtrasign" horiz-adv-x="0" 
d="M-149 -97l-97 139l-147 -139h-114l192 179h140l129 -179h-103z" />
    <glyph glyph-name="dvK_RA" horiz-adv-x="986" 
d="M599 652l-34 -193q29 42 74.5 67t102.5 25q79 0 127 -50.5t48 -131.5q0 -22 -5 -50q-20 -107 -87.5 -166t-160.5 -59q-35 0 -62 7l14 83q13 -4 37 -4q56 0 99 37.5t55 103.5q2 10 2 29q0 50 -30 80.5t-80 30.5q-63 0 -103.5 -40t-54.5 -99l-56 -322h-101l33 187
q-17 -25 -44 -45l-215 -188h-115l166 143q-72 6 -115 52.5t-43 122.5q0 21 5 49q12 69 48 121t89.5 80.5t116.5 28.5q62 0 100.5 -25t54.5 -68l34 194h-473l15 88h1033l-15 -88h-460zM395 228q32 36 43 80l4 21q1 6 1 18q0 48 -29 81t-88 33t-105.5 -38.5t-57.5 -102.5
q-3 -16 -3 -33q0 -52 31.5 -81.5t84.5 -29.5q11 0 29 2l5 5l5 -2q48 11 80 47z" />
    <glyph glyph-name="dvKH_RA" horiz-adv-x="941" 
d="M1030 740l-16 -88h-121l-114 -652h-105l35 200q-26 -33 -65 -52t-88 -19q-18 0 -36 3q-21 -31 -55 -60l-234 -213h-114l1 6l153 135q-103 1 -161 51.5t-58 142.5q0 28 6 59l26 147h32q66 0 109.5 33t56.5 111l18 108h-274l16 88h988zM788 652h-383l-20 -121
q-19 -103 -75 -153.5t-136 -53.5l-14 -83q-3 -18 -3 -34q0 -55 35 -87.5t98 -32.5q52 0 91.5 23t65.5 60q-24 23 -37.5 56.5t-13.5 73.5q0 25 4 46q10 58 42 101.5t78.5 67.5t99.5 24t86.5 -19t49.5 -52zM668.5 233q32.5 23 49 58t16.5 69q0 41 -25.5 69.5t-76.5 28.5
q-52 0 -92 -33t-50 -89q-2 -10 -2 -27q0 -47 28.5 -73t74.5 -26q45 0 77.5 23z" />
    <glyph glyph-name="dvG_RA" horiz-adv-x="766" 
d="M854 740l-15 -88h-122l-114 -652h-103l41 230l-293 -250h-123l432 359l55 313h-163l-34 -199q-15 -84 -65.5 -135.5t-139.5 -51.5q-74 0 -115 38.5t-41 103.5q0 22 4 41l6 29h102l-6 -31q-3 -13 -3 -27q0 -29 14.5 -46.5t46.5 -17.5q41 0 62.5 26.5t28.5 65.5l36 204
h-319l16 88h812z" />
    <glyph glyph-name="dvGH_RA" horiz-adv-x="707" 
d="M780 652h-121l-114 -652h-106l36 205q-22 -28 -52 -49l-233 -208h-116l182 154h-4q-85 0 -139 40t-54 111q0 16 3 32q11 60 54.5 100t98.5 50v2q-40 8 -64 34.5t-24 73.5q0 20 4 39l12 68h-117l15 88h755zM553 652h-305l-12 -63q-2 -10 -2 -27q0 -40 26 -61t83 -21h42
l-15 -85h-49q-74 0 -113 -34t-39 -87q0 -42 33.5 -64t88.5 -22q48 0 93 21.5t76.5 59.5t40.5 87z" />
    <glyph glyph-name="dvNG_RA" horiz-adv-x="673" 
d="M762 740l-15 -88h-227l-20 -107h1l-13 -75h-179q-45 0 -78 -16t-40 -56q-1 -5 -1 -14q0 -30 23 -44t59 -14h44q78 0 128.5 -34.5t50.5 -104.5q0 -15 -3 -35q-14 -77 -76 -122.5t-165 -45.5q-101 0 -161 44.5t-60 119.5q0 19 2 29h104q-1 -6 -1 -18q0 -44 32 -69.5
t91 -25.5q62 0 99 32t37 80q0 39 -30 57t-79 18h-39q-64 0 -113 29t-49 93q0 13 3 28q13 74 71 109t135 35h106l19 107h-390l15 88h719zM645.5 433q14.5 -14 14.5 -36q0 -28 -22 -49.5t-51 -21.5q-22 0 -36.5 14t-14.5 35q0 29 22.5 50.5t50.5 21.5q22 0 36.5 -14zM345 -158
l-97 139l-147 -139h-114l192 179h140l129 -179h-103z" />
    <glyph glyph-name="dvC_RA" horiz-adv-x="740" 
d="M813 652h-122l-114 -652h-105l34 195q-22 -28 -52 -49l-215 -192h-114l169 145q-76 3 -123.5 45t-47.5 112q0 17 3 36q8 48 34.5 86t67.5 62h-166l15 83h365l-15 -83h-37q-46 0 -83.5 -20.5t-59 -56t-21.5 -79.5q0 -48 34 -75t87 -27q70 1 121 49t66 122v-1l53 300h-561
l15 88h788z" />
    <glyph glyph-name="dvCH_RA" horiz-adv-x="817" 
d="M681 652l-19 -110q51 -13 80 -52t29 -102q0 -21 -5 -51q-21 -118 -104 -196.5t-209 -104.5l111 -153h-109l-97 139l-147 -139h-108l158 147q-100 14 -159 61.5t-59 121.5q0 21 4 38q12 63 54.5 103t103.5 53v3q-40 7 -63.5 34t-23.5 76q0 16 3 37l17 95h-114l15 88h867
l-16 -88h-209zM584 652h-341l-16 -91q-3 -16 -3 -30q0 -79 100 -79h22l-15 -85h-20q-76 0 -117.5 -39t-41.5 -96t52.5 -87t147.5 -30q128 0 215.5 60t106.5 166q3 18 3 35q0 44 -22 68.5t-56 24.5q-37 0 -69.5 -26.5t-41.5 -78.5q-3 -19 -3 -40q0 -24 3 -48h-87q-4 28 -4 45
q0 24 5 54q13 72 57 113.5t105 53.5z" />
    <glyph glyph-name="dvJ_RA" horiz-adv-x="846" 
d="M920 652h-122l-115 -652h-98l37 216l-281 -254h-118l416 362l16 90h-177l-2 -14q-16 -94 -76.5 -151.5t-151.5 -57.5q-85 0 -132 44.5t-47 119.5q0 24 4 45l18 99h106l-18 -97q-3 -18 -3 -33q0 -40 21 -62.5t60 -22.5q47 0 79.5 32t41.5 86l17 97h275l28 153h-672l15 88
h894z" />
    <glyph glyph-name="dvJH_RA" horiz-adv-x="932" 
d="M1005 652h-122l-115 -652h-100l16 92l-191 -201h-107l318 319l6 36l-240 1q22 -30 22 -73q0 -15 -3 -32q-12 -67 -63 -109t-133 -42q-61 0 -95.5 23.5t-49.5 49.5l-25 -143h-100l45 250h94q-2 -45 26.5 -73.5t87.5 -28.5q58 0 89.5 30.5t31.5 73.5q0 37 -28.5 57.5
t-81.5 20.5h-56q-63 2 -104.5 33t-41.5 90q0 14 3 30q13 74 71 108t138 34h106l18 106h-388l16 88h972zM780 652h-257l-19 -106l-14 -76h-179q-44 0 -77.5 -16t-40.5 -57q-2 -10 -2 -15q0 -29 23 -42.5t61 -13.5h44h404z" />
    <glyph glyph-name="dvNY_RA" horiz-adv-x="863" 
d="M937 652h-122l-115 -652h-103l24 134l-236 -216h-109l364 323l9 55h-144q-25 -88 -92 -142t-164 -54q-61 0 -106.5 21.5t-70 58.5t-24.5 83q0 11 1 17h99q1 -38 30.5 -64.5t80.5 -26.5q64 0 106 39.5t52 99.5q2 9 2 28q0 47 -28 77t-83 30q-52 0 -88.5 -26t-54.5 -65
h-100q23 79 89.5 129.5t162.5 50.5q90 0 142.5 -46t56.5 -121h146l48 267h-683l15 88h910z" />
    <glyph glyph-name="dvTT_RA" horiz-adv-x="646" 
d="M228 415.5q-61 -43.5 -76 -126.5q-3 -16 -3 -31q0 -59 40 -95t106 -36q77 0 130.5 47t66.5 123h100q-13 -78 -55 -137t-107 -91.5t-146 -32.5q-71 0 -125.5 26.5t-85 74t-30.5 110.5q0 25 4 46q22 124 112 189.5t223 65.5h15l18 104h-392l16 88h696l-16 -88h-201
l-34 -193h-111q-84 0 -145 -43.5zM379 -100l-97 139l-147 -139h-114l192 179h140l129 -179h-103z" />
    <glyph glyph-name="dvTTH_RA" horiz-adv-x="674" 
d="M439 652l-20 -110q82 -14 132 -68t50 -137q0 -25 -4 -48q-13 -75 -58 -131t-111 -86t-143 -30q-67 0 -120.5 26t-84 73.5t-30.5 110.5q0 25 4 48q18 103 91 167t172 77l19 108h-309l16 88h722l-16 -88h-310zM496 325q0 60 -38.5 96.5t-103.5 36.5q-73 0 -128 -45
t-68 -116q-3 -16 -3 -33q0 -60 38.5 -97t102.5 -37q73 0 128.5 45.5t68.5 116.5q3 17 3 33zM385 -102l-97 139l-147 -139h-114l192 179h140l129 -179h-103z" />
    <glyph glyph-name="dvDD_RA" horiz-adv-x="573" 
d="M231 454q-33 -16 -40 -56q-1 -5 -1 -14q0 -30 23 -44t59 -14h44q78 0 128.5 -34.5t50.5 -104.5q0 -15 -3 -35q-14 -77 -76 -122.5t-165 -45.5q-101 0 -161 44.5t-60 119.5q0 19 2 29h104q-1 -6 -1 -18q0 -44 32 -69.5t91 -25.5q62 0 99 32t37 80q0 39 -30 57t-79 18h-39
q-64 0 -113 29t-49 93q0 13 3 28q13 74 71 109t135 35h101l20 107h-386l15 88h619l-15 -88h-131l-33 -182h-174q-45 0 -78 -16zM340 -158l-97 139l-147 -139h-114l192 179h140l129 -179h-103z" />
    <glyph glyph-name="dvDDH_RA" horiz-adv-x="645" 
d="M239 426.5q-72 -52.5 -89 -149.5q-4 -28 -4 -40q0 -71 46.5 -114t130.5 -43q68 0 117.5 33t59.5 88q2 12 2 18q0 32 -20 51.5t-53 19.5q-34 0 -60 -20.5t-32 -54.5q-2 -12 -2 -20h-76q0 18 3 33q11 65 61.5 101.5t122.5 36.5q66 0 106 -37.5t40 -98.5q0 -15 -3 -32
q-16 -89 -90 -142t-187 -53q-78 0 -138.5 28.5t-94.5 80.5t-34 121q0 22 5 52q16 87 64.5 147t120 90.5t155.5 30.5h34l17 99h-416l16 88h693l-16 -88h-178l-30 -173h-101q-98 0 -170 -52.5zM388 -139l-97 139l-147 -139h-114l192 179h140l129 -179h-103z" />
    <glyph glyph-name="dvNN_RA" horiz-adv-x="867" 
d="M941 652h-122l-115 -652h-99l41 232l-298 -268h-122l436 382l54 306h-177l-34 -197q-17 -93 -75 -149.5t-153 -56.5q-82 0 -128.5 45t-46.5 118q0 23 4 43l34 197h-112l16 88h912zM436 652h-193l-37 -206q-2 -9 -2 -25q0 -38 21.5 -60.5t59.5 -22.5q45 0 76 30t39 78z
" />
    <glyph glyph-name="dvT_RA" horiz-adv-x="699" 
d="M772 652h-121l-115 -652h-101l43 242l-287 -242h-138l1 5l437 347q-14 41 -51.5 66.5t-91.5 25.5q-72 0 -125.5 -43t-67.5 -119h-104q12 74 52 129.5t100.5 85.5t133.5 30q65 0 108 -25.5t65 -64.5l38 215h-522l15 88h747z" />
    <glyph glyph-name="dvTH_RA" horiz-adv-x="773" 
d="M862 740l-15 -88h-122l-115 -652h-105l39 217q-20 -35 -60 -65h1l-306 -224h-130v6l227 161q-98 8 -154.5 64.5t-56.5 150.5q0 29 6 60q4 24 14 58h95q199 0 223 133q2 14 2 22q0 34 -20.5 55t-58.5 21q-56 0 -87.5 -41t-30.5 -102h-95q2 65 30 118t79.5 84t119.5 31
q76 0 120 -41t44 -110q0 -12 -4 -40q-18 -100 -96.5 -153t-199.5 -53h-36q-3 -16 -3 -33q0 -62 42.5 -99.5t123.5 -37.5q57 0 108 25t86.5 72t46.5 111l61 350h227z" />
    <glyph glyph-name="dvD_RA" horiz-adv-x="612" 
d="M230 423q-54 -38 -66 -108q-3 -16 -3 -31q0 -51 32 -81t86 -30q51 0 95 32t54 91h96l-55 -317h-103l32 179q-19 -21 -34 -30l-217 -190h-115l179 152q-71 8 -114.5 55.5t-43.5 125.5q0 21 5 51q20 113 104.5 171t202.5 58h62l18 101h-418l16 88h657l-16 -88h-134
l-34 -191h-157q-75 0 -129 -38z" />
    <glyph glyph-name="dvDH_RA" horiz-adv-x="721" 
d="M795 652h-120l-115 -652h-105l36 204q-16 -21 -41 -43l-254 -227h-116l190 161h-18q-83 0 -137 38t-54 106q0 15 3 31q12 62 54 98t92 45v3q-43 11 -71.5 45t-28.5 88q0 17 3 35q13 75 67 120t132 45q70 0 109.5 -35t39.5 -96q0 -32 -10 -66h-79q6 21 6 38q0 33 -19 52
t-55 19q-44 0 -75 -34.5t-31 -81.5q0 -42 30 -64t84 -22h72l-15 -85h-53q-68 0 -106.5 -30.5t-38.5 -80.5q0 -40 33.5 -62t88.5 -22q56 0 104.5 24.5t81 68.5t42.5 101v-1l50 281l14 87h225z" />
    <glyph glyph-name="dvN_RA" horiz-adv-x="835" 
d="M908 652h-122l-115 -652h-95l31 172l-272 -250h-116l400 353l25 139h-214q27 -39 27 -88q0 -11 -4 -37q-10 -57 -43 -99t-81 -64.5t-102 -22.5q-82 0 -132.5 46.5t-50.5 121.5q0 18 3 37q17 93 85.5 143.5t166.5 50.5h360l26 150h-659l16 88h882zM347 389.5
q-26 24.5 -69 24.5q-51 0 -89 -31.5t-47 -80.5q-2 -14 -2 -21q0 -41 26.5 -65t72.5 -24q36 0 67 18t49 48.5t18 66.5q0 40 -26 64.5z" />
    <glyph glyph-name="dvP_RA" horiz-adv-x="661" 
d="M735 652h-122l-115 -652h-104l46 265q-15 -18 -35 -32l-270 -249h-115l236 207q-82 3 -126 52t-44 131q0 30 6 63l38 215h-104l15 88h709zM508 652h-273l-38 -215q-4 -21 -4 -46q0 -55 28.5 -85.5t84.5 -30.5q61 0 104 39t56 97z" />
    <glyph glyph-name="dvPH_RA" horiz-adv-x="985" 
d="M595 652l-35 -195q31 43 78.5 68.5t108.5 25.5q79 0 125 -48.5t46 -127.5q0 -26 -4 -49q-13 -72 -49 -124.5t-88.5 -80t-112.5 -27.5q-36 0 -65 8l14 82q20 -5 40 -5q57 0 99.5 38.5t53.5 103.5q3 17 3 31q0 49 -30 79t-80 30q-65 0 -107 -42.5t-57 -105.5l-55 -313h-105
l46 262q-14 -15 -27 -26l-269 -252h-115l233 209q-77 4 -117.5 50.5t-40.5 124.5q0 31 6 64l39 220h-104l15 88h1033l-16 -88h-463zM490 652h-256l-38 -220q-5 -28 -5 -49q0 -52 27 -80t81 -28q55 0 94 35.5t52 89.5z" />
    <glyph glyph-name="dvB_RA" horiz-adv-x="688" 
d="M777 740l-16 -88h-121l-114 -652h-101l31 175q-15 -18 -30 -32l-229 -199h-112l171 143q-91 1 -146.5 53.5t-55.5 139.5q0 26 4 47q12 71 52.5 124t100 81.5t129.5 28.5q61 0 103.5 -26t63.5 -68l32 185h-513l15 88h736zM227 450l219 -217q33 42 41 91q3 17 3 32
q0 57 -36.5 96t-105.5 39q-66 0 -121 -41zM146 288q0 -60 41 -95t104 -35q68 0 120 40l-220 217q-33 -41 -42 -93q-3 -18 -3 -34z" />
    <glyph glyph-name="dvBH_RA" horiz-adv-x="832" 
d="M920 740l-15 -88h-123l-115 -652h-95l30 172l-294 -250h-117l424 348l19 106h-180l-9 -54q-17 -100 -76 -156t-149 -56q-77 0 -122.5 39.5t-45.5 107.5q0 15 3 33q15 82 80 126.5t153 44.5h87l15 85q4 26 4 37q0 76 -69 76q-37 0 -63.5 -24.5t-34.5 -67.5q-2 -12 -2 -35
h-102q0 21 3 40q13 80 69.5 128.5t141.5 48.5q77 0 114 -40.5t37 -112.5q0 -26 -7 -68l-12 -67h180l49 279h222zM360 376h-86q-52 0 -88 -28.5t-36 -75.5q0 -34 22.5 -54.5t59.5 -20.5q47 0 77 31.5t40 87.5z" />
    <glyph glyph-name="dvM_RA" horiz-adv-x="803" 
d="M880 652h-122l-115 -652h-95l31 174l-297 -252h-117l425 347l22 124h-174l-12 -66q-17 -99 -76 -155t-150 -56q-76 0 -121.5 39.5t-45.5 105.5q0 17 3 35q15 86 80 133.5t154 47.5h88l31 175h-359l16 88h850zM658 652h-175l-30 -175h174zM343 393h-87q-47 0 -81 -26
t-42 -70q-2 -14 -2 -19q0 -35 22.5 -55.5t59.5 -20.5q46 0 76.5 32t40.5 88z" />
    <glyph glyph-name="dvY_RA" horiz-adv-x="744" 
d="M817 652h-123l-114 -652h-105l34 194q-26 -31 -62 -51l-276 -204h-128l1 6l227 161q-99 7 -154.5 65t-55.5 153q0 30 6 61q4 19 13 51h13q85 0 134 37t64 119l10 60h-275l16 88h790zM589 652h-184l-14 -77q-35 -186 -220 -196l-1 -4q-4 -20 -4 -42q0 -66 42 -104t117 -38
q76 0 134 44.5t78 116.5z" />
    <glyph glyph-name="dvL_RA" horiz-adv-x="902" 
d="M744 652l-21 -125q50 -17 78.5 -62t28.5 -110q0 -31 -5 -56q-19 -109 -92.5 -175.5t-188.5 -66.5l-41 2l17 92q16 -2 28 -2q68 0 113.5 42t57.5 112q3 20 3 37q0 48 -24 76.5t-71 28.5q-60 0 -99 -45t-52 -119l-3 -18h-87l2 18q6 29 6 54q0 51 -23.5 80.5t-70.5 29.5
q-59 0 -96.5 -39t-49.5 -103q-3 -19 -3 -37q0 -54 31 -85.5t91 -31.5q7 0 27 2l-17 -92q-24 -2 -30 -2q-101 0 -155 54t-54 142q0 32 5 56q19 109 87 168.5t162 59.5q72 0 109.5 -39t44.5 -96h2q24 50 65.5 86.5t101.5 45.5l20 118h-620l16 88h954l-16 -88h-231zM660 -172
l-97 139l-147 -139h-114l192 179h140l129 -179h-103z" />
    <glyph glyph-name="dvV_RA" horiz-adv-x="672" 
d="M761 740l-16 -88h-121l-115 -652h-102l32 183q-21 -27 -47 -46l-211 -181h-115l165 136q-81 5 -129 53.5t-48 130.5q0 31 5 55q19 102 91 163t173 61q63 0 104.5 -25t60.5 -69l33 191h-495l15 88h720zM401.5 212.5q46.5 42.5 60.5 99.5l2 16q1 7 1 21q0 52 -32 86.5
t-96 34.5q-65 0 -115.5 -41t-62.5 -108q-3 -16 -3 -31q0 -56 35 -88t94 -32q70 0 116.5 42.5z" />
    <glyph glyph-name="dvSH_RA" horiz-adv-x="822" 
d="M910 740l-15 -88h-121l-116 -652h-103l28 160l-64 37l-251 -204h-124l2 9l303 236l-134 78l-189 -129h-120l1 13l236 160q-106 76 -106 176q0 18 3 37q14 79 76 127.5t152 48.5q53 0 92.5 -20t60.5 -54.5t21 -76.5q0 -14 -3 -29q-10 -59 -43.5 -104t-99.5 -93l195 -114
l3 -1l-1 -1l7 -3l86 487h224zM322 414l3 2q50 33 79.5 66t37.5 77q2 14 2 19q0 36 -23.5 60t-66.5 24q-45 0 -78.5 -29.5t-39.5 -69.5q-2 -18 -2 -25q0 -70 75 -116z" />
    <glyph glyph-name="dvSS_RA" horiz-adv-x="672" 
d="M743 652h-121l-115 -652h-103l45 257q-20 -24 -48 -43l-265 -230h-116l235 196q-80 6 -125 58t-45 137q0 29 6 62l39 215h-104l15 88h718zM519 652h-287l248 -222zM396.5 292.5q38.5 24.5 60.5 66.5l-240 215l-25 -140q-4 -20 -4 -43q0 -57 31.5 -90t88.5 -33
q50 0 88.5 24.5z" />
    <glyph glyph-name="dvS_RA" horiz-adv-x="888" 
d="M946 652h-106l-115 -652h-92l35 195l-233 -254h-102l345 359l7 40h-514l-24 -138q-3 -16 -3 -32q0 -41 19.5 -65t58.5 -24q82 0 100 119h90q-10 -95 -61 -152t-139 -57q-80 0 -124 46t-44 122q0 27 4 48l36 204h88q81 0 129 42t61 115l15 84h-351l15 88h920zM740 652
h-259l-15 -84q-15 -90 -74 -147h307z" />
    <glyph glyph-name="dvH_RA" horiz-adv-x="586" 
d="M684 740l-16 -88h-137l-19 -103l-13 -76h-181q-41 0 -69.5 -17t-35.5 -54q-1 -5 -1 -14q0 -41 45 -57q21 4 50 4q55 0 96.5 -18t65 -49.5t26.5 -69.5l-121 -109h-97l125 110q-11 23 -37.5 39.5t-66.5 16.5q-65 0 -110.5 -44t-57.5 -111q-3 -18 -3 -35q0 -52 31.5 -84
t87.5 -32q51 0 89 25.5t54 59.5h93q-21 -72 -87 -120t-160 -48q-64 0 -111 25t-72 68.5t-25 99.5q0 21 5 49q11 64 47.5 114.5t91.5 79.5q-61 34 -61 98q0 7 2 23q11 60 61 93t124 33h115l18 103h-395l16 88h633z" />
    <glyph glyph-name="dvLL_RA" horiz-adv-x="980" 
d="M803 652l-22 -121q59 -16 93 -61.5t34 -112.5q0 -26 -4 -47q-12 -67 -50 -118.5t-94 -80t-119 -28.5q-73 0 -120.5 36.5t-59.5 96.5h-4q-31 -60 -90 -96.5t-132 -36.5q-85 0 -138.5 49.5t-53.5 132.5q0 24 4 45q12 68 50.5 120.5t94.5 81t119 28.5q71 0 117 -35t64 -96h3
q32 53 80 87t107 42l20 114h-683l16 88h1034l-16 -88h-250zM427 339q0 50 -31 80.5t-84 30.5q-61 0 -106.5 -39t-55.5 -102q-3 -15 -3 -29q0 -49 32 -78t84 -29q61 0 105.5 38t55.5 99q3 15 3 29zM804 338q0 51 -31 81.5t-84 30.5q-61 0 -106 -39t-56 -101q-3 -15 -3 -28
q0 -50 31 -79.5t84 -29.5q61 0 106.5 37.5t56.5 98.5q2 10 2 29zM744 -59l-97 139l-147 -139h-114l192 179h140l129 -179h-103z" />
    <glyph glyph-name="dvKx_RA" horiz-adv-x="1031" 
d="M646 652l-34 -193q29 42 74.5 67t102.5 25q79 0 127 -50.5t48 -131.5q0 -22 -5 -50q-20 -107 -87.5 -166t-160.5 -59q-35 0 -62 7l14 83q13 -4 37 -4q56 0 99 37.5t55 103.5q2 10 2 29q0 50 -30 80.5t-80 30.5q-63 0 -103.5 -40t-54.5 -99l-56 -322h-101l33 187
q-17 -25 -44 -45l-215 -188h-115l166 143q-72 6 -115 52.5t-43 122.5q0 21 5 49q12 69 48 121t89.5 80.5t116.5 28.5q62 0 100.5 -25t54.5 -68l34 194h-529l16 88h1088l-15 -88h-460zM442 228q32 36 43 80l4 21q1 6 1 18q0 48 -29 81t-88 33t-105.5 -38.5t-57.5 -102.5
q-3 -16 -3 -33q0 -52 31.5 -81.5t84.5 -29.5q11 0 29 2l5 5l5 -2q48 11 80 47zM70.5 107q14.5 -14 14.5 -36q0 -29 -21.5 -50t-50.5 -21q-22 0 -36.5 14t-14.5 35q0 29 21.5 50.5t50.5 21.5q22 0 36.5 -14z" />
    <glyph glyph-name="dvKHx_RA" horiz-adv-x="941" 
d="M1030 740l-16 -88h-121l-114 -652h-105l35 200q-26 -33 -65 -52t-88 -19q-18 0 -36 3q-21 -31 -55 -60l-234 -213h-114l1 6l153 135q-103 1 -161 51.5t-58 142.5q0 28 6 59l26 147h32q66 0 109.5 33t56.5 111l18 108h-274l16 88h988zM788 652h-383l-20 -121
q-19 -103 -75 -153.5t-136 -53.5l-14 -83q-3 -18 -3 -34q0 -55 35 -87.5t98 -32.5q52 0 91.5 23t65.5 60q-24 23 -37.5 56.5t-13.5 73.5q0 25 4 46q10 58 42 101.5t78.5 67.5t99.5 24t86.5 -19t49.5 -52zM668.5 233q32.5 23 49 58t16.5 69q0 41 -25.5 69.5t-76.5 28.5
q-52 0 -92 -33t-50 -89q-2 -10 -2 -27q0 -47 28.5 -73t74.5 -26q45 0 77.5 23zM-23.1807 -116.731q-14.21 14.21 -14.21 35.2969q0 29.3379 21.5449 50.4248q21.5449 21.0859 50.8828 21.0859q22.9199 0 37.1309 -14.21q14.21 -14.2109 14.21 -37.1309
q0 -28.4209 -22.0029 -49.0498q-22.0039 -20.6279 -50.4248 -20.6279q-22.9199 0 -37.1309 14.2109z" />
    <glyph glyph-name="dvGx_RA" horiz-adv-x="766" 
d="M854 740l-15 -88h-122l-114 -652h-103l41 230l-293 -250h-123l432 359l55 313h-163l-34 -199q-15 -84 -65.5 -135.5t-139.5 -51.5q-74 0 -115 38.5t-41 103.5q0 22 4 41l6 29h102l-6 -31q-3 -13 -3 -27q0 -29 14.5 -46.5t46.5 -17.5q41 0 62.5 26.5t28.5 65.5l36 204
h-319l16 88h812zM8.81934 57.2686q-14.21 14.21 -14.21 35.2969q0 29.3379 21.5449 50.4248q21.5449 21.0859 50.8828 21.0859q22.9199 0 37.1309 -14.21q14.21 -14.2109 14.21 -37.1309q0 -28.4209 -22.0029 -49.0498q-22.0039 -20.6279 -50.4248 -20.6279
q-22.9199 0 -37.1309 14.2109z" />
    <glyph glyph-name="dvJx_RA" horiz-adv-x="846" 
d="M920 652h-122l-115 -652h-98l37 216l-281 -254h-118l416 362l16 90h-177l-2 -14q-16 -94 -76.5 -151.5t-151.5 -57.5q-85 0 -132 44.5t-47 119.5q0 24 4 45l18 99h106l-18 -97q-3 -18 -3 -33q0 -40 21 -62.5t60 -22.5q47 0 79.5 32t41.5 86l17 97h275l28 153h-672l15 88
h894zM41.8193 -5.73145q-14.21 14.21 -14.21 35.2969q0 29.3379 21.5449 50.4248q21.5449 21.0859 50.8828 21.0859q22.9199 0 37.1309 -14.21q14.21 -14.2109 14.21 -37.1309q0 -28.4209 -22.0029 -49.0498q-22.0039 -20.6279 -50.4248 -20.6279
q-22.9199 0 -37.1309 14.2109z" />
    <glyph glyph-name="dvPHx_RA" horiz-adv-x="1033" 
d="M643 652l-34 -193q31 42 78 67t107 25q79 0 125 -48t46 -128q0 -26 -4 -49q-13 -72 -49 -124.5t-88 -80t-112 -27.5q-36 0 -66 8l14 82q22 -5 41 -5q56 0 98.5 38.5t54.5 103.5q3 15 3 29q0 51 -30 81t-80 30q-65 0 -107 -41.5t-56 -103.5l-56 -316h-105l46 263
q-13 -16 -31 -29l-266 -250h-114l232 209q-77 5 -117.5 51t-40.5 124q0 31 6 64l39 220h-171l15 88h1100l-15 -88h-463zM538 652h-256l-39 -220q-5 -28 -5 -47q0 -52 27 -81t81 -29q60 0 100 40.5t50 101.5zM65.5 96q-21.5 -21 -50.5 -21q-22 0 -36.5 14t-14.5 35
q0 29 21.5 50.5t50.5 21.5q22 0 36.5 -14t14.5 -36q0 -29 -21.5 -50z" />
    <glyph glyph-name="dvK_R" horiz-adv-x="728" 
d="M599 652l-34 -193q29 42 74.5 67t102.5 25q79 0 127 -50t48 -131q0 -21 -5 -49h-105q2 10 2 29q0 50 -30 80.5t-80 30.5q-63 0 -103.5 -40t-54.5 -99l-56 -322h-101l33 187q-17 -25 -44 -45l-215 -188h-115l170 143q-74 5 -118 51.5t-44 123.5q0 21 5 49q12 69 48 121
t89.5 80.5t116.5 28.5q62 0 100.5 -25t54.5 -68l34 194h-473l15 88h946l-16 -88h-372zM382 215.5q42 39.5 56 92.5l4 21q1 6 1 18q0 48 -29 81t-88 33t-105.5 -38.5t-57.5 -102.5q-3 -16 -3 -33q0 -52 31.5 -81.5t84.5 -29.5q64 0 106 39.5z" />
    <glyph glyph-name="dvKH_R" horiz-adv-x="673" 
d="M160 241q-3 -18 -3 -34q0 -55 35 -87.5t98 -32.5q52 0 91.5 23t65.5 59q-26 21 -40 52.5t-14 69.5q0 22 4 42q16 94 86.5 149t168.5 55q86 0 136.5 -43t50.5 -119q0 -22 -4 -42q-11 -63 -47.5 -109.5t-90.5 -71t-117 -24.5q-26 0 -54 5q-42 -67 -105 -102l-189 -172h-114
l1 6l149 131q-101 4 -158 58t-57 144q0 23 5 55l26 147h32q67 0 110 33t56 111l18 108h-274l16 88h864l-15 -88h-486l-20 -121q-19 -103 -75 -153.5t-136 -53.5zM487 305q0 -45 28.5 -71t78.5 -26q58 0 98 34t51 91q2 9 2 27q0 45 -28 71.5t-79 26.5q-57 0 -97.5 -34
t-50.5 -91q-3 -15 -3 -28z" />
    <glyph glyph-name="dvG_R" horiz-adv-x="499" 
d="M649 740l-16 -88h-184l-34 -199q-15 -84 -65.5 -135.5t-139.5 -51.5q-74 0 -115 38.5t-41 103.5q0 22 4 41l6 29h102l-6 -31q-3 -13 -3 -27q0 -29 14.5 -46.5t46.5 -17.5q41 0 62.5 26.5t28.5 65.5l36 204h-319l16 88h607zM125 -20l457 379l-18 -110l-316 -269h-123z" />
    <glyph glyph-name="dvGH_R" horiz-adv-x="419" 
d="M236 589q-3 -15 -3 -29q0 -80 106 -80h46l-16 -85h-52q-65 0 -102 -27.5t-45 -72.5q-2 -14 -2 -19q0 -43 33.5 -65.5t89.5 -22.5q81 0 139.5 48t71.5 123h89q-11 -61 -44 -112.5t-83 -86.5l-236 -212h-115l182 154h-19q-102 0 -159 40t-57 112q0 16 3 34q11 60 53.5 98.5
t97.5 48.5l1 2q-40 8 -64 34.5t-24 73.5q0 20 4 39l11 68h-116l15 88h617l-15 -88h-396z" />
    <glyph glyph-name="dvNG_R" horiz-adv-x="673" 
d="M762 740l-15 -88h-227l-20 -107h1l-13 -75h-179q-45 0 -78 -16t-40 -56q-1 -5 -1 -14q0 -30 23 -44t59 -14h44q78 0 128.5 -34.5t50.5 -104.5q0 -15 -3 -35q-11 -59 -50 -100t-104 -58l110 -152h-103l-97 139l-147 -139h-114l167 155q-59 18 -91.5 57.5t-32.5 93.5
q0 19 2 29h104q-1 -6 -1 -18q0 -44 32 -69.5t91 -25.5q62 0 99 32t37 80q0 39 -30 57t-79 18h-39q-64 0 -113 29t-49 93q0 13 3 28q13 74 71 109t135 35h106l19 107h-390l15 88h719zM645.5 433q14.5 -14 14.5 -36q0 -28 -22 -49.5t-51 -21.5q-22 0 -36.5 14t-14.5 35
q0 29 22.5 50.5t50.5 21.5q22 0 36.5 -14zM268 -176l91 -206h-107l-88 206h104z" />
    <glyph glyph-name="dvC_R" horiz-adv-x="460" 
d="M692 740l-15 -88h-651l15 88h651zM469 232q52 49 65 123h90q-10 -65 -43.5 -119t-84.5 -89l-212 -193h-114l163 140h-12q-89 0 -144 41.5t-55 117.5q0 11 4 39q9 48 35 86t67 62h-166l15 83h365l-15 -83h-37q-46 0 -83.5 -20.5t-59 -56t-21.5 -79.5q0 -48 34 -75t87 -27
q70 1 122 50z" />
    <glyph glyph-name="dvCH_R" horiz-adv-x="817" 
d="M227 561q-3 -16 -3 -30q0 -79 100 -79h22l-15 -85h-20q-76 0 -117.5 -39t-41.5 -96t52.5 -87t147.5 -30q128 0 215.5 60t106.5 166q3 18 3 35q0 44 -22 68.5t-56 24.5q-37 0 -69.5 -26.5t-41.5 -78.5q-3 -19 -3 -40q0 -24 3 -48h-87q-4 28 -4 45q0 24 5 54
q15 87 75 129.5t137 42.5q71 0 114 -41t43 -117q0 -22 -5 -52q-21 -118 -104 -196.5t-209 -104.5l111 -153h-109l-97 139l-147 -139h-108l158 147q-100 14 -159 61.5t-59 121.5q0 21 4 38q12 63 54.5 103t103.5 53v3q-40 7 -63.5 34t-23.5 76q0 16 3 37l17 95h-114l15 88
h867l-16 -88h-647z" />
    <glyph glyph-name="dvJ_R" horiz-adv-x="554" 
d="M764 740l-16 -88h-720l15 88h721zM707 414h-229l-2 -14q-16 -94 -76.5 -151.5t-151.5 -57.5q-85 0 -132 44.5t-47 119.5q0 24 4 45l18 99h106l-18 -97q-3 -18 -3 -33q0 -40 21 -62.5t60 -22.5q47 0 79.5 32t41.5 86l17 97h327zM224 -38l476 416l-19 -108l-340 -308h-117z
" />
    <glyph glyph-name="dvJH_R" horiz-adv-x="567" 
d="M523 652l-19 -106l-14 -76h-179q-44 0 -77.5 -16t-40.5 -57q-2 -10 -2 -15q0 -29 23 -42.5t61 -13.5h44h402l-13 -80l-238 1q22 -30 22 -73q0 -15 -3 -32q-12 -67 -63 -109t-133 -42q-61 0 -95.5 23.5t-49.5 49.5l-25 -143h-100l45 250h94q-2 -45 26.5 -73.5t87.5 -28.5
q58 0 89.5 30.5t31.5 73.5q0 37 -28.5 57.5t-81.5 20.5h-56q-63 2 -104.5 33t-41.5 90q0 14 3 30q13 74 71 108t138 34h106l18 106h-388l16 88h746l-16 -88h-256zM384 -109l315 310l-19 -110l-188 -200h-108z" />
    <glyph glyph-name="dvNY_R" horiz-adv-x="540" 
d="M748 740l-15 -88h-706l15 88h706zM459.5 506q52.5 -46 56.5 -121h169l-15 -89h-165q-25 -88 -92 -142t-164 -54q-61 0 -106.5 21.5t-70 58.5t-24.5 83q0 11 1 17h99q1 -38 30.5 -64.5t80.5 -26.5q64 0 106 39.5t52 99.5q2 9 2 28q0 47 -28 77t-83 30q-52 0 -88.5 -26
t-54.5 -65h-100q23 79 89.5 129.5t162.5 50.5q90 0 142.5 -46zM276 -82l389 350l-19 -112l-261 -238h-109z" />
    <glyph glyph-name="dvTT_R" horiz-adv-x="646" 
d="M228 415.5q-61 -43.5 -76 -126.5q-3 -16 -3 -31q0 -59 40 -95t106 -36q77 0 130.5 47t66.5 123h100q-17 -94 -73.5 -159.5t-143.5 -89.5l107 -148h-103l-95 136h-6l-143 -136h-114l163 152q-66 22 -103.5 73t-37.5 122q0 25 4 46q22 124 112 189.5t223 65.5h15l18 104
h-392l16 88h696l-16 -88h-201l-34 -193h-111q-84 0 -145 -43.5zM305 -118l91 -206h-107l-88 206h104z" />
    </font>
</defs>
</svg>
