<?xml version="1.0" standalone="no"?>
<!DOCTYPE svg PUBLIC "-//W3C//DTD SVG 1.1//EN" "http://www.w3.org/Graphics/SVG/1.1/DTD/svg11.dtd" >
<svg xmlns="http://www.w3.org/2000/svg" xmlns:xlink="http://www.w3.org/1999/xlink" version="1.1">
<metadata>
Created by FontForge 20170731 at Thu Aug 17 12:58:23 2017
 By Aleksey,,,
Copyright 2014-2017 Indian Type Foundry (info@indiantypefoundry.com)
</metadata>
<defs>
<font id="Poppins-SemiBoldItalic" horiz-adv-x="309" >
  <font-face 
    font-family="Poppins SemiBold"
    font-weight="600"
    font-style="italic"
    font-stretch="normal"
    units-per-em="1000"
    panose-1="0 0 7 0 0 0 0 0 0 0"
    ascent="800"
    descent="-200"
    x-height="554"
    cap-height="706"
    bbox="-551 -593 2574 1091"
    underline-thickness="50"
    underline-position="-150"
    slope="-10"
    unicode-range="U+000D-FB02"
  />
<missing-glyph horiz-adv-x="500" 
d="M500 700v-700h-500v700h500zM80 650l170 -255l170 255h-340zM220 350l-170 255v-510zM450 605l-170 -255l170 -255v510zM250 305l-170 -255h340z" />
    <glyph glyph-name=".notdef" horiz-adv-x="500" 
d="M500 700v-700h-500v700h500zM80 650l170 -255l170 255h-340zM220 350l-170 255v-510zM450 605l-170 -255l170 -255v510zM250 305l-170 -255h340z" />
    <glyph glyph-name=".null" horiz-adv-x="0" 
 />
    <glyph glyph-name="nonmarkingreturn" horiz-adv-x="333" 
 />
    <glyph glyph-name="NULL" horiz-adv-x="0" 
 />
    <glyph glyph-name="NULL" horiz-adv-x="0" 
 />
    <glyph glyph-name="CR" unicode="&#xd;" horiz-adv-x="218" 
 />
    <glyph glyph-name="space" unicode=" " horiz-adv-x="218" 
 />
    <glyph glyph-name="exclam" unicode="!" horiz-adv-x="351" 
d="M324 735l-107 -500h-118l70 500h155zM220 147l-27 -147h-152l27 147h152z" />
    <glyph glyph-name="quotedbl" unicode="&#x22;" horiz-adv-x="372" 
d="M179 799l-48 -213h-95l26 213h117zM348 799l-48 -213h-95l26 213h117z" />
    <glyph glyph-name="numbersign" unicode="#" horiz-adv-x="857" 
d="M687 439l-53 -137h128l-22 -128h-156l-68 -174h-131l68 174h-184l-68 -174h-131l68 174h-151l23 128h178l53 137h-146l23 128h173l67 173h131l-67 -173h184l67 173h131l-67 -173h133l-23 -128h-160zM556 439h-184l-53 -137h184z" />
    <glyph glyph-name="dollar" unicode="$" horiz-adv-x="613" 
d="M436 518q1 33 -16.5 56.5t-51.5 30.5l-34 -190l24 -8q61 -20 99 -38t64.5 -51t26.5 -86q0 -11 -4 -39q-9 -54 -45.5 -99.5t-97 -73t-140.5 -27.5h-1l-14 -80h-38l14 82q-95 8 -150.5 57.5t-55.5 128.5q0 15 1 23h150q-2 -36 17 -63.5t58 -36.5l34 197q-74 24 -111.5 39.5
t-67.5 50t-30 90.5q0 11 4 39q10 59 49 103t98.5 68t130.5 25l15 84h38l-15 -85q98 -7 149.5 -55t51.5 -125l-1 -17h-151zM222 510q0 -29 20 -48t57 -34l31 180q-44 -2 -72 -23t-35 -59q-1 -6 -1 -16zM394 205q0 30 -21 49.5t-61 34.5l-33 -188q46 1 76.5 25.5t37.5 63.5
q1 5 1 15z" />
    <glyph glyph-name="percent" unicode="%" horiz-adv-x="749" 
d="M348.5 684q36.5 -33 36.5 -92q0 -17 -3 -35q-14 -75 -65.5 -117.5t-121.5 -42.5q-61 0 -97.5 33t-36.5 91q0 17 3 36q13 75 65 117.5t122 42.5q61 0 97.5 -33zM702 708l-518 -708h-137l519 708h136zM157 538q0 -26 14 -41t38 -15q29 0 50.5 20.5t27.5 54.5q2 14 2 19
q0 26 -14.5 41t-39.5 15q-29 0 -49.5 -20.5t-26.5 -54.5q-2 -14 -2 -19zM652 278.5q36 -32.5 36 -91.5q0 -16 -3 -36q-13 -75 -64.5 -117.5t-121.5 -42.5q-61 0 -97.5 33t-36.5 92q0 17 3 35q13 75 65 117.5t122 42.5q61 0 97 -32.5zM460 132q0 -27 14 -42t39 -15
q29 0 50.5 20.5t27.5 55.5q2 14 2 19q0 26 -14 41.5t-39 15.5q-29 0 -50 -20.5t-28 -55.5q-2 -14 -2 -19z" />
    <glyph glyph-name="ampersand" unicode="&#x26;" horiz-adv-x="689" 
d="M481 0l-88 128q-12 -20 -26 -37q-25 -44 -72.5 -71t-104.5 -27q-90 0 -139.5 47t-49.5 125q0 23 4 43q11 61 42.5 107t77 71.5t95.5 27.5l-10 20q-11 22 -17 41t-6 42q0 14 3 32q7 43 36.5 80.5t78 60.5t110.5 23q89 0 130.5 -40t44.5 -103q1 -7 1 -22q0 -26 -7 -61h-132
q5 22 5 34q1 6 1 17q0 28 -16 43t-46 15q-36 0 -57.5 -23.5t-21.5 -55.5q0 -16 6 -30t20 -35l280 -452h-142zM328 224q0 37 -26.5 60.5t-63.5 23.5q-41 0 -71.5 -25t-39.5 -71q-2 -14 -2 -21q0 -37 24 -58.5t63 -21.5q43 0 75 26.5t39 68.5q2 12 2 18z" />
    <glyph glyph-name="quotesingle" unicode="'" horiz-adv-x="207" 
d="M183 799l-51 -213h-95l25 213h121z" />
    <glyph glyph-name="parenleft" unicode="(" horiz-adv-x="400" 
d="M167 745q101 152 238 246h136l-2 -14q-309 -223 -371 -575q-13 -72 -13 -144q0 -256 181 -431l-2 -13h-136q-83 74 -131 186.5t-48 253.5q0 73 13 148q34 191 135 343z" />
    <glyph glyph-name="parenright" unicode=")" horiz-adv-x="402" 
d="M235 59q-101 -152 -238 -245h-137l2 13q309 222 372 575q13 72 13 144q0 256 -182 431l2 14h137q83 -74 131 -187t48 -253q0 -73 -13 -148q-34 -192 -135 -344z" />
    <glyph glyph-name="asterisk" unicode="*" horiz-adv-x="508" 
d="M422 687l34 -91l-139 -47l123 -46l-70 -94l-91 90l-1 -139h-104l46 139l-124 -91l-38 95l139 47l-121 46l67 91l95 -88l1 139h105l-47 -139z" />
    <glyph glyph-name="plus" unicode="+" horiz-adv-x="566" 
d="M527 291h-187l-34 -190h-136l34 190h-188l24 129h186l34 191h136l-34 -191h188z" />
    <glyph glyph-name="comma" unicode="," horiz-adv-x="214" 
d="M171 26q0 -48 -17 -90.5t-53.5 -69t-90.5 -26.5l10 54q26 0 40 12.5t20 44.5l2 10h-65l23 130h123q8 -32 8 -65z" />
    <glyph glyph-name="hyphen" unicode="-" horiz-adv-x="523" 
d="M504 415l-21 -117h-425l20 117h426z" />
    <glyph glyph-name="period" unicode="." horiz-adv-x="211" 
d="M194 147l-26 -147h-152l26 147h152z" />
    <glyph glyph-name="slash" unicode="/" horiz-adv-x="383" 
d="M496 947l-469 -1128h-136l469 1128h136z" />
    <glyph glyph-name="zero" unicode="0" horiz-adv-x="620" 
d="M35 236q0 -236 219 -236q143 0 223 96t109 263q12 65 12 121q0 237 -218 237q-270 0 -333 -358q-12 -66 -12 -123zM391.5 191.5q-36.5 -58.5 -114.5 -58.5q-55 0 -78.5 31.5t-23.5 88.5q0 46 11 106q19 109 55.5 167t114.5 58q55 0 78.5 -31.5t23.5 -88.5q0 -45 -11 -105
q-19 -109 -55.5 -167.5z" />
    <glyph glyph-name="one" unicode="1" horiz-adv-x="330" 
d="M51 574l23 132h254l-124 -706h-148l101 574h-106z" />
    <glyph glyph-name="two" unicode="2" horiz-adv-x="562" 
d="M407 493q3 17 3 30q0 37 -20 58t-63 21q-100 0 -124 -135h-137q14 85 56.5 142t102.5 84.5t128 27.5q100 0 152 -46t52 -125q0 -22 -5 -50q-18 -104 -124.5 -205t-239.5 -174h309l-20 -115h-497l18 105q382 235 409 382z" />
    <glyph glyph-name="three" unicode="3" horiz-adv-x="568" 
d="M510 687q52 -46 52 -119q0 -17 -3 -37q-12 -64 -56.5 -104.5t-107.5 -50.5l-1 -5q56 -18 88 -56t32 -99q0 -23 -4 -44q-14 -80 -80 -129.5t-174 -49.5q-115 0 -177 53t-62 155q0 18 1 27h138q-1 -6 -1 -18q0 -47 27 -73t82 -26q45 0 74.5 23t35.5 59q2 9 2 26
q0 45 -34.5 69t-101.5 24h-29l21 115h28q141 -2 158 93q2 14 2 21q0 35 -21.5 55t-59.5 20q-45 0 -79.5 -29t-44.5 -79h-138q22 107 97 166t188 59q96 0 148 -46z" />
    <glyph glyph-name="four" unicode="4" horiz-adv-x="626" 
d="M1 142l21 117l417 455h152l-79 -450h92l-22 -122h-92l-24 -142h-143l25 142h-347zM430 549l-263 -285h214z" />
    <glyph glyph-name="five" unicode="5" horiz-adv-x="597" 
d="M576 596h-335l-32 -178q28 28 72 44t93 16q91 0 135.5 -50.5t44.5 -132.5q0 -24 -5 -57q-19 -109 -93 -175t-189 -66q-109 0 -168.5 50.5t-59.5 136.5q0 11 2 33h137q-1 -44 26 -71t77 -27q55 0 88.5 33.5t42.5 88.5q3 18 3 33q0 45 -25 69t-72 24q-38 0 -70.5 -18
t-50.5 -46h-136l73 417h463z" />
    <glyph glyph-name="six" unicode="6" horiz-adv-x="604" 
d="M424 591q-21 27 -69 27q-68 0 -109.5 -61.5t-60.5 -192.5q24 48 75.5 76.5t112.5 28.5q87 0 135.5 -46.5t48.5 -132.5q0 -30 -6 -63q-18 -104 -90 -169t-186 -65q-123 0 -177 64t-54 177q0 55 13 130q32 186 108 276.5t212 90.5q106 0 154.5 -54.5t48.5 -141.5l-1 -21
h-132q-2 50 -23 77zM172 214q0 -45 27 -72.5t81 -27.5t91.5 30t47.5 85q3 18 3 33q0 47 -26.5 72t-74.5 25q-52 0 -94.5 -29.5t-51.5 -84.5q-3 -15 -3 -31z" />
    <glyph glyph-name="seven" unicode="7" horiz-adv-x="486" 
d="M522 607l-365 -607h-146l365 591h-326l21 121h470z" />
    <glyph glyph-name="eight" unicode="8" horiz-adv-x="619" 
d="M145 645.5q36 41.5 97.5 67t141.5 25.5q72 0 121 -23t73.5 -61.5t24.5 -85.5q0 -16 -3 -33q-10 -53 -45.5 -91t-94.5 -58q52 -22 79.5 -61t27.5 -94q0 -24 -4 -44q-17 -97 -101 -150.5t-212 -53.5q-103 0 -166.5 49t-63.5 138q0 25 4 46q10 61 51.5 104t108.5 66
q-43 16 -65 50t-22 80q-1 12 3 39q9 49 45 90.5zM258.5 442.5q25.5 -20.5 69.5 -20.5q57 0 94 31t37 88q0 39 -25.5 60.5t-69.5 21.5q-57 0 -94 -32t-37 -89q0 -39 25.5 -59.5zM188.5 124q29.5 -25 82.5 -25q68 0 110.5 37t42.5 98q0 45 -31 68t-82 23q-64 0 -108 -34.5
t-44 -97.5q0 -44 29.5 -69z" />
    <glyph glyph-name="nine" unicode="9" horiz-adv-x="586" 
d="M188.5 133q22.5 -27 68.5 -27q70 0 111.5 61t61.5 193q-24 -48 -75 -76.5t-113 -28.5q-87 0 -135.5 46.5t-48.5 132.5q0 30 6 63q12 68 48.5 120.5t96.5 83t137 30.5q123 0 175.5 -60.5t52.5 -169.5q0 -58 -15 -141q-21 -121 -57 -201t-99 -123t-159 -43q-75 0 -122.5 30
t-68 79.5t-17.5 107.5h132q-2 -50 20.5 -77zM416 582.5q-27 27.5 -81 27.5t-91.5 -32t-47.5 -89q-3 -16 -3 -32q0 -45 27 -69t74 -24q37 0 71 16.5t56 50t22 80.5q0 44 -27 71.5z" />
    <glyph glyph-name="colon" unicode=":" horiz-adv-x="244" 
d="M251 563l-25 -147h-152l25 147h152zM178 147l-26 -147h-152l26 147h152z" />
    <glyph glyph-name="semicolon" unicode=";" horiz-adv-x="316" 
d="M291 558l-26 -147h-152l26 147h152zM202 26q0 -48 -17 -90.5t-53.5 -69t-90.5 -26.5l10 54q26 0 40 12.5t20 44.5l2 10h-65l23 130h123q8 -32 8 -65z" />
    <glyph glyph-name="less" unicode="&#x3c;" horiz-adv-x="451" 
d="M207 132l-179 224l258 225h176l-258 -225l179 -224h-176z" />
    <glyph glyph-name="equal" unicode="=" horiz-adv-x="601" 
d="M605 539l-22 -128h-545l22 128h545zM563 300l-22 -127h-545l22 127h545z" />
    <glyph glyph-name="greater" unicode="&#x3e;" horiz-adv-x="451" 
d="M68 581h176l179 -225l-258 -224h-177l258 224z" />
    <glyph glyph-name="question" unicode="?" horiz-adv-x="516" 
d="M468.5 705q52.5 -43 52.5 -124q0 -26 -4 -47q-17 -97 -91 -148t-179 -53l-18 -101h-133l35 193h56q79 0 130 23.5t62 84.5q2 16 2 23q0 37 -22 57t-60 20q-46 0 -74 -25.5t-39 -69.5h-134q17 93 88 151.5t185 58.5q91 0 143.5 -43zM225 147l-26 -147h-152l26 147h152z
" />
    <glyph glyph-name="at" unicode="@" horiz-adv-x="1221" 
d="M1008 766.5q99 -42.5 151 -123.5t52 -195q0 -46 -9 -99q-18 -99 -71.5 -181t-128 -129t-150.5 -47q-62 0 -98 26t-36 83q0 13 1 20q-93 -129 -230 -129q-81 0 -127.5 49t-46.5 132q0 40 12 88q21 86 75.5 154.5t131 107t160.5 38.5q96 0 150 -46t54 -126q0 -41 -15 -89
l-35 -108q-8 -23 -8 -41q0 -19 11 -27.5t32 -8.5q35 0 70.5 26.5t63.5 78t41 124.5q7 36 7 76q0 128 -85.5 201t-250.5 73q-149 0 -266 -61t-190.5 -167t-96.5 -237q-9 -48 -9 -91q0 -140 91.5 -215t270.5 -75l-46 -115q-222 3 -338.5 102t-116.5 281q0 56 10 113
q31 172 137 304t262 204t332 72q140 0 239 -42.5zM754 343q0 47 -27.5 71.5t-78.5 24.5q-62 0 -114.5 -47t-71.5 -129q-6 -25 -6 -46q0 -49 28.5 -75.5t74.5 -26.5q39 0 77.5 20.5t68.5 61.5t43 98q6 27 6 48z" />
    <glyph glyph-name="A" unicode="A" horiz-adv-x="704" 
d="M457 142h-282l-75 -142h-149l382 698h162l136 -698h-150zM439 249l-51 299l-157 -299h208z" />
    <glyph glyph-name="B" unicode="B" horiz-adv-x="634" 
d="M560.5 419.5q-42.5 -42.5 -100.5 -55.5q54 -12 84 -49.5t30 -89.5q0 -16 -3 -33q-15 -89 -84 -140.5t-182 -51.5h-303l124 706h297q95 0 144.5 -37t49.5 -105q0 -17 -3 -37q-11 -65 -53.5 -107.5zM468 522q0 71 -96 71h-125l-32 -183h127q53 0 84.5 23.5t39.5 67.5
q2 16 2 21zM432 232q0 37 -26 57t-76 20h-132l-35 -194h133q57 0 92 25t42 71q2 14 2 21z" />
    <glyph glyph-name="C" unicode="C" horiz-adv-x="759" 
d="M653 645q75 -68 83 -185h-149q-12 56 -54.5 89.5t-111.5 33.5q-56 0 -105.5 -28t-84 -80t-46.5 -122q-5 -33 -5 -55q0 -80 44 -127t117 -47q68 0 122 33t87 90h149q-49 -117 -148 -185t-231 -68q-88 0 -152.5 35t-98.5 98.5t-34 147.5q0 40 7 78q18 105 75 187t142 127.5
t187 45.5q132 0 207 -68z" />
    <glyph glyph-name="D" unicode="D" horiz-adv-x="727" 
d="M608 169q-58 -80 -149 -124.5t-206 -44.5h-251l124 706h251q151 0 233 -73.5t82 -201.5q0 -39 -7 -77q-19 -105 -77 -185zM449.5 186q72.5 60 92.5 168q5 32 5 54q0 85 -52 130t-152 45h-97l-81 -457h98q114 0 186.5 60z" />
    <glyph glyph-name="E" unicode="E" horiz-adv-x="525" 
d="M247 594l-31 -183h249l-19 -108h-250l-33 -190h280l-20 -113h-421l124 706h421l-20 -112h-280z" />
    <glyph glyph-name="F" unicode="F" horiz-adv-x="533" 
d="M564 706l-20 -112h-297l-33 -189h238l-19 -108h-238l-52 -297h-141l124 706h438z" />
    <glyph glyph-name="G" unicode="G" horiz-adv-x="768" 
d="M653.5 648.5q72.5 -64.5 82.5 -170.5h-148q-12 48 -52.5 76.5t-102.5 28.5q-61 0 -113 -28t-87.5 -80t-47.5 -122q-5 -26 -5 -58q0 -85 48.5 -131t136.5 -46q76 0 138.5 45t92.5 125h-239l18 101h357l-23 -136q-43 -116 -141 -187.5t-239 -71.5q-91 0 -157.5 35.5
t-101.5 100.5t-35 150q0 40 7 79q18 103 75.5 183.5t145 125.5t191.5 45q127 0 199.5 -64.5z" />
    <glyph glyph-name="H" unicode="H" horiz-adv-x="713" 
d="M711 706l-124 -706h-142l54 307h-302l-54 -307h-141l124 706h141l-50 -286h302l50 286h142z" />
    <glyph glyph-name="I" unicode="I" horiz-adv-x="269" 
d="M267 706l-124 -706h-141l124 706h141z" />
    <glyph glyph-name="J" unicode="J" horiz-adv-x="524" 
d="M528 706l-88 -498q-18 -102 -84.5 -158.5t-166.5 -56.5q-93 0 -145 46.5t-52 134.5q0 32 5 58h140q-4 -26 -4 -37q0 -75 72 -75q40 0 63.5 23.5t30.5 64.5l88 498h141z" />
    <glyph glyph-name="K" unicode="K" horiz-adv-x="651" 
d="M339 359l236 -359h-171l-204 323l-57 -323h-141l124 706h141l-56 -318l318 318h170z" />
    <glyph glyph-name="L" unicode="L" horiz-adv-x="462" 
d="M162 108h236l-18 -108h-378l124 706h141z" />
    <glyph glyph-name="M" unicode="M" horiz-adv-x="889" 
d="M887 698l-123 -698h-140l86 487l-265 -487h-122l-94 485l-85 -485h-141l122 698h171l120 -524l300 524h171z" />
    <glyph glyph-name="N" unicode="N" horiz-adv-x="726" 
d="M600 0h-141l-231 480l-85 -480h-141l124 706h141l231 -484l85 484h141z" />
    <glyph glyph-name="O" unicode="O" horiz-adv-x="780" 
d="M600.5 678.5q69.5 -37.5 107 -106t37.5 -158.5q0 -37 -8 -83q-17 -99 -71.5 -175.5t-137.5 -119.5t-183 -43q-96 0 -166 37.5t-107 105.5t-37 158q0 39 8 85q17 99 71.5 175.5t138 119t183.5 42.5q95 0 164.5 -37.5zM267 525q-67 -61 -86 -164q-5 -33 -5 -56
q0 -84 48 -132.5t132 -48.5q60 0 111 27.5t86 78.5t46 119q5 25 5 57q0 84 -48 132t-131 48q-91 0 -158 -61z" />
    <glyph glyph-name="P" unicode="P" horiz-adv-x="601" 
d="M189 262l-46 -262h-141l124 706h257q109 0 163 -46t54 -128q0 -26 -4 -49q-18 -101 -94 -161t-197 -60h-116zM453 483q2 10 2 27q0 40 -25.5 61t-81.5 21h-101l-38 -217h101q123 0 143 108z" />
    <glyph glyph-name="Q" unicode="Q" horiz-adv-x="780" 
d="M668.5 160q-51.5 -75 -128.5 -118l127 -171h-171l-83 127q-37 -5 -68 -5q-96 0 -166 37.5t-107 105.5t-37 158q0 39 8 85q17 99 71.5 175.5t138 119t183.5 42.5q95 0 164.5 -37.5t107 -106t37.5 -158.5q0 -37 -8 -83q-17 -96 -68.5 -171zM604 406q0 84 -48 132t-131 48
q-91 0 -158 -61t-86 -164q-5 -33 -5 -56q0 -84 48 -132.5t132 -48.5q60 0 111 27.5t86 78.5t46 119q5 25 5 57z" />
    <glyph glyph-name="R" unicode="R" horiz-adv-x="616" 
d="M558 658.5q55 -47.5 55 -126.5q0 -24 -4 -44q-14 -80 -68.5 -134t-141.5 -72l127 -282h-156l-117 275h-62l-48 -275h-141l124 706h269q108 0 163 -47.5zM466 505q0 82 -103 82h-116l-39 -215h116q121 0 140 107q2 9 2 26z" />
    <glyph glyph-name="S" unicode="S" horiz-adv-x="587" 
d="M478 82.5q-33 -40.5 -87.5 -65t-126.5 -24.5q-78 0 -134 27t-85 74.5t-28 109.5h149q-3 -43 23 -71.5t77 -28.5q48 0 76 28.5t28 70.5q0 29 -17 50t-42.5 34t-69.5 31q-57 23 -91.5 43t-59 55t-24.5 89q0 24 4 47q13 75 82.5 119.5t168.5 44.5q119 0 179 -54.5t63 -143.5
h-152q1 38 -22 62.5t-70 24.5q-43 0 -71 -23.5t-28 -66.5q0 -28 16.5 -46.5t40.5 -30.5t68 -30q57 -22 92.5 -41.5t61 -55.5t25.5 -92q0 -18 -5 -48q-8 -48 -41 -88.5z" />
    <glyph glyph-name="T" unicode="T" horiz-adv-x="558" 
d="M606 706l-20 -112h-195l-104 -594h-141l104 594h-194l20 112h530z" />
    <glyph glyph-name="U" unicode="U" horiz-adv-x="683" 
d="M263 706l-73 -414q-5 -30 -5 -51q0 -57 30 -86t87 -29q68 0 112 41.5t59 124.5l73 414h140l-72 -414q-18 -98 -67 -165.5t-119 -100.5t-152 -33q-108 0 -170.5 56t-62.5 165q0 39 7 78l73 414h140z" />
    <glyph glyph-name="V" unicode="V" horiz-adv-x="705" 
d="M225 706l91 -559l288 559h151l-374 -706h-181l-126 706h151z" />
    <glyph glyph-name="W" unicode="W" horiz-adv-x="1022" 
d="M1052 706l-297 -706h-174l-42 512l-223 -512h-173l-49 706h153l11 -549l237 549h155l44 -547l205 547h153z" />
    <glyph glyph-name="X" unicode="X" horiz-adv-x="658" 
d="M413 352l171 -352h-167l-117 242l-183 -242h-161l285 362l-167 344h167l115 -236l180 236h161z" />
    <glyph glyph-name="Y" unicode="Y" horiz-adv-x="645" 
d="M695 706l-320 -459l-43 -247h-142l43 247l-159 459h162l95 -309l205 309h159z" />
    <glyph glyph-name="Z" unicode="Z" horiz-adv-x="573" 
d="M158 114h329l-20 -114h-485l19 108l408 485h-318l20 113h476l-19 -108z" />
    <glyph glyph-name="bracketleft" unicode="[" horiz-adv-x="407" 
d="M457 947l-20 -114h-134l-158 -900h134l-21 -114h-267l200 1128h266z" />
    <glyph glyph-name="backslash" unicode="\" horiz-adv-x="716" 
d="M318 -181l-86 1128h136l86 -1128h-136z" />
    <glyph glyph-name="bracketright" unicode="]" horiz-adv-x="406" 
d="M-51 -181l20 114h135l158 900h-134l20 114h267l-199 -1128h-267z" />
    <glyph glyph-name="asciicircum" unicode="^" horiz-adv-x="676" 
d="M124 167h-140l333 533h136l145 -533h-140l-101 370z" />
    <glyph glyph-name="underscore" unicode="_" horiz-adv-x="654" 
d="M608 -37l-25 -137h-586l25 137h586z" />
    <glyph glyph-name="grave" unicode="`" horiz-adv-x="301" 
d="M310 692l-17 -96l-211 108l19 108z" />
    <glyph glyph-name="a" unicode="a" horiz-adv-x="678" 
d="M445.5 527.5q45.5 -33.5 56.5 -88.5l21 115h140l-98 -554h-140l21 116q-31 -56 -87 -89.5t-126 -33.5q-94 0 -148 58t-54 161q0 39 7 77q15 83 57 145t102.5 94.5t129.5 32.5q73 0 118.5 -33.5zM242 395q-48 -43 -61 -118q-4 -28 -4 -39q0 -57 32.5 -89t89.5 -32
q64 0 113 43.5t62 116.5q4 26 4 38q0 57 -33.5 90t-88.5 33q-66 0 -114 -43z" />
    <glyph glyph-name="b" unicode="b" horiz-adv-x="678" 
d="M8 0l131 740h141l-54 -301q31 56 87 89t126 33q92 0 146.5 -57t54.5 -158q0 -33 -6 -69q-16 -87 -59 -151.5t-105 -98.5t-132 -34t-113.5 33.5t-54.5 89.5l-21 -116h-141zM430 160q48 43 61 117q3 21 3 39q0 58 -32 90t-89 32q-64 0 -113.5 -43.5t-62.5 -117.5
q-3 -19 -3 -36q0 -58 33.5 -91t88.5 -33q66 0 114 43z" />
    <glyph glyph-name="c" unicode="c" horiz-adv-x="621" 
d="M531 503q63 -58 63 -158h-149q-2 44 -29.5 69.5t-75.5 25.5q-57 0 -101.5 -41.5t-58.5 -121.5q-4 -21 -4 -45q0 -58 29.5 -88t76.5 -30q49 0 85.5 25.5t53.5 69.5h149q-35 -100 -117 -158t-189 -58t-170 60.5t-63 167.5q0 32 6 68q15 84 61 145.5t113.5 94t146.5 32.5
q110 0 173 -58z" />
    <glyph glyph-name="d" unicode="d" horiz-adv-x="674" 
d="M689 740l-131 -740h-141l21 116q-31 -56 -87 -89.5t-126 -33.5q-91 0 -146.5 59.5t-55.5 163.5q0 28 7 73q15 83 57 145t103 94.5t130 32.5q72 0 117.5 -33t56.5 -89l54 301h141zM234 395q-48 -43 -61 -118q-3 -21 -3 -38q0 -58 32 -90t89 -32q64 0 113.5 43.5
t62.5 116.5q3 20 3 36q0 59 -33 92t-89 33q-66 0 -114 -43z" />
    <glyph glyph-name="e" unicode="e" horiz-adv-x="621" 
d="M531.5 504q61.5 -57 61.5 -152q0 -22 -5 -54q-6 -30 -13 -48h-407q-2 -11 -2 -32q0 -58 30 -85t79 -27t86 24.5t53 64.5h149q-33 -90 -113.5 -146t-187.5 -56q-106 0 -168.5 59t-62.5 164q0 32 6 68q15 85 61.5 147.5t115 96t148.5 33.5q108 0 169.5 -57zM452 350
q0 50 -31 75t-78 25q-58 0 -103 -35t-61 -103h269q4 19 4 38z" />
    <glyph glyph-name="f" unicode="f" horiz-adv-x="358" 
d="M295 632q-29 -22 -39 -77v-1h112l-21 -119h-112l-77 -435h-141l77 435h-71l20 119h72l2 13q17 99 83.5 152.5t177.5 53.5q18 0 28 -1l-21 -122q-61 4 -90 -18z" />
    <glyph glyph-name="g" unicode="g" horiz-adv-x="676" 
d="M87.5 52q-55.5 59 -55.5 163q0 38 7 74q15 84 57 145.5t103 94.5t130 33q72 0 117.5 -33.5t57.5 -89.5l20 115h140l-98 -556q-14 -77 -54.5 -138.5t-106 -96.5t-149.5 -35q-119 0 -183.5 57t-69.5 155h139q5 -42 35 -65.5t85 -23.5q61 0 106 37t58 110l21 118
q-31 -56 -87 -89.5t-126 -33.5q-91 0 -146.5 59zM243 395q-48 -43 -61 -118q-4 -28 -4 -39q0 -57 32.5 -89t89.5 -32q64 0 113.5 43.5t62.5 116.5q3 20 3 36q0 59 -33 92t-89 33q-66 0 -114 -43z" />
    <glyph glyph-name="h" unicode="h" horiz-adv-x="663" 
d="M572 516.5q46 -45.5 46 -130.5q0 -29 -6 -64l-56 -322h-140l54 306q3 20 3 36q0 50 -28 76.5t-77 26.5q-57 0 -98.5 -34.5t-57.5 -99.5l-55 -311h-141l130 740h141l-52 -296q33 56 88.5 87t121.5 31q81 0 127 -45.5z" />
    <glyph glyph-name="i" unicode="i" horiz-adv-x="268" 
d="M152 764q29 26 73 26q34 0 53.5 -17.5t19.5 -45.5q0 -39 -28.5 -64.5t-72.5 -25.5q-35 0 -54.5 17t-19.5 45q0 39 29 65zM253 554l-98 -554h-141l98 554h141z" />
    <glyph glyph-name="j" unicode="j" horiz-adv-x="272" 
d="M149 654.5q-20 17.5 -20 45.5q0 38 29.5 64t72.5 26q35 0 54.5 -17.5t19.5 -45.5q0 -38 -29 -64t-72 -26q-35 0 -55 17.5zM-104 -142h41q30 0 46 13t22 45l113 638h141l-113 -638q-32 -180 -212 -180h-59z" />
    <glyph glyph-name="k" unicode="k" horiz-adv-x="564" 
d="M314 282l183 -282h-165l-140 247l-43 -247h-141l130 740h141l-72 -411l221 225h167z" />
    <glyph glyph-name="l" unicode="l" horiz-adv-x="266" 
d="M287 740l-130 -740h-141l130 740h141z" />
    <glyph glyph-name="m" unicode="m" horiz-adv-x="1047" 
d="M952.5 515.5q47.5 -46.5 47.5 -133.5q0 -32 -5 -60l-57 -322h-141l55 306q3 18 3 34q0 48 -27 73.5t-75 25.5q-59 0 -99.5 -35.5t-53.5 -104.5l-53 -299h-141l55 306q3 18 3 34q0 48 -27 73.5t-75 25.5q-59 0 -100.5 -37t-53.5 -108v5l-52 -299h-142l98 554h141l-18 -104
q31 53 83.5 82.5t115.5 29.5q67 0 111 -32t58 -92q36 57 94 90.5t122 33.5q86 0 133.5 -46.5z" />
    <glyph glyph-name="n" unicode="n" horiz-adv-x="664" 
d="M571 515.5q46 -46.5 46 -132.5q0 -33 -5 -61l-57 -322h-141l55 306q3 18 3 35q0 50 -28 77t-78 27q-60 0 -103 -39t-55 -112v4l-52 -298h-142l98 554h141l-19 -111q32 56 87.5 87.5t121.5 31.5q82 0 128 -46.5z" />
    <glyph glyph-name="o" unicode="o" horiz-adv-x="642" 
d="M495 533.5q55 -27.5 85.5 -79.5t30.5 -124q0 -30 -6 -65q-15 -83 -62 -144.5t-116.5 -94.5t-149.5 -33q-73 0 -128.5 27.5t-86.5 80t-31 124.5q0 30 6 64q15 83 62.5 145t117.5 94.5t151 32.5q72 0 127 -27.5zM242.5 397.5q-48.5 -41.5 -62.5 -120.5q-4 -20 -4 -42
q0 -59 33 -89.5t83 -30.5q59 0 107.5 41.5t62.5 120.5q4 20 4 42q0 59 -33 89.5t-83 30.5q-59 0 -107.5 -41.5z" />
    <glyph glyph-name="p" unicode="p" horiz-adv-x="677" 
d="M592.5 504q54.5 -57 54.5 -158q0 -33 -6 -69q-16 -87 -59 -151.5t-105 -98.5t-132 -34t-113.5 33.5t-54.5 89.5l-67 -380h-141l144 818h141l-21 -115q31 56 87 89t126 33q92 0 146.5 -57zM436 159.5q48 42.5 62 117.5q3 21 3 38q0 59 -32.5 91t-89.5 32q-64 0 -113 -43.5
t-62 -117.5q-3 -19 -3 -36q0 -58 33.5 -91t88.5 -33q65 0 113 42.5z" />
    <glyph glyph-name="q" unicode="q" horiz-adv-x="673" 
d="M659 554l-144 -818h-140l66 371q-37 -54 -88 -83.5t-114 -29.5q-99 0 -155 59.5t-56 162.5q0 34 6 71q15 85 58.5 147t106.5 94t134 32q65 0 108.5 -27.5t60.5 -77.5l17 99h140zM239.5 394.5q-49.5 -42.5 -62.5 -119.5q-4 -28 -4 -39q0 -58 34 -88.5t88 -30.5
q61 0 111.5 42.5t63.5 117.5q4 26 4 37q0 59 -35 91t-87 32q-63 0 -112.5 -42.5z" />
    <glyph glyph-name="r" unicode="r" horiz-adv-x="415" 
d="M330.5 531.5q56.5 30.5 120.5 30.5l-27 -151h-41q-155 0 -180 -144l-47 -267h-142l98 554h141l-19 -106q40 53 96.5 83.5z" />
    <glyph glyph-name="s" unicode="s" horiz-adv-x="533" 
d="M448.5 510.5q58.5 -50.5 63.5 -136.5h-138q-1 41 -29 64.5t-79 23.5q-38 0 -61.5 -17t-23.5 -46t28.5 -44t88.5 -31q58 -17 94.5 -32.5t63 -45.5t26.5 -79q0 -19 -4 -38q-12 -61 -69 -98.5t-152 -37.5q-109 0 -174.5 49.5t-67.5 137.5h138q-3 -40 28.5 -64t87.5 -24
q40 0 61 18t21 46q0 22 -15.5 36.5t-38.5 23t-66 20.5q-57 16 -92 30.5t-60 43.5t-25 76q0 17 3 36q11 62 68.5 100.5t152.5 38.5q112 0 170.5 -50.5z" />
    <glyph glyph-name="t" unicode="t" horiz-adv-x="397" 
d="M208 193q-2 -9 -2 -24q0 -27 14 -37.5t46 -10.5h55l-22 -121h-74q-79 0 -121 32t-42 105q0 27 6 58l42 240h-77l21 119h77l24 137h142l-24 -137h122l-21 -119h-123z" />
    <glyph glyph-name="u" unicode="u" horiz-adv-x="652" 
d="M637 554l-97 -554h-142l20 110q-33 -55 -88.5 -86t-121.5 -31q-81 0 -127.5 46t-46.5 131q0 29 6 62l57 322h140l-54 -306q-3 -19 -3 -36q0 -50 28 -76.5t78 -26.5q59 0 101.5 37.5t55.5 108.5l53 299h141z" />
    <glyph glyph-name="v" unicode="v" horiz-adv-x="591" 
d="M263 141l213 413h150l-303 -554h-172l-106 554h150z" />
    <glyph glyph-name="w" unicode="w" horiz-adv-x="851" 
d="M894 554l-247 -554h-156l-49 403l-192 -403h-156l-49 554h140l15 -428l198 428h149l49 -428l166 428h132z" />
    <glyph glyph-name="x" unicode="x" horiz-adv-x="555" 
d="M354 273l144 -273h-158l-94 178l-138 -178h-155l234 289l-140 265h158l92 -175l137 175h155z" />
    <glyph glyph-name="y" unicode="y" horiz-adv-x="601" 
d="M195 554l85 -376l206 376h156l-485 -818h-156l175 280l-138 538h157z" />
    <glyph glyph-name="z" unicode="z" horiz-adv-x="474" 
d="M150 118h272l-22 -118h-425l20 112l312 325h-249l21 117h410l-20 -111z" />
    <glyph glyph-name="braceleft" unicode="{" horiz-adv-x="425" 
d="M237.5 334.5q22.5 -27.5 22.5 -70.5q0 -10 -4 -36q-3 -21 -10 -44t-15 -45q-2 -8 -12.5 -40t-16.5 -67q-6 -33 -6 -62q0 -66 27 -110.5t68 -65.5l-2 -11h-145q-31 17 -60.5 63t-29.5 123q0 31 6 67q6 35 17 67.5t13 38.5q20 61 26 90q2 16 2 26q0 74 -84 88l9 52
q105 16 122 114q4 25 5 53t1 35q0 62 8 108q19 107 72.5 169t100.5 84h145l-3 -11q-59 -25 -108 -86t-65 -152q-8 -48 -8 -109q0 -7 -1 -34t-5 -53q-22 -120 -138 -143v-2q46 -9 68.5 -36.5z" />
    <glyph glyph-name="bar" unicode="|" horiz-adv-x="233" 
d="M105 -121h-141l164 929h141z" />
    <glyph glyph-name="braceright" unicode="}" horiz-adv-x="415" 
d="M169 474q0 14 3 30q7 35 25 88q2 5 13 38t17 70q5 26 5 60q0 69 -26.5 119.5t-66.5 70.5l3 11h143q31 -17 60.5 -63t29.5 -122q0 -38 -6 -68q-7 -41 -29 -106q-21 -56 -26 -90q-2 -16 -2 -26q0 -34 19 -58t65 -30l-9 -52q-58 -6 -87 -39t-36 -75q-4 -26 -5 -54.5
t-1 -35.5q0 -66 -7 -106q-19 -107 -72.5 -168.5t-101.5 -84.5h-143l2 11q36 16 72.5 51.5t64 87t38.5 111.5q8 48 8 107q0 6 1 34t6 55q8 53 42 86.5t93 44.5v2q-92 20 -92 101z" />
    <glyph glyph-name="asciitilde" unicode="~" horiz-adv-x="591" 
d="M275 404.5q23 -9.5 53 -28.5q22 -15 38 -22t33 -7q52 0 74 68h107q-32 -98 -86.5 -146t-124.5 -48q-31 0 -53.5 9.5t-51.5 28.5q-22 15 -38 22t-34 7q-52 0 -75 -68h-106q33 98 87 146t124 48q30 0 53 -9.5z" />
    <glyph glyph-name="uni00A0" unicode="&#xa0;" horiz-adv-x="218" 
 />
    <glyph glyph-name="exclamdown" unicode="&#xa1;" horiz-adv-x="367" 
d="M21.7383 -172l113.361 500h125.015l-74.1611 -500h-164.215zM131.922 416l28.6045 147h161.036l-28.6055 -147h-161.035z" />
    <glyph glyph-name="cent" unicode="&#xa2;" horiz-adv-x="583" 
d="M226.5 365q-42.5 -37 -54.5 -105q-3 -19 -3 -36q0 -52 29 -79t78 -27q43 0 80 24t52 66h130q-23 -88 -93.5 -141.5t-161.5 -61.5l-16 -92h-63l16 93q-88 8 -138.5 59.5t-50.5 138.5q0 23 5 56q20 111 93 177t180 76l16 90h63l-16 -89q83 -7 134 -55t51 -127q0 -13 -1 -20
h-129q-2 43 -30 66.5t-71 23.5q-57 0 -99.5 -37z" />
    <glyph glyph-name="sterling" unicode="&#xa3;" horiz-adv-x="611" 
d="M481 527q3 47 -20 76t-69 29q-44 0 -76 -28.5t-41 -80.5q-3 -18 -3 -38q0 -30 10 -94h178l-17 -95h-154q0 -14 -3 -29q-8 -40 -33 -82.5t-68 -77.5h351l-20 -111h-488l-5 70q56 44 87 89.5t42 110.5q2 10 2 30h-117l17 95h89q-6 50 -6 81q0 37 5 66q17 96 89.5 152.5
t176.5 56.5q100 0 152 -52.5t52 -138.5q0 -19 -1 -29h-130z" />
    <glyph glyph-name="currency" unicode="&#xa4;" horiz-adv-x="562" 
d="M461 491q22 -33 22 -79q0 -16 -3 -34q-12 -65 -57 -112l44 -53l-63 -54l-50 60q-50 -21 -104 -21q-57 0 -99 22l-72 -61l-43 54l66 55q-19 31 -19 73q0 18 3 37q12 67 56 111l-48 57l63 54l53 -65q46 21 104 21q53 0 93 -20l75 64l44 -54zM193 354q0 -36 19.5 -54.5
t52.5 -18.5q36 0 66 25t38 71q2 8 2 24q0 35 -20.5 54t-51.5 19q-37 0 -66 -25.5t-38 -71.5q-2 -16 -2 -23z" />
    <glyph glyph-name="yen" unicode="&#xa5;" horiz-adv-x="663" 
d="M499 410h114l-16 -94h-164l-42 -61h195l-17 -95h-199l-28 -160h-142l28 160h-200l17 95h195l-21 61h-164l17 94h115l-103 296h162l92 -330l208 330h159z" />
    <glyph glyph-name="brokenbar" unicode="&#xa6;" horiz-adv-x="335" 
d="M179 808h141l-70 -398h-141zM156 -121h-141l70 399h142z" />
    <glyph glyph-name="section" unicode="&#xa7;" horiz-adv-x="583" 
d="M422 540q1 6 1 16q0 35 -19.5 55.5t-59.5 20.5q-35 0 -57.5 -17.5t-22.5 -51.5q0 -32 30.5 -56.5t106.5 -55.5q71 -30 110 -67t39 -90q0 -59 -38 -106.5t-116 -74.5q68 -49 68 -122q0 -18 -2 -28q-13 -74 -76.5 -118.5t-165.5 -44.5q-96 0 -147.5 46.5t-51.5 126.5
q0 13 1 20h139q-7 -92 79 -92q36 0 58 18t22 53q0 31 -31 55t-107 56q-70 28 -109 65t-39 90q0 60 38.5 110t115.5 71q-68 51 -68 124q0 18 2 27q12 73 76 118t166 45q96 0 147.5 -47t51.5 -128l-1 -18h-140zM376 337.5q-24 20.5 -68 20.5q-55 0 -89 -32t-34 -77
q0 -34 24 -54t67 -20q56 0 90 32t34 77q0 33 -24 53.5z" />
    <glyph glyph-name="dieresis" unicode="&#xa8;" horiz-adv-x="378" 
d="M113 727.5q23 22.5 52 22.5q24 0 39 -14.5t15 -36.5q0 -31 -22.5 -53.5t-53.5 -22.5q-23 0 -38 14.5t-15 37.5q0 30 23 52.5zM301.5 727.5q22.5 22.5 52.5 22.5q24 0 39 -15t15 -38q0 -30 -23 -52t-53 -22q-24 0 -38.5 14.5t-14.5 36.5q0 31 22.5 53.5z" />
    <glyph glyph-name="copyright" unicode="&#xa9;" horiz-adv-x="784" 
d="M265 667.5q-88 -45.5 -146.5 -126.5t-76.5 -185q-7 -36 -7 -75q0 -85 35.5 -149t102 -99.5t156.5 -35.5q103 0 190.5 46t146 127.5t76.5 185.5q7 36 7 75q0 84 -35.5 147.5t-102 99t-155.5 35.5q-103 0 -191 -45.5zM632.5 602q66.5 -65 66.5 -176q0 -26 -7 -70
q-16 -92 -65 -163t-124 -110.5t-166 -39.5q-118 0 -185 66t-67 176q0 27 7 71q16 92 65.5 162.5t124 109.5t166.5 39q118 0 184.5 -65zM564 537.5q50 -45.5 51 -124.5h-119q-5 35 -27 55t-56 20q-45 0 -81 -34.5t-47 -98.5q-3 -19 -3 -36q0 -47 23.5 -72t61.5 -25
q34 0 62.5 20t45.5 55h119q-29 -79 -95 -124.5t-143 -45.5q-84 0 -135 46.5t-51 129.5q0 22 5 52q12 70 50 121.5t93 79t118 27.5q78 0 128 -45.5z" />
    <glyph glyph-name="ordfeminine" unicode="&#xaa;" horiz-adv-x="450" 
d="M337 635l13 71h106l-62 -351h-106l12 70q-49 -76 -140 -76q-62 0 -99 36.5t-37 100.5q0 23 4 43q15 84 69 133t126 49q92 0 114 -76zM175 599.5q-30 -26.5 -38 -70.5q-2 -16 -2 -21q0 -35 20 -54t55 -19q40 0 70.5 25.5t38.5 69.5q2 14 2 21q0 35 -21 55t-56 20
q-39 0 -69 -26.5z" />
    <glyph glyph-name="guillemotleft" unicode="&#xab;" horiz-adv-x="520" 
d="M103 120l-58 175l120 175h131l-122 -175l60 -175h-131zM314 120l-58 175l120 175h131l-122 -175l60 -175h-131z" />
    <glyph glyph-name="logicalnot" unicode="&#xac;" horiz-adv-x="760" 
d="M724 438l-43 -243h-140l24 136h-526l19 107h666z" />
    <glyph glyph-name="uni00AD" unicode="&#xad;" horiz-adv-x="523" 
d="M504 415l-21 -117h-425l20 117h426z" />
    <glyph glyph-name="registered" unicode="&#xae;" horiz-adv-x="806" 
d="M628.5 678.5q68.5 -34.5 105.5 -98.5t37 -149q0 -39 -7 -75q-18 -104 -77.5 -185.5t-150 -127.5t-196.5 -46q-93 0 -162 35.5t-106 100.5t-37 150q0 29 7 73q19 105 79 186t150 126t196 45q93 0 161.5 -34.5zM721 425q0 113 -69 177.5t-193 64.5q-95 0 -172.5 -38.5
t-128 -108.5t-66.5 -164q-6 -36 -6 -68q0 -112 69.5 -176.5t193.5 -64.5q94 0 171.5 38.5t128 108.5t66.5 162q6 36 6 69zM568.5 553.5q33.5 -28.5 33.5 -75.5q0 -9 -2 -25q-9 -47 -42 -80.5t-88 -44.5l81 -180h-98l-74 176h-37l-31 -176h-89l76 434h168q69 0 102.5 -28.5z
M509 456q0 45 -66 45h-70l-21 -119h71q39 0 58.5 15.5t25.5 43.5q2 10 2 15z" />
    <glyph glyph-name="macron" unicode="&#xaf;" horiz-adv-x="426" 
d="M473 732l-17 -95h-383l18 95h382z" />
    <glyph glyph-name="degree" unicode="&#xb0;" horiz-adv-x="440" 
d="M373.5 668q44.5 -37 44.5 -103q0 -12 -4 -38q-14 -82 -74.5 -131t-147.5 -49q-78 0 -123.5 39t-45.5 106q0 17 3 35q15 83 76.5 130.5t149.5 47.5q77 0 121.5 -37zM173 602.5q-29 -26.5 -38 -76.5q-2 -9 -2 -26q0 -37 20 -56.5t52 -19.5q36 0 63.5 26.5t36.5 75.5
q3 15 3 28q0 37 -19 56t-50 19q-37 0 -66 -26.5z" />
    <glyph glyph-name="plusminus" unicode="&#xb1;" horiz-adv-x="566" 
d="M357 363l-25 -141h187l-22 -128h-510l22 128h187l25 141h-187l22 128h187l25 141h136l-25 -141h188l-23 -128h-187z" />
    <glyph glyph-name="twosuperior" unicode="&#xb2;" horiz-adv-x="374" 
d="M323 547.5q-34 -33.5 -111 -70.5l-82 -43h193l-14 -82h-296l13 77l143 87q32 21 50.5 41t22.5 44l1 8q0 14 -8.5 21t-23.5 7q-42 0 -57 -56h-106q15 58 65 95t125 37q59 0 89 -24t30 -62q0 -46 -34 -79.5z" />
    <glyph glyph-name="threesuperior" unicode="&#xb3;" horiz-adv-x="363" 
d="M312.5 690q33.5 -23 33.5 -62q0 -38 -22.5 -62.5t-64.5 -32.5l-1 -3q65 -16 65 -66q0 -52 -45 -84t-121 -32q-83 0 -116 30t-29 89h112q-3 -25 7 -34.5t30 -9.5q21 0 34.5 11t16.5 31q1 4 1 11q0 18 -12 26.5t-34 8.5h-42l7 40h38q24 0 40 11.5t20 34.5q2 18 -7 29.5
t-28 11.5q-41 0 -54 -44h-101q12 51 56 85t123 34q60 0 93.5 -23z" />
    <glyph glyph-name="acute" unicode="&#xb4;" horiz-adv-x="274" 
d="M312 704l-249 -108l17 96l252 120z" />
    <glyph glyph-name="uni00B5" unicode="&#xb5;" horiz-adv-x="668" 
d="M662 554l-98 -554h-142l18 103q-31 -52 -83 -81t-114 -29q-50 0 -75 29l-51 -286h-140l144 818h141l-52 -289q-4 -28 -4 -39q0 -54 29 -82.5t80 -28.5q59 0 100 37.5t53 108.5v-1l52 294h142z" />
    <glyph glyph-name="paragraph" unicode="&#xb6;" horiz-adv-x="662" 
d="M522 0h-114l104 592h-78l-104 -592h-114l49 278h-19q-104 0 -154.5 46.5t-50.5 121.5q0 14 4 42q16 91 86.5 150.5t188.5 59.5h325z" />
    <glyph glyph-name="periodcentered" unicode="&#xb7;" horiz-adv-x="229" 
d="M218 398l-26 -147h-152l26 147h152z" />
    <glyph glyph-name="cedilla" unicode="&#xb8;" horiz-adv-x="305" 
d="M247.5 -71q32.5 -21 32.5 -66q0 -15 -2 -23q-9 -54 -51.5 -79t-98.5 -25h-130l13 76h114q59 0 59 39q0 13 -11.5 21.5t-34.5 8.5h-66l22 126h85l-10 -59q46 2 78.5 -19z" />
    <glyph glyph-name="onesuperior" unicode="&#xb9;" horiz-adv-x="233" 
d="M45 621l14 83h168l-62 -352h-107l48 269h-61z" />
    <glyph glyph-name="ordmasculine" unicode="&#xba;" horiz-adv-x="435" 
d="M378.5 668.5q44.5 -40.5 44.5 -106.5q0 -16 -3 -34q-9 -52 -41 -94t-80.5 -65.5t-106.5 -23.5q-78 0 -122.5 40.5t-44.5 107.5q0 17 3 35q9 52 40.5 93.5t80 64.5t107.5 23q78 0 122.5 -40.5zM174 600.5q-29 -25.5 -38 -72.5q-2 -9 -2 -25q0 -36 19.5 -55t52.5 -19
q38 0 67.5 26t37.5 73q2 9 2 25q0 36 -19.5 54.5t-52.5 18.5q-38 0 -67 -25.5z" />
    <glyph glyph-name="guillemotright" unicode="&#xbb;" horiz-adv-x="520" 
d="M142 295l-61 175h132l57 -175l-119 -175h-132zM353 295l-61 175h132l57 -175l-119 -175h-132z" />
    <glyph glyph-name="onequarter" unicode="&#xbc;" horiz-adv-x="752" 
d="M662 706l-496 -706h-138l497 706h137zM51 621l14 83h168l-62 -352h-107l48 269h-61zM672 65h-43l-12 -65h-107l12 65h-191l11 58l196 230h142l-40 -227h43zM564 274l-120 -145h95z" />
    <glyph glyph-name="onehalf" unicode="&#xbd;" horiz-adv-x="794" 
d="M671 708l-503 -708h-138l503 708h138zM135 621h-61l14 83h168l-62 -352h-107zM703 194.5q-34 -33.5 -111 -70.5l-82 -43h193l-14 -82h-296l13 77l143 87q32 21 50.5 41t22.5 44l1 8q0 14 -8.5 21t-23.5 7q-42 0 -57 -56h-106q15 58 65 95t125 37q59 0 89 -24t30 -62
q0 -46 -34 -79.5z" />
    <glyph glyph-name="threequarters" unicode="&#xbe;" horiz-adv-x="827" 
d="M338.5 690q33.5 -23 33.5 -62q0 -38 -22.5 -62.5t-64.5 -32.5l-1 -3q65 -16 65 -66q0 -52 -45 -84t-121 -32q-83 0 -116 30t-29 89h112q-3 -25 7 -34.5t30 -9.5q21 0 34.5 11t16.5 31q1 4 1 11q0 18 -12 26.5t-34 8.5h-42l7 40h38q24 0 40 11.5t20 34.5q2 18 -7 29.5
t-28 11.5q-41 0 -54 -44h-101q12 51 56 85t123 34q60 0 93.5 -23zM746 708l-486 -708h-137l485 708h138zM759 65h-43l-11 -65h-107l11 65h-191l10 58l184 230h155l-40 -227h43zM653 286l-122 -160h95z" />
    <glyph glyph-name="questiondown" unicode="&#xbf;" horiz-adv-x="508" 
d="M45.5 -146q-52.5 43 -52.5 124q0 26 4 47q17 97 91 148t179 53l18 101h133l-35 -193h-56q-79 0 -130 -23.5t-62 -84.5q-2 -16 -2 -23q0 -37 22 -57t60 -20q46 0 74 25.5t39 69.5h134q-17 -93 -88 -151.5t-185 -58.5q-91 0 -143.5 43zM289 412l26 147h152l-26 -147h-152z
" />
    <glyph glyph-name="Agrave" unicode="&#xc0;" horiz-adv-x="704" 
d="M458 142h-282l-75 -142h-149l382 698h162l136 -698h-150zM440 249l-51 299l-157 -299h208zM513 844l-17 -96l-211 108l19 108z" />
    <glyph glyph-name="Aacute" unicode="&#xc1;" horiz-adv-x="704" 
d="M458 142h-282l-75 -142h-149l382 698h162l136 -698h-150zM440 249l-51 299l-157 -299h208zM590 856l-249 -108l17 96l252 120z" />
    <glyph glyph-name="Acircumflex" unicode="&#xc2;" horiz-adv-x="704" 
d="M461 142h-282l-75 -142h-149l382 698h162l136 -698h-150zM443 249l-51 299l-157 -299h208zM442 840l-164 -85l17 95l164 83l133 -83l-16 -95z" />
    <glyph glyph-name="Atilde" unicode="&#xc3;" horiz-adv-x="704" 
d="M464 142h-282l-75 -142h-149l382 698h162l136 -698h-150zM446 249l-51 299l-157 -299h208zM430 886q15 -7 35 -20q14 -10 25 -15.5t25 -5.5q18 0 32 12t21 35h72q-43 -131 -144 -131q-22 0 -38 7t-35 20q-16 10 -25.5 15t-22.5 5q-37 0 -53 -47h-72q45 132 144 132
q21 0 36 -7z" />
    <glyph glyph-name="Adieresis" unicode="&#xc4;" horiz-adv-x="704" 
d="M463 142h-282l-75 -142h-149l382 698h162l136 -698h-150zM445 249l-51 299l-157 -299h208zM309 879.5q23 22.5 52 22.5q24 0 39 -14.5t15 -36.5q0 -31 -22.5 -53.5t-53.5 -22.5q-23 0 -38 14.5t-15 37.5q0 30 23 52.5zM497.5 879.5q22.5 22.5 52.5 22.5q24 0 39 -15
t15 -38q0 -30 -23 -52t-53 -22q-24 0 -38.5 14.5t-14.5 36.5q0 31 22.5 53.5z" />
    <glyph glyph-name="Aring" unicode="&#xc5;" horiz-adv-x="704" 
d="M456 142h-282l-75 -142h-149l382 698h162l136 -698h-150zM438 249l-51 299l-157 -299h208zM527 960q27 -24 27 -67q0 -41 -19 -73t-50.5 -49t-67.5 -17q-43 0 -70 24.5t-27 67.5q0 41 19.5 72.5t51 48.5t66.5 17q43 0 70 -24zM400.5 906.5q-19.5 -19.5 -19.5 -50.5
q0 -20 13 -32t33 -12q27 0 47 19.5t20 49.5q0 21 -13 33t-34 12q-27 0 -46.5 -19.5z" />
    <glyph glyph-name="AE" unicode="&#xc6;" horiz-adv-x="926" 
d="M655 594l-32 -181h243l-19 -108h-243l-34 -192h274l-20 -113h-415l24 136h-241l-96 -136h-154l501 706h505l-20 -112h-273zM452 243l61 346l-245 -346h184z" />
    <glyph glyph-name="Ccedilla" unicode="&#xc7;" horiz-adv-x="759" 
d="M664 645q75 -68 83 -185h-149q-12 56 -54.5 89.5t-111.5 33.5q-56 0 -105.5 -28t-84 -80t-46.5 -122q-5 -33 -5 -55q0 -80 44 -127t117 -47q68 0 122 33t87 90h149q-49 -117 -148 -185t-231 -68q-88 0 -152.5 35t-98.5 98.5t-34 147.5q0 40 7 78q18 105 75 187t142 127.5
t187 45.5q132 0 207 -68zM454.5 -71q32.5 -21 32.5 -66q0 -15 -2 -23q-9 -54 -51.5 -79t-98.5 -25h-130l13 76h114q59 0 59 39q0 13 -11.5 21.5t-34.5 8.5h-66l22 126h85l-10 -59q46 2 78.5 -19z" />
    <glyph glyph-name="Egrave" unicode="&#xc8;" horiz-adv-x="525" 
d="M242 594l-31 -183h249l-19 -108h-250l-33 -190h280l-20 -113h-421l124 706h421l-20 -112h-280zM430 844l-17 -96l-211 108l19 108z" />
    <glyph glyph-name="Eacute" unicode="&#xc9;" horiz-adv-x="525" 
d="M242 594l-31 -183h249l-19 -108h-250l-33 -190h280l-20 -113h-421l124 706h421l-20 -112h-280zM508 856l-249 -108l17 96l252 120z" />
    <glyph glyph-name="Ecircumflex" unicode="&#xca;" horiz-adv-x="525" 
d="M245 594l-31 -183h249l-19 -108h-250l-33 -190h280l-20 -113h-421l124 706h421l-20 -112h-280zM359 840l-164 -85l17 95l164 83l133 -83l-16 -95z" />
    <glyph glyph-name="Edieresis" unicode="&#xcb;" horiz-adv-x="525" 
d="M247 594l-31 -183h249l-19 -108h-250l-33 -190h280l-20 -113h-421l124 706h421l-20 -112h-280zM226 879.5q23 22.5 52 22.5q24 0 39 -14.5t15 -36.5q0 -31 -22.5 -53.5t-53.5 -22.5q-23 0 -38 14.5t-15 37.5q0 30 23 52.5zM414.5 879.5q22.5 22.5 52.5 22.5q24 0 39 -15
t15 -38q0 -30 -23 -52t-53 -22q-24 0 -38.5 14.5t-14.5 36.5q0 31 22.5 53.5z" />
    <glyph glyph-name="Igrave" unicode="&#xcc;" horiz-adv-x="269" 
d="M268 706l-124 -706h-141l124 706h141zM295 844l-17 -96l-211 108l19 108z" />
    <glyph glyph-name="Iacute" unicode="&#xcd;" horiz-adv-x="269" 
d="M268 706l-124 -706h-141l124 706h141zM373 856l-249 -108l17 96l252 120z" />
    <glyph glyph-name="Icircumflex" unicode="&#xce;" horiz-adv-x="269" 
d="M271 706l-124 -706h-141l124 706h141zM225 840l-164 -85l17 95l164 83l133 -83l-16 -95z" />
    <glyph glyph-name="Idieresis" unicode="&#xcf;" horiz-adv-x="269" 
d="M273 706l-124 -706h-141l124 706h141zM93 879.5q23 22.5 52 22.5q24 0 39 -14.5t15 -36.5q0 -31 -22.5 -53.5t-53.5 -22.5q-23 0 -38 14.5t-15 37.5q0 30 23 52.5zM281.5 879.5q22.5 22.5 52.5 22.5q24 0 39 -15t15 -38q0 -30 -23 -52t-53 -22q-24 0 -38.5 14.5
t-14.5 36.5q0 31 22.5 53.5z" />
    <glyph glyph-name="Eth" unicode="&#xd0;" horiz-adv-x="743" 
d="M626 632.5q82 -73.5 82 -201.5q0 -39 -7 -77q-19 -105 -77 -185t-149 -124.5t-206 -44.5h-251l52 298h-76l20 113h76l52 295h251q151 0 233 -73.5zM563 408q0 85 -52 130t-152 45h-97l-30 -172h171l-20 -113h-172l-30 -172h98q114 0 186.5 60t92.5 168q5 32 5 54z" />
    <glyph glyph-name="Ntilde" unicode="&#xd1;" horiz-adv-x="726" 
d="M601 0h-141l-231 480l-85 -480h-141l124 706h141l231 -484l85 484h141zM435 886q15 -7 35 -20q14 -10 25 -15.5t25 -5.5q18 0 32 12t21 35h72q-43 -131 -144 -131q-22 0 -38 7t-35 20q-16 10 -25.5 15t-22.5 5q-37 0 -53 -47h-72q45 132 144 132q21 0 36 -7z" />
    <glyph glyph-name="Ograve" unicode="&#xd2;" horiz-adv-x="780" 
d="M596.5 678.5q69.5 -37.5 107 -106t37.5 -158.5q0 -37 -8 -83q-17 -99 -71.5 -175.5t-137.5 -119.5t-183 -43q-96 0 -166 37.5t-107 105.5t-37 158q0 39 8 85q17 99 71.5 175.5t138 119t183.5 42.5q95 0 164.5 -37.5zM263 525q-67 -61 -86 -164q-5 -33 -5 -56
q0 -84 48 -132.5t132 -48.5q60 0 111 27.5t86 78.5t46 119q5 25 5 57q0 84 -48 132t-131 48q-91 0 -158 -61zM551 844l-17 -96l-211 108l19 108z" />
    <glyph glyph-name="Oacute" unicode="&#xd3;" horiz-adv-x="780" 
d="M591.5 678.5q69.5 -37.5 107 -106t37.5 -158.5q0 -37 -8 -83q-17 -99 -71.5 -175.5t-137.5 -119.5t-183 -43q-96 0 -166 37.5t-107 105.5t-37 158q0 39 8 85q17 99 71.5 175.5t138 119t183.5 42.5q95 0 164.5 -37.5zM258 525q-67 -61 -86 -164q-5 -33 -5 -56
q0 -84 48 -132.5t132 -48.5q60 0 111 27.5t86 78.5t46 119q5 25 5 57q0 84 -48 132t-131 48q-91 0 -158 -61zM624 856l-249 -108l17 96l252 120z" />
    <glyph glyph-name="Ocircumflex" unicode="&#xd4;" horiz-adv-x="780" 
d="M594.5 678.5q69.5 -37.5 107 -106t37.5 -158.5q0 -37 -8 -83q-17 -99 -71.5 -175.5t-137.5 -119.5t-183 -43q-96 0 -166 37.5t-107 105.5t-37 158q0 39 8 85q17 99 71.5 175.5t138 119t183.5 42.5q95 0 164.5 -37.5zM261 525q-67 -61 -86 -164q-5 -33 -5 -56
q0 -84 48 -132.5t132 -48.5q60 0 111 27.5t86 78.5t46 119q5 25 5 57q0 84 -48 132t-131 48q-91 0 -158 -61zM475 840l-164 -85l17 95l164 83l133 -83l-16 -95z" />
    <glyph glyph-name="Otilde" unicode="&#xd5;" horiz-adv-x="780" 
d="M597.5 678.5q69.5 -37.5 107 -106t37.5 -158.5q0 -37 -8 -83q-17 -99 -71.5 -175.5t-137.5 -119.5t-183 -43q-96 0 -166 37.5t-107 105.5t-37 158q0 39 8 85q17 99 71.5 175.5t138 119t183.5 42.5q95 0 164.5 -37.5zM264 525q-67 -61 -86 -164q-5 -33 -5 -56
q0 -84 48 -132.5t132 -48.5q60 0 111 27.5t86 78.5t46 119q5 25 5 57q0 84 -48 132t-131 48q-91 0 -158 -61zM463 886q15 -7 35 -20q14 -10 25 -15.5t25 -5.5q18 0 32 12t21 35h72q-43 -131 -144 -131q-22 0 -38 7t-35 20q-16 10 -25.5 15t-22.5 5q-37 0 -53 -47h-72
q45 132 144 132q21 0 36 -7z" />
    <glyph glyph-name="Odieresis" unicode="&#xd6;" horiz-adv-x="780" 
d="M596.5 678.5q69.5 -37.5 107 -106t37.5 -158.5q0 -37 -8 -83q-17 -99 -71.5 -175.5t-137.5 -119.5t-183 -43q-96 0 -166 37.5t-107 105.5t-37 158q0 39 8 85q17 99 71.5 175.5t138 119t183.5 42.5q95 0 164.5 -37.5zM263 525q-67 -61 -86 -164q-5 -33 -5 -56
q0 -84 48 -132.5t132 -48.5q60 0 111 27.5t86 78.5t46 119q5 25 5 57q0 84 -48 132t-131 48q-91 0 -158 -61zM343 879.5q23 22.5 52 22.5q24 0 39 -14.5t15 -36.5q0 -31 -22.5 -53.5t-53.5 -22.5q-23 0 -38 14.5t-15 37.5q0 30 23 52.5zM531.5 879.5q22.5 22.5 52.5 22.5
q24 0 39 -15t15 -38q0 -30 -23 -52t-53 -22q-24 0 -38.5 14.5t-14.5 36.5q0 31 22.5 53.5z" />
    <glyph glyph-name="multiply" unicode="&#xd7;" horiz-adv-x="536" 
d="M365 362l123 -149l-109 -92l-123 148l-172 -147l-76 90l173 148l-119 144l110 93l118 -144l167 143l76 -90z" />
    <glyph glyph-name="Oslash" unicode="&#xd8;" horiz-adv-x="790" 
d="M693 595q51 -76 51 -181q0 -37 -8 -83q-17 -99 -71.5 -175.5t-137.5 -119.5t-183 -43q-137 0 -220 75l-72 -67h-79l116 107q-55 76 -55 187q0 38 8 84q17 99 71.5 175.5t138 119t183.5 42.5q70 0 127 -21t97 -60l79 74h78zM175 306q0 -56 22 -98l357 331q-47 47 -130 47
q-91 0 -158 -61t-86 -164q-5 -32 -5 -55zM603 405q0 53 -18 90l-355 -329q47 -42 125 -42q60 0 111 27.5t86 78.5t46 119q5 33 5 56z" />
    <glyph glyph-name="Ugrave" unicode="&#xd9;" horiz-adv-x="683" 
d="M259 706l-73 -414q-5 -30 -5 -51q0 -57 30 -86t87 -29q68 0 112 41.5t59 124.5l73 414h140l-72 -414q-18 -98 -67 -165.5t-119 -100.5t-152 -33q-108 0 -170.5 56t-62.5 165q0 39 7 78l73 414h140zM497 844l-17 -96l-211 108l19 108z" />
    <glyph glyph-name="Uacute" unicode="&#xda;" horiz-adv-x="683" 
d="M259 706l-73 -414q-5 -30 -5 -51q0 -57 30 -86t87 -29q68 0 112 41.5t59 124.5l73 414h140l-72 -414q-18 -98 -67 -165.5t-119 -100.5t-152 -33q-108 0 -170.5 56t-62.5 165q0 39 7 78l73 414h140zM575 856l-249 -108l17 96l252 120z" />
    <glyph glyph-name="Ucircumflex" unicode="&#xdb;" horiz-adv-x="683" 
d="M262 706l-73 -414q-5 -30 -5 -51q0 -57 30 -86t87 -29q68 0 112 41.5t59 124.5l73 414h140l-72 -414q-18 -98 -67 -165.5t-119 -100.5t-152 -33q-108 0 -170.5 56t-62.5 165q0 39 7 78l73 414h140zM426 840l-164 -85l17 95l164 83l133 -83l-16 -95z" />
    <glyph glyph-name="Udieresis" unicode="&#xdc;" horiz-adv-x="683" 
d="M264 706l-73 -414q-5 -30 -5 -51q0 -57 30 -86t87 -29q68 0 112 41.5t59 124.5l73 414h140l-72 -414q-18 -98 -67 -165.5t-119 -100.5t-152 -33q-108 0 -170.5 56t-62.5 165q0 39 7 78l73 414h140zM293 879.5q23 22.5 52 22.5q24 0 39 -14.5t15 -36.5q0 -31 -22.5 -53.5
t-53.5 -22.5q-23 0 -38 14.5t-15 37.5q0 30 23 52.5zM481.5 879.5q22.5 22.5 52.5 22.5q24 0 39 -15t15 -38q0 -30 -23 -52t-53 -22q-24 0 -38.5 14.5t-14.5 36.5q0 31 22.5 53.5z" />
    <glyph glyph-name="Yacute" unicode="&#xdd;" horiz-adv-x="645" 
d="M690 706l-320 -459l-43 -247h-142l43 247l-159 459h162l95 -309l205 309h159zM556 856l-249 -108l17 96l252 120z" />
    <glyph glyph-name="Thorn" unicode="&#xde;" horiz-adv-x="601" 
d="M168 139l-25 -139h-141l124 706h140l-24 -135h117q109 0 163.5 -45t54.5 -126q0 -25 -4 -46q-18 -99 -93 -157t-196 -58h-116zM430 354q2 10 2 27q0 40 -25 60.5t-81 20.5h-101l-38 -216h101q122 0 142 108z" />
    <glyph glyph-name="germandbls" unicode="&#xdf;" horiz-adv-x="693" 
d="M619.5 308q28.5 -44 28.5 -101q0 -21 -5 -51q-13 -72 -71 -118t-147 -46q-90 0 -141.5 46t-51.5 127q0 9 2 31h116q-1 -5 -1 -15q0 -31 18 -49t52 -18q37 0 60 21t29 50q1 6 1 17q0 24 -13.5 44t-46.5 44l-137 98l11 50l27 14q33 17 49 40.5t16 57.5q0 31 -19.5 50
t-54.5 19q-44 0 -73.5 -25.5t-37.5 -72.5l-90 -521h-142l94 526q19 107 92 165.5t191 58.5q93 0 144 -40.5t51 -104.5q0 -14 -3 -29q-7 -41 -38 -74t-83 -56l86 -57q59 -37 87.5 -81z" />
    <glyph glyph-name="agrave" unicode="&#xe0;" horiz-adv-x="677" 
d="M448.5 527.5q45.5 -33.5 56.5 -88.5l21 115h140l-98 -554h-140l21 116q-31 -56 -87 -89.5t-126 -33.5q-94 0 -148 58t-54 161q0 39 7 77q15 83 57 145t102.5 94.5t129.5 32.5q73 0 118.5 -33.5zM245 395q-48 -43 -61 -118q-4 -28 -4 -39q0 -57 32.5 -89t89.5 -32
q64 0 113 43.5t62 116.5q4 26 4 38q0 57 -33.5 90t-88.5 33q-66 0 -114 -43zM460 692l-17 -96l-211 108l19 108z" />
    <glyph glyph-name="aacute" unicode="&#xe1;" horiz-adv-x="677" 
d="M448.5 527.5q45.5 -33.5 56.5 -88.5l21 115h140l-98 -554h-140l21 116q-31 -56 -87 -89.5t-126 -33.5q-94 0 -148 58t-54 161q0 39 7 77q15 83 57 145t102.5 94.5t129.5 32.5q73 0 118.5 -33.5zM245 395q-48 -43 -61 -118q-4 -28 -4 -39q0 -57 32.5 -89t89.5 -32
q64 0 113 43.5t62 116.5q4 26 4 38q0 57 -33.5 90t-88.5 33q-66 0 -114 -43zM538 704l-249 -108l17 96l252 120z" />
    <glyph glyph-name="acircumflex" unicode="&#xe2;" horiz-adv-x="677" 
d="M439.5 527.5q45.5 -33.5 56.5 -88.5l21 115h140l-98 -554h-140l21 116q-31 -56 -87 -89.5t-126 -33.5q-94 0 -148 58t-54 161q0 39 7 77q15 83 57 145t102.5 94.5t129.5 32.5q73 0 118.5 -33.5zM236 395q-48 -43 -61 -118q-4 -28 -4 -39q0 -57 32.5 -89t89.5 -32
q64 0 113 43.5t62 116.5q4 26 4 38q0 57 -33.5 90t-88.5 33q-66 0 -114 -43zM378 688l-164 -85l17 95l164 83l133 -83l-16 -95z" />
    <glyph glyph-name="atilde" unicode="&#xe3;" horiz-adv-x="677" 
d="M454.5 527.5q45.5 -33.5 56.5 -88.5l21 115h140l-98 -554h-140l21 116q-31 -56 -87 -89.5t-126 -33.5q-94 0 -148 58t-54 161q0 39 7 77q15 83 57 145t102.5 94.5t129.5 32.5q73 0 118.5 -33.5zM251 395q-48 -43 -61 -118q-4 -28 -4 -39q0 -57 32.5 -89t89.5 -32
q64 0 113 43.5t62 116.5q4 26 4 38q0 57 -33.5 90t-88.5 33q-66 0 -114 -43zM378 734q15 -7 35 -20q14 -10 25 -15.5t25 -5.5q18 0 32 12t21 35h72q-43 -131 -144 -131q-22 0 -38 7t-35 20q-16 10 -25.5 15t-22.5 5q-37 0 -53 -47h-72q45 132 144 132q21 0 36 -7z" />
    <glyph glyph-name="adieresis" unicode="&#xe4;" horiz-adv-x="677" 
d="M453.5 527.5q45.5 -33.5 56.5 -88.5l21 115h140l-98 -554h-140l21 116q-31 -56 -87 -89.5t-126 -33.5q-94 0 -148 58t-54 161q0 39 7 77q15 83 57 145t102.5 94.5t129.5 32.5q73 0 118.5 -33.5zM250 395q-48 -43 -61 -118q-4 -28 -4 -39q0 -57 32.5 -89t89.5 -32
q64 0 113 43.5t62 116.5q4 26 4 38q0 57 -33.5 90t-88.5 33q-66 0 -114 -43zM257 727.5q23 22.5 52 22.5q24 0 39 -14.5t15 -36.5q0 -31 -22.5 -53.5t-53.5 -22.5q-23 0 -38 14.5t-15 37.5q0 30 23 52.5zM445.5 727.5q22.5 22.5 52.5 22.5q24 0 39 -15t15 -38q0 -30 -23 -52
t-53 -22q-24 0 -38.5 14.5t-14.5 36.5q0 31 22.5 53.5z" />
    <glyph glyph-name="aring" unicode="&#xe5;" horiz-adv-x="677" 
d="M434.5 527.5q45.5 -33.5 56.5 -88.5l21 115h140l-98 -554h-140l21 116q-31 -56 -87 -89.5t-126 -33.5q-94 0 -148 58t-54 161q0 39 7 77q15 83 57 145t102.5 94.5t129.5 32.5q73 0 118.5 -33.5zM231 395q-48 -43 -61 -118q-4 -28 -4 -39q0 -57 32.5 -89t89.5 -32
q64 0 113 43.5t62 116.5q4 26 4 38q0 57 -33.5 90t-88.5 33q-66 0 -114 -43zM463 808q27 -24 27 -67q0 -41 -19 -73t-50.5 -49t-67.5 -17q-43 0 -70 24.5t-27 67.5q0 41 19.5 72.5t51 48.5t66.5 17q43 0 70 -24zM336.5 754.5q-19.5 -19.5 -19.5 -50.5q0 -20 13 -32t33 -12
q27 0 47 19.5t20 49.5q0 21 -13 33t-34 12q-27 0 -46.5 -19.5z" />
    <glyph glyph-name="ae" unicode="&#xe6;" horiz-adv-x="1088" 
d="M1007 505.5q53 -55.5 53 -147.5q0 -28 -6 -60q-6 -30 -13 -48h-429q-1 -9 -1 -25q0 -61 32.5 -90.5t87.5 -29.5q53 0 92.5 24t56.5 66h149q-32 -89 -105.5 -145.5t-165.5 -56.5q-71 0 -117.5 32t-56.5 91l-21 -116h-140l21 116q-31 -56 -87 -89.5t-126 -33.5
q-92 0 -146.5 57t-54.5 158q0 33 6 69q15 87 58 151.5t105 98.5t132 34t114 -33t56 -89l20 115h141l-21 -116q31 60 87.5 91.5t130.5 31.5q95 0 148 -55.5zM918 347q0 51 -35 77t-87 26q-62 0 -108.5 -33.5t-64.5 -104.5h291q4 17 4 35zM476 315q0 57 -33.5 90t-88.5 33
q-66 0 -114 -43t-61 -118q-4 -28 -4 -39q0 -57 32.5 -89t89.5 -32q64 0 113 43.5t62 116.5q4 26 4 38z" />
    <glyph glyph-name="ccedilla" unicode="&#xe7;" horiz-adv-x="617" 
d="M534 503q63 -58 63 -158h-149q-2 44 -29.5 69.5t-75.5 25.5q-57 0 -101.5 -41.5t-58.5 -121.5q-4 -21 -4 -45q0 -58 29.5 -88t76.5 -30q49 0 85.5 25.5t53.5 69.5h149q-35 -100 -117 -158t-189 -58t-170 60.5t-63 167.5q0 32 6 68q15 84 61 145.5t113.5 94t146.5 32.5
q110 0 173 -58zM378.5 -71q32.5 -21 32.5 -66q0 -15 -2 -23q-9 -54 -51.5 -79t-98.5 -25h-130l13 76h114q59 0 59 39q0 13 -11.5 21.5t-34.5 8.5h-66l22 126h85l-10 -59q46 2 78.5 -19z" />
    <glyph glyph-name="egrave" unicode="&#xe8;" horiz-adv-x="620" 
d="M528.5 504q61.5 -57 61.5 -152q0 -22 -5 -54q-6 -30 -13 -48h-407q-2 -11 -2 -32q0 -58 30 -85t79 -27t86 24.5t53 64.5h149q-33 -90 -113.5 -146t-187.5 -56q-106 0 -168.5 59t-62.5 164q0 32 6 68q15 85 61.5 147.5t115 96t148.5 33.5q108 0 169.5 -57zM449 350
q0 50 -31 75t-78 25q-58 0 -103 -35t-61 -103h269q4 19 4 38zM441 692l-17 -96l-211 108l19 108z" />
    <glyph glyph-name="eacute" unicode="&#xe9;" horiz-adv-x="620" 
d="M528.5 504q61.5 -57 61.5 -152q0 -22 -5 -54q-6 -30 -13 -48h-407q-2 -11 -2 -32q0 -58 30 -85t79 -27t86 24.5t53 64.5h149q-33 -90 -113.5 -146t-187.5 -56q-106 0 -168.5 59t-62.5 164q0 32 6 68q15 85 61.5 147.5t115 96t148.5 33.5q108 0 169.5 -57zM449 350
q0 50 -31 75t-78 25q-58 0 -103 -35t-61 -103h269q4 19 4 38zM519 704l-249 -108l17 96l252 120z" />
    <glyph glyph-name="ecircumflex" unicode="&#xea;" horiz-adv-x="620" 
d="M531.5 504q61.5 -57 61.5 -152q0 -22 -5 -54q-6 -30 -13 -48h-407q-2 -11 -2 -32q0 -58 30 -85t79 -27t86 24.5t53 64.5h149q-33 -90 -113.5 -146t-187.5 -56q-106 0 -168.5 59t-62.5 164q0 32 6 68q15 85 61.5 147.5t115 96t148.5 33.5q108 0 169.5 -57zM452 350
q0 50 -31 75t-78 25q-58 0 -103 -35t-61 -103h269q4 19 4 38zM370 688l-164 -85l17 95l164 83l133 -83l-16 -95z" />
    <glyph glyph-name="edieresis" unicode="&#xeb;" horiz-adv-x="620" 
d="M533.5 504q61.5 -57 61.5 -152q0 -22 -5 -54q-6 -30 -13 -48h-407q-2 -11 -2 -32q0 -58 30 -85t79 -27t86 24.5t53 64.5h149q-33 -90 -113.5 -146t-187.5 -56q-106 0 -168.5 59t-62.5 164q0 32 6 68q15 85 61.5 147.5t115 96t148.5 33.5q108 0 169.5 -57zM454 350
q0 50 -31 75t-78 25q-58 0 -103 -35t-61 -103h269q4 19 4 38zM237 727.5q23 22.5 52 22.5q24 0 39 -14.5t15 -36.5q0 -31 -22.5 -53.5t-53.5 -22.5q-23 0 -38 14.5t-15 37.5q0 30 23 52.5zM425.5 727.5q22.5 22.5 52.5 22.5q24 0 39 -15t15 -38q0 -30 -23 -52t-53 -22
q-24 0 -38.5 14.5t-14.5 36.5q0 31 22.5 53.5z" />
    <glyph glyph-name="igrave" unicode="&#xec;" horiz-adv-x="269" 
d="M253 554l-98 -554h-141l98 554h141zM285 692l-17 -96l-211 108l19 108z" />
    <glyph glyph-name="iacute" unicode="&#xed;" horiz-adv-x="269" 
d="M253 554l-98 -554h-141l98 554h141zM363 704l-249 -108l17 96l252 120z" />
    <glyph glyph-name="icircumflex" unicode="&#xee;" horiz-adv-x="269" 
d="M255 554l-98 -554h-141l98 554h141zM202 688l-164 -85l17 95l164 83l133 -83l-16 -95z" />
    <glyph glyph-name="idieresis" unicode="&#xef;" horiz-adv-x="269" 
d="M258 554l-98 -554h-141l98 554h141zM82 727.5q23 22.5 52 22.5q24 0 39 -14.5t15 -36.5q0 -31 -22.5 -53.5t-53.5 -22.5q-23 0 -38 14.5t-15 37.5q0 30 23 52.5zM270.5 727.5q22.5 22.5 52.5 22.5q24 0 39 -15t15 -38q0 -30 -23 -52t-53 -22q-24 0 -38.5 14.5t-14.5 36.5
q0 31 22.5 53.5z" />
    <glyph glyph-name="eth" unicode="&#xf0;" horiz-adv-x="638" 
d="M612 404q0 -41 -8 -91q-18 -102 -67.5 -174t-119.5 -108.5t-151 -36.5q-72 0 -127.5 28t-86 80.5t-30.5 122.5q0 34 5 60q15 84 61.5 146.5t114.5 96.5t147 34q46 0 81.5 -21.5t50.5 -64.5q-9 85 -50 160l-126 -38l9 50l91 27q-22 32 -57 65h125q11 -11 31 -35l107 32
l-9 -50l-70 -21q79 -119 79 -262zM458 318q0 59 -33 90.5t-83 31.5q-61 0 -109 -40t-62 -116q-4 -20 -4 -42q0 -61 34 -93.5t87 -32.5q59 0 105.5 41.5t60.5 119.5q4 20 4 41z" />
    <glyph glyph-name="ntilde" unicode="&#xf1;" horiz-adv-x="664" 
d="M573 515.5q46 -46.5 46 -132.5q0 -33 -5 -61l-57 -322h-141l55 306q3 18 3 35q0 50 -28 77t-78 27q-60 0 -103 -39t-55 -112v4l-52 -298h-142l98 554h141l-19 -111q32 56 87.5 87.5t121.5 31.5q82 0 128 -46.5zM380 734q15 -7 35 -20q14 -10 25 -15.5t25 -5.5q18 0 32 12
t21 35h72q-43 -131 -144 -131q-22 0 -38 7t-35 20q-16 10 -25.5 15t-22.5 5q-37 0 -53 -47h-72q45 132 144 132q21 0 36 -7z" />
    <glyph glyph-name="ograve" unicode="&#xf2;" horiz-adv-x="641" 
d="M498 533.5q55 -27.5 85.5 -79.5t30.5 -124q0 -30 -6 -65q-15 -83 -62 -144.5t-116.5 -94.5t-149.5 -33q-73 0 -128.5 27.5t-86.5 80t-31 124.5q0 30 6 64q15 83 62.5 145t117.5 94.5t151 32.5q72 0 127 -27.5zM245.5 397.5q-48.5 -41.5 -62.5 -120.5q-4 -20 -4 -42
q0 -59 33 -89.5t83 -30.5q59 0 107.5 41.5t62.5 120.5q4 20 4 42q0 59 -33 89.5t-83 30.5q-59 0 -107.5 -41.5zM456 692l-17 -96l-211 108l19 108z" />
    <glyph glyph-name="oacute" unicode="&#xf3;" horiz-adv-x="641" 
d="M498 533.5q55 -27.5 85.5 -79.5t30.5 -124q0 -30 -6 -65q-15 -83 -62 -144.5t-116.5 -94.5t-149.5 -33q-73 0 -128.5 27.5t-86.5 80t-31 124.5q0 30 6 64q15 83 62.5 145t117.5 94.5t151 32.5q72 0 127 -27.5zM245.5 397.5q-48.5 -41.5 -62.5 -120.5q-4 -20 -4 -42
q0 -59 33 -89.5t83 -30.5q59 0 107.5 41.5t62.5 120.5q4 20 4 42q0 59 -33 89.5t-83 30.5q-59 0 -107.5 -41.5zM534 704l-249 -108l17 96l252 120z" />
    <glyph glyph-name="ocircumflex" unicode="&#xf4;" horiz-adv-x="641" 
d="M495 533.5q55 -27.5 85.5 -79.5t30.5 -124q0 -30 -6 -65q-15 -83 -62 -144.5t-116.5 -94.5t-149.5 -33q-73 0 -128.5 27.5t-86.5 80t-31 124.5q0 30 6 64q15 83 62.5 145t117.5 94.5t151 32.5q72 0 127 -27.5zM242.5 397.5q-48.5 -41.5 -62.5 -120.5q-4 -20 -4 -42
q0 -59 33 -89.5t83 -30.5q59 0 107.5 41.5t62.5 120.5q4 20 4 42q0 59 -33 89.5t-83 30.5q-59 0 -107.5 -41.5zM380 688l-164 -85l17 95l164 83l133 -83l-16 -95z" />
    <glyph glyph-name="otilde" unicode="&#xf5;" horiz-adv-x="641" 
d="M504 533.5q55 -27.5 85.5 -79.5t30.5 -124q0 -30 -6 -65q-15 -83 -62 -144.5t-116.5 -94.5t-149.5 -33q-73 0 -128.5 27.5t-86.5 80t-31 124.5q0 30 6 64q15 83 62.5 145t117.5 94.5t151 32.5q72 0 127 -27.5zM251.5 397.5q-48.5 -41.5 -62.5 -120.5q-4 -20 -4 -42
q0 -59 33 -89.5t83 -30.5q59 0 107.5 41.5t62.5 120.5q4 20 4 42q0 59 -33 89.5t-83 30.5q-59 0 -107.5 -41.5zM374 734q15 -7 35 -20q14 -10 25 -15.5t25 -5.5q18 0 32 12t21 35h72q-43 -131 -144 -131q-22 0 -38 7t-35 20q-16 10 -25.5 15t-22.5 5q-37 0 -53 -47h-72
q45 132 144 132q21 0 36 -7z" />
    <glyph glyph-name="odieresis" unicode="&#xf6;" horiz-adv-x="641" 
d="M503 533.5q55 -27.5 85.5 -79.5t30.5 -124q0 -30 -6 -65q-15 -83 -62 -144.5t-116.5 -94.5t-149.5 -33q-73 0 -128.5 27.5t-86.5 80t-31 124.5q0 30 6 64q15 83 62.5 145t117.5 94.5t151 32.5q72 0 127 -27.5zM250.5 397.5q-48.5 -41.5 -62.5 -120.5q-4 -20 -4 -42
q0 -59 33 -89.5t83 -30.5q59 0 107.5 41.5t62.5 120.5q4 20 4 42q0 59 -33 89.5t-83 30.5q-59 0 -107.5 -41.5zM253 727.5q23 22.5 52 22.5q24 0 39 -14.5t15 -36.5q0 -31 -22.5 -53.5t-53.5 -22.5q-23 0 -38 14.5t-15 37.5q0 30 23 52.5zM441.5 727.5q22.5 22.5 52.5 22.5
q24 0 39 -15t15 -38q0 -30 -23 -52t-53 -22q-24 0 -38.5 14.5t-14.5 36.5q0 31 22.5 53.5z" />
    <glyph glyph-name="divide" unicode="&#xf7;" horiz-adv-x="566" 
d="M411 656l-26 -147h-152l26 147h152zM549 420l-22 -128h-511l23 128h510zM331 205l-25 -147h-152l25 147h152z" />
    <glyph glyph-name="oslash" unicode="&#xf8;" horiz-adv-x="631" 
d="M563 472q42 -58 42 -142q0 -30 -6 -65q-15 -83 -62 -144.5t-116.5 -94.5t-149.5 -33q-105 0 -171 55l-53 -48h-70l90 83q-42 58 -42 142q0 31 6 64q15 83 62.5 145t117.5 94.5t151 32.5q103 0 168 -54l52 47h71zM170 236q0 -28 8 -52l247 226q-30 29 -81 29
q-59 0 -107.5 -41.5t-62.5 -120.5q-4 -20 -4 -41zM460 318q0 28 -8 52l-248 -226q32 -29 82 -29q59 0 107.5 41.5t62.5 120.5q4 20 4 41z" />
    <glyph glyph-name="ugrave" unicode="&#xf9;" horiz-adv-x="658" 
d="M640 554l-97 -554h-142l20 110q-33 -55 -88.5 -86t-121.5 -31q-81 0 -127.5 46t-46.5 131q0 29 6 62l57 322h140l-54 -306q-3 -19 -3 -36q0 -50 28 -76.5t78 -26.5q59 0 101.5 37.5t55.5 108.5l53 299h141zM460 692l-17 -96l-211 108l19 108z" />
    <glyph glyph-name="uacute" unicode="&#xfa;" horiz-adv-x="658" 
d="M640 554l-97 -554h-142l20 110q-33 -55 -88.5 -86t-121.5 -31q-81 0 -127.5 46t-46.5 131q0 29 6 62l57 322h140l-54 -306q-3 -19 -3 -36q0 -50 28 -76.5t78 -26.5q59 0 101.5 37.5t55.5 108.5l53 299h141zM538 704l-249 -108l17 96l252 120z" />
    <glyph glyph-name="ucircumflex" unicode="&#xfb;" horiz-adv-x="658" 
d="M642 554l-97 -554h-142l20 110q-33 -55 -88.5 -86t-121.5 -31q-81 0 -127.5 46t-46.5 131q0 29 6 62l57 322h140l-54 -306q-3 -19 -3 -36q0 -50 28 -76.5t78 -26.5q59 0 101.5 37.5t55.5 108.5l53 299h141zM388 688l-164 -85l17 95l164 83l133 -83l-16 -95z" />
    <glyph glyph-name="udieresis" unicode="&#xfc;" horiz-adv-x="658" 
d="M645 554l-97 -554h-142l20 110q-33 -55 -88.5 -86t-121.5 -31q-81 0 -127.5 46t-46.5 131q0 29 6 62l57 322h140l-54 -306q-3 -19 -3 -36q0 -50 28 -76.5t78 -26.5q59 0 101.5 37.5t55.5 108.5l53 299h141zM256 727.5q23 22.5 52 22.5q24 0 39 -14.5t15 -36.5
q0 -31 -22.5 -53.5t-53.5 -22.5q-23 0 -38 14.5t-15 37.5q0 30 23 52.5zM444.5 727.5q22.5 22.5 52.5 22.5q24 0 39 -15t15 -38q0 -30 -23 -52t-53 -22q-24 0 -38.5 14.5t-14.5 36.5q0 31 22.5 53.5z" />
    <glyph glyph-name="yacute" unicode="&#xfd;" horiz-adv-x="607" 
d="M182 554l85 -376l206 376h156l-485 -818h-156l175 280l-138 538h157zM532 704l-249 -108l17 96l252 120z" />
    <glyph glyph-name="thorn" unicode="&#xfe;" horiz-adv-x="676" 
d="M589.5 500q56.5 -60 56.5 -162q0 -35 -5 -63q-15 -89 -57.5 -152.5t-104 -96t-131.5 -32.5q-68 0 -111.5 29.5t-61.5 83.5l-65 -371h-141l178 1004h140l-50 -285q34 50 85 77.5t115 27.5q96 0 152.5 -60zM435.5 157.5q48.5 40.5 62.5 117.5q4 28 4 39q0 59 -33.5 91
t-87.5 32q-62 0 -112 -42t-63 -118q-4 -26 -4 -37q0 -58 35 -90.5t87 -32.5q63 0 111.5 40.5z" />
    <glyph glyph-name="ydieresis" unicode="&#xff;" horiz-adv-x="607" 
d="M196 554l85 -376l206 376h156l-485 -818h-156l175 280l-138 538h157zM229 727.5q23 22.5 52 22.5q24 0 39 -14.5t15 -36.5q0 -31 -22.5 -53.5t-53.5 -22.5q-23 0 -38 14.5t-15 37.5q0 30 23 52.5zM417.5 727.5q22.5 22.5 52.5 22.5q24 0 39 -15t15 -38q0 -30 -23 -52
t-53 -22q-24 0 -38.5 14.5t-14.5 36.5q0 31 22.5 53.5z" />
    <glyph glyph-name="Amacron" unicode="&#x100;" horiz-adv-x="704" 
d="M465 142h-282l-75 -142h-149l382 698h162l136 -698h-150zM447 249l-51 299l-157 -299h208zM646 884l-17 -95h-383l18 95h382z" />
    <glyph glyph-name="amacron" unicode="&#x101;" horiz-adv-x="677" 
d="M443.5 527.5q45.5 -33.5 56.5 -88.5l21 115h140l-98 -554h-140l21 116q-31 -56 -87 -89.5t-126 -33.5q-94 0 -148 58t-54 161q0 39 7 77q15 83 57 145t102.5 94.5t129.5 32.5q73 0 118.5 -33.5zM240 395q-48 -43 -61 -118q-4 -28 -4 -39q0 -57 32.5 -89t89.5 -32
q64 0 113 43.5t62 116.5q4 26 4 38q0 57 -33.5 90t-88.5 33q-66 0 -114 -43zM583 732l-17 -95h-383l18 95h382z" />
    <glyph glyph-name="Abreve" unicode="&#x102;" horiz-adv-x="704" 
d="M461 142h-282l-75 -142h-149l382 698h162l136 -698h-150zM443 249l-51 299l-157 -299h208zM328 791.5q-36 33.5 -36 92.5q0 19 3 38l2 12h70q-2 -12 -2 -17q0 -57 79 -57q91 0 104 74h69l-2 -12q-13 -76 -64 -120t-124 -44q-63 0 -99 33.5z" />
    <glyph glyph-name="abreve" unicode="&#x103;" horiz-adv-x="678" 
d="M451.5 527.5q45.5 -33.5 56.5 -88.5l21 115h140l-98 -554h-140l21 116q-31 -56 -87 -89.5t-126 -33.5q-94 0 -148 58t-54 161q0 39 7 77q15 83 57 145t102.5 94.5t129.5 32.5q73 0 118.5 -33.5zM248 395q-48 -43 -61 -118q-4 -28 -4 -39q0 -57 32.5 -89t89.5 -32
q64 0 113 43.5t62 116.5q4 26 4 38q0 57 -33.5 90t-88.5 33q-66 0 -114 -43zM276 639.5q-36 33.5 -36 92.5q0 19 3 38l2 12h70q-2 -12 -2 -17q0 -57 79 -57q91 0 104 74h69l-2 -12q-13 -76 -64 -120t-124 -44q-63 0 -99 33.5z" />
    <glyph glyph-name="Aogonek" unicode="&#x104;" horiz-adv-x="704" 
d="M663 -132l-14 -75h-128q-51 0 -84.5 22.5t-33.5 66.5q0 43 23.5 74t70.5 47l-24 139h-283l-74 -142h-149l382 698h162l134 -689l-11 -62h-71q-26 0 -42 -10t-19 -29q-4 -19 8.5 -29.5t38.5 -10.5h114zM454 249l-51 299l-157 -299h208z" />
    <glyph glyph-name="aogonek" unicode="&#x105;" horiz-adv-x="677" 
d="M451.5 527.5q45.5 -33.5 56.5 -88.5l21 115h140l-98 -554h-140l21 116q-31 -56 -87 -89.5t-126 -33.5q-94 0 -148 58t-54 161q0 39 7 77q15 83 57 145t102.5 94.5t129.5 32.5q73 0 118.5 -33.5zM248 395q-48 -43 -61 -118q-4 -28 -4 -39q0 -57 32.5 -89t89.5 -32
q64 0 113 43.5t62 116.5q4 26 4 38q0 57 -33.5 90t-88.5 33q-66 0 -114 -43zM573 18l-12 -68h-72q-28 0 -44.5 -12t-16.5 -33q0 -16 12.5 -25t34.5 -9h115l-14 -76h-128q-51 0 -84.5 23t-33.5 68q0 7 2 23q9 54 50.5 81.5t93.5 27.5h97z" />
    <glyph glyph-name="Cacute" unicode="&#x106;" horiz-adv-x="759" 
d="M655 645q75 -68 83 -185h-149q-12 56 -54.5 89.5t-111.5 33.5q-56 0 -105.5 -28t-84 -80t-46.5 -122q-5 -33 -5 -55q0 -80 44 -127t117 -47q68 0 122 33t87 90h149q-49 -117 -148 -185t-231 -68q-88 0 -152.5 35t-98.5 98.5t-34 147.5q0 40 7 78q18 105 75 187t142 127.5
t187 45.5q132 0 207 -68zM619 856l-249 -108l17 96l252 120z" />
    <glyph glyph-name="cacute" unicode="&#x107;" horiz-adv-x="617" 
d="M527 503q63 -58 63 -158h-149q-2 44 -29.5 69.5t-75.5 25.5q-57 0 -101.5 -41.5t-58.5 -121.5q-4 -21 -4 -45q0 -58 29.5 -88t76.5 -30q49 0 85.5 25.5t53.5 69.5h149q-35 -100 -117 -158t-189 -58t-170 60.5t-63 167.5q0 32 6 68q15 84 61 145.5t113.5 94t146.5 32.5
q110 0 173 -58zM516 704l-249 -108l17 96l252 120z" />
    <glyph glyph-name="Cdotaccent" unicode="&#x10a;" horiz-adv-x="759" 
d="M660 645q75 -68 83 -185h-149q-12 56 -54.5 89.5t-111.5 33.5q-56 0 -105.5 -28t-84 -80t-46.5 -122q-5 -33 -5 -55q0 -80 44 -127t117 -47q68 0 122 33t87 90h149q-49 -117 -148 -185t-231 -68q-88 0 -152.5 35t-98.5 98.5t-34 147.5q0 40 7 78q18 105 75 187t142 127.5
t187 45.5q132 0 207 -68zM430.5 879.5q22.5 22.5 52.5 22.5q24 0 39 -14.5t15 -37.5q0 -30 -23 -52.5t-53 -22.5q-23 0 -38 14.5t-15 36.5q0 31 22.5 53.5z" />
    <glyph glyph-name="cdotaccent" unicode="&#x10b;" horiz-adv-x="617" 
d="M533 503q63 -58 63 -158h-149q-2 44 -29.5 69.5t-75.5 25.5q-57 0 -101.5 -41.5t-58.5 -121.5q-4 -21 -4 -45q0 -58 29.5 -88t76.5 -30q49 0 85.5 25.5t53.5 69.5h149q-35 -100 -117 -158t-189 -58t-170 60.5t-63 167.5q0 32 6 68q15 84 61 145.5t113.5 94t146.5 32.5
q110 0 173 -58zM327.5 727.5q22.5 22.5 52.5 22.5q24 0 39 -14.5t15 -37.5q0 -30 -23 -52.5t-53 -22.5q-23 0 -38 14.5t-15 36.5q0 31 22.5 53.5z" />
    <glyph glyph-name="Ccaron" unicode="&#x10c;" horiz-adv-x="759" 
d="M657 645q75 -68 83 -185h-149q-12 56 -54.5 89.5t-111.5 33.5q-56 0 -105.5 -28t-84 -80t-46.5 -122q-5 -33 -5 -55q0 -80 44 -127t117 -47q68 0 122 33t87 90h149q-49 -117 -148 -185t-231 -68q-88 0 -152.5 35t-98.5 98.5t-34 147.5q0 40 7 78q18 105 75 187t142 127.5
t187 45.5q132 0 207 -68zM618 837l-162 -83l-135 83l17 95l134 -85l163 85z" />
    <glyph glyph-name="ccaron" unicode="&#x10d;" horiz-adv-x="617" 
d="M530 503q63 -58 63 -158h-149q-2 44 -29.5 69.5t-75.5 25.5q-57 0 -101.5 -41.5t-58.5 -121.5q-4 -21 -4 -45q0 -58 29.5 -88t76.5 -30q49 0 85.5 25.5t53.5 69.5h149q-35 -100 -117 -158t-189 -58t-170 60.5t-63 167.5q0 32 6 68q15 84 61 145.5t113.5 94t146.5 32.5
q110 0 173 -58zM515 685l-162 -83l-135 83l17 95l134 -85l163 85z" />
    <glyph glyph-name="Dcaron" unicode="&#x10e;" horiz-adv-x="727" 
d="M606 169q-58 -80 -149 -124.5t-206 -44.5h-251l124 706h251q151 0 233 -73.5t82 -201.5q0 -39 -7 -77q-19 -105 -77 -185zM447.5 186q72.5 60 92.5 168q5 32 5 54q0 85 -52 130t-152 45h-97l-81 -457h98q114 0 186.5 60zM606 837l-162 -83l-135 83l17 95l134 -85l163 85z
" />
    <glyph glyph-name="dcaron" unicode="&#x10f;" horiz-adv-x="782" 
d="M695 740l-131 -740h-141l21 116q-31 -56 -87 -89.5t-126 -33.5q-91 0 -146.5 59.5t-55.5 163.5q0 28 7 73q15 83 57 145t103 94.5t130 32.5q72 0 117.5 -33t56.5 -89l54 301h141zM848 691q0 -29 -5 -59q-11 -64 -49.5 -100.5t-100.5 -36.5l10 55q52 0 62 62l4 19h-59
l19 109h116q3 -25 3 -49zM240 395q-48 -43 -61 -118q-3 -21 -3 -38q0 -58 32 -90t89 -32q64 0 113.5 43.5t62.5 116.5q3 20 3 36q0 59 -33 92t-89 33q-66 0 -114 -43z" />
    <glyph glyph-name="Dcroat" unicode="&#x110;" horiz-adv-x="742" 
d="M637 632.5q82 -73.5 82 -201.5q0 -39 -7 -77q-19 -105 -77 -185t-149 -124.5t-206 -44.5h-251l52 298h-76l20 113h76l52 295h251q151 0 233 -73.5zM574 408q0 85 -52 130t-152 45h-97l-30 -172h171l-20 -113h-172l-30 -172h98q114 0 186.5 60t92.5 168q5 32 5 54z" />
    <glyph glyph-name="dcroat" unicode="&#x111;" horiz-adv-x="673" 
d="M719 615h-46l-109 -615h-141l21 116q-31 -56 -87 -89.5t-126 -33.5q-91 0 -146.5 59.5t-55.5 163.5q0 28 7 73q15 83 57 145t103 94.5t130 32.5q72 0 117.5 -33t56.5 -89l32 176h-137l12 65h136l11 60h141l-11 -60h46zM476 313q0 59 -33 92t-89 33q-66 0 -114 -43
t-61 -118q-3 -21 -3 -38q0 -58 32 -90t89 -32q64 0 113.5 43.5t62.5 116.5q3 20 3 36z" />
    <glyph glyph-name="Emacron" unicode="&#x112;" horiz-adv-x="525" 
d="M249 594l-31 -183h249l-19 -108h-250l-33 -190h280l-20 -113h-421l124 706h421l-20 -112h-280zM564 884l-17 -95h-383l18 95h382z" />
    <glyph glyph-name="emacron" unicode="&#x113;" horiz-adv-x="620" 
d="M535.5 504q61.5 -57 61.5 -152q0 -22 -5 -54q-6 -30 -13 -48h-407q-2 -11 -2 -32q0 -58 30 -85t79 -27t86 24.5t53 64.5h149q-33 -90 -113.5 -146t-187.5 -56q-106 0 -168.5 59t-62.5 164q0 32 6 68q15 85 61.5 147.5t115 96t148.5 33.5q108 0 169.5 -57zM456 350
q0 50 -31 75t-78 25q-58 0 -103 -35t-61 -103h269q4 19 4 38zM575 732l-17 -95h-383l18 95h382z" />
    <glyph glyph-name="Ebreve" unicode="&#x114;" horiz-adv-x="525" 
d="M245 594l-31 -183h249l-19 -108h-250l-33 -190h280l-20 -113h-421l124 706h421l-20 -112h-280zM245 791.5q-36 33.5 -36 92.5q0 19 3 38l2 12h70q-2 -12 -2 -17q0 -57 79 -57q91 0 104 74h69l-2 -12q-13 -76 -64 -120t-124 -44q-63 0 -99 33.5z" />
    <glyph glyph-name="ebreve" unicode="&#x115;" horiz-adv-x="620" 
d="M531.5 504q61.5 -57 61.5 -152q0 -22 -5 -54q-6 -30 -13 -48h-407q-2 -11 -2 -32q0 -58 30 -85t79 -27t86 24.5t53 64.5h149q-33 -90 -113.5 -146t-187.5 -56q-106 0 -168.5 59t-62.5 164q0 32 6 68q15 85 61.5 147.5t115 96t148.5 33.5q108 0 169.5 -57zM452 350
q0 50 -31 75t-78 25q-58 0 -103 -35t-61 -103h269q4 19 4 38zM256 639.5q-36 33.5 -36 92.5q0 19 3 38l2 12h70q-2 -12 -2 -17q0 -57 79 -57q91 0 104 74h69l-2 -12q-13 -76 -64 -120t-124 -44q-63 0 -99 33.5z" />
    <glyph glyph-name="Edotaccent" unicode="&#x116;" horiz-adv-x="525" 
d="M247 594l-31 -183h249l-19 -108h-250l-33 -190h280l-20 -113h-421l124 706h421l-20 -112h-280zM319.5 879.5q22.5 22.5 52.5 22.5q24 0 39 -14.5t15 -37.5q0 -30 -23 -52.5t-53 -22.5q-23 0 -38 14.5t-15 36.5q0 31 22.5 53.5z" />
    <glyph glyph-name="edotaccent" unicode="&#x117;" horiz-adv-x="620" 
d="M533.5 504q61.5 -57 61.5 -152q0 -22 -5 -54q-6 -30 -13 -48h-407q-2 -11 -2 -32q0 -58 30 -85t79 -27t86 24.5t53 64.5h149q-33 -90 -113.5 -146t-187.5 -56q-106 0 -168.5 59t-62.5 164q0 32 6 68q15 85 61.5 147.5t115 96t148.5 33.5q108 0 169.5 -57zM454 350
q0 50 -31 75t-78 25q-58 0 -103 -35t-61 -103h269q4 19 4 38zM330.5 727.5q22.5 22.5 52.5 22.5q24 0 39 -14.5t15 -37.5q0 -30 -23 -52.5t-53 -22.5q-23 0 -38 14.5t-15 36.5q0 31 22.5 53.5z" />
    <glyph glyph-name="Eogonek" unicode="&#x118;" horiz-adv-x="525" 
d="M244 594l-31 -183h249l-19 -108h-250l-33 -190h280l-20 -113h-421l124 706h421l-20 -112h-280zM430 63l-12 -68h-72q-28 0 -44.5 -12t-16.5 -33q0 -16 12.5 -25t34.5 -9h115l-14 -76h-128q-51 0 -84.5 23t-33.5 68q0 7 2 23q9 54 50.5 81.5t93.5 27.5h97z" />
    <glyph glyph-name="eogonek" unicode="&#x119;" horiz-adv-x="621" 
d="M543.5 504q61.5 -57 61.5 -152q0 -22 -5 -54q-2 -15 -7 -29t-6 -19h-407q-2 -22 -2 -30q0 -58 31 -86t79 -28q49 0 85.5 24t52.5 65h149q-27 -75 -90.5 -127.5t-147.5 -67.5q-22 -5 -26 -23q-2 -17 11.5 -27t41.5 -10h102l-13 -76h-122q-51 0 -84.5 22.5t-33.5 66.5
q0 6 2 22l5 25q-83 13 -130.5 68.5t-47.5 144.5q0 30 6 64q15 87 61.5 151.5t115 98.5t149.5 34q108 0 169.5 -57zM464 350q0 50 -31 75t-78 25q-58 0 -102.5 -35t-60.5 -103h268q4 19 4 38z" />
    <glyph glyph-name="Ecaron" unicode="&#x11a;" horiz-adv-x="525" 
d="M245 594l-31 -183h249l-19 -108h-250l-33 -190h280l-20 -113h-421l124 706h421l-20 -112h-280zM507 837l-162 -83l-135 83l17 95l134 -85l163 85z" />
    <glyph glyph-name="ecaron" unicode="&#x11b;" horiz-adv-x="620" 
d="M531.5 504q61.5 -57 61.5 -152q0 -22 -5 -54q-6 -30 -13 -48h-407q-2 -11 -2 -32q0 -58 30 -85t79 -27t86 24.5t53 64.5h149q-33 -90 -113.5 -146t-187.5 -56q-106 0 -168.5 59t-62.5 164q0 32 6 68q15 85 61.5 147.5t115 96t148.5 33.5q108 0 169.5 -57zM452 350
q0 50 -31 75t-78 25q-58 0 -103 -35t-61 -103h269q4 19 4 38zM518 685l-162 -83l-135 83l17 95l134 -85l163 85z" />
    <glyph glyph-name="Gbreve" unicode="&#x11e;" horiz-adv-x="768" 
d="M652.5 648.5q72.5 -64.5 82.5 -170.5h-148q-12 48 -52.5 76.5t-102.5 28.5q-61 0 -113 -28t-87.5 -80t-47.5 -122q-5 -26 -5 -58q0 -85 48.5 -131t136.5 -46q76 0 138.5 45t92.5 125h-239l18 101h357l-23 -136q-43 -116 -141 -187.5t-239 -71.5q-91 0 -157.5 35.5
t-101.5 100.5t-35 150q0 40 7 79q18 103 75.5 183.5t145 125.5t191.5 45q127 0 199.5 -64.5zM355 791.5q-36 33.5 -36 92.5q0 19 3 38l2 12h70q-2 -12 -2 -17q0 -57 79 -57q91 0 104 74h69l-2 -12q-13 -76 -64 -120t-124 -44q-63 0 -99 33.5z" />
    <glyph glyph-name="gbreve" unicode="&#x11f;" horiz-adv-x="676" 
d="M72.5 52q-55.5 59 -55.5 163q0 38 7 74q15 84 57 145.5t103 94.5t130 33q72 0 117.5 -33.5t57.5 -89.5l20 115h140l-98 -556q-14 -77 -54.5 -138.5t-106 -96.5t-149.5 -35q-119 0 -183.5 57t-69.5 155h139q5 -42 35 -65.5t85 -23.5q61 0 106 37t58 110l21 118
q-31 -56 -87 -89.5t-126 -33.5q-91 0 -146.5 59zM228 395q-48 -43 -61 -118q-4 -28 -4 -39q0 -57 32.5 -89t89.5 -32q64 0 113.5 43.5t62.5 116.5q3 20 3 36q0 59 -33 92t-89 33q-66 0 -114 -43zM285 639.5q-36 33.5 -36 92.5q0 19 3 38l2 12h70q-2 -12 -2 -17q0 -57 79 -57
q91 0 104 74h69l-2 -12q-13 -76 -64 -120t-124 -44q-63 0 -99 33.5z" />
    <glyph glyph-name="Gdotaccent" unicode="&#x120;" horiz-adv-x="768" 
d="M654.5 648.5q72.5 -64.5 82.5 -170.5h-148q-12 48 -52.5 76.5t-102.5 28.5q-61 0 -113 -28t-87.5 -80t-47.5 -122q-5 -26 -5 -58q0 -85 48.5 -131t136.5 -46q76 0 138.5 45t92.5 125h-239l18 101h357l-23 -136q-43 -116 -141 -187.5t-239 -71.5q-91 0 -157.5 35.5
t-101.5 100.5t-35 150q0 40 7 79q18 103 75.5 183.5t145 125.5t191.5 45q127 0 199.5 -64.5zM430.5 879.5q22.5 22.5 52.5 22.5q24 0 39 -14.5t15 -37.5q0 -30 -23 -52.5t-53 -22.5q-23 0 -38 14.5t-15 36.5q0 31 22.5 53.5z" />
    <glyph glyph-name="gdotaccent" unicode="&#x121;" horiz-adv-x="676" 
d="M75.5 52q-55.5 59 -55.5 163q0 38 7 74q15 84 57 145.5t103 94.5t130 33q72 0 117.5 -33.5t57.5 -89.5l20 115h140l-98 -556q-14 -77 -54.5 -138.5t-106 -96.5t-149.5 -35q-119 0 -183.5 57t-69.5 155h139q5 -42 35 -65.5t85 -23.5q61 0 106 37t58 110l21 118
q-31 -56 -87 -89.5t-126 -33.5q-91 0 -146.5 59zM231 395q-48 -43 -61 -118q-4 -28 -4 -39q0 -57 32.5 -89t89.5 -32q64 0 113.5 43.5t62.5 116.5q3 20 3 36q0 59 -33 92t-89 33q-66 0 -114 -43zM360.5 727.5q22.5 22.5 52.5 22.5q24 0 39 -14.5t15 -37.5q0 -30 -23 -52.5
t-53 -22.5q-23 0 -38 14.5t-15 36.5q0 31 22.5 53.5z" />
    <glyph glyph-name="uni0122" unicode="&#x122;" horiz-adv-x="771" 
d="M653.5 648.5q72.5 -64.5 82.5 -170.5h-148q-12 48 -52.5 76.5t-102.5 28.5q-61 0 -113 -28t-87.5 -80t-47.5 -122q-5 -26 -5 -58q0 -85 48.5 -131t136.5 -46q76 0 138.5 45t92.5 125h-239l18 101h357l-23 -136q-43 -116 -141 -187.5t-239 -71.5q-91 0 -157.5 35.5
t-101.5 100.5t-35 150q0 40 7 79q18 103 75.5 183.5t145 125.5t191.5 45q127 0 199.5 -64.5zM402 -92q0 -27 -4 -46q-11 -66 -50 -103t-100 -37l9 54q50 0 63 67l1 9h-55l18 103h114q4 -21 4 -47z" />
    <glyph glyph-name="uni0123" unicode="&#x123;" horiz-adv-x="676" 
d="M344 642q0 33 6 63q12 64 50 100.5t99 36.5l-10 -55q-50 0 -62 -63l-3 -18h59l-20 -109h-116q-3 23 -3 45zM72.5 52q-55.5 59 -55.5 163q0 38 7 74q15 84 57 145.5t103 94.5t130 33q72 0 117.5 -33.5t57.5 -89.5l20 115h140l-98 -556q-14 -77 -54.5 -138.5t-106 -96.5
t-149.5 -35q-119 0 -183.5 57t-69.5 155h139q5 -42 35 -65.5t85 -23.5q61 0 106 37t58 110l21 118q-31 -56 -87 -89.5t-126 -33.5q-91 0 -146.5 59zM228 395q-48 -43 -61 -118q-4 -28 -4 -39q0 -57 32.5 -89t89.5 -32q64 0 113.5 43.5t62.5 116.5q3 20 3 36q0 59 -33 92
t-89 33q-66 0 -114 -43z" />
    <glyph glyph-name="Itilde" unicode="&#x128;" horiz-adv-x="269" 
d="M274 706l-124 -706h-141l124 706h141zM213 886q15 -7 35 -20q14 -10 25 -15.5t25 -5.5q18 0 32 12t21 35h72q-43 -131 -144 -131q-22 0 -38 7t-35 20q-16 10 -25.5 15t-22.5 5q-37 0 -53 -47h-72q45 132 144 132q21 0 36 -7z" />
    <glyph glyph-name="itilde" unicode="&#x129;" horiz-adv-x="269" 
d="M259 554l-98 -554h-141l98 554h141zM202 734q15 -7 35 -20q14 -10 25 -15.5t25 -5.5q18 0 32 12t21 35h72q-43 -131 -144 -131q-22 0 -38 7t-35 20q-16 10 -25.5 15t-22.5 5q-37 0 -53 -47h-72q45 132 144 132q21 0 36 -7z" />
    <glyph glyph-name="Imacron" unicode="&#x12a;" horiz-adv-x="269" 
d="M275 706l-124 -706h-141l124 706h141zM430 884l-17 -95h-383l18 95h382z" />
    <glyph glyph-name="imacron" unicode="&#x12b;" horiz-adv-x="275" 
d="M260 554l-98 -554h-141l98 554h141zM407 732l-17 -95h-383l18 95h382z" />
    <glyph glyph-name="uni012C" unicode="&#x12c;" horiz-adv-x="269" 
d="M271 706l-124 -706h-141l124 706h141zM111 791.5q-36 33.5 -36 92.5q0 19 3 38l2 12h70q-2 -12 -2 -17q0 -57 79 -57q91 0 104 74h69l-2 -12q-13 -76 -64 -120t-124 -44q-63 0 -99 33.5z" />
    <glyph glyph-name="uni012D" unicode="&#x12d;" horiz-adv-x="269" 
d="M256 554l-98 -554h-141l98 554h141zM100 639.5q-36 33.5 -36 92.5q0 19 3 38l2 12h70q-2 -12 -2 -17q0 -57 79 -57q91 0 104 74h69l-2 -12q-13 -76 -64 -120t-124 -44q-63 0 -99 33.5z" />
    <glyph glyph-name="Iogonek" unicode="&#x12e;" horiz-adv-x="269" 
d="M267 706l-124 -706h-141l124 706h141zM146 18l-12 -68h-72q-28 0 -44.5 -12t-16.5 -33q0 -16 12.5 -25t34.5 -9h115l-14 -76h-128q-51 0 -84.5 23t-33.5 68q0 7 2 23q9 54 50.5 81.5t93.5 27.5h97z" />
    <glyph glyph-name="iogonek" unicode="&#x12f;" horiz-adv-x="263" 
d="M146 764q29 26 73 26q34 0 53.5 -17.5t19.5 -45.5q0 -39 -28.5 -64.5t-72.5 -25.5q-35 0 -54.5 17t-19.5 45q0 39 29 65zM247 554l-98 -554h-141l98 554h141zM156 18l-12 -68h-72q-28 0 -44.5 -12t-16.5 -33q0 -16 12.5 -25t34.5 -9h115l-14 -76h-128q-51 0 -84.5 23
t-33.5 68q0 7 2 23q9 54 50.5 81.5t93.5 27.5h97z" />
    <glyph glyph-name="Idotaccent" unicode="&#x130;" horiz-adv-x="269" 
d="M273 706l-124 -706h-141l124 706h141zM186.5 879.5q22.5 22.5 52.5 22.5q24 0 39 -14.5t15 -37.5q0 -30 -23 -52.5t-53 -22.5q-23 0 -38 14.5t-15 36.5q0 31 22.5 53.5z" />
    <glyph glyph-name="dotlessi" unicode="&#x131;" horiz-adv-x="263" 
d="M251 554l-98 -554h-141l98 554h141z" />
    <glyph glyph-name="uni0136" unicode="&#x136;" horiz-adv-x="646" 
d="M335 359l236 -359h-171l-204 323l-57 -323h-141l124 706h141l-56 -318l318 318h170zM347 -45q3 -21 3 -43q0 -29 -4 -50q-11 -66 -49.5 -103t-99.5 -37l10 54q49 0 61 67l2 9h-56l19 103h114z" />
    <glyph glyph-name="uni0137" unicode="&#x137;" horiz-adv-x="564" 
d="M317 282l183 -282h-165l-140 247l-43 -247h-141l130 740h141l-72 -411l221 225h167zM281 -45q4 -17 4 -41q0 -25 -5 -52q-11 -66 -49.5 -103t-99.5 -37l10 54q50 0 62 67l2 9h-56l18 103h114z" />
    <glyph glyph-name="Lacute" unicode="&#x139;" horiz-adv-x="462" 
d="M157 108h236l-18 -108h-378l124 706h141zM429 856l-249 -108l17 96l252 120z" />
    <glyph glyph-name="lacute" unicode="&#x13a;" horiz-adv-x="264" 
d="M282 740l-130 -740h-141l130 740h141zM390 874l-249 -108l17 96l252 120z" />
    <glyph glyph-name="uni013B" unicode="&#x13b;" horiz-adv-x="465" 
d="M158 108h236l-18 -108h-378l124 706h141zM281 -92q0 -27 -4 -46q-11 -66 -50 -103t-100 -37l10 54q49 0 62 67l1 9h-55l18 103h114q4 -21 4 -47z" />
    <glyph glyph-name="uni013C" unicode="&#x13c;" horiz-adv-x="269" 
d="M288 740l-130 -740h-141l130 740h141zM148 -86q0 -25 -5 -52q-11 -66 -49.5 -103t-99.5 -37l10 54q50 0 62 67l2 9h-56l18 103h114q4 -17 4 -41z" />
    <glyph glyph-name="Lcaron" unicode="&#x13d;" horiz-adv-x="504" 
d="M159 108h236l-18 -108h-378l124 706h141zM495 657q0 -27 -5 -59q-12 -64 -50 -100.5t-100 -36.5l10 55q26 0 41 15.5t21 47.5l3 19h-58l19 108h116q3 -25 3 -49z" />
    <glyph glyph-name="lcaron" unicode="&#x13e;" horiz-adv-x="374" 
d="M284 740l-130 -740h-141l130 740h141zM452 695q0 -33 -6 -63q-11 -64 -49 -100.5t-100 -36.5l10 55q50 0 62 62l3 19h-58l19 109h116q3 -22 3 -45z" />
    <glyph glyph-name="Ldot" unicode="&#x13f;" horiz-adv-x="462" 
d="M160 108h236l-18 -108h-378l124 706h141zM311.5 394.5q22.5 22.5 52.5 22.5q24 0 39 -14.5t15 -37.5q0 -30 -23 -52.5t-53 -22.5q-23 0 -38 14.5t-15 36.5q0 31 22.5 53.5z" />
    <glyph glyph-name="ldot" unicode="&#x140;" horiz-adv-x="360" 
d="M279 740l-130 -740h-141l130 740h141zM284.5 411.5q22.5 22.5 52.5 22.5q24 0 39 -14.5t15 -37.5q0 -30 -23 -52.5t-53 -22.5q-23 0 -38 14.5t-15 36.5q0 31 22.5 53.5z" />
    <glyph glyph-name="Lslash" unicode="&#x141;" horiz-adv-x="479" 
d="M415 108l-18 -108h-378l49 282l-75 -25l25 139l75 24l50 286h141l-42 -238l117 38l-25 -138l-116 -38l-39 -222h236z" />
    <glyph glyph-name="lslash" unicode="&#x142;" horiz-adv-x="277" 
d="M297 403l-78 -26l-66 -377h-141l57 327l-77 -26l24 138l78 26l48 275h141l-40 -226l78 26z" />
    <glyph glyph-name="Nacute" unicode="&#x143;" horiz-adv-x="726" 
d="M595 0h-141l-231 480l-85 -480h-141l124 706h141l231 -484l85 484h141zM595 856l-249 -108l17 96l252 120z" />
    <glyph glyph-name="nacute" unicode="&#x144;" horiz-adv-x="664" 
d="M573 515.5q46 -46.5 46 -132.5q0 -33 -5 -61l-57 -322h-141l55 306q3 18 3 35q0 50 -28 77t-78 27q-60 0 -103 -39t-55 -112v4l-52 -298h-142l98 554h141l-19 -111q32 56 87.5 87.5t121.5 31.5q82 0 128 -46.5zM547 704l-249 -108l17 96l252 120z" />
    <glyph glyph-name="uni0145" unicode="&#x145;" horiz-adv-x="727" 
d="M598 0h-141l-231 480l-85 -480h-141l124 706h141l231 -484l85 484h141zM387 -90q0 -28 -4 -48q-12 -66 -50.5 -103t-99.5 -37l10 54q51 0 61 67l2 9h-56l19 103h114q4 -20 4 -45z" />
    <glyph glyph-name="uni0146" unicode="&#x146;" horiz-adv-x="664" 
d="M570 515.5q46 -46.5 46 -132.5q0 -33 -5 -61l-57 -322h-141l55 306q3 18 3 35q0 50 -28 77t-78 27q-60 0 -103 -39t-55 -112v4l-52 -298h-142l98 554h141l-19 -111q32 56 87.5 87.5t121.5 31.5q82 0 128 -46.5zM365 -45q4 -20 4 -45q0 -28 -4 -48q-12 -66 -50.5 -103
t-98.5 -37l9 54q52 0 62 67l2 9h-56l18 103h114z" />
    <glyph glyph-name="Ncaron" unicode="&#x147;" horiz-adv-x="726" 
d="M598 0h-141l-231 480l-85 -480h-141l124 706h141l231 -484l85 484h141zM595 837l-162 -83l-135 83l17 95l134 -85l163 85z" />
    <glyph glyph-name="ncaron" unicode="&#x148;" horiz-adv-x="664" 
d="M576 515.5q46 -46.5 46 -132.5q0 -33 -5 -61l-57 -322h-141l55 306q3 18 3 35q0 50 -28 77t-78 27q-60 0 -103 -39t-55 -112v4l-52 -298h-142l98 554h141l-19 -111q32 56 87.5 87.5t121.5 31.5q82 0 128 -46.5zM546 685l-162 -83l-135 83l17 95l134 -85l163 85z" />
    <glyph glyph-name="Omacron" unicode="&#x14c;" horiz-adv-x="780" 
d="M603.5 678.5q69.5 -37.5 107 -106t37.5 -158.5q0 -37 -8 -83q-17 -99 -71.5 -175.5t-137.5 -119.5t-183 -43q-96 0 -166 37.5t-107 105.5t-37 158q0 39 8 85q17 99 71.5 175.5t138 119t183.5 42.5q95 0 164.5 -37.5zM270 525q-67 -61 -86 -164q-5 -33 -5 -56
q0 -84 48 -132.5t132 -48.5q60 0 111 27.5t86 78.5t46 119q5 25 5 57q0 84 -48 132t-131 48q-91 0 -158 -61zM685 884l-17 -95h-383l18 95h382z" />
    <glyph glyph-name="omacron" unicode="&#x14d;" horiz-adv-x="641" 
d="M505 533.5q55 -27.5 85.5 -79.5t30.5 -124q0 -30 -6 -65q-15 -83 -62 -144.5t-116.5 -94.5t-149.5 -33q-73 0 -128.5 27.5t-86.5 80t-31 124.5q0 30 6 64q15 83 62.5 145t117.5 94.5t151 32.5q72 0 127 -27.5zM252.5 397.5q-48.5 -41.5 -62.5 -120.5q-4 -20 -4 -42
q0 -59 33 -89.5t83 -30.5q59 0 107.5 41.5t62.5 120.5q4 20 4 42q0 59 -33 89.5t-83 30.5q-59 0 -107.5 -41.5zM590 732l-17 -95h-383l18 95h382z" />
    <glyph glyph-name="uni014E" unicode="&#x14e;" horiz-adv-x="780" 
d="M594.5 678.5q69.5 -37.5 107 -106t37.5 -158.5q0 -37 -8 -83q-17 -99 -71.5 -175.5t-137.5 -119.5t-183 -43q-96 0 -166 37.5t-107 105.5t-37 158q0 39 8 85q17 99 71.5 175.5t138 119t183.5 42.5q95 0 164.5 -37.5zM261 525q-67 -61 -86 -164q-5 -33 -5 -56
q0 -84 48 -132.5t132 -48.5q60 0 111 27.5t86 78.5t46 119q5 25 5 57q0 84 -48 132t-131 48q-91 0 -158 -61zM361 791.5q-36 33.5 -36 92.5q0 19 3 38l2 12h70q-2 -12 -2 -17q0 -57 79 -57q91 0 104 74h69l-2 -12q-13 -76 -64 -120t-124 -44q-63 0 -99 33.5z" />
    <glyph glyph-name="uni014F" unicode="&#x14f;" horiz-adv-x="641" 
d="M495 533.5q55 -27.5 85.5 -79.5t30.5 -124q0 -30 -6 -65q-15 -83 -62 -144.5t-116.5 -94.5t-149.5 -33q-73 0 -128.5 27.5t-86.5 80t-31 124.5q0 30 6 64q15 83 62.5 145t117.5 94.5t151 32.5q72 0 127 -27.5zM242.5 397.5q-48.5 -41.5 -62.5 -120.5q-4 -20 -4 -42
q0 -59 33 -89.5t83 -30.5q59 0 107.5 41.5t62.5 120.5q4 20 4 42q0 59 -33 89.5t-83 30.5q-59 0 -107.5 -41.5zM266 639.5q-36 33.5 -36 92.5q0 19 3 38l2 12h70q-2 -12 -2 -17q0 -57 79 -57q91 0 104 74h69l-2 -12q-13 -76 -64 -120t-124 -44q-63 0 -99 33.5z" />
    <glyph glyph-name="Ohungarumlaut" unicode="&#x150;" horiz-adv-x="780" 
d="M593.5 678.5q69.5 -37.5 107 -106t37.5 -158.5q0 -37 -8 -83q-17 -99 -71.5 -175.5t-137.5 -119.5t-183 -43q-96 0 -166 37.5t-107 105.5t-37 158q0 39 8 85q17 99 71.5 175.5t138 119t183.5 42.5q95 0 164.5 -37.5zM260 525q-67 -61 -86 -164q-5 -33 -5 -56
q0 -84 48 -132.5t132 -48.5q60 0 111 27.5t86 78.5t46 119q5 25 5 57q0 84 -48 132t-131 48q-91 0 -158 -61zM405 753h-88l106 188h110zM582 753h-88l123 188h110z" />
    <glyph glyph-name="ohungarumlaut" unicode="&#x151;" horiz-adv-x="641" 
d="M500 533.5q55 -27.5 85.5 -79.5t30.5 -124q0 -30 -6 -65q-15 -83 -62 -144.5t-116.5 -94.5t-149.5 -33q-73 0 -128.5 27.5t-86.5 80t-31 124.5q0 30 6 64q15 83 62.5 145t117.5 94.5t151 32.5q72 0 127 -27.5zM247.5 397.5q-48.5 -41.5 -62.5 -120.5q-4 -20 -4 -42
q0 -59 33 -89.5t83 -30.5q59 0 107.5 41.5t62.5 120.5q4 20 4 42q0 59 -33 89.5t-83 30.5q-59 0 -107.5 -41.5zM323 601h-88l106 188h110zM500 601h-88l123 188h110z" />
    <glyph glyph-name="OE" unicode="&#x152;" horiz-adv-x="1072" 
d="M762 411h250l-19 -108h-249l-34 -190h279l-20 -113h-420l21 118q-40 -59 -107 -93t-141 -35q-86 0 -151 36.5t-100 103.5t-35 154q0 42 7 81q18 103 73.5 182.5t140 124t187.5 44.5q76 0 132.5 -34.5t76.5 -94.5l20 119h421l-20 -112h-279zM517.5 183q68.5 63 87.5 170
q5 32 5 55q0 83 -46.5 130.5t-126.5 47.5q-61 0 -113 -27.5t-87 -79t-47 -120.5q-5 -26 -5 -59q0 -84 45.5 -132t124.5 -48q94 0 162.5 63z" />
    <glyph glyph-name="oe" unicode="&#x153;" horiz-adv-x="1047" 
d="M957 504q61 -57 61 -152q0 -22 -5 -54q-4 -23 -13 -48h-406q-2 -12 -2 -33q0 -57 30.5 -84t78.5 -27t85 24.5t53 64.5h149q-21 -58 -65 -104t-105.5 -72t-130.5 -26t-118 28.5t-72 81.5q-40 -52 -101.5 -81t-131.5 -29q-71 0 -125.5 26.5t-84.5 77t-30 118.5q0 29 6 62
q16 87 64 151.5t119 98.5t152 34q69 0 120 -29t73 -81q41 53 100.5 81.5t129.5 28.5q108 0 169 -57zM878 349q0 50 -31 75.5t-79 25.5q-57 0 -102 -35t-61 -103h269q4 17 4 37zM459 319q0 59 -33 89.5t-83 30.5q-59 0 -107.5 -41.5t-62.5 -120.5q-4 -20 -4 -42
q0 -59 33 -89.5t84 -30.5q59 0 107 41.5t62 120.5q4 20 4 42z" />
    <glyph glyph-name="Racute" unicode="&#x154;" horiz-adv-x="616" 
d="M553 658.5q55 -47.5 55 -126.5q0 -24 -4 -44q-14 -80 -68.5 -134t-141.5 -72l127 -282h-156l-117 275h-62l-48 -275h-141l124 706h269q108 0 163 -47.5zM461 505q0 82 -103 82h-116l-39 -215h116q121 0 140 107q2 9 2 26zM559 856l-249 -108l17 96l252 120z" />
    <glyph glyph-name="racute" unicode="&#x155;" horiz-adv-x="415" 
d="M332.5 531.5q56.5 30.5 120.5 30.5l-27 -151h-41q-155 0 -180 -144l-47 -267h-142l98 554h141l-19 -106q40 53 96.5 83.5zM446 704l-249 -108l17 96l252 120z" />
    <glyph glyph-name="uni0156" unicode="&#x156;" horiz-adv-x="635" 
d="M536 658.5q55 -47.5 55 -126.5q0 -24 -4 -44q-14 -80 -68.5 -134t-141.5 -72l127 -282h-156l-117 275h-62l-48 -275h-141l124 706h269q108 0 163 -47.5zM444 505q0 82 -103 82h-116l-39 -215h116q121 0 140 107q2 9 2 26zM325 -45q4 -20 4 -45q0 -28 -4 -48
q-11 -66 -50 -103t-100 -37l10 54q50 0 62 67l1 9h-55l18 103h114z" />
    <glyph glyph-name="uni0157" unicode="&#x157;" horiz-adv-x="415" 
d="M328.5 531.5q56.5 30.5 120.5 30.5l-27 -151h-41q-155 0 -180 -144l-47 -267h-142l98 554h141l-19 -106q40 53 96.5 83.5zM156 -45q4 -19 4 -43q0 -23 -5 -50q-11 -66 -49.5 -103t-99.5 -37l10 54q50 0 62 67l1 9h-55l18 103h114z" />
    <glyph glyph-name="Rcaron" unicode="&#x158;" horiz-adv-x="616" 
d="M556 658.5q55 -47.5 55 -126.5q0 -24 -4 -44q-14 -80 -68.5 -134t-141.5 -72l127 -282h-156l-117 275h-62l-48 -275h-141l124 706h269q108 0 163 -47.5zM464 505q0 82 -103 82h-116l-39 -215h116q121 0 140 107q2 9 2 26zM558 837l-162 -83l-135 83l17 95l134 -85l163 85
z" />
    <glyph glyph-name="rcaron" unicode="&#x159;" horiz-adv-x="415" 
d="M335.5 531.5q56.5 30.5 120.5 30.5l-27 -151h-41q-155 0 -180 -144l-47 -267h-142l98 554h141l-19 -106q40 53 96.5 83.5zM445 685l-162 -83l-135 83l17 95l134 -85l163 85z" />
    <glyph glyph-name="Sacute" unicode="&#x15a;" horiz-adv-x="587" 
d="M472 82.5q-33 -40.5 -87.5 -65t-126.5 -24.5q-78 0 -134 27t-85 74.5t-28 109.5h149q-3 -43 23 -71.5t77 -28.5q48 0 76 28.5t28 70.5q0 29 -17 50t-42.5 34t-69.5 31q-57 23 -91.5 43t-59 55t-24.5 89q0 24 4 47q13 75 82.5 119.5t168.5 44.5q119 0 179 -54.5t63 -143.5
h-152q1 38 -22 62.5t-70 24.5q-43 0 -71 -23.5t-28 -66.5q0 -28 16.5 -46.5t40.5 -30.5t68 -30q57 -22 92.5 -41.5t61 -55.5t25.5 -92q0 -18 -5 -48q-8 -48 -41 -88.5zM528 856l-249 -108l17 96l252 120z" />
    <glyph glyph-name="sacute" unicode="&#x15b;" horiz-adv-x="546" 
d="M450.5 510.5q58.5 -50.5 63.5 -136.5h-138q-1 41 -29 64.5t-79 23.5q-38 0 -61.5 -17t-23.5 -46t28.5 -44t88.5 -31q58 -17 94.5 -32.5t63 -45.5t26.5 -79q0 -19 -4 -38q-12 -61 -69 -98.5t-152 -37.5q-109 0 -174.5 49.5t-67.5 137.5h138q-3 -40 28.5 -64t87.5 -24
q40 0 61 18t21 46q0 22 -15.5 36.5t-38.5 23t-66 20.5q-57 16 -92 30.5t-60 43.5t-25 76q0 17 3 36q11 62 68.5 100.5t152.5 38.5q112 0 170.5 -50.5zM485 704l-249 -108l17 96l252 120z" />
    <glyph glyph-name="uni015E" unicode="&#x15e;" horiz-adv-x="588" 
d="M477 82.5q-33 -40.5 -87.5 -65t-126.5 -24.5q-78 0 -134 27t-85 74.5t-28 109.5h149q-3 -43 23 -71.5t77 -28.5q48 0 76 28.5t28 70.5q0 29 -17 50t-42.5 34t-69.5 31q-57 23 -91.5 43t-59 55t-24.5 89q0 24 4 47q13 75 82.5 119.5t168.5 44.5q119 0 179 -54.5t63 -143.5
h-152q1 38 -22 62.5t-70 24.5q-43 0 -71 -23.5t-28 -66.5q0 -28 16.5 -46.5t40.5 -30.5t68 -30q57 -22 92.5 -41.5t61 -55.5t25.5 -92q0 -18 -5 -48q-8 -48 -41 -88.5zM368.5 -71q32.5 -21 32.5 -66q0 -15 -2 -23q-9 -54 -51.5 -79t-98.5 -25h-130l13 76h114q59 0 59 39
q0 13 -11.5 21.5t-34.5 8.5h-66l22 126h85l-10 -59q46 2 78.5 -19z" />
    <glyph glyph-name="uni015F" unicode="&#x15f;" horiz-adv-x="546" 
d="M453.5 510.5q58.5 -50.5 63.5 -136.5h-138q-1 41 -29 64.5t-79 23.5q-38 0 -61.5 -17t-23.5 -46t28.5 -44t88.5 -31q58 -17 94.5 -32.5t63 -45.5t26.5 -79q0 -19 -4 -38q-12 -61 -69 -98.5t-152 -37.5q-109 0 -174.5 49.5t-67.5 137.5h138q-3 -40 28.5 -64t87.5 -24
q40 0 61 18t21 46q0 22 -15.5 36.5t-38.5 23t-66 20.5q-57 16 -92 30.5t-60 43.5t-25 76q0 17 3 36q11 62 68.5 100.5t152.5 38.5q112 0 170.5 -50.5zM375.5 -71q32.5 -21 32.5 -66q0 -15 -2 -23q-9 -54 -51.5 -79t-98.5 -25h-130l13 76h114q59 0 59 39q0 13 -11.5 21.5
t-34.5 8.5h-66l22 126h85l-10 -59q46 2 78.5 -19z" />
    <glyph glyph-name="Scaron" unicode="&#x160;" horiz-adv-x="588" 
d="M476 82.5q-33 -40.5 -87.5 -65t-126.5 -24.5q-78 0 -134 27t-85 74.5t-28 109.5h149q-3 -43 23 -71.5t77 -28.5q48 0 76 28.5t28 70.5q0 29 -17 50t-42.5 34t-69.5 31q-57 23 -91.5 43t-59 55t-24.5 89q0 24 4 47q13 75 82.5 119.5t168.5 44.5q119 0 179 -54.5t63 -143.5
h-152q1 38 -22 62.5t-70 24.5q-43 0 -71 -23.5t-28 -66.5q0 -28 16.5 -46.5t40.5 -30.5t68 -30q57 -22 92.5 -41.5t61 -55.5t25.5 -92q0 -18 -5 -48q-8 -48 -41 -88.5zM527 837l-162 -83l-135 83l17 95l134 -85l163 85z" />
    <glyph glyph-name="scaron" unicode="&#x161;" horiz-adv-x="546" 
d="M453.5 510.5q58.5 -50.5 63.5 -136.5h-138q-1 41 -29 64.5t-79 23.5q-38 0 -61.5 -17t-23.5 -46t28.5 -44t88.5 -31q58 -17 94.5 -32.5t63 -45.5t26.5 -79q0 -19 -4 -38q-12 -61 -69 -98.5t-152 -37.5q-109 0 -174.5 49.5t-67.5 137.5h138q-3 -40 28.5 -64t87.5 -24
q40 0 61 18t21 46q0 22 -15.5 36.5t-38.5 23t-66 20.5q-57 16 -92 30.5t-60 43.5t-25 76q0 17 3 36q11 62 68.5 100.5t152.5 38.5q112 0 170.5 -50.5zM484 685l-162 -83l-135 83l17 95l134 -85l163 85z" />
    <glyph glyph-name="uni0162" unicode="&#x162;" horiz-adv-x="558" 
d="M606 706l-21 -112h-194l-104 -589q66 -23 66 -76q0 -5 -2 -19q-9 -54 -52 -80.5t-100 -26.5h-126l14 75h114q48 0 55 36q5 34 -43 34h-77l113 646h-193l20 112h530z" />
    <glyph glyph-name="uni0163" unicode="&#x163;" horiz-adv-x="397" 
d="M212 193q-2 -9 -2 -25q0 -26 14 -36.5t45 -10.5h55l-22 -121h-71l-10 -52q47 2 80 -19t33 -64q0 -6 -2 -22q-10 -54 -53 -80.5t-99 -26.5h-129l13 76h114q51 0 58 36q3 15 -8 24t-37 9h-66l23 130q-83 27 -83 126q0 27 6 58l43 240h-78l21 119h78l24 137h141l-24 -137
h123l-21 -119h-123z" />
    <glyph glyph-name="Tcaron" unicode="&#x164;" horiz-adv-x="558" 
d="M604 706l-20 -112h-195l-104 -594h-141l104 594h-194l20 112h530zM511 837l-162 -83l-135 83l17 95l134 -85l163 85z" />
    <glyph glyph-name="tcaron" unicode="&#x165;" horiz-adv-x="391" 
d="M475 779q0 -23 -5 -51q-11 -60 -48.5 -92.5t-99.5 -32.5l10 55q50 0 58 41l4 22h-58l19 109h116q4 -38 4 -51zM268 554h122l-21 -119h-123l-43 -242q-2 -9 -2 -24q0 -27 14 -37.5t46 -10.5h55l-22 -121h-74q-79 0 -121 32t-42 105q0 27 6 58l42 240h-77l21 119h77l24 137
h142z" />
    <glyph glyph-name="Utilde" unicode="&#x168;" horiz-adv-x="683" 
d="M265 706l-73 -414q-5 -30 -5 -51q0 -57 30 -86t87 -29q68 0 112 41.5t59 124.5l73 414h140l-72 -414q-18 -98 -67 -165.5t-119 -100.5t-152 -33q-108 0 -170.5 56t-62.5 165q0 39 7 78l73 414h140zM414 886q15 -7 35 -20q14 -10 25 -15.5t25 -5.5q18 0 32 12t21 35h72
q-43 -131 -144 -131q-22 0 -38 7t-35 20q-16 10 -25.5 15t-22.5 5q-37 0 -53 -47h-72q45 132 144 132q21 0 36 -7z" />
    <glyph glyph-name="utilde" unicode="&#x169;" horiz-adv-x="658" 
d="M646 554l-97 -554h-142l20 110q-33 -55 -88.5 -86t-121.5 -31q-81 0 -127.5 46t-46.5 131q0 29 6 62l57 322h140l-54 -306q-3 -19 -3 -36q0 -50 28 -76.5t78 -26.5q59 0 101.5 37.5t55.5 108.5l53 299h141zM377 734q15 -7 35 -20q14 -10 25 -15.5t25 -5.5q18 0 32 12
t21 35h72q-43 -131 -144 -131q-22 0 -38 7t-35 20q-16 10 -25.5 15t-22.5 5q-37 0 -53 -47h-72q45 132 144 132q21 0 36 -7z" />
    <glyph glyph-name="Umacron" unicode="&#x16a;" horiz-adv-x="683" 
d="M266 706l-73 -414q-5 -30 -5 -51q0 -57 30 -86t87 -29q68 0 112 41.5t59 124.5l73 414h140l-72 -414q-18 -98 -67 -165.5t-119 -100.5t-152 -33q-108 0 -170.5 56t-62.5 165q0 39 7 78l73 414h140zM631 884l-17 -95h-383l18 95h382z" />
    <glyph glyph-name="umacron" unicode="&#x16b;" horiz-adv-x="658" 
d="M647 554l-97 -554h-142l20 110q-33 -55 -88.5 -86t-121.5 -31q-81 0 -127.5 46t-46.5 131q0 29 6 62l57 322h140l-54 -306q-3 -19 -3 -36q0 -50 28 -76.5t78 -26.5q59 0 101.5 37.5t55.5 108.5l53 299h141zM594 732l-17 -95h-383l18 95h382z" />
    <glyph glyph-name="Ubreve" unicode="&#x16c;" horiz-adv-x="683" 
d="M262 706l-73 -414q-5 -30 -5 -51q0 -57 30 -86t87 -29q68 0 112 41.5t59 124.5l73 414h140l-72 -414q-18 -98 -67 -165.5t-119 -100.5t-152 -33q-108 0 -170.5 56t-62.5 165q0 39 7 78l73 414h140zM312 791.5q-36 33.5 -36 92.5q0 19 3 38l2 12h70q-2 -12 -2 -17
q0 -57 79 -57q91 0 104 74h69l-2 -12q-13 -76 -64 -120t-124 -44q-63 0 -99 33.5z" />
    <glyph glyph-name="ubreve" unicode="&#x16d;" horiz-adv-x="658" 
d="M642 554l-97 -554h-142l20 110q-33 -55 -88.5 -86t-121.5 -31q-81 0 -127.5 46t-46.5 131q0 29 6 62l57 322h140l-54 -306q-3 -19 -3 -36q0 -50 28 -76.5t78 -26.5q59 0 101.5 37.5t55.5 108.5l53 299h141zM274 639.5q-36 33.5 -36 92.5q0 19 3 38l2 12h70q-2 -12 -2 -17
q0 -57 79 -57q91 0 104 74h69l-2 -12q-13 -76 -64 -120t-124 -44q-63 0 -99 33.5z" />
    <glyph glyph-name="Uring" unicode="&#x16e;" horiz-adv-x="683" 
d="M257 706l-73 -414q-5 -30 -5 -51q0 -57 30 -86t87 -29q68 0 112 41.5t59 124.5l73 414h140l-72 -414q-18 -98 -67 -165.5t-119 -100.5t-152 -33q-108 0 -170.5 56t-62.5 165q0 39 7 78l73 414h140zM512 960q27 -24 27 -67q0 -41 -19 -73t-50.5 -49t-67.5 -17
q-43 0 -70 24.5t-27 67.5q0 41 19.5 72.5t51 48.5t66.5 17q43 0 70 -24zM385.5 906.5q-19.5 -19.5 -19.5 -50.5q0 -20 13 -32t33 -12q27 0 47 19.5t20 49.5q0 21 -13 33t-34 12q-27 0 -46.5 -19.5z" />
    <glyph glyph-name="uring" unicode="&#x16f;" horiz-adv-x="658" 
d="M638 554l-97 -554h-142l20 110q-33 -55 -88.5 -86t-121.5 -31q-81 0 -127.5 46t-46.5 131q0 29 6 62l57 322h140l-54 -306q-3 -19 -3 -36q0 -50 28 -76.5t78 -26.5q59 0 101.5 37.5t55.5 108.5l53 299h141zM474 808q27 -24 27 -67q0 -41 -19 -73t-50.5 -49t-67.5 -17
q-43 0 -70 24.5t-27 67.5q0 41 19.5 72.5t51 48.5t66.5 17q43 0 70 -24zM347.5 754.5q-19.5 -19.5 -19.5 -50.5q0 -20 13 -32t33 -12q27 0 47 19.5t20 49.5q0 21 -13 33t-34 12q-27 0 -46.5 -19.5z" />
    <glyph glyph-name="Uhungarumlaut" unicode="&#x170;" horiz-adv-x="683" 
d="M260 706l-73 -414q-5 -30 -5 -51q0 -57 30 -86t87 -29q68 0 112 41.5t59 124.5l73 414h140l-72 -414q-18 -98 -67 -165.5t-119 -100.5t-152 -33q-108 0 -170.5 56t-62.5 165q0 39 7 78l73 414h140zM321 753h-88l106 188h110zM498 753h-88l123 188h110z" />
    <glyph glyph-name="uhungarumlaut" unicode="&#x171;" horiz-adv-x="658" 
d="M642 554l-97 -554h-142l20 110q-33 -55 -88.5 -86t-121.5 -31q-81 0 -127.5 46t-46.5 131q0 29 6 62l57 322h140l-54 -306q-3 -19 -3 -36q0 -50 28 -76.5t78 -26.5q59 0 101.5 37.5t55.5 108.5l53 299h141zM283 601h-88l106 188h110zM460 601h-88l123 188h110z" />
    <glyph glyph-name="Uogonek" unicode="&#x172;" horiz-adv-x="683" 
d="M265 706l-73 -414q-5 -30 -5 -51q0 -57 30 -86t87 -29q66 0 111 40t59 126l74 414h140l-73 -414q-22 -125 -95.5 -198t-170.5 -91q-61 -10 -61 -51q0 -15 12.5 -23.5t36.5 -8.5h107l-13 -75h-133q-46 0 -76.5 24t-30.5 67q0 15 2 23q2 13 9.5 24t18.5 16
q-80 16 -128 72.5t-48 151.5q0 32 6 69l74 414h140z" />
    <glyph glyph-name="uogonek" unicode="&#x173;" horiz-adv-x="658" 
d="M635 554l-97 -554h-142l20 110q-33 -55 -88.5 -86t-121.5 -31q-81 0 -127.5 46t-46.5 131q0 29 6 62l57 322h140l-54 -306q-3 -19 -3 -36q0 -50 28 -76.5t78 -26.5q59 0 101.5 37.5t55.5 108.5l53 299h141zM540 18l-12 -68h-72q-28 0 -44.5 -12t-16.5 -33q0 -16 12.5 -25
t34.5 -9h115l-14 -76h-128q-51 0 -84.5 23t-33.5 68q0 7 2 23q9 54 50.5 81.5t93.5 27.5h97z" />
    <glyph glyph-name="Wcircumflex" unicode="&#x174;" horiz-adv-x="1022" 
d="M1050 706l-297 -706h-174l-42 512l-223 -512h-173l-49 706h153l11 -549l237 549h155l44 -547l205 547h153zM596 840l-164 -85l17 95l164 83l133 -83l-16 -95z" />
    <glyph glyph-name="wcircumflex" unicode="&#x175;" horiz-adv-x="863" 
d="M898 554l-247 -554h-156l-49 403l-192 -403h-156l-49 554h140l15 -428l198 428h149l49 -428l166 428h132zM496 688l-164 -85l17 95l164 83l133 -83l-16 -95z" />
    <glyph glyph-name="Ycircumflex" unicode="&#x176;" horiz-adv-x="645" 
d="M693 706l-320 -459l-43 -247h-142l43 247l-159 459h162l95 -309l205 309h159zM407 840l-164 -85l17 95l164 83l133 -83l-16 -95z" />
    <glyph glyph-name="ycircumflex" unicode="&#x177;" horiz-adv-x="608" 
d="M193 554l85 -376l206 376h156l-485 -818h-156l175 280l-138 538h157zM361 688l-164 -85l17 95l164 83l133 -83l-16 -95z" />
    <glyph glyph-name="Ydieresis" unicode="&#x178;" horiz-adv-x="645" 
d="M695 706l-320 -459l-43 -247h-142l43 247l-159 459h162l95 -309l205 309h159zM275 879.5q23 22.5 52 22.5q24 0 39 -14.5t15 -36.5q0 -31 -22.5 -53.5t-53.5 -22.5q-23 0 -38 14.5t-15 37.5q0 30 23 52.5zM463.5 879.5q22.5 22.5 52.5 22.5q24 0 39 -15t15 -38
q0 -30 -23 -52t-53 -22q-24 0 -38.5 14.5t-14.5 36.5q0 31 22.5 53.5z" />
    <glyph glyph-name="Zacute" unicode="&#x179;" horiz-adv-x="573" 
d="M153 114h329l-20 -114h-485l19 108l408 485h-318l20 113h476l-19 -108zM519 856l-249 -108l17 96l252 120z" />
    <glyph glyph-name="zacute" unicode="&#x17a;" horiz-adv-x="474" 
d="M152 118h272l-22 -118h-425l20 112l312 325h-249l21 117h410l-20 -111zM438 704l-249 -108l17 96l252 120z" />
    <glyph glyph-name="Zdotaccent" unicode="&#x17b;" horiz-adv-x="572" 
d="M158 114h329l-20 -114h-485l19 108l408 485h-318l20 113h476l-19 -108zM331.5 879.5q22.5 22.5 52.5 22.5q24 0 39 -14.5t15 -37.5q0 -30 -23 -52.5t-53 -22.5q-23 0 -38 14.5t-15 36.5q0 31 22.5 53.5z" />
    <glyph glyph-name="zdotaccent" unicode="&#x17c;" horiz-adv-x="474" 
d="M151 118h272l-22 -118h-425l20 112l312 325h-249l21 117h410l-20 -111zM250.5 727.5q22.5 22.5 52.5 22.5q24 0 39 -14.5t15 -37.5q0 -30 -23 -52.5t-53 -22.5q-23 0 -38 14.5t-15 36.5q0 31 22.5 53.5z" />
    <glyph glyph-name="Zcaron" unicode="&#x17d;" horiz-adv-x="573" 
d="M156 114h329l-20 -114h-485l19 108l408 485h-318l20 113h476l-19 -108zM518 837l-162 -83l-135 83l17 95l134 -85l163 85z" />
    <glyph glyph-name="zcaron" unicode="&#x17e;" horiz-adv-x="474" 
d="M155 118h272l-22 -118h-425l20 112l312 325h-249l21 117h410l-20 -111zM449 685l-162 -83l-135 83l17 95l134 -85l163 85z" />
    <glyph glyph-name="florin" unicode="&#x192;" horiz-adv-x="336" 
d="M345.5 639.5q-27.5 -16.5 -37.5 -54.5l-9 -31h100l-33 -118h-100l-144 -508q-26 -91 -84 -129.5t-148 -38.5h-31l32 121h33q23 0 36 10.5t21 36.5l144 508h-59l32 118h60l9 31q28 99 98.5 145.5t187.5 46.5l-33 -121q-47 0 -74.5 -16.5z" />
    <glyph glyph-name="uni01FC" unicode="&#x1fc;" horiz-adv-x="926" 
d="M650 594l-32 -181h243l-19 -108h-243l-34 -192h274l-20 -113h-415l24 136h-241l-96 -136h-154l501 706h505l-20 -112h-273zM447 243l61 346l-245 -346h184zM822 856l-249 -108l17 96l252 120z" />
    <glyph glyph-name="uni01FD" unicode="&#x1fd;" horiz-adv-x="1086" 
d="M1010 505.5q53 -55.5 53 -147.5q0 -28 -6 -60q-6 -30 -13 -48h-429q-1 -9 -1 -25q0 -61 32.5 -90.5t87.5 -29.5q53 0 92.5 24t56.5 66h149q-32 -89 -105.5 -145.5t-165.5 -56.5q-71 0 -117.5 32t-56.5 91l-21 -116h-140l21 116q-31 -56 -87 -89.5t-126 -33.5
q-92 0 -146.5 57t-54.5 158q0 33 6 69q15 87 58 151.5t105 98.5t132 34t114 -33t56 -89l20 115h141l-21 -116q31 60 87.5 91.5t130.5 31.5q95 0 148 -55.5zM921 347q0 51 -35 77t-87 26q-62 0 -108.5 -33.5t-64.5 -104.5h291q4 17 4 35zM479 315q0 57 -33.5 90t-88.5 33
q-66 0 -114 -43t-61 -118q-4 -28 -4 -39q0 -57 32.5 -89t89.5 -32q64 0 113 43.5t62 116.5q4 26 4 38zM757 704l-249 -108l17 96l252 120z" />
    <glyph glyph-name="uni0218" unicode="&#x218;" horiz-adv-x="590" 
d="M478 82.5q-33 -40.5 -87.5 -65t-126.5 -24.5q-78 0 -134 27t-85 74.5t-28 109.5h149q-3 -43 23 -71.5t77 -28.5q48 0 76 28.5t28 70.5q0 29 -17 50t-42.5 34t-69.5 31q-57 23 -91.5 43t-59 55t-24.5 89q0 24 4 47q13 75 82.5 119.5t168.5 44.5q119 0 179 -54.5t63 -143.5
h-152q1 38 -22 62.5t-70 24.5q-43 0 -71 -23.5t-28 -66.5q0 -28 16.5 -46.5t40.5 -30.5t68 -30q57 -22 92.5 -41.5t61 -55.5t25.5 -92q0 -18 -5 -48q-8 -48 -41 -88.5zM335 -90q0 -28 -4 -48q-12 -66 -50.5 -103t-99.5 -37l10 54q51 0 61 67l2 9h-55l18 103h114q4 -20 4 -45
z" />
    <glyph glyph-name="uni0219" unicode="&#x219;" horiz-adv-x="546" 
d="M454.5 510.5q58.5 -50.5 63.5 -136.5h-138q-1 41 -29 64.5t-79 23.5q-38 0 -61.5 -17t-23.5 -46t28.5 -44t88.5 -31q58 -17 94.5 -32.5t63 -45.5t26.5 -79q0 -19 -4 -38q-12 -61 -69 -98.5t-152 -37.5q-109 0 -174.5 49.5t-67.5 137.5h138q-3 -40 28.5 -64t87.5 -24
q40 0 61 18t21 46q0 22 -15.5 36.5t-38.5 23t-66 20.5q-57 16 -92 30.5t-60 43.5t-25 76q0 17 3 36q11 62 68.5 100.5t152.5 38.5q112 0 170.5 -50.5zM297 -88q0 -29 -4 -50q-11 -66 -49.5 -103t-99.5 -37l9 54q50 0 62 67l2 9h-56l19 103h114q3 -21 3 -43z" />
    <glyph glyph-name="uni021A" unicode="&#x21a;" horiz-adv-x="558" 
d="M602 706l-20 -112h-195l-104 -594h-141l104 594h-194l20 112h530zM266 -88q0 -29 -4 -50q-11 -66 -49.5 -103t-99.5 -37l10 54q49 0 61 67l2 9h-56l19 103h114q3 -21 3 -43z" />
    <glyph glyph-name="uni021B" unicode="&#x21b;" horiz-adv-x="397" 
d="M217 193q-2 -9 -2 -24q0 -27 14 -37.5t46 -10.5h55l-22 -121h-74q-79 0 -121 32t-42 105q0 27 6 58l42 240h-77l21 119h77l24 137h142l-24 -137h122l-21 -119h-123zM253 -45q3 -23 3 -45q0 -26 -3 -48q-12 -66 -50.5 -103t-99.5 -37l10 54q51 0 61 67l2 9h-55l18 103h114
z" />
    <glyph glyph-name="uni02BC" unicode="&#x2bc;" horiz-adv-x="217" 
d="M183 772q0 -28 -5 -58q-11 -64 -49 -101t-100 -37l10 56q50 0 62 62l3 19h-58l18 109h116q3 -25 3 -50z" />
    <glyph glyph-name="circumflex" unicode="&#x2c6;" horiz-adv-x="341" 
d="M230 688l-164 -85l17 95l164 83l133 -83l-16 -95z" />
    <glyph glyph-name="caron" unicode="&#x2c7;" horiz-adv-x="341" 
d="M378 685l-162 -83l-135 83l17 95l134 -85l163 85z" />
    <glyph glyph-name="uni02C9" unicode="&#x2c9;" horiz-adv-x="426" 
d="M473 732l-17 -95h-383l18 95h382z" />
    <glyph glyph-name="breve" unicode="&#x2d8;" horiz-adv-x="363" 
d="M128 639.5q-36 33.5 -36 92.5q0 19 3 38l2 12h70q-2 -12 -2 -17q0 -57 79 -57q91 0 104 74h69l-2 -12q-13 -76 -64 -120t-124 -44q-63 0 -99 33.5z" />
    <glyph glyph-name="dotaccent" unicode="&#x2d9;" horiz-adv-x="177" 
d="M106.5 727.5q22.5 22.5 52.5 22.5q24 0 39 -14.5t15 -37.5q0 -30 -23 -52.5t-53 -22.5q-23 0 -38 14.5t-15 36.5q0 31 22.5 53.5z" />
    <glyph glyph-name="ring" unicode="&#x2da;" horiz-adv-x="274" 
d="M287 808q27 -24 27 -67q0 -41 -19 -73t-50.5 -49t-67.5 -17q-43 0 -70 24.5t-27 67.5q0 41 19.5 72.5t51 48.5t66.5 17q43 0 70 -24zM160.5 754.5q-19.5 -19.5 -19.5 -50.5q0 -20 13 -32t33 -12q27 0 47 19.5t20 49.5q0 21 -13 33t-34 12q-27 0 -46.5 -19.5z" />
    <glyph glyph-name="ogonek" unicode="&#x2db;" horiz-adv-x="296" 
d="M257 1l-12 -68h-72q-28 0 -44.5 -12t-16.5 -33q0 -16 12.5 -25t34.5 -9h115l-14 -76h-128q-51 0 -84.5 23t-33.5 68q0 7 2 23q9 54 50.5 81.5t93.5 27.5h97z" />
    <glyph glyph-name="tilde" unicode="&#x2dc;" horiz-adv-x="399" 
d="M244 734q15 -7 35 -20q14 -10 25 -15.5t25 -5.5q18 0 32 12t21 35h72q-43 -131 -144 -131q-22 0 -38 7t-35 20q-16 10 -25.5 15t-22.5 5q-37 0 -53 -47h-72q45 132 144 132q21 0 36 -7z" />
    <glyph glyph-name="hungarumlaut" unicode="&#x2dd;" horiz-adv-x="420" 
d="M153 601h-88l106 188h110zM330 601h-88l123 188h110z" />
    <glyph glyph-name="pi" unicode="&#x3c0;" horiz-adv-x="713" 
d="M733 554l-19 -106h-74l-79 -448h-141l79 448h-222l-79 -448h-141l78 448h-73l19 106h652z" />
    <glyph glyph-name="dvCandrabindu" unicode="&#x901;" horiz-adv-x="0" 
d="M-80.5 997q-12.5 12 -12.5 32q0 25 19.5 43.5t44.5 18.5q21 0 33.5 -12t12.5 -32q0 -25 -19.5 -43.5t-45.5 -18.5q-20 0 -32.5 12zM-217.5 857.5q-54.5 43.5 -54.5 117.5q0 11 4 37h103q-2 -12 -2 -18q0 -38 27 -63t79 -25q57 0 95 31t45 75h104q-16 -91 -80.5 -144.5
t-173.5 -53.5q-92 0 -146.5 43.5z" />
    <glyph glyph-name="dvAnusvara" unicode="&#x902;" horiz-adv-x="0" 
d="M-124.5 839.5q-18.5 18.5 -18.5 46.5q0 37 28 64t64 27q30 0 48.5 -18t18.5 -47q0 -36 -28 -63.5t-65 -27.5q-29 0 -47.5 18.5z" />
    <glyph glyph-name="dvVisarga" unicode="&#x903;" horiz-adv-x="262" 
d="M96.5 418q-18.5 18 -18.5 45q0 37 28 64.5t65 27.5q28 0 46.5 -18.5t18.5 -45.5q0 -36 -28 -63.5t-64 -27.5q-29 0 -47.5 18zM43.5 123q-18.5 18 -18.5 45q0 37 28.5 64t64.5 27q29 0 47.5 -18t18.5 -46q0 -36 -28 -63t-65 -27q-29 0 -47.5 18z" />
    <glyph glyph-name="dvA" unicode="&#x905;" horiz-adv-x="833" 
d="M919 740l-18 -108h-111l-112 -632h-129l51 287l-117 1q0 -19 -3 -37q-16 -89 -82 -141.5t-159 -52.5q-90 0 -143.5 45.5t-53.5 121.5q0 22 4 41h120q-2 -12 -2 -19q0 -34 23.5 -56t63.5 -22q50 0 82.5 32.5t32.5 82.5q0 34 -23.5 56t-71.5 22h-43l18 104h43q53 0 86 31
t33 73q0 33 -21 51.5t-55 18.5q-41 0 -71.5 -23.5t-37.5 -61.5h-119q16 88 84 141.5t163 53.5q81 0 128.5 -39t47.5 -105q0 -18 -3 -36q-9 -56 -45 -95.5t-93 -55.5v-3q25 -5 47 -21h186l61 346h239z" />
    <glyph glyph-name="dvAA" unicode="&#x906;" horiz-adv-x="1142" 
d="M919 740l-18 -108h-111l-112 -632h-129l51 287l-117 1q0 -19 -3 -37q-16 -89 -82 -141.5t-159 -52.5q-90 0 -143.5 45.5t-53.5 121.5q0 22 4 41h120q-2 -12 -2 -19q0 -34 23.5 -56t63.5 -22q50 0 82.5 32.5t32.5 82.5q0 34 -23.5 56t-71.5 22h-43l18 104h43q53 0 86 31
t33 73q0 33 -21 51.5t-55 18.5q-41 0 -71.5 -23.5t-37.5 -61.5h-119q16 88 84 141.5t163 53.5q81 0 128.5 -39t47.5 -105q0 -18 -3 -36q-9 -56 -45 -95.5t-93 -55.5v-3q25 -5 47 -21h186l61 346h239zM969 632h-111l19 108h351l-19 -108h-111l-110 -632h-130z" />
    <glyph glyph-name="dvI" unicode="&#x907;" horiz-adv-x="584" 
d="M660 632h-139l-21 -120l-12 -63h-182q-40 0 -69 -16.5t-29 -57.5q0 -24 19 -35t50 -11h44q76 0 127 -34.5t51 -107.5q0 -21 -4 -41q-12 -73 -65.5 -117.5t-136.5 -44.5q-55 0 -88 21t-46 46l-23 -132h-122l45 256h116q-4 -44 21 -69.5t74 -25.5t77.5 27.5t28.5 66.5
q0 63 -96 63q-37 0 -58 2q-61 2 -102.5 33.5t-41.5 90.5q0 15 3 31q13 76 70.5 112t137.5 36h91l16 90h-370l19 108h633z" />
    <glyph glyph-name="dvII" unicode="&#x908;" horiz-adv-x="579" 
d="M766.5 979.5q39.5 -36.5 39.5 -101.5q0 -25 -6 -54h-114q3 15 3 28q0 26 -14 41t-39 15q-70 0 -87 -99l-12 -69h143l-19 -108h-139l-22 -120l-12 -63h-182q-40 0 -69 -16.5t-29 -57.5q0 -24 19 -35t50 -11h44q76 0 127 -34.5t51 -107.5q0 -21 -4 -41
q-12 -73 -65.5 -117.5t-136.5 -44.5q-55 0 -88 21t-46 46l-23 -132h-122l45 256h116q-4 -44 21 -69.5t74 -25.5t77 27t28 66q0 64 -95 64q-37 0 -58 2q-61 2 -102.5 33.5t-41.5 90.5q0 15 3 31q13 76 70.5 112t137.5 36h91l17 90h-370l19 108h372l12 68q16 91 70 149.5
t153 58.5q74 0 113.5 -36.5z" />
    <glyph glyph-name="dvU" unicode="&#x909;" horiz-adv-x="569" 
d="M635 632h-100l-14 -76q-10 -61 -44.5 -101t-80.5 -49l-1 -2q46 -13 72 -51.5t26 -93.5q0 -19 -3 -39q-18 -97 -88.5 -156.5t-175.5 -59.5q-96 0 -153 49.5t-57 134.5q0 25 4 46h123q-2 -16 -2 -22q0 -41 27.5 -67t72.5 -26q49 0 84.5 31t44.5 80q2 16 2 23q0 40 -24 66
t-75 26h-55l20 112h37q49 0 82 27.5t42 77.5l12 70h-386l19 108h611z" />
    <glyph glyph-name="dvUU" unicode="&#x90a;" horiz-adv-x="856" 
d="M476.5 455q-34.5 -40 -80.5 -49v-2h189q94 0 148.5 -38.5t54.5 -116.5q0 -12 -4 -42q-16 -87 -76.5 -136t-148.5 -49q-22 0 -54 5l18 98q10 -1 31 -1q41 0 69.5 21.5t36.5 65.5q2 14 2 20q0 36 -25.5 53t-67.5 17h-84q6 -21 6 -47q0 -22 -4 -41q-11 -60 -46 -107.5
t-90.5 -74.5t-124.5 -27q-96 0 -153 49.5t-57 134.5q0 25 4 46h123q-2 -16 -2 -22q0 -41 27.5 -67t72.5 -26q49 0 84.5 31t44.5 80q2 16 2 23q0 40 -24 66t-75 26h-55l20 112h37q49 0 82 27.5t42 77.5l12 70h-386l19 108h898l-19 -108h-388l-14 -76q-10 -61 -44.5 -101z" />
    <glyph glyph-name="dvvR" unicode="&#x90b;" horiz-adv-x="1040" 
d="M650 632l-33 -186h159q63 0 79 50l10 57h112l-62 -351h-24q-52 0 -82 -29t-30 -72q0 -33 24 -49t64 -16q26 0 58 8l-18 -103q-40 -8 -75 -8q-81 0 -130.5 36t-49.5 102q0 17 3 35q11 64 54 107.5t107 59.5l15 87q-40 -17 -92 -17h-140l-60 -343h-119l37 209l-257 -209
h-163l1 6l440 331q-5 44 -35.5 71t-81.5 27q-71 0 -120 -43t-62 -115h-129q14 79 54.5 139.5t102 94t135.5 33.5q113 0 160 -79l29 167h-505l18 108h1082l-19 -108h-457z" />
    <glyph glyph-name="dvvL" unicode="&#x90c;" horiz-adv-x="903" 
d="M742 632l-19 -107q51 -17 80 -60t29 -109q0 -24 -5 -57q-9 -56 -34 -100h-7q-64 0 -96 -28t-32 -73q0 -32 25 -48t66 -16q34 0 59 7l-18 -103q-42 -7 -75 -7q-84 0 -133.5 36t-49.5 105q0 17 3 36q10 58 53.5 101t102.5 57l8 34q3 17 3 31q0 41 -21 66t-62 25
q-53 0 -87.5 -40t-43.5 -103l-5 -25h-107l4 25q3 23 3 42q0 47 -19.5 74t-61.5 27q-52 0 -86 -34.5t-43 -90.5q-4 -26 -4 -37q0 -48 27.5 -73.5t77.5 -25.5l29 2l-19 -113q-15 -1 -36 -1q-104 0 -157.5 51t-53.5 141q0 33 5 58q13 76 51 129t92.5 80t116.5 27
q68 0 105 -35.5t45 -90.5h4q22 43 58 74.5t85 44.5l18 104h-597l20 108h944l-19 -108h-223z" />
    <glyph glyph-name="dvEcandra" unicode="&#x90d;" horiz-adv-x="652" 
d="M235 868.5q-48 42.5 -48 114.5q0 13 4 41h111q-2 -14 -2 -21q0 -36 24.5 -58.5t74.5 -22.5q57 0 91 29.5t41 72.5h111q-15 -88 -81.5 -143t-178.5 -55q-99 0 -147 42.5zM693 632h-97l-16 -93q-19 -104 -69.5 -157t-144.5 -53q-22 0 -48 3l20 115q7 -1 20 -1q42 0 65 23.5
t32 72.5l15 90h-232l-64 -366q-4 -26 -4 -37q0 -48 27 -74t75 -26q52 0 86 30.5t43 86.5h127q-18 -108 -87.5 -167.5t-178.5 -59.5q-107 0 -164 52.5t-57 143.5q0 24 5 56l63 361h-110l19 108h694z" />
    <glyph glyph-name="dvE" unicode="&#x90f;" horiz-adv-x="651" 
d="M718 632h-97l-16 -93q-19 -104 -69.5 -157t-144.5 -53q-22 0 -48 3l20 115q7 -1 20 -1q42 0 65 23.5t32 72.5l15 90h-232l-64 -366q-4 -26 -4 -37q0 -48 27 -74t75 -26q52 0 86 30.5t43 86.5h127q-18 -108 -87.5 -167.5t-178.5 -59.5q-107 0 -164 52.5t-57 143.5
q0 24 5 56l63 361h-110l19 108h694z" />
    <glyph glyph-name="dvAI" unicode="&#x910;" horiz-adv-x="652" 
d="M719 632h-97l-16 -93q-19 -104 -69.5 -157t-144.5 -53q-22 0 -48 3l20 115q7 -1 20 -1q42 0 65 23.5t32 72.5l15 90h-232l-64 -366q-4 -26 -4 -37q0 -48 27 -74t75 -26q52 0 86 30.5t43 86.5h127q-18 -108 -87.5 -167.5t-178.5 -59.5q-107 0 -164 52.5t-57 143.5
q0 24 5 56l63 361h-110l19 108h468q-32 68 -54.5 98.5t-49.5 40.5t-76 10h-48l19 104h46q79 -1 122.5 -17t80 -68.5t81.5 -167.5h105z" />
    <glyph glyph-name="dvOcandra" unicode="&#x911;" horiz-adv-x="1142" 
d="M919 740l-18 -108h-111l-112 -632h-129l51 287l-117 1q0 -19 -3 -37q-16 -89 -82 -141.5t-159 -52.5q-90 0 -143.5 45.5t-53.5 121.5q0 22 4 41h120q-2 -12 -2 -19q0 -34 23.5 -56t63.5 -22q50 0 82.5 32.5t32.5 82.5q0 34 -23.5 56t-71.5 22h-43l18 104h43q53 0 86 31
t33 73q0 33 -21 51.5t-55 18.5q-41 0 -71.5 -23.5t-37.5 -61.5h-119q16 88 84 141.5t163 53.5q81 0 128.5 -39t47.5 -105q0 -18 -3 -36q-9 -56 -45 -95.5t-93 -55.5v-3q25 -5 47 -21h186l61 346h239zM969 632h-111l19 108h351l-19 -108h-111l-110 -632h-130zM808.5 870
q-50.5 43 -50.5 115q0 12 4 40h111q-2 -14 -2 -22q0 -36 24 -58t74 -22q57 0 91.5 29t41.5 73h111q-15 -89 -78.5 -143.5t-175.5 -54.5q-100 0 -150.5 43z" />
    <glyph glyph-name="dvO" unicode="&#x913;" horiz-adv-x="1142" 
d="M919 740l-18 -108h-111l-112 -632h-129l51 287l-117 1q0 -19 -3 -37q-16 -89 -82 -141.5t-159 -52.5q-90 0 -143.5 45.5t-53.5 121.5q0 22 4 41h120q-2 -12 -2 -19q0 -34 23.5 -56t63.5 -22q50 0 82.5 32.5t32.5 82.5q0 34 -23.5 56t-71.5 22h-43l18 104h43q53 0 86 31
t33 73q0 33 -21 51.5t-55 18.5q-41 0 -71.5 -23.5t-37.5 -61.5h-119q16 88 84 141.5t163 53.5q81 0 128.5 -39t47.5 -105q0 -18 -3 -36q-9 -56 -45 -95.5t-93 -55.5v-3q25 -5 47 -21h186l61 346h239zM969 632h-111l19 108h351l-19 -108h-111l-110 -632h-130zM968.5 838
q-23.5 31 -50 41t-75.5 10h-48l18 104h46q80 -1 123.5 -17t80.5 -69.5t83 -170.5h-121q-33 71 -56.5 102z" />
    <glyph glyph-name="dvAU" unicode="&#x914;" horiz-adv-x="1142" 
d="M919 740l-18 -108h-111l-112 -632h-129l51 287l-117 1q0 -19 -3 -37q-16 -89 -82 -141.5t-159 -52.5q-90 0 -143.5 45.5t-53.5 121.5q0 22 4 41h120q-2 -12 -2 -19q0 -34 23.5 -56t63.5 -22q50 0 82.5 32.5t32.5 82.5q0 34 -23.5 56t-71.5 22h-43l18 104h43q53 0 86 31
t33 73q0 33 -21 51.5t-55 18.5q-41 0 -71.5 -23.5t-37.5 -61.5h-119q16 88 84 141.5t163 53.5q81 0 128.5 -39t47.5 -105q0 -18 -3 -36q-9 -56 -45 -95.5t-93 -55.5v-3q25 -5 47 -21h186l61 346h239zM969 632h-111l19 108h351l-19 -108h-111l-110 -632h-130zM981.5 1042.5
q38.5 -17.5 73.5 -82.5t89 -223h-111q-55 43 -79 58t-49.5 19t-83.5 4h-50l15 81h46q56 0 82.5 -3.5t52 -17t60.5 -45.5q-27 68 -52 99t-51.5 38.5t-71.5 7.5h-52l14 82h49q80 0 118.5 -17.5z" />
    <glyph glyph-name="dvKA" unicode="&#x915;" horiz-adv-x="976" 
d="M603 632l-30 -171q28 37 70 58.5t94 21.5q80 0 127 -51t47 -132q0 -21 -5 -51q-20 -106 -87.5 -164.5t-159.5 -58.5q-30 0 -64 8l18 101q12 -3 31 -3q48 0 85.5 32.5t46.5 87.5q2 18 2 25q0 43 -25.5 69.5t-69.5 26.5q-57 0 -92.5 -38t-45.5 -94v1l-53 -300h-124l28 159
q-30 -38 -73.5 -60t-99.5 -22q-80 0 -129.5 50.5t-49.5 134.5q0 21 5 51q19 104 87.5 166t165.5 62q56 0 93.5 -21.5t53.5 -59.5l30 172h-454l19 108h1018l-20 -108h-439zM422 308q2 8 2 25q0 42 -25.5 70.5t-75.5 28.5q-38 0 -71.5 -19t-54 -53t-20.5 -77q0 -45 28 -71
t73 -26q58 0 96 35.5t47 81.5z" />
    <glyph glyph-name="dvKHA" unicode="&#x916;" horiz-adv-x="950" 
d="M1036 740l-19 -108h-111l-110 -632h-129l32 180q-54 -59 -141 -59q-17 0 -32 3q-44 -58 -108 -93.5t-142 -35.5q-108 0 -168 53.5t-60 152.5q0 30 6 63l24 137h29q67 0 108.5 32t53.5 106l16 93h-259l19 108h991zM778 632h-363l-19 -110q-17 -100 -72.5 -153t-133.5 -59
l-10 -61q-3 -16 -3 -32q0 -51 31.5 -81t90.5 -30q46 0 81 19.5t59 49.5q-38 48 -38 118q0 26 4 47q15 87 75 139t141 52q93 0 129 -61zM668 238.5q28 19.5 43 49t15 59.5q0 36 -22 61t-66 25q-45 0 -79.5 -28t-43.5 -77q-2 -16 -2 -23q0 -41 25 -63.5t65 -22.5q37 0 65 19.5
z" />
    <glyph glyph-name="dvGA" unicode="&#x917;" horiz-adv-x="789" 
d="M874 740l-19 -108h-111l-111 -632h-129l111 632h-146l-42 -243q-15 -89 -70 -144t-150 -55q-78 0 -123 40t-45 110q0 23 4 43l6 31h125l-6 -31q-2 -18 -2 -25q0 -58 52 -58q35 0 54 24.5t25 59.5l43 248h-315l19 108h830z" />
    <glyph glyph-name="dvGHA" unicode="&#x918;" horiz-adv-x="703" 
d="M769 632h-109l-111 -632h-130l33 189q-38 -43 -92.5 -66.5t-116.5 -23.5q-83 0 -136.5 39.5t-53.5 110.5q0 16 3 32q11 58 51.5 97t92.5 50v3q-38 9 -60 34.5t-22 70.5q0 10 4 38l10 58h-107l19 108h745zM530 632h-269l-9 -52q-2 -18 -2 -25q0 -36 22 -54t70 -18h43
l-19 -104h-52q-61 0 -93.5 -29t-32.5 -73q0 -36 28.5 -54.5t75.5 -18.5q68 0 121.5 41.5t67.5 107.5z" />
    <glyph glyph-name="dvNGA" unicode="&#x919;" horiz-adv-x="687" 
d="M773 740l-19 -108h-235l-17 -92h1l-17 -91h-181q-37 0 -64.5 -13.5t-33.5 -46.5q-1 -4 -1 -11q0 -25 19 -37t50 -12h44q78 0 128.5 -35.5t50.5 -105.5q0 -16 -3 -36q-15 -79 -78 -124.5t-168 -45.5q-102 0 -164 44.5t-62 121.5q0 9 2 27h129q-1 -6 -1 -16q0 -37 27.5 -58
t76.5 -21q53 0 85 26.5t32 67.5q0 33 -25.5 48t-68.5 15h-38q-64 0 -115 30t-51 96q0 14 3 30q13 74 70.5 110.5t136.5 36.5h91l17 92h-367l19 108h727zM659.5 432.5q16.5 -16.5 16.5 -42.5q0 -8 -1 -12q-6 -29 -30 -49.5t-54 -20.5q-26 0 -42.5 16t-16.5 41q0 34 25.5 59
t58.5 25q27 0 43.5 -16.5z" />
    <glyph glyph-name="dvCA" unicode="&#x91a;" horiz-adv-x="746" 
d="M813 632h-111l-111 -632h-129l31 177q-36 -42 -87.5 -65t-109.5 -23q-78 0 -127.5 41.5t-49.5 113.5q0 11 4 39q8 41 29.5 75.5t55.5 57.5h-150l18 102h367l-18 -102h-39q-53 0 -91 -31t-47 -80q-2 -16 -2 -22q0 -41 30 -64t77 -23q66 1 112.5 46.5t59.5 116.5l48 273
h-548l19 108h788z" />
    <glyph glyph-name="dvCHA" unicode="&#x91b;" horiz-adv-x="819" 
d="M687 632l-17 -96q49 -15 76.5 -54.5t27.5 -99.5q0 -21 -5 -51q-17 -94 -75 -163.5t-149.5 -107t-207.5 -37.5q-87 0 -154.5 22.5t-105.5 66t-38 102.5q0 20 4 37q12 60 51 98t97 53v3q-81 19 -81 106q0 18 3 37l15 84h-104l19 108h862l-19 -108h-199zM567 632h-309
l-14 -78q-3 -15 -3 -28q0 -69 85 -69h21l-18 -104h-19q-65 0 -101 -34t-36 -83q0 -50 47 -76.5t137 -26.5q123 0 202 53.5t97 150.5q3 17 3 30q0 38 -18 59.5t-47 21.5q-33 0 -60 -24t-35 -69q-4 -19 -4 -43q0 -20 3 -40h-107q-3 18 -3 40q0 24 5 57q12 70 54.5 112
t102.5 56z" />
    <glyph glyph-name="dvJA" unicode="&#x91c;" horiz-adv-x="852" 
d="M919 632h-111l-110 -632h-130l67 382h-143l-10 -55q-17 -96 -82.5 -155.5t-163.5 -59.5q-86 0 -136 47t-50 126q0 26 4 47l29 160h129l-28 -161q-3 -16 -3 -31q0 -36 18 -55.5t52 -19.5q41 0 69 28.5t37 77.5l29 161h269l24 140h-654l19 108h894z" />
    <glyph glyph-name="dvJHA" unicode="&#x91d;" horiz-adv-x="869" 
d="M936 632h-111l-112 -632h-126l41 232h-148q13 -28 13 -59q0 -16 -3 -34q-13 -67 -63.5 -109t-130.5 -42q-53 0 -85.5 19.5t-47.5 42.5l-23 -132h-122l44 252h116q-2 -38 22.5 -62.5t72.5 -24.5q49 0 75.5 26t26.5 64q0 30 -24 47t-70 17q-38 0 -59 2q-62 3 -104 34
t-42 93q0 15 3 31q13 75 71.5 110t138.5 35h91l16 90h-363l19 108h903zM698 632h-177l-21 -120l-12 -63h-182q-40 0 -69 -16.5t-29 -57.5q0 -24 19 -35t50 -11h44h324z" />
    <glyph glyph-name="dvNYA" unicode="&#x91e;" horiz-adv-x="825" 
d="M892 632h-110l-111 -632h-130l45 256h-90q-30 -87 -99 -138t-162 -51q-91 0 -144 46.5t-53 122.5l1 18h122q3 -34 27.5 -56t66.5 -22q55 0 91.5 37t45.5 93q3 15 3 30q0 44 -23.5 71t-70.5 27q-42 0 -75 -22.5t-47 -55.5h-122q22 84 93 136t169 52q90 0 141.5 -48.5
t53.5 -130.5h91l47 267h-627l19 108h867z" />
    <glyph glyph-name="dvTTA" unicode="&#x91f;" horiz-adv-x="645" 
d="M238 393.5q-54 -38.5 -67 -110.5q-3 -15 -3 -29q0 -51 35 -82.5t94 -31.5q68 0 116 41.5t59 108.5h124q-14 -78 -56.5 -137.5t-108.5 -92t-148 -32.5q-72 0 -128 26.5t-87 74.5t-31 112q0 25 4 46q21 122 111 188t225 66h4l16 91h-374l19 108h689l-19 -108h-188l-36 -200
h-123q-73 0 -127 -38.5z" />
    <glyph glyph-name="dvTTHA" unicode="&#x920;" horiz-adv-x="670" 
d="M442 632l-17 -95q79 -17 127.5 -70.5t48.5 -133.5q0 -21 -5 -49q-13 -76 -58.5 -132t-113 -85.5t-145.5 -29.5q-68 0 -122.5 26t-86 74t-31.5 112q0 26 4 47q17 102 87 164.5t168 78.5l17 93h-292l19 108h714l-19 -108h-295zM437 402.5q-34 32.5 -92 32.5
q-48 0 -88.5 -22.5t-64.5 -61.5t-24 -88q0 -53 34 -86t91 -33q48 0 89 22.5t65 62.5t24 89q0 52 -34 84.5z" />
    <glyph glyph-name="dvDDA" unicode="&#x921;" horiz-adv-x="570" 
d="M240.5 435.5q-27.5 -13.5 -33.5 -46.5q-1 -4 -1 -11q0 -25 19 -37t50 -12h44q78 0 128.5 -35.5t50.5 -105.5q0 -16 -3 -36q-15 -79 -78 -124.5t-168 -45.5q-102 0 -164 44.5t-62 121.5q0 9 2 27h129q-1 -6 -1 -16q0 -37 27.5 -58t76.5 -21q53 0 85 26.5t32 67.5
q0 33 -25.5 48t-68.5 15h-38q-64 0 -115 30t-51 96q0 14 3 30q13 74 70.5 110.5t136.5 36.5h88l17 92h-364l19 108h610l-19 -108h-121l-33 -183h-178q-37 0 -64.5 -13.5z" />
    <glyph glyph-name="dvDDHA" unicode="&#x922;" horiz-adv-x="650" 
d="M250 409.5q-67 -48.5 -83 -137.5q-3 -19 -3 -37q0 -65 42 -104.5t121 -39.5q63 0 108 29t54 78q1 5 1 14q0 27 -16.5 43.5t-43.5 16.5q-28 0 -49.5 -16.5t-26.5 -45.5q-2 -6 -2 -19h-92q0 20 3 35q11 65 62.5 101.5t126.5 36.5q68 0 109 -38t41 -100q0 -15 -3 -32
q-17 -90 -92.5 -143t-192.5 -53q-80 0 -142.5 29t-97.5 82t-35 123q0 21 5 51q16 85 64.5 144.5t119.5 89.5t155 30h27l15 85h-399l19 108h691l-20 -108h-170l-30 -174h-109q-90 0 -157 -48.5z" />
    <glyph glyph-name="dvNNA" unicode="&#x923;" horiz-adv-x="881" 
d="M947 632h-110l-112 -632h-129l112 632h-158l-46 -260q-17 -96 -77 -154.5t-158 -58.5q-87 0 -137.5 46t-50.5 123q0 24 4 44l46 260h-106l19 108h922zM424 632h-166l-48 -272q-2 -16 -2 -22q0 -32 18 -51t51 -19q39 0 65 25t34 67z" />
    <glyph glyph-name="dvTA" unicode="&#x924;" horiz-adv-x="703" 
d="M769 632h-111l-111 -632h-129l67 383h-133q-74 0 -123.5 -35.5t-61.5 -103.5q-3 -16 -3 -33q0 -51 32.5 -79.5t95.5 -28.5h19l-18 -102h-27q-101 0 -166.5 51.5t-65.5 148.5q0 26 4 49q21 124 110 184t218 60h139l24 138h-504l19 108h744z" />
    <glyph glyph-name="dvTHA" unicode="&#x925;" horiz-adv-x="783" 
d="M868 740l-18 -108h-111l-112 -632h-129l36 205q-30 -47 -93 -81.5t-144 -34.5q-111 0 -175.5 58.5t-64.5 160.5q0 28 6 61q9 44 16 64h91q88 0 145.5 27.5t69.5 95.5q2 12 2 17q0 29 -18 47.5t-49 18.5q-47 0 -73.5 -36.5t-24.5 -88.5h-117q2 65 31 118.5t82 85t123 31.5
q77 0 122.5 -41.5t45.5 -112.5q0 -23 -4 -43q-17 -101 -96 -156.5t-205 -55.5h-20q-2 -16 -2 -23q0 -54 38.5 -87.5t113.5 -33.5q55 0 104.5 24.5t84.5 72t46 111.5l59 336h240z" />
    <glyph glyph-name="dvDA" unicode="&#x926;" horiz-adv-x="613" 
d="M239.5 397q-46.5 -33 -57.5 -94q-2 -9 -2 -27q0 -44 27 -70t74 -26q45 0 82.5 28.5t46.5 80.5h119l-55 -315h-126l28 164q-26 -29 -64.5 -44.5t-84.5 -15.5q-79 0 -130 48.5t-51 133.5q0 22 5 52q20 112 104 170.5t203 58.5h51l16 91h-397l19 108h652l-20 -108h-125
l-35 -202h-167q-66 0 -112.5 -33z" />
    <glyph glyph-name="dvDHA" unicode="&#x927;" horiz-adv-x="729" 
d="M796 632h-108l-111 -632h-130l33 186q-40 -49 -99 -75t-132 -26q-85 0 -139.5 39.5t-54.5 109.5q0 15 3 31q11 61 53 97.5t90 45.5l1 4q-43 12 -71 46t-28 88q0 16 3 35q13 78 68.5 123t134.5 45q74 0 115 -36t41 -99q0 -30 -11 -68h-96q5 20 5 33q0 29 -15.5 45.5
t-46.5 16.5q-38 0 -63.5 -29.5t-25.5 -70.5q0 -38 27.5 -57t74.5 -19h77l-18 -105h-53q-60 0 -94.5 -25.5t-34.5 -70.5q0 -35 29.5 -54t79.5 -19q78 0 137 49t75 128l47 264l18 108h238z" />
    <glyph glyph-name="dvNA" unicode="&#x928;" horiz-adv-x="810" 
d="M877 632h-111l-111 -632h-129l69 392h-152q19 -33 19 -79q0 -16 -3 -36q-10 -59 -44.5 -102t-83.5 -65.5t-103 -22.5q-55 0 -98.5 22t-68 62t-24.5 90q0 13 4 39q17 97 88 148t173 51h312l23 133h-612l19 108h852zM337.5 370q-22.5 21 -60.5 21q-50 0 -85.5 -33.5
t-35.5 -83.5q0 -35 23 -56.5t63 -21.5q49 0 83.5 35t34.5 83q0 35 -22.5 56z" />
    <glyph glyph-name="dvPA" unicode="&#x92a;" horiz-adv-x="669" 
d="M735 632h-110l-111 -632h-129l42 238q-62 -64 -159 -64q-90 0 -140 52.5t-50 140.5q0 30 6 61l36 204h-95l19 108h710zM496 632h-247l-36 -204q-4 -28 -4 -39q0 -50 27 -78t80 -28q56 0 93.5 36t47.5 93z" />
    <glyph glyph-name="dvPHA" unicode="&#x92b;" horiz-adv-x="985" 
d="M608 632l-31 -172q31 38 75.5 59.5t100.5 21.5q80 0 124.5 -48t44.5 -128q0 -26 -4 -49q-13 -72 -49 -124.5t-88 -80t-112 -27.5q-39 0 -68 10l17 99q22 -4 36 -4q49 0 85 33t46 88q3 14 3 27q0 42 -26 68t-69 26q-58 0 -96 -39t-49 -99l-52 -293h-129l41 236
q-59 -62 -150 -62q-87 0 -134 50t-47 135q0 30 6 63l38 210h-96l19 108h1026l-19 -108h-443zM478 632h-228l-37 -210q-4 -20 -4 -43q0 -46 24 -71t73 -25q51 0 86 33.5t45 84.5z" />
    <glyph glyph-name="dvBA" unicode="&#x92c;" horiz-adv-x="688" 
d="M774 740l-19 -108h-111l-111 -632h-124l27 152q-31 -37 -79 -59t-106 -22q-60 0 -106.5 25t-72.5 70.5t-26 104.5q0 21 5 49q12 70 51.5 122.5t99 81t130.5 28.5q57 0 97.5 -21.5t62.5 -57.5l28 159h-495l19 108h730zM474 342q0 54 -34 90t-96 36q-59 0 -108 -35
l205 -192q25 36 31 74q2 9 2 27zM160 284q0 -56 37.5 -88t95.5 -32q61 0 106 34l-205 192q-24 -35 -31 -76q-3 -16 -3 -30z" />
    <glyph glyph-name="dvBHA" unicode="&#x92d;" horiz-adv-x="830" 
d="M916 740l-18 -108h-112l-112 -632h-129l62 355h-138l-11 -59q-18 -105 -80 -162.5t-160 -57.5q-82 0 -129.5 41.5t-47.5 112.5q0 11 4 39q16 92 84.5 142t162.5 50h74l15 82q3 18 3 33q0 62 -55 62q-31 0 -53 -21t-29 -58q-3 -16 -3 -34h-129q0 20 3 39q14 83 73 134
t151 51q162 0 162 -161q0 -32 -6 -68l-11 -59h139l49 279h241zM348 355h-71q-49 0 -81.5 -28.5t-32.5 -75.5q0 -30 20 -47.5t52 -17.5q40 0 66.5 27.5t34.5 75.5z" />
    <glyph glyph-name="dvMA" unicode="&#x92e;" horiz-adv-x="821" 
d="M888 632h-111l-111 -632h-130l63 355h-150l-10 -59q-18 -104 -80.5 -162t-159.5 -58q-82 0 -129.5 42t-47.5 113q0 19 3 38q16 92 85 142t162 50h75l30 171h-352l19 108h863zM648 632h-150l-30 -171h150zM329 355h-72q-48 0 -80.5 -28.5t-32.5 -74.5q0 -31 20 -48.5
t51 -17.5q41 0 67.5 27.5t34.5 75.5z" />
    <glyph glyph-name="dvYA" unicode="&#x92f;" horiz-adv-x="749" 
d="M816 632h-111l-111 -632h-129l31 177q-37 -39 -89.5 -61.5t-116.5 -22.5q-109 0 -172 59.5t-63 161.5q0 30 6 61q4 26 14 55h12q83 0 127 36.5t58 111.5l10 54h-257l19 108h791zM576 632h-167l-14 -77q-15 -87 -66.5 -136.5t-141.5 -56.5q-3 -18 -3 -35q0 -58 38 -92
t107 -34q77 0 132.5 48t68.5 124v-1z" />
    <glyph glyph-name="dvRA" unicode="&#x930;" horiz-adv-x="533" 
d="M600 632h-98l-12 -69q-44 -248 -279 -248h-22l-20 -114q-3 -15 -3 -28q0 -33 18 -52.5t51 -19.5q37 0 62 26t33 68l3 24h124l-2 -20q-17 -97 -76.5 -152.5t-152.5 -55.5q-89 0 -138.5 46.5t-49.5 123.5q0 25 4 46l37 212h103q80 0 123.5 36.5t55.5 107.5l12 69h-347
l19 108h574z" />
    <glyph glyph-name="dvRxA" unicode="&#x931;" horiz-adv-x="533" 
d="M600 632h-98l-12 -69q-44 -248 -279 -248h-22l-20 -114q-3 -15 -3 -28q0 -33 18 -52.5t51 -19.5q37 0 62 26t33 68l3 24h124l-2 -20q-17 -97 -76.5 -152.5t-152.5 -55.5q-89 0 -138.5 46.5t-49.5 123.5q0 25 4 46l37 212h103q80 0 123.5 36.5t55.5 107.5l12 69h-347
l19 108h574zM-30.5 -174q-18.5 18 -18.5 46q0 37 28 64t65 27q28 0 46.5 -18t18.5 -46q0 -37 -27.5 -64t-64.5 -27q-29 0 -47.5 18z" />
    <glyph glyph-name="dvLA" unicode="&#x932;" horiz-adv-x="906" 
d="M759 632l-20 -117q46 -21 72.5 -65t26.5 -107q0 -23 -5 -56q-19 -111 -96.5 -177.5t-196.5 -64.5l-36 2l20 112q16 -2 28 -2q59 0 99 37t51 99q3 18 3 33q0 42 -21.5 66.5t-63.5 24.5q-54 0 -87.5 -39t-44.5 -103l-4 -21h-107l3 21q5 27 5 46q0 44 -21 70t-63 26
q-52 0 -85.5 -34t-42.5 -90q-3 -18 -3 -34q0 -48 27.5 -75t80.5 -27q6 0 26 2l-21 -113q-12 -1 -29 -1q-104 0 -160 54.5t-56 144.5q0 24 5 56q19 112 90 171.5t166 59.5q69 0 107.5 -35.5t48.5 -89.5h2q24 45 63 77.5t94 43.5l18 105h-610l19 108h951l-19 -108h-214z" />
    <glyph glyph-name="dvLLA" unicode="&#x933;" horiz-adv-x="969" 
d="M807 632l-21 -115q54 -20 84.5 -65t30.5 -108q0 -25 -4 -46q-12 -68 -50.5 -120t-94.5 -80.5t-120 -28.5q-69 0 -117 34t-62 91h-5q-33 -58 -90.5 -91.5t-127.5 -33.5q-85 0 -139 49.5t-54 132.5q0 26 4 47q12 69 51 122t95 81.5t119 28.5q68 0 114 -31.5t66 -92.5h4
q32 50 76 80.5t97 39.5l19 106h-662l19 108h1016l-19 -108h-229zM380.5 394q-26.5 26 -72.5 26q-39 0 -71.5 -18.5t-52 -52.5t-19.5 -76q0 -43 27.5 -68.5t73.5 -25.5q39 0 71.5 19t51 52t18.5 74q0 44 -26.5 70zM773 322q0 45 -27.5 71.5t-73.5 26.5q-53 0 -91.5 -34
t-48.5 -88q-2 -16 -2 -24q0 -43 27 -69t73 -26q52 0 91.5 33t49.5 86q2 16 2 24z" />
    <glyph glyph-name="dvVA" unicode="&#x935;" horiz-adv-x="670" 
d="M755 740l-19 -108h-110l-111 -632h-126l27 156q-32 -38 -77.5 -59.5t-100.5 -21.5q-88 0 -140 51t-52 140q0 27 6 58q18 101 88 161t170 60q57 0 97 -21t63 -57l29 165h-474l19 108h711zM390.5 216.5q41.5 38.5 52.5 91.5l1 7q1 7 1 21q0 45 -28.5 75.5t-84.5 30.5
q-42 0 -78.5 -20t-58 -56t-21.5 -82q0 -49 30.5 -77.5t81.5 -28.5q63 0 104.5 38.5z" />
    <glyph glyph-name="dvSHA" unicode="&#x936;" horiz-adv-x="840" 
d="M328 134.5q29 30.5 38 84.5h125q-14 -106 -76.5 -166t-168.5 -60q-95 0 -148.5 48t-53.5 131q0 20 5 50l33 186h142q78 0 134.5 31.5t68.5 98.5q2 16 2 22q0 35 -20.5 56t-54.5 21q-51 0 -81.5 -39.5t-30.5 -97.5h-129q4 76 37.5 132.5t89.5 86.5t128 30q85 0 139 -46.5
t54 -126.5q0 -20 -5 -47q-20 -113 -103.5 -171t-200.5 -58h-59l-15 -85q-3 -16 -3 -31q0 -37 19.5 -58.5t60.5 -21.5q44 0 73 30.5zM926 740l-20 -108h-110l-111 -632h-131l130 740h242z" />
    <glyph glyph-name="dvSSA" unicode="&#x937;" horiz-adv-x="680" 
d="M746 632h-110l-111 -632h-127l41 234q-64 -70 -168 -70q-92 0 -142.5 54t-50.5 146q0 31 6 64l36 204h-95l19 108h722zM509 632h-262l228 -191zM395 295q36 22 56 60l-222 185l-21 -115q-4 -28 -4 -39q0 -52 28.5 -82.5t80.5 -30.5q46 0 82 22z" />
    <glyph glyph-name="dvSA" unicode="&#x938;" horiz-adv-x="825" 
d="M892 632h-111l-111 -632h-129l56 319h-408l-20 -117q-2 -9 -2 -26q0 -35 18 -55t54 -20q40 0 65 29t33 77h124q-11 -99 -73.5 -157.5t-161.5 -58.5q-89 0 -138 49t-49 129q0 26 4 47l35 196h81q152 0 179 144l13 76h-325l19 108h866zM652 632h-172l-13 -76
q-14 -77 -59 -131h208z" />
    <glyph glyph-name="dvHA" unicode="&#x939;" horiz-adv-x="595" 
d="M681 740l-19 -108h-133l-16 -87l-17 -93h-177q-34 0 -58.5 -14.5t-30.5 -45.5q-1 -4 -1 -12q0 -16 8.5 -27.5t23.5 -17.5q24 3 49 3q68 0 114.5 -26t67.5 -67t17 -85h-123q-2 30 -26.5 52.5t-69.5 22.5q-37 0 -68.5 -19.5t-50 -52.5t-18.5 -73q0 -43 25.5 -67.5
t71.5 -24.5q42 0 74 21.5t46 51.5h124q-14 -51 -49.5 -91.5t-88.5 -64.5t-117 -24q-65 0 -112.5 24t-73 67t-25.5 98q0 25 4 45q10 58 43 103t83 73q-53 32 -53 92q0 70 52 111t134 41h99l15 87h-370l20 108h626z" />
    <glyph glyph-name="dvNukta" unicode="&#x93c;" horiz-adv-x="0" 
d="M-372.5 -201q-18.5 18 -18.5 46q0 37 28 64t65 27q28 0 46.5 -18t18.5 -46q0 -37 -27.5 -64t-64.5 -27q-29 0 -47.5 18z" />
    <glyph glyph-name="dvAvagraha" unicode="&#x93d;" horiz-adv-x="589" 
d="M29 161h238q33 0 51.5 15.5t18.5 41.5q0 23 -17.5 45t-54.5 57q-36 34 -58 58.5t-38 57.5t-16 71q0 15 3 31q12 67 62.5 100.5t123.5 33.5h218l-19 -109h-186q-29 0 -50 -12t-21 -42q0 -24 18 -46.5t55 -56.5q35 -33 57 -57.5t38 -57t16 -70.5q0 -14 -3 -31
q-11 -63 -61 -100.5t-124 -37.5h-271z" />
    <glyph glyph-name="dvmAA" unicode="&#x93e;" 
d="M136 632h-111l19 108h351l-19 -108h-111l-110 -632h-130z" />
    <glyph glyph-name="dvmI" unicode="&#x93f;" 
d="M796 988.5q81 -29.5 126 -85t45 -130.5q0 -24 -4 -45l-3 -17h-130l3 15q2 10 2 28q0 79 -71 118.5t-174 39.5q-113 0 -200.5 -41.5t-106.5 -130.5h112l-19 -108h-111l-111 -632h-130l112 632h-111l19 108h111q19 88 82.5 150.5t159.5 95t212 32.5q106 0 187 -29.5z" />
    <glyph glyph-name="dvmII" unicode="&#x940;" 
d="M395 740l-19 -108h-110l-112 -632h-129l112 632h-111l19 108h114l7 39q5 25 5 47q0 83 -74 83q-94 0 -119 -130l-12 -68h-126l12 62q19 113 83.5 179t180.5 66q96 0 139 -46t43 -126q0 -29 -7 -73l-6 -33h110z" />
    <glyph glyph-name="dvmU" unicode="&#x941;" horiz-adv-x="0" 
d="M-478 -282.5q-63 42.5 -63 130.5q0 28 5 51h115q-4 -16 -4 -34q0 -44 30.5 -66t81.5 -22q49 0 81 22t39 61q1 5 1 14q0 28 -18.5 45.5t-53.5 17.5h-31l18 101h31q78 0 122 -40.5t44 -108.5q0 -9 -2 -31q-12 -85 -77 -134t-163 -49q-93 0 -156 42.5z" />
    <glyph glyph-name="dvmUU" unicode="&#x942;" horiz-adv-x="0" 
d="M-409 -275.5q-48 36.5 -48 102.5q0 15 3 33q14 82 76 127.5t153 45.5q109 0 165.5 -62t56.5 -162q0 -33 -6 -67q-3 -15 -5.5 -27t-4.5 -21h-106l10 54q6 28 6 54q0 63 -32.5 99t-93.5 36q-44 0 -76 -21.5t-39 -59.5q-1 -5 -1 -15q0 -28 21 -44t54 -16q18 0 28 1l-16 -93
q-10 -1 -29 -1q-68 0 -116 36.5z" />
    <glyph glyph-name="dvmvR" unicode="&#x943;" horiz-adv-x="0" 
d="M-345 -308.5q-41 17.5 -67 53t-26 85.5q0 16 3 36q14 79 76.5 124t161.5 45q40 0 48 -1l-15 -88h-38q-51 0 -80.5 -26t-29.5 -70q0 -34 26.5 -53.5t65.5 -19.5t82 12l-18 -100q-48 -15 -103 -15q-45 0 -86 17.5z" />
    <glyph glyph-name="dvmvRR" unicode="&#x944;" horiz-adv-x="0" 
d="M-394.5 -438.5q-49.5 29.5 -49.5 89.5q0 55 34.5 94t85.5 51v3q-36 9 -57 31t-21 59q0 6 2 22q12 64 64 94t113 30h74l-12 -71h-25q-80 0 -90 -59q-1 -4 -1 -11q0 -24 20 -35t53 -11h53l-16 -96h-49q-89 0 -99 -59q-1 -4 -1 -12q0 -26 23 -37.5t59 -11.5q49 0 103 15
l-18 -96q-22 -9 -56 -14t-66 -5q-74 0 -123.5 29.5z" />
    <glyph glyph-name="dvmEcandra" unicode="&#x945;" horiz-adv-x="0" 
d="M-221.5 857q-50.5 43 -50.5 115q0 12 4 40h111q-2 -14 -2 -22q0 -36 24 -58t74 -22q57 0 91.5 29t41.5 73h111q-15 -89 -78.5 -143.5t-175.5 -54.5q-100 0 -150.5 43z" />
    <glyph glyph-name="dvmE" unicode="&#x947;" horiz-adv-x="0" 
d="M-203.5 838q-23.5 31 -50 41t-75.5 10h-48l18 104h46q80 -1 123.5 -17t80.5 -69.5t83 -170.5h-121q-33 71 -56.5 102z" />
    <glyph glyph-name="dvmAI" unicode="&#x948;" horiz-adv-x="0" 
d="M-193.5 1042.5q38.5 -17.5 73.5 -82.5t89 -223h-111q-55 43 -79 58t-49.5 19t-83.5 4h-50l15 81h46q56 0 82.5 -3.5t52 -17t60.5 -45.5q-27 68 -52 99t-51.5 38.5t-71.5 7.5h-52l14 82h49q80 0 118.5 -17.5z" />
    <glyph glyph-name="dvmOcandra" unicode="&#x949;" horiz-adv-x="311" 
d="M88.5 857q-50.5 43 -50.5 115q0 12 4 40h111q-2 -14 -2 -22q0 -36 24 -58t74 -22q57 0 91.5 29t41.5 73h111q-15 -89 -78.5 -143.5t-175.5 -54.5q-100 0 -150.5 43zM136 632h-111l19 108h351l-19 -108h-111l-110 -632h-130z" />
    <glyph glyph-name="dvmO" unicode="&#x94b;" horiz-adv-x="310" 
d="M396 740l-20 -108h-110l-111 -632h-129l111 632h-111l19 108h115q-32 68 -54.5 98.5t-49 40.5t-75.5 10h-49l19 104h46q80 -1 123 -17t79.5 -68.5t81.5 -167.5h115z" />
    <glyph glyph-name="dvmAU" unicode="&#x94c;" 
d="M367 740l-19 -108h-111l-111 -632h-129l111 632h-111l19 108h120q-53 41 -76.5 55.5t-49 18.5t-83.5 4h-49l14 81h47q55 0 82 -3.5t52 -17t61 -46.5q-27 68 -52 99t-51.5 39t-72.5 8h-52l14 82h49q81 0 119.5 -17.5t73 -81.5t88.5 -221h117z" />
    <glyph glyph-name="dvVirama" unicode="&#x94d;" horiz-adv-x="0" 
d="M-290 -57h128l92 -214h-132z" />
    <glyph glyph-name="dvOm" unicode="&#x950;" horiz-adv-x="1066" 
d="M603.5 916.5q-12.5 12.5 -12.5 31.5q0 25 19.5 44t44.5 19q20 0 32.5 -12.5t12.5 -32.5q0 -25 -19 -43.5t-45 -18.5q-20 0 -32.5 12.5zM465 777.5q-53 44.5 -53 116.5q0 18 3 37h103q-1 -6 -1 -17q0 -38 27.5 -63t80.5 -25q58 0 94 30t44 75h104q-14 -92 -78 -145
t-173 -53q-98 0 -151 44.5zM984 515q0 -39 -7 -78l-23 -128q-25 -143 -104.5 -216.5t-211.5 -73.5q-39 0 -99 10l19 107q51 -7 77 -7q90 0 134 47t60 138l25 139q4 23 4 46q0 75 -67 75q-44 0 -68.5 -27.5t-32.5 -73.5q-19 -109 -71.5 -155.5t-159.5 -48.5q2 -14 2 -23
q0 -13 -4 -37q-16 -90 -83 -144t-160 -54q-91 0 -144 45t-53 121q0 22 4 41h121q-2 -12 -2 -18q0 -34 23.5 -56t62.5 -22q44 0 75.5 27.5t39.5 71.5q1 6 1 18q0 36 -23 59t-72 23h-43l19 109h43q54 0 87.5 32.5t33.5 77.5q0 33 -22 52.5t-56 19.5q-40 0 -70 -23.5t-37 -61.5
h-120q16 88 84.5 142t164.5 54q82 0 129.5 -40t47.5 -108q0 -17 -3 -37q-11 -58 -47 -99.5t-92 -57.5l-1 -2q14 -3 26 -9h57q54 0 82.5 22.5t39.5 82.5q18 102 75 155.5t165 53.5q174 0 174 -169z" />
    <glyph glyph-name="dvKxA" unicode="&#x958;" horiz-adv-x="976" 
d="M603 632l-30 -171q28 37 70 58.5t94 21.5q80 0 127 -51t47 -132q0 -21 -5 -51q-20 -106 -87.5 -164.5t-159.5 -58.5q-30 0 -64 8l18 101q12 -3 31 -3q48 0 85.5 32.5t46.5 87.5q2 18 2 25q0 43 -25.5 69.5t-69.5 26.5q-57 0 -92.5 -38t-45.5 -94v1l-53 -300h-124l28 159
q-30 -38 -73.5 -60t-99.5 -22q-80 0 -129.5 50.5t-49.5 134.5q0 21 5 51q19 104 87.5 166t165.5 62q56 0 93.5 -21.5t53.5 -59.5l30 172h-454l19 108h1018l-20 -108h-439zM422 308q2 8 2 25q0 42 -25.5 70.5t-75.5 28.5q-38 0 -71.5 -19t-54 -53t-20.5 -77q0 -45 28 -71
t73 -26q58 0 96 35.5t47 81.5zM111.5 -127q-18.5 18 -18.5 46q0 37 28 64t65 27q28 0 46.5 -18t18.5 -46q0 -37 -27.5 -64t-64.5 -27q-29 0 -47.5 18z" />
    <glyph glyph-name="dvKHxA" unicode="&#x959;" horiz-adv-x="950" 
d="M1036 740l-19 -108h-111l-110 -632h-129l32 180q-54 -59 -141 -59q-17 0 -32 3q-44 -58 -108 -93.5t-142 -35.5q-108 0 -168 53.5t-60 152.5q0 30 6 63l24 137h29q67 0 108.5 32t53.5 106l16 93h-259l19 108h991zM778 632h-363l-19 -110q-17 -100 -72.5 -153t-133.5 -59
l-10 -61q-3 -16 -3 -32q0 -51 31.5 -81t90.5 -30q46 0 81 19.5t59 49.5q-38 48 -38 118q0 26 4 47q15 87 75 139t141 52q93 0 129 -61zM668 238.5q28 19.5 43 49t15 59.5q0 36 -22 61t-66 25q-45 0 -79.5 -28t-43.5 -77q-2 -16 -2 -23q0 -41 25 -63.5t65 -22.5q37 0 65 19.5
zM169.5 -206q-18.5 18 -18.5 46q0 37 28 64t65 27q28 0 46.5 -18t18.5 -46q0 -37 -27.5 -64t-64.5 -27q-29 0 -47.5 18z" />
    <glyph glyph-name="dvGxA" unicode="&#x95a;" horiz-adv-x="789" 
d="M874 740l-19 -108h-111l-111 -632h-129l111 632h-146l-42 -243q-15 -89 -70 -144t-150 -55q-78 0 -123 40t-45 110q0 23 4 43l6 31h125l-6 -31q-2 -18 -2 -25q0 -58 52 -58q35 0 54 24.5t25 59.5l43 248h-315l19 108h830zM118.5 -16q-18.5 18 -18.5 46q0 37 28 64t65 27
q28 0 46.5 -18t18.5 -46q0 -37 -27.5 -64t-64.5 -27q-29 0 -47.5 18z" />
    <glyph glyph-name="dvJxA" unicode="&#x95b;" horiz-adv-x="852" 
d="M919 632h-111l-110 -632h-130l67 382h-143l-10 -55q-17 -96 -82.5 -155.5t-163.5 -59.5q-86 0 -136 47t-50 126q0 26 4 47l29 160h129l-28 -161q-3 -16 -3 -31q0 -36 18 -55.5t52 -19.5q41 0 69 28.5t37 77.5l29 161h269l24 140h-654l19 108h894zM147.5 -91
q-18.5 18 -18.5 46q0 37 28 64t65 27q28 0 46.5 -18t18.5 -46q0 -37 -27.5 -64t-64.5 -27q-29 0 -47.5 18z" />
    <glyph glyph-name="dvDDxA" unicode="&#x95c;" horiz-adv-x="570" 
d="M240.5 435.5q-27.5 -13.5 -33.5 -46.5q-1 -4 -1 -11q0 -25 19 -37t50 -12h44q78 0 128.5 -35.5t50.5 -105.5q0 -16 -3 -36q-15 -79 -78 -124.5t-168 -45.5q-102 0 -164 44.5t-62 121.5q0 9 2 27h129q-1 -6 -1 -16q0 -37 27.5 -58t76.5 -21q53 0 85 26.5t32 67.5
q0 33 -25.5 48t-68.5 15h-38q-64 0 -115 30t-51 96q0 14 3 30q13 74 70.5 110.5t136.5 36.5h88l17 92h-364l19 108h610l-19 -108h-121l-33 -183h-178q-37 0 -64.5 -13.5zM154.5 -221q-18.5 18 -18.5 46q0 37 28 64t65 27q28 0 46.5 -18t18.5 -46q0 -37 -27.5 -64t-64.5 -27
q-29 0 -47.5 18z" />
    <glyph glyph-name="dvDDHxA" unicode="&#x95d;" horiz-adv-x="650" 
d="M250 409.5q-67 -48.5 -83 -137.5q-3 -19 -3 -37q0 -65 42 -104.5t121 -39.5q63 0 108 29t54 78q1 5 1 14q0 27 -16.5 43.5t-43.5 16.5q-28 0 -49.5 -16.5t-26.5 -45.5q-2 -6 -2 -19h-92q0 20 3 35q11 65 62.5 101.5t126.5 36.5q68 0 109 -38t41 -100q0 -15 -3 -32
q-17 -90 -92.5 -143t-192.5 -53q-80 0 -142.5 29t-97.5 82t-35 123q0 21 5 51q16 85 64.5 144.5t119.5 89.5t155 30h27l15 85h-399l19 108h691l-20 -108h-170l-30 -174h-109q-90 0 -157 -48.5zM199.5 -204q-18.5 18 -18.5 46q0 37 28 64t65 27q28 0 46.5 -18t18.5 -46
q0 -37 -27.5 -64t-64.5 -27q-29 0 -47.5 18z" />
    <glyph glyph-name="dvPHxA" unicode="&#x95e;" horiz-adv-x="985" 
d="M608 632l-31 -172q31 38 75.5 59.5t100.5 21.5q80 0 124.5 -48t44.5 -128q0 -26 -4 -49q-13 -72 -49 -124.5t-88 -80t-112 -27.5q-39 0 -68 10l17 99q22 -4 36 -4q49 0 85 33t46 88q3 14 3 27q0 42 -26 68t-69 26q-58 0 -96 -39t-49 -99l-52 -293h-129l41 236
q-59 -62 -150 -62q-87 0 -134 50t-47 135q0 30 6 63l38 210h-96l19 108h1026l-19 -108h-443zM478 632h-228l-37 -210q-4 -20 -4 -43q0 -46 24 -71t73 -25q51 0 86 33.5t45 84.5zM119.5 -25q-18.5 18 -18.5 46q0 37 28 64t65 27q28 0 46.5 -18t18.5 -46q0 -37 -27.5 -64
t-64.5 -27q-29 0 -47.5 18z" />
    <glyph glyph-name="dvvRR" unicode="&#x960;" horiz-adv-x="1042" 
d="M650 632l-33 -186h158q36 0 56.5 16t25.5 46l2 10l6 35h112l-63 -354h-37q-80 0 -90 -59q-1 -4 -1 -11q0 -24 20 -35t53 -11h53l-17 -96h-49q-87 0 -98 -61q-1 -4 -1 -11q0 -48 81 -48q28 0 56.5 5t46.5 10l-16 -96q-23 -9 -57 -14t-66 -5q-75 0 -124 29t-49 89
q0 56 34.5 95.5t85.5 51.5l1 3q-35 8 -56.5 30t-21.5 58q0 15 2 24q10 57 53 86.5t98 35.5l16 91q-45 -17 -93 -17h-139l-60 -343h-119l37 210l-257 -210h-164l1 6l441 332q-5 44 -36 70.5t-82 26.5q-70 0 -119.5 -43.5t-61.5 -114.5h-129q14 79 54 139.5t101.5 94
t135.5 33.5q114 0 161 -80l29 168h-506l19 108h1084l-20 -108h-458z" />
    <glyph glyph-name="dvvLL" unicode="&#x961;" horiz-adv-x="914" 
d="M742 632l-19 -107q51 -17 80 -60t29 -108q0 -32 -5 -58q-8 -50 -33 -100h-33q-81 0 -91 -59q-1 -4 -1 -11q0 -24 20.5 -35t53.5 -11h53l-17 -96h-48q-88 0 -99 -61q-1 -4 -1 -11q0 -48 82 -48q49 0 103 15l-17 -96q-23 -9 -57 -14t-66 -5q-74 0 -123 29.5t-49 90.5
q0 54 34.5 93.5t84.5 51.5l1 3q-35 8 -56.5 30t-21.5 58q0 15 2 24q10 54 50 83.5t92 37.5q6 15 9 32t3 31q0 41 -21 66t-62 25q-54 0 -88.5 -40t-43.5 -103l-4 -25h-107l4 25q3 21 3 40q0 47 -19.5 75t-61.5 28q-52 0 -86 -34.5t-44 -90.5q-3 -19 -3 -35q0 -49 27 -75
t78 -26l29 2l-20 -113q-14 -1 -35 -1q-104 0 -157.5 51t-53.5 141q0 33 5 58q13 76 51 129t92.5 80t116.5 27q68 0 105 -36t45 -90h4q22 43 57.5 74.5t85.5 44.5l18 104h-594l19 108h952l-19 -108h-233z" />
    <glyph glyph-name="dvmvL" unicode="&#x962;" horiz-adv-x="0" 
d="M-56.5 -288.5q-23.5 -16.5 -28.5 -45.5q-1 -4 -1 -10q0 -24 19 -36t48 -12q24 0 45 6l-15 -81q-28 -5 -57 -5q-63 0 -100.5 28t-37.5 79q0 53 34 93t84 52q2 7 4 21q3 13 3 26q0 29 -15.5 46t-43.5 17q-38 0 -61.5 -28.5t-32.5 -74.5l-3 -18h-84l3 18q3 18 3 33
q0 32 -14.5 51t-44.5 19q-37 0 -61.5 -24.5t-32.5 -65.5q-2 -16 -2 -24q0 -35 20 -54t56 -19q14 0 21 2l-16 -88q-9 -1 -25 -1q-78 0 -118.5 38.5t-40.5 104.5q0 22 4 42q14 85 69.5 131t126.5 46q51 0 77.5 -26t33.5 -66h3q21 40 59 66t91 26q59 0 95.5 -35t36.5 -100
q0 -22 -4 -42q-8 -41 -24 -73h-6q-44 0 -67.5 -16.5z" />
    <glyph glyph-name="dvmvLL" unicode="&#x963;" horiz-adv-x="0" 
d="M-57 -283.5q-19 -11.5 -19 -37.5q0 -18 15 -26.5t40 -8.5h38l-14 -75h-34q-30 0 -49.5 -9.5t-23.5 -34.5q-4 -22 13 -31.5t46 -9.5q21 0 42 3.5t34 7.5l-14 -75q-16 -6 -41.5 -9.5t-49.5 -3.5q-56 0 -92.5 21.5t-36.5 66.5q0 43 25.5 72t64.5 37v2q-57 13 -57 68
q0 49 30.5 75t73.5 33q4 11 5 19q2 16 2 24q0 30 -15 47.5t-44 17.5q-38 0 -61 -28.5t-32 -74.5l-3 -18h-85l4 18q3 16 3 32q0 32 -15 51.5t-45 19.5q-37 0 -61.5 -24.5t-32.5 -65.5q-2 -16 -2 -23q0 -36 20 -55t57 -19q14 0 20 2l-15 -88q-10 -1 -26 -1q-78 0 -118.5 38.5
t-40.5 104.5q0 22 4 42q16 85 70.5 131t125.5 46q51 0 77.5 -25.5t34.5 -66.5h2q21 40 59 66t91 26q59 0 95.5 -34.5t36.5 -98.5q0 -23 -4 -44q-6 -36 -24 -73h-27q-28 0 -47 -11.5z" />
    <glyph glyph-name="danda" unicode="&#x964;" horiz-adv-x="321" 
d="M214 0h-128l130 741h128z" />
    <glyph glyph-name="doubledanda" unicode="&#x965;" horiz-adv-x="570" 
d="M214 0h-128l130 741h128zM463 0h-129l130 741h129z" />
    <glyph glyph-name="dvZero" unicode="&#x966;" horiz-adv-x="620" 
d="M35 236q0 -236 219 -236q143 0 223 96t109 263q12 65 12 121q0 237 -218 237q-270 0 -333 -358q-12 -66 -12 -123zM391.5 191.5q-36.5 -58.5 -114.5 -58.5q-55 0 -78.5 31.5t-23.5 88.5q0 46 11 106q19 109 55.5 167t114.5 58q55 0 78.5 -31.5t23.5 -88.5q0 -45 -11 -105
q-19 -109 -55.5 -167.5z" />
    <glyph glyph-name="dvOne" unicode="&#x967;" horiz-adv-x="330" 
d="M51 574l23 132h254l-124 -706h-148l101 574h-106z" />
    <glyph glyph-name="dvTwo" unicode="&#x968;" horiz-adv-x="562" 
d="M407 493q3 17 3 30q0 37 -20 58t-63 21q-100 0 -124 -135h-137q14 85 56.5 142t102.5 84.5t128 27.5q100 0 152 -46t52 -125q0 -22 -5 -50q-18 -104 -124.5 -205t-239.5 -174h309l-20 -115h-497l18 105q382 235 409 382z" />
    <glyph glyph-name="dvThree" unicode="&#x969;" horiz-adv-x="568" 
d="M510 687q52 -46 52 -119q0 -17 -3 -37q-12 -64 -56.5 -104.5t-107.5 -50.5l-1 -5q56 -18 88 -56t32 -99q0 -23 -4 -44q-14 -80 -80 -129.5t-174 -49.5q-115 0 -177 53t-62 155q0 18 1 27h138q-1 -6 -1 -18q0 -47 27 -73t82 -26q45 0 74.5 23t35.5 59q2 9 2 26
q0 45 -34.5 69t-101.5 24h-29l21 115h28q141 -2 158 93q2 14 2 21q0 35 -21.5 55t-59.5 20q-45 0 -79.5 -29t-44.5 -79h-138q22 107 97 166t188 59q96 0 148 -46z" />
    <glyph glyph-name="dvFour" unicode="&#x96a;" horiz-adv-x="626" 
d="M1 142l21 117l417 455h152l-79 -450h92l-22 -122h-92l-24 -142h-143l25 142h-347zM430 549l-263 -285h214z" />
    <glyph glyph-name="dvFive" unicode="&#x96b;" horiz-adv-x="597" 
d="M576 596h-335l-32 -178q28 28 72 44t93 16q91 0 135.5 -50.5t44.5 -132.5q0 -24 -5 -57q-19 -109 -93 -175t-189 -66q-109 0 -168.5 50.5t-59.5 136.5q0 11 2 33h137q-1 -44 26 -71t77 -27q55 0 88.5 33.5t42.5 88.5q3 18 3 33q0 45 -25 69t-72 24q-38 0 -70.5 -18
t-50.5 -46h-136l73 417h463z" />
    <glyph glyph-name="dvSix" unicode="&#x96c;" horiz-adv-x="604" 
d="M424 591q-21 27 -69 27q-68 0 -109.5 -61.5t-60.5 -192.5q24 48 75.5 76.5t112.5 28.5q87 0 135.5 -46.5t48.5 -132.5q0 -30 -6 -63q-18 -104 -90 -169t-186 -65q-123 0 -177 64t-54 177q0 55 13 130q32 186 108 276.5t212 90.5q106 0 154.5 -54.5t48.5 -141.5l-1 -21
h-132q-2 50 -23 77zM172 214q0 -45 27 -72.5t81 -27.5t91.5 30t47.5 85q3 18 3 33q0 47 -26.5 72t-74.5 25q-52 0 -94.5 -29.5t-51.5 -84.5q-3 -15 -3 -31z" />
    <glyph glyph-name="dvSeven" unicode="&#x96d;" horiz-adv-x="486" 
d="M522 607l-365 -607h-146l365 591h-326l21 121h470z" />
    <glyph glyph-name="dvEight" unicode="&#x96e;" horiz-adv-x="619" 
d="M145 645.5q36 41.5 97.5 67t141.5 25.5q72 0 121 -23t73.5 -61.5t24.5 -85.5q0 -16 -3 -33q-10 -53 -45.5 -91t-94.5 -58q52 -22 79.5 -61t27.5 -94q0 -24 -4 -44q-17 -97 -101 -150.5t-212 -53.5q-103 0 -166.5 49t-63.5 138q0 25 4 46q10 61 51.5 104t108.5 66
q-43 16 -65 50t-22 80q-1 12 3 39q9 49 45 90.5zM258.5 442.5q25.5 -20.5 69.5 -20.5q57 0 94 31t37 88q0 39 -25.5 60.5t-69.5 21.5q-57 0 -94 -32t-37 -89q0 -39 25.5 -59.5zM188.5 124q29.5 -25 82.5 -25q68 0 110.5 37t42.5 98q0 45 -31 68t-82 23q-64 0 -108 -34.5
t-44 -97.5q0 -44 29.5 -69z" />
    <glyph glyph-name="dvNine" unicode="&#x96f;" horiz-adv-x="586" 
d="M188.5 133q22.5 -27 68.5 -27q70 0 111.5 61t61.5 193q-24 -48 -75 -76.5t-113 -28.5q-87 0 -135.5 46.5t-48.5 132.5q0 30 6 63q12 68 48.5 120.5t96.5 83t137 30.5q123 0 175.5 -60.5t52.5 -169.5q0 -58 -15 -141q-21 -121 -57 -201t-99 -123t-159 -43q-75 0 -122.5 30
t-68 79.5t-17.5 107.5h132q-2 -50 20.5 -77zM416 582.5q-27 27.5 -81 27.5t-91.5 -32t-47.5 -89q-3 -16 -3 -32q0 -45 27 -69t74 -24q37 0 71 16.5t56 50t22 80.5q0 44 -27 71.5z" />
    <glyph glyph-name="dvAbbreviationsign" unicode="&#x970;" horiz-adv-x="483" 
d="M343.5 222q-54.5 -46 -128.5 -46q-67 0 -106.5 36.5t-39.5 96.5q0 16 3 32q13 73 68.5 119t130.5 46q65 0 104 -36.5t39 -96.5q0 -16 -3 -33q-13 -72 -67.5 -118zM170.5 273q21.5 -19 57.5 -19q38 0 67 24t36 62q1 6 1 17q0 33 -19.5 52.5t-53.5 19.5q-45 0 -77.5 -30
t-32.5 -75q0 -32 21.5 -51z" />
    <glyph glyph-name="dvAcandra" unicode="&#x972;" horiz-adv-x="833" 
d="M919 740l-18 -108h-111l-112 -632h-129l51 287l-117 1q0 -19 -3 -37q-16 -89 -82 -141.5t-159 -52.5q-90 0 -143.5 45.5t-53.5 121.5q0 22 4 41h120q-2 -12 -2 -19q0 -34 23.5 -56t63.5 -22q50 0 82.5 32.5t32.5 82.5q0 34 -23.5 56t-71.5 22h-43l18 104h43q53 0 86 31
t33 73q0 33 -21 51.5t-55 18.5q-41 0 -71.5 -23.5t-37.5 -61.5h-119q16 88 84 141.5t163 53.5q81 0 128.5 -39t47.5 -105q0 -18 -3 -36q-9 -56 -45 -95.5t-93 -55.5v-3q25 -5 47 -21h186l61 346h239zM660.5 873q-50.5 43 -50.5 115q0 12 4 40h111q-2 -14 -2 -22
q0 -36 24 -58t74 -22q57 0 91.5 29t41.5 73h111q-15 -89 -78.5 -143.5t-175.5 -54.5q-100 0 -150.5 43z" />
    <glyph glyph-name="Wgrave" unicode="&#x1e80;" horiz-adv-x="1022" 
d="M1047 706l-297 -706h-174l-42 512l-223 -512h-173l-49 706h153l11 -549l237 549h155l44 -547l205 547h153zM666 844l-17 -96l-211 108l19 108z" />
    <glyph glyph-name="wgrave" unicode="&#x1e81;" horiz-adv-x="863" 
d="M896 554l-247 -554h-156l-49 403l-192 -403h-156l-49 554h140l15 -428l198 428h149l49 -428l166 428h132zM567 692l-17 -96l-211 108l19 108z" />
    <glyph glyph-name="Wacute" unicode="&#x1e82;" horiz-adv-x="1022" 
d="M1047 706l-297 -706h-174l-42 512l-223 -512h-173l-49 706h153l11 -549l237 549h155l44 -547l205 547h153zM744 856l-249 -108l17 96l252 120z" />
    <glyph glyph-name="wacute" unicode="&#x1e83;" horiz-adv-x="863" 
d="M896 554l-247 -554h-156l-49 403l-192 -403h-156l-49 554h140l15 -428l198 428h149l49 -428l166 428h132zM645 704l-249 -108l17 96l252 120z" />
    <glyph glyph-name="Wdieresis" unicode="&#x1e84;" horiz-adv-x="1022" 
d="M1053 706l-297 -706h-174l-42 512l-223 -512h-173l-49 706h153l11 -549l237 549h155l44 -547l205 547h153zM463 879.5q23 22.5 52 22.5q24 0 39 -14.5t15 -36.5q0 -31 -22.5 -53.5t-53.5 -22.5q-23 0 -38 14.5t-15 37.5q0 30 23 52.5zM651.5 879.5q22.5 22.5 52.5 22.5
q24 0 39 -15t15 -38q0 -30 -23 -52t-53 -22q-24 0 -38.5 14.5t-14.5 36.5q0 31 22.5 53.5z" />
    <glyph glyph-name="wdieresis" unicode="&#x1e85;" horiz-adv-x="863" 
d="M901 554l-247 -554h-156l-49 403l-192 -403h-156l-49 554h140l15 -428l198 428h149l49 -428l166 428h132zM364 727.5q23 22.5 52 22.5q24 0 39 -14.5t15 -36.5q0 -31 -22.5 -53.5t-53.5 -22.5q-23 0 -38 14.5t-15 37.5q0 30 23 52.5zM552.5 727.5q22.5 22.5 52.5 22.5
q24 0 39 -15t15 -38q0 -30 -23 -52t-53 -22q-24 0 -38.5 14.5t-14.5 36.5q0 31 22.5 53.5z" />
    <glyph glyph-name="uni1EBC" unicode="&#x1ebc;" horiz-adv-x="525" 
d="M248 594l-31 -183h249l-19 -108h-250l-33 -190h280l-20 -113h-421l124 706h421l-20 -112h-280zM347 886q15 -7 35 -20q14 -10 25 -15.5t25 -5.5q18 0 32 12t21 35h72q-43 -131 -144 -131q-22 0 -38 7t-35 20q-16 10 -25.5 15t-22.5 5q-37 0 -53 -47h-72q45 132 144 132
q21 0 36 -7z" />
    <glyph glyph-name="uni1EBD" unicode="&#x1ebd;" horiz-adv-x="620" 
d="M534.5 504q61.5 -57 61.5 -152q0 -22 -5 -54q-6 -30 -13 -48h-407q-2 -11 -2 -32q0 -58 30 -85t79 -27t86 24.5t53 64.5h149q-33 -90 -113.5 -146t-187.5 -56q-106 0 -168.5 59t-62.5 164q0 32 6 68q15 85 61.5 147.5t115 96t148.5 33.5q108 0 169.5 -57zM455 350
q0 50 -31 75t-78 25q-58 0 -103 -35t-61 -103h269q4 19 4 38zM358 734q15 -7 35 -20q14 -10 25 -15.5t25 -5.5q18 0 32 12t21 35h72q-43 -131 -144 -131q-22 0 -38 7t-35 20q-16 10 -25.5 15t-22.5 5q-37 0 -53 -47h-72q45 132 144 132q21 0 36 -7z" />
    <glyph glyph-name="Ygrave" unicode="&#x1ef2;" horiz-adv-x="645" 
d="M690 706l-320 -459l-43 -247h-142l43 247l-159 459h162l95 -309l205 309h159zM478 844l-17 -96l-211 108l19 108z" />
    <glyph glyph-name="ygrave" unicode="&#x1ef3;" horiz-adv-x="607" 
d="M189 554l85 -376l206 376h156l-485 -818h-156l175 280l-138 538h157zM431 692l-17 -96l-211 108l19 108z" />
    <glyph glyph-name="uni1EF8" unicode="&#x1ef8;" horiz-adv-x="645" 
d="M696 706l-320 -459l-43 -247h-142l43 247l-159 459h162l95 -309l205 309h159zM395 886q15 -7 35 -20q14 -10 25 -15.5t25 -5.5q18 0 32 12t21 35h72q-43 -131 -144 -131q-22 0 -38 7t-35 20q-16 10 -25.5 15t-22.5 5q-37 0 -53 -47h-72q45 132 144 132q21 0 36 -7z" />
    <glyph glyph-name="uni1EF9" unicode="&#x1ef9;" horiz-adv-x="608" 
d="M184 554l85 -376l206 376h156l-485 -818h-156l175 280l-138 538h157zM337 734q15 -7 35 -20q14 -10 25 -15.5t25 -5.5q18 0 32 12t21 35h72q-43 -131 -144 -131q-22 0 -38 7t-35 20q-16 10 -25.5 15t-22.5 5q-37 0 -53 -47h-72q45 132 144 132q21 0 36 -7z" />
    <glyph glyph-name="zerowidthnonjoiner" unicode="&#x200c;" horiz-adv-x="0" 
d="M-23 811h47v-1041h-47v1041z" />
    <glyph glyph-name="zerowidthjoiner" unicode="&#x200d;" horiz-adv-x="0" 
d="M23 635v-865h-47v865l-69 -73l-33 33l93 93l-95 95l33 33l95 -95l96 95l32 -32l-96 -96l96 -95l-33 -33z" />
    <glyph glyph-name="endash" unicode="&#x2013;" horiz-adv-x="642" 
d="M604 415l-21 -117h-544l20 117h545z" />
    <glyph glyph-name="emdash" unicode="&#x2014;" horiz-adv-x="867" 
d="M829 415l-21 -117h-769l20 117h770z" />
    <glyph glyph-name="quoteleft" unicode="&#x2018;" horiz-adv-x="217" 
d="M35 628q0 33 4 57q12 64 50 100.5t100 36.5l-9 -55q-26 0 -41 -15.5t-22 -47.5l-2 -18h58l-19 -110h-116q-3 27 -3 52z" />
    <glyph glyph-name="quoteright" unicode="&#x2019;" horiz-adv-x="217" 
d="M183 772q0 -28 -5 -58q-11 -64 -49 -101t-100 -37l10 56q50 0 62 62l3 19h-58l18 109h116q3 -25 3 -50z" />
    <glyph glyph-name="quotesinglbase" unicode="&#x201a;" horiz-adv-x="221" 
d="M159 26q0 -48 -17 -90.5t-53.5 -69t-90.5 -26.5l10 54q26 0 40 12.5t20 44.5l2 10h-65l23 130h123q8 -32 8 -65z" />
    <glyph glyph-name="quotedblleft" unicode="&#x201c;" horiz-adv-x="387" 
d="M35 628q0 33 4 57q12 64 50 100.5t100 36.5l-9 -55q-26 0 -41 -15.5t-22 -47.5l-2 -18h58l-19 -110h-116q-3 27 -3 52zM203 624q0 23 6 61q11 64 49 100.5t100 36.5l-9 -55q-26 0 -41.5 -15.5t-21.5 -47.5l-3 -18h59l-19 -110h-116q-4 23 -4 48z" />
    <glyph glyph-name="quotedblright" unicode="&#x201d;" horiz-adv-x="387" 
d="M183 772q0 -28 -5 -58q-11 -64 -49 -101t-100 -37l10 56q50 0 62 62l3 19h-58l18 109h116q3 -25 3 -50zM352 770q0 -32 -4 -56q-12 -65 -50 -101.5t-100 -36.5l10 56q26 0 41 15t21 47l3 19h-59l19 109h116q3 -27 3 -52z" />
    <glyph glyph-name="quotedblbase" unicode="&#x201e;" horiz-adv-x="387" 
d="M150 59q0 -28 -5 -58q-11 -64 -49 -101t-100 -37l10 56q50 0 62 62l3 19h-58l18 109h116q3 -25 3 -50zM319 57q0 -32 -4 -56q-12 -65 -50 -101.5t-100 -36.5l10 56q26 0 41 15t21 47l3 19h-59l19 109h116q3 -27 3 -52z" />
    <glyph glyph-name="dagger" unicode="&#x2020;" horiz-adv-x="602" 
d="M592 447l-200 10l-114 -721h-140l140 721l-203 -10l19 107l200 -10l29 242h141l-57 -242l204 10z" />
    <glyph glyph-name="daggerdbl" unicode="&#x2021;" horiz-adv-x="602" 
d="M392 457l-69 -392l204 12l-19 -109l-201 10l-29 -242h-141l57 242l-203 -10l18 109l200 -12l70 392l-204 -10l18 107l201 -10l29 242h140l-55 -242l203 10l-19 -107z" />
    <glyph glyph-name="bullet" unicode="&#x2022;" horiz-adv-x="424" 
d="M93.5 390.5q23.5 38.5 62 61t81.5 22.5q52 0 84.5 -32.5t32.5 -82.5q0 -44 -23.5 -82t-62 -60.5t-81.5 -22.5q-52 0 -84.5 32t-32.5 82q0 44 23.5 82.5z" />
    <glyph glyph-name="ellipsis" unicode="&#x2026;" horiz-adv-x="645" 
d="M396 147l-26 -147h-152l26 147h152zM613 147l-26 -147h-152l26 147h152zM179 147l-26 -147h-152l26 147h152z" />
    <glyph glyph-name="perthousand" unicode="&#x2030;" horiz-adv-x="1102" 
d="M348.5 684q36.5 -33 36.5 -92q0 -17 -3 -35q-14 -75 -65.5 -117.5t-121.5 -42.5q-61 0 -97.5 33t-36.5 91q0 17 3 36q13 75 65 117.5t122 42.5q61 0 97.5 -33zM702 708l-518 -708h-137l519 708h136zM157 538q0 -26 14 -41t38 -15q29 0 50.5 20.5t27.5 54.5q2 14 2 19
q0 26 -14.5 41t-39.5 15q-29 0 -49.5 -20.5t-26.5 -54.5q-2 -14 -2 -19zM652 278.5q36 -32.5 36 -91.5q0 -16 -3 -36q-13 -75 -64.5 -117.5t-121.5 -42.5q-61 0 -97.5 33t-36.5 92q0 17 3 35q13 75 65 117.5t122 42.5q61 0 97 -32.5zM1005 278.5q36 -32.5 36 -91.5
q0 -16 -3 -36q-13 -75 -64.5 -117.5t-121.5 -42.5q-61 0 -98 32.5t-37 92.5q0 17 3 35q14 75 66 117.5t122 42.5q61 0 97 -32.5zM460 132q0 -27 14 -42t39 -15q29 0 50.5 20.5t27.5 55.5q2 14 2 19q0 26 -14 41.5t-39 15.5q-29 0 -50 -20.5t-28 -55.5q-2 -14 -2 -19z
M813 132q0 -27 14 -42t38 -15q34 0 57 26.5t23 69.5q0 26 -14 41t-39 15q-28 0 -49 -20.5t-28 -55.5q-2 -14 -2 -19z" />
    <glyph glyph-name="guilsinglleft" unicode="&#x2039;" horiz-adv-x="315" 
d="M103 120l-58 175l120 175h131l-122 -175l60 -175h-131z" />
    <glyph glyph-name="guilsinglright" unicode="&#x203a;" horiz-adv-x="315" 
d="M142 295l-61 175h132l57 -175l-119 -175h-132z" />
    <glyph glyph-name="fraction" unicode="&#x2044;" horiz-adv-x="416" 
d="M534 708l-518 -708h-137l518 708h137z" />
    <glyph glyph-name="rupee" unicode="&#x20a8;" horiz-adv-x="1133" 
d="M541 354q-54 -54 -141 -72l126 -282h-156l-117 275h-61l-48 -275h-142l125 706h269q108 0 162.5 -47t54.5 -126q0 -24 -4 -45q-14 -80 -68 -134zM467 504q0 40 -25.5 61.5t-78.5 21.5h-116l-38 -215h116q62 0 96 27.5t44 79.5q2 9 2 25zM766 385q0 -26 28 -39t89 -26
q57 -12 94 -25t63 -39.5t26 -70.5q0 -53 -29.5 -97t-83.5 -69.5t-124 -25.5q-108 0 -167 49t-57 138h138q-2 -38 26 -60t78 -22q38 0 60.5 17t28.5 45q1 3 1 9q0 28 -28.5 41t-90.5 27q-57 12 -92.5 24.5t-61 39t-25.5 70.5q0 53 30 96t85 68.5t128 25.5q106 0 160 -51
t54 -136h-138q0 37 -25.5 59.5t-70.5 22.5q-39 0 -64.5 -16.5t-30.5 -45.5q-1 -3 -1 -9z" />
    <glyph glyph-name="Euro" unicode="&#x20ac;" horiz-adv-x="809" 
d="M512.5 157q54.5 33 87.5 90h148q-48 -117 -147 -185t-231 -68q-126 0 -201.5 69t-83.5 185h-87l12 66h76q1 13 5 39l7 35h-75l12 67h85q49 119 149 188.5t227 69.5q132 0 207 -68.5t82 -184.5h-148q-12 57 -55 90t-112 33q-62 0 -115 -33.5t-85 -94.5h201l-11 -67h-217
q-6 -20 -8 -35q-4 -26 -5 -39h217l-12 -66h-200q12 -58 53 -91t102 -33q68 0 122.5 33z" />
    <glyph glyph-name="indianrupee" unicode="&#x20b9;" horiz-adv-x="616" 
d="M529 612l-16 -86h102l-14 -81h-105q-28 -91 -99 -136.5t-202 -45.5l-12 -63q-3 -18 -3 -32q0 -72 72 -72q42 0 67 26t34 78h131q-21 -99 -84 -154.5t-161 -55.5q-93 0 -141.5 42t-48.5 125q0 29 6 63l24 135q109 0 164 6.5t82 25.5t39 58h-291l15 81h293l16 86h-294
l16 94h528l-16 -94h-102z" />
    <glyph glyph-name="uni20BA" unicode="&#x20ba;" horiz-adv-x="799" 
d="M783 441q-27 -157 -82.5 -256.5t-146 -148t-224.5 -48.5q-89 0 -217 25l41 236l-145 -28l16 85l144 28l14 80l-145 -29l15 83l145 29l37 212h143l-32 -182l159 32l-15 -85l-159 -31l-14 -80l161 31l-15 -86l-161 -31l-26 -149q35 -8 76 -8q131 0 196 83.5t92 237.5h143z
" />
    <glyph glyph-name="uni20BD" unicode="&#x20bd;" horiz-adv-x="661" 
d="M607 661.5q55 -44.5 55 -122.5q0 -23 -4 -43q-18 -99 -92.5 -155t-196.5 -56h-116l-14 -80h178l-19 -106h-177l-18 -99h-141l17 99h-92l19 106h92l14 80h-92l20 109h91l55 312h257q109 0 164 -44.5zM517 519q0 38 -24.5 59t-76.5 21h-107l-36 -205h107q117 0 135 102
q2 16 2 23z" />
    <glyph glyph-name="uni2113" unicode="&#x2113;" horiz-adv-x="261" 
d="M268 740l-130 -740h-141l130 740h141z" />
    <glyph glyph-name="trademark" unicode="&#x2122;" horiz-adv-x="844" 
d="M334 622h-94l-47 -266h-100l47 266h-94l15 84h288zM841 706l-62 -350h-93l37 223l-135 -223h-70l-54 234l-42 -234h-88l62 350h135l46 -232l141 232h123z" />
    <glyph glyph-name="uni2126" unicode="&#x2126;" horiz-adv-x="792" 
d="M582 107h119l-19 -107h-272l20 112q69 34 116.5 95.5t61.5 146.5q5 25 5 56q0 82 -47.5 129t-128.5 47q-97 0 -167 -62.5t-89 -169.5q-5 -33 -5 -56q0 -64 26.5 -111t73.5 -75l-20 -112h-272l19 107h120q-88 65 -88 191q0 30 7 75q19 104 79.5 182t149 119.5t188.5 41.5
q88 0 157 -33t107.5 -95t38.5 -146q0 -33 -6 -69q-33 -182 -174 -266z" />
    <glyph glyph-name="estimated" unicode="&#x212e;" horiz-adv-x="753" 
d="M169.5 24q-66.5 31 -103 91t-36.5 144q0 37 7 75q19 106 73 191t138.5 134t190.5 49q92 0 156.5 -35.5t96.5 -96t32 -134.5q0 -35 -5 -61l-11 -63h-505l-30 -173q59 -67 164 -67q71 0 135 29t133 87l42 -59q-160 -142 -324 -142q-87 0 -153.5 31zM578 567
q-24 29 -63.5 44t-89.5 15q-106 0 -179 -67l-29 -162h331z" />
    <glyph glyph-name="partialdiff" unicode="&#x2202;" horiz-adv-x="597" 
d="M448 455q2 17 2 48q0 76 -31 116t-105 40q-26 0 -66 -7l12 72q64 16 117 16q100 0 151.5 -57t51.5 -168q0 -51 -10 -107q-23 -128 -75.5 -222t-129.5 -144t-171 -50q-83 0 -135 47.5t-52 138.5q0 28 6 61q16 91 62.5 163.5t114 113.5t145.5 41q107 0 113 -102zM217.5 384
q-46.5 -56 -61.5 -144q-4 -19 -4 -38q0 -43 21 -65t54 -22q65 0 111.5 57.5t62.5 148.5q3 20 3 36q0 42 -20 62.5t-56 20.5q-64 0 -110.5 -56z" />
    <glyph glyph-name="uni2206" unicode="&#x2206;" horiz-adv-x="715" 
d="M477 700l175 -592l-19 -108h-675l19 108l385 592h115zM122 108h385l-117 432z" />
    <glyph glyph-name="product" unicode="&#x220f;" horiz-adv-x="744" 
d="M775 708l-19 -107h-74l-106 -601h-141l106 601h-251l-106 -601h-141l106 601h-74l20 107h680z" />
    <glyph glyph-name="summation" unicode="&#x2211;" horiz-adv-x="506" 
d="M534 592h-321l216 -207l-19 -108l-298 -230h326l-19 -108h-446l29 164l282 224l-206 210l29 163h446z" />
    <glyph glyph-name="minus" unicode="&#x2212;" horiz-adv-x="481" 
d="M470 415l-21 -117h-425l20 117h426z" />
    <glyph glyph-name="uni2215" unicode="&#x2215;" horiz-adv-x="383" 
d="M496 947l-469 -1128h-136l469 1128h136z" />
    <glyph glyph-name="uni2219" unicode="&#x2219;" horiz-adv-x="229" 
d="M218 398l-26 -147h-152l26 147h152z" />
    <glyph glyph-name="radical" unicode="&#x221a;" horiz-adv-x="876" 
d="M934 891l-677 -933h-65l-96 248l-85 -43l-28 66l221 117l88 -229l559 774h83z" />
    <glyph glyph-name="infinity" unicode="&#x221e;" horiz-adv-x="737" 
d="M689 479q39 -32 39 -92q0 -20 -4 -39q-13 -75 -69 -119.5t-129 -44.5q-60 0 -100 24.5t-72 67.5q-35 -42 -82 -67t-101 -25q-71 0 -109.5 32.5t-38.5 93.5q0 18 3 37q13 76 69 120t128 44q62 0 100 -26t67 -72q36 44 85 71t104 27q71 0 110 -32zM255 294.5
q31 16.5 57 47.5q-22 38 -42.5 57.5t-49.5 19.5q-33 0 -55.5 -19.5t-28.5 -52.5q-1 -5 -1 -16q0 -25 15 -39t43 -14q31 0 62 16.5zM615 364q0 25 -15.5 39.5t-43.5 14.5q-33 0 -65.5 -19.5t-60.5 -54.5q21 -33 43.5 -50t56.5 -17q33 0 55.5 19.5t28.5 51.5q1 5 1 16z" />
    <glyph glyph-name="integral" unicode="&#x222b;" horiz-adv-x="281" 
d="M274 895q58 38 142 38h17l-33 -121h-20q-18 0 -30 -10t-19 -33l-237 -841q-25 -90 -82 -129t-142 -39h-19l33 121h21q20 0 30.5 10t18.5 37l237 841q25 88 83 126z" />
    <glyph glyph-name="approxequal" unicode="&#x2248;" horiz-adv-x="591" 
d="M260 333.5q23 -9.5 53 -28.5q22 -15 38 -22t33 -7q52 0 74 68h107q-32 -98 -86.5 -146t-124.5 -48q-31 0 -53.5 9.5t-51.5 28.5q-22 15 -38 22t-34 7q-52 0 -75 -68h-106q33 98 87 146t124 48q30 0 53 -9.5zM301 568.5q23 -9.5 53 -28.5q22 -15 38 -22t33 -7q52 0 74 68
h107q-32 -98 -86.5 -146t-124.5 -48q-31 0 -53.5 9.5t-51.5 28.5q-22 15 -38 22t-34 7q-52 0 -75 -68h-106q33 98 87 146t124 48q30 0 53 -9.5z" />
    <glyph glyph-name="notequal" unicode="&#x2260;" horiz-adv-x="601" 
d="M387 411l-100 -111h277l-22 -127h-369l-94 -104h-73l94 104h-103l22 127h195l100 111h-275l22 128h368l94 104h73l-94 -104h104l-22 -128h-197z" />
    <glyph glyph-name="lessequal" unicode="&#x2264;" horiz-adv-x="452" 
d="M220 393l184 -187h-174l-187 187l252 188h175zM17 143h378l-19 -110h-378z" />
    <glyph glyph-name="greaterequal" unicode="&#x2265;" horiz-adv-x="452" 
d="M13 206l249 187l-184 188h175l186 -188l-252 -187h-174zM-1 143h379l-20 -110h-378z" />
    <glyph glyph-name="lozenge" unicode="&#x25ca;" horiz-adv-x="561" 
d="M535 352l-299 -255l-210 255l300 254zM166 352l94 -116l136 116l-94 115z" />
    <glyph glyph-name="dottedcircle" unicode="&#x25cc;" horiz-adv-x="651" 
d="M270 467.5q-12 11.5 -12 30.5t12 30.5t31 11.5t31 -11.5t12 -30.5t-12 -30.5t-31 -11.5t-31 11.5zM391 452.5q-12 11.5 -12 30.5t12 30.5t31 11.5t31 -11.5t12 -30.5t-12 -30.5t-31 -11.5t-31 11.5zM153 425.5q-12 11.5 -12 30.5t12 30.5t31 11.5t31 -11.5t12 -30.5
t-12 -30.5t-31 -11.5t-31 11.5zM483 378.5q-12 11.5 -12 30.5t12 30.5t31 11.5t31 -11.5t12 -30.5t-12 -30.5t-31 -11.5t-31 11.5zM77 326.5q-12 11.5 -12 30.5t12 30.5t31 11.5t31 -11.5t12 -30.5t-12 -30.5t-31 -11.5t-31 11.5zM527 264.5q-12 11.5 -12 30.5t12 30.5
t31 11.5t31 -11.5t12 -30.5t-12 -30.5t-31 -11.5t-31 11.5zM62 205.5q-12 11.5 -12 30.5t12 30.5t31 11.5t31 -11.5t12 -30.5t-12 -30.5t-31 -11.5t-31 11.5zM517 144.5q-12 11.5 -12 30.5t12 30.5t31 11.5t31 -11.5t12 -30.5t-12 -30.5t-31 -11.5t-31 11.5zM107 92.5
q-12 11.5 -12 30.5t12 30.5t31 11.5t31 -11.5t12 -30.5t-12 -30.5t-31 -11.5t-31 11.5zM444 48.5q-12 11.5 -12 30.5t12 30.5t31 11.5t31 -11.5t12 -30.5t-12 -30.5t-31 -11.5t-31 11.5zM205 16.5q-12 11.5 -12 30.5t12 30.5t31 11.5t31 -11.5t12 -30.5t-12 -30.5t-31 -11.5
t-31 11.5zM329 2.5q-12 11.5 -12 30.5t12 30.5t31 11.5t31 -11.5t12 -30.5t-12 -30.5t-31 -11.5t-31 11.5z" />
    <glyph glyph-name="fi" unicode="&#xfb01;" horiz-adv-x="625" 
d="M274 554h323l-97 -554h-141l76 435h-182l-77 -435h-141l77 435h-71l21 119h71l2 13q17 100 82 153t173 53l25 -1l-21 -122q-57 3 -84 -18.5t-36 -76.5v-1zM621 755.5q20 -16.5 20 -44.5q0 -38 -29 -62t-72 -24q-35 0 -55 16t-20 43q0 39 28.5 63.5t72.5 24.5
q35 0 55 -16.5z" />
    <glyph glyph-name="fl" unicode="&#xfb02;" horiz-adv-x="625" 
d="M307 632q-29 -22 -39 -77v-1h112l-21 -119h-112l-77 -435h-141l77 435h-71l20 119h72l2 13q17 99 83.5 152.5t177.5 53.5q18 0 28 -1l-21 -122q-61 4 -90 -18zM631 740l-130 -740h-141l130 740h141z" />
    <glyph glyph-name="dvK_SSA" horiz-adv-x="841" 
d="M928 740l-18 -108h-111l-112 -632h-124l63 356h-302q-47 -20 -75 -35.5t-47.5 -38t-25.5 -54.5q-2 -12 -2 -19q0 -31 21 -50.5t58 -19.5q45 0 76.5 30t38.5 71h108l-53 -300h-118l27 155q-21 -26 -58.5 -45t-84.5 -19q-71 0 -112.5 37t-41.5 99q0 16 3 34q13 71 62 114.5
t128 79.5q-44 17 -72 52.5t-28 86.5q0 16 3 34q15 83 83 132t159 49q75 0 123.5 -37.5t48.5 -104.5q0 -16 -3 -34q-12 -72 -75 -123h176l51 290h234zM269 474.5q28 -22.5 77 -23.5q36 20 57.5 44t27.5 56q1 5 1 15q0 33 -22 53t-59 20q-44 0 -77 -29t-33 -76q0 -37 28 -59.5
z" />
    <glyph glyph-name="dvJ_NYA" horiz-adv-x="830" 
d="M916 740l-19 -108h-111l-112 -632h-127l71 407h-163q50 -39 50 -111q0 -21 -2 -32q-13 -81 -69.5 -129.5t-137.5 -48.5q-53 0 -92 18.5t-58 49.5l-24 -139h-125l49 281h121q-4 -48 24.5 -76t75.5 -28q49 0 82 29t42 74q2 16 2 22q0 43 -31 66.5t-79 23.5h-32l18 104h368
l21 121h-632l20 108h870z" />
    <glyph glyph-name="dvK" horiz-adv-x="716" 
d="M603 632l-30 -171q28 37 70 58.5t94 21.5q80 0 127 -50.5t47 -130.5q0 -22 -5 -50h-130q2 18 2 25q0 43 -25.5 69.5t-69.5 26.5q-57 0 -92.5 -38t-45.5 -94v1l-53 -300h-124l28 159q-30 -38 -73.5 -60t-99.5 -22q-80 0 -129.5 50.5t-49.5 134.5q0 21 5 51
q19 104 87.5 166t165.5 62q56 0 93.5 -21.5t53.5 -59.5l30 172h-454l19 108h939l-19 -108h-361zM422 308q2 8 2 25q0 42 -25.5 70.5t-75.5 28.5q-38 0 -71.5 -19t-54 -53t-20.5 -77q0 -45 28 -71t73 -26q58 0 96 35.5t47 81.5z" />
    <glyph glyph-name="dvKH" horiz-adv-x="672" 
d="M180 249q-3 -16 -3 -32q0 -51 31.5 -81t90.5 -30q47 0 81.5 19t57.5 49q-41 43 -41 110q0 13 4 41q16 94 88 149.5t171 55.5q87 0 138.5 -43.5t51.5 -119.5q0 -22 -4 -42q-11 -64 -48 -110.5t-91.5 -71t-118.5 -24.5q-30 0 -56 6q-38 -58 -99 -94t-140 -36
q-114 0 -179 56.5t-65 155.5q0 24 5 57l24 137h29q68 0 109 32t53 106l16 93h-259l19 108h875l-20 -108h-485l-19 -110q-17 -100 -72.5 -153t-133.5 -59zM538 239.5q25 -22.5 68 -22.5q56 0 92.5 36.5t36.5 96.5q0 38 -24.5 60.5t-67.5 22.5q-56 0 -93 -36.5t-37 -95.5
q0 -39 25 -61.5z" />
    <glyph glyph-name="dvG" horiz-adv-x="538" 
d="M588 632h-119l-42 -243q-15 -89 -70 -144t-150 -55q-78 0 -123 40t-45 110q0 23 4 43l6 31h125l-6 -31q-2 -18 -2 -25q0 -58 52 -58q35 0 54 24.5t25 59.5l43 248h-315l19 108h563z" />
    <glyph glyph-name="dvGH" horiz-adv-x="407" 
d="M251 580q-2 -18 -2 -25q0 -36 22 -54t71 -18h42l-18 -104h-52q-55 0 -86.5 -23.5t-38.5 -61.5q-1 -6 -1 -16q0 -36 28.5 -55t75.5 -19q75 0 126.5 43t63.5 111h110q-13 -72 -56.5 -131t-111.5 -93.5t-151 -34.5q-103 0 -161 41t-58 112q0 15 3 33q10 58 50.5 95t91.5 48
l1 3q-38 9 -60 34.5t-22 70.5q0 10 4 38l10 58h-107l19 108h615l-19 -108h-380z" />
    <glyph glyph-name="dvNG" horiz-adv-x="686" 
d="M773 740l-19 -108h-235l-18 -98l-15 -85h-181q-37 0 -64.5 -13.5t-33.5 -46.5q-1 -4 -1 -11q0 -25 19 -37t50 -12h44q78 0 128.5 -35.5t50.5 -105.5q0 -16 -3 -36q-15 -79 -78 -124.5t-168 -45.5q-102 0 -164 44.5t-62 121.5q0 9 2 27h129q-1 -6 -1 -16q0 -37 27.5 -58
t76.5 -21q53 0 85 26.5t32 67.5q0 33 -25.5 48t-68.5 15h-38q-64 0 -115 30t-51 96q0 14 3 30q13 74 70.5 110.5t136.5 36.5h91l17 92h-367l19 108h727zM658.5 433q16.5 -16 16.5 -42q0 -33 -25.5 -58t-58.5 -25q-26 0 -42.5 16t-16.5 41q0 34 25.5 59t58.5 25
q26 0 42.5 -16zM302 -84l92 -214h-132l-88 214h128z" />
    <glyph glyph-name="dvC" horiz-adv-x="455" 
d="M703 740l-19 -108h-659l19 108h659zM465.5 243q46.5 46 58.5 118h112q-12 -80 -55 -142t-110 -96.5t-149 -34.5q-91 0 -147 40.5t-56 115.5q0 11 4 39q8 41 29.5 75.5t55.5 57.5h-150l18 102h367l-18 -102h-39q-59 0 -99.5 -37.5t-40.5 -95.5q0 -41 30 -64t77 -23
q66 1 112.5 47z" />
    <glyph glyph-name="dvCH" horiz-adv-x="820" 
d="M244 554q-3 -15 -3 -28q0 -69 85 -69h21l-18 -104h-19q-65 0 -101 -34t-36 -83q0 -50 47 -76.5t137 -26.5q123 0 202 53.5t97 150.5q3 17 3 30q0 38 -18 59.5t-47 21.5q-33 0 -60 -24t-35 -69q-4 -19 -4 -43q0 -20 3 -40h-107q-3 18 -3 40q0 24 5 57q16 88 77 131.5
t142 43.5q74 0 117.5 -42.5t43.5 -119.5q0 -27 -4 -51q-17 -94 -75 -163.5t-149.5 -107t-207.5 -37.5q-87 0 -154.5 22.5t-105.5 66t-38 102.5q0 20 4 37q12 60 51 98t97 53v3q-81 19 -81 106q0 18 3 37l15 84h-104l19 108h862l-19 -108h-628z" />
    <glyph glyph-name="dvJ" horiz-adv-x="559" 
d="M767 740l-19 -108h-722l20 108h721zM704 382h-212l-10 -55q-17 -96 -82.5 -155.5t-163.5 -59.5q-86 0 -136 47t-50 126q0 26 4 47l29 160h129l-28 -161q-3 -16 -3 -31q0 -36 18 -55.5t52 -19.5q41 0 69 28.5t37 77.5l29 161h338z" />
    <glyph glyph-name="dvJH" horiz-adv-x="561" 
d="M237 432.5q-29 -16.5 -29 -57.5q0 -24 19 -35t50 -11h44h367l-16 -97h-192q13 -28 13 -59q0 -16 -3 -34q-13 -67 -63.5 -109t-130.5 -42q-53 0 -85.5 19.5t-47.5 42.5l-23 -132h-122l44 252h116q-2 -38 22.5 -62.5t72.5 -24.5q49 0 75.5 26t26.5 64q0 30 -24 47t-70 17
q-38 0 -59 2q-62 3 -104 34t-42 93q0 15 3 31q13 75 71.5 110t138.5 35h91l16 90h-363l19 108h709l-19 -108h-221l-21 -120l-12 -63h-182q-40 0 -69 -16.5z" />
    <glyph glyph-name="dvNY" horiz-adv-x="541" 
d="M741 740l-19 -108h-697l19 108h697zM460.5 495.5q51.5 -48.5 53.5 -130.5h160l-19 -109h-159q-30 -87 -99 -138t-162 -51q-91 0 -144 46.5t-53 122.5l1 18h122q3 -34 27.5 -56t66.5 -22q55 0 91.5 37t45.5 93q3 15 3 30q0 44 -23.5 71t-70.5 27q-42 0 -75 -22.5
t-47 -55.5h-122q22 84 93 136t169 52q90 0 141.5 -48.5z" />
    <glyph glyph-name="dvTT" horiz-adv-x="645" 
d="M238 393.5q-54 -38.5 -67 -110.5q-3 -15 -3 -29q0 -51 35 -82.5t94 -31.5q68 0 116 41.5t59 108.5h124q-14 -78 -56.5 -137.5t-108.5 -92t-148 -32.5q-72 0 -128 26.5t-87 74.5t-31 112q0 25 4 46q21 122 111 188t225 66h4l16 91h-374l19 108h689l-19 -108h-188l-36 -200
h-123q-73 0 -127 -38.5zM333 -37l93 -214h-132l-90 214h129z" />
    <glyph glyph-name="dvTTH" horiz-adv-x="670" 
d="M442 632l-17 -95q79 -17 127.5 -70.5t48.5 -133.5q0 -21 -5 -49q-13 -76 -58.5 -132t-113 -85.5t-145.5 -29.5q-68 0 -122.5 26t-86 74t-31.5 112q0 26 4 47q17 102 87 164.5t168 78.5l17 93h-292l19 108h714l-19 -108h-295zM437 402.5q-34 32.5 -92 32.5
q-48 0 -88.5 -22.5t-64.5 -61.5t-24 -88q0 -53 34 -86t91 -33q48 0 89 22.5t65 62.5t24 89q0 52 -34 84.5zM333 -29l92 -214h-132l-89 214h129z" />
    <glyph glyph-name="dvDD" horiz-adv-x="570" 
d="M240.5 435.5q-27.5 -13.5 -33.5 -46.5q-1 -4 -1 -11q0 -25 19 -37t50 -12h44q78 0 128.5 -35.5t50.5 -105.5q0 -16 -3 -36q-15 -79 -78 -124.5t-168 -45.5q-102 0 -164 44.5t-62 121.5q0 9 2 27h129q-1 -6 -1 -16q0 -37 27.5 -58t76.5 -21q53 0 85 26.5t32 67.5
q0 33 -25.5 48t-68.5 15h-38q-64 0 -115 30t-51 96q0 14 3 30q13 74 70.5 110.5t136.5 36.5h88l17 92h-364l19 108h610l-19 -108h-121l-33 -183h-178q-37 0 -64.5 -13.5zM293 -84l91 -214h-131l-89 214h129z" />
    <glyph glyph-name="dvDDH" horiz-adv-x="650" 
d="M250 409.5q-67 -48.5 -83 -137.5q-3 -19 -3 -37q0 -65 42 -104.5t121 -39.5q63 0 108 29t54 78q1 5 1 14q0 27 -16.5 43.5t-43.5 16.5q-28 0 -49.5 -16.5t-26.5 -45.5q-2 -6 -2 -19h-92q0 20 3 35q11 65 62.5 101.5t126.5 36.5q68 0 109 -38t41 -100q0 -15 -3 -32
q-17 -90 -92.5 -143t-192.5 -53q-80 0 -142.5 29t-97.5 82t-35 123q0 21 5 51q16 85 64.5 144.5t119.5 89.5t155 30h27l15 85h-399l19 108h691l-20 -108h-170l-30 -174h-109q-90 0 -157 -48.5zM338 -68l91 -214h-131l-89 214h129z" />
    <glyph glyph-name="dvNN" horiz-adv-x="584" 
d="M643 632h-93l-46 -260q-17 -96 -77 -154.5t-158 -58.5q-87 0 -137.5 46t-50.5 123q0 24 4 44l46 260h-106l19 108h618zM424 632h-166l-48 -272q-2 -16 -2 -22q0 -32 18 -51t51 -19q39 0 65 25t34 67z" />
    <glyph glyph-name="dvT" horiz-adv-x="387" 
d="M44 740h571l-20 -108h-570zM99.5 52.5q-65.5 51.5 -65.5 148.5q0 26 4 49q21 124 110 184t218 60h205l-20 -111h-199q-74 0 -123.5 -35.5t-61.5 -103.5q-3 -16 -3 -33q0 -51 32.5 -79.5t95.5 -28.5h19l-18 -102h-27q-101 0 -166.5 51.5z" />
    <glyph glyph-name="dvTH" horiz-adv-x="478" 
d="M671 357q-14 -82 -64 -143t-123 -93.5t-152 -32.5q-86 0 -147 29.5t-92.5 82.5t-31.5 123q0 52 18 110h91q89 0 146.5 27.5t68.5 95.5q1 6 1 16q0 30 -17 48.5t-48 18.5q-48 0 -74.5 -35.5t-24.5 -89.5h-117q2 66 32 119.5t83 84.5t122 31q77 0 122 -42t45 -113
q0 -23 -4 -42q-17 -100 -96 -156t-205 -56h-21q-1 -6 -1 -16q0 -61 44 -94.5t115 -33.5q53 0 100 20t79 56.5t40 84.5h111z" />
    <glyph glyph-name="dvD" horiz-adv-x="610" 
d="M699 740l-20 -108h-125l-35 -202h-167q-66 0 -112.5 -33t-57.5 -94q-2 -9 -2 -27q0 -44 27 -70t74 -26q45 0 82.5 28.5t46.5 80.5h119l-55 -315h-126l28 164q-26 -29 -64.5 -44.5t-84.5 -15.5q-79 0 -130 48.5t-51 133.5q0 22 5 52q20 112 104 170.5t203 58.5h51l16 91
h-397l19 108h652zM464 -92l92 -214h-132l-89 214h129z" />
    <glyph glyph-name="dvDH" horiz-adv-x="431" 
d="M118.5 123.5q-62.5 39.5 -62.5 113.5q0 16 3 32q11 61 52 95.5t90 43.5l1 4q-43 12 -71 46t-28 87q0 17 3 36q13 78 68.5 123t134.5 45q73 0 114 -36t41 -100q0 -33 -10 -67h-97q5 20 5 34q0 28 -15.5 44.5t-46.5 16.5q-38 0 -63.5 -29.5t-25.5 -70.5q0 -38 27.5 -57
t75.5 -19h77l-19 -105h-53q-54 0 -87 -21.5t-40 -60.5q-2 -10 -2 -16q0 -36 33 -53.5t83 -17.5q82 0 135 38t64 100h113q-19 -113 -106 -179t-230 -66q-101 0 -163.5 39.5z" />
    <glyph glyph-name="dvN" horiz-adv-x="518" 
d="M740 740l-19 -108h-696l19 108h696zM129 448q71 51 173 51h395l-19 -107h-236q20 -37 20 -81q0 -16 -3 -34q-15 -88 -79.5 -139t-151.5 -51q-55 0 -98.5 22t-68 62t-24.5 90q0 13 4 39q17 97 88 148zM337.5 370q-22.5 21 -60.5 21q-50 0 -85.5 -33.5t-35.5 -83.5
q0 -35 23 -56.5t63 -21.5q49 0 83.5 35t34.5 83q0 35 -22.5 56z" />
    <glyph glyph-name="dvP" horiz-adv-x="366" 
d="M213 428q-4 -28 -4 -39q0 -50 27 -78t80 -28q56 0 93 36.5t48 92.5l106 1q-17 -106 -83.5 -172.5t-179.5 -66.5q-103 0 -161 56.5t-58 151.5q0 34 5 59l34 191h-95l19 108h577l-19 -108h-353z" />
    <glyph glyph-name="dvPH" horiz-adv-x="714" 
d="M608 632l-31 -172q31 38 75.5 59.5t100.5 21.5q79 0 123.5 -47.5t44.5 -128.5q0 -23 -5 -55h-131q3 14 3 27q0 42 -26 68t-69 26q-58 0 -96 -39t-49 -99l-52 -293h-129l41 236q-59 -62 -150 -62q-87 0 -134 50t-47 135q0 30 6 63l38 210h-96l19 108h948l-19 -108h-365z
M478 632h-228l-37 -210q-4 -20 -4 -43q0 -46 24 -71t73 -25q51 0 86 33.5t45 84.5z" />
    <glyph glyph-name="dvB" horiz-adv-x="401" 
d="M645 740l-19 -108h-601l19 108h601zM469.5 525.5q50.5 -27.5 75.5 -73t25 -100.5q0 -19 -3 -37q-11 -68 -49 -123.5t-101 -88t-145 -32.5q-68 0 -119 25.5t-79 71.5t-28 105q0 20 3 41q10 69 50 123.5t104 85t142 30.5q74 0 124.5 -27.5zM468 339q0 54 -33.5 89.5
t-96.5 35.5q-59 0 -108 -35l204 -192q24 35 32 74q2 9 2 28zM153 280q0 -56 37.5 -88t95.5 -32q59 0 106 35l-205 191q-24 -35 -31 -76q-3 -15 -3 -30z" />
    <glyph glyph-name="dvBH" horiz-adv-x="533" 
d="M670 355h-201l-11 -59q-18 -105 -80 -162.5t-160 -57.5q-82 0 -129.5 41.5t-47.5 112.5q0 11 4 39q16 92 84.5 142t162.5 50h74l15 82q3 18 3 33q0 62 -55 62q-31 0 -53 -21t-29 -58q-3 -16 -3 -34h-129q0 20 3 39q14 83 73 134t151 51q162 0 162 -161q0 -32 -6 -68
l-11 -59h201zM348 355h-71q-49 0 -81.5 -28.5t-32.5 -75.5q0 -30 20 -47.5t52 -17.5q40 0 66.5 27.5t34.5 75.5z" />
    <glyph glyph-name="dvM" horiz-adv-x="527" 
d="M498 632l-30 -171h216l-18 -106h-217l-10 -59q-18 -104 -80.5 -162t-159.5 -58q-82 0 -129.5 42t-47.5 113q0 19 3 38q16 92 85 142t162 50h75l30 171h-352l19 108h689l-19 -108h-216zM329 355h-72q-48 0 -80.5 -28.5t-32.5 -74.5q0 -31 20 -48.5t51 -17.5
q41 0 67.5 27.5t34.5 75.5z" />
    <glyph glyph-name="dvY" horiz-adv-x="441" 
d="M184 329q0 -61 40.5 -94.5t108.5 -33.5q75 0 129 43.5t65 111.5h119q-12 -75 -54.5 -135t-112 -94.5t-158.5 -34.5q-121 0 -193.5 59t-72.5 164q0 29 6 60q4 26 14 55h12q83 0 127.5 36.5t58.5 111.5l9 54h-256l19 108h669l-19 -108h-287l-13 -77q-30 -179 -208 -193
q-3 -18 -3 -33z" />
    <glyph glyph-name="dvR" horiz-adv-x="532" 
d="M600 632h-98l-12 -69q-44 -248 -279 -248h-22l-20 -114q-3 -15 -3 -28q0 -33 18 -52.5t51 -19.5q37 0 62 26t33 68l3 24h124l-2 -20q-17 -97 -76.5 -152.5t-152.5 -55.5q-89 0 -138.5 46.5t-49.5 123.5q0 25 4 46l37 212h103q80 0 123.5 36.5t55.5 107.5l12 69h-347
l19 108h574zM257 -76l92 -214h-132l-88 214h128z" />
    <glyph glyph-name="dvL" horiz-adv-x="652" 
d="M41 740h871l-19 -108h-871zM94 99.5q-56 54.5 -56 144.5q0 24 5 56q19 112 90 171.5t166 59.5q69 0 107.5 -35.5t48.5 -89.5h2q29 55 79.5 90t122.5 35q80 0 129.5 -50.5t49.5 -138.5q0 -26 -4 -49h-132q3 18 3 33q0 42 -21.5 66.5t-63.5 24.5q-54 0 -87.5 -39
t-44.5 -103l-4 -21h-107l3 21q5 27 5 46q0 44 -21 70t-63 26q-52 0 -85.5 -34t-42.5 -90q-3 -18 -3 -34q0 -48 27.5 -75t80.5 -27q6 0 26 2l-21 -113q-12 -1 -29 -1q-104 0 -160 54.5z" />
    <glyph glyph-name="dvV" horiz-adv-x="377" 
d="M44 740h601l-19 -108h-601zM150.5 100q-51.5 25 -79 69.5t-27.5 102.5q0 20 5 47q17 102 95.5 164t196.5 62q76 0 127.5 -28t77 -74t25.5 -100q0 -14 -4 -42q-10 -61 -47 -112.5t-100 -82.5t-148 -31q-70 0 -121.5 25zM372.5 201q36.5 24 55.5 61t19 74q0 47 -28.5 77.5
t-84.5 30.5q-44 0 -81.5 -20.5t-59.5 -57t-22 -82.5q0 -49 31.5 -78t84.5 -29q49 0 85.5 24z" />
    <glyph glyph-name="dvSH" horiz-adv-x="547" 
d="M178 215q-3 -16 -3 -31q0 -37 19.5 -58.5t60.5 -21.5q44 0 73 30.5t38 84.5h125q-14 -106 -76.5 -166t-168.5 -60q-95 0 -148.5 48t-53.5 131q0 20 5 50l33 186h142q78 0 134.5 31.5t68.5 98.5q2 16 2 22q0 35 -20.5 56t-54.5 21q-51 0 -81.5 -39.5t-30.5 -97.5h-129
q4 76 37.5 132.5t89.5 86.5t128 30q85 0 139 -46.5t54 -126.5q0 -20 -5 -47q-20 -113 -104 -171t-200 -58h-59z" />
    <glyph glyph-name="dvSS" horiz-adv-x="385" 
d="M245 632v-1l325 -264q-12 -52 -45 -98t-90 -75.5t-134 -29.5q-103 0 -163 56.5t-60 150.5q0 27 6 57l36 204h-95l19 108h592l-19 -108h-372zM229 540l-21 -115q-4 -28 -4 -39q0 -53 28 -83t81 -30q50 0 84.5 23t52.5 59z" />
    <glyph glyph-name="dvS" horiz-adv-x="516" 
d="M467 556q-14 -77 -59 -131h232l-19 -106h-432l-20 -117q-2 -9 -2 -26q0 -35 18 -55t54 -20q40 0 65 29t33 77h124q-11 -99 -73.5 -157.5t-161.5 -58.5q-89 0 -138 49t-49 129q0 26 4 47l35 196h81q152 0 179 144l13 76h-325l19 108h651l-20 -108h-196z" />
    <glyph glyph-name="dvH" horiz-adv-x="585" 
d="M681 740l-19 -108h-133l-16 -87l-17 -93h-177q-34 0 -58.5 -14.5t-30.5 -45.5q-1 -4 -1 -12q0 -16 8.5 -27.5t23.5 -17.5q24 3 49 3q68 0 114.5 -26t67.5 -67t17 -85h-123q-2 30 -26.5 52.5t-69.5 22.5q-37 0 -68.5 -19.5t-50 -52.5t-18.5 -73q0 -43 25.5 -67.5
t71.5 -24.5q42 0 74 21.5t46 51.5h124q-14 -51 -49.5 -91.5t-88.5 -64.5t-117 -24q-65 0 -112.5 24t-73 67t-25.5 98q0 25 4 45q10 58 43 103t83 73q-53 32 -53 92q0 70 52 111t134 41h99l15 87h-370l20 108h626zM283 -174l92 -214h-132l-89 214h129z" />
    <glyph glyph-name="dvLL" horiz-adv-x="970" 
d="M39 740h1016l-19 -108h-1016zM91 118.5q-54 49.5 -54 132.5q0 26 4 47q12 69 51 122t95 81.5t119 28.5q68 0 114 -31.5t66 -92.5h4q39 61 94.5 92.5t123.5 31.5q85 0 139 -50t54 -135q0 -26 -4 -47q-12 -68 -50.5 -120t-94.5 -80.5t-120 -28.5q-69 0 -117 34t-62 91h-5
q-33 -58 -90.5 -91.5t-127.5 -33.5q-85 0 -139 49.5zM337.5 198q32.5 19 51 52t18.5 74q0 44 -26.5 70t-72.5 26q-39 0 -71.5 -18.5t-52 -52.5t-19.5 -76q0 -43 27.5 -68.5t73.5 -25.5q39 0 71.5 19zM721.5 212q39.5 33 49.5 86q2 16 2 24q0 45 -27.5 71.5t-73.5 26.5
q-53 0 -91.5 -34t-48.5 -88q-2 -16 -2 -24q0 -43 27 -69t73 -26q52 0 91.5 33z" />
    <glyph glyph-name="dvK_SS" horiz-adv-x="548" 
d="M249 320.5q-28 -15.5 -47.5 -38t-25.5 -54.5q-2 -12 -2 -19q0 -31 21 -50.5t58 -19.5q45 0 76.5 30t38.5 71h108l-53 -300h-118l27 155q-21 -26 -58.5 -45t-84.5 -19q-71 0 -112.5 37t-41.5 99q0 16 3 34q13 71 62 114.5t128 79.5q-44 17 -72 52.5t-28 86.5q0 16 3 34
q15 83 83 132t159 49q75 0 123.5 -37.5t48.5 -104.5q0 -16 -3 -34q-12 -72 -75 -123h224l-16 -94h-351q-47 -20 -75 -35.5zM269 474.5q28 -22.5 77 -23.5q36 20 57.5 44t27.5 56q1 5 1 15q0 33 -22 53t-59 20q-44 0 -77 -29t-33 -76q0 -37 28 -59.5z" />
    <glyph glyph-name="dvJ_NY" horiz-adv-x="541" 
d="M777 740l-20 -108h-731l20 108h731zM269 511h467l-18 -104h-263q50 -39 50 -111q0 -21 -2 -32q-13 -81 -69.5 -129.5t-137.5 -48.5q-53 0 -92 18.5t-58 49.5l-24 -139h-125l49 281h121q-4 -48 24.5 -76t75.5 -28q49 0 82 29t42 74q2 16 2 22q0 43 -31 66.5t-79 23.5h-32z
" />
    <glyph glyph-name="dvKx" horiz-adv-x="716" 
d="M603 632l-30 -171q28 37 70 58.5t94 21.5q80 0 127 -50.5t47 -130.5q0 -22 -5 -50h-130q2 18 2 25q0 43 -25.5 69.5t-69.5 26.5q-57 0 -92.5 -38t-45.5 -94v1l-53 -300h-124l28 159q-30 -38 -73.5 -60t-99.5 -22q-80 0 -129.5 50.5t-49.5 134.5q0 21 5 51
q19 104 87.5 166t165.5 62q56 0 93.5 -21.5t53.5 -59.5l30 172h-454l19 108h939l-19 -108h-361zM422 308q2 8 2 25q0 42 -25.5 70.5t-75.5 28.5q-38 0 -71.5 -19t-54 -53t-20.5 -77q0 -45 28 -71t73 -26q58 0 96 35.5t47 81.5zM111.5 -127q-18.5 18 -18.5 46q0 37 28 64
t65 27q28 0 46.5 -18t18.5 -46q0 -37 -27.5 -64t-64.5 -27q-29 0 -47.5 18z" />
    <glyph glyph-name="dvKHx" horiz-adv-x="672" 
d="M180 249q-3 -16 -3 -32q0 -51 31.5 -81t90.5 -30q47 0 81.5 19t57.5 49q-41 43 -41 110q0 13 4 41q16 94 88 149.5t171 55.5q87 0 138.5 -43.5t51.5 -119.5q0 -22 -4 -42q-11 -64 -48 -110.5t-91.5 -71t-118.5 -24.5q-30 0 -56 6q-38 -58 -99 -94t-140 -36
q-114 0 -179 56.5t-65 155.5q0 24 5 57l24 137h29q68 0 109 32t53 106l16 93h-259l19 108h875l-20 -108h-485l-19 -110q-17 -100 -72.5 -153t-133.5 -59zM538 239.5q25 -22.5 68 -22.5q56 0 92.5 36.5t36.5 96.5q0 38 -24.5 60.5t-67.5 22.5q-56 0 -93 -36.5t-37 -95.5
q0 -39 25 -61.5zM169.5 -206q-18.5 18 -18.5 46q0 37 28 64t65 27q28 0 46.5 -18t18.5 -46q0 -37 -27.5 -64t-64.5 -27q-29 0 -47.5 18z" />
    <glyph glyph-name="dvGx" horiz-adv-x="538" 
d="M588 632h-119l-42 -243q-15 -89 -70 -144t-150 -55q-78 0 -123 40t-45 110q0 23 4 43l6 31h125l-6 -31q-2 -18 -2 -25q0 -58 52 -58q35 0 54 24.5t25 59.5l43 248h-315l19 108h563zM118.5 -16q-18.5 18 -18.5 46q0 37 28 64t65 27q28 0 46.5 -18t18.5 -46
q0 -37 -27.5 -64t-64.5 -27q-29 0 -47.5 18z" />
    <glyph glyph-name="dvJx" horiz-adv-x="559" 
d="M767 740l-19 -108h-722l20 108h721zM704 382h-212l-10 -55q-17 -96 -82.5 -155.5t-163.5 -59.5q-86 0 -136 47t-50 126q0 26 4 47l29 160h129l-28 -161q-3 -16 -3 -31q0 -36 18 -55.5t52 -19.5q41 0 69 28.5t37 77.5l29 161h338zM147.5 -91q-18.5 18 -18.5 46q0 37 28 64
t65 27q28 0 46.5 -18t18.5 -46q0 -37 -27.5 -64t-64.5 -27q-29 0 -47.5 18z" />
    <glyph glyph-name="dvPHx" horiz-adv-x="714" 
d="M608 632l-31 -172q31 38 75.5 59.5t100.5 21.5q79 0 123.5 -47.5t44.5 -128.5q0 -23 -5 -55h-131q3 14 3 27q0 42 -26 68t-69 26q-58 0 -96 -39t-49 -99l-52 -293h-129l41 236q-59 -62 -150 -62q-87 0 -134 50t-47 135q0 30 6 63l38 210h-96l19 108h948l-19 -108h-365z
M478 632h-228l-37 -210q-4 -20 -4 -43q0 -46 24 -71t73 -25q51 0 86 33.5t45 84.5zM119.5 -25q-18.5 18 -18.5 46q0 37 28 64t65 27q28 0 46.5 -18t18.5 -46q0 -37 -27.5 -64t-64.5 -27q-29 0 -47.5 18z" />
    <glyph glyph-name="dvReph" horiz-adv-x="0" 
d="M-173 808q16 91 70.5 149.5t153.5 58.5q74 0 113.5 -36.5t39.5 -101.5q0 -25 -6 -54h-113q3 14 3 25q0 28 -14 43.5t-40 15.5q-36 0 -57 -24.5t-29 -74.5l-16 -90h-120z" />
    <glyph glyph-name="dvEyelash" horiz-adv-x="331" 
d="M16 740h434l-19 -108h-434zM321.5 333q-41.5 -11 -83.5 -11q-91 0 -151 41.5t-60 128.5q0 19 3 40h123q-2 -16 -2 -22q0 -49 34.5 -71.5t86.5 -22.5q25 0 44.5 4.5t41.5 12.5l36 -72q-31 -17 -72.5 -28z" />
    <glyph glyph-name="dvRashtrasign" horiz-adv-x="0" 
d="M-185 -97l-85 130l-131 -130h-139l185 179h172l123 -179h-125z" />
    <glyph glyph-name="dvK_RA" horiz-adv-x="976" 
d="M603 632l-30 -171q28 37 70 58.5t94 21.5q80 0 127 -51t47 -132q0 -21 -5 -51q-20 -106 -87.5 -164.5t-159.5 -58.5q-30 0 -64 8l18 101q12 -3 31 -3q48 0 85.5 32.5t46.5 87.5q2 18 2 25q0 43 -25.5 69.5t-69.5 26.5q-57 0 -92.5 -38t-45.5 -94v1l-53 -300h-124l30 168
l-23 -24l-207 -190h-140l154 137q-64 11 -100.5 56t-36.5 114q0 26 4 49q18 105 87 168t166 63q56 0 93.5 -21.5t53.5 -59.5l30 172h-454l19 108h1018l-20 -108h-439zM371.5 220q37.5 34 49.5 81l3 19q4 47 -21 79.5t-80 32.5q-38 0 -71.5 -19t-54 -53t-20.5 -78
q0 -45 28 -70.5t74 -25.5q55 0 92.5 34z" />
    <glyph glyph-name="dvKH_RA" horiz-adv-x="950" 
d="M1036 740l-19 -108h-111l-110 -632h-129l32 180q-54 -59 -141 -59q-18 0 -33 3q-17 -21 -36 -39l-233 -223h-140l1 6l145 133q-101 4 -157.5 56t-56.5 145q0 29 6 62l24 137h29q67 0 108.5 32t53.5 106l16 93h-259l19 108h991zM778 632h-363l-19 -110
q-17 -100 -72.5 -153t-133.5 -59l-10 -61q-3 -16 -3 -32q0 -51 31.5 -81t90.5 -30q46 0 81 19.5t59 49.5q-38 48 -38 118q0 26 4 47q15 87 75 139t141 52q93 0 129 -61zM668 238.5q28 19.5 43 49t15 59.5q0 36 -22 61t-66 25q-45 0 -79.5 -28t-43.5 -77q-2 -16 -2 -23
q0 -41 25 -63.5t65 -22.5q37 0 65 19.5z" />
    <glyph glyph-name="dvG_RA" horiz-adv-x="789" 
d="M874 740l-19 -108h-110l-111 -632h-126l36 208l-267 -228h-150l437 359l51 293h-146l-31 -180q-15 -90 -69.5 -144.5t-149.5 -54.5q-79 0 -124 39.5t-45 110.5q0 24 4 44l6 30h125l-6 -31q-2 -9 -2 -26q0 -26 12.5 -41.5t39.5 -15.5q64 0 79 84l32 185h-314l19 108h829z
" />
    <glyph glyph-name="dvGH_RA" horiz-adv-x="703" 
d="M769 632h-109l-111 -632h-130l33 189q-11 -13 -30 -29l-226 -211h-140l171 150q-77 4 -125.5 44t-48.5 106q0 16 3 32q11 58 51.5 97t92.5 50v3q-38 9 -60 34.5t-22 70.5q0 10 4 38l10 58h-107l19 108h745zM530 632h-269l-9 -52q-2 -18 -2 -25q0 -36 22 -54t72 -18h41
l-19 -104h-49q-62 0 -95.5 -29t-33.5 -73q0 -36 28.5 -54.5t75.5 -18.5q67 0 121 41.5t68 107.5z" />
    <glyph glyph-name="dvNG_RA" horiz-adv-x="687" 
d="M773 740l-19 -108h-235l-17 -92h1l-17 -91h-181q-37 0 -64.5 -13.5t-33.5 -46.5q-1 -4 -1 -11q0 -25 19 -37t50 -12h44q78 0 128.5 -35.5t50.5 -105.5q0 -16 -3 -36q-15 -79 -78 -124.5t-168 -45.5q-102 0 -164 44.5t-62 121.5q0 9 2 27h129q-1 -6 -1 -16q0 -37 27.5 -58
t76.5 -21q53 0 85 26.5t32 67.5q0 33 -25.5 48t-68.5 15h-38q-64 0 -115 30t-51 96q0 14 3 30q13 74 70.5 110.5t136.5 36.5h91l17 92h-367l19 108h727zM659.5 432.5q16.5 -16.5 16.5 -42.5q0 -8 -1 -12q-6 -29 -30 -49.5t-54 -20.5q-26 0 -42.5 16t-16.5 41q0 34 25.5 59
t58.5 25q27 0 43.5 -16.5zM332 -152l-85 130l-131 -130h-139l185 179h172l123 -179h-125z" />
    <glyph glyph-name="dvC_RA" horiz-adv-x="746" 
d="M813 632h-110l-112 -632h-129l32 180q-19 -20 -43 -38l-200 -188h-140l160 142q-68 7 -109.5 47t-41.5 105q0 17 3 35q8 41 29.5 75.5t55.5 57.5h-150l19 102h367l-19 -102h-39q-59 0 -99.5 -37.5t-40.5 -95.5q0 -41 30 -64t77 -23q65 1 111 45.5t60 114.5l49 276h-548
l19 108h788z" />
    <glyph glyph-name="dvCH_RA" horiz-adv-x="819" 
d="M687 632l-17 -96q49 -15 76.5 -54.5t27.5 -99.5q0 -21 -5 -51q-20 -113 -98.5 -189.5t-201.5 -104.5l102 -148h-132l-85 130l-131 -130h-132l148 142q-93 17 -146.5 64t-53.5 118q0 21 4 38q12 60 51 98t97 53v3q-81 19 -81 106q0 18 3 37l15 84h-104l19 108h862
l-19 -108h-199zM567 632h-309l-14 -78q-3 -15 -3 -28q0 -69 85 -69h21l-18 -104h-19q-65 0 -101 -34t-36 -83q0 -50 47 -76.5t137 -26.5q123 0 202 53.5t97 150.5q3 17 3 30q0 38 -18 59.5t-47 21.5q-33 0 -60 -24t-35 -69q-4 -19 -4 -43q0 -20 3 -40h-107q-3 18 -3 40
q0 24 5 57q12 70 54.5 112t102.5 56z" />
    <glyph glyph-name="dvJ_RA" horiz-adv-x="852" 
d="M919 632h-110l-111 -632h-121l33 190l-253 -233h-144l417 365l12 70h-154q-18 -96 -80.5 -153.5t-156.5 -57.5q-91 0 -140.5 46t-49.5 123q0 26 4 47l18 99h130l-17 -96q-3 -16 -3 -31q0 -36 18 -55.5t52 -19.5q41 0 69.5 28.5t36.5 77.5l17 96h275l24 136h-659l18 108
h894z" />
    <glyph glyph-name="dvJH_RA" horiz-adv-x="947" 
d="M1013 632h-111l-111 -632h-124l11 61l-170 -172h-130l325 312l5 31h-228q13 -28 13 -59q0 -16 -3 -34q-13 -67 -63.5 -109t-130.5 -42q-53 0 -85.5 19.5t-47.5 42.5l-23 -132h-122l44 252h116q-2 -38 22.5 -62.5t72.5 -24.5q49 0 75.5 26t26.5 64q0 30 -24 47t-70 17
q-38 0 -59 2q-62 3 -104 34t-42 93q0 15 3 31q13 75 71.5 110t138.5 35h91l16 90h-363l19 108h980zM321 329h401l53 303h-254l-21 -120l-12 -63h-182q-40 0 -69 -16.5t-29 -57.5q0 -24 19 -35t50 -11h44z" />
    <glyph glyph-name="dvNY_RA" horiz-adv-x="871" 
d="M937 632h-111l-111 -632h-126l17 98l-195 -184h-133l352 317l8 45h-136q-27 -87 -94 -138.5t-162 -51.5q-61 0 -107.5 21t-72 59t-25.5 87q0 13 1 20h122q2 -33 27.5 -55.5t67.5 -22.5q55 0 91 34.5t45 86.5q2 16 2 24q0 42 -24 68t-71 26q-43 0 -75.5 -22t-47.5 -56
h-122q22 84 90.5 136t165.5 52q87 0 140.5 -43t61.5 -116h138l44 247h-671l19 108h911z" />
    <glyph glyph-name="dvTT_RA" horiz-adv-x="645" 
d="M238 393.5q-54 -38.5 -67 -110.5q-3 -15 -3 -29q0 -51 35 -82.5t94 -31.5q68 0 116 41.5t59 108.5h124q-14 -78 -56.5 -137.5t-108.5 -92t-148 -32.5q-72 0 -128 26.5t-87 74.5t-31 112q0 25 4 46q21 122 111 188t225 66h4l16 91h-374l19 108h689l-19 -108h-188l-36 -200
h-123q-73 0 -127 -38.5zM369 -98l-85 130l-131 -130h-139l185 179h172l123 -179h-125z" />
    <glyph glyph-name="dvTTH_RA" horiz-adv-x="673" 
d="M448 632l-17 -95q79 -17 127.5 -70.5t48.5 -133.5q0 -21 -5 -49q-13 -76 -58.5 -132t-113 -85.5t-145.5 -29.5q-68 0 -122.5 26t-86 74t-31.5 112q0 26 4 47q17 102 87 164.5t168 78.5l17 93h-292l19 108h714l-19 -108h-295zM443 402.5q-34 32.5 -92 32.5
q-48 0 -88.5 -22.5t-64.5 -61.5t-24 -88q0 -53 34 -86t91 -33q48 0 89 22.5t65 62.5t24 89q0 52 -34 84.5zM375 -101l-85 130l-131 -130h-139l185 179h172l123 -179h-125z" />
    <glyph glyph-name="dvDD_RA" horiz-adv-x="570" 
d="M240.5 435.5q-27.5 -13.5 -33.5 -46.5q-1 -4 -1 -11q0 -25 19 -37t50 -12h44q78 0 128.5 -35.5t50.5 -105.5q0 -16 -3 -36q-15 -79 -78 -124.5t-168 -45.5q-102 0 -164 44.5t-62 121.5q0 9 2 27h129q-1 -6 -1 -16q0 -37 27.5 -58t76.5 -21q53 0 85 26.5t32 67.5
q0 33 -25.5 48t-68.5 15h-38q-64 0 -115 30t-51 96q0 14 3 30q13 74 70.5 110.5t136.5 36.5h88l17 92h-364l19 108h610l-19 -108h-121l-33 -183h-178q-37 0 -64.5 -13.5zM327 -152l-85 130l-131 -130h-139l185 179h172l123 -179h-125z" />
    <glyph glyph-name="dvDDH_RA" horiz-adv-x="650" 
d="M250 409.5q-67 -48.5 -83 -137.5q-3 -19 -3 -37q0 -65 42 -104.5t121 -39.5q63 0 108 29t54 78q1 5 1 14q0 27 -16.5 43.5t-43.5 16.5q-28 0 -49.5 -16.5t-26.5 -45.5q-2 -6 -2 -19h-92q0 20 3 35q11 65 62.5 101.5t126.5 36.5q68 0 109 -38t41 -100q0 -15 -3 -32
q-17 -90 -92.5 -143t-192.5 -53q-80 0 -142.5 29t-97.5 82t-35 123q0 21 5 51q16 85 64.5 144.5t119.5 89.5t155 30h27l15 85h-399l19 108h691l-20 -108h-170l-30 -174h-109q-90 0 -157 -48.5zM376 -136l-85 130l-131 -130h-139l185 179h172l123 -179h-125z" />
    <glyph glyph-name="dvNN_RA" horiz-adv-x="881" 
d="M947 632h-111l-111 -632h-121l37 210l-275 -251h-148l442 390l50 283h-157l-31 -180q-17 -97 -77.5 -155t-160.5 -58q-86 0 -135.5 47t-49.5 122q0 24 4 44l31 180h-106l19 108h919zM426 632h-166l-34 -192q-2 -14 -2 -20q0 -33 18.5 -52.5t51.5 -19.5q39 0 65 25.5
t33 66.5z" />
    <glyph glyph-name="dvT_RA" horiz-adv-x="704" 
d="M771 632h-110l-111 -632h-125l37 214l-254 -213h-169l1 5l437 340q-15 34 -48.5 54.5t-79.5 20.5q-65 0 -114.5 -39t-61.5 -109h-129q12 75 52 131.5t102 87.5t137 31q59 0 100.5 -22t65.5 -57l33 188h-509l19 108h746z" />
    <glyph glyph-name="dvTH_RA" horiz-adv-x="783" 
d="M868 740l-18 -108h-111l-112 -632h-129l36 205q-20 -31 -54 -57h2l-291 -218h-160l1 7l218 155q-91 12 -142 68.5t-51 146.5q0 29 6 62q9 44 16 64h91q88 0 145.5 27.5t69.5 95.5q2 12 2 17q0 29 -18 47.5t-49 18.5q-47 0 -73.5 -36.5t-24.5 -88.5h-117q2 65 31 118.5
t82 85t123 31.5q77 0 122.5 -41.5t45.5 -112.5q0 -23 -4 -43q-17 -101 -96 -156.5t-205 -55.5h-20q-2 -16 -2 -23q0 -54 38.5 -87.5t113.5 -33.5q55 0 104.5 24.5t84.5 72t46 111.5l59 336h240z" />
    <glyph glyph-name="dvD_RA" horiz-adv-x="613" 
d="M239.5 397q-46.5 -33 -57.5 -94q-2 -9 -2 -27q0 -44 27 -70t74 -26q45 0 82.5 28.5t46.5 80.5h119l-55 -315h-126l28 164q-8 -10 -22 -20l-203 -186h-140l170 151q-61 12 -98 59t-37 119q0 21 5 51q20 112 104 170.5t203 58.5h51l16 91h-397l19 108h652l-20 -108h-125
l-35 -202h-167q-66 0 -112.5 -33z" />
    <glyph glyph-name="dvDH_RA" horiz-adv-x="729" 
d="M796 632h-108l-111 -632h-130l33 187q-12 -15 -29 -29h2l-242 -226h-141l180 158h-1q-85 0 -139.5 38t-54.5 106q0 15 3 31q11 61 53 97.5t90 45.5l1 4q-43 12 -71 46t-28 88q0 16 3 35q13 78 68.5 123t134.5 45q74 0 115 -36t41 -99q0 -30 -11 -68h-96q5 20 5 33
q0 29 -15.5 45.5t-46.5 16.5q-38 0 -63.5 -29.5t-25.5 -70.5q0 -38 27.5 -57t74.5 -19h77l-18 -105h-53q-55 0 -88.5 -21.5t-39.5 -59.5q-2 -12 -2 -16q0 -34 30 -53t80 -19q78 0 137 49t75 128l47 264l18 108h238z" />
    <glyph glyph-name="dvN_RA" horiz-adv-x="850" 
d="M916 632h-110l-112 -632h-116l25 146l-240 -229h-142l398 355l21 120h-197q19 -33 19 -79q0 -16 -3 -36q-10 -59 -44.5 -102t-83.5 -65.5t-103 -22.5q-55 0 -98.5 22t-68 62t-24.5 90q0 13 4 39q17 97 88 148t173 51h357l23 133h-656l19 108h891zM337.5 370
q-22.5 21 -60.5 21q-50 0 -85.5 -33.5t-35.5 -83.5q0 -35 23 -56.5t63 -21.5q49 0 83.5 35t34.5 83q0 35 -22.5 56z" />
    <glyph glyph-name="dvP_RA" horiz-adv-x="669" 
d="M736 632h-111l-111 -632h-129l43 245l-20 -18l-258 -248h-140l223 202q-75 8 -114.5 57t-39.5 127q0 30 6 63l35 204h-94l18 108h710zM496 632h-246l-36 -204q-4 -28 -4 -40q0 -50 25 -77.5t76 -27.5q57 0 96.5 37t49.5 92z" />
    <glyph glyph-name="dvPH_RA" horiz-adv-x="985" 
d="M608 632l-31 -172q31 38 75.5 59.5t100.5 21.5q80 0 124.5 -48t44.5 -128q0 -26 -4 -49q-13 -72 -49 -124.5t-88 -80t-112 -27.5q-39 0 -68 10l17 99q22 -4 36 -4q49 0 85 33t46 88q3 14 3 27q0 42 -26 68t-69 26q-58 0 -96 -39t-49 -99l-52 -293h-129l42 242l-20 -18
l-246 -245h-140l219 204q-70 10 -107.5 57t-37.5 120q0 29 6 62l38 210h-96l19 108h1026l-19 -108h-443zM478 632h-228l-37 -210q-4 -20 -4 -43q0 -46 24 -71t73 -25q51 0 86 33.5t45 84.5z" />
    <glyph glyph-name="dvB_RA" horiz-adv-x="688" 
d="M773 740l-19 -108h-110l-111 -632h-124l27 152l-19 -19l-210 -192h-137l158 137q-83 7 -132 59.5t-49 134.5q0 25 4 48q12 70 52.5 122.5t100 81t129.5 28.5q56 0 96.5 -21t62.5 -57l28 158h-495l19 108h729zM237 432l204 -191q25 36 31 74q2 9 2 28q0 54 -33.5 89.5
t-95.5 35.5q-59 0 -108 -36zM160 284q0 -56 37.5 -88t95.5 -32q61 0 106 34l-205 191q-23 -33 -31 -75q-3 -16 -3 -30z" />
    <glyph glyph-name="dvBH_RA" horiz-adv-x="851" 
d="M936 740l-19 -108h-112l-111 -632h-116l26 148l-271 -231h-142l427 347l17 98h-168l-8 -46q-17 -101 -79.5 -159.5t-157.5 -58.5q-82 0 -130 41t-48 111q0 17 3 35q16 87 84 133.5t161 46.5h77l14 78q3 17 3 31q0 65 -59 65q-33 0 -55 -21.5t-29 -57.5q-2 -11 -2 -33
h-126q0 21 3 40q14 81 73 131.5t151 50.5q83 0 121.5 -42.5t38.5 -117.5q0 -27 -7 -69l-10 -55h168l48 275h235zM351 362h-76q-47 0 -79 -26t-32 -68q0 -30 20 -47t53 -17q42 0 69 28t36 77z" />
    <glyph glyph-name="dvM_RA" horiz-adv-x="821" 
d="M893 632h-110l-113 -632h-116l27 148l-272 -231h-143l428 347l19 110h-157l-10 -54q-18 -101 -80.5 -159.5t-158.5 -58.5q-81 0 -128.5 41t-47.5 110q0 17 3 36q15 91 83.5 140t162.5 49h77l27 154h-353l19 108h862zM660 632h-159l-27 -154h158zM339 374h-77
q-47 0 -79 -27.5t-32 -73.5q0 -30 20 -47.5t52 -17.5q42 0 69 28t36 77z" />
    <glyph glyph-name="dvY_RA" horiz-adv-x="750" 
d="M816 632h-111l-111 -632h-129l31 173q-26 -24 -46 -36l-264 -199h-157l1 8l215 153q-90 13 -140 69.5t-50 145.5q0 30 6 61q4 26 14 55h12q83 0 127.5 37t58.5 113l9 52h-256l19 108h791zM576 632h-167l-13 -74q-33 -180 -208 -196q-4 -17 -4 -37q0 -57 38 -90.5
t107 -33.5q74 0 128.5 45t71.5 116z" />
    <glyph glyph-name="dvL_RA" horiz-adv-x="906" 
d="M759 632l-20 -117q46 -21 72.5 -65t26.5 -107q0 -23 -5 -56q-19 -111 -96.5 -177.5t-196.5 -64.5l-36 2l20 112q16 -2 28 -2q59 0 99 37t51 99q3 18 3 33q0 42 -21.5 66.5t-63.5 24.5q-54 0 -87.5 -39t-44.5 -103l-4 -21h-107l3 21q5 27 5 46q0 44 -21 70t-63 26
q-52 0 -85.5 -34t-42.5 -90q-3 -18 -3 -34q0 -48 27.5 -75t80.5 -27q6 0 26 2l-21 -113q-12 -1 -29 -1q-104 0 -160 54.5t-56 144.5q0 24 5 56q19 112 90 171.5t166 59.5q69 0 107.5 -35.5t48.5 -89.5h2q24 45 63 77.5t94 43.5l18 105h-610l19 108h951l-19 -108h-214z
M665 -182l-85 130l-131 -130h-139l185 179h172l123 -179h-125z" />
    <glyph glyph-name="dvV_RA" horiz-adv-x="670" 
d="M755 740l-19 -108h-110l-111 -632h-126l28 162q-14 -17 -35 -33l-193 -174h-140l151 130q-72 11 -113 59t-41 124q0 26 6 56q19 101 90 161t173 60q57 0 96.5 -21.5t58.5 -59.5l29 168h-474l19 108h711zM390.5 216.5q41.5 38.5 52.5 91.5l1 7q1 7 1 21q0 45 -28.5 75.5
t-84.5 30.5q-42 0 -78.5 -20t-58 -56t-21.5 -82q0 -49 30.5 -77.5t81.5 -28.5q63 0 104.5 38.5z" />
    <glyph glyph-name="dvSH_RA" horiz-adv-x="840" 
d="M926 740l-19 -108h-110l-112 -632h-127l27 153l-58 33l-238 -195h-152l1 12l302 233l-121 68l-175 -120h-147l2 15l233 159q-101 75 -101 172q0 18 3 37q14 82 79 132t160 50q55 0 96.5 -20.5t63.5 -56t22 -79.5q0 -19 -2 -29q-10 -57 -40.5 -101t-93.5 -90l186 -106
l84 473h237zM250 535q0 -66 69 -105l10 -6q44 29 70.5 58.5t33.5 68.5q2 12 2 18q0 31 -21 52t-58 21q-39 0 -68.5 -25.5t-35.5 -61.5q-2 -14 -2 -20z" />
    <glyph glyph-name="dvSS_RA" horiz-adv-x="682" 
d="M746 632h-110l-111 -632h-127l41 234q-16 -19 -38 -33l-250 -222h-141l222 188q-74 11 -114 63.5t-40 133.5q0 31 6 64l36 204h-95l19 108h722zM509 632h-262l228 -191zM204 386q0 -52 28.5 -82.5t80.5 -30.5q46 0 82 22t56 60l-222 185l-21 -115q-4 -28 -4 -39z" />
    <glyph glyph-name="dvS_RA" horiz-adv-x="901" 
d="M956 632h-99l-111 -632h-112l30 170l-213 -231h-124l348 356l5 30h-496l-21 -123q-2 -18 -2 -26q0 -35 16 -55t49 -20q38 0 57.5 27.5t27.5 74.5h111q-10 -95 -64 -153.5t-145 -58.5q-83 0 -129 47t-46 123q0 26 4 47l36 204h81q80 0 123.5 38t55.5 106l13 76h-325
l18 108h931zM734 632h-254l-13 -76q-14 -77 -59 -131h290z" />
    <glyph glyph-name="dvH_RA" horiz-adv-x="585" 
d="M680 740l-19 -108h-133l-15 -87l-17 -93h-177q-35 0 -59 -14t-30 -46q-1 -4 -1 -12q0 -16 9 -28t24 -18q24 3 47 3q57 0 100.5 -19t67.5 -52.5t25 -74.5l-110 -101h-117l113 101q-10 21 -33 34.5t-58 13.5q-57 0 -97.5 -39.5t-52.5 -101.5q-3 -16 -3 -31q0 -47 28 -75.5
t77 -28.5q44 0 77 21.5t47 51.5h114q-21 -77 -88 -125.5t-164 -48.5q-65 0 -113 25t-74 70t-26 102q0 22 5 50q11 64 45.5 112.5t87.5 77.5q-26 16 -41 40t-15 55q0 16 2 24q10 60 60 93.5t125 33.5h99l15 87h-370l19 108h626z" />
    <glyph glyph-name="dvLL_RA" horiz-adv-x="969" 
d="M807 632l-21 -115q54 -20 84.5 -65t30.5 -108q0 -25 -4 -46q-12 -68 -50.5 -120t-94.5 -80.5t-120 -28.5q-69 0 -117 34t-62 91h-5q-33 -58 -90.5 -91.5t-127.5 -33.5q-85 0 -139 49.5t-54 132.5q0 26 4 47q12 69 51 122t95 81.5t119 28.5q68 0 114 -31.5t66 -92.5h4
q32 50 76 80.5t97 39.5l19 106h-662l19 108h1016l-19 -108h-229zM380.5 394q-26.5 26 -72.5 26q-39 0 -71.5 -18.5t-52 -52.5t-19.5 -76q0 -43 27.5 -68.5t73.5 -25.5q39 0 71.5 19t51 52t18.5 74q0 44 -26.5 70zM773 322q0 45 -27.5 71.5t-73.5 26.5q-53 0 -91.5 -34
t-48.5 -88q-2 -16 -2 -24q0 -43 27 -69t73 -26q52 0 91.5 33t49.5 86q2 16 2 24zM725 -65l-85 130l-131 -130h-139l185 179h172l123 -179h-125z" />
    <glyph glyph-name="dvKx_RA" horiz-adv-x="1034" 
d="M663 632l-30 -171q28 37 70 58.5t94 21.5q80 0 127 -51t47 -132q0 -21 -5 -51q-20 -106 -87.5 -164.5t-159.5 -58.5q-30 0 -64 8l18 101q12 -3 31 -3q48 0 85.5 32.5t46.5 87.5q2 18 2 25q0 43 -25.5 69.5t-69.5 26.5q-57 0 -92.5 -38t-45.5 -94v1l-53 -300h-124l30 168
l-23 -24l-207 -190h-140l154 137q-64 11 -100.5 56t-36.5 114q0 26 4 49q18 105 87 168t166 63q56 0 93.5 -21.5t53.5 -59.5l30 172h-519l19 108h1083l-20 -108h-439zM431.5 220q37.5 34 49.5 81l3 19q4 47 -21 79.5t-80 32.5q-38 0 -71.5 -19t-54 -53t-20.5 -78
q0 -45 28 -70.5t74 -25.5q55 0 92.5 34zM77.5 113.5q16.5 -16.5 16.5 -40.5q0 -33 -25 -57.5t-57 -24.5q-27 0 -43.5 16.5t-16.5 41.5q0 7 1 11q6 30 29.5 50t53.5 20q25 0 41.5 -16.5z" />
    <glyph glyph-name="dvKHx_RA" horiz-adv-x="950" 
d="M1036 740l-19 -108h-111l-110 -632h-129l32 180q-54 -59 -141 -59q-18 0 -33 3q-17 -21 -36 -39l-233 -223h-140l1 6l145 133q-101 4 -157.5 56t-56.5 145q0 29 6 62l24 137h29q67 0 108.5 32t53.5 106l16 93h-259l19 108h991zM778 632h-363l-19 -110
q-17 -100 -72.5 -153t-133.5 -59l-10 -61q-3 -16 -3 -32q0 -51 31.5 -81t90.5 -30q46 0 81 19.5t59 49.5q-38 48 -38 118q0 26 4 47q15 87 75 139t141 52q93 0 129 -61zM668 238.5q28 19.5 43 49t15 59.5q0 36 -22 61t-66 25q-45 0 -79.5 -28t-43.5 -77q-2 -16 -2 -23
q0 -41 25 -63.5t65 -22.5q37 0 65 19.5zM-33.9404 -123.653q-16.5352 16.0879 -16.5352 41.1143q0 33.0703 25.0264 57.2031t58.0977 24.1328q25.0254 0 41.5615 -16.0879q16.5352 -16.0889 16.5352 -41.1152q0 -33.0703 -24.5801 -57.2031
q-24.5791 -24.1328 -57.6494 -24.1328q-25.9199 0 -42.4561 16.0889z" />
    <glyph glyph-name="dvGx_RA" horiz-adv-x="789" 
d="M874 740l-19 -108h-110l-111 -632h-126l36 208l-267 -228h-150l437 359l51 293h-146l-31 -180q-15 -90 -69.5 -144.5t-149.5 -54.5q-79 0 -124 39.5t-45 110.5q0 24 4 44l6 30h125l-6 -31q-2 -9 -2 -26q0 -26 12.5 -41.5t39.5 -15.5q64 0 79 84l32 185h-314l19 108h829z
M3.05957 45.3467q-16.5352 16.0879 -16.5352 41.1143q0 33.0703 25.0264 57.2031t58.0977 24.1328q25.0254 0 41.5615 -16.0879q16.5352 -16.0889 16.5352 -41.1152q0 -33.0703 -24.5801 -57.2031q-24.5791 -24.1328 -57.6494 -24.1328q-25.9199 0 -42.4561 16.0889z" />
    <glyph glyph-name="dvJx_RA" horiz-adv-x="852" 
d="M919 632h-110l-111 -632h-121l33 190l-253 -233h-144l417 365l12 70h-154q-18 -96 -80.5 -153.5t-156.5 -57.5q-91 0 -140.5 46t-49.5 123q0 26 4 47l18 99h130l-17 -96q-3 -16 -3 -31q0 -36 18 -55.5t52 -19.5q41 0 69.5 28.5t36.5 77.5l17 96h275l24 136h-659l18 108
h894zM35.0596 -15.6533q-16.5352 16.0879 -16.5352 41.1143q0 33.0703 25.0264 57.2031t58.0977 24.1328q25.0254 0 41.5615 -16.0879q16.5352 -16.0889 16.5352 -41.1152q0 -33.0703 -24.5801 -57.2031q-24.5791 -24.1328 -57.6494 -24.1328q-25.9199 0 -42.4561 16.0889z
" />
    <glyph glyph-name="dvPHx_RA" horiz-adv-x="1045" 
d="M668 632l-31 -172q31 38 75.5 59.5t100.5 21.5q80 0 125 -48t45 -126q0 -21 -5 -51q-13 -72 -48.5 -124.5t-87.5 -80t-112 -27.5q-40 0 -69 10l18 99q22 -4 36 -4q49 0 85 33t46 88q2 9 2 26q0 43 -25 69t-69 26q-56 0 -93 -36t-51 -92l-53 -303h-129l42 243l-19 -18
l-248 -246h-140l220 204q-70 10 -107.5 57t-37.5 120q0 29 6 62l37 210h-170l19 108h1101l-19 -108h-444zM539 632h-228l-38 -210q-4 -20 -4 -41q0 -46 24 -72t73 -26q52 0 87 34.5t46 87.5zM79 85.5q-25 -24.5 -57 -24.5q-27 0 -43.5 16.5t-16.5 41.5q0 7 1 11
q6 30 29.5 50t53.5 20q25 0 41.5 -16.5t16.5 -40.5q0 -33 -25 -57.5z" />
    <glyph glyph-name="dvK_R" horiz-adv-x="716" 
d="M603 632l-30 -171q28 37 70 58.5t94 21.5q80 0 127 -50.5t47 -130.5q0 -22 -5 -50h-130q2 18 2 25q0 43 -25.5 69.5t-69.5 26.5q-57 0 -92.5 -38t-45.5 -94v1l-53 -300h-124l30 168q-14 -17 -23 -24l-207 -190h-140l157 137q-65 10 -103 55t-38 115q0 21 5 49
q18 105 87 168t166 63q56 0 93.5 -21.5t53.5 -59.5l30 172h-454l19 108h939l-19 -108h-361zM371.5 220q37.5 34 49.5 81l3 19q4 47 -21 79.5t-80 32.5q-38 0 -71.5 -19t-54 -53t-20.5 -78q0 -45 28 -70.5t74 -25.5q55 0 92.5 34z" />
    <glyph glyph-name="dvKH_R" horiz-adv-x="672" 
d="M180 249q-3 -16 -3 -32q0 -51 31.5 -81t90.5 -30q47 0 81.5 19t57.5 49q-41 43 -41 110q0 13 4 41q16 94 88 149.5t171 55.5q87 0 138.5 -43.5t51.5 -119.5q0 -22 -4 -42q-11 -64 -48 -110.5t-91.5 -71t-118.5 -24.5q-30 0 -56 6q-40 -59 -97 -93l-178 -170h-140l1 6
l140 128q-99 9 -154 64.5t-55 146.5q0 24 5 57l24 137h29q68 0 109 32t53 106l16 93h-259l19 108h875l-20 -108h-485l-19 -110q-17 -100 -72.5 -153t-133.5 -59zM538 239.5q25 -22.5 68 -22.5q56 0 92.5 36.5t36.5 96.5q0 38 -24.5 60.5t-67.5 22.5q-56 0 -93 -36.5
t-37 -95.5q0 -39 25 -61.5z" />
    <glyph glyph-name="dvG_R" horiz-adv-x="521" 
d="M662 740l-20 -108h-173l-31 -180q-15 -90 -69.5 -144.5t-149.5 -54.5q-79 0 -124 39.5t-45 110.5q0 24 4 44l6 30h125l-6 -31q-2 -9 -2 -26q0 -26 12.5 -41.5t39.5 -15.5q64 0 79 84l32 185h-314l19 108h617zM127 -20l469 386l-23 -134l-296 -252h-150z" />
    <glyph glyph-name="dvGH_R" horiz-adv-x="407" 
d="M251 580q-2 -18 -2 -25q0 -36 22 -54t71 -18h42l-18 -104h-52q-55 0 -86.5 -23.5t-38.5 -61.5q-1 -6 -1 -16q0 -36 28.5 -55t75.5 -19q75 0 126.5 43t63.5 111h110q-11 -58 -41.5 -108t-76.5 -85l-229 -216h-140l170 150h-2q-103 0 -161 41t-58 112q0 15 3 33
q10 58 50.5 95t91.5 48l1 3q-38 9 -60 34.5t-22 70.5q0 10 4 38l10 58h-107l19 108h615l-19 -108h-380z" />
    <glyph glyph-name="dvNG_R" horiz-adv-x="687" 
d="M773 740l-19 -108h-235l-17 -92h1l-17 -91h-181q-37 0 -64.5 -13.5t-33.5 -46.5q-1 -4 -1 -11q0 -25 19 -37t50 -12h44q78 0 128.5 -35.5t50.5 -105.5q0 -16 -3 -36q-11 -56 -46.5 -96.5t-93.5 -58.5l102 -149h-125l-85 130l-131 -130h-139l158 153q-53 20 -82.5 57.5
t-29.5 89.5q0 9 2 27h129q-1 -6 -1 -16q0 -37 27.5 -58t76.5 -21q53 0 85 26.5t32 67.5q0 33 -25.5 48t-68.5 15h-38q-64 0 -115 30t-51 96q0 14 3 30q13 74 70.5 110.5t136.5 36.5h91l17 92h-367l19 108h727zM659.5 432.5q16.5 -16.5 16.5 -42.5q0 -8 -1 -12
q-6 -29 -30 -49.5t-54 -20.5q-26 0 -42.5 16t-16.5 41q0 34 25.5 59t58.5 25q27 0 43.5 -16.5zM277 -175l93 -214h-132l-89 214h128z" />
    <glyph glyph-name="dvC_R" horiz-adv-x="455" 
d="M703 740l-19 -108h-659l19 108h659zM465.5 243q46.5 46 58.5 118h112q-10 -67 -42 -121.5t-81 -90.5l-204 -195h-140l150 134q-90 1 -145 41.5t-55 114.5q0 11 4 39q8 41 29.5 75.5t55.5 57.5h-150l18 102h367l-18 -102h-39q-59 0 -99.5 -37.5t-40.5 -95.5q0 -41 30 -64
t77 -23q66 1 112.5 47z" />
    <glyph glyph-name="dvCH_R" horiz-adv-x="819" 
d="M244 554q-3 -15 -3 -28q0 -69 85 -69h21l-18 -104h-19q-65 0 -101 -34t-36 -83q0 -50 47 -76.5t137 -26.5q123 0 202 53.5t97 150.5q3 17 3 30q0 38 -18 59.5t-47 21.5q-33 0 -60 -24t-35 -69q-4 -19 -4 -43q0 -20 3 -40h-107q-3 18 -3 40q0 24 5 57q16 88 77 131.5
t142 43.5q74 0 117.5 -42.5t43.5 -119.5q0 -27 -4 -51q-20 -113 -98.5 -189.5t-201.5 -104.5l102 -148h-132l-85 130l-131 -130h-132l148 142q-93 17 -146.5 64t-53.5 118q0 21 4 38q12 60 51 98t97 53v3q-81 19 -81 106q0 18 3 37l15 84h-104l19 108h862l-19 -108h-628z
" />
    <glyph glyph-name="dvJ_R" horiz-adv-x="554" 
d="M767 740l-18 -108h-722l19 108h721zM706 392h-218q-18 -96 -80.5 -153.5t-156.5 -57.5q-91 0 -140.5 46t-49.5 123q0 26 4 47l18 99h130l-17 -96q-3 -16 -3 -31q0 -36 18 -55.5t52 -19.5q41 0 69.5 28.5t36.5 77.5l17 96h339zM214 -43l492 432l-24 -132l-325 -300h-143z
" />
    <glyph glyph-name="dvJH_R" horiz-adv-x="564" 
d="M237 432.5q-29 -16.5 -29 -57.5q0 -24 19 -35t50 -11h44h413l-16 -97h-238q13 -28 13 -59q0 -16 -3 -34q-13 -67 -63.5 -109t-130.5 -42q-53 0 -85.5 19.5t-47.5 42.5l-23 -132h-122l44 252h116q-2 -38 22.5 -62.5t72.5 -24.5q49 0 75.5 26t26.5 64q0 30 -24 47t-70 17
q-38 0 -59 2q-62 3 -104 34t-42 93q0 15 3 31q13 75 71.5 110t138.5 35h91l16 90h-363l19 108h755l-19 -108h-267l-21 -120l-12 -63h-182q-40 0 -69 -16.5zM376 -111l337 320l-22 -132l-184 -188h-131z" />
    <glyph glyph-name="dvNY_R" horiz-adv-x="537" 
d="M758 740l-19 -108h-713l19 108h713zM453.5 501q53.5 -43 61.5 -116h180l-19 -109l-24 -135l-241 -227h-133l396 362h-172q-27 -87 -94 -138.5t-162 -51.5q-61 0 -107.5 21t-72 59t-25.5 87q0 13 1 20h122q2 -33 27.5 -55.5t67.5 -22.5q55 0 91 34.5t45 86.5q2 16 2 24
q0 42 -24 68t-71 26q-43 0 -75.5 -22t-47.5 -56h-122q22 84 90.5 136t165.5 52q87 0 140.5 -43z" />
    <glyph glyph-name="dvTT_R" horiz-adv-x="645" 
d="M238 393.5q-54 -38.5 -67 -110.5q-3 -15 -3 -29q0 -51 35 -82.5t94 -31.5q68 0 116 41.5t59 108.5h124q-16 -89 -68.5 -153t-132.5 -91l99 -144h-125l-82 126h-4h-3l-127 -126h-139l152 147q-61 25 -95 75t-34 117q0 25 4 46q21 122 111 188t225 66h4l16 91h-374l19 108
h689l-19 -108h-188l-36 -200h-123q-73 0 -127 -38.5zM319 -121l92 -214h-132l-89 214h129z" />
    <glyph glyph-name="dvTTH_R" horiz-adv-x="673" 
d="M448 632l-17 -95q79 -17 127.5 -70.5t48.5 -133.5q0 -21 -5 -49q-15 -86 -70.5 -146t-137.5 -85l106 -154h-125l-85 130l-131 -130h-139l161 156q-63 23 -99.5 73.5t-36.5 120.5q0 26 4 47q17 102 87 164.5t168 78.5l17 93h-292l19 108h714l-19 -108h-295zM443 402.5
q-34 32.5 -92 32.5q-48 0 -88.5 -22.5t-64.5 -61.5t-24 -88q0 -53 34 -86t91 -33q48 0 89 22.5t65 62.5t24 89q0 52 -34 84.5zM320 -124l92 -214h-132l-88 214h128z" />
    <glyph glyph-name="dvDD_R" horiz-adv-x="570" 
d="M240.5 435.5q-27.5 -13.5 -33.5 -46.5q-1 -4 -1 -11q0 -25 19 -37t50 -12h44q78 0 128.5 -35.5t50.5 -105.5q0 -16 -3 -36q-11 -58 -47 -98t-97 -58l101 -148h-125l-85 130l-131 -130h-139l159 154q-51 20 -79.5 57.5t-28.5 88.5q0 9 2 27h129q-1 -6 -1 -16
q0 -37 27.5 -58t76.5 -21q53 0 85 26.5t32 67.5q0 33 -25.5 48t-68.5 15h-38q-64 0 -115 30t-51 96q0 14 3 30q13 74 70.5 110.5t136.5 36.5h88l17 92h-364l19 108h610l-19 -108h-121l-33 -183h-178q-37 0 -64.5 -13.5zM272 -175l92 -214h-131l-89 214h128z" />
    <glyph glyph-name="dvDDH_R" horiz-adv-x="650" 
d="M250 409.5q-67 -48.5 -83 -137.5q-3 -19 -3 -37q0 -65 42 -104.5t121 -39.5q63 0 108 29t54 78q1 5 1 14q0 27 -16.5 43.5t-43.5 16.5q-28 0 -49.5 -16.5t-26.5 -45.5q-2 -6 -2 -19h-92q0 20 3 35q11 65 62.5 101.5t126.5 36.5q68 0 109 -38t41 -100q0 -15 -3 -32
q-14 -72 -64.5 -120.5t-131.5 -66.5l98 -143h-125l-85 130l-131 -130h-139l163 157q-68 28 -106.5 82t-38.5 128q0 22 5 52q16 85 64.5 144.5t119.5 89.5t155 30h27l15 85h-399l19 108h691l-20 -108h-170l-30 -174h-109q-90 0 -157 -48.5zM327 -160l93 -214h-132l-89 214
h128z" />
    <glyph glyph-name="dvNN_R" horiz-adv-x="577" 
d="M739 740l-19 -108h-167l-31 -180q-17 -97 -77.5 -155t-160.5 -58q-86 0 -135.5 47t-49.5 122q0 24 4 44l31 180h-106l19 108h692zM426 632h-166l-34 -192q-2 -14 -2 -20q0 -33 18.5 -52.5t51.5 -19.5q39 0 65 25.5t33 66.5zM218 -41l455 401l-26 -146l-281 -255h-148z
" />
    </font>
</defs>
</svg>
